   0
SECTION
   2
HEADER
   9
$ACADVER
   1
AC1015
   9
$DWGCODEPAGE
   3
ANSI_932
   9
$LIMMIN
  10
0.0
  20
0.0
   9
$LIMMAX
  10
 8400.0000000000
  20
 5940.0000000000
   9
$EXTMIN
  10
0.0
  20
0.0
  30
0.0
   9
$EXTMAX
  10
 8400.0000000000
  20
 5940.0000000000
  30
0.0
   9
$LTSCALE
  40
 168.00000000000
   9
$HANDSEED
   5
4E8
   0
ENDSEC
   0
SECTION
   2
TABLES
  0
TABLE
  2
VPORT
  5
8
100
AcDbSymbolTable
 70
     1
  0
VPORT
  5
4E7
100
AcDbSymbolTableRecord
100
AcDbViewportTableRecord
  2
*ACTIVE
 70
     0
 10
0.0
 20
0.0
 11
1.0
 21
1.0
  12
 4200.0000000000
  22
 2970.0000000000
 13
0.0
 23
0.0
 14
1.0
 24
1.0
 15
0.0
 25
0.0
 16
0.0
 26
0.0
 36
1.0
 17
0.0
 27
0.0
 37
0.0
  40
 8400.0000000000
  41
 1.4787878787879
 42
50.0
 43
0.0
 44
0.0
 50
0.0
 51
0.0
 71
     0
 72
   100
 73
     1
 74
     1
 75
     0
 76
     0
 77
     0
 78
     0
  0
ENDTAB
  0
TABLE
  2
LTYPE
  5
5
100
AcDbSymbolTable
 70
    25
  0
LTYPE
  5
12
100
AcDbSymbolTableRecord
100
AcDbLinetypeTableRecord
  2
BYBLOCK
 70
     0
  3

 72
    65
 73
     0
 40
0.0
  0
LTYPE
  5
13
100
AcDbSymbolTableRecord
100
AcDbLinetypeTableRecord
  2
BYLAYER
 70
     0
  3

 72
    65
 73
     0
 40
0.0
  0
LTYPE
  5
14
100
AcDbSymbolTableRecord
100
AcDbLinetypeTableRecord
  2
CONTINUOUS
 70
     0
  3
Solid line
 72
    65
 73
     0
 40
0.0
  0
LTYPE
  5
20
100
AcDbSymbolTableRecord
100
AcDbLinetypeTableRecord
  2
BORDER
 70
     0
  3
__ __ . __ __ . __ __ . __ __ . __ __ . __ __ .
 72
    65
 73
     6
 40
1.75
 49
0.5
 74
     0
 49
-0.25
 74
     0
 49
0.5
 74
     0
 49
-0.25
 74
     0
 49
0.0
 74
     0
 49
-0.25
 74
     0
  0
LTYPE
  5
21
100
AcDbSymbolTableRecord
100
AcDbLinetypeTableRecord
  2
BORDER2
 70
     0
  3
__.__.__.__.__.__.__.__.__.__.__.__.__.__.__.__
 72
    65
 73
     6
 40
0.875
 49
0.25
 74
     0
 49
-0.125
 74
     0
 49
0.25
 74
     0
 49
-0.125
 74
     0
 49
0.0
 74
     0
 49
-0.125
 74
     0
  0
LTYPE
  5
22
100
AcDbSymbolTableRecord
100
AcDbLinetypeTableRecord
  2
BORDERX2
 70
     0
  3
____  ____  .  ____  ____  .  ____  ____  .  __
 72
    65
 73
     6
 40
3.5
 49
1.0
 74
     0
 49
-0.5
 74
     0
 49
1.0
 74
     0
 49
-0.5
 74
     0
 49
0.0
 74
     0
 49
-0.5
 74
     0
  0
LTYPE
  5
23
100
AcDbSymbolTableRecord
100
AcDbLinetypeTableRecord
  2
CENTER
 70
     0
  3
____ _ ____ _ ____ _ ____ _ ____ _ ____ _ ____ 
 72
    65
 73
     4
 40
2.0
 49
1.25
 74
     0
 49
-0.25
 74
     0
 49
0.25
 74
     0
 49
-0.25
 74
     0
  0
LTYPE
  5
24
100
AcDbSymbolTableRecord
100
AcDbLinetypeTableRecord
  2
CENTER2
 70
     0
  3
___ _ ___ _ ___ _ ___ _ ___ _ ___ _ ___ _ ___ _
 72
    65
 73
     4
 40
1.125
 49
0.75
 74
     0
 49
-0.125
 74
     0
 49
0.125
 74
     0
 49
-0.125
 74
     0
  0
LTYPE
  5
25
100
AcDbSymbolTableRecord
100
AcDbLinetypeTableRecord
  2
CENTERX2
 70
     0
  3
________  __  ________  __  ________  __  _____
 72
    65
 73
     4
 40
4.0
 49
2.5
 74
     0
 49
-0.5
 74
     0
 49
0.5
 74
     0
 49
-0.5
 74
     0
  0
LTYPE
  5
26
100
AcDbSymbolTableRecord
100
AcDbLinetypeTableRecord
  2
DASHDOT
 70
     0
  3
__ . __ . __ . __ . __ . __ . __ . __ . __ . __
 72
    65
 73
     4
 40
1.0
 49
0.5
 74
     0
 49
-0.25
 74
     0
 49
0.0
 74
     0
 49
-0.25
 74
     0
  0
LTYPE
  5
27
100
AcDbSymbolTableRecord
100
AcDbLinetypeTableRecord
  2
DASHDOT2
 70
     0
  3
_._._._._._._._._._._._._._._._._._._._._._._._
 72
    65
 73
     4
 40
0.5
 49
0.25
 74
     0
 49
-0.125
 74
     0
 49
0.0
 74
     0
 49
-0.125
 74
     0
  0
LTYPE
  5
28
100
AcDbSymbolTableRecord
100
AcDbLinetypeTableRecord
  2
DASHDOTX2
 70
     0
  3
____  .  ____  .  ____  .  ____  .  ____  .  __
 72
    65
 73
     4
 40
2.0
 49
1.0
 74
     0
 49
-0.5
 74
     0
 49
0.0
 74
     0
 49
-0.5
 74
     0
  0
LTYPE
  5
29
100
AcDbSymbolTableRecord
100
AcDbLinetypeTableRecord
  2
DASHED
 70
     0
  3
__ __ __ __ __ __ __ __ __ __ __ __ __ __ __ __
 72
    65
 73
     2
 40
0.75
 49
0.5
 74
     0
 49
-0.25
 74
     0
  0
LTYPE
  5
2A
100
AcDbSymbolTableRecord
100
AcDbLinetypeTableRecord
  2
DASHED2
 70
     0
  3
_ _ _ _ _ _ _ _ _ _ _ _ _ _ _ _ _ _ _ _ _ _ _ _
 72
    65
 73
     2
 40
0.375
 49
0.25
 74
     0
 49
-0.125
 74
     0
  0
LTYPE
  5
2B
100
AcDbSymbolTableRecord
100
AcDbLinetypeTableRecord
  2
DASHEDX2
 70
     0
  3
____  ____  ____  ____  ____  ____  ____  ____ 
 72
    65
 73
     2
 40
1.5
 49
1.0
 74
     0
 49
-0.5
 74
     0
  0
LTYPE
  5
2C
100
AcDbSymbolTableRecord
100
AcDbLinetypeTableRecord
  2
DIVIDE
 70
     0
  3
____ . . ____ . . ____ . . ____ . . ____ . . __
 72
    65
 73
     6
 40
1.25
 49
0.5
 74
     0
 49
-0.25
 74
     0
 49
0.0
 74
     0
 49
-0.25
 74
     0
 49
0.0
 74
     0
 49
-0.25
 74
     0
  0
LTYPE
  5
2D
100
AcDbSymbolTableRecord
100
AcDbLinetypeTableRecord
  2
DIVIDE2
 70
     0
  3
__..__..__..__..__..__..__..__..__..__..__..__.
 72
    65
 73
     6
 40
0.625
 49
0.25
 74
     0
 49
-0.125
 74
     0
 49
0.0
 74
     0
 49
-0.125
 74
     0
 49
0.0
 74
     0
 49
-0.125
 74
     0
  0
LTYPE
  5
2E
100
AcDbSymbolTableRecord
100
AcDbLinetypeTableRecord
  2
DIVIDEX2
 70
     0
  3
________  .  .  ________  .  .  ________  .  . 
 72
    65
 73
     6
 40
2.5
 49
1.0
 74
     0
 49
-0.5
 74
     0
 49
0.0
 74
     0
 49
-0.5
 74
     0
 49
0.0
 74
     0
 49
-0.5
 74
     0
  0
LTYPE
  5
2F
100
AcDbSymbolTableRecord
100
AcDbLinetypeTableRecord
  2
DOT
 70
     0
  3
. . . . . . . . . . . . . . . . . . . . . . . .
 72
    65
 73
     2
 40
0.25
 49
0.0
 74
     0
 49
-0.25
 74
     0
  0
LTYPE
  5
30
100
AcDbSymbolTableRecord
100
AcDbLinetypeTableRecord
  2
DOT2
 70
     0
  3
...............................................
 72
    65
 73
     2
 40
0.125
 49
0.0
 74
     0
 49
-0.125
 74
     0
  0
LTYPE
  5
31
100
AcDbSymbolTableRecord
100
AcDbLinetypeTableRecord
  2
DOTX2
 70
     0
  3
.  .  .  .  .  .  .  .  .  .  .  .  .  .  .  . 
 72
    65
 73
     2
 40
0.5
 49
0.0
 74
     0
 49
-0.5
 74
     0
  0
LTYPE
  5
32
100
AcDbSymbolTableRecord
100
AcDbLinetypeTableRecord
  2
HIDDEN
 70
     0
  3
__ __ __ __ __ __ __ __ __ __ __ __ __ __ __ __
 72
    65
 73
     2
 40
0.375
 49
0.25
 74
     0
 49
-0.125
 74
     0
  0
LTYPE
  5
33
100
AcDbSymbolTableRecord
100
AcDbLinetypeTableRecord
  2
HIDDEN2
 70
     0
  3
_ _ _ _ _ _ _ _ _ _ _ _ _ _ _ _ _ _ _ _ _ _ _ _
 72
    65
 73
     2
 40
0.1875
 49
0.125
 74
     0
 49
-0.0625
 74
     0
  0
LTYPE
  5
34
100
AcDbSymbolTableRecord
100
AcDbLinetypeTableRecord
  2
HIDDENX2
 70
     0
  3
____ ____ ____ ____ ____ ____ ____ ____ ____ __
 72
    65
 73
     2
 40
0.75
 49
0.5
 74
     0
 49
-0.25
 74
     0
  0
LTYPE
  5
35
100
AcDbSymbolTableRecord
100
AcDbLinetypeTableRecord
  2
PHANTOM
 70
     0
  3
______  __  __  ______  __  __  ______  __  __ 
 72
    65
 73
     6
 40
2.5
 49
1.25
 74
     0
 49
-0.25
 74
     0
 49
0.25
 74
     0
 49
-0.25
 74
     0
 49
0.25
 74
     0
 49
-0.25
 74
     0
  0
LTYPE
  5
36
100
AcDbSymbolTableRecord
100
AcDbLinetypeTableRecord
  2
PHANTOM2
 70
     0
  3
___ _ _ ___ _ _ ___ _ _ ___ _ _ ___ _ _ ___ _ _
 72
    65
 73
     6
 40
1.25
 49
0.625
 74
     0
 49
-0.125
 74
     0
 49
0.125
 74
     0
 49
-0.125
 74
     0
 49
0.125
 74
     0
 49
-0.125
 74
     0
  0
LTYPE
  5
37
100
AcDbSymbolTableRecord
100
AcDbLinetypeTableRecord
  2
PHANTOMX2
 70
     0
  3
____________    ____    ____    ____________   
 72
    65
 73
     6
 40
5.0
 49
2.5
 74
     0
 49
-0.5
 74
     0
 49
0.5
 74
     0
 49
-0.5
 74
     0
 49
0.5
 74
     0
 49
-0.5
 74
     0
  0
ENDTAB
   0
TABLE
   2
LAYER
   5
2
 100
AcDbSymbolTable
  70
2
   0
LAYER
   5
E
 100
AcDbSymbolTableRecord
 100
AcDbLayerTableRecord
   2
0
  70
0
  62
7
   6
CONTINUOUS
 390
30
   0
LAYER
   5
39
 100
AcDbSymbolTableRecord
 100
AcDbLayerTableRecord
   2
LEVEL001
  70
0
  62
7
   6
CONTINUOUS
 390
30
   0
ENDTAB
  0
TABLE
  2
STYLE
  5
3
100
AcDbSymbolTable
  70
7
  0
STYLE
  5
F
100
AcDbSymbolTableRecord
100
AcDbTextStyleTableRecord
  2
STANDARD
 70
     0
 40
0.0
 41
1.0
 50
0.0
 71
     0
 42
0.2
  3
TXT
  4
BIGFONT
  0
STYLE
  5
38
100
AcDbSymbolTableRecord
100
AcDbTextStyleTableRecord
  2
STANDARD1
 70
     4
 40
0.0
 41
1.0
 50
0.0
 71
     0
 42
0.2
  3
TXT
  4
BIGFONT
   0
STYLE
   5
3A
 100
AcDbSymbolTableRecord
 100
AcDbTextStyleTableRecord
   2
GMM001
  70
0
  40
0.0
  41
 1.0000000000000
  50
0.0
  71
     0
  42
1.0
   3

   4

1001
ACAD
1000
ＭＳ ゴシック
1071
32817
   0
STYLE
   5
3B
 100
AcDbSymbolTableRecord
 100
AcDbTextStyleTableRecord
   2
GMM002
  70
0
  40
0.0
  41
 1.0000000000000
  50
0.0
  71
     0
  42
1.0
   3
txt.shx
   4
bigfont.shx
   0
STYLE
   5
3C
 100
AcDbSymbolTableRecord
 100
AcDbTextStyleTableRecord
   2
GMM003
  70
0
  40
0.0
  41
 0.75000000000000
  50
0.0
  71
     0
  42
1.0
   3
txt.shx
   4
bigfont.shx
   0
STYLE
   5
3D
 100
AcDbSymbolTableRecord
 100
AcDbTextStyleTableRecord
   2
GMM004
  70
0
  40
0.0
  41
 0.66666666666667
  50
0.0
  71
     0
  42
1.0
   3

   4

1001
ACAD
1000
ＭＳ ゴシック
1071
32817
   0
STYLE
   5
3E
 100
AcDbSymbolTableRecord
 100
AcDbTextStyleTableRecord
   2
GMM005
  70
0
  40
0.0
  41
 1.5000000000000
  50
0.0
  71
     0
  42
1.0
   3

   4

1001
ACAD
1000
ＭＳ ゴシック
1071
32817
   0
ENDTAB
  0
TABLE
  2
VIEW
  5
6
100
AcDbSymbolTable
 70
     0
  0
ENDTAB
  0
TABLE
  2
UCS
  5
7
100
AcDbSymbolTable
 70
     0
  0
ENDTAB
  0
TABLE
  2
APPID
  5
9
100
AcDbSymbolTable
 70
     1
  0
APPID
  5
10
100
AcDbSymbolTableRecord
100
AcDbRegAppTableRecord
  2
ACAD
 70
     0
  0
ENDTAB
   0
TABLE
   2
DIMSTYLE
   5
A
 100
AcDbSymbolTable
  70
9
 100
AcDbDimStyleTable
  0
DIMSTYLE
105
1D
100
AcDbSymbolTableRecord
100
AcDbDimStyleTableRecord
  2
STANDARD
 70
     0
  3

  4

  5

  6

  7

 40
1.0
 41
0.18
 42
0.0625
 43
0.38
 44
0.18
 45
0.0
 46
0.0
 47
0.0
 48
0.0
140
0.18
141
0.09
142
0.0
143
25.4
144
1.0
145
0.0
146
1.0
147
0.09
 71
     0
 72
     0
 73
     1
 74
     1
 75
     0
 76
     0
 77
     0
 78
     0
170
     0
171
     2
172
     0
173
     0
174
     0
175
     0
176
     0
177
     0
178
     0
270
     2
271
     4
272
     4
273
     2
274
     2
340
F
275
     0
280
     0
281
     0
282
     0
283
     1
284
     0
285
     0
286
     0
287
     3
288
     0
   0
DIMSTYLE
 105
3F
 100
AcDbSymbolTableRecord
 100
AcDbDimStyleTableRecord
   2
GMM001
  70
0
   3

   4

   5

   6
_OPEN
   7
_OPEN
  40
 1.0000000000000
  41
 30.000000000000
  42
 30.000000000000
  43
 160.00000000000
  44
 30.000000000000
  45
0.0
  46
0.0
  47
0.0
  48
0.0
 140
 66.000000000000
 141
 20.000000000000
 142
0.0
 143
 0.39400000000000E-1
 144
 1.0000000000000
 145
0.0
 146
 0.75757575757576
 147
0.0
  71
0
  72
0
  73
0
  74
0
  75
0
  76
0
  77
0
  78
8
 170
0
 171
2
 172
1
 173
1
 174
0
 175
0
 176
1
 177
1
 178
7
 270
2
 271
1
 272
0
 273
2
 274
2
 340
3B
 275
0
 280
0
 281
0
 282
0
 283
1
 284
0
 285
0
 286
0
 287
3
 288
1
   0
DIMSTYLE
 105
40
 100
AcDbSymbolTableRecord
 100
AcDbDimStyleTableRecord
   2
GMM002
  70
0
   3

   4

   5

   6
_OPEN
   7
_OPEN
  40
 1.0000000000000
  41
 42.000000000000
  42
 30.000000000000
  43
 160.00000000000
  44
 30.000000000000
  45
0.0
  46
0.0
  47
0.0
  48
0.0
 140
 60.000000000000
 141
 20.000000000000
 142
0.0
 143
 0.39400000000000E-1
 144
 1.0000000000000
 145
0.0
 146
 0.83333333333333
 147
0.0
  71
0
  72
0
  73
0
  74
0
  75
0
  76
0
  77
0
  78
8
 170
0
 171
2
 172
1
 173
1
 174
0
 175
0
 176
1
 177
1
 178
7
 270
2
 271
1
 272
0
 273
2
 274
2
 340
3B
 275
0
 280
0
 281
0
 282
0
 283
1
 284
0
 285
0
 286
0
 287
3
 288
1
   0
DIMSTYLE
 105
41
 100
AcDbSymbolTableRecord
 100
AcDbDimStyleTableRecord
   2
GMM003
  70
0
   3

   4

   5

   6
_OPEN
   7
_OPEN
  40
 1.0000000000000
  41
 42.000000000000
  42
 30.000000000000
  43
 160.00000000000
  44
 30.000000000000
  45
0.0
  46
0.0
  47
0.0
  48
0.0
 140
 60.000000000000
 141
 20.000000000000
 142
0.0
 143
 0.39400000000000E-1
 144
 1.0000000000000
 145
0.0
 146
 0.83333333333333
 147
 25.714285714286
  71
0
  72
0
  73
0
  74
0
  75
0
  76
1
  77
3
  78
8
 170
0
 171
2
 172
1
 173
1
 174
0
 175
0
 176
6
 177
6
 178
1
 270
2
 271
6
 272
0
 273
2
 274
2
 340
3B
 275
1
 280
0
 281
0
 282
0
 283
1
 284
0
 285
0
 286
0
 287
3
 288
0
   0
DIMSTYLE
 105
42
 100
AcDbSymbolTableRecord
 100
AcDbDimStyleTableRecord
   2
GMM004
  70
0
   3
□<>
   4

   5

   6
_OPEN
   7
_OPEN
  40
 1.0000000000000
  41
 42.000000000000
  42
 30.000000000000
  43
 160.00000000000
  44
 30.000000000000
  45
0.0
  46
0.0
  47
0.0
  48
0.0
 140
 60.000000000000
 141
 20.000000000000
 142
0.0
 143
 0.39400000000000E-1
 144
 1.0000000000000
 145
0.0
 146
 0.83333333333333
 147
 14.000000000000
  71
0
  72
0
  73
0
  74
0
  75
0
  76
0
  77
3
  78
8
 170
0
 171
2
 172
1
 173
1
 174
0
 175
0
 176
6
 177
6
 178
1
 270
2
 271
1
 272
0
 273
2
 274
2
 340
3B
 275
0
 280
0
 281
0
 282
0
 283
1
 284
0
 285
0
 286
0
 287
3
 288
1
   0
DIMSTYLE
 105
43
 100
AcDbSymbolTableRecord
 100
AcDbDimStyleTableRecord
   2
GMM005
  70
0
   3

   4

   5

   6
_OPEN
   7
_OPEN
  40
 1.0000000000000
  41
 42.000000000000
  42
 30.000000000000
  43
 160.00000000000
  44
 30.000000000000
  45
0.0
  46
0.0
  47
0.0
  48
0.0
 140
 60.000000000000
 141
 20.000000000000
 142
0.0
 143
 0.39400000000000E-1
 144
 1.0000000000000
 145
0.0
 146
 0.83333333333333
 147
 25.714285714286
  71
0
  72
0
  73
0
  74
0
  75
0
  76
0
  77
3
  78
8
 170
0
 171
2
 172
1
 173
1
 174
0
 175
0
 176
6
 177
6
 178
1
 270
2
 271
6
 272
0
 273
2
 274
2
 340
3B
 275
1
 280
0
 281
0
 282
0
 283
1
 284
0
 285
0
 286
0
 287
3
 288
0
   0
DIMSTYLE
 105
44
 100
AcDbSymbolTableRecord
 100
AcDbDimStyleTableRecord
   2
GMM006
  70
0
   3

   4

   5

   6
_OPEN
   7
_OPEN
  40
 1.0000000000000
  41
 42.000000000000
  42
 30.000000000000
  43
 160.00000000000
  44
 30.000000000000
  45
0.0
  46
0.0
  47
0.0
  48
0.0
 140
 60.000000000000
 141
 20.000000000000
 142
0.0
 143
 0.39400000000000E-1
 144
 1.0000000000000
 145
0.0
 146
 0.83333333333333
 147
 25.714285714286
  71
0
  72
0
  73
0
  74
0
  75
0
  76
0
  77
3
  78
8
 170
0
 171
2
 172
1
 173
1
 174
0
 175
0
 176
6
 177
6
 178
1
 270
2
 271
6
 272
0
 273
2
 274
2
 340
3B
 275
1
 280
0
 281
0
 282
0
 283
1
 284
0
 285
0
 286
0
 287
3
 288
0
   0
DIMSTYLE
 105
45
 100
AcDbSymbolTableRecord
 100
AcDbDimStyleTableRecord
   2
GMM007
  70
0
   3

   4

   5

   6
_OPEN
   7
_OPEN
  40
 1.0000000000000
  41
 42.000000000000
  42
 30.000000000000
  43
 160.00000000000
  44
 30.000000000000
  45
0.0
  46
0.0
  47
0.0
  48
0.0
 140
 60.000000000000
 141
 20.000000000000
 142
0.0
 143
 0.39400000000000E-1
 144
 1.0000000000000
 145
0.0
 146
 0.83333333333333
 147
 14.000000000000
  71
0
  72
0
  73
0
  74
0
  75
0
  76
0
  77
3
  78
8
 170
0
 171
2
 172
1
 173
1
 174
0
 175
0
 176
6
 177
6
 178
1
 270
2
 271
0
 272
0
 273
2
 274
2
 340
3B
 275
0
 280
0
 281
0
 282
0
 283
1
 284
0
 285
0
 286
0
 287
3
 288
1
   0
ENDTAB
  0
TABLE
  2
BLOCK_RECORD
  5
1
100
AcDbSymbolTable
 70
     0
  0
BLOCK_RECORD
  5
18
100
AcDbSymbolTableRecord
100
AcDbBlockTableRecord
  2
*MODEL_SPACE
  0
BLOCK_RECORD
  5
15
100
AcDbSymbolTableRecord
100
AcDbBlockTableRecord
  2
*PAPER_SPACE
   0
BLOCK_RECORD
   5
46
 100
AcDbSymbolTableRecord
 100
AcDbBlockTableRecord
   2
*D15
   0
BLOCK_RECORD
   5
47
 100
AcDbSymbolTableRecord
 100
AcDbBlockTableRecord
   2
*D16
   0
BLOCK_RECORD
   5
48
 100
AcDbSymbolTableRecord
 100
AcDbBlockTableRecord
   2
*D17
   0
BLOCK_RECORD
   5
49
 100
AcDbSymbolTableRecord
 100
AcDbBlockTableRecord
   2
*D18
   0
BLOCK_RECORD
   5
4A
 100
AcDbSymbolTableRecord
 100
AcDbBlockTableRecord
   2
*D19
   0
BLOCK_RECORD
   5
4B
 100
AcDbSymbolTableRecord
 100
AcDbBlockTableRecord
   2
*D20
   0
BLOCK_RECORD
   5
4C
 100
AcDbSymbolTableRecord
 100
AcDbBlockTableRecord
   2
*D21
   0
BLOCK_RECORD
   5
4D
 100
AcDbSymbolTableRecord
 100
AcDbBlockTableRecord
   2
*D22
   0
BLOCK_RECORD
   5
4E
 100
AcDbSymbolTableRecord
 100
AcDbBlockTableRecord
   2
*D23
   0
BLOCK_RECORD
   5
4F
 100
AcDbSymbolTableRecord
 100
AcDbBlockTableRecord
   2
*D24
   0
BLOCK_RECORD
   5
50
 100
AcDbSymbolTableRecord
 100
AcDbBlockTableRecord
   2
_ARCHTICK
   0
BLOCK_RECORD
   5
51
 100
AcDbSymbolTableRecord
 100
AcDbBlockTableRecord
   2
_BOXBLANK
   0
BLOCK_RECORD
   5
52
 100
AcDbSymbolTableRecord
 100
AcDbBlockTableRecord
   2
_BOXFILLED
   0
BLOCK_RECORD
   5
53
 100
AcDbSymbolTableRecord
 100
AcDbBlockTableRecord
   2
_CLOSED
   0
BLOCK_RECORD
   5
54
 100
AcDbSymbolTableRecord
 100
AcDbBlockTableRecord
   2
_CLOSEDBLANK
   0
BLOCK_RECORD
   5
55
 100
AcDbSymbolTableRecord
 100
AcDbBlockTableRecord
   2
_DATUMBLANK
   0
BLOCK_RECORD
   5
56
 100
AcDbSymbolTableRecord
 100
AcDbBlockTableRecord
   2
_DATUMFILLED
   0
BLOCK_RECORD
   5
57
 100
AcDbSymbolTableRecord
 100
AcDbBlockTableRecord
   2
_DOT
   0
BLOCK_RECORD
   5
58
 100
AcDbSymbolTableRecord
 100
AcDbBlockTableRecord
   2
_DOTBLANK
   0
BLOCK_RECORD
   5
59
 100
AcDbSymbolTableRecord
 100
AcDbBlockTableRecord
   2
_DOTSMALL
   0
BLOCK_RECORD
   5
5A
 100
AcDbSymbolTableRecord
 100
AcDbBlockTableRecord
   2
_INTEGRAL
   0
BLOCK_RECORD
   5
5B
 100
AcDbSymbolTableRecord
 100
AcDbBlockTableRecord
   2
_NONE
   0
BLOCK_RECORD
   5
5C
 100
AcDbSymbolTableRecord
 100
AcDbBlockTableRecord
   2
_OBLIQUE
   0
BLOCK_RECORD
   5
5D
 100
AcDbSymbolTableRecord
 100
AcDbBlockTableRecord
   2
_OPEN
   0
BLOCK_RECORD
   5
5E
 100
AcDbSymbolTableRecord
 100
AcDbBlockTableRecord
   2
_OPEN30
   0
BLOCK_RECORD
   5
5F
 100
AcDbSymbolTableRecord
 100
AcDbBlockTableRecord
   2
_OPEN90
   0
BLOCK_RECORD
   5
60
 100
AcDbSymbolTableRecord
 100
AcDbBlockTableRecord
   2
_ORIGIN
   0
ENDTAB
   0
ENDSEC
  0
SECTION
  2
BLOCKS
  0
BLOCK
  5
19
100
AcDbEntity
  8
0
100
AcDbBlockBegin
  2
*MODEL_SPACE
 70
     0
 10
0.0
 20
0.0
 30
0.0
  3
*MODEL_SPACE
  1

  0
ENDBLK
  5
1A
100
AcDbEntity
  8
0
100
AcDbBlockEnd
  0
BLOCK
  5
16
100
AcDbEntity
 67
     1
  8
0
100
AcDbBlockBegin
  2
*PAPER_SPACE
 70
     0
 10
0.0
 20
0.0
 30
0.0
  3
*PAPER_SPACE
  1

  0
ENDBLK
  5
17
100
AcDbEntity
 67
     1
  8
0
100
AcDbBlockEnd
   0
BLOCK
   5
61
 100
AcDbEntity
   8
0
 100
AcDbBlockBegin
   2
_ARCHTICK
  70
0
  10
0.0
  20
0.0
  30
0.0
   3
_ARCHTICK
   0
POLYLINE
   5
62
 100
AcDbEntity
   8
0
 370
-2
   6
BYBLOCK
  62
0
 100
AcDb2dPolyline
  66
1
  10
0.0
  20
0.0
  30
0.0
  70
1
  40
 0.15000000000000
  41
 0.15000000000000
   0
VERTEX
   5
63
 100
AcDbEntity
   8
0
   6
BYBLOCK
  62
0
 100
AcDbVertex
 100
AcDb2dVertex
  10
-0.50000000000000
  20
-0.50000000000000
  30
0.0
  40
 0.15000000000000
  41
 0.15000000000000
   0
VERTEX
   5
64
 100
AcDbEntity
   8
0
   6
BYBLOCK
  62
0
 100
AcDbVertex
 100
AcDb2dVertex
  10
 0.50000000000000
  20
 0.50000000000000
  30
0.0
  40
 0.15000000000000
  41
 0.15000000000000
   0
SEQEND
   5
65
 100
AcDbEntity
   8
0
   6
BYBLOCK
  62
0
   0
ENDBLK
   5
66
 100
AcDbEntity
   8
0
 100
AcDbBlockEnd
   0
BLOCK
   5
67
 100
AcDbEntity
   8
0
 100
AcDbBlockBegin
   2
_OBLIQUE
  70
0
  10
0.0
  20
0.0
  30
0.0
   3
_OBLIQUE
   0
LINE
   5
68
 100
AcDbEntity
   8
0
 370
-2
 100
AcDbLine
   6
BYBLOCK
  62
0
  10
-0.50000000000000
  20
-0.50000000000000
  30
0.0
  11
 0.50000000000000
  21
 0.50000000000000
  31
0.0
   0
ENDBLK
   5
69
 100
AcDbEntity
   8
0
 100
AcDbBlockEnd
   0
BLOCK
   5
6A
 100
AcDbEntity
   8
0
 100
AcDbBlockBegin
   2
_BOXBLANK
  70
0
  10
0.0
  20
0.0
  30
0.0
   3
_BOXBLANK
   0
LINE
   5
6B
 100
AcDbEntity
   8
0
 370
-2
 100
AcDbLine
   6
BYBLOCK
  62
0
  10
-0.50000000000000
  20
-0.50000000000000
  30
0.0
  11
 0.50000000000000
  21
-0.50000000000000
  31
0.0
   0
LINE
   5
6C
 100
AcDbEntity
   8
0
 370
-2
 100
AcDbLine
   6
BYBLOCK
  62
0
  10
 0.50000000000000
  20
-0.50000000000000
  30
0.0
  11
 0.50000000000000
  21
 0.50000000000000
  31
0.0
   0
LINE
   5
6D
 100
AcDbEntity
   8
0
 370
-2
 100
AcDbLine
   6
BYBLOCK
  62
0
  10
 0.50000000000000
  20
 0.50000000000000
  30
0.0
  11
-0.50000000000000
  21
 0.50000000000000
  31
0.0
   0
LINE
   5
6E
 100
AcDbEntity
   8
0
 370
-2
 100
AcDbLine
   6
BYBLOCK
  62
0
  10
-0.50000000000000
  20
 0.50000000000000
  30
0.0
  11
-0.50000000000000
  21
-0.50000000000000
  31
0.0
   0
LINE
   5
6F
 100
AcDbEntity
   8
0
 370
-2
 100
AcDbLine
   6
BYBLOCK
  62
0
  10
-0.50000000000000
  20
0.0
  30
0.0
  11
-1.0000000000000
  21
0.0
  31
0.0
   0
ENDBLK
   5
70
 100
AcDbEntity
   8
0
 100
AcDbBlockEnd
   0
BLOCK
   5
71
 100
AcDbEntity
   8
0
 100
AcDbBlockBegin
   2
_BOXFILLED
  70
0
  10
0.0
  20
0.0
  30
0.0
   3
_BOXFILLED
   0
SOLID
   5
72
 100
AcDbEntity
   8
0
 100
AcDbTrace
   6
BYBLOCK
  62
0
  10
-0.50000000000000
  20
 0.50000000000000
  30
0.0
  11
 0.50000000000000
  21
 0.50000000000000
  31
0.0
  12
-0.50000000000000
  22
-0.50000000000000
  32
0.0
  13
 0.50000000000000
  23
-0.50000000000000
  33
0.0
   0
LINE
   5
73
 100
AcDbEntity
   8
0
 370
-2
 100
AcDbLine
   6
BYBLOCK
  62
0
  10
-0.50000000000000
  20
0.0
  30
0.0
  11
-1.0000000000000
  21
0.0
  31
0.0
   0
ENDBLK
   5
74
 100
AcDbEntity
   8
0
 100
AcDbBlockEnd
   0
BLOCK
   5
75
 100
AcDbEntity
   8
0
 100
AcDbBlockBegin
   2
_CLOSED
  70
0
  10
0.0
  20
0.0
  30
0.0
   3
_CLOSED
   0
LINE
   5
76
 100
AcDbEntity
   8
0
 370
-2
 100
AcDbLine
   6
BYBLOCK
  62
0
  10
-1.0000000000000
  20
 0.16666666666667
  30
0.0
  11
0.0
  21
0.0
  31
0.0
   0
LINE
   5
77
 100
AcDbEntity
   8
0
 370
-2
 100
AcDbLine
   6
BYBLOCK
  62
0
  10
0.0
  20
0.0
  30
0.0
  11
-1.0000000000000
  21
-0.16666666666667
  31
0.0
   0
LINE
   5
78
 100
AcDbEntity
   8
0
 370
-2
 100
AcDbLine
   6
BYBLOCK
  62
0
  10
-1.0000000000000
  20
 0.16666666666667
  30
0.0
  11
-1.0000000000000
  21
-0.16666666666667
  31
0.0
   0
LINE
   5
79
 100
AcDbEntity
   8
0
 370
-2
 100
AcDbLine
   6
BYBLOCK
  62
0
  10
0.0
  20
0.0
  30
0.0
  11
-1.0000000000000
  21
0.0
  31
0.0
   0
ENDBLK
   5
7A
 100
AcDbEntity
   8
0
 100
AcDbBlockEnd
   0
BLOCK
   5
7B
 100
AcDbEntity
   8
0
 100
AcDbBlockBegin
   2
_OPEN
  70
0
  10
0.0
  20
0.0
  30
0.0
   3
_OPEN
   0
LINE
   5
7C
 100
AcDbEntity
   8
0
 370
-2
 100
AcDbLine
   6
BYBLOCK
  62
0
  10
-1.0000000000000
  20
 0.16666666666667
  30
0.0
  11
0.0
  21
0.0
  31
0.0
   0
LINE
   5
7D
 100
AcDbEntity
   8
0
 370
-2
 100
AcDbLine
   6
BYBLOCK
  62
0
  10
0.0
  20
0.0
  30
0.0
  11
-1.0000000000000
  21
-0.16666666666667
  31
0.0
   0
LINE
   5
7E
 100
AcDbEntity
   8
0
 370
-2
 100
AcDbLine
   6
BYBLOCK
  62
0
  10
0.0
  20
0.0
  30
0.0
  11
-1.0000000000000
  21
0.0
  31
0.0
   0
ENDBLK
   5
7F
 100
AcDbEntity
   8
0
 100
AcDbBlockEnd
   0
BLOCK
   5
80
 100
AcDbEntity
   8
0
 100
AcDbBlockBegin
   2
_OPEN30
  70
0
  10
0.0
  20
0.0
  30
0.0
   3
_OPEN30
   0
LINE
   5
81
 100
AcDbEntity
   8
0
 370
-2
 100
AcDbLine
   6
BYBLOCK
  62
0
  10
-1.0000000000000
  20
 0.26794919243110
  30
0.0
  11
0.0
  21
0.0
  31
0.0
   0
LINE
   5
82
 100
AcDbEntity
   8
0
 370
-2
 100
AcDbLine
   6
BYBLOCK
  62
0
  10
0.0
  20
0.0
  30
0.0
  11
-1.0000000000000
  21
-0.26794919243110
  31
0.0
   0
LINE
   5
83
 100
AcDbEntity
   8
0
 370
-2
 100
AcDbLine
   6
BYBLOCK
  62
0
  10
0.0
  20
0.0
  30
0.0
  11
-1.0000000000000
  21
0.0
  31
0.0
   0
ENDBLK
   5
84
 100
AcDbEntity
   8
0
 100
AcDbBlockEnd
   0
BLOCK
   5
85
 100
AcDbEntity
   8
0
 100
AcDbBlockBegin
   2
_OPEN90
  70
0
  10
0.0
  20
0.0
  30
0.0
   3
_OPEN90
   0
LINE
   5
86
 100
AcDbEntity
   8
0
 370
-2
 100
AcDbLine
   6
BYBLOCK
  62
0
  10
-0.50000000000000
  20
 0.50000000000000
  30
0.0
  11
0.0
  21
0.0
  31
0.0
   0
LINE
   5
87
 100
AcDbEntity
   8
0
 370
-2
 100
AcDbLine
   6
BYBLOCK
  62
0
  10
0.0
  20
0.0
  30
0.0
  11
-0.50000000000000
  21
-0.50000000000000
  31
0.0
   0
LINE
   5
88
 100
AcDbEntity
   8
0
 370
-2
 100
AcDbLine
   6
BYBLOCK
  62
0
  10
0.0
  20
0.0
  30
0.0
  11
-1.0000000000000
  21
0.0
  31
0.0
   0
ENDBLK
   5
89
 100
AcDbEntity
   8
0
 100
AcDbBlockEnd
   0
BLOCK
   5
8A
 100
AcDbEntity
   8
0
 100
AcDbBlockBegin
   2
_CLOSEDBLANK
  70
0
  10
0.0
  20
0.0
  30
0.0
   3
_CLOSEDBLANK
   0
LINE
   5
8B
 100
AcDbEntity
   8
0
 370
-2
 100
AcDbLine
   6
BYBLOCK
  62
0
  10
-1.0000000000000
  20
 0.16666666666667
  30
0.0
  11
0.0
  21
0.0
  31
0.0
   0
LINE
   5
8C
 100
AcDbEntity
   8
0
 370
-2
 100
AcDbLine
   6
BYBLOCK
  62
0
  10
0.0
  20
0.0
  30
0.0
  11
-1.0000000000000
  21
-0.16666666666667
  31
0.0
   0
LINE
   5
8D
 100
AcDbEntity
   8
0
 370
-2
 100
AcDbLine
   6
BYBLOCK
  62
0
  10
-1.0000000000000
  20
 0.16666666666667
  30
0.0
  11
-1.0000000000000
  21
-0.16666666666667
  31
0.0
   0
ENDBLK
   5
8E
 100
AcDbEntity
   8
0
 100
AcDbBlockEnd
   0
BLOCK
   5
8F
 100
AcDbEntity
   8
0
 100
AcDbBlockBegin
   2
_DOT
  70
0
  10
0.0
  20
0.0
  30
0.0
   3
_DOT
   0
POLYLINE
   5
90
 100
AcDbEntity
   8
0
 370
-2
   6
BYBLOCK
  62
0
 100
AcDb2dPolyline
  66
1
  10
0.0
  20
0.0
  30
0.0
  70
1
  40
 0.50000000000000
  41
 0.50000000000000
   0
VERTEX
   5
91
 100
AcDbEntity
   8
0
   6
BYBLOCK
  62
0
 100
AcDbVertex
 100
AcDb2dVertex
  10
-0.25000000000000
  20
0.0
  30
0.0
  42
 1.0000000000000
  40
 0.50000000000000
  41
 0.50000000000000
   0
VERTEX
   5
92
 100
AcDbEntity
   8
0
   6
BYBLOCK
  62
0
 100
AcDbVertex
 100
AcDb2dVertex
  10
 0.25000000000000
  20
0.0
  30
0.0
  42
 1.0000000000000
  40
 0.50000000000000
  41
 0.50000000000000
   0
SEQEND
   5
93
 100
AcDbEntity
   8
0
   6
BYBLOCK
  62
0
   0
LINE
   5
94
 100
AcDbEntity
   8
0
 370
-2
 100
AcDbLine
   6
BYBLOCK
  62
0
  10
-0.50000000000000
  20
0.0
  30
0.0
  11
-1.0000000000000
  21
0.0
  31
0.0
   0
ENDBLK
   5
95
 100
AcDbEntity
   8
0
 100
AcDbBlockEnd
   0
BLOCK
   5
96
 100
AcDbEntity
   8
0
 100
AcDbBlockBegin
   2
_DOTSMALL
  70
0
  10
0.0
  20
0.0
  30
0.0
   3
_DOTSMALL
   0
POLYLINE
   5
97
 100
AcDbEntity
   8
0
 370
-2
   6
BYBLOCK
  62
0
 100
AcDb2dPolyline
  66
1
  10
0.0
  20
0.0
  30
0.0
  70
1
  40
 0.50000000000000
  41
 0.50000000000000
   0
VERTEX
   5
98
 100
AcDbEntity
   8
0
   6
BYBLOCK
  62
0
 100
AcDbVertex
 100
AcDb2dVertex
  10
-0.62500000000000E-1
  20
0.0
  30
0.0
  42
 1.0000000000000
  40
 0.50000000000000
  41
 0.50000000000000
   0
VERTEX
   5
99
 100
AcDbEntity
   8
0
   6
BYBLOCK
  62
0
 100
AcDbVertex
 100
AcDb2dVertex
  10
 0.62500000000000E-1
  20
0.0
  30
0.0
  42
 1.0000000000000
  40
 0.50000000000000
  41
 0.50000000000000
   0
SEQEND
   5
9A
 100
AcDbEntity
   8
0
   6
BYBLOCK
  62
0
   0
ENDBLK
   5
9B
 100
AcDbEntity
   8
0
 100
AcDbBlockEnd
   0
BLOCK
   5
9C
 100
AcDbEntity
   8
0
 100
AcDbBlockBegin
   2
_DATUMBLANK
  70
0
  10
0.0
  20
0.0
  30
0.0
   3
_DATUMBLANK
   0
LINE
   5
9D
 100
AcDbEntity
   8
0
 370
-2
 100
AcDbLine
   6
BYBLOCK
  62
0
  10
0.0
  20
 0.57735027000000
  30
0.0
  11
-1.0000000000000
  21
0.0
  31
0.0
   0
LINE
   5
9E
 100
AcDbEntity
   8
0
 370
-2
 100
AcDbLine
   6
BYBLOCK
  62
0
  10
-1.0000000000000
  20
0.0
  30
0.0
  11
0.0
  21
-0.57735027000000
  31
0.0
   0
LINE
   5
9F
 100
AcDbEntity
   8
0
 370
-2
 100
AcDbLine
   6
BYBLOCK
  62
0
  10
0.0
  20
-0.57735027000000
  30
0.0
  11
0.0
  21
 0.57735027000000
  31
0.0
   0
ENDBLK
   5
A0
 100
AcDbEntity
   8
0
 100
AcDbBlockEnd
   0
BLOCK
   5
A1
 100
AcDbEntity
   8
0
 100
AcDbBlockBegin
   2
_DATUMFILLED
  70
0
  10
0.0
  20
0.0
  30
0.0
   3
_DATUMFILLED
   0
SOLID
   5
A2
 100
AcDbEntity
   8
0
 100
AcDbTrace
   6
BYBLOCK
  62
0
  10
0.0
  20
 0.57735027000000
  30
0.0
  11
-1.0000000000000
  21
0.0
  31
0.0
  12
0.0
  22
-0.57735027000000
  32
0.0
  13
0.0
  23
-0.57735027000000
  33
0.0
   0
ENDBLK
   5
A3
 100
AcDbEntity
   8
0
 100
AcDbBlockEnd
   0
BLOCK
   5
A4
 100
AcDbEntity
   8
0
 100
AcDbBlockBegin
   2
_ORIGIN
  70
0
  10
0.0
  20
0.0
  30
0.0
   3
_ORIGIN
   0
CIRCLE
   5
A5
 100
AcDbEntity
   8
0
 370
-2
 100
AcDbCircle
   6
BYBLOCK
  62
0
  10
0.0
  20
0.0
  30
0.0
  40
 0.50000000000000
   0
LINE
   5
A6
 100
AcDbEntity
   8
0
 370
-2
 100
AcDbLine
   6
BYBLOCK
  62
0
  10
0.0
  20
0.0
  30
0.0
  11
-1.0000000000000
  21
0.0
  31
0.0
   0
ENDBLK
   5
A7
 100
AcDbEntity
   8
0
 100
AcDbBlockEnd
   0
BLOCK
   5
A8
 100
AcDbEntity
   8
0
 100
AcDbBlockBegin
   2
_NONE
  70
0
  10
0.0
  20
0.0
  30
0.0
   3
_NONE
   0
CIRCLE
   5
A9
 100
AcDbEntity
   8
0
 370
-2
 100
AcDbCircle
   6
BYBLOCK
  62
0
  10
0.0
  20
0.0
  30
0.0
  40
 0.25000000000000
   0
ENDBLK
   5
AA
 100
AcDbEntity
   8
0
 100
AcDbBlockEnd
   0
BLOCK
   5
AB
 100
AcDbEntity
   8
0
 100
AcDbBlockBegin
   2
_DOTBLANK
  70
0
  10
0.0
  20
0.0
  30
0.0
   3
_DOTBLANK
   0
CIRCLE
   5
AC
 100
AcDbEntity
   8
0
 370
-2
 100
AcDbCircle
   6
BYBLOCK
  62
0
  10
0.0
  20
0.0
  30
0.0
  40
 0.50000000000000
   0
LINE
   5
AD
 100
AcDbEntity
   8
0
 370
-2
 100
AcDbLine
   6
BYBLOCK
  62
0
  10
-0.50000000000000
  20
0.0
  30
0.0
  11
-1.0000000000000
  21
0.0
  31
0.0
   0
ENDBLK
   5
AE
 100
AcDbEntity
   8
0
 100
AcDbBlockEnd
   0
BLOCK
   5
AF
 100
AcDbEntity
   8
0
 100
AcDbBlockBegin
   2
_INTEGRAL
  70
0
  10
0.0
  20
0.0
  30
0.0
   3
_INTEGRAL
   0
ARC
   5
B0
 100
AcDbEntity
   8
0
 370
-2
   6
BYBLOCK
  62
0
 100
AcDbCircle
  10
 0.44488800000000
  20
-0.91335000000000E-1
  30
0.0
  40
 0.45416700000000
 100
AcDbArc
  50
 102.00000000000
  51
 168.00000000000
   0
ARC
   5
B1
 100
AcDbEntity
   8
0
 370
-2
   6
BYBLOCK
  62
0
 100
AcDbCircle
  10
-0.44488800000000
  20
 0.91335000000000E-1
  30
0.0
  40
 0.45416700000000
 100
AcDbArc
  50
 282.00000000000
  51
 348.00000000000
   0
ENDBLK
   5
B2
 100
AcDbEntity
   8
0
 100
AcDbBlockEnd
   0
BLOCK
   5
B3
 100
AcDbEntity
   8
0
 100
AcDbBlockBegin
   2
*D15
  70
65
  10
0.0
  20
0.0
  30
0.0
   3
*D15
   0
LINE
   5
B4
 100
AcDbEntity
   8
0
 370
13
 100
AcDbLine
   6
CONTINUOUS
  62
6
  10
 3236.8643930240
  20
 3976.7804477550
  30
0.0
  11
 3236.8643930240
  21
 2676.7804477570
  31
0.0
   0
LINE
   5
B5
 100
AcDbEntity
   8
0
 370
13
 100
AcDbLine
   6
CONTINUOUS
  62
6
  10
 3236.8643930240
  20
 2706.7804477570
  30
0.0
  11
 3036.8643930240
  21
 2706.7804477570
  31
0.0
   0
LINE
   5
B6
 100
AcDbEntity
   8
0
 370
13
 100
AcDbLine
   6
CONTINUOUS
  62
6
  10
 2836.8643930240
  20
 2706.7804477570
  30
0.0
  11
 3036.8643930240
  21
 2706.7804477570
  31
0.0
   0
INSERT
   5
B7
 100
AcDbEntity
   8
0
   6
CONTINUOUS
  62
6
 100
AcDbBlockReference
   2
_OPEN
  10
 3236.8643930240
  20
 2706.7804477570
  30
0.0
  41
 42.000000000000
  42
 42.000000000000
  43
 42.000000000000
  50
0.0
   0
INSERT
   5
B8
 100
AcDbEntity
   8
0
   6
CONTINUOUS
  62
6
 100
AcDbBlockReference
   2
_OPEN
  10
 2836.8643930240
  20
 2706.7804477570
  30
0.0
  41
 42.000000000000
  42
 42.000000000000
  43
 42.000000000000
  50
 180.00000000000
   0
MTEXT
   5
B9
 100
AcDbEntity
   8
0
 370
13
  62
1
 100
AcDbMText
  10
 3036.8643930240
  20
 2732.4947334713
  30
0.0
  40
 60.000000000000
  41
0.0
  71
8
  72
1
   1
\A1;400
   7
GMM002
   0
ENDBLK
   5
BA
 100
AcDbEntity
   8
0
 100
AcDbBlockEnd
   0
BLOCK
   5
BB
 100
AcDbEntity
   8
0
 100
AcDbBlockBegin
   2
*D16
  70
65
  10
0.0
  20
0.0
  30
0.0
   3
*D16
   0
LINE
   5
BC
 100
AcDbEntity
   8
LEVEL001
 370
13
 100
AcDbLine
   6
CONTINUOUS
  62
6
  10
 1286.8643930240
  20
 576.78044775701
  30
0.0
  11
 1286.8643930240
  21
 376.78044775701
  31
0.0
   0
LINE
   5
BD
 100
AcDbEntity
   8
LEVEL001
 370
13
 100
AcDbLine
   6
CONTINUOUS
  62
6
  10
 1786.8643930240
  20
 576.78044775701
  30
0.0
  11
 1786.8643930240
  21
 376.78044775701
  31
0.0
   0
LINE
   5
BE
 100
AcDbEntity
   8
LEVEL001
 370
13
 100
AcDbLine
   6
CONTINUOUS
  62
6
  10
 1286.8643930240
  20
 406.78044775701
  30
0.0
  11
 1536.8643930240
  21
 406.78044775701
  31
0.0
   0
LINE
   5
BF
 100
AcDbEntity
   8
LEVEL001
 370
13
 100
AcDbLine
   6
CONTINUOUS
  62
6
  10
 1786.8643930240
  20
 406.78044775701
  30
0.0
  11
 1536.8643930240
  21
 406.78044775701
  31
0.0
   0
INSERT
   5
C0
 100
AcDbEntity
   8
LEVEL001
   6
CONTINUOUS
  62
6
 100
AcDbBlockReference
   2
_OPEN
  10
 1286.8643930240
  20
 406.78044775701
  30
0.0
  41
 42.000000000000
  42
 42.000000000000
  43
 42.000000000000
  50
 180.00000000000
   0
INSERT
   5
C1
 100
AcDbEntity
   8
LEVEL001
   6
CONTINUOUS
  62
6
 100
AcDbBlockReference
   2
_OPEN
  10
 1786.8643930240
  20
 406.78044775701
  30
0.0
  41
 42.000000000000
  42
 42.000000000000
  43
 42.000000000000
  50
0.0
   0
MTEXT
   5
C2
 100
AcDbEntity
   8
LEVEL001
 370
13
  62
1
 100
AcDbMText
  10
 1536.8643930240
  20
 420.78044775701
  30
0.0
  40
 60.000000000000
  41
0.0
  71
8
  72
1
   1
\A1;□500
   7
GMM002
   0
ENDBLK
   5
C3
 100
AcDbEntity
   8
0
 100
AcDbBlockEnd
   0
BLOCK
   5
C4
 100
AcDbEntity
   8
0
 100
AcDbBlockBegin
   2
*D17
  70
65
  10
0.0
  20
0.0
  30
0.0
   3
*D17
   0
LINE
   5
C5
 100
AcDbEntity
   8
0
 370
13
 100
AcDbLine
   6
CONTINUOUS
  62
6
  10
 1256.8643930240
  20
 706.78044775701
  30
0.0
  11
 506.86439302396
  21
 706.78044775701
  31
0.0
   0
LINE
   5
C6
 100
AcDbEntity
   8
0
 370
13
 100
AcDbLine
   6
CONTINUOUS
  62
6
  10
 1256.8643930240
  20
 606.78044775701
  30
0.0
  11
 506.86439302396
  21
 606.78044775701
  31
0.0
   0
LINE
   5
C7
 100
AcDbEntity
   8
0
 370
13
 100
AcDbLine
   6
CONTINUOUS
  62
6
  10
 536.86439302396
  20
 706.78044775701
  30
0.0
  11
 536.86439302396
  21
 656.78044775701
  31
0.0
   0
LINE
   5
C8
 100
AcDbEntity
   8
0
 370
13
 100
AcDbLine
   6
CONTINUOUS
  62
6
  10
 536.86439302396
  20
 606.78044775701
  30
0.0
  11
 536.86439302396
  21
 656.78044775701
  31
0.0
   0
INSERT
   5
C9
 100
AcDbEntity
   8
0
   6
CONTINUOUS
  62
6
 100
AcDbBlockReference
   2
_OPEN
  10
 536.86439302396
  20
 706.78044775701
  30
0.0
  41
 42.000000000000
  42
 42.000000000000
  43
 42.000000000000
  50
 90.000000000000
   0
INSERT
   5
CA
 100
AcDbEntity
   8
0
   6
CONTINUOUS
  62
6
 100
AcDbBlockReference
   2
_OPEN
  10
 536.86439302396
  20
 606.78044775701
  30
0.0
  41
 42.000000000000
  42
 42.000000000000
  43
 42.000000000000
  50
 270.00000000000
   0
MTEXT
   5
CB
 100
AcDbEntity
   8
0
 370
13
  62
1
 100
AcDbMText
  10
 511.15010730968
  20
 656.78044775701
  30
0.0
  40
 60.000000000000
  41
0.0
  71
8
  72
1
   1
\A1;100
   7
GMM002
  11
0.0
  21
 1.0000000000000
  31
0.0
   0
ENDBLK
   5
CC
 100
AcDbEntity
   8
0
 100
AcDbBlockEnd
   0
BLOCK
   5
CD
 100
AcDbEntity
   8
0
 100
AcDbBlockBegin
   2
*D18
  70
65
  10
0.0
  20
0.0
  30
0.0
   3
*D18
   0
LINE
   5
CE
 100
AcDbEntity
   8
0
 370
13
 100
AcDbLine
   6
CONTINUOUS
  62
6
  10
 1256.8643930240
  20
 706.78044775701
  30
0.0
  11
 506.86439302396
  21
 706.78044775701
  31
0.0
   0
LINE
   5
CF
 100
AcDbEntity
   8
0
 370
13
 100
AcDbLine
   6
CONTINUOUS
  62
6
  10
 1006.8643930240
  20
 1906.7804477570
  30
0.0
  11
 506.86439302396
  21
 1906.7804477570
  31
0.0
   0
LINE
   5
D0
 100
AcDbEntity
   8
0
 370
13
 100
AcDbLine
   6
CONTINUOUS
  62
6
  10
 536.86439302396
  20
 706.78044775701
  30
0.0
  11
 536.86439302396
  21
 1306.7804477570
  31
0.0
   0
LINE
   5
D1
 100
AcDbEntity
   8
0
 370
13
 100
AcDbLine
   6
CONTINUOUS
  62
6
  10
 536.86439302396
  20
 1906.7804477570
  30
0.0
  11
 536.86439302396
  21
 1306.7804477570
  31
0.0
   0
INSERT
   5
D2
 100
AcDbEntity
   8
0
   6
CONTINUOUS
  62
6
 100
AcDbBlockReference
   2
_OPEN
  10
 536.86439302396
  20
 706.78044775701
  30
0.0
  41
 42.000000000000
  42
 42.000000000000
  43
 42.000000000000
  50
 270.00000000000
   0
INSERT
   5
D3
 100
AcDbEntity
   8
0
   6
CONTINUOUS
  62
6
 100
AcDbBlockReference
   2
_OPEN
  10
 536.86439302396
  20
 1906.7804477570
  30
0.0
  41
 42.000000000000
  42
 42.000000000000
  43
 42.000000000000
  50
 90.000000000000
   0
MTEXT
   5
D4
 100
AcDbEntity
   8
0
 370
13
  62
1
 100
AcDbMText
  10
 511.15010730968
  20
 1306.7804477570
  30
0.0
  40
 60.000000000000
  41
0.0
  71
8
  72
1
   1
\A1;1200
   7
GMM002
  11
0.0
  21
 1.0000000000000
  31
0.0
   0
ENDBLK
   5
D5
 100
AcDbEntity
   8
0
 100
AcDbBlockEnd
   0
BLOCK
   5
D6
 100
AcDbEntity
   8
0
 100
AcDbBlockBegin
   2
*D19
  70
65
  10
0.0
  20
0.0
  30
0.0
   3
*D19
   0
LINE
   5
D7
 100
AcDbEntity
   8
0
 370
13
 100
AcDbLine
   6
CONTINUOUS
  62
6
  10
 1006.8643930240
  20
 1906.7804477570
  30
0.0
  11
 506.86439302396
  21
 1906.7804477570
  31
0.0
   0
LINE
   5
D8
 100
AcDbEntity
   8
0
 370
13
 100
AcDbLine
   6
CONTINUOUS
  62
6
  10
 699.36439302396
  20
 4406.7804477570
  30
0.0
  11
 506.86439302396
  21
 4406.7804477570
  31
0.0
   0
LINE
   5
D9
 100
AcDbEntity
   8
0
 370
13
 100
AcDbLine
   6
CONTINUOUS
  62
6
  10
 536.86439302396
  20
 1906.7804477570
  30
0.0
  11
 536.86439302396
  21
 3156.7804477570
  31
0.0
   0
LINE
   5
DA
 100
AcDbEntity
   8
0
 370
13
 100
AcDbLine
   6
CONTINUOUS
  62
6
  10
 536.86439302396
  20
 4406.7804477570
  30
0.0
  11
 536.86439302396
  21
 3156.7804477570
  31
0.0
   0
INSERT
   5
DB
 100
AcDbEntity
   8
0
   6
CONTINUOUS
  62
6
 100
AcDbBlockReference
   2
_OPEN
  10
 536.86439302396
  20
 1906.7804477570
  30
0.0
  41
 42.000000000000
  42
 42.000000000000
  43
 42.000000000000
  50
 270.00000000000
   0
INSERT
   5
DC
 100
AcDbEntity
   8
0
   6
CONTINUOUS
  62
6
 100
AcDbBlockReference
   2
_OPEN
  10
 536.86439302396
  20
 4406.7804477570
  30
0.0
  41
 42.000000000000
  42
 42.000000000000
  43
 42.000000000000
  50
 90.000000000000
   0
MTEXT
   5
DD
 100
AcDbEntity
   8
0
 370
13
  62
1
 100
AcDbMText
  10
 511.15010730968
  20
 3156.7804477570
  30
0.0
  40
 60.000000000000
  41
0.0
  71
8
  72
1
   1
\A1;2500(標準設置高さ)
   7
GMM002
  11
0.0
  21
 1.0000000000000
  31
0.0
   0
ENDBLK
   5
DE
 100
AcDbEntity
   8
0
 100
AcDbBlockEnd
   0
BLOCK
   5
DF
 100
AcDbEntity
   8
0
 100
AcDbBlockBegin
   2
*D20
  70
65
  10
0.0
  20
0.0
  30
0.0
   3
*D20
   0
LINE
   5
E0
 100
AcDbEntity
   8
LEVEL001
 370
13
 100
AcDbLine
   6
CONTINUOUS
  62
6
  10
 2586.8643930240
  20
 576.78044775701
  30
0.0
  11
 2586.8643930240
  21
 376.78044775701
  31
0.0
   0
LINE
   5
E1
 100
AcDbEntity
   8
LEVEL001
 370
13
 100
AcDbLine
   6
CONTINUOUS
  62
6
  10
 3086.8643930240
  20
 576.78044775701
  30
0.0
  11
 3086.8643930240
  21
 376.78044775701
  31
0.0
   0
LINE
   5
E2
 100
AcDbEntity
   8
LEVEL001
 370
13
 100
AcDbLine
   6
CONTINUOUS
  62
6
  10
 2586.8643930240
  20
 406.78044775701
  30
0.0
  11
 2836.8643930240
  21
 406.78044775701
  31
0.0
   0
LINE
   5
E3
 100
AcDbEntity
   8
LEVEL001
 370
13
 100
AcDbLine
   6
CONTINUOUS
  62
6
  10
 3086.8643930240
  20
 406.78044775701
  30
0.0
  11
 2836.8643930240
  21
 406.78044775701
  31
0.0
   0
INSERT
   5
E4
 100
AcDbEntity
   8
LEVEL001
   6
CONTINUOUS
  62
6
 100
AcDbBlockReference
   2
_OPEN
  10
 2586.8643930240
  20
 406.78044775701
  30
0.0
  41
 42.000000000000
  42
 42.000000000000
  43
 42.000000000000
  50
 180.00000000000
   0
INSERT
   5
E5
 100
AcDbEntity
   8
LEVEL001
   6
CONTINUOUS
  62
6
 100
AcDbBlockReference
   2
_OPEN
  10
 3086.8643930240
  20
 406.78044775701
  30
0.0
  41
 42.000000000000
  42
 42.000000000000
  43
 42.000000000000
  50
0.0
   0
MTEXT
   5
E6
 100
AcDbEntity
   8
LEVEL001
 370
13
  62
1
 100
AcDbMText
  10
 2836.8643930240
  20
 420.78044775701
  30
0.0
  40
 60.000000000000
  41
0.0
  71
8
  72
1
   1
\A1;□500
   7
GMM002
   0
ENDBLK
   5
E7
 100
AcDbEntity
   8
0
 100
AcDbBlockEnd
   0
BLOCK
   5
E8
 100
AcDbEntity
   8
0
 100
AcDbBlockBegin
   2
*D21
  70
65
  10
0.0
  20
0.0
  30
0.0
   3
*D21
   0
LINE
   5
E9
 100
AcDbEntity
   8
LEVEL001
 370
13
 100
AcDbLine
   6
CONTINUOUS
  62
6
  10
 659.36439302396
  20
 4880.1804477570
  30
0.0
  11
 1061.8643930240
  21
 4880.1804477570
  31
0.0
   0
LINE
   5
EA
 100
AcDbEntity
   8
LEVEL001
 370
13
 100
AcDbLine
   6
CONTINUOUS
  62
6
  10
 1464.3643930240
  20
 4880.1804477570
  30
0.0
  11
 1061.8643930240
  21
 4880.1804477570
  31
0.0
   0
INSERT
   5
EB
 100
AcDbEntity
   8
LEVEL001
   6
CONTINUOUS
  62
6
 100
AcDbBlockReference
   2
_OPEN
  10
 659.36439302396
  20
 4880.1804477570
  30
0.0
  41
 42.000000000000
  42
 42.000000000000
  43
 42.000000000000
  50
 180.00000000000
   0
INSERT
   5
EC
 100
AcDbEntity
   8
LEVEL001
   6
CONTINUOUS
  62
6
 100
AcDbBlockReference
   2
_OPEN
  10
 1464.3643930240
  20
 4880.1804477570
  30
0.0
  41
 42.000000000000
  42
 42.000000000000
  43
 42.000000000000
  50
0.0
   0
MTEXT
   5
ED
 100
AcDbEntity
   8
LEVEL001
 370
13
  62
1
 100
AcDbMText
  10
 1095.6190425895
  20
 4894.1804477570
  30
0.0
  40
 60.000000000000
  41
0.0
  71
8
  72
1
   1
\A1;800
   7
GMM002
   0
ENDBLK
   5
EE
 100
AcDbEntity
   8
0
 100
AcDbBlockEnd
   0
BLOCK
   5
EF
 100
AcDbEntity
   8
0
 100
AcDbBlockBegin
   2
*D22
  70
65
  10
0.0
  20
0.0
  30
0.0
   3
*D22
   0
LINE
   5
F0
 100
AcDbEntity
   8
LEVEL001
 370
13
 100
AcDbLine
   6
CONTINUOUS
  62
6
  10
 1609.3643930240
  20
 4880.1804477570
  30
0.0
  11
 2011.8643930240
  21
 4880.1804477570
  31
0.0
   0
LINE
   5
F1
 100
AcDbEntity
   8
LEVEL001
 370
13
 100
AcDbLine
   6
CONTINUOUS
  62
6
  10
 2414.3643930240
  20
 4880.1804477570
  30
0.0
  11
 2011.8643930240
  21
 4880.1804477570
  31
0.0
   0
INSERT
   5
F2
 100
AcDbEntity
   8
LEVEL001
   6
CONTINUOUS
  62
6
 100
AcDbBlockReference
   2
_OPEN
  10
 1609.3643930240
  20
 4880.1804477570
  30
0.0
  41
 42.000000000000
  42
 42.000000000000
  43
 42.000000000000
  50
 180.00000000000
   0
INSERT
   5
F3
 100
AcDbEntity
   8
LEVEL001
   6
CONTINUOUS
  62
6
 100
AcDbBlockReference
   2
_OPEN
  10
 2414.3643930240
  20
 4880.1804477570
  30
0.0
  41
 42.000000000000
  42
 42.000000000000
  43
 42.000000000000
  50
0.0
   0
MTEXT
   5
F4
 100
AcDbEntity
   8
LEVEL001
 370
13
  62
1
 100
AcDbMText
  10
 2045.6190425896
  20
 4894.1804477570
  30
0.0
  40
 60.000000000000
  41
0.0
  71
8
  72
1
   1
\A1;800
   7
GMM002
   0
ENDBLK
   5
F5
 100
AcDbEntity
   8
0
 100
AcDbBlockEnd
   0
BLOCK
   5
F6
 100
AcDbEntity
   8
0
 100
AcDbBlockBegin
   2
*D23
  70
65
  10
0.0
  20
0.0
  30
0.0
   3
*D23
   0
LINE
   5
F7
 100
AcDbEntity
   8
LEVEL001
 370
13
 100
AcDbLine
   6
CONTINUOUS
  62
6
  10
 1811.8643930240
  20
 5032.6804477570
  30
0.0
  11
 1811.8643930240
  21
 4730.1804477570
  31
0.0
   0
LINE
   5
F8
 100
AcDbEntity
   8
LEVEL001
 370
13
 100
AcDbLine
   6
CONTINUOUS
  62
6
  10
 1811.8643930240
  20
 4427.6804477570
  30
0.0
  11
 1811.8643930240
  21
 4730.1804477570
  31
0.0
   0
INSERT
   5
F9
 100
AcDbEntity
   8
LEVEL001
   6
CONTINUOUS
  62
6
 100
AcDbBlockReference
   2
_OPEN
  10
 1811.8643930240
  20
 5032.6804477570
  30
0.0
  41
 42.000000000000
  42
 42.000000000000
  43
 42.000000000000
  50
 90.000000000000
   0
INSERT
   5
FA
 100
AcDbEntity
   8
LEVEL001
   6
CONTINUOUS
  62
6
 100
AcDbBlockReference
   2
_OPEN
  10
 1811.8643930240
  20
 4427.6804477570
  30
0.0
  41
 42.000000000000
  42
 42.000000000000
  43
 42.000000000000
  50
 270.00000000000
   0
MTEXT
   5
FB
 100
AcDbEntity
   8
LEVEL001
 370
13
  62
1
 100
AcDbMText
  10
 1797.8643930240
  20
 4697.9297067286
  30
0.0
  40
 60.000000000000
  41
0.0
  71
8
  72
1
   1
\A1;600
   7
GMM002
  11
0.0
  21
 1.0000000000000
  31
0.0
   0
ENDBLK
   5
FC
 100
AcDbEntity
   8
0
 100
AcDbBlockEnd
   0
BLOCK
   5
FD
 100
AcDbEntity
   8
0
 100
AcDbBlockBegin
   2
*D24
  70
65
  10
0.0
  20
0.0
  30
0.0
   3
*D24
   0
LINE
   5
FE
 100
AcDbEntity
   8
LEVEL001
 370
13
 100
AcDbLine
   6
CONTINUOUS
  62
6
  10
 861.86439302396
  20
 5032.6804477570
  30
0.0
  11
 861.86439302396
  21
 4730.1804477570
  31
0.0
   0
LINE
   5
FF
 100
AcDbEntity
   8
LEVEL001
 370
13
 100
AcDbLine
   6
CONTINUOUS
  62
6
  10
 861.86439302396
  20
 4427.6804477570
  30
0.0
  11
 861.86439302396
  21
 4730.1804477570
  31
0.0
   0
INSERT
   5
100
 100
AcDbEntity
   8
LEVEL001
   6
CONTINUOUS
  62
6
 100
AcDbBlockReference
   2
_OPEN
  10
 861.86439302396
  20
 5032.6804477570
  30
0.0
  41
 42.000000000000
  42
 42.000000000000
  43
 42.000000000000
  50
 90.000000000000
   0
INSERT
   5
101
 100
AcDbEntity
   8
LEVEL001
   6
CONTINUOUS
  62
6
 100
AcDbBlockReference
   2
_OPEN
  10
 861.86439302396
  20
 4427.6804477570
  30
0.0
  41
 42.000000000000
  42
 42.000000000000
  43
 42.000000000000
  50
 270.00000000000
   0
MTEXT
   5
102
 100
AcDbEntity
   8
LEVEL001
 370
13
  62
1
 100
AcDbMText
  10
 847.86439302396
  20
 4697.9297067286
  30
0.0
  40
 60.000000000000
  41
0.0
  71
8
  72
1
   1
\A1;600
   7
GMM002
  11
0.0
  21
 1.0000000000000
  31
0.0
   0
ENDBLK
   5
103
 100
AcDbEntity
   8
0
 100
AcDbBlockEnd
   0
ENDSEC
   0
SECTION
   2
ENTITIES
   0
LINE
   5
104
 100
AcDbEntity
   8
LEVEL001
 370
13
 100
AcDbLine
   6
CONTINUOUS
  62
7
  10
 8136.8643930240
  20
 5730.1804477570
  30
0.0
  11
 336.86439302396
  21
 5730.1804477570
  31
0.0
   0
LINE
   5
105
 100
AcDbEntity
   8
LEVEL001
 370
13
 100
AcDbLine
   6
CONTINUOUS
  62
7
  10
 336.86439302396
  20
 5730.1804477570
  30
0.0
  11
 336.86439302396
  21
 230.18044775701
  31
0.0
   0
LINE
   5
106
 100
AcDbEntity
   8
LEVEL001
 370
13
 100
AcDbLine
   6
CONTINUOUS
  62
7
  10
 336.86439302396
  20
 230.18044775701
  30
0.0
  11
 8136.8643930240
  21
 230.18044775701
  31
0.0
   0
LINE
   5
107
 100
AcDbEntity
   8
LEVEL001
 370
13
 100
AcDbLine
   6
CONTINUOUS
  62
7
  10
 8136.8643930240
  20
 230.18044775701
  30
0.0
  11
 8136.8643930240
  21
 5730.1804477570
  31
0.0
   0
LINE
   5
108
 100
AcDbEntity
   8
LEVEL001
 370
13
 100
AcDbLine
   6
CONTINUOUS
  62
2
  10
 5496.8643930240
  20
 710.18044775701
  30
0.0
  11
 7176.8643930240
  21
 710.18044775701
  31
0.0
   0
POINT
   5
109
 100
AcDbEntity
   8
LEVEL001
 100
AcDbPoint
  62
3
  10
 6436.8643930240
  20
 770.18044775701
  30
0.0
   0
POINT
   5
10A
 100
AcDbEntity
   8
LEVEL001
 100
AcDbPoint
  62
3
  10
 6336.8643930240
  20
 770.18044775701
  30
0.0
   0
POINT
   5
10B
 100
AcDbEntity
   8
LEVEL001
 100
AcDbPoint
  62
3
  10
 6436.8643930240
  20
 870.18044775701
  30
0.0
   0
MTEXT
   5
10C
 100
AcDbEntity
   8
LEVEL001
 370
13
  62
1
 100
AcDbMText
  10
 5668.8643930240
  20
 990.18044775701
  30
0.0
  40
 51.428571428572
  41
0.0
  71
6
  72
1
   1
\T1.000000;１６
   7
GMM001
  44
 0.79999984000003
   0
MTEXT
   5
10D
 100
AcDbEntity
   8
LEVEL001
 370
13
  62
1
 100
AcDbMText
  10
 6826.8643930240
  20
 1347.3276631488
  30
0.0
  40
 51.428571428572
  41
0.0
  71
4
  72
1
   1
\T1.000000;ＰＥ
   7
GMM001
  44
 0.79999984000003
   0
MTEXT
   5
10E
 100
AcDbEntity
   8
LEVEL001
 370
13
  62
1
 100
AcDbMText
  10
 5736.8643930240
  20
 990.18044775701
  30
0.0
  40
 51.428571428572
  41
0.0
  71
4
  72
1
   1
\T1.000000;同上ボルトナット
   7
GMM001
  44
 0.79999984000003
   0
MTEXT
   5
10F
 100
AcDbEntity
   8
LEVEL001
 370
13
  62
1
 100
AcDbMText
  10
 5668.8643930240
  20
 1110.1804477570
  30
0.0
  40
 51.428571428572
  41
0.0
  71
6
  72
1
   1
\T1.000000;１５
   7
GMM001
  44
 0.79999984000003
   0
MTEXT
   5
110
 100
AcDbEntity
   8
LEVEL001
 370
13
  62
1
 100
AcDbMText
  10
 5736.8643930240
  20
 1110.1804477570
  30
0.0
  40
 51.428571428572
  41
0.0
  71
4
  72
1
   1
\T1.000000;注意板取付バンド
   7
GMM001
  44
 0.79999984000003
   0
LINE
   5
111
 100
AcDbEntity
   8
LEVEL001
 370
13
 100
AcDbLine
   6
CONTINUOUS
  62
6
  10
 5496.8643930240
  20
 1050.1804477570
  30
0.0
  11
 8136.8643930240
  21
 1050.1804477570
  31
0.0
   0
MTEXT
   5
112
 100
AcDbEntity
   8
LEVEL001
 370
13
  62
1
 100
AcDbMText
  10
 5668.8643930240
  20
 1230.1804477570
  30
0.0
  40
 51.428571428572
  41
0.0
  71
6
  72
1
   1
\T1.000000;１４
   7
GMM001
  44
 0.79999984000003
   0
MTEXT
   5
113
 100
AcDbEntity
   8
LEVEL001
 370
13
  62
1
 100
AcDbMText
  10
 6748.8643930240
  20
 1230.1804477570
  30
0.0
  40
 51.428571428572
  41
0.0
  71
6
  72
1
   1
\T1.000000;１
   7
GMM001
  44
 0.79999984000003
   0
LINE
   5
114
 100
AcDbEntity
   8
LEVEL001
 370
13
 100
AcDbLine
   6
CONTINUOUS
  62
6
  10
 5496.8643930240
  20
 1170.1804477570
  30
0.0
  11
 8136.8643930240
  21
 1170.1804477570
  31
0.0
   0
LINE
   5
115
 100
AcDbEntity
   8
LEVEL001
 370
13
 100
AcDbLine
   6
CONTINUOUS
  62
6
  10
 5496.8643930240
  20
 1290.1804477570
  30
0.0
  11
 8136.8643930240
  21
 1290.1804477570
  31
0.0
   0
MTEXT
   5
116
 100
AcDbEntity
   8
LEVEL001
 370
13
  62
1
 100
AcDbMText
  10
 5668.8643930240
  20
 1350.1804477570
  30
0.0
  40
 51.428571428572
  41
0.0
  71
6
  72
1
   1
\T1.000000;１３
   7
GMM001
  44
 0.79999984000003
   0
MTEXT
   5
117
 100
AcDbEntity
   8
LEVEL001
 370
13
  62
1
 100
AcDbMText
  10
 5736.8643930240
  20
 1350.1804477570
  30
0.0
  40
 51.428571428572
  41
0.0
  71
4
  72
1
   1
\T1.000000;キャップ
   7
GMM001
  44
 0.79999984000003
   0
MTEXT
   5
118
 100
AcDbEntity
   8
LEVEL001
 370
13
  62
1
 100
AcDbMText
  10
 6748.8643930240
  20
 1350.1804477570
  30
0.0
  40
 51.428571428572
  41
0.0
  71
6
  72
1
   1
\T1.000000;１
   7
GMM001
  44
 0.79999984000003
   0
MTEXT
   5
119
 100
AcDbEntity
   8
LEVEL001
 370
13
  62
1
 100
AcDbMText
  10
 5668.8643930240
  20
 1470.1804477570
  30
0.0
  40
 51.428571428572
  41
0.0
  71
6
  72
1
   1
\T1.000000;１２
   7
GMM001
  44
 0.79999984000003
   0
MTEXT
   5
11A
 100
AcDbEntity
   8
LEVEL001
 370
13
  62
1
 100
AcDbMText
  10
 5736.8643930240
  20
 1470.1804477570
  30
0.0
  40
 51.428571428572
  41
0.0
  71
4
  72
1
   1
\T1.000000;根入れ鉄筋
   7
GMM001
  44
 0.79999984000003
   0
MTEXT
   5
11B
 100
AcDbEntity
   8
LEVEL001
 370
13
  62
1
 100
AcDbMText
  10
 6816.8643930240
  20
 1470.1804477570
  30
0.0
  40
 51.428571428572
  41
0.0
  71
4
  72
1
   1
\T1.000000;ＳＤ２９５Ａ
   7
GMM001
  44
 0.79999984000003
   0
LINE
   5
11C
 100
AcDbEntity
   8
LEVEL001
 370
13
 100
AcDbLine
   6
CONTINUOUS
  62
6
  10
 5496.8643930240
  20
 1410.1804477570
  30
0.0
  11
 8136.8643930240
  21
 1410.1804477570
  31
0.0
   0
LINE
   5
11D
 100
AcDbEntity
   8
LEVEL001
 370
13
 100
AcDbLine
   6
CONTINUOUS
  62
6
  10
 5496.8643930240
  20
 1530.1804477570
  30
0.0
  11
 8136.8643930240
  21
 1530.1804477570
  31
0.0
   0
LINE
   5
11E
 100
AcDbEntity
   8
LEVEL001
 370
13
 100
AcDbLine
   6
CONTINUOUS
  62
7
  10
 3532.8945190286
  20
 4675.1804477570
  30
0.0
  11
 3282.8945190286
  21
 4675.1804477570
  31
0.0
   0
LINE
   5
11F
 100
AcDbEntity
   8
LEVEL001
 370
13
 100
AcDbLine
   6
CONTINUOUS
  62
7
  10
 3282.8945190286
  20
 4675.1804477570
  30
0.0
  11
 3282.8945190286
  21
 4615.1804477570
  31
0.0
   0
LINE
   5
120
 100
AcDbEntity
   8
LEVEL001
 370
13
 100
AcDbLine
   6
CONTINUOUS
  62
7
  10
 3282.8945190286
  20
 4615.1804477570
  30
0.0
  11
 3532.8945190286
  21
 4615.1804477570
  31
0.0
   0
LINE
   5
121
 100
AcDbEntity
   8
LEVEL001
 370
13
 100
AcDbLine
   6
CONTINUOUS
  62
7
  10
 3532.8945190286
  20
 4615.1804477570
  30
0.0
  11
 3532.8945190286
  21
 4675.1804477570
  31
0.0
   0
LINE
   5
122
 100
AcDbEntity
   8
LEVEL001
 370
13
 100
AcDbLine
   6
DASHDOT
  62
6
  10
 3568.8685721780
  20
 4820.1804477570
  30
0.0
  11
 3568.8685721780
  21
 4580.1804477570
  31
0.0
   0
LINE
   5
123
 100
AcDbEntity
   8
LEVEL001
 370
13
 100
AcDbLine
   6
CONTINUOUS
  62
7
  10
 3530.7185721780
  20
 4785.1804477570
  30
0.0
  11
 3530.7185721780
  21
 4800.1804477570
  31
0.0
   0
LINE
   5
124
 100
AcDbEntity
   8
LEVEL001
 370
13
 100
AcDbLine
   6
CONTINUOUS
  62
7
  10
 3530.7185721780
  20
 4800.1804477570
  30
0.0
  11
 3607.0185721780
  21
 4800.1804477570
  31
0.0
   0
LINE
   5
125
 100
AcDbEntity
   8
LEVEL001
 370
13
 100
AcDbLine
   6
CONTINUOUS
  62
7
  10
 3607.0185721780
  20
 4800.1804477570
  30
0.0
  11
 3607.0185721780
  21
 4785.1804477570
  31
0.0
   0
LINE
   5
126
 100
AcDbEntity
   8
LEVEL001
 370
13
 100
AcDbLine
   6
CONTINUOUS
  62
7
  10
 3607.0185721780
  20
 4675.1804477570
  30
0.0
  11
 3607.0185721780
  21
 4600.1804477570
  31
0.0
   0
LINE
   5
127
 100
AcDbEntity
   8
LEVEL001
 370
13
 100
AcDbLine
   6
CONTINUOUS
  62
7
  10
 3607.0185721780
  20
 4600.1804477570
  30
0.0
  11
 3530.7185721780
  21
 4600.1804477570
  31
0.0
   0
LINE
   5
128
 100
AcDbEntity
   8
LEVEL001
 370
13
 100
AcDbLine
   6
CONTINUOUS
  62
7
  10
 3530.7185721780
  20
 4600.1804477570
  30
0.0
  11
 3530.7185721780
  21
 4615.1804477570
  31
0.0
   0
LINE
   5
129
 100
AcDbEntity
   8
LEVEL001
 370
13
 100
AcDbLine
   6
CONTINUOUS
  62
7
  10
 3284.6143930240
  20
 4615.1804477570
  30
0.0
  11
 3284.6143930240
  21
 4600.1804477570
  31
0.0
   0
LINE
   5
12A
 100
AcDbEntity
   8
LEVEL001
 370
13
 100
AcDbLine
   6
CONTINUOUS
  62
7
  10
 3284.6143930240
  20
 4600.1804477570
  30
0.0
  11
 3153.8643845042
  21
 4600.1804477570
  31
0.0
   0
LINE
   5
12B
 100
AcDbEntity
   8
LEVEL001
 370
13
 100
AcDbLine
   6
CONTINUOUS
  62
7
  10
 3153.8643845042
  20
 4600.1804477570
  30
0.0
  11
 3153.8643845042
  21
 4710.1804477570
  31
0.0
   0
LINE
   5
12C
 100
AcDbEntity
   8
LEVEL001
 370
13
 100
AcDbLine
   6
CONTINUOUS
  62
7
  10
 3153.8643845042
  20
 4710.1804477570
  30
0.0
  11
 3284.6143930240
  21
 4710.1804477570
  31
0.0
   0
LINE
   5
12D
 100
AcDbEntity
   8
LEVEL001
 370
13
 100
AcDbLine
   6
CONTINUOUS
  62
7
  10
 3284.6143930240
  20
 4710.1804477570
  30
0.0
  11
 3284.6143930240
  21
 4675.1804477570
  31
0.0
   0
LINE
   5
12E
 100
AcDbEntity
   8
LEVEL001
 370
13
 100
AcDbLine
   6
CONTINUOUS
  62
7
  10
 3189.1143930240
  20
 4731.6854905600
  30
0.0
  11
 3189.1143930240
  21
 4710.1804477570
  31
0.0
   0
LINE
   5
12F
 100
AcDbEntity
   8
LEVEL001
 370
13
 100
AcDbLine
   6
CONTINUOUS
  62
7
  10
 3189.1143930240
  20
 4710.1804477570
  30
0.0
  11
 3319.8644015438
  21
 4710.1804477570
  31
0.0
   0
LINE
   5
130
 100
AcDbEntity
   8
LEVEL001
 370
13
 100
AcDbLine
   6
CONTINUOUS
  62
7
  10
 3319.8644015438
  20
 4710.1804477570
  30
0.0
  11
 3319.8644015438
  21
 4820.1804477570
  31
0.0
   0
LINE
   5
131
 100
AcDbEntity
   8
LEVEL001
 370
13
 100
AcDbLine
   6
CONTINUOUS
  62
7
  10
 3319.8644015438
  20
 4820.1804477570
  30
0.0
  11
 3189.1143930240
  21
 4820.1804477570
  31
0.0
   0
LINE
   5
132
 100
AcDbEntity
   8
LEVEL001
 370
13
 100
AcDbLine
   6
CONTINUOUS
  62
7
  10
 3189.1143930240
  20
 4820.1804477570
  30
0.0
  11
 3189.1143930240
  21
 4799.0250648180
  31
0.0
   0
LINE
   5
133
 100
AcDbEntity
   8
LEVEL001
 370
13
 100
AcDbLine
   6
CONTINUOUS
  62
7
  10
 3190.8342670194
  20
 4799.9013843886
  30
0.0
  11
 3190.8342670194
  21
 4732.5618101306
  31
0.0
   0
LINE
   5
134
 100
AcDbEntity
   8
LEVEL001
 370
13
 100
AcDbLine
   6
CONTINUOUS
  62
7
  10
 3190.8342670194
  20
 4732.5618101306
  30
0.0
  11
 2940.8342670194
  21
 4605.1804477570
  31
0.0
   0
LINE
   5
135
 100
AcDbEntity
   8
LEVEL001
 370
13
 100
AcDbLine
   6
CONTINUOUS
  62
7
  10
 2940.8342670194
  20
 4605.1804477570
  30
0.0
  11
 2940.8342670194
  21
 4672.5200220150
  31
0.0
   0
LINE
   5
136
 100
AcDbEntity
   8
LEVEL001
 370
13
 100
AcDbLine
   6
CONTINUOUS
  62
7
  10
 2940.8342670194
  20
 4672.5200220150
  30
0.0
  11
 3190.8342670194
  21
 4799.9013843886
  31
0.0
   0
LINE
   5
137
 100
AcDbEntity
   8
LEVEL001
 370
13
 100
AcDbLine
   6
DASHDOT
  62
6
  10
 2904.8602138700
  20
 4820.1804477570
  30
0.0
  11
 2904.8602138700
  21
 4580.1804477570
  31
0.0
   0
LINE
   5
138
 100
AcDbEntity
   8
LEVEL001
 370
13
 100
AcDbLine
   6
CONTINUOUS
  62
7
  10
 2866.7102138700
  20
 4675.1804477570
  30
0.0
  11
 2866.7102138700
  21
 4600.1804477570
  31
0.0
   0
LINE
   5
139
 100
AcDbEntity
   8
LEVEL001
 370
13
 100
AcDbLine
   6
CONTINUOUS
  62
7
  10
 2866.7102138700
  20
 4600.1804477570
  30
0.0
  11
 2943.0102138700
  21
 4600.1804477570
  31
0.0
   0
LINE
   5
13A
 100
AcDbEntity
   8
LEVEL001
 370
13
 100
AcDbLine
   6
CONTINUOUS
  62
7
  10
 2943.0102138700
  20
 4600.1804477570
  30
0.0
  11
 2943.0102138700
  21
 4606.2891480540
  31
0.0
   0
LINE
   5
13B
 100
AcDbEntity
   8
LEVEL001
 370
13
 100
AcDbLine
   6
CONTINUOUS
  62
7
  10
 2943.0102138700
  20
 4673.6287223120
  30
0.0
  11
 2943.0102138700
  21
 4675.1804477570
  31
0.0
   0
LINE
   5
13C
 100
AcDbEntity
   8
LEVEL001
 370
13
 100
AcDbLine
   6
CONTINUOUS
  62
7
  10
 2943.0102138700
  20
 4785.1804477570
  30
0.0
  11
 2943.0102138700
  21
 4800.1804477570
  31
0.0
   0
LINE
   5
13D
 100
AcDbEntity
   8
LEVEL001
 370
13
 100
AcDbLine
   6
CONTINUOUS
  62
7
  10
 2943.0102138700
  20
 4800.1804477570
  30
0.0
  11
 2866.7102138700
  21
 4800.1804477570
  31
0.0
   0
LINE
   5
13E
 100
AcDbEntity
   8
LEVEL001
 370
13
 100
AcDbLine
   6
CONTINUOUS
  62
7
  10
 2866.7102138700
  20
 4800.1804477570
  30
0.0
  11
 2866.7102138700
  21
 4785.1804477570
  31
0.0
   0
LINE
   5
13F
 100
AcDbEntity
   8
LEVEL001
 370
13
 100
AcDbLine
   6
CONTINUOUS
  62
6
  10
 2940.2882405264
  20
 4780.1804477570
  30
0.0
  11
 2940.2882405264
  21
 4680.1804477570
  31
0.0
   0
LINE
   5
140
 100
AcDbEntity
   8
LEVEL001
 370
13
 100
AcDbLine
   6
DASHDOT
  62
6
  10
 3004.8602309726
  20
 4730.1804477570
  30
0.0
  11
 2606.0436108332
  21
 4730.1804477570
  31
0.0
   0
LINE
   5
141
 100
AcDbEntity
   8
LEVEL001
 370
13
 100
AcDbLine
   6
DASHDOT
  62
6
  10
 2959.8602309726
  20
 4775.1804477570
  30
0.0
  11
 2959.8602309726
  21
 4745.1804477570
  31
0.0
   0
LINE
   5
142
 100
AcDbEntity
   8
LEVEL001
 370
13
 100
AcDbLine
   6
DASHDOT
  62
6
  10
 2974.8602309726
  20
 4760.1804477570
  30
0.0
  11
 2944.8602309726
  21
 4760.1804477570
  31
0.0
   0
LINE
   5
143
 100
AcDbEntity
   8
LEVEL001
 370
13
 100
AcDbLine
   6
DASHDOT
  62
6
  10
 2959.8602309726
  20
 4715.1804477570
  30
0.0
  11
 2959.8602309726
  21
 4685.1804477570
  31
0.0
   0
LINE
   5
144
 100
AcDbEntity
   8
LEVEL001
 370
13
 100
AcDbLine
   6
DASHDOT
  62
6
  10
 2974.8602309726
  20
 4700.1804477570
  30
0.0
  11
 2944.8602309726
  21
 4700.1804477570
  31
0.0
   0
LINE
   5
145
 100
AcDbEntity
   8
LEVEL001
 370
13
 100
AcDbLine
   6
DASHDOT
  62
6
  10
 3299.8644015438
  20
 4810.1804477570
  30
0.0
  11
 3299.8644015438
  21
 4780.1804477570
  31
0.0
   0
LINE
   5
146
 100
AcDbEntity
   8
LEVEL001
 370
13
 100
AcDbLine
   6
DASHDOT
  62
6
  10
 3314.8644015438
  20
 4795.1804477570
  30
0.0
  11
 3284.8644015438
  21
 4795.1804477570
  31
0.0
   0
LINE
   5
147
 100
AcDbEntity
   8
LEVEL001
 370
13
 100
AcDbLine
   6
DASHDOT
  62
6
  10
 3299.8644015438
  20
 4750.1804477570
  30
0.0
  11
 3299.8644015438
  21
 4720.1804477570
  31
0.0
   0
LINE
   5
148
 100
AcDbEntity
   8
LEVEL001
 370
13
 100
AcDbLine
   6
DASHDOT
  62
6
  10
 3314.8644015438
  20
 4735.1804477570
  30
0.0
  11
 3284.8644015438
  21
 4735.1804477570
  31
0.0
   0
LINE
   5
149
 100
AcDbEntity
   8
LEVEL001
 370
13
 100
AcDbLine
   6
DASHDOT
  62
6
  10
 3173.8643845042
  20
 4700.1804477570
  30
0.0
  11
 3173.8643845042
  21
 4670.1804477570
  31
0.0
   0
LINE
   5
14A
 100
AcDbEntity
   8
LEVEL001
 370
13
 100
AcDbLine
   6
DASHDOT
  62
6
  10
 3188.8643845042
  20
 4685.1804477570
  30
0.0
  11
 3158.8643845042
  21
 4685.1804477570
  31
0.0
   0
LINE
   5
14B
 100
AcDbEntity
   8
LEVEL001
 370
13
 100
AcDbLine
   6
DASHDOT
  62
6
  10
 3173.8643845042
  20
 4640.1804477570
  30
0.0
  11
 3173.8643845042
  21
 4610.1804477570
  31
0.0
   0
LINE
   5
14C
 100
AcDbEntity
   8
LEVEL001
 370
13
 100
AcDbLine
   6
DASHDOT
  62
6
  10
 3188.8643845042
  20
 4625.1804477570
  30
0.0
  11
 3158.8643845042
  21
 4625.1804477570
  31
0.0
   0
LINE
   5
14D
 100
AcDbEntity
   8
LEVEL001
 370
13
 100
AcDbLine
   6
DASHDOT
  62
6
  10
 2787.0768760056
  20
 4775.1804477570
  30
0.0
  11
 2787.0768760056
  21
 4745.1804477570
  31
0.0
   0
LINE
   5
14E
 100
AcDbEntity
   8
LEVEL001
 370
13
 100
AcDbLine
   6
DASHDOT
  62
6
  10
 2802.0768760056
  20
 4760.1804477570
  30
0.0
  11
 2772.0768760056
  21
 4760.1804477570
  31
0.0
   0
LINE
   5
14F
 100
AcDbEntity
   8
LEVEL001
 370
13
 100
AcDbLine
   6
DASHDOT
  62
6
  10
 2787.0768760056
  20
 4715.1804477570
  30
0.0
  11
 2787.0768760056
  21
 4685.1804477570
  31
0.0
   0
LINE
   5
150
 100
AcDbEntity
   8
LEVEL001
 370
13
 100
AcDbLine
   6
DASHDOT
  62
6
  10
 2802.0768760056
  20
 4700.1804477570
  30
0.0
  11
 2772.0768760056
  21
 4700.1804477570
  31
0.0
   0
LINE
   5
151
 100
AcDbEntity
   8
LEVEL001
 370
13
 100
AcDbLine
   6
DASHDOT
  62
6
  10
 2851.2259986630
  20
 4725.7658615760
  30
0.0
  11
 2821.2259986630
  21
 4725.7658615760
  31
0.0
   0
LINE
   5
152
 100
AcDbEntity
   8
LEVEL001
 370
13
 100
AcDbLine
   6
DASHDOT
  62
6
  10
 2836.2259986630
  20
 4740.7658615760
  30
0.0
  11
 2836.2259986630
  21
 4710.7658615760
  31
0.0
   0
LINE
   5
153
 100
AcDbEntity
   8
LEVEL001
 370
13
 100
AcDbLine
   6
CONTINUOUS
  62
7
  10
 2867.0768760056
  20
 4675.1804477570
  30
0.0
  11
 2979.8602309726
  21
 4675.1804477570
  31
0.0
   0
LINE
   5
154
 100
AcDbEntity
   8
LEVEL001
 370
13
 100
AcDbLine
   6
CONTINUOUS
  62
7
  10
 2979.8602309726
  20
 4675.1804477570
  30
0.0
  11
 2979.8602309726
  21
 4785.1804477570
  31
0.0
   0
LINE
   5
155
 100
AcDbEntity
   8
LEVEL001
 370
13
 100
AcDbLine
   6
CONTINUOUS
  62
7
  10
 2979.8602309726
  20
 4785.1804477570
  30
0.0
  11
 2867.0768760056
  21
 4785.1804477570
  31
0.0
   0
LINE
   5
156
 100
AcDbEntity
   8
LEVEL001
 370
13
 100
AcDbLine
   6
CONTINUOUS
  62
7
  10
 2812.0768760056
  20
 4785.1804477570
  30
0.0
  11
 2867.0768760056
  21
 4785.1804477570
  31
0.0
   0
LINE
   5
157
 100
AcDbEntity
   8
LEVEL001
 370
13
 100
AcDbLine
   6
CONTINUOUS
  62
7
  10
 2867.0768760056
  20
 4785.1804477570
  30
0.0
  11
 2867.0768760056
  21
 4675.1804477570
  31
0.0
   0
LINE
   5
158
 100
AcDbEntity
   8
LEVEL001
 370
13
 100
AcDbLine
   6
CONTINUOUS
  62
7
  10
 2867.0768760056
  20
 4675.1804477570
  30
0.0
  11
 2812.0768760056
  21
 4675.1804477570
  31
0.0
   0
LINE
   5
159
 100
AcDbEntity
   8
LEVEL001
 370
13
 100
AcDbLine
   6
CONTINUOUS
  62
3
  10
 2780.0768760056
  20
 4753.1804477570
  30
0.0
  11
 2794.0768760056
  21
 4753.1804477570
  31
0.0
   0
LINE
   5
15A
 100
AcDbEntity
   8
LEVEL001
 370
13
 100
AcDbLine
   6
CONTINUOUS
  62
3
  10
 2794.0768760056
  20
 4753.1804477570
  30
0.0
  11
 2794.0768760056
  21
 4767.1804477570
  31
0.0
   0
LINE
   5
15B
 100
AcDbEntity
   8
LEVEL001
 370
13
 100
AcDbLine
   6
CONTINUOUS
  62
3
  10
 2794.0768760056
  20
 4767.1804477570
  30
0.0
  11
 2780.0768760056
  21
 4767.1804477570
  31
0.0
   0
LINE
   5
15C
 100
AcDbEntity
   8
LEVEL001
 370
13
 100
AcDbLine
   6
CONTINUOUS
  62
3
  10
 2780.0768760056
  20
 4767.1804477570
  30
0.0
  11
 2780.0768760056
  21
 4753.1804477570
  31
0.0
   0
LINE
   5
15D
 100
AcDbEntity
   8
LEVEL001
 370
13
 100
AcDbLine
   6
CONTINUOUS
  62
3
  10
 2780.0768760056
  20
 4693.1804477570
  30
0.0
  11
 2794.0768760056
  21
 4693.1804477570
  31
0.0
   0
LINE
   5
15E
 100
AcDbEntity
   8
LEVEL001
 370
13
 100
AcDbLine
   6
CONTINUOUS
  62
3
  10
 2794.0768760056
  20
 4693.1804477570
  30
0.0
  11
 2794.0768760056
  21
 4707.1804477570
  31
0.0
   0
LINE
   5
15F
 100
AcDbEntity
   8
LEVEL001
 370
13
 100
AcDbLine
   6
CONTINUOUS
  62
3
  10
 2794.0768760056
  20
 4707.1804477570
  30
0.0
  11
 2780.0768760056
  21
 4707.1804477570
  31
0.0
   0
LINE
   5
160
 100
AcDbEntity
   8
LEVEL001
 370
13
 100
AcDbLine
   6
CONTINUOUS
  62
3
  10
 2780.0768760056
  20
 4707.1804477570
  30
0.0
  11
 2780.0768760056
  21
 4693.1804477570
  31
0.0
   0
ARC
   5
161
 100
AcDbEntity
   8
LEVEL001
 370
13
   6
CONTINUOUS
  62
3
 100
AcDbCircle
  10
 2787.0768760056
  20
 4760.1804477570
  30
0.0
  40
 52.000000000000
 100
AcDbArc
  50
 298.73565374498
  51
 324.99999999999
   0
ARC
   5
162
 100
AcDbEntity
   8
LEVEL001
 370
13
   6
CONTINUOUS
  62
3
 100
AcDbCircle
  10
 2836.2259986632
  20
 4725.7658615764
  30
0.0
  40
 8.0000000000000
 100
AcDbArc
  50
 324.99999999588
  51
 144.99999999588
   0
ARC
   5
163
 100
AcDbEntity
   8
LEVEL001
 370
13
   6
CONTINUOUS
  62
3
 100
AcDbCircle
  10
 2787.0768760056
  20
 4760.1804477570
  30
0.0
  40
 68.000000000000
 100
AcDbArc
  50
 291.57057830167
  51
 324.99999999999
   0
LINE
   5
164
 100
AcDbEntity
   8
LEVEL001
 370
13
 100
AcDbLine
   6
CONTINUOUS
  62
3
  10
 2952.8602309726
  20
 4753.1804477570
  30
0.0
  11
 2966.8602309726
  21
 4753.1804477570
  31
0.0
   0
LINE
   5
165
 100
AcDbEntity
   8
LEVEL001
 370
13
 100
AcDbLine
   6
CONTINUOUS
  62
3
  10
 2966.8602309726
  20
 4753.1804477570
  30
0.0
  11
 2966.8602309726
  21
 4767.1804477570
  31
0.0
   0
LINE
   5
166
 100
AcDbEntity
   8
LEVEL001
 370
13
 100
AcDbLine
   6
CONTINUOUS
  62
3
  10
 2966.8602309726
  20
 4767.1804477570
  30
0.0
  11
 2952.8602309726
  21
 4767.1804477570
  31
0.0
   0
LINE
   5
167
 100
AcDbEntity
   8
LEVEL001
 370
13
 100
AcDbLine
   6
CONTINUOUS
  62
3
  10
 2952.8602309726
  20
 4767.1804477570
  30
0.0
  11
 2952.8602309726
  21
 4753.1804477570
  31
0.0
   0
LINE
   5
168
 100
AcDbEntity
   8
LEVEL001
 370
13
 100
AcDbLine
   6
CONTINUOUS
  62
3
  10
 2952.8602309726
  20
 4693.1804477570
  30
0.0
  11
 2966.8602309726
  21
 4693.1804477570
  31
0.0
   0
LINE
   5
169
 100
AcDbEntity
   8
LEVEL001
 370
13
 100
AcDbLine
   6
CONTINUOUS
  62
3
  10
 2966.8602309726
  20
 4693.1804477570
  30
0.0
  11
 2966.8602309726
  21
 4707.1804477570
  31
0.0
   0
LINE
   5
16A
 100
AcDbEntity
   8
LEVEL001
 370
13
 100
AcDbLine
   6
CONTINUOUS
  62
3
  10
 2966.8602309726
  20
 4707.1804477570
  30
0.0
  11
 2952.8602309726
  21
 4707.1804477570
  31
0.0
   0
LINE
   5
16B
 100
AcDbEntity
   8
LEVEL001
 370
13
 100
AcDbLine
   6
CONTINUOUS
  62
3
  10
 2952.8602309726
  20
 4707.1804477570
  30
0.0
  11
 2952.8602309726
  21
 4693.1804477570
  31
0.0
   0
LINE
   5
16C
 100
AcDbEntity
   8
LEVEL001
 370
13
 100
AcDbLine
   6
CONTINUOUS
  62
6
  10
 3533.4405455216
  20
 4780.1804477570
  30
0.0
  11
 3533.4405455216
  21
 4680.1804477570
  31
0.0
   0
LINE
   5
16D
 100
AcDbEntity
   8
LEVEL001
 370
13
 100
AcDbLine
   6
DASHDOT
  62
6
  10
 3468.8685550754
  20
 4730.1804477570
  30
0.0
  11
 3867.6851752148
  21
 4730.1804477570
  31
0.0
   0
LINE
   5
16E
 100
AcDbEntity
   8
LEVEL001
 370
13
 100
AcDbLine
   6
DASHDOT
  62
6
  10
 3513.8685550754
  20
 4775.1804477570
  30
0.0
  11
 3513.8685550754
  21
 4745.1804477570
  31
0.0
   0
LINE
   5
16F
 100
AcDbEntity
   8
LEVEL001
 370
13
 100
AcDbLine
   6
DASHDOT
  62
6
  10
 3498.8685550754
  20
 4760.1804477570
  30
0.0
  11
 3528.8685550754
  21
 4760.1804477570
  31
0.0
   0
LINE
   5
170
 100
AcDbEntity
   8
LEVEL001
 370
13
 100
AcDbLine
   6
DASHDOT
  62
6
  10
 3513.8685550754
  20
 4715.1804477570
  30
0.0
  11
 3513.8685550754
  21
 4685.1804477570
  31
0.0
   0
LINE
   5
171
 100
AcDbEntity
   8
LEVEL001
 370
13
 100
AcDbLine
   6
CONTINUOUS
  62
3
  10
 3520.8685550754
  20
 4753.1804477570
  30
0.0
  11
 3506.8685550754
  21
 4753.1804477570
  31
0.0
   0
LINE
   5
172
 100
AcDbEntity
   8
LEVEL001
 370
13
 100
AcDbLine
   6
CONTINUOUS
  62
3
  10
 3506.8685550754
  20
 4753.1804477570
  30
0.0
  11
 3506.8685550754
  21
 4767.1804477570
  31
0.0
   0
LINE
   5
173
 100
AcDbEntity
   8
LEVEL001
 370
13
 100
AcDbLine
   6
CONTINUOUS
  62
3
  10
 3506.8685550754
  20
 4767.1804477570
  30
0.0
  11
 3520.8685550754
  21
 4767.1804477570
  31
0.0
   0
LINE
   5
174
 100
AcDbEntity
   8
LEVEL001
 370
13
 100
AcDbLine
   6
CONTINUOUS
  62
3
  10
 3520.8685550754
  20
 4767.1804477570
  30
0.0
  11
 3520.8685550754
  21
 4753.1804477570
  31
0.0
   0
LINE
   5
175
 100
AcDbEntity
   8
LEVEL001
 370
13
 100
AcDbLine
   6
CONTINUOUS
  62
3
  10
 3520.8685550754
  20
 4693.1804477570
  30
0.0
  11
 3506.8685550754
  21
 4693.1804477570
  31
0.0
   0
LINE
   5
176
 100
AcDbEntity
   8
LEVEL001
 370
13
 100
AcDbLine
   6
CONTINUOUS
  62
3
  10
 3506.8685550754
  20
 4693.1804477570
  30
0.0
  11
 3506.8685550754
  21
 4707.1804477570
  31
0.0
   0
LINE
   5
177
 100
AcDbEntity
   8
LEVEL001
 370
13
 100
AcDbLine
   6
CONTINUOUS
  62
3
  10
 3506.8685550754
  20
 4707.1804477570
  30
0.0
  11
 3520.8685550754
  21
 4707.1804477570
  31
0.0
   0
LINE
   5
178
 100
AcDbEntity
   8
LEVEL001
 370
13
 100
AcDbLine
   6
CONTINUOUS
  62
3
  10
 3520.8685550754
  20
 4707.1804477570
  30
0.0
  11
 3520.8685550754
  21
 4693.1804477570
  31
0.0
   0
LINE
   5
179
 100
AcDbEntity
   8
LEVEL001
 370
13
 100
AcDbLine
   6
DASHDOT
  62
6
  10
 3498.8685550754
  20
 4700.1804477570
  30
0.0
  11
 3528.8685550754
  21
 4700.1804477570
  31
0.0
   0
LINE
   5
17A
 100
AcDbEntity
   8
LEVEL001
 370
13
 100
AcDbLine
   6
DASHDOT
  62
6
  10
 3686.6519100424
  20
 4775.1804477570
  30
0.0
  11
 3686.6519100424
  21
 4745.1804477570
  31
0.0
   0
LINE
   5
17B
 100
AcDbEntity
   8
LEVEL001
 370
13
 100
AcDbLine
   6
DASHDOT
  62
6
  10
 3671.6519100424
  20
 4760.1804477570
  30
0.0
  11
 3701.6519100424
  21
 4760.1804477570
  31
0.0
   0
LINE
   5
17C
 100
AcDbEntity
   8
LEVEL001
 370
13
 100
AcDbLine
   6
DASHDOT
  62
6
  10
 3686.6519100424
  20
 4715.1804477570
  30
0.0
  11
 3686.6519100424
  21
 4685.1804477570
  31
0.0
   0
LINE
   5
17D
 100
AcDbEntity
   8
LEVEL001
 370
13
 100
AcDbLine
   6
DASHDOT
  62
6
  10
 3671.6519100424
  20
 4700.1804477570
  30
0.0
  11
 3701.6519100424
  21
 4700.1804477570
  31
0.0
   0
LINE
   5
17E
 100
AcDbEntity
   8
LEVEL001
 370
13
 100
AcDbLine
   6
DASHDOT
  62
6
  10
 3622.5027873850
  20
 4725.7658615760
  30
0.0
  11
 3652.5027873850
  21
 4725.7658615760
  31
0.0
   0
LINE
   5
17F
 100
AcDbEntity
   8
LEVEL001
 370
13
 100
AcDbLine
   6
DASHDOT
  62
6
  10
 3637.5027873850
  20
 4740.7658615760
  30
0.0
  11
 3637.5027873850
  21
 4710.7658615760
  31
0.0
   0
LINE
   5
180
 100
AcDbEntity
   8
LEVEL001
 370
13
 100
AcDbLine
   6
CONTINUOUS
  62
7
  10
 3661.6519100424
  20
 4785.1804477570
  30
0.0
  11
 3606.6519100424
  21
 4785.1804477570
  31
0.0
   0
LINE
   5
181
 100
AcDbEntity
   8
LEVEL001
 370
13
 100
AcDbLine
   6
CONTINUOUS
  62
7
  10
 3606.6519100424
  20
 4785.1804477570
  30
0.0
  11
 3606.6519100424
  21
 4675.1804477570
  31
0.0
   0
LINE
   5
182
 100
AcDbEntity
   8
LEVEL001
 370
13
 100
AcDbLine
   6
CONTINUOUS
  62
7
  10
 3606.6519100424
  20
 4675.1804477570
  30
0.0
  11
 3661.6519100424
  21
 4675.1804477570
  31
0.0
   0
LINE
   5
183
 100
AcDbEntity
   8
LEVEL001
 370
13
 100
AcDbLine
   6
CONTINUOUS
  62
3
  10
 3693.6519100424
  20
 4753.1804477570
  30
0.0
  11
 3679.6519100424
  21
 4753.1804477570
  31
0.0
   0
LINE
   5
184
 100
AcDbEntity
   8
LEVEL001
 370
13
 100
AcDbLine
   6
CONTINUOUS
  62
3
  10
 3679.6519100424
  20
 4753.1804477570
  30
0.0
  11
 3679.6519100424
  21
 4767.1804477570
  31
0.0
   0
LINE
   5
185
 100
AcDbEntity
   8
LEVEL001
 370
13
 100
AcDbLine
   6
CONTINUOUS
  62
3
  10
 3679.6519100424
  20
 4767.1804477570
  30
0.0
  11
 3693.6519100424
  21
 4767.1804477570
  31
0.0
   0
LINE
   5
186
 100
AcDbEntity
   8
LEVEL001
 370
13
 100
AcDbLine
   6
CONTINUOUS
  62
3
  10
 3693.6519100424
  20
 4767.1804477570
  30
0.0
  11
 3693.6519100424
  21
 4753.1804477570
  31
0.0
   0
LINE
   5
187
 100
AcDbEntity
   8
LEVEL001
 370
13
 100
AcDbLine
   6
CONTINUOUS
  62
3
  10
 3693.6519100424
  20
 4693.1804477570
  30
0.0
  11
 3679.6519100424
  21
 4693.1804477570
  31
0.0
   0
LINE
   5
188
 100
AcDbEntity
   8
LEVEL001
 370
13
 100
AcDbLine
   6
CONTINUOUS
  62
3
  10
 3679.6519100424
  20
 4693.1804477570
  30
0.0
  11
 3679.6519100424
  21
 4707.1804477570
  31
0.0
   0
LINE
   5
189
 100
AcDbEntity
   8
LEVEL001
 370
13
 100
AcDbLine
   6
CONTINUOUS
  62
3
  10
 3679.6519100424
  20
 4707.1804477570
  30
0.0
  11
 3693.6519100424
  21
 4707.1804477570
  31
0.0
   0
LINE
   5
18A
 100
AcDbEntity
   8
LEVEL001
 370
13
 100
AcDbLine
   6
CONTINUOUS
  62
3
  10
 3693.6519100424
  20
 4707.1804477570
  30
0.0
  11
 3693.6519100424
  21
 4693.1804477570
  31
0.0
   0
ARC
   5
18B
 100
AcDbEntity
   8
LEVEL001
 370
13
   6
CONTINUOUS
  62
3
 100
AcDbCircle
  10
 3686.6519100424
  20
 4760.1804477570
  30
0.0
  40
 52.000000000000
 100
AcDbArc
  50
 215.00000000001
  51
 241.26434625502
   0
ARC
   5
18C
 100
AcDbEntity
   8
LEVEL001
 370
13
   6
CONTINUOUS
  62
3
 100
AcDbCircle
  10
 3637.5027873848
  20
 4725.7658615764
  30
0.0
  40
 8.0000000000000
 100
AcDbArc
  50
 35.000000004129
  51
 215.00000000413
   0
ARC
   5
18D
 100
AcDbEntity
   8
LEVEL001
 370
13
   6
CONTINUOUS
  62
3
 100
AcDbCircle
  10
 3686.6519100424
  20
 4760.1804477570
  30
0.0
  40
 68.000000000000
 100
AcDbArc
  50
 215.00000000001
  51
 248.42942169833
   0
LINE
   5
18E
 100
AcDbEntity
   8
LEVEL001
 370
13
 100
AcDbLine
   6
CONTINUOUS
  62
7
  10
 3606.6519100424
  20
 4675.1804477570
  30
0.0
  11
 3493.8685550754
  21
 4675.1804477570
  31
0.0
   0
LINE
   5
18F
 100
AcDbEntity
   8
LEVEL001
 370
13
 100
AcDbLine
   6
CONTINUOUS
  62
7
  10
 3493.8685550754
  20
 4675.1804477570
  30
0.0
  11
 3493.8685550754
  21
 4785.1804477570
  31
0.0
   0
LINE
   5
190
 100
AcDbEntity
   8
LEVEL001
 370
13
 100
AcDbLine
   6
CONTINUOUS
  62
7
  10
 3493.8685550754
  20
 4785.1804477570
  30
0.0
  11
 3606.6519100424
  21
 4785.1804477570
  31
0.0
   0
LINE
   5
191
 100
AcDbEntity
   8
LEVEL001
 370
13
 100
AcDbLine
   6
CONTINUOUS
  62
3
  10
 3292.8644015438
  20
 4788.1804477570
  30
0.0
  11
 3306.8644015438
  21
 4788.1804477570
  31
0.0
   0
LINE
   5
192
 100
AcDbEntity
   8
LEVEL001
 370
13
 100
AcDbLine
   6
CONTINUOUS
  62
3
  10
 3306.8644015438
  20
 4788.1804477570
  30
0.0
  11
 3306.8644015438
  21
 4802.1804477570
  31
0.0
   0
LINE
   5
193
 100
AcDbEntity
   8
LEVEL001
 370
13
 100
AcDbLine
   6
CONTINUOUS
  62
3
  10
 3306.8644015438
  20
 4802.1804477570
  30
0.0
  11
 3292.8644015438
  21
 4802.1804477570
  31
0.0
   0
LINE
   5
194
 100
AcDbEntity
   8
LEVEL001
 370
13
 100
AcDbLine
   6
CONTINUOUS
  62
3
  10
 3292.8644015438
  20
 4802.1804477570
  30
0.0
  11
 3292.8644015438
  21
 4788.1804477570
  31
0.0
   0
LINE
   5
195
 100
AcDbEntity
   8
LEVEL001
 370
13
 100
AcDbLine
   6
CONTINUOUS
  62
3
  10
 3292.8644015438
  20
 4728.1804477570
  30
0.0
  11
 3306.8644015438
  21
 4728.1804477570
  31
0.0
   0
LINE
   5
196
 100
AcDbEntity
   8
LEVEL001
 370
13
 100
AcDbLine
   6
CONTINUOUS
  62
3
  10
 3306.8644015438
  20
 4728.1804477570
  30
0.0
  11
 3306.8644015438
  21
 4742.1804477570
  31
0.0
   0
LINE
   5
197
 100
AcDbEntity
   8
LEVEL001
 370
13
 100
AcDbLine
   6
CONTINUOUS
  62
3
  10
 3306.8644015438
  20
 4742.1804477570
  30
0.0
  11
 3292.8644015438
  21
 4742.1804477570
  31
0.0
   0
LINE
   5
198
 100
AcDbEntity
   8
LEVEL001
 370
13
 100
AcDbLine
   6
CONTINUOUS
  62
3
  10
 3292.8644015438
  20
 4742.1804477570
  30
0.0
  11
 3292.8644015438
  21
 4728.1804477570
  31
0.0
   0
LINE
   5
199
 100
AcDbEntity
   8
LEVEL001
 370
13
 100
AcDbLine
   6
CONTINUOUS
  62
3
  10
 3180.8643845042
  20
 4678.1804477570
  30
0.0
  11
 3166.8643845042
  21
 4678.1804477570
  31
0.0
   0
LINE
   5
19A
 100
AcDbEntity
   8
LEVEL001
 370
13
 100
AcDbLine
   6
CONTINUOUS
  62
3
  10
 3166.8643845042
  20
 4678.1804477570
  30
0.0
  11
 3166.8643845042
  21
 4692.1804477570
  31
0.0
   0
LINE
   5
19B
 100
AcDbEntity
   8
LEVEL001
 370
13
 100
AcDbLine
   6
CONTINUOUS
  62
3
  10
 3166.8643845042
  20
 4692.1804477570
  30
0.0
  11
 3180.8643845042
  21
 4692.1804477570
  31
0.0
   0
LINE
   5
19C
 100
AcDbEntity
   8
LEVEL001
 370
13
 100
AcDbLine
   6
CONTINUOUS
  62
3
  10
 3180.8643845042
  20
 4692.1804477570
  30
0.0
  11
 3180.8643845042
  21
 4678.1804477570
  31
0.0
   0
LINE
   5
19D
 100
AcDbEntity
   8
LEVEL001
 370
13
 100
AcDbLine
   6
CONTINUOUS
  62
3
  10
 3180.8643845042
  20
 4618.1804477570
  30
0.0
  11
 3166.8643845042
  21
 4618.1804477570
  31
0.0
   0
LINE
   5
19E
 100
AcDbEntity
   8
LEVEL001
 370
13
 100
AcDbLine
   6
CONTINUOUS
  62
3
  10
 3166.8643845042
  20
 4618.1804477570
  30
0.0
  11
 3166.8643845042
  21
 4632.1804477570
  31
0.0
   0
LINE
   5
19F
 100
AcDbEntity
   8
LEVEL001
 370
13
 100
AcDbLine
   6
CONTINUOUS
  62
3
  10
 3166.8643845042
  20
 4632.1804477570
  30
0.0
  11
 3180.8643845042
  21
 4632.1804477570
  31
0.0
   0
LINE
   5
1A0
 100
AcDbEntity
   8
LEVEL001
 370
13
 100
AcDbLine
   6
CONTINUOUS
  62
3
  10
 3180.8643845042
  20
 4632.1804477570
  30
0.0
  11
 3180.8643845042
  21
 4618.1804477570
  31
0.0
   0
LINE
   5
1A1
 100
AcDbEntity
   8
LEVEL001
 370
13
 100
AcDbLine
   6
CONTINUOUS
  62
6
  10
 3279.4291183690
  20
 4815.1804477570
  30
0.0
  11
 3279.4291183690
  21
 4715.1804477570
  31
0.0
   0
LINE
   5
1A2
 100
AcDbEntity
   8
LEVEL001
 370
13
 100
AcDbLine
   6
CONTINUOUS
  62
6
  10
 3194.2996676790
  20
 4705.1804477570
  30
0.0
  11
 3194.2996676790
  21
 4605.1804477570
  31
0.0
   0
MTEXT
   5
1A3
 100
AcDbEntity
   8
LEVEL001
 370
13
  62
1
 100
AcDbMText
  10
 3236.8643930240
  20
 5530.1804477570
  30
0.0
  40
 57.142857142858
  41
0.0
  71
5
  72
1
   1
\T1.000000;側　面　図
   7
GMM001
  44
 0.79999984000003
   0
MTEXT
   5
1A4
 100
AcDbEntity
   8
LEVEL001
 370
13
  62
1
 100
AcDbMText
  10
 6748.8643930240
  20
 1470.1804477570
  30
0.0
  40
 51.428571428572
  41
0.0
  71
6
  72
1
   1
\T1.000000;２
   7
GMM001
  44
 0.79999984000003
   0
MTEXT
   5
1A5
 100
AcDbEntity
   8
LEVEL001
 370
13
  62
1
 100
AcDbMText
  10
 4536.8643930240
  20
 5530.1804477570
  30
0.0
  40
 57.142857142858
  41
0.0
  71
5
  72
1
   1
\T1.000000;背　面　図
   7
GMM001
  44
 0.79999984000003
   0
MTEXT
   5
1A6
 100
AcDbEntity
   8
LEVEL001
 370
13
  62
1
 100
AcDbMText
  10
 1536.8643930240
  20
 5530.1804477570
  30
0.0
  40
 57.142857142858
  41
0.0
  71
5
  72
1
   1
\T1.000000;正　面　図
   7
GMM001
  44
 0.79999984000003
   0
ARC
   5
1A7
 100
AcDbEntity
   8
LEVEL001
 370
13
   6
CONTINUOUS
  62
7
 100
AcDbCircle
  10
 4204.3643930240
  20
 4962.6804477570
  30
0.0
  40
 65.000000000000
 100
AcDbArc
  50
 90.000000000000
  51
 180.00000000000
   0
LINE
   5
1A8
 100
AcDbEntity
   8
LEVEL001
 370
13
 100
AcDbLine
   6
CONTINUOUS
  62
7
  10
 4869.3643930240
  20
 5027.6804477570
  30
0.0
  11
 4204.3643930240
  21
 5027.6804477570
  31
0.0
   0
ARC
   5
1A9
 100
AcDbEntity
   8
LEVEL001
 370
13
   6
CONTINUOUS
  62
7
 100
AcDbCircle
  10
 4869.3643930240
  20
 4962.6804477570
  30
0.0
  40
 65.000000000000
 100
AcDbArc
  50
0.0
  51
 90.000000000000
   0
LINE
   5
1AA
 100
AcDbEntity
   8
LEVEL001
 370
13
 100
AcDbLine
   6
CONTINUOUS
  62
7
  10
 4139.3643930240
  20
 4962.6804477570
  30
0.0
  11
 4139.3643930240
  21
 4497.6804477570
  31
0.0
   0
ARC
   5
1AB
 100
AcDbEntity
   8
LEVEL001
 370
13
   6
CONTINUOUS
  62
7
 100
AcDbCircle
  10
 4204.3643930240
  20
 4497.6804477570
  30
0.0
  40
 65.000000000000
 100
AcDbArc
  50
 180.00000000000
  51
 270.00000000000
   0
LINE
   5
1AC
 100
AcDbEntity
   8
LEVEL001
 370
13
 100
AcDbLine
   6
CONTINUOUS
  62
7
  10
 4204.3643930240
  20
 4432.6804477570
  30
0.0
  11
 4869.3643930240
  21
 4432.6804477570
  31
0.0
   0
LINE
   5
1AD
 100
AcDbEntity
   8
LEVEL001
 370
13
 100
AcDbLine
   6
CONTINUOUS
  62
7
  10
 4934.3643930240
  20
 4497.6804477570
  30
0.0
  11
 4934.3643930240
  21
 4962.6804477570
  31
0.0
   0
ARC
   5
1AE
 100
AcDbEntity
   8
LEVEL001
 370
13
   6
CONTINUOUS
  62
7
 100
AcDbCircle
  10
 4869.3643930240
  20
 4497.6804477570
  30
0.0
  40
 65.000000000000
 100
AcDbArc
  50
 270.00000000000
  51
0.0
   0
LINE
   5
1AF
 100
AcDbEntity
   8
LEVEL001
 370
13
 100
AcDbLine
   6
DASHDOT
  62
6
  10
 4586.8643930240
  20
 4795.1804477570
  30
0.0
  11
 4586.8643930240
  21
 4765.1804477570
  31
0.0
   0
LINE
   5
1B0
 100
AcDbEntity
   8
LEVEL001
 370
13
 100
AcDbLine
   6
DASHDOT
  62
6
  10
 4571.8643930240
  20
 4780.1804477570
  30
0.0
  11
 4601.8643930240
  21
 4780.1804477570
  31
0.0
   0
CIRCLE
   5
1B1
 100
AcDbEntity
   8
LEVEL001
 370
13
 100
AcDbCircle
   6
CONTINUOUS
  62
3
  10
 4586.8643930240
  20
 4780.1804477570
  30
0.0
  40
 7.0000000000000
   0
LINE
   5
1B2
 100
AcDbEntity
   8
LEVEL001
 370
13
 100
AcDbLine
   6
DASHDOT
  62
6
  10
 4586.8643930240
  20
 4695.1804477570
  30
0.0
  11
 4586.8643930240
  21
 4665.1804477570
  31
0.0
   0
LINE
   5
1B3
 100
AcDbEntity
   8
LEVEL001
 370
13
 100
AcDbLine
   6
DASHDOT
  62
6
  10
 4571.8643930240
  20
 4680.1804477570
  30
0.0
  11
 4601.8643930240
  21
 4680.1804477570
  31
0.0
   0
CIRCLE
   5
1B4
 100
AcDbEntity
   8
LEVEL001
 370
13
 100
AcDbCircle
   6
CONTINUOUS
  62
3
  10
 4586.8643930240
  20
 4680.1804477570
  30
0.0
  40
 7.0000000000000
   0
LINE
   5
1B5
 100
AcDbEntity
   8
LEVEL001
 370
13
 100
AcDbLine
   6
DASHDOT
  62
6
  10
 4486.8643930240
  20
 4695.1804477570
  30
0.0
  11
 4486.8643930240
  21
 4665.1804477570
  31
0.0
   0
LINE
   5
1B6
 100
AcDbEntity
   8
LEVEL001
 370
13
 100
AcDbLine
   6
DASHDOT
  62
6
  10
 4471.8643930240
  20
 4680.1804477570
  30
0.0
  11
 4501.8643930240
  21
 4680.1804477570
  31
0.0
   0
CIRCLE
   5
1B7
 100
AcDbEntity
   8
LEVEL001
 370
13
 100
AcDbCircle
   6
CONTINUOUS
  62
3
  10
 4486.8643930240
  20
 4680.1804477570
  30
0.0
  40
 7.0000000000000
   0
LINE
   5
1B8
 100
AcDbEntity
   8
LEVEL001
 370
13
 100
AcDbLine
   6
DASHDOT
  62
6
  10
 4486.8643930240
  20
 4795.1804477570
  30
0.0
  11
 4486.8643930240
  21
 4765.1804477570
  31
0.0
   0
LINE
   5
1B9
 100
AcDbEntity
   8
LEVEL001
 370
13
 100
AcDbLine
   6
DASHDOT
  62
6
  10
 4471.8643930240
  20
 4780.1804477570
  30
0.0
  11
 4501.8643930240
  21
 4780.1804477570
  31
0.0
   0
CIRCLE
   5
1BA
 100
AcDbEntity
   8
LEVEL001
 370
13
 100
AcDbCircle
   6
CONTINUOUS
  62
3
  10
 4486.8643930240
  20
 4780.1804477570
  30
0.0
  40
 7.0000000000000
   0
LINE
   5
1BB
 100
AcDbEntity
   8
LEVEL001
 370
13
 100
AcDbLine
   6
DASHDOT
  62
6
  10
 4061.8643930240
  20
 4730.1804477570
  30
0.0
  11
 5011.8643930240
  21
 4730.1804477570
  31
0.0
   0
LINE
   5
1BC
 100
AcDbEntity
   8
LEVEL001
 370
13
 100
AcDbLine
   6
DASHDOT
  62
6
  10
 4536.8643930240
  20
 5105.1804477570
  30
0.0
  11
 4536.8643930240
  21
 4355.1804477570
  31
0.0
   0
ARC
   5
1BD
 100
AcDbEntity
   8
LEVEL001
 370
13
   6
CONTINUOUS
  62
6
 100
AcDbCircle
  10
 4855.1044129216
  20
 4968.3600852906
  30
0.0
  40
 22.500000000000
 100
AcDbArc
  50
 306.81219798811
  51
 36.812197988085
   0
ARC
   5
1BE
 100
AcDbEntity
   8
LEVEL001
 370
13
   6
CONTINUOUS
  62
6
 100
AcDbCircle
  10
 4855.1044129216
  20
 4968.3600852906
  30
0.0
  40
 22.500000000000
 100
AcDbArc
  50
 36.812197988110
  51
 126.81219798810
   0
LINE
   5
1BF
 100
AcDbEntity
   8
LEVEL001
 370
13
 100
AcDbLine
   6
CONTINUOUS
  62
6
  10
 4841.6225466462
  20
 4986.3736713226
  30
0.0
  11
 4685.5048010360
  21
 4869.5308302684
  31
0.0
   0
LINE
   5
1C0
 100
AcDbEntity
   8
LEVEL001
 370
13
 100
AcDbLine
   6
CONTINUOUS
  62
6
  10
 4712.4685335870
  20
 4833.5036582046
  30
0.0
  11
 4868.5862791972
  21
 4950.3464992586
  31
0.0
   0
ARC
   5
1C1
 100
AcDbEntity
   8
LEVEL001
 370
13
   6
CONTINUOUS
  62
6
 100
AcDbCircle
  10
 4698.9866673116
  20
 4851.5172442364
  30
0.0
  40
 22.500000000000
 100
AcDbArc
  50
 216.81219798811
  51
 306.81219798810
   0
ARC
   5
1C2
 100
AcDbEntity
   8
LEVEL001
 370
13
   6
CONTINUOUS
  62
6
 100
AcDbCircle
  10
 4698.9866673116
  20
 4851.5172442366
  30
0.0
  40
 22.500000000000
 100
AcDbArc
  50
 126.81219798811
  51
 216.81219798808
   0
ARC
   5
1C3
 100
AcDbEntity
   8
LEVEL001
 370
13
   6
CONTINUOUS
  62
6
 100
AcDbCircle
  10
 4576.8643930240
  20
 4877.3410742846
  30
0.0
  40
 10.000000000000
 100
AcDbArc
  50
 180.00000000001
  51
 254.79371212393
   0
ARC
   5
1C4
 100
AcDbEntity
   8
LEVEL001
 370
13
   6
CONTINUOUS
  62
6
 100
AcDbCircle
  10
 4536.8643930240
  20
 4730.1804477570
  30
0.0
  40
 142.50000000000
 100
AcDbArc
  50
 15.206287876061
  51
 74.793712123943
   0
LINE
   5
1C5
 100
AcDbEntity
   8
LEVEL001
 370
13
 100
AcDbLine
   6
CONTINUOUS
  62
6
  10
 4566.8643930240
  20
 4970.1804477570
  30
0.0
  11
 4566.8643930240
  21
 4877.3410742846
  31
0.0
   0
ARC
   5
1C6
 100
AcDbEntity
   8
LEVEL001
 370
13
   6
CONTINUOUS
  62
6
 100
AcDbCircle
  10
 4536.8643930240
  20
 4970.1804477570
  30
0.0
  40
 30.000000000000
 100
AcDbArc
  50
0.0
  51
 90.000000000000
   0
ARC
   5
1C7
 100
AcDbEntity
   8
LEVEL001
 370
13
   6
CONTINUOUS
  62
6
 100
AcDbCircle
  10
 4496.8643930240
  20
 4877.3410742846
  30
0.0
  40
 10.000000000000
 100
AcDbArc
  50
 285.20628787605
  51
 359.99999999998
   0
ARC
   5
1C8
 100
AcDbEntity
   8
LEVEL001
 370
13
   6
CONTINUOUS
  62
6
 100
AcDbCircle
  10
 4536.8643930240
  20
 4730.1804477570
  30
0.0
  40
 142.50000000000
 100
AcDbArc
  50
 105.20628787606
  51
 164.79371212394
   0
LINE
   5
1C9
 100
AcDbEntity
   8
LEVEL001
 370
13
 100
AcDbLine
   6
CONTINUOUS
  62
6
  10
 4506.8643930240
  20
 4877.3410742846
  30
0.0
  11
 4506.8643930240
  21
 4970.1804477570
  31
0.0
   0
ARC
   5
1CA
 100
AcDbEntity
   8
LEVEL001
 370
13
   6
CONTINUOUS
  62
6
 100
AcDbCircle
  10
 4536.8643930240
  20
 4970.1804477570
  30
0.0
  40
 30.000000000000
 100
AcDbArc
  50
 90.000000000000
  51
 180.00000000000
   0
ARC
   5
1CB
 100
AcDbEntity
   8
LEVEL001
 370
13
   6
CONTINUOUS
  62
6
 100
AcDbCircle
  10
 4389.7037664964
  20
 4770.1804477570
  30
0.0
  40
 10.000000000000
 100
AcDbArc
  50
 269.99999999997
  51
 344.79371212395
   0
LINE
   5
1CC
 100
AcDbEntity
   8
LEVEL001
 370
13
 100
AcDbLine
   6
CONTINUOUS
  62
6
  10
 4389.7037664964
  20
 4760.1804477570
  30
0.0
  11
 4199.3643930240
  21
 4760.1804477570
  31
0.0
   0
ARC
   5
1CD
 100
AcDbEntity
   8
LEVEL001
 370
13
   6
CONTINUOUS
  62
6
 100
AcDbCircle
  10
 4199.3643930240
  20
 4730.1804477570
  30
0.0
  40
 30.000000000000
 100
AcDbArc
  50
 90.000000000000
  51
 180.00000000000
   0
ARC
   5
1CE
 100
AcDbEntity
   8
LEVEL001
 370
13
   6
CONTINUOUS
  62
6
 100
AcDbCircle
  10
 4389.7037664964
  20
 4690.1804477570
  30
0.0
  40
 10.000000000000
 100
AcDbArc
  50
 15.206287876046
  51
 90.000000000026
   0
ARC
   5
1CF
 100
AcDbEntity
   8
LEVEL001
 370
13
   6
CONTINUOUS
  62
6
 100
AcDbCircle
  10
 4536.8643930240
  20
 4730.1804477570
  30
0.0
  40
 142.50000000000
 100
AcDbArc
  50
 195.20628787605
  51
 254.79371212394
   0
LINE
   5
1D0
 100
AcDbEntity
   8
LEVEL001
 370
13
 100
AcDbLine
   6
CONTINUOUS
  62
6
  10
 4199.3643930240
  20
 4700.1804477570
  30
0.0
  11
 4389.7037664964
  21
 4700.1804477570
  31
0.0
   0
ARC
   5
1D1
 100
AcDbEntity
   8
LEVEL001
 370
13
   6
CONTINUOUS
  62
6
 100
AcDbCircle
  10
 4199.3643930240
  20
 4730.1804477570
  30
0.0
  40
 30.000000000000
 100
AcDbArc
  50
 180.00000000000
  51
 270.00000000000
   0
ARC
   5
1D2
 100
AcDbEntity
   8
LEVEL001
 370
13
   6
CONTINUOUS
  62
6
 100
AcDbCircle
  10
 4496.8643930240
  20
 4583.0198212294
  30
0.0
  40
 10.000000000000
 100
AcDbArc
  50
 0.15633062370329E-10
  51
 74.793712123954
   0
LINE
   5
1D3
 100
AcDbEntity
   8
LEVEL001
 370
13
 100
AcDbLine
   6
CONTINUOUS
  62
6
  10
 4506.8643930240
  20
 4583.0198212294
  30
0.0
  11
 4506.8643930240
  21
 4490.1804477570
  31
0.0
   0
ARC
   5
1D4
 100
AcDbEntity
   8
LEVEL001
 370
13
   6
CONTINUOUS
  62
6
 100
AcDbCircle
  10
 4536.8643930240
  20
 4490.1804477570
  30
0.0
  40
 30.000000000000
 100
AcDbArc
  50
 180.00000000000
  51
 270.00000000000
   0
ARC
   5
1D5
 100
AcDbEntity
   8
LEVEL001
 370
13
   6
CONTINUOUS
  62
6
 100
AcDbCircle
  10
 4576.8643930240
  20
 4583.0198212294
  30
0.0
  40
 10.000000000000
 100
AcDbArc
  50
 105.20628787607
  51
 179.99999999999
   0
ARC
   5
1D6
 100
AcDbEntity
   8
LEVEL001
 370
13
   6
CONTINUOUS
  62
6
 100
AcDbCircle
  10
 4536.8643930240
  20
 4730.1804477570
  30
0.0
  40
 142.50000000000
 100
AcDbArc
  50
 285.20628787606
  51
 344.79371212395
   0
LINE
   5
1D7
 100
AcDbEntity
   8
LEVEL001
 370
13
 100
AcDbLine
   6
CONTINUOUS
  62
6
  10
 4566.8643930240
  20
 4490.1804477570
  30
0.0
  11
 4566.8643930240
  21
 4583.0198212294
  31
0.0
   0
ARC
   5
1D8
 100
AcDbEntity
   8
LEVEL001
 370
13
   6
CONTINUOUS
  62
6
 100
AcDbCircle
  10
 4536.8643930240
  20
 4490.1804477570
  30
0.0
  40
 30.000000000000
 100
AcDbArc
  50
 270.00000000000
  51
0.0
   0
ARC
   5
1D9
 100
AcDbEntity
   8
LEVEL001
 370
13
   6
CONTINUOUS
  62
6
 100
AcDbCircle
  10
 4684.0250195516
  20
 4690.1804477570
  30
0.0
  40
 10.000000000000
 100
AcDbArc
  50
 89.999999999995
  51
 164.79371212395
   0
LINE
   5
1DA
 100
AcDbEntity
   8
LEVEL001
 370
13
 100
AcDbLine
   6
CONTINUOUS
  62
6
  10
 4874.3643930240
  20
 4700.1804477570
  30
0.0
  11
 4684.0250195516
  21
 4700.1804477570
  31
0.0
   0
ARC
   5
1DB
 100
AcDbEntity
   8
LEVEL001
 370
13
   6
CONTINUOUS
  62
6
 100
AcDbCircle
  10
 4874.3643930240
  20
 4730.1804477570
  30
0.0
  40
 30.000000000000
 100
AcDbArc
  50
 270.00000000000
  51
0.0
   0
ARC
   5
1DC
 100
AcDbEntity
   8
LEVEL001
 370
13
   6
CONTINUOUS
  62
6
 100
AcDbCircle
  10
 4684.0250195516
  20
 4770.1804477570
  30
0.0
  40
 10.000000000000
 100
AcDbArc
  50
 195.20628787605
  51
 270.00000000001
   0
LINE
   5
1DD
 100
AcDbEntity
   8
LEVEL001
 370
13
 100
AcDbLine
   6
CONTINUOUS
  62
6
  10
 4684.0250195516
  20
 4760.1804477570
  30
0.0
  11
 4874.3643930240
  21
 4760.1804477570
  31
0.0
   0
ARC
   5
1DE
 100
AcDbEntity
   8
LEVEL001
 370
13
   6
CONTINUOUS
  62
6
 100
AcDbCircle
  10
 4874.3643930240
  20
 4730.1804477570
  30
0.0
  40
 30.000000000000
 100
AcDbArc
  50
0.0
  51
 90.000000000000
   0
ARC
   5
1DF
 100
AcDbEntity
   8
LEVEL001
 370
13
   6
CONTINUOUS
  62
6
 100
AcDbCircle
  10
 4374.7421187364
  20
 4851.5172442366
  30
0.0
  40
 22.500000000000
 100
AcDbArc
  50
 323.18780201192
  51
 53.187802011899
   0
ARC
   5
1E0
 100
AcDbEntity
   8
LEVEL001
 370
13
   6
CONTINUOUS
  62
6
 100
AcDbCircle
  10
 4374.7421187364
  20
 4851.5172442364
  30
0.0
  40
 22.500000000000
 100
AcDbArc
  50
 233.18780201190
  51
 323.18780201190
   0
LINE
   5
1E1
 100
AcDbEntity
   8
LEVEL001
 370
13
 100
AcDbLine
   6
CONTINUOUS
  62
6
  10
 4232.1062394018
  20
 4986.3736713226
  30
0.0
  11
 4388.2239850120
  21
 4869.5308302684
  31
0.0
   0
ARC
   5
1E2
 100
AcDbEntity
   8
LEVEL001
 370
13
   6
CONTINUOUS
  62
6
 100
AcDbCircle
  10
 4218.6243731264
  20
 4968.3600852906
  30
0.0
  40
 22.500000000000
 100
AcDbArc
  50
 53.187802011896
  51
 143.18780201190
   0
ARC
   5
1E3
 100
AcDbEntity
   8
LEVEL001
 370
13
   6
CONTINUOUS
  62
6
 100
AcDbCircle
  10
 4218.6243731264
  20
 4968.3600852906
  30
0.0
  40
 22.500000000000
 100
AcDbArc
  50
 143.18780201192
  51
 233.18780201190
   0
LINE
   5
1E4
 100
AcDbEntity
   8
LEVEL001
 370
13
 100
AcDbLine
   6
CONTINUOUS
  62
6
  10
 4361.2602524610
  20
 4833.5036582046
  30
0.0
  11
 4205.1425068508
  21
 4950.3464992586
  31
0.0
   0
ARC
   5
1E5
 100
AcDbEntity
   8
LEVEL001
 370
13
   6
CONTINUOUS
  62
6
 100
AcDbCircle
  10
 4218.6243731264
  20
 4492.0008102234
  30
0.0
  40
 22.500000000000
 100
AcDbArc
  50
 216.81219798810
  51
 306.81219798810
   0
ARC
   5
1E6
 100
AcDbEntity
   8
LEVEL001
 370
13
   6
CONTINUOUS
  62
6
 100
AcDbCircle
  10
 4218.6243731264
  20
 4492.0008102234
  30
0.0
  40
 22.500000000000
 100
AcDbArc
  50
 126.81219798808
  51
 216.81219798811
   0
LINE
   5
1E7
 100
AcDbEntity
   8
LEVEL001
 370
13
 100
AcDbLine
   6
CONTINUOUS
  62
6
  10
 4361.2602524610
  20
 4626.8572373094
  30
0.0
  11
 4205.1425068508
  21
 4510.0143962554
  31
0.0
   0
ARC
   5
1E8
 100
AcDbEntity
   8
LEVEL001
 370
13
   6
CONTINUOUS
  62
6
 100
AcDbCircle
  10
 4374.7421187364
  20
 4608.8436512776
  30
0.0
  40
 22.500000000000
 100
AcDbArc
  50
 36.812197988086
  51
 126.81219798807
   0
ARC
   5
1E9
 100
AcDbEntity
   8
LEVEL001
 370
13
   6
CONTINUOUS
  62
6
 100
AcDbCircle
  10
 4374.7421187364
  20
 4608.8436512774
  30
0.0
  40
 22.500000000000
 100
AcDbArc
  50
 306.81219798808
  51
 36.812197988108
   0
LINE
   5
1EA
 100
AcDbEntity
   8
LEVEL001
 370
13
 100
AcDbLine
   6
CONTINUOUS
  62
6
  10
 4232.1062394018
  20
 4473.9872241914
  30
0.0
  11
 4388.2239850120
  21
 4590.8300652456
  31
0.0
   0
ARC
   5
1EB
 100
AcDbEntity
   8
LEVEL001
 370
13
   6
CONTINUOUS
  62
6
 100
AcDbCircle
  10
 4698.9866673116
  20
 4608.8436512774
  30
0.0
  40
 22.500000000000
 100
AcDbArc
  50
 143.18780201189
  51
 233.18780201191
   0
ARC
   5
1EC
 100
AcDbEntity
   8
LEVEL001
 370
13
   6
CONTINUOUS
  62
6
 100
AcDbCircle
  10
 4698.9866673116
  20
 4608.8436512776
  30
0.0
  40
 22.500000000000
 100
AcDbArc
  50
 53.187802011919
  51
 143.18780201193
   0
LINE
   5
1ED
 100
AcDbEntity
   8
LEVEL001
 370
13
 100
AcDbLine
   6
CONTINUOUS
  62
6
  10
 4712.4685335870
  20
 4626.8572373094
  30
0.0
  11
 4868.5862791972
  21
 4510.0143962554
  31
0.0
   0
ARC
   5
1EE
 100
AcDbEntity
   8
LEVEL001
 370
13
   6
CONTINUOUS
  62
6
 100
AcDbCircle
  10
 4855.1044129216
  20
 4492.0008102234
  30
0.0
  40
 22.500000000000
 100
AcDbArc
  50
 323.18780201189
  51
 53.187802011914
   0
ARC
   5
1EF
 100
AcDbEntity
   8
LEVEL001
 370
13
   6
CONTINUOUS
  62
6
 100
AcDbCircle
  10
 4855.1044129216
  20
 4492.0008102234
  30
0.0
  40
 22.500000000000
 100
AcDbArc
  50
 233.18780201190
  51
 323.18780201189
   0
LINE
   5
1F0
 100
AcDbEntity
   8
LEVEL001
 370
13
 100
AcDbLine
   6
CONTINUOUS
  62
6
  10
 4841.6225466462
  20
 4473.9872241914
  30
0.0
  11
 4685.5048010360
  21
 4590.8300652456
  31
0.0
   0
ARC
   5
1F1
 100
AcDbEntity
   8
LEVEL001
 370
13
   6
CONTINUOUS
  62
7
 100
AcDbCircle
  10
 4404.5768274708
  20
 4767.6804477570
  30
0.0
  40
 25.000000000000
 100
AcDbArc
  50
 270.00000000000
  51
 344.17337986814
   0
ARC
   5
1F2
 100
AcDbEntity
   8
LEVEL001
 370
13
   6
CONTINUOUS
  62
7
 100
AcDbCircle
  10
 4404.5768274708
  20
 4692.6804477570
  30
0.0
  40
 25.000000000000
 100
AcDbArc
  50
 15.826620131860
  51
 90.000000000002
   0
ARC
   5
1F3
 100
AcDbEntity
   8
LEVEL001
 370
13
   6
CONTINUOUS
  62
7
 100
AcDbCircle
  10
 4499.3643930240
  20
 4597.8928822038
  30
0.0
  40
 25.000000000000
 100
AcDbArc
  50
 0.14590858212308E-10
  51
 74.173379868140
   0
ARC
   5
1F4
 100
AcDbEntity
   8
LEVEL001
 370
13
   6
CONTINUOUS
  62
7
 100
AcDbCircle
  10
 4536.8643930240
  20
 4730.1804477570
  30
0.0
  40
 112.50000000000
 100
AcDbArc
  50
 195.82662013187
  51
 254.17337986813
   0
ARC
   5
1F5
 100
AcDbEntity
   8
LEVEL001
 370
13
   6
CONTINUOUS
  62
7
 100
AcDbCircle
  10
 4574.3643930240
  20
 4597.8928822038
  30
0.0
  40
 25.000000000000
 100
AcDbArc
  50
 105.82662013188
  51
 179.99999999999
   0
ARC
   5
1F6
 100
AcDbEntity
   8
LEVEL001
 370
13
   6
CONTINUOUS
  62
7
 100
AcDbCircle
  10
 4669.1519585772
  20
 4692.6804477570
  30
0.0
  40
 25.000000000000
 100
AcDbArc
  50
 89.999999999990
  51
 164.17337986814
   0
ARC
   5
1F7
 100
AcDbEntity
   8
LEVEL001
 370
13
   6
CONTINUOUS
  62
7
 100
AcDbCircle
  10
 4536.8643930240
  20
 4730.1804477570
  30
0.0
  40
 112.50000000000
 100
AcDbArc
  50
 285.82662013187
  51
 344.17337986813
   0
ARC
   5
1F8
 100
AcDbEntity
   8
LEVEL001
 370
13
   6
CONTINUOUS
  62
7
 100
AcDbCircle
  10
 4669.1519585772
  20
 4767.6804477570
  30
0.0
  40
 25.000000000000
 100
AcDbArc
  50
 195.82662013186
  51
 270.00000000001
   0
ARC
   5
1F9
 100
AcDbEntity
   8
LEVEL001
 370
13
   6
CONTINUOUS
  62
7
 100
AcDbCircle
  10
 4574.3643930240
  20
 4862.4680133102
  30
0.0
  40
 25.000000000000
 100
AcDbArc
  50
 180.00000000001
  51
 254.17337986812
   0
ARC
   5
1FA
 100
AcDbEntity
   8
LEVEL001
 370
13
   6
CONTINUOUS
  62
7
 100
AcDbCircle
  10
 4536.8643930240
  20
 4730.1804477570
  30
0.0
  40
 112.50000000000
 100
AcDbArc
  50
 15.826620131875
  51
 74.173379868128
   0
ARC
   5
1FB
 100
AcDbEntity
   8
LEVEL001
 370
13
   6
CONTINUOUS
  62
7
 100
AcDbCircle
  10
 4499.3643930240
  20
 4862.4680133102
  30
0.0
  40
 25.000000000000
 100
AcDbArc
  50
 285.82662013186
  51
 359.99999999999
   0
ARC
   5
1FC
 100
AcDbEntity
   8
LEVEL001
 370
13
   6
CONTINUOUS
  62
7
 100
AcDbCircle
  10
 4536.8643930240
  20
 4730.1804477570
  30
0.0
  40
 112.50000000000
 100
AcDbArc
  50
 105.82662013187
  51
 164.17337986813
   0
LINE
   5
1FD
 100
AcDbEntity
   8
LEVEL001
 370
13
 100
AcDbLine
   6
CONTINUOUS
  62
7
  10
 4524.3643930240
  20
 4862.4680133102
  30
0.0
  11
 4524.3643930240
  21
 4962.6804477570
  31
0.0
   0
ARC
   5
1FE
 100
AcDbEntity
   8
LEVEL001
 370
13
   6
CONTINUOUS
  62
7
 100
AcDbCircle
  10
 4536.8643930240
  20
 4962.6804477570
  30
0.0
  40
 12.500000000000
 100
AcDbArc
  50
 90.000000000000
  51
 180.00000000000
   0
LINE
   5
1FF
 100
AcDbEntity
   8
LEVEL001
 370
13
 100
AcDbLine
   6
CONTINUOUS
  62
7
  10
 4549.3643930240
  20
 4962.6804477570
  30
0.0
  11
 4549.3643930240
  21
 4862.4680133102
  31
0.0
   0
ARC
   5
200
 100
AcDbEntity
   8
LEVEL001
 370
13
   6
CONTINUOUS
  62
7
 100
AcDbCircle
  10
 4536.8643930240
  20
 4962.6804477570
  30
0.0
  40
 12.500000000000
 100
AcDbArc
  50
0.0
  51
 90.000000000000
   0
LINE
   5
201
 100
AcDbEntity
   8
LEVEL001
 370
13
 100
AcDbLine
   6
CONTINUOUS
  62
7
  10
 4669.1519585772
  20
 4742.6804477570
  30
0.0
  11
 4866.8643930240
  21
 4742.6804477570
  31
0.0
   0
ARC
   5
202
 100
AcDbEntity
   8
LEVEL001
 370
13
   6
CONTINUOUS
  62
7
 100
AcDbCircle
  10
 4866.8643930240
  20
 4730.1804477570
  30
0.0
  40
 12.500000000000
 100
AcDbArc
  50
0.0
  51
 90.000000000000
   0
LINE
   5
203
 100
AcDbEntity
   8
LEVEL001
 370
13
 100
AcDbLine
   6
CONTINUOUS
  62
7
  10
 4866.8643930240
  20
 4717.6804477570
  30
0.0
  11
 4669.1519585772
  21
 4717.6804477570
  31
0.0
   0
ARC
   5
204
 100
AcDbEntity
   8
LEVEL001
 370
13
   6
CONTINUOUS
  62
7
 100
AcDbCircle
  10
 4866.8643930240
  20
 4730.1804477570
  30
0.0
  40
 12.500000000000
 100
AcDbArc
  50
 270.00000000000
  51
0.0
   0
LINE
   5
205
 100
AcDbEntity
   8
LEVEL001
 370
13
 100
AcDbLine
   6
CONTINUOUS
  62
7
  10
 4524.3643930240
  20
 4597.8928822038
  30
0.0
  11
 4524.3643930240
  21
 4497.6804477570
  31
0.0
   0
ARC
   5
206
 100
AcDbEntity
   8
LEVEL001
 370
13
   6
CONTINUOUS
  62
7
 100
AcDbCircle
  10
 4536.8643930240
  20
 4497.6804477570
  30
0.0
  40
 12.500000000000
 100
AcDbArc
  50
 180.00000000000
  51
 270.00000000000
   0
LINE
   5
207
 100
AcDbEntity
   8
LEVEL001
 370
13
 100
AcDbLine
   6
CONTINUOUS
  62
7
  10
 4549.3643930240
  20
 4497.6804477570
  30
0.0
  11
 4549.3643930240
  21
 4597.8928822038
  31
0.0
   0
ARC
   5
208
 100
AcDbEntity
   8
LEVEL001
 370
13
   6
CONTINUOUS
  62
7
 100
AcDbCircle
  10
 4536.8643930240
  20
 4497.6804477570
  30
0.0
  40
 12.500000000000
 100
AcDbArc
  50
 270.00000000000
  51
0.0
   0
LINE
   5
209
 100
AcDbEntity
   8
LEVEL001
 370
13
 100
AcDbLine
   6
CONTINUOUS
  62
7
  10
 4206.8643930240
  20
 4717.6804477570
  30
0.0
  11
 4404.5768274708
  21
 4717.6804477570
  31
0.0
   0
ARC
   5
20A
 100
AcDbEntity
   8
LEVEL001
 370
13
   6
CONTINUOUS
  62
7
 100
AcDbCircle
  10
 4206.8643930240
  20
 4730.1804477570
  30
0.0
  40
 12.500000000000
 100
AcDbArc
  50
 180.00000000000
  51
 270.00000000000
   0
LINE
   5
20B
 100
AcDbEntity
   8
LEVEL001
 370
13
 100
AcDbLine
   6
CONTINUOUS
  62
7
  10
 4404.5768274708
  20
 4742.6804477570
  30
0.0
  11
 4206.8643930240
  21
 4742.6804477570
  31
0.0
   0
ARC
   5
20C
 100
AcDbEntity
   8
LEVEL001
 370
13
   6
CONTINUOUS
  62
7
 100
AcDbCircle
  10
 4206.8643930240
  20
 4730.1804477570
  30
0.0
  40
 12.500000000000
 100
AcDbArc
  50
 90.000000000000
  51
 180.00000000000
   0
ARC
   5
20D
 100
AcDbEntity
   8
LEVEL001
 370
13
   6
CONTINUOUS
  62
7
 100
AcDbCircle
  10
 4851.1013938038
  20
 4965.3641150074
  30
0.0
  40
 9.9999999998834
 100
AcDbArc
  50
 36.812197988036
  51
 126.81219798808
   0
ARC
   5
20E
 100
AcDbEntity
   8
LEVEL001
 370
13
   6
CONTINUOUS
  62
7
 100
AcDbCircle
  10
 4851.1013938038
  20
 4965.3641150074
  30
0.0
  40
 9.9999999998834
 100
AcDbArc
  50
 306.81219798808
  51
 36.812197988088
   0
LINE
   5
20F
 100
AcDbEntity
   8
LEVEL001
 370
13
 100
AcDbLine
   6
CONTINUOUS
  62
7
  10
 4857.0933343706
  20
 4957.3580767710
  30
0.0
  11
 4708.9816269968
  21
 4846.5071762836
  31
0.0
   0
ARC
   5
210
 100
AcDbEntity
   8
LEVEL001
 370
13
   6
CONTINUOUS
  62
7
 100
AcDbCircle
  10
 4702.9896864300
  20
 4854.5132145200
  30
0.0
  40
 9.9999999998834
 100
AcDbArc
  50
 216.81219798811
  51
 306.81219798811
   0
LINE
   5
211
 100
AcDbEntity
   8
LEVEL001
 370
13
 100
AcDbLine
   6
CONTINUOUS
  62
7
  10
 4696.9977458630
  20
 4862.5192527564
  30
0.0
  11
 4845.1094532370
  21
 4973.3701532438
  31
0.0
   0
ARC
   5
212
 100
AcDbEntity
   8
LEVEL001
 370
13
   6
CONTINUOUS
  62
7
 100
AcDbCircle
  10
 4702.9896864298
  20
 4854.5132145200
  30
0.0
  40
 9.9999999998834
 100
AcDbArc
  50
 126.81219798811
  51
 216.81219798811
   0
ARC
   5
213
 100
AcDbEntity
   8
LEVEL001
 370
13
   6
CONTINUOUS
  62
7
 100
AcDbCircle
  10
 4222.6273922442
  20
 4965.3641150074
  30
0.0
  40
 9.9999999998834
 100
AcDbArc
  50
 53.187802011919
  51
 143.18780201196
   0
ARC
   5
214
 100
AcDbEntity
   8
LEVEL001
 370
13
   6
CONTINUOUS
  62
7
 100
AcDbCircle
  10
 4222.6273922442
  20
 4965.3641150074
  30
0.0
  40
 9.9999999998834
 100
AcDbArc
  50
 143.18780201191
  51
 233.18780201192
   0
LINE
   5
215
 100
AcDbEntity
   8
LEVEL001
 370
13
 100
AcDbLine
   6
CONTINUOUS
  62
7
  10
 4216.6354516774
  20
 4957.3580767710
  30
0.0
  11
 4364.7471590512
  21
 4846.5071762836
  31
0.0
   0
LINE
   5
216
 100
AcDbEntity
   8
LEVEL001
 370
13
 100
AcDbLine
   6
CONTINUOUS
  62
7
  10
 4376.7310401850
  20
 4862.5192527564
  30
0.0
  11
 4228.6193328110
  21
 4973.3701532438
  31
0.0
   0
ARC
   5
217
 100
AcDbEntity
   8
LEVEL001
 370
13
   6
CONTINUOUS
  62
7
 100
AcDbCircle
  10
 4370.7390996180
  20
 4854.5132145200
  30
0.0
  40
 9.9999999998834
 100
AcDbArc
  50
 233.18780201190
  51
 323.18780201187
   0
ARC
   5
218
 100
AcDbEntity
   8
LEVEL001
 370
13
   6
CONTINUOUS
  62
7
 100
AcDbCircle
  10
 4370.7390996182
  20
 4854.5132145200
  30
0.0
  40
 9.9999999998834
 100
AcDbArc
  50
 323.18780201191
  51
 53.187802011919
   0
ARC
   5
219
 100
AcDbEntity
   8
LEVEL001
 370
13
   6
CONTINUOUS
  62
7
 100
AcDbCircle
  10
 4851.1013938038
  20
 4494.9967805066
  30
0.0
  40
 9.9999999998834
 100
AcDbArc
  50
 233.18780201189
  51
 323.18780201189
   0
ARC
   5
21A
 100
AcDbEntity
   8
LEVEL001
 370
13
   6
CONTINUOUS
  62
7
 100
AcDbCircle
  10
 4851.1013938038
  20
 4494.9967805066
  30
0.0
  40
 9.9999999998834
 100
AcDbArc
  50
 323.18780201191
  51
 53.187802011919
   0
LINE
   5
21B
 100
AcDbEntity
   8
LEVEL001
 370
13
 100
AcDbLine
   6
CONTINUOUS
  62
7
  10
 4857.0933343706
  20
 4503.0028187430
  30
0.0
  11
 4708.9816269968
  21
 4613.8537192304
  31
0.0
   0
LINE
   5
21C
 100
AcDbEntity
   8
LEVEL001
 370
13
 100
AcDbLine
   6
CONTINUOUS
  62
7
  10
 4696.9977458630
  20
 4597.8416427576
  30
0.0
  11
 4845.1094532370
  21
 4486.9907422702
  31
0.0
   0
ARC
   5
21D
 100
AcDbEntity
   8
LEVEL001
 370
13
   6
CONTINUOUS
  62
7
 100
AcDbCircle
  10
 4702.9896864300
  20
 4605.8476809940
  30
0.0
  40
 9.9999999998834
 100
AcDbArc
  50
 53.187802011886
  51
 143.18780201189
   0
ARC
   5
21E
 100
AcDbEntity
   8
LEVEL001
 370
13
   6
CONTINUOUS
  62
7
 100
AcDbCircle
  10
 4702.9896864298
  20
 4605.8476809940
  30
0.0
  40
 9.9999999998834
 100
AcDbArc
  50
 143.18780201182
  51
 233.18780201193
   0
LINE
   5
21F
 100
AcDbEntity
   8
LEVEL001
 370
13
 100
AcDbLine
   6
CONTINUOUS
  62
7
  10
 4216.6354516774
  20
 4503.0028187430
  30
0.0
  11
 4364.7471590512
  21
 4613.8537192304
  31
0.0
   0
LINE
   5
220
 100
AcDbEntity
   8
LEVEL001
 370
13
 100
AcDbLine
   6
CONTINUOUS
  62
7
  10
 4376.7310401850
  20
 4597.8416427576
  30
0.0
  11
 4228.6193328110
  21
 4486.9907422702
  31
0.0
   0
ARC
   5
221
 100
AcDbEntity
   8
LEVEL001
 370
13
   6
CONTINUOUS
  62
7
 100
AcDbCircle
  10
 4370.7390996180
  20
 4605.8476809940
  30
0.0
  40
 9.9999999998834
 100
AcDbArc
  50
 36.812197988114
  51
 126.81219798811
   0
ARC
   5
222
 100
AcDbEntity
   8
LEVEL001
 370
13
   6
CONTINUOUS
  62
7
 100
AcDbCircle
  10
 4370.7390996182
  20
 4605.8476809940
  30
0.0
  40
 9.9999999998834
 100
AcDbArc
  50
 306.81219798803
  51
 36.812197988151
   0
ARC
   5
223
 100
AcDbEntity
   8
LEVEL001
 370
13
   6
CONTINUOUS
  62
7
 100
AcDbCircle
  10
 4222.6273922442
  20
 4494.9967805066
  30
0.0
  40
 9.9999999998834
 100
AcDbArc
  50
 216.81219798804
  51
 306.81219798808
   0
ARC
   5
224
 100
AcDbEntity
   8
LEVEL001
 370
13
   6
CONTINUOUS
  62
7
 100
AcDbCircle
  10
 4222.6273922442
  20
 4494.9967805066
  30
0.0
  40
 9.9999999998834
 100
AcDbArc
  50
 126.81219798808
  51
 216.81219798809
   0
ARC
   5
225
 100
AcDbEntity
   8
LEVEL001
 370
13
   6
CONTINUOUS
  62
7
 100
AcDbCircle
  10
 4869.3643930240
  20
 4962.6804477570
  30
0.0
  40
 90.900000000000
 100
AcDbArc
  50
 0.34396176832408E-11
  51
 90.000000000001
   0
LINE
   5
226
 100
AcDbEntity
   8
LEVEL001
 370
13
 100
AcDbLine
   6
CONTINUOUS
  62
7
  10
 4960.2643930240
  20
 4497.6804477570
  30
0.0
  11
 4960.2643930240
  21
 4962.6804477570
  31
0.0
   0
LINE
   5
227
 100
AcDbEntity
   8
LEVEL001
 370
13
 100
AcDbLine
   6
CONTINUOUS
  62
7
  10
 4945.2643930240
  20
 4497.6804477570
  30
0.0
  11
 4945.2643930240
  21
 4962.6804477570
  31
0.0
   0
ARC
   5
228
 100
AcDbEntity
   8
LEVEL001
 370
13
   6
CONTINUOUS
  62
7
 100
AcDbCircle
  10
 4869.3643930240
  20
 4962.6804477570
  30
0.0
  40
 75.900000000000
 100
AcDbArc
  50
 0.41193840238023E-11
  51
 90.000000000001
   0
LINE
   5
229
 100
AcDbEntity
   8
LEVEL001
 370
13
 100
AcDbLine
   6
CONTINUOUS
  62
7
  10
 4204.3643930240
  20
 4406.7804477570
  30
0.0
  11
 4869.3643930240
  21
 4406.7804477570
  31
0.0
   0
ARC
   5
22A
 100
AcDbEntity
   8
LEVEL001
 370
13
   6
CONTINUOUS
  62
7
 100
AcDbCircle
  10
 4869.3643930240
  20
 4497.6804477570
  30
0.0
  40
 90.900000000000
 100
AcDbArc
  50
 270.00000000000
  51
 0.57326961387347E-11
   0
LINE
   5
22B
 100
AcDbEntity
   8
LEVEL001
 370
13
 100
AcDbLine
   6
CONTINUOUS
  62
7
  10
 4204.3643930240
  20
 4421.7804477570
  30
0.0
  11
 4869.3643930240
  21
 4421.7804477570
  31
0.0
   0
ARC
   5
22C
 100
AcDbEntity
   8
LEVEL001
 370
13
   6
CONTINUOUS
  62
7
 100
AcDbCircle
  10
 4869.3643930240
  20
 4497.6804477570
  30
0.0
  40
 75.900000000000
 100
AcDbArc
  50
 270.00000000000
  51
 0.68656400396704E-11
   0
ARC
   5
22D
 100
AcDbEntity
   8
LEVEL001
 370
13
   6
CONTINUOUS
  62
7
 100
AcDbCircle
  10
 4204.3643930240
  20
 4497.6804477570
  30
0.0
  40
 90.900000000000
 100
AcDbArc
  50
 179.99999999999
  51
 270.00000000000
   0
LINE
   5
22E
 100
AcDbEntity
   8
LEVEL001
 370
13
 100
AcDbLine
   6
CONTINUOUS
  62
7
  10
 4113.4643930240
  20
 4962.6804477570
  30
0.0
  11
 4113.4643930240
  21
 4497.6804477570
  31
0.0
   0
LINE
   5
22F
 100
AcDbEntity
   8
LEVEL001
 370
13
 100
AcDbLine
   6
CONTINUOUS
  62
7
  10
 4128.4643930240
  20
 4962.6804477570
  30
0.0
  11
 4128.4643930240
  21
 4497.6804477570
  31
0.0
   0
ARC
   5
230
 100
AcDbEntity
   8
LEVEL001
 370
13
   6
CONTINUOUS
  62
7
 100
AcDbCircle
  10
 4204.3643930240
  20
 4497.6804477570
  30
0.0
  40
 75.900000000000
 100
AcDbArc
  50
 179.99999999999
  51
 270.00000000000
   0
LINE
   5
231
 100
AcDbEntity
   8
LEVEL001
 370
13
 100
AcDbLine
   6
CONTINUOUS
  62
7
  10
 4869.3643930240
  20
 5053.5804477570
  30
0.0
  11
 4204.3643930240
  21
 5053.5804477570
  31
0.0
   0
ARC
   5
232
 100
AcDbEntity
   8
LEVEL001
 370
13
   6
CONTINUOUS
  62
7
 100
AcDbCircle
  10
 4204.3643930240
  20
 4962.6804477570
  30
0.0
  40
 90.900000000000
 100
AcDbArc
  50
 89.999999999999
  51
 180.00000000000
   0
LINE
   5
233
 100
AcDbEntity
   8
LEVEL001
 370
13
 100
AcDbLine
   6
CONTINUOUS
  62
7
  10
 4869.3643930240
  20
 5038.5804477570
  30
0.0
  11
 4204.3643930240
  21
 5038.5804477570
  31
0.0
   0
ARC
   5
234
 100
AcDbEntity
   8
LEVEL001
 370
13
   6
CONTINUOUS
  62
7
 100
AcDbCircle
  10
 4204.3643930240
  20
 4962.6804477570
  30
0.0
  40
 75.900000000000
 100
AcDbArc
  50
 89.999999999999
  51
 180.00000000000
   0
CIRCLE
   5
235
 100
AcDbEntity
   8
LEVEL001
 370
13
 100
AcDbCircle
   6
CONTINUOUS
  62
1
  10
 4036.8643930240
  20
 4280.1804477570
  30
0.0
  40
 69.999997913838
   0
MTEXT
   5
236
 100
AcDbEntity
   8
LEVEL001
 370
13
  62
1
 100
AcDbMText
  10
 4036.8643930240
  20
 4280.1804477570
  30
0.0
  40
 57.142857142858
  41
0.0
  71
5
  72
1
   1
\T1.000000;2
   7
GMM001
  44
 0.79999984000003
   0
LEADER
   5
237
 100
AcDbEntity
   8
LEVEL001
 370
13
   6
CONTINUOUS
  62
1
 100
AcDbLeader
   3
GMM001
  73
3
  74
1
  75
0
  40
 66.000000000000
  41
0.0
  76
2
  10
 4186.8643930240
  20
 4530.1804477570
  30
0.0
  10
 4072.9461766430
  20
 4340.1646506676
  30
0.0
  77
1
   0
LINE
   5
238
 100
AcDbEntity
   8
LEVEL001
 370
13
 100
AcDbLine
   6
CONTINUOUS
  62
3
  10
 3756.6519100424
  20
 5051.7804477570
  30
0.0
  11
 3756.6519100424
  21
 4408.5804477570
  31
0.0
   0
ARC
   5
239
 100
AcDbEntity
   8
LEVEL001
 370
13
   6
CONTINUOUS
  62
3
 100
AcDbCircle
  10
 3754.8519100424
  20
 5051.7804477570
  30
0.0
  40
 1.8000000000002
 100
AcDbArc
  50
 359.99999999991
  51
 89.999999999971
   0
LINE
   5
23A
 100
AcDbEntity
   8
LEVEL001
 370
13
 100
AcDbLine
   6
CONTINUOUS
  62
3
  10
 3753.0519100424
  20
 4408.5804477570
  30
0.0
  11
 3753.0519100424
  21
 5051.7804477570
  31
0.0
   0
ARC
   5
23B
 100
AcDbEntity
   8
LEVEL001
 370
13
   6
CONTINUOUS
  62
3
 100
AcDbCircle
  10
 3754.8519100424
  20
 5051.7804477570
  30
0.0
  40
 1.8000000000002
 100
AcDbArc
  50
 90.000000000029
  51
 180.00000000009
   0
ARC
   5
23C
 100
AcDbEntity
   8
LEVEL001
 370
13
   6
CONTINUOUS
  62
1
 100
AcDbCircle
  10
 3775.9627635564
  20
 4811.5499072570
  30
0.0
  40
 5.0000000000000
 100
AcDbArc
  50
 269.99999999994
  51
 285.97235980420
   0
LINE
   5
23D
 100
AcDbEntity
   8
LEVEL001
 370
13
 100
AcDbLine
   6
CONTINUOUS
  62
1
  10
 3775.2480288446
  20
 4806.5499072570
  30
0.0
  11
 3756.6519100424
  21
 4806.5499072570
  31
0.0
   0
ARC
   5
23E
 100
AcDbEntity
   8
LEVEL001
 370
13
   6
CONTINUOUS
  62
1
 100
AcDbCircle
  10
 3775.2480288446
  20
 4816.5499072570
  30
0.0
  40
 10.000000000000
 100
AcDbArc
  50
 269.99999999985
  51
 286.57946484690
   0
ARC
   5
23F
 100
AcDbEntity
   8
LEVEL001
 370
13
   6
CONTINUOUS
  62
1
 100
AcDbCircle
  10
 3756.7006116138
  20
 4878.8475261046
  30
0.0
  40
 75.000000000000
 100
AcDbArc
  50
 286.57946484705
  51
 2.0649141019446
   0
LINE
   5
240
 100
AcDbEntity
   8
LEVEL001
 370
13
 100
AcDbLine
   6
CONTINUOUS
  62
1
  10
 3756.6519100424
  20
 5033.5804477570
  30
0.0
  11
 3831.6519100424
  21
 5033.5804477570
  31
0.0
   0
LINE
   5
241
 100
AcDbEntity
   8
LEVEL001
 370
13
 100
AcDbLine
   6
CONTINUOUS
  62
1
  10
 3831.6519100424
  20
 5033.5804477570
  30
0.0
  11
 3831.6519100424
  21
 4876.1451449520
  31
0.0
   0
ARC
   5
242
 100
AcDbEntity
   8
LEVEL001
 370
13
   6
CONTINUOUS
  62
7
 100
AcDbCircle
  10
 801.04191575472
  20
 4730.1804477570
  30
0.0
  40
 3000.0000000000
 100
AcDbArc
  50
 354.38599941370
  51
 1.6669346216522
   0
LINE
   5
243
 100
AcDbEntity
   8
LEVEL001
 370
13
 100
AcDbLine
   6
CONTINUOUS
  62
6
  10
 3776.7004563134
  20
 4806.6559467534
  30
0.0
  11
 3776.7004563134
  21
 4427.6804477570
  31
0.0
   0
LINE
   5
244
 100
AcDbEntity
   8
LEVEL001
 370
13
 100
AcDbLine
   6
HIDDEN
  62
1
  10
 3776.7004563134
  20
 5032.6804477570
  30
0.0
  11
 3756.6519100424
  21
 5032.6804477570
  31
0.0
   0
ARC
   5
245
 100
AcDbEntity
   8
LEVEL001
 370
13
   6
HIDDEN
  62
1
 100
AcDbCircle
  10
 3776.7004563134
  20
 5022.6804477570
  30
0.0
  40
 10.000000000000
 100
AcDbArc
  50
 5.6140005862308
  51
 89.999999999984
   0
LINE
   5
246
 100
AcDbEntity
   8
LEVEL001
 370
13
 100
AcDbLine
   6
HIDDEN
  62
1
  10
 3776.7004563134
  20
 5032.6804477570
  30
0.0
  11
 3776.7004563134
  21
 4806.5499072570
  31
0.0
   0
ARC
   5
247
 100
AcDbEntity
   8
LEVEL001
 370
13
   6
HIDDEN
  62
1
 100
AcDbCircle
  10
 801.04191575472
  20
 4730.1804477570
  30
0.0
  40
 3000.0000000000
 100
AcDbArc
  50
 1.6669346216522
  51
 5.6140005863000
   0
LINE
   5
248
 100
AcDbEntity
   8
LEVEL001
 370
13
 100
AcDbLine
   6
CONTINUOUS
  62
7
  10
 3753.0519100424
  20
 4785.1804477570
  30
0.0
  11
 3661.6519100424
  21
 4785.1804477570
  31
0.0
   0
LINE
   5
249
 100
AcDbEntity
   8
LEVEL001
 370
13
 100
AcDbLine
   6
CONTINUOUS
  62
7
  10
 3661.6519100424
  20
 4785.1804477570
  30
0.0
  11
 3661.6519100424
  21
 4675.1804477570
  31
0.0
   0
LINE
   5
24A
 100
AcDbEntity
   8
LEVEL001
 370
13
 100
AcDbLine
   6
CONTINUOUS
  62
7
  10
 3661.6519100424
  20
 4675.1804477570
  30
0.0
  11
 3752.3519100424
  21
 4675.1804477570
  31
0.0
   0
ELLIPSE
   5
24B
 100
AcDbEntity
   8
LEVEL001
 370
13
   6
DOT
  62
1
 100
AcDbEllipse
  10
 3753.9352433756
  20
 4788.4076890928
  30
0.0
  11
0.0
  21
 2.7424137787166
  31
0.0
  40
 0.57735026920017
  41
 1.5707963267949
  42
-3.1415811789528
   0
ELLIPSE
   5
24C
 100
AcDbEntity
   8
LEVEL001
 370
13
   6
DOT
  62
1
 100
AcDbEllipse
  10
 3753.9352433756
  20
 4780.1804477570
  30
0.0
  11
0.0
  21
 5.4848275572467
  31
0.0
  40
 0.28867513459863
  41
-0.22949271770290E-4
  42
-3.1415697043180
   0
ELLIPSE
   5
24D
 100
AcDbEntity
   8
LEVEL001
 370
13
   6
DOT
  62
1
 100
AcDbEllipse
  10
 3753.9352433756
  20
 4771.9532064212
  30
0.0
  11
0.0
  21
-2.7424137787175
  31
0.0
  40
 0.57735026920017
  41
 3.1415811789528
  42
-1.5707963267949
   0
ARC
   5
24E
 100
AcDbEntity
   8
LEVEL001
 370
13
   6
CONTINUOUS
  62
3
 100
AcDbCircle
  10
 3754.8519100424
  20
 4408.5804477570
  30
0.0
  40
 1.8000000000002
 100
AcDbArc
  50
 270.00000000003
  51
 0.86850346501822E-10
   0
ARC
   5
24F
 100
AcDbEntity
   8
LEVEL001
 370
13
   6
CONTINUOUS
  62
3
 100
AcDbCircle
  10
 3754.8519100424
  20
 4408.5804477570
  30
0.0
  40
 1.8000000000002
 100
AcDbArc
  50
 179.99999999991
  51
 269.99999999997
   0
LINE
   5
250
 100
AcDbEntity
   8
LEVEL001
 370
13
 100
AcDbLine
   6
CONTINUOUS
  62
7
  10
 3756.6519100424
  20
 4427.6804477570
  30
0.0
  11
 3776.7004563134
  21
 4427.6804477570
  31
0.0
   0
ARC
   5
251
 100
AcDbEntity
   8
LEVEL001
 370
13
   6
CONTINUOUS
  62
7
 100
AcDbCircle
  10
 3776.7004563134
  20
 4437.6804477570
  30
0.0
  40
 10.000000000000
 100
AcDbArc
  50
 270.00000000001
  51
 354.38599941369
   0
CIRCLE
   5
252
 100
AcDbEntity
   8
LEVEL001
 370
13
 100
AcDbCircle
   6
CONTINUOUS
  62
1
  10
 3583.7361036216
  20
 4280.1804477570
  30
0.0
  40
 70.000000000000
   0
MTEXT
   5
253
 100
AcDbEntity
   8
LEVEL001
 370
13
  62
1
 100
AcDbMText
  10
 3583.7361036216
  20
 4280.1804477570
  30
0.0
  40
 57.142857142858
  41
0.0
  71
5
  72
1
   1
\T1.000000;10
   7
GMM001
  44
 0.79999984000003
   0
MTEXT
   5
254
 100
AcDbEntity
   8
LEVEL001
 370
13
  62
1
 100
AcDbMText
  10
 3443.7361057078
  20
 4280.1804477570
  30
0.0
  40
 57.142857142858
  41
0.0
  71
5
  72
1
   1
\T1.000000;9
   7
GMM001
  44
 0.79999984000003
   0
CIRCLE
   5
255
 100
AcDbEntity
   8
LEVEL001
 370
13
 100
AcDbCircle
   6
CONTINUOUS
  62
1
  10
 3443.7361057078
  20
 4280.1804477570
  30
0.0
  40
 69.999997913838
   0
LEADER
   5
256
 100
AcDbEntity
   8
LEVEL001
 370
13
   6
CONTINUOUS
  62
1
 100
AcDbLeader
   3
GMM002
  73
3
  74
1
  75
0
  40
 60.000000000000
  41
0.0
  76
2
  10
 3352.0018332984
  20
 4615.1804477570
  30
0.0
  10
 3424.7525547824
  20
 4347.5571833724
  30
0.0
  77
1
   0
LINE
   5
257
 100
AcDbEntity
   8
LEVEL001
 370
13
 100
AcDbLine
   6
CONTINUOUS
  62
7
  10
 2344.3643930240
  20
 5032.6804477570
  30
0.0
  11
 1679.3643930240
  21
 5032.6804477570
  31
0.0
   0
LINE
   5
258
 100
AcDbEntity
   8
LEVEL001
 370
13
 100
AcDbLine
   6
CONTINUOUS
  62
3
  10
 2344.3643930240
  20
 5053.5804477570
  30
0.0
  11
 1679.3643930240
  21
 5053.5804477570
  31
0.0
   0
LINE
   5
259
 100
AcDbEntity
   8
LEVEL001
 370
13
 100
AcDbLine
   6
CONTINUOUS
  62
3
  10
 2344.3643930240
  20
 5038.5804477570
  30
0.0
  11
 1679.3643930240
  21
 5038.5804477570
  31
0.0
   0
ARC
   5
25A
 100
AcDbEntity
   8
LEVEL001
 370
13
   6
CONTINUOUS
  62
1
 100
AcDbCircle
  10
 1679.3643930240
  20
 4962.6804477570
  30
0.0
  40
 70.900000000000
 100
AcDbArc
  50
 89.999999999999
  51
 180.00000000000
   0
LINE
   5
25B
 100
AcDbEntity
   8
LEVEL001
 370
13
 100
AcDbLine
   6
CONTINUOUS
  62
1
  10
 2344.3643930240
  20
 5033.5804477570
  30
0.0
  11
 1679.3643930240
  21
 5033.5804477570
  31
0.0
   0
ARC
   5
25C
 100
AcDbEntity
   8
LEVEL001
 370
13
   6
CONTINUOUS
  62
1
 100
AcDbCircle
  10
 2344.3643930240
  20
 4962.6804477570
  30
0.0
  40
 70.900000000000
 100
AcDbArc
  50
 0.44098906545358E-11
  51
 90.000000000001
   0
LINE
   5
25D
 100
AcDbEntity
   8
LEVEL001
 370
13
 100
AcDbLine
   6
CONTINUOUS
  62
1
  10
 1608.4643930240
  20
 4962.6804477570
  30
0.0
  11
 1608.4643930240
  21
 4806.5499072570
  31
0.0
   0
LINE
   5
25E
 100
AcDbEntity
   8
LEVEL001
 370
13
 100
AcDbLine
   6
CONTINUOUS
  62
1
  10
 2415.2643930240
  20
 4806.5499072570
  30
0.0
  11
 2415.2643930240
  21
 4962.6804477570
  31
0.0
   0
LINE
   5
25F
 100
AcDbEntity
   8
LEVEL001
 370
13
 100
AcDbLine
   6
CONTINUOUS
  62
1
  10
 1608.4643930240
  20
 4806.5499072570
  30
0.0
  11
 1609.3643930240
  21
 4806.5499072570
  31
0.0
   0
LINE
   5
260
 100
AcDbEntity
   8
LEVEL001
 370
13
 100
AcDbLine
   6
CONTINUOUS
  62
1
  10
 2415.2643930240
  20
 4806.5499072570
  30
0.0
  11
 2414.3643930240
  21
 4806.5499072570
  31
0.0
   0
ARC
   5
261
 100
AcDbEntity
   8
LEVEL001
 370
13
   6
CONTINUOUS
  62
7
 100
AcDbCircle
  10
 2344.3643930240
  20
 4962.6804477570
  30
0.0
  40
 70.000000000000
 100
AcDbArc
  50
0.0
  51
 90.000000000000
   0
LINE
   5
262
 100
AcDbEntity
   8
LEVEL001
 370
13
 100
AcDbLine
   6
CONTINUOUS
  62
7
  10
 2414.3643930240
  20
 4497.6804477570
  30
0.0
  11
 2414.3643930240
  21
 4962.6804477570
  31
0.0
   0
ARC
   5
263
 100
AcDbEntity
   8
LEVEL001
 370
13
   6
CONTINUOUS
  62
3
 100
AcDbCircle
  10
 2344.3643930240
  20
 4962.6804477570
  30
0.0
  40
 90.900000000000
 100
AcDbArc
  50
 0.34396176832408E-11
  51
 90.000000000001
   0
LINE
   5
264
 100
AcDbEntity
   8
LEVEL001
 370
13
 100
AcDbLine
   6
CONTINUOUS
  62
3
  10
 2420.2643930240
  20
 4497.6804477570
  30
0.0
  11
 2420.2643930240
  21
 4962.6804477570
  31
0.0
   0
ARC
   5
265
 100
AcDbEntity
   8
LEVEL001
 370
13
   6
CONTINUOUS
  62
3
 100
AcDbCircle
  10
 2344.3643930240
  20
 4962.6804477570
  30
0.0
  40
 75.900000000000
 100
AcDbArc
  50
 0.41193840238022E-11
  51
 90.000000000001
   0
LINE
   5
266
 100
AcDbEntity
   8
LEVEL001
 370
13
 100
AcDbLine
   6
CONTINUOUS
  62
3
  10
 2717.0768760056
  20
 5051.7804477570
  30
0.0
  11
 2717.0768760056
  21
 4408.5804477570
  31
0.0
   0
ARC
   5
267
 100
AcDbEntity
   8
LEVEL001
 370
13
   6
CONTINUOUS
  62
3
 100
AcDbCircle
  10
 2718.8768760056
  20
 5051.7804477570
  30
0.0
  40
 1.8000000000002
 100
AcDbArc
  50
 90.000000000029
  51
 180.00000000009
   0
LINE
   5
268
 100
AcDbEntity
   8
LEVEL001
 370
13
 100
AcDbLine
   6
CONTINUOUS
  62
3
  10
 2720.6768760056
  20
 4408.5804477570
  30
0.0
  11
 2720.6768760056
  21
 5051.7804477570
  31
0.0
   0
ARC
   5
269
 100
AcDbEntity
   8
LEVEL001
 370
13
   6
CONTINUOUS
  62
3
 100
AcDbCircle
  10
 2718.8768760056
  20
 5051.7804477570
  30
0.0
  40
 1.8000000000002
 100
AcDbArc
  50
 359.99999999991
  51
 89.999999999971
   0
ARC
   5
26A
 100
AcDbEntity
   8
LEVEL001
 370
13
   6
CONTINUOUS
  62
1
 100
AcDbCircle
  10
 2697.7660224916
  20
 4811.5499072570
  30
0.0
  40
 5.0000000000000
 100
AcDbArc
  50
 254.02764019580
  51
 270.00000000002
   0
LINE
   5
26B
 100
AcDbEntity
   8
LEVEL001
 370
13
 100
AcDbLine
   6
CONTINUOUS
  62
1
  10
 2698.4807572034
  20
 4806.5499072570
  30
0.0
  11
 2717.0768760056
  21
 4806.5499072570
  31
0.0
   0
ARC
   5
26C
 100
AcDbEntity
   8
LEVEL001
 370
13
   6
CONTINUOUS
  62
1
 100
AcDbCircle
  10
 2698.4807572034
  20
 4816.5499072570
  30
0.0
  40
 10.000000000000
 100
AcDbArc
  50
 253.42053515281
  51
 269.99999999986
   0
ARC
   5
26D
 100
AcDbEntity
   8
LEVEL001
 370
13
   6
CONTINUOUS
  62
1
 100
AcDbCircle
  10
 2717.0281744342
  20
 4878.8475261046
  30
0.0
  40
 75.000000000000
 100
AcDbArc
  50
 177.93508589806
  51
 253.42053515295
   0
LINE
   5
26E
 100
AcDbEntity
   8
LEVEL001
 370
13
 100
AcDbLine
   6
CONTINUOUS
  62
1
  10
 2717.0768760056
  20
 5033.5804477570
  30
0.0
  11
 2642.0768760056
  21
 5033.5804477570
  31
0.0
   0
LINE
   5
26F
 100
AcDbEntity
   8
LEVEL001
 370
13
 100
AcDbLine
   6
CONTINUOUS
  62
1
  10
 2642.0768760056
  20
 5033.5804477570
  30
0.0
  11
 2642.0768760056
  21
 4876.1451449520
  31
0.0
   0
ARC
   5
270
 100
AcDbEntity
   8
LEVEL001
 370
13
   6
CONTINUOUS
  62
7
 100
AcDbCircle
  10
 5672.6868702932
  20
 4730.1804477570
  30
0.0
  40
 3000.0000000000
 100
AcDbArc
  50
 178.33306537835
  51
 185.61400058630
   0
LINE
   5
271
 100
AcDbEntity
   8
LEVEL001
 370
13
 100
AcDbLine
   6
CONTINUOUS
  62
6
  10
 2697.0283297346
  20
 4806.6559467534
  30
0.0
  11
 2697.0283297346
  21
 4427.6804477570
  31
0.0
   0
LINE
   5
272
 100
AcDbEntity
   8
LEVEL001
 370
13
 100
AcDbLine
   6
HIDDEN
  62
1
  10
 2697.0283297346
  20
 5032.6804477570
  30
0.0
  11
 2717.0768760056
  21
 5032.6804477570
  31
0.0
   0
ARC
   5
273
 100
AcDbEntity
   8
LEVEL001
 370
13
   6
HIDDEN
  62
1
 100
AcDbCircle
  10
 2697.0283297346
  20
 5022.6804477570
  30
0.0
  40
 10.000000000000
 100
AcDbArc
  50
 89.999999999995
  51
 174.38599941377
   0
LINE
   5
274
 100
AcDbEntity
   8
LEVEL001
 370
13
 100
AcDbLine
   6
HIDDEN
  62
1
  10
 2697.0283297346
  20
 5032.6804477570
  30
0.0
  11
 2697.0283297346
  21
 4806.5499072570
  31
0.0
   0
ARC
   5
275
 100
AcDbEntity
   8
LEVEL001
 370
13
   6
HIDDEN
  62
1
 100
AcDbCircle
  10
 5672.6868702932
  20
 4730.1804477570
  30
0.0
  40
 3000.0000000000
 100
AcDbArc
  50
 174.38599941370
  51
 178.33306537835
   0
LINE
   5
276
 100
AcDbEntity
   8
LEVEL001
 370
13
 100
AcDbLine
   6
CONTINUOUS
  62
7
  10
 2720.6768760056
  20
 4785.1804477570
  30
0.0
  11
 2812.0768760056
  21
 4785.1804477570
  31
0.0
   0
LINE
   5
277
 100
AcDbEntity
   8
LEVEL001
 370
13
 100
AcDbLine
   6
CONTINUOUS
  62
7
  10
 2812.0768760056
  20
 4785.1804477570
  30
0.0
  11
 2812.0768760056
  21
 4675.1804477570
  31
0.0
   0
LINE
   5
278
 100
AcDbEntity
   8
LEVEL001
 370
13
 100
AcDbLine
   6
CONTINUOUS
  62
7
  10
 2812.0768760056
  20
 4675.1804477570
  30
0.0
  11
 2721.3768760056
  21
 4675.1804477570
  31
0.0
   0
ELLIPSE
   5
279
 100
AcDbEntity
   8
LEVEL001
 370
13
   6
DOT
  62
1
 100
AcDbEllipse
  10
 2719.7935426724
  20
 4788.4076890928
  30
0.0
  11
0.0
  21
 2.7424137787166
  31
0.0
  40
 0.57735026920017
  41
 3.1415811789528
  42
-1.5707963267949
   0
ELLIPSE
   5
27A
 100
AcDbEntity
   8
LEVEL001
 370
13
   6
DOT
  62
1
 100
AcDbEllipse
  10
 2719.7935426724
  20
 4780.1804477570
  30
0.0
  11
0.0
  21
 5.4848275572467
  31
0.0
  40
 0.28867513459863
  41
 3.1415697043157
  42
 0.22949274067261E-4
   0
ELLIPSE
   5
27B
 100
AcDbEntity
   8
LEVEL001
 370
13
   6
DOT
  62
1
 100
AcDbEllipse
  10
 2719.7935426724
  20
 4771.9532064212
  30
0.0
  11
0.0
  21
-2.7424137787175
  31
0.0
  40
 0.57735026920017
  41
 1.5707963267949
  42
-3.1415811789528
   0
CIRCLE
   5
27C
 100
AcDbEntity
   8
LEVEL001
 370
13
 100
AcDbCircle
   6
CONTINUOUS
  62
1
  10
 2436.8643930240
  20
 5230.1804477570
  30
0.0
  40
 69.999997913838
   0
MTEXT
   5
27D
 100
AcDbEntity
   8
LEVEL001
 370
13
  62
1
 100
AcDbMText
  10
 2436.8643930240
  20
 5230.1804477570
  30
0.0
  40
 57.142857142858
  41
0.0
  71
5
  72
1
   1
\T1.000000;3
   7
GMM001
  44
 0.79999984000003
   0
LEADER
   5
27E
 100
AcDbEntity
   8
LEVEL001
 370
13
   6
CONTINUOUS
  62
1
 100
AcDbLeader
   3
GMM002
  73
3
  74
1
  75
0
  40
 60.000000000000
  41
0.0
  76
2
  10
 2211.8643930240
  20
 5033.5804477570
  30
0.0
  10
 2384.2767036144
  20
 5183.9794236286
  30
0.0
  77
1
   0
LEADER
   5
27F
 100
AcDbEntity
   8
LEVEL001
 370
13
   6
CONTINUOUS
  62
1
 100
AcDbLeader
   3
GMM002
  73
3
  74
1
  75
0
  40
 60.000000000000
  41
0.0
  76
2
  10
 2642.0768760056
  20
 5033.5804477570
  30
0.0
  10
 2487.4544706130
  20
 5181.8002477008
  30
0.0
  77
1
   0
CIRCLE
   5
280
 100
AcDbEntity
   8
LEVEL001
 370
13
 100
AcDbCircle
   6
CONTINUOUS
  62
1
  10
 3596.3582111516
  20
 5230.1804477570
  30
0.0
  40
 69.999997913838
   0
CIRCLE
   5
281
 100
AcDbEntity
   8
LEVEL001
 370
13
 100
AcDbCircle
   6
CONTINUOUS
  62
1
  10
 3736.3582069794
  20
 5230.1804477570
  30
0.0
  40
 69.999997913838
   0
MTEXT
   5
282
 100
AcDbEntity
   8
LEVEL001
 370
13
  62
1
 100
AcDbMText
  10
 3596.3582111516
  20
 5230.1804477570
  30
0.0
  40
 57.142857142858
  41
0.0
  71
5
  72
1
   1
\T1.000000;6
   7
GMM001
  44
 0.79999984000003
   0
MTEXT
   5
283
 100
AcDbEntity
   8
LEVEL001
 370
13
  62
1
 100
AcDbMText
  10
 3736.3582069794
  20
 5230.1804477570
  30
0.0
  40
 57.142857142858
  41
0.0
  71
5
  72
1
   1
\T1.000000;8
   7
GMM001
  44
 0.79999984000003
   0
LEADER
   5
284
 100
AcDbEntity
   8
LEVEL001
 370
13
   6
CONTINUOUS
  62
1
 100
AcDbLeader
   3
GMM002
  73
3
  74
1
  75
0
  40
 60.000000000000
  41
0.0
  76
2
  10
 3493.8685550754
  20
 4785.1804477570
  30
0.0
  10
 3580.3015210934
  20
 5162.0468847186
  30
0.0
  77
1
   0
MTEXT
   5
285
 100
AcDbEntity
   8
LEVEL001
 370
13
  62
1
 100
AcDbMText
  10
 3436.8643930240
  20
 5230.1804477570
  30
0.0
  40
 57.142857142858
  41
0.0
  71
5
  72
1
   1
\T1.000000;13
   7
GMM001
  44
 0.79999984000003
   0
CIRCLE
   5
286
 100
AcDbEntity
   8
LEVEL001
 370
13
 100
AcDbCircle
   6
CONTINUOUS
  62
1
  10
 3436.8643930240
  20
 5230.1804477570
  30
0.0
  40
 70.000000000000
   0
LEADER
   5
287
 100
AcDbEntity
   8
LEVEL001
 370
13
   6
CONTINUOUS
  62
1
 100
AcDbLeader
   3
GMM002
  73
3
  74
1
  75
0
  40
 60.000000000000
  41
0.0
  76
2
  10
 3236.8643930240
  20
 5110.7804477570
  30
0.0
  10
 3377.2370396520
  20
 5193.5119499714
  30
0.0
  77
1
   0
CIRCLE
   5
288
 100
AcDbEntity
   8
LEVEL001
 370
13
 100
AcDbCircle
   6
CONTINUOUS
  62
1
  10
 2896.8643971964
  20
 5230.1804477570
  30
0.0
  40
 69.999997913838
   0
CIRCLE
   5
289
 100
AcDbEntity
   8
LEVEL001
 370
13
 100
AcDbCircle
   6
CONTINUOUS
  62
1
  10
 3036.8643930240
  20
 5230.1804477570
  30
0.0
  40
 69.999997913838
   0
MTEXT
   5
28A
 100
AcDbEntity
   8
LEVEL001
 370
13
  62
1
 100
AcDbMText
  10
 3036.8643930240
  20
 5230.1804477570
  30
0.0
  40
 57.142857142858
  41
0.0
  71
5
  72
1
   1
\T1.000000;7
   7
GMM001
  44
 0.79999984000003
   0
MTEXT
   5
28B
 100
AcDbEntity
   8
LEVEL001
 370
13
  62
1
 100
AcDbMText
  10
 2896.8643971964
  20
 5230.1804477570
  30
0.0
  40
 57.142857142858
  41
0.0
  71
5
  72
1
   1
\T1.000000;5
   7
GMM001
  44
 0.79999984000003
   0
LEADER
   5
28C
 100
AcDbEntity
   8
LEVEL001
 370
13
   6
CONTINUOUS
  62
1
 100
AcDbLeader
   3
GMM002
  73
3
  74
1
  75
0
  40
 60.000000000000
  41
0.0
  76
2
  10
 2777.4091952414
  20
 4785.1804477570
  30
0.0
  10
 2880.0333638680
  20
 5162.2340275052
  30
0.0
  77
1
   0
LINE
   5
28D
 100
AcDbEntity
   8
LEVEL001
 370
13
 100
AcDbLine
   6
CONTINUOUS
  62
7
  10
 1679.3643930240
  20
 4427.6804477570
  30
0.0
  11
 2344.3643930240
  21
 4427.6804477570
  31
0.0
   0
LINE
   5
28E
 100
AcDbEntity
   8
LEVEL001
 370
13
 100
AcDbLine
   6
CONTINUOUS
  62
3
  10
 1679.3643930240
  20
 4406.7804477570
  30
0.0
  11
 2344.3643930240
  21
 4406.7804477570
  31
0.0
   0
LINE
   5
28F
 100
AcDbEntity
   8
LEVEL001
 370
13
 100
AcDbLine
   6
CONTINUOUS
  62
3
  10
 1679.3643930240
  20
 4421.7804477570
  30
0.0
  11
 2344.3643930240
  21
 4421.7804477570
  31
0.0
   0
ARC
   5
290
 100
AcDbEntity
   8
LEVEL001
 370
13
   6
CONTINUOUS
  62
7
 100
AcDbCircle
  10
 2344.3643930240
  20
 4497.6804477570
  30
0.0
  40
 70.000000000000
 100
AcDbArc
  50
 270.00000000000
  51
0.0
   0
ARC
   5
291
 100
AcDbEntity
   8
LEVEL001
 370
13
   6
CONTINUOUS
  62
3
 100
AcDbCircle
  10
 2344.3643930240
  20
 4497.6804477570
  30
0.0
  40
 90.900000000000
 100
AcDbArc
  50
 270.00000000000
  51
 0.57326961387347E-11
   0
ARC
   5
292
 100
AcDbEntity
   8
LEVEL001
 370
13
   6
CONTINUOUS
  62
3
 100
AcDbCircle
  10
 2344.3643930240
  20
 4497.6804477570
  30
0.0
  40
 75.900000000000
 100
AcDbArc
  50
 270.00000000000
  51
 0.68656400396704E-11
   0
LINE
   5
293
 100
AcDbEntity
   8
LEVEL001
 370
13
 100
AcDbLine
   6
DASHDOT
  62
6
  10
 2011.8643930240
  20
 4355.1804477570
  30
0.0
  11
 2011.8643930240
  21
 5105.1804477570
  31
0.0
   0
ARC
   5
294
 100
AcDbEntity
   8
LEVEL001
 370
13
   6
CONTINUOUS
  62
3
 100
AcDbCircle
  10
 2718.8768760056
  20
 4408.5804477570
  30
0.0
  40
 1.8000000000002
 100
AcDbArc
  50
 179.99999999991
  51
 269.99999999997
   0
ARC
   5
295
 100
AcDbEntity
   8
LEVEL001
 370
13
   6
CONTINUOUS
  62
3
 100
AcDbCircle
  10
 2718.8768760056
  20
 4408.5804477570
  30
0.0
  40
 1.8000000000002
 100
AcDbArc
  50
 270.00000000003
  51
 0.86850346501822E-10
   0
LINE
   5
296
 100
AcDbEntity
   8
LEVEL001
 370
13
 100
AcDbLine
   6
CONTINUOUS
  62
7
  10
 2717.0768760056
  20
 4427.6804477570
  30
0.0
  11
 2697.0283297346
  21
 4427.6804477570
  31
0.0
   0
ARC
   5
297
 100
AcDbEntity
   8
LEVEL001
 370
13
   6
CONTINUOUS
  62
7
 100
AcDbCircle
  10
 2697.0283297346
  20
 4437.6804477570
  30
0.0
  40
 10.000000000000
 100
AcDbArc
  50
 185.61400058631
  51
 270.00000000002
   0
CIRCLE
   5
298
 100
AcDbEntity
   8
LEVEL001
 370
13
 100
AcDbCircle
   6
CONTINUOUS
  62
1
  10
 2436.8643930240
  20
 4280.1804477570
  30
0.0
  40
 69.999997913838
   0
MTEXT
   5
299
 100
AcDbEntity
   8
LEVEL001
 370
13
  62
1
 100
AcDbMText
  10
 2436.8643930240
  20
 4280.1804477570
  30
0.0
  40
 57.142857142858
  41
0.0
  71
5
  72
1
   1
\T1.000000;1
   7
GMM001
  44
 0.79999984000003
   0
CIRCLE
   5
29A
 100
AcDbEntity
   8
LEVEL001
 370
13
 100
AcDbCircle
   6
CONTINUOUS
  62
1
  10
 2236.8643930240
  20
 4280.1804477570
  30
0.0
  40
 69.999997913838
   0
MTEXT
   5
29B
 100
AcDbEntity
   8
LEVEL001
 370
13
  62
1
 100
AcDbMText
  10
 2236.8643930240
  20
 4280.1804477570
  30
0.0
  40
 57.142857142858
  41
0.0
  71
5
  72
1
   1
\T1.000000;4
   7
GMM001
  44
 0.79999984000003
   0
LEADER
   5
29C
 100
AcDbEntity
   8
LEVEL001
 370
13
   6
CONTINUOUS
  62
1
 100
AcDbLeader
   3
GMM002
  73
3
  74
1
  75
0
  40
 60.000000000000
  41
0.0
  76
2
  10
 2679.3609608740
  20
 4530.1804477570
  30
0.0
  10
 2485.7258278302
  20
 4330.3058893672
  30
0.0
  77
1
   0
LEADER
   5
29D
 100
AcDbEntity
   8
LEVEL001
 370
13
   6
CONTINUOUS
  62
1
 100
AcDbLeader
   3
GMM002
  73
3
  74
1
  75
0
  40
 60.000000000000
  41
0.0
  76
2
  10
 2211.8643930240
  20
 4530.1804477570
  30
0.0
  10
 2389.6181305592
  20
 4331.8311049748
  30
0.0
  77
1
   0
LEADER
   5
29E
 100
AcDbEntity
   8
LEVEL001
 370
13
   6
CONTINUOUS
  62
1
 100
AcDbLeader
   3
GMM002
  73
3
  74
1
  75
0
  40
 60.000000000000
  41
0.0
  76
2
  10
 2110.3283426524
  20
 4406.7804477570
  30
0.0
  10
 2187.5184831544
  20
 4329.8290216244
  30
0.0
  77
1
   0
ARC
   5
29F
 100
AcDbEntity
   8
LEVEL001
 370
13
   6
CONTINUOUS
  62
7
 100
AcDbCircle
  10
 1679.3643930240
  20
 4962.6804477570
  30
0.0
  40
 70.000000000000
 100
AcDbArc
  50
 90.000000000000
  51
 180.00000000000
   0
LINE
   5
2A0
 100
AcDbEntity
   8
LEVEL001
 370
13
 100
AcDbLine
   6
CONTINUOUS
  62
7
  10
 1609.3643930240
  20
 4962.6804477570
  30
0.0
  11
 1609.3643930240
  21
 4497.6804477570
  31
0.0
   0
ARC
   5
2A1
 100
AcDbEntity
   8
LEVEL001
 370
13
   6
CONTINUOUS
  62
7
 100
AcDbCircle
  10
 1679.3643930240
  20
 4497.6804477570
  30
0.0
  40
 70.000000000000
 100
AcDbArc
  50
 180.00000000000
  51
 270.00000000000
   0
ARC
   5
2A2
 100
AcDbEntity
   8
LEVEL001
 370
13
   6
CONTINUOUS
  62
3
 100
AcDbCircle
  10
 1679.3643930240
  20
 4962.6804477570
  30
0.0
  40
 90.900000000000
 100
AcDbArc
  50
 89.999999999999
  51
 180.00000000000
   0
ARC
   5
2A3
 100
AcDbEntity
   8
LEVEL001
 370
13
   6
CONTINUOUS
  62
3
 100
AcDbCircle
  10
 1679.3643930240
  20
 4497.6804477570
  30
0.0
  40
 90.900000000000
 100
AcDbArc
  50
 179.99999999999
  51
 270.00000000000
   0
LINE
   5
2A4
 100
AcDbEntity
   8
LEVEL001
 370
13
 100
AcDbLine
   6
CONTINUOUS
  62
3
  10
 1588.4643930240
  20
 4962.6804477570
  30
0.0
  11
 1588.4643930240
  21
 4497.6804477570
  31
0.0
   0
ARC
   5
2A5
 100
AcDbEntity
   8
LEVEL001
 370
13
   6
CONTINUOUS
  62
3
 100
AcDbCircle
  10
 1679.3643930240
  20
 4962.6804477570
  30
0.0
  40
 75.900000000000
 100
AcDbArc
  50
 89.999999999999
  51
 180.00000000000
   0
LINE
   5
2A6
 100
AcDbEntity
   8
LEVEL001
 370
13
 100
AcDbLine
   6
CONTINUOUS
  62
3
  10
 1603.4643930240
  20
 4962.6804477570
  30
0.0
  11
 1603.4643930240
  21
 4497.6804477570
  31
0.0
   0
ARC
   5
2A7
 100
AcDbEntity
   8
LEVEL001
 370
13
   6
CONTINUOUS
  62
3
 100
AcDbCircle
  10
 1679.3643930240
  20
 4497.6804477570
  30
0.0
  40
 75.900000000000
 100
AcDbArc
  50
 179.99999999999
  51
 270.00000000000
   0
LINE
   5
2A8
 100
AcDbEntity
   8
LEVEL001
 370
13
 100
AcDbLine
   6
DASHDOT
  62
6
  10
 1536.8643930240
  20
 4730.1804477570
  30
0.0
  11
 2486.8643930240
  21
 4730.1804477570
  31
0.0
   0
LINE
   5
2A9
 100
AcDbEntity
   8
LEVEL001
 370
13
 100
AcDbLine
   6
CONTINUOUS
  62
7
  10
 1588.4643930240
  20
 4675.1804477570
  30
0.0
  11
 1582.8945190286
  21
 4675.1804477570
  31
0.0
   0
LINE
   5
2AA
 100
AcDbEntity
   8
LEVEL001
 370
13
 100
AcDbLine
   6
CONTINUOUS
  62
7
  10
 1582.8945190286
  20
 4675.1804477570
  30
0.0
  11
 1582.8945190286
  21
 4615.1804477570
  31
0.0
   0
LINE
   5
2AB
 100
AcDbEntity
   8
LEVEL001
 370
13
 100
AcDbLine
   6
CONTINUOUS
  62
7
  10
 1582.8945190286
  20
 4615.1804477570
  30
0.0
  11
 1588.4643930240
  21
 4615.1804477570
  31
0.0
   0
LINE
   5
2AC
 100
AcDbEntity
   8
LEVEL001
 370
13
 100
AcDbLine
   6
CONTINUOUS
  62
7
  10
 1485.2643930240
  20
 4710.1804477570
  30
0.0
  11
 1588.4643930240
  21
 4710.1804477570
  31
0.0
   0
LINE
   5
2AD
 100
AcDbEntity
   8
LEVEL001
 370
13
 100
AcDbLine
   6
CONTINUOUS
  62
7
  10
 1588.4643930240
  20
 4820.1804477570
  30
0.0
  11
 1489.1144606439
  21
 4820.1804477570
  31
0.0
   0
LINE
   5
2AE
 100
AcDbEntity
   8
LEVEL001
 370
13
 100
AcDbLine
   6
CONTINUOUS
  62
7
  10
 1489.1144606439
  20
 4820.1804477570
  30
0.0
  11
 1489.1144606439
  21
 4799.0250992720
  31
0.0
   0
LINE
   5
2AF
 100
AcDbEntity
   8
LEVEL001
 370
13
 100
AcDbLine
   6
CONTINUOUS
  62
7
  10
 1394.3643930240
  20
 5032.6804477570
  30
0.0
  11
 729.36439302396
  21
 5032.6804477570
  31
0.0
   0
LINE
   5
2B0
 100
AcDbEntity
   8
LEVEL001
 370
13
 100
AcDbLine
   6
CONTINUOUS
  62
7
  10
 729.36439302396
  20
 4427.6804477570
  30
0.0
  11
 1394.3643930240
  21
 4427.6804477570
  31
0.0
   0
LINE
   5
2B1
 100
AcDbEntity
   8
LEVEL001
 370
13
 100
AcDbLine
   6
CONTINUOUS
  62
3
  10
 1394.3643930240
  20
 5053.5804477570
  30
0.0
  11
 729.36439302396
  21
 5053.5804477570
  31
0.0
   0
LINE
   5
2B2
 100
AcDbEntity
   8
LEVEL001
 370
13
 100
AcDbLine
   6
CONTINUOUS
  62
3
  10
 729.36439302396
  20
 4406.7804477570
  30
0.0
  11
 1394.3643930240
  21
 4406.7804477570
  31
0.0
   0
LINE
   5
2B3
 100
AcDbEntity
   8
LEVEL001
 370
13
 100
AcDbLine
   6
CONTINUOUS
  62
3
  10
 1394.3643930240
  20
 5038.5804477570
  30
0.0
  11
 729.36439302396
  21
 5038.5804477570
  31
0.0
   0
LINE
   5
2B4
 100
AcDbEntity
   8
LEVEL001
 370
13
 100
AcDbLine
   6
CONTINUOUS
  62
3
  10
 729.36439302396
  20
 4421.7804477570
  30
0.0
  11
 1394.3643930240
  21
 4421.7804477570
  31
0.0
   0
ARC
   5
2B5
 100
AcDbEntity
   8
LEVEL001
 370
13
   6
CONTINUOUS
  62
1
 100
AcDbCircle
  10
 729.36439302396
  20
 4962.6804477570
  30
0.0
  40
 70.900000000000
 100
AcDbArc
  50
 89.999999999999
  51
 180.00000000000
   0
LINE
   5
2B6
 100
AcDbEntity
   8
LEVEL001
 370
13
 100
AcDbLine
   6
CONTINUOUS
  62
1
  10
 1394.3643930240
  20
 5033.5804477570
  30
0.0
  11
 729.36439302396
  21
 5033.5804477570
  31
0.0
   0
ARC
   5
2B7
 100
AcDbEntity
   8
LEVEL001
 370
13
   6
CONTINUOUS
  62
1
 100
AcDbCircle
  10
 1394.3643930240
  20
 4962.6804477570
  30
0.0
  40
 70.900000000000
 100
AcDbArc
  50
 0.44098906545358E-11
  51
 90.000000000001
   0
LINE
   5
2B8
 100
AcDbEntity
   8
LEVEL001
 370
13
 100
AcDbLine
   6
CONTINUOUS
  62
1
  10
 658.46439302396
  20
 4962.6804477570
  30
0.0
  11
 658.46439302396
  21
 4806.5499072570
  31
0.0
   0
LINE
   5
2B9
 100
AcDbEntity
   8
LEVEL001
 370
13
 100
AcDbLine
   6
CONTINUOUS
  62
1
  10
 1465.2643930240
  20
 4806.5499072570
  30
0.0
  11
 1465.2643930240
  21
 4962.6804477570
  31
0.0
   0
LINE
   5
2BA
 100
AcDbEntity
   8
LEVEL001
 370
13
 100
AcDbLine
   6
CONTINUOUS
  62
1
  10
 658.46439302396
  20
 4806.5499072570
  30
0.0
  11
 659.36439302396
  21
 4806.5499072570
  31
0.0
   0
LINE
   5
2BB
 100
AcDbEntity
   8
LEVEL001
 370
13
 100
AcDbLine
   6
CONTINUOUS
  62
1
  10
 1465.2643930240
  20
 4806.5499072570
  30
0.0
  11
 1464.3643930240
  21
 4806.5499072570
  31
0.0
   0
ARC
   5
2BC
 100
AcDbEntity
   8
LEVEL001
 370
13
   6
CONTINUOUS
  62
7
 100
AcDbCircle
  10
 729.36439302396
  20
 4962.6804477570
  30
0.0
  40
 70.000000000000
 100
AcDbArc
  50
 90.000000000000
  51
 180.00000000000
   0
LINE
   5
2BD
 100
AcDbEntity
   8
LEVEL001
 370
13
 100
AcDbLine
   6
CONTINUOUS
  62
7
  10
 659.36439302396
  20
 4962.6804477570
  30
0.0
  11
 659.36439302396
  21
 4497.6804477570
  31
0.0
   0
ARC
   5
2BE
 100
AcDbEntity
   8
LEVEL001
 370
13
   6
CONTINUOUS
  62
7
 100
AcDbCircle
  10
 729.36439302396
  20
 4497.6804477570
  30
0.0
  40
 70.000000000000
 100
AcDbArc
  50
 180.00000000000
  51
 270.00000000000
   0
ARC
   5
2BF
 100
AcDbEntity
   8
LEVEL001
 370
13
   6
CONTINUOUS
  62
3
 100
AcDbCircle
  10
 729.36439302396
  20
 4962.6804477570
  30
0.0
  40
 90.900000000000
 100
AcDbArc
  50
 89.999999999999
  51
 180.00000000000
   0
ARC
   5
2C0
 100
AcDbEntity
   8
LEVEL001
 370
13
   6
CONTINUOUS
  62
3
 100
AcDbCircle
  10
 729.36439302396
  20
 4497.6804477570
  30
0.0
  40
 90.900000000000
 100
AcDbArc
  50
 179.99999999999
  51
 270.00000000000
   0
LINE
   5
2C1
 100
AcDbEntity
   8
LEVEL001
 370
13
 100
AcDbLine
   6
CONTINUOUS
  62
3
  10
 638.46439302396
  20
 4962.6804477570
  30
0.0
  11
 638.46439302396
  21
 4497.6804477570
  31
0.0
   0
ARC
   5
2C2
 100
AcDbEntity
   8
LEVEL001
 370
13
   6
CONTINUOUS
  62
3
 100
AcDbCircle
  10
 729.36439302396
  20
 4962.6804477570
  30
0.0
  40
 75.900000000000
 100
AcDbArc
  50
 89.999999999999
  51
 180.00000000000
   0
LINE
   5
2C3
 100
AcDbEntity
   8
LEVEL001
 370
13
 100
AcDbLine
   6
CONTINUOUS
  62
3
  10
 653.46439302396
  20
 4962.6804477570
  30
0.0
  11
 653.46439302396
  21
 4497.6804477570
  31
0.0
   0
ARC
   5
2C4
 100
AcDbEntity
   8
LEVEL001
 370
13
   6
CONTINUOUS
  62
3
 100
AcDbCircle
  10
 729.36439302396
  20
 4497.6804477570
  30
0.0
  40
 75.900000000000
 100
AcDbArc
  50
 179.99999999999
  51
 270.00000000000
   0
LINE
   5
2C5
 100
AcDbEntity
   8
LEVEL001
 370
13
 100
AcDbLine
   6
DASHDOT
  62
6
  10
 586.86439302396
  20
 4730.1804477570
  30
0.0
  11
 1536.8643930240
  21
 4730.1804477570
  31
0.0
   0
ARC
   5
2C6
 100
AcDbEntity
   8
LEVEL001
 370
13
   6
CONTINUOUS
  62
7
 100
AcDbCircle
  10
 1394.3643930240
  20
 4962.6804477570
  30
0.0
  40
 70.000000000000
 100
AcDbArc
  50
0.0
  51
 90.000000000000
   0
LINE
   5
2C7
 100
AcDbEntity
   8
LEVEL001
 370
13
 100
AcDbLine
   6
CONTINUOUS
  62
7
  10
 1464.3643930240
  20
 4497.6804477570
  30
0.0
  11
 1464.3643930240
  21
 4962.6804477570
  31
0.0
   0
ARC
   5
2C8
 100
AcDbEntity
   8
LEVEL001
 370
13
   6
CONTINUOUS
  62
3
 100
AcDbCircle
  10
 1394.3643930240
  20
 4962.6804477570
  30
0.0
  40
 90.900000000000
 100
AcDbArc
  50
 0.34396176832408E-11
  51
 90.000000000001
   0
LINE
   5
2C9
 100
AcDbEntity
   8
LEVEL001
 370
13
 100
AcDbLine
   6
CONTINUOUS
  62
3
  10
 1485.2643930240
  20
 4497.6804477570
  30
0.0
  11
 1485.2643930240
  21
 4962.6804477570
  31
0.0
   0
LINE
   5
2CA
 100
AcDbEntity
   8
LEVEL001
 370
13
 100
AcDbLine
   6
CONTINUOUS
  62
3
  10
 1470.2643930240
  20
 4497.6804477570
  30
0.0
  11
 1470.2643930240
  21
 4962.6804477570
  31
0.0
   0
ARC
   5
2CB
 100
AcDbEntity
   8
LEVEL001
 370
13
   6
CONTINUOUS
  62
3
 100
AcDbCircle
  10
 1394.3643930240
  20
 4962.6804477570
  30
0.0
  40
 75.900000000000
 100
AcDbArc
  50
 0.41193840238022E-11
  51
 90.000000000001
   0
ARC
   5
2CC
 100
AcDbEntity
   8
LEVEL001
 370
13
   6
CONTINUOUS
  62
7
 100
AcDbCircle
  10
 1394.3643930240
  20
 4497.6804477570
  30
0.0
  40
 70.000000000000
 100
AcDbArc
  50
 270.00000000000
  51
0.0
   0
ARC
   5
2CD
 100
AcDbEntity
   8
LEVEL001
 370
13
   6
CONTINUOUS
  62
3
 100
AcDbCircle
  10
 1394.3643930240
  20
 4497.6804477570
  30
0.0
  40
 90.900000000000
 100
AcDbArc
  50
 270.00000000000
  51
 0.57326961387347E-11
   0
ARC
   5
2CE
 100
AcDbEntity
   8
LEVEL001
 370
13
   6
CONTINUOUS
  62
3
 100
AcDbCircle
  10
 1394.3643930240
  20
 4497.6804477570
  30
0.0
  40
 75.900000000000
 100
AcDbArc
  50
 270.00000000000
  51
 0.68656400396704E-11
   0
LINE
   5
2CF
 100
AcDbEntity
   8
LEVEL001
 370
13
 100
AcDbLine
   6
DASHDOT
  62
6
  10
 1061.8643930240
  20
 4355.1804477570
  30
0.0
  11
 1061.8643930240
  21
 5105.1804477570
  31
0.0
   0
LINE
   5
2D0
 100
AcDbEntity
   8
LEVEL001
 370
13
 100
AcDbLine
   6
CONTINUOUS
  62
7
  10
 1485.2643930240
  20
 4797.0633918374
  30
0.0
  11
 1490.8342670194
  21
 4799.9013843886
  31
0.0
   0
LINE
   5
2D1
 100
AcDbEntity
   8
LEVEL001
 370
13
 100
AcDbLine
   6
CONTINUOUS
  62
7
  10
 1490.8342670194
  20
 4799.9013843886
  30
0.0
  11
 1490.8342670194
  21
 4732.5618101306
  31
0.0
   0
LINE
   5
2D2
 100
AcDbEntity
   8
LEVEL001
 370
13
 100
AcDbLine
   6
CONTINUOUS
  62
7
  10
 1490.8342670194
  20
 4732.5618101306
  30
0.0
  11
 1485.2643930240
  21
 4729.7238175794
  31
0.0
   0
LINE
   5
2D3
 100
AcDbEntity
   8
LEVEL001
 370
13
 100
AcDbLine
   6
CONTINUOUS
  62
7
  10
 1489.1144606439
  20
 4731.6855250140
  30
0.0
  11
 1489.1144606439
  21
 4710.1804477570
  31
0.0
   0
LINE
   5
2D4
 100
AcDbEntity
   8
LEVEL001
 370
13
 100
AcDbLine
   6
CONTINUOUS
  62
7
  10
 1584.6144606439
  20
 4615.1804477570
  30
0.0
  11
 1584.6144606439
  21
 4600.1804477570
  31
0.0
   0
LINE
   5
2D5
 100
AcDbEntity
   8
LEVEL001
 370
13
 100
AcDbLine
   6
CONTINUOUS
  62
7
  10
 1584.6144606439
  20
 4600.1804477570
  30
0.0
  11
 1485.2643930240
  21
 4600.1804477570
  31
0.0
   0
LINE
   5
2D6
 100
AcDbEntity
   8
LEVEL001
 370
13
 100
AcDbLine
   6
CONTINUOUS
  62
7
  10
 1584.6144606439
  20
 4710.1804477570
  30
0.0
  11
 1584.6144606439
  21
 4675.1804477570
  31
0.0
   0
LINE
   5
2D7
 100
AcDbEntity
   8
LEVEL001
 370
13
 100
AcDbLine
   6
CONTINUOUS
  62
6
  10
 1494.2997352990
  20
 4705.1804477570
  30
0.0
  11
 1494.2997352990
  21
 4605.1804477570
  31
0.0
   0
LINE
   5
2D8
 100
AcDbEntity
   8
LEVEL001
 370
13
 100
AcDbLine
   6
CONTINUOUS
  62
6
  10
 1579.4290507489
  20
 4715.1804477570
  30
0.0
  11
 1579.4290507489
  21
 4815.1804477570
  31
0.0
   0
LINE
   5
2D9
 100
AcDbEntity
   8
LEVEL001
 370
13
 100
AcDbLine
   6
CONTINUOUS
  62
7
  10
 1492.3143930240
  20
 1114.2804477570
  30
0.0
  11
 1420.4643749383
  21
 1114.2804477570
  31
0.0
   0
LINE
   5
2DA
 100
AcDbEntity
   8
LEVEL001
 370
13
 100
AcDbLine
   6
CONTINUOUS
  62
7
  10
 1420.4643749383
  20
 1114.2804477570
  30
0.0
  11
 1420.4643749383
  21
 1099.2804477570
  31
0.0
   0
LINE
   5
2DB
 100
AcDbEntity
   8
LEVEL001
 370
13
 100
AcDbLine
   6
CONTINUOUS
  62
7
  10
 1420.4643749383
  20
 1099.2804477570
  30
0.0
  11
 1492.3143930240
  21
 1099.2804477570
  31
0.0
   0
LINE
   5
2DC
 100
AcDbEntity
   8
LEVEL001
 370
13
 100
AcDbLine
   6
CONTINUOUS
  62
7
  10
 1581.4143930240
  20
 1114.2804477570
  30
0.0
  11
 1653.2643749383
  21
 1114.2804477570
  31
0.0
   0
LINE
   5
2DD
 100
AcDbEntity
   8
LEVEL001
 370
13
 100
AcDbLine
   6
CONTINUOUS
  62
7
  10
 1653.2643749383
  20
 1114.2804477570
  30
0.0
  11
 1653.2643749383
  21
 1099.2804477570
  31
0.0
   0
LINE
   5
2DE
 100
AcDbEntity
   8
LEVEL001
 370
13
 100
AcDbLine
   6
CONTINUOUS
  62
7
  10
 1653.2643749383
  20
 1099.2804477570
  30
0.0
  11
 1581.4143930240
  21
 1099.2804477570
  31
0.0
   0
LINE
   5
2DF
 100
AcDbEntity
   8
LEVEL001
 370
13
 100
AcDbLine
   6
DASHDOT
  62
6
  10
 1470.4643749383
  20
 1106.7804477570
  30
0.0
  11
 1603.2643749383
  21
 1106.7804477570
  31
0.0
   0
CIRCLE
   5
2E0
 100
AcDbEntity
   8
LEVEL001
 370
13
 100
AcDbCircle
   6
CONTINUOUS
  62
7
  10
 1536.8643592219
  20
 1006.7804477570
  30
0.0
  40
 7.5000000000000
   0
LINE
   5
2E1
 100
AcDbEntity
   8
LEVEL001
 370
13
 100
AcDbLine
   6
DASHDOT
  62
6
  10
 1506.8643592219
  20
 1006.7804477570
  30
0.0
  11
 1566.8643592219
  21
 1006.7804477570
  31
0.0
   0
LINE
   5
2E2
 100
AcDbEntity
   8
LEVEL001
 370
13
 100
AcDbLine
   6
CONTINUOUS
  62
7
  10
 3281.4143930240
  20
 5110.7804477570
  30
0.0
  11
 3192.3143930240
  21
 5110.7804477570
  31
0.0
   0
LINE
   5
2E3
 100
AcDbEntity
   8
LEVEL001
 370
13
 100
AcDbLine
   6
CONTINUOUS
  62
7
  10
 3192.3143930240
  20
 5110.7804477570
  30
0.0
  11
 3192.3143930240
  21
 5107.7804477570
  31
0.0
   0
LINE
   5
2E4
 100
AcDbEntity
   8
LEVEL001
 370
13
 100
AcDbLine
   6
CONTINUOUS
  62
7
  10
 3192.3143930240
  20
 5107.7804477570
  30
0.0
  11
 3281.4143930240
  21
 5107.7804477570
  31
0.0
   0
LINE
   5
2E5
 100
AcDbEntity
   8
LEVEL001
 370
13
 100
AcDbLine
   6
CONTINUOUS
  62
7
  10
 3281.4143930240
  20
 5107.7804477570
  30
0.0
  11
 3281.4143930240
  21
 5110.7804477570
  31
0.0
   0
LINE
   5
2E6
 100
AcDbEntity
   8
LEVEL001
 370
13
 100
AcDbLine
   6
DOT
  62
1
  10
 3276.4143930240
  20
 5107.7804477570
  30
0.0
  11
 3276.4143930240
  21
 5080.7804477570
  31
0.0
   0
LINE
   5
2E7
 100
AcDbEntity
   8
LEVEL001
 370
13
 100
AcDbLine
   6
DOT
  62
1
  10
 3276.4143930240
  20
 5080.7804477570
  30
0.0
  11
 3197.3143930240
  21
 5080.7804477570
  31
0.0
   0
LINE
   5
2E8
 100
AcDbEntity
   8
LEVEL001
 370
13
 100
AcDbLine
   6
DOT
  62
1
  10
 3197.3143930240
  20
 5080.7804477570
  30
0.0
  11
 3197.3143930240
  21
 5107.7804477570
  31
0.0
   0
LINE
   5
2E9
 100
AcDbEntity
   8
LEVEL001
 370
13
 100
AcDbLine
   6
CONTINUOUS
  62
7
  10
 3192.3143930240
  20
 4820.1804477570
  30
0.0
  11
 3192.3143930240
  21
 5106.7804477570
  31
0.0
   0
LINE
   5
2EA
 100
AcDbEntity
   8
LEVEL001
 370
13
 100
AcDbLine
   6
CONTINUOUS
  62
7
  10
 3192.3143930240
  20
 5106.7804477570
  30
0.0
  11
 3281.4143930240
  21
 5106.7804477570
  31
0.0
   0
LINE
   5
2EB
 100
AcDbEntity
   8
LEVEL001
 370
13
 100
AcDbLine
   6
CONTINUOUS
  62
7
  10
 3281.4143930240
  20
 5106.7804477570
  30
0.0
  11
 3281.4143930240
  21
 4820.1804477570
  31
0.0
   0
CIRCLE
   5
2EC
 100
AcDbEntity
   8
LEVEL001
 370
13
 100
AcDbCircle
   6
CONTINUOUS
  62
1
  10
 1786.8643930240
  20
 2706.7804477570
  30
0.0
  40
 70.000000000000
   0
MTEXT
   5
2ED
 100
AcDbEntity
   8
LEVEL001
 370
13
  62
1
 100
AcDbMText
  10
 1786.8643930240
  20
 2706.7804477570
  30
0.0
  40
 57.142857142858
  41
0.0
  71
5
  72
1
   1
\T1.000000;11
   7
GMM001
  44
 0.79999984000003
   0
MTEXT
   5
2EF
 100
AcDbEntity
   8
LEVEL001
 370
13
  62
1
 100
AcDbMText
  10
 1157.5129982334
  20
 1915.5103847973
  30
0.0
  40
 40.000000000000
  41
0.0
  71
7
  72
1
   1
\T1.000000;ＧＬ
   7
GMM003
  44
 0.79999984000003
   0
LINE
   5
2F0
 100
AcDbEntity
   8
LEVEL001
 370
13
 100
AcDbLine
   6
CONTINUOUS
  62
1
  10
 1129.3643277886
  20
 1906.7804477570
  30
0.0
  11
 1104.3643277886
  21
 1956.7804477570
  31
0.0
   0
LINE
   5
2F1
 100
AcDbEntity
   8
LEVEL001
 370
13
 100
AcDbLine
   6
CONTINUOUS
  62
1
  10
 1104.3643277886
  20
 1956.7804477570
  30
0.0
  11
 1154.3643277886
  21
 1956.7804477570
  31
0.0
   0
LINE
   5
2F2
 100
AcDbEntity
   8
LEVEL001
 370
13
 100
AcDbLine
   6
CONTINUOUS
  62
1
  10
 1154.3643277886
  20
 1956.7804477570
  30
0.0
  11
 1129.3643277886
  21
 1906.7804477570
  31
0.0
   0
LINE
   5
2F3
 100
AcDbEntity
   8
LEVEL001
 370
13
 100
AcDbLine
   6
DOT
  62
1
  10
 1492.3143930240
  20
 1114.2804477570
  30
0.0
  11
 1581.4143930240
  21
 1114.2804477570
  31
0.0
   0
LINE
   5
2F4
 100
AcDbEntity
   8
LEVEL001
 370
13
 100
AcDbLine
   6
DOT
  62
1
  10
 1581.4143930240
  20
 1099.2804477570
  30
0.0
  11
 1492.3143930240
  21
 1099.2804477570
  31
0.0
   0
ARC
   5
2F5
 100
AcDbEntity
   8
LEVEL001
 370
13
   6
CONTINUOUS
  62
7
 100
AcDbCircle
  10
 2792.3143930240
  20
 4162.7201676946
  30
0.0
  40
 400.00000000000
 100
AcDbArc
  50
 321.34019174591
  51
 360.00000000000
   0
ARC
   5
2F6
 100
AcDbEntity
   8
LEVEL001
 370
13
   6
DASHDOT
  62
6
 100
AcDbCircle
  10
 2792.3143930240
  20
 4162.7201676946
  30
0.0
  40
 444.55000000000
 100
AcDbArc
  50
 321.34019174591
  51
 360.00000000000
   0
ARC
   5
2F7
 100
AcDbEntity
   8
LEVEL001
 370
13
   6
CONTINUOUS
  62
7
 100
AcDbCircle
  10
 2792.3143930240
  20
 4162.7201676944
  30
0.0
  40
 489.10000000000
 100
AcDbArc
  50
 321.34019174591
  51
 0.14916027614299E-11
   0
ARC
   5
2F8
 100
AcDbEntity
   8
LEVEL001
 370
13
   6
CONTINUOUS
  62
7
 100
AcDbCircle
  10
 3281.4143930240
  20
 3350.8407278192
  30
0.0
  40
 400.00000000000
 100
AcDbArc
  50
 141.34019174591
  51
 180.00000000000
   0
ARC
   5
2F9
 100
AcDbEntity
   8
LEVEL001
 370
13
   6
DASHDOT
  62
6
 100
AcDbCircle
  10
 3281.4143930240
  20
 3350.8407278194
  30
0.0
  40
 444.55000000000
 100
AcDbArc
  50
 141.34019174591
  51
 180.00000000000
   0
ARC
   5
2FA
 100
AcDbEntity
   8
LEVEL001
 370
13
   6
CONTINUOUS
  62
7
 100
AcDbCircle
  10
 3281.4143930240
  20
 3350.8407278192
  30
0.0
  40
 489.10000000000
 100
AcDbArc
  50
 141.34019174591
  51
 180.00000000000
   0
LINE
   5
2FB
 100
AcDbEntity
   8
LEVEL001
 370
13
 100
AcDbLine
   6
CONTINUOUS
  62
7
  10
 3104.6619168012
  20
 3912.8421486728
  30
0.0
  11
 2899.4914583254
  21
 3656.3790755780
  31
0.0
   0
LINE
   5
2FC
 100
AcDbEntity
   8
LEVEL001
 370
13
 100
AcDbLine
   6
DASHDOT
  62
6
  10
 3139.4496222620
  20
 3885.0119843044
  30
0.0
  11
 2934.2791637862
  21
 3628.5489112096
  31
0.0
   0
LINE
   5
2FD
 100
AcDbEntity
   8
LEVEL001
 370
13
 100
AcDbLine
   6
CONTINUOUS
  62
7
  10
 2969.0668692468
  20
 3600.7187468408
  30
0.0
  11
 3174.2373277226
  21
 3857.1818199356
  31
0.0
   0
ARC
   5
2FE
 100
AcDbEntity
   8
LEVEL001
 370
13
   6
CONTINUOUS
  62
7
 100
AcDbCircle
  10
 2781.8131234906
  20
 2846.9824728452
  30
0.0
  40
 5.0000000000000
 100
AcDbArc
  50
 180.00164397081
  51
 201.80293588369
   0
LINE
   5
2FF
 100
AcDbEntity
   8
LEVEL001
 370
13
 100
AcDbLine
   6
CONTINUOUS
  62
7
  10
 2779.8846566958
  20
 2838.3407278192
  30
0.0
  11
 2777.1707895084
  21
 2845.1253957878
  31
0.0
   0
LINE
   5
300
 100
AcDbEntity
   8
LEVEL001
 370
13
 100
AcDbLine
   6
CONTINUOUS
  62
7
  10
 2779.8846566958
  20
 3438.3407278192
  30
0.0
  11
 2777.1707895084
  21
 3431.5558157098
  31
0.0
   0
ARC
   5
301
 100
AcDbEntity
   8
LEVEL001
 370
13
   6
CONTINUOUS
  62
7
 100
AcDbCircle
  10
 2781.8131234906
  20
 3429.6987386524
  30
0.0
  40
 5.0000000000000
 100
AcDbArc
  50
 158.19706411631
  51
 179.99835602936
   0
LINE
   5
302
 100
AcDbEntity
   8
LEVEL001
 370
13
 100
AcDbLine
   6
CONTINUOUS
  62
7
  10
 2776.8131234928
  20
 3429.6988821160
  30
0.0
  11
 2776.8131234928
  21
 2846.9823293816
  31
0.0
   0
LINE
   5
303
 100
AcDbEntity
   8
LEVEL001
 370
13
 100
AcDbLine
   6
CONTINUOUS
  62
6
  10
 2783.8131234928
  20
 2909.3407278192
  30
0.0
  11
 2783.8131234928
  21
 2908.3407278192
  31
0.0
   0
LINE
   5
304
 100
AcDbEntity
   8
LEVEL001
 370
13
 100
AcDbLine
   6
CONTINUOUS
  62
7
  10
 2784.2686898990
  20
 2923.3409719598
  30
0.0
  11
 2784.2691781802
  21
 2965.3409719598
  31
0.0
   0
LINE
   5
305
 100
AcDbEntity
   8
LEVEL001
 370
13
 100
AcDbLine
   6
CONTINUOUS
  62
6
  10
 2783.8131234928
  20
 3367.3407278192
  30
0.0
  11
 2783.8131234928
  21
 3368.3407278192
  31
0.0
   0
LINE
   5
306
 100
AcDbEntity
   8
LEVEL001
 370
13
 100
AcDbLine
   6
CONTINUOUS
  62
7
  10
 2784.2686898990
  20
 3353.3402395378
  30
0.0
  11
 2784.2691781802
  21
 3311.3404836784
  31
0.0
   0
ARC
   5
307
 100
AcDbEntity
   8
LEVEL001
 370
13
   6
CONTINUOUS
  62
7
 100
AcDbCircle
  10
 2775.8131235146
  20
 2854.1879171612
  30
0.0
  40
 5.0000000000000
 100
AcDbArc
  50
 338.20459713438
  51
 0.53503702629292E-2
   0
LINE
   5
308
 100
AcDbEntity
   8
LEVEL001
 370
13
 100
AcDbLine
   6
CONTINUOUS
  62
7
  10
 2778.6532113834
  20
 2847.8255911004
  30
0.0
  11
 2780.4557016178
  21
 2852.3314504754
  31
0.0
   0
ARC
   5
309
 100
AcDbEntity
   8
LEVEL001
 370
13
   6
CONTINUOUS
  62
7
 100
AcDbCircle
  10
 2783.2956027530
  20
 2845.9686575066
  30
0.0
  40
 5.0000000000000
 100
AcDbArc
  50
 158.19883473499
  51
 201.80116526501
   0
LINE
   5
30A
 100
AcDbEntity
   8
LEVEL001
 370
13
 100
AcDbLine
   6
CONTINUOUS
  62
7
  10
 2779.8846566958
  20
 2838.3407278192
  30
0.0
  11
 2780.8131234928
  21
 2838.7120657098
  31
0.0
   0
LINE
   5
30B
 100
AcDbEntity
   8
LEVEL001
 370
13
 100
AcDbLine
   6
CONTINUOUS
  62
7
  10
 2780.8131234928
  20
 2838.7120657098
  30
0.0
  11
 2778.6532113834
  21
 2844.1117239128
  31
0.0
   0
ARC
   5
30C
 100
AcDbEntity
   8
LEVEL001
 370
13
   6
CONTINUOUS
  62
7
 100
AcDbCircle
  10
 2775.8131235146
  20
 3422.4935384770
  30
0.0
  40
 5.0000000000000
 100
AcDbArc
  50
 359.99464962974
  51
 21.795402865616
   0
LINE
   5
30D
 100
AcDbEntity
   8
LEVEL001
 370
13
 100
AcDbLine
   6
CONTINUOUS
  62
7
  10
 2778.6532113834
  20
 3428.8556203972
  30
0.0
  11
 2780.4557016178
  21
 3424.3500051628
  31
0.0
   0
ARC
   5
30E
 100
AcDbEntity
   8
LEVEL001
 370
13
   6
CONTINUOUS
  62
7
 100
AcDbCircle
  10
 2783.2956027530
  20
 3430.7125539910
  30
0.0
  40
 5.0000000000000
 100
AcDbArc
  50
 158.19883473499
  51
 201.80116526501
   0
LINE
   5
30F
 100
AcDbEntity
   8
LEVEL001
 370
13
 100
AcDbLine
   6
CONTINUOUS
  62
7
  10
 2779.8846566958
  20
 3438.3407278192
  30
0.0
  11
 2780.8131234928
  21
 3437.9693899284
  31
0.0
   0
LINE
   5
310
 100
AcDbEntity
   8
LEVEL001
 370
13
 100
AcDbLine
   6
CONTINUOUS
  62
7
  10
 2780.8131234928
  20
 3437.9693899284
  30
0.0
  11
 2778.6532113834
  21
 3432.5694875848
  31
0.0
   0
LINE
   5
311
 100
AcDbEntity
   8
LEVEL001
 370
13
 100
AcDbLine
   6
CONTINUOUS
  62
7
  10
 2780.8131234928
  20
 3422.4930715692
  30
0.0
  11
 2780.8131234928
  21
 2854.1883840692
  31
0.0
   0
LINE
   5
312
 100
AcDbEntity
   8
LEVEL001
 370
13
 100
AcDbLine
   6
CONTINUOUS
  62
7
  10
 2783.8131234928
  20
 3368.3407278192
  30
0.0
  11
 2780.8131234928
  21
 3368.3407278192
  31
0.0
   0
LINE
   5
313
 100
AcDbEntity
   8
LEVEL001
 370
13
 100
AcDbLine
   6
CONTINUOUS
  62
6
  10
 2780.8131234928
  20
 3367.3407278192
  30
0.0
  11
 2783.8131234928
  21
 3367.3407278192
  31
0.0
   0
LINE
   5
314
 100
AcDbEntity
   8
LEVEL001
 370
13
 100
AcDbLine
   6
CONTINUOUS
  62
6
  10
 2783.8131234928
  20
 3296.3407278192
  30
0.0
  11
 2783.8131234928
  21
 3297.3407278192
  31
0.0
   0
LINE
   5
315
 100
AcDbEntity
   8
LEVEL001
 370
13
 100
AcDbLine
   6
CONTINUOUS
  62
6
  10
 2783.8131234928
  20
 3297.3407278192
  30
0.0
  11
 2780.8131234928
  21
 3297.3407278192
  31
0.0
   0
ELLIPSE
   5
316
 100
AcDbEntity
   8
LEVEL001
 370
13
   6
CONTINUOUS
  62
7
 100
AcDbEllipse
  10
 2780.2691781802
  20
 3311.3404836784
  30
0.0
  11
-4.0000023841862
  21
0.0
  31
0.0
  40
 0.99999940395391
  41
 1.7072035060234
  42
 3.1415925661655
   0
LINE
   5
317
 100
AcDbEntity
   8
LEVEL001
 370
13
 100
AcDbLine
   6
CONTINUOUS
  62
7
  10
 2780.8131234928
  20
 3296.3407278192
  30
0.0
  11
 2783.8131234928
  21
 3296.3407278192
  31
0.0
   0
ELLIPSE
   5
318
 100
AcDbEntity
   8
LEVEL001
 370
13
   6
CONTINUOUS
  62
7
 100
AcDbEllipse
  10
 2780.2686898990
  20
 3353.3404836784
  30
0.0
  11
-4.0000023841862
  21
0.0
  31
0.0
  40
 0.99999940395391
  41
 3.1415315309729
  42
-1.7073329211755
   0
LINE
   5
319
 100
AcDbEntity
   8
LEVEL001
 370
13
 100
AcDbLine
   6
CONTINUOUS
  62
7
  10
 2780.8131234928
  20
 2980.3407278192
  30
0.0
  11
 2783.8131234928
  21
 2980.3407278192
  31
0.0
   0
LINE
   5
31A
 100
AcDbEntity
   8
LEVEL001
 370
13
 100
AcDbLine
   6
CONTINUOUS
  62
6
  10
 2783.8131234928
  20
 2980.3407278192
  30
0.0
  11
 2783.8131234928
  21
 2979.3407278192
  31
0.0
   0
LINE
   5
31B
 100
AcDbEntity
   8
LEVEL001
 370
13
 100
AcDbLine
   6
CONTINUOUS
  62
6
  10
 2783.8131234928
  20
 2979.3407278192
  30
0.0
  11
 2780.8131234928
  21
 2979.3407278192
  31
0.0
   0
ELLIPSE
   5
31C
 100
AcDbEntity
   8
LEVEL001
 370
13
   6
CONTINUOUS
  62
7
 100
AcDbEllipse
  10
 2780.2691781802
  20
 2965.3409719598
  30
0.0
  11
-4.0000023841862
  21
0.0
  31
0.0
  40
 0.99999940395391
  41
 3.1415925661655
  42
-1.7072119811158
   0
LINE
   5
31D
 100
AcDbEntity
   8
LEVEL001
 370
13
 100
AcDbLine
   6
CONTINUOUS
  62
6
  10
 2780.8131234928
  20
 2909.3407278192
  30
0.0
  11
 2783.8131234928
  21
 2909.3407278192
  31
0.0
   0
ELLIPSE
   5
31E
 100
AcDbEntity
   8
LEVEL001
 370
13
   6
CONTINUOUS
  62
7
 100
AcDbEllipse
  10
 2780.2686898990
  20
 2923.3409719598
  30
0.0
  11
-4.0000023841862
  21
0.0
  31
0.0
  40
 0.99999940395391
  41
 1.7073244389086
  42
 3.1415925661655
   0
LINE
   5
31F
 100
AcDbEntity
   8
LEVEL001
 370
13
 100
AcDbLine
   6
CONTINUOUS
  62
7
  10
 2783.8131234928
  20
 2908.3407278192
  30
0.0
  11
 2780.8131234928
  21
 2908.3407278192
  31
0.0
   0
LINE
   5
320
 100
AcDbEntity
   8
LEVEL001
 370
13
 100
AcDbLine
   6
CONTINUOUS
  62
6
  10
 2880.6412484928
  20
 3315.8407278192
  30
0.0
  11
 2880.6412484928
  21
 3324.8407278192
  31
0.0
   0
LINE
   5
321
 100
AcDbEntity
   8
LEVEL001
 370
13
 100
AcDbLine
   6
CONTINUOUS
  62
6
  10
 2880.6412484928
  20
 3339.8407278192
  30
0.0
  11
 2880.6412484928
  21
 3348.8407278192
  31
0.0
   0
LINE
   5
322
 100
AcDbEntity
   8
LEVEL001
 370
13
 100
AcDbLine
   6
CONTINUOUS
  62
6
  10
 2882.9596078678
  20
 3325.8407278192
  30
0.0
  11
 2882.9596078678
  21
 3338.8407278192
  31
0.0
   0
LINE
   5
323
 100
AcDbEntity
   8
LEVEL001
 370
13
 100
AcDbLine
   6
CONTINUOUS
  62
6
  10
 2793.2994516178
  20
 3326.8407278192
  30
0.0
  11
 2793.2994516178
  21
 3337.8407278192
  31
0.0
   0
LINE
   5
324
 100
AcDbEntity
   8
LEVEL001
 370
13
 100
AcDbLine
   6
CONTINUOUS
  62
6
  10
 2793.2994516178
  20
 3339.8407278192
  30
0.0
  11
 2793.2994516178
  21
 3348.8407278192
  31
0.0
   0
LINE
   5
325
 100
AcDbEntity
   8
LEVEL001
 370
13
 100
AcDbLine
   6
CONTINUOUS
  62
6
  10
 2793.2994516178
  20
 3315.8407278192
  30
0.0
  11
 2793.2994516178
  21
 3324.8407278192
  31
0.0
   0
LINE
   5
326
 100
AcDbEntity
   8
LEVEL001
 370
13
 100
AcDbLine
   6
CONTINUOUS
  62
6
  10
 2880.6412484928
  20
 3338.8407278192
  30
0.0
  11
 2794.5604379458
  21
 3338.8407278192
  31
0.0
   0
LINE
   5
327
 100
AcDbEntity
   8
LEVEL001
 370
13
 100
AcDbLine
   6
CONTINUOUS
  62
6
  10
 2794.5604379458
  20
 3325.8407278192
  30
0.0
  11
 2880.6412484928
  21
 3325.8407278192
  31
0.0
   0
LINE
   5
328
 100
AcDbEntity
   8
LEVEL001
 370
13
 100
AcDbLine
   6
CONTINUOUS
  62
7
  10
 2784.2691781802
  20
 3313.8407278192
  30
0.0
  11
 2901.8131234928
  21
 3313.8407278192
  31
0.0
   0
LINE
   5
329
 100
AcDbEntity
   8
LEVEL001
 370
13
 100
AcDbLine
   6
CONTINUOUS
  62
7
  10
 2901.8131234928
  20
 3313.8407278192
  30
0.0
  11
 2901.8131234928
  21
 3350.8407278192
  31
0.0
   0
LINE
   5
32A
 100
AcDbEntity
   8
LEVEL001
 370
13
 100
AcDbLine
   6
CONTINUOUS
  62
7
  10
 2901.8131234928
  20
 3350.8407278192
  30
0.0
  11
 2784.2686898990
  21
 3350.8407278192
  31
0.0
   0
LINE
   5
32B
 100
AcDbEntity
   8
LEVEL001
 370
13
 100
AcDbLine
   6
CONTINUOUS
  62
6
  10
 2880.6412484928
  20
 2927.8407278192
  30
0.0
  11
 2880.6412484928
  21
 2936.8407278192
  31
0.0
   0
LINE
   5
32C
 100
AcDbEntity
   8
LEVEL001
 370
13
 100
AcDbLine
   6
CONTINUOUS
  62
6
  10
 2880.6412484928
  20
 2951.8407278192
  30
0.0
  11
 2880.6412484928
  21
 2960.8407278192
  31
0.0
   0
LINE
   5
32D
 100
AcDbEntity
   8
LEVEL001
 370
13
 100
AcDbLine
   6
CONTINUOUS
  62
6
  10
 2882.9596078678
  20
 2937.8407278192
  30
0.0
  11
 2882.9596078678
  21
 2950.8407278192
  31
0.0
   0
LINE
   5
32E
 100
AcDbEntity
   8
LEVEL001
 370
13
 100
AcDbLine
   6
CONTINUOUS
  62
6
  10
 2880.6412484928
  20
 2950.8407278192
  30
0.0
  11
 2794.5604379458
  21
 2950.8407278192
  31
0.0
   0
LINE
   5
32F
 100
AcDbEntity
   8
LEVEL001
 370
13
 100
AcDbLine
   6
CONTINUOUS
  62
6
  10
 2794.5604379458
  20
 2937.8407278192
  30
0.0
  11
 2880.6412484928
  21
 2937.8407278192
  31
0.0
   0
LINE
   5
330
 100
AcDbEntity
   8
LEVEL001
 370
13
 100
AcDbLine
   6
CONTINUOUS
  62
7
  10
 2784.2691781802
  20
 2925.8407278192
  30
0.0
  11
 2901.8131234928
  21
 2925.8407278192
  31
0.0
   0
LINE
   5
331
 100
AcDbEntity
   8
LEVEL001
 370
13
 100
AcDbLine
   6
CONTINUOUS
  62
7
  10
 2901.8131234928
  20
 2925.8407278192
  30
0.0
  11
 2901.8131234928
  21
 2962.8407278192
  31
0.0
   0
LINE
   5
332
 100
AcDbEntity
   8
LEVEL001
 370
13
 100
AcDbLine
   6
CONTINUOUS
  62
7
  10
 2901.8131234928
  20
 2962.8407278192
  30
0.0
  11
 2784.2686898990
  21
 2962.8407278192
  31
0.0
   0
LINE
   5
333
 100
AcDbEntity
   8
LEVEL001
 370
13
 100
AcDbLine
   6
CONTINUOUS
  62
6
  10
 2793.2994516178
  20
 2938.8407278192
  30
0.0
  11
 2793.2994516178
  21
 2949.8407278192
  31
0.0
   0
LINE
   5
334
 100
AcDbEntity
   8
LEVEL001
 370
13
 100
AcDbLine
   6
CONTINUOUS
  62
6
  10
 2793.2994516178
  20
 2951.8407278192
  30
0.0
  11
 2793.2994516178
  21
 2960.8407278192
  31
0.0
   0
LINE
   5
335
 100
AcDbEntity
   8
LEVEL001
 370
13
 100
AcDbLine
   6
CONTINUOUS
  62
6
  10
 2793.2994516178
  20
 2927.8407278192
  30
0.0
  11
 2793.2994516178
  21
 2936.8407278192
  31
0.0
   0
LINE
   5
336
 100
AcDbEntity
   8
LEVEL001
 370
13
 100
AcDbLine
   6
CONTINUOUS
  62
7
  10
 2886.8131234928
  20
 2939.3407278192
  30
0.0
  11
 2896.8131234928
  21
 2939.3407278192
  31
0.0
   0
LINE
   5
337
 100
AcDbEntity
   8
LEVEL001
 370
13
 100
AcDbLine
   6
CONTINUOUS
  62
7
  10
 2896.8131234928
  20
 2939.3407278192
  30
0.0
  11
 2896.8131234928
  21
 2949.3407278192
  31
0.0
   0
LINE
   5
338
 100
AcDbEntity
   8
LEVEL001
 370
13
 100
AcDbLine
   6
CONTINUOUS
  62
7
  10
 2896.8131234928
  20
 2949.3407278192
  30
0.0
  11
 2886.8131234928
  21
 2949.3407278192
  31
0.0
   0
LINE
   5
339
 100
AcDbEntity
   8
LEVEL001
 370
13
 100
AcDbLine
   6
CONTINUOUS
  62
7
  10
 2886.8131234928
  20
 2949.3407278192
  30
0.0
  11
 2886.8131234928
  21
 2939.3407278192
  31
0.0
   0
LINE
   5
33A
 100
AcDbEntity
   8
LEVEL001
 370
13
 100
AcDbLine
   6
CONTINUOUS
  62
7
  10
 2886.8131234928
  20
 3327.3407278192
  30
0.0
  11
 2896.8131234928
  21
 3327.3407278192
  31
0.0
   0
LINE
   5
33B
 100
AcDbEntity
   8
LEVEL001
 370
13
 100
AcDbLine
   6
CONTINUOUS
  62
7
  10
 2896.8131234928
  20
 3327.3407278192
  30
0.0
  11
 2896.8131234928
  21
 3337.3407278192
  31
0.0
   0
LINE
   5
33C
 100
AcDbEntity
   8
LEVEL001
 370
13
 100
AcDbLine
   6
CONTINUOUS
  62
7
  10
 2896.8131234928
  20
 3337.3407278192
  30
0.0
  11
 2886.8131234928
  21
 3337.3407278192
  31
0.0
   0
LINE
   5
33D
 100
AcDbEntity
   8
LEVEL001
 370
13
 100
AcDbLine
   6
CONTINUOUS
  62
7
  10
 2886.8131234928
  20
 3337.3407278192
  30
0.0
  11
 2886.8131234928
  21
 3327.3407278192
  31
0.0
   0
LINE
   5
33E
 100
AcDbEntity
   8
LEVEL001
 370
13
 100
AcDbLine
   6
CONTINUOUS
  62
7
  10
 2792.3143930240
  20
 3313.8407278192
  30
0.0
  11
 2792.3143930240
  21
 2962.8407278192
  31
0.0
   0
LINE
   5
33F
 100
AcDbEntity
   8
LEVEL001
 370
13
 100
AcDbLine
   6
CONTINUOUS
  62
7
  10
 2792.3143930240
  20
 2925.8407278192
  30
0.0
  11
 2792.3143930240
  21
 706.78044775701
  31
0.0
   0
LINE
   5
340
 100
AcDbEntity
   8
LEVEL001
 370
13
 100
AcDbLine
   6
CONTINUOUS
  62
7
  10
 2792.3143930240
  20
 706.78044775701
  30
0.0
  11
 2881.4143930240
  21
 706.78044775701
  31
0.0
   0
LINE
   5
341
 100
AcDbEntity
   8
LEVEL001
 370
13
 100
AcDbLine
   6
CONTINUOUS
  62
7
  10
 2881.4143930240
  20
 706.78044775701
  30
0.0
  11
 2881.4143930240
  21
 2925.8407278192
  31
0.0
   0
LINE
   5
342
 100
AcDbEntity
   8
LEVEL001
 370
13
 100
AcDbLine
   6
CONTINUOUS
  62
7
  10
 2881.4143930240
  20
 2962.8407278192
  30
0.0
  11
 2881.4143930240
  21
 3313.8407278192
  31
0.0
   0
POINT
   5
343
 100
AcDbEntity
   8
LEVEL001
 100
AcDbPoint
  62
2
  10
 2836.8643930240
  20
 3506.7804477550
  30
0.0
   0
POINT
   5
344
 100
AcDbEntity
   8
LEVEL001
 100
AcDbPoint
  62
2
  10
 3236.8643930240
  20
 4006.7804477550
  30
0.0
   0
CIRCLE
   5
345
 100
AcDbEntity
   8
LEVEL001
 370
13
 100
AcDbCircle
   6
CONTINUOUS
  62
1
  10
 3436.8643930240
  20
 3426.3414602410
  30
0.0
  40
 70.000000000000
   0
CIRCLE
   5
346
 100
AcDbEntity
   8
LEVEL001
 370
13
 100
AcDbCircle
   6
CONTINUOUS
  62
1
  10
 3576.8643930240
  20
 3426.3414602410
  30
0.0
  40
 70.000000000000
   0
LEADER
   5
347
 100
AcDbEntity
   8
LEVEL001
 370
13
   6
CONTINUOUS
  62
1
 100
AcDbLeader
   3
GMM002
  73
3
  74
1
  75
0
  40
 60.000000000000
  41
0.0
  76
2
  10
 2901.8131234928
  20
 3350.8407278192
  30
0.0
  10
 3367.5497646874
  20
 3416.5699558242
  30
0.0
  77
1
   0
LINE
   5
348
 100
AcDbEntity
   8
LEVEL001
 370
13
 100
AcDbLine
   6
DASHDOT
  62
6
  10
 2836.8643930240
  20
 3350.8407278194
  30
0.0
  11
 2836.8643930240
  21
 606.78044775701
  31
0.0
   0
CIRCLE
   5
349
 100
AcDbEntity
   8
LEVEL001
 370
13
 100
AcDbCircle
   6
CONTINUOUS
  62
1
  10
 2446.8643930240
  20
 856.78044775701
  30
0.0
  40
 70.000000000000
   0
LEADER
   5
34A
 100
AcDbEntity
   8
LEVEL001
 370
13
   6
CONTINUOUS
  62
1
 100
AcDbLeader
   3
GMM002
  73
3
  74
1
  75
0
  40
 60.000000000000
  41
0.0
  76
2
  10
 2720.4644906802
  20
 999.28044775701
  30
0.0
  10
 2508.8689424378
  20
 889.26791998845
  30
0.0
  77
1
   0
MTEXT
   5
34B
 100
AcDbEntity
   8
LEVEL001
 370
13
  62
1
 100
AcDbMText
  10
 2446.8643930240
  20
 856.78044775701
  30
0.0
  40
 57.142857142858
  41
0.0
  71
5
  72
1
   1
\T1.000000;10
   7
GMM001
  44
 0.79999984000003
   0
CIRCLE
   5
34C
 100
AcDbEntity
   8
LEVEL001
 370
13
 100
AcDbCircle
   6
CONTINUOUS
  62
7
  10
 2836.8643930240
  20
 1106.7804477570
  30
0.0
  40
 7.5000000000000
   0
LINE
   5
34D
 100
AcDbEntity
   8
LEVEL001
 370
13
 100
AcDbLine
   6
DASHDOT
  62
6
  10
 2806.8643930240
  20
 1106.7804477570
  30
0.0
  11
 2866.8643930240
  21
 1106.7804477570
  31
0.0
   0
LINE
   5
34E
 100
AcDbEntity
   8
LEVEL001
 370
13
 100
AcDbLine
   6
CONTINUOUS
  62
7
  10
 2792.3143441958
  20
 1014.2804477570
  30
0.0
  11
 2720.4644906802
  21
 1014.2804477570
  31
0.0
   0
LINE
   5
34F
 100
AcDbEntity
   8
LEVEL001
 370
13
 100
AcDbLine
   6
CONTINUOUS
  62
7
  10
 2720.4644906802
  20
 1014.2804477570
  30
0.0
  11
 2720.4644906802
  21
 999.28044775701
  31
0.0
   0
LINE
   5
350
 100
AcDbEntity
   8
LEVEL001
 370
13
 100
AcDbLine
   6
CONTINUOUS
  62
7
  10
 2720.4644906802
  20
 999.28044775701
  30
0.0
  11
 2792.3143441958
  21
 999.28044775701
  31
0.0
   0
LINE
   5
351
 100
AcDbEntity
   8
LEVEL001
 370
13
 100
AcDbLine
   6
CONTINUOUS
  62
7
  10
 2881.4144418522
  20
 1014.2804477570
  30
0.0
  11
 2953.2642953678
  21
 1014.2804477570
  31
0.0
   0
LINE
   5
352
 100
AcDbEntity
   8
LEVEL001
 370
13
 100
AcDbLine
   6
CONTINUOUS
  62
7
  10
 2953.2642953678
  20
 1014.2804477570
  30
0.0
  11
 2953.2642953678
  21
 999.28044775701
  31
0.0
   0
LINE
   5
353
 100
AcDbEntity
   8
LEVEL001
 370
13
 100
AcDbLine
   6
CONTINUOUS
  62
7
  10
 2953.2642953678
  20
 999.28044775701
  30
0.0
  11
 2881.4144418522
  21
 999.28044775701
  31
0.0
   0
LINE
   5
354
 100
AcDbEntity
   8
LEVEL001
 370
13
 100
AcDbLine
   6
DASHDOT
  62
6
  10
 2770.4644906802
  20
 1006.7804477570
  30
0.0
  11
 2903.2642953678
  21
 1006.7804477570
  31
0.0
   0
LINE
   5
355
 100
AcDbEntity
   8
LEVEL001
 370
13
 100
AcDbLine
   6
DOT
  62
1
  10
 2881.4144418522
  20
 999.28044775701
  30
0.0
  11
 2792.3143441958
  21
 999.28044775701
  31
0.0
   0
LINE
   5
356
 100
AcDbEntity
   8
LEVEL001
 370
13
 100
AcDbLine
   6
DOT
  62
1
  10
 2792.3143441958
  20
 1014.2804477570
  30
0.0
  11
 2881.4144418522
  21
 1014.2804477570
  31
0.0
   0
MTEXT
   5
358
 100
AcDbEntity
   8
LEVEL001
 370
13
  62
1
 100
AcDbMText
  10
 2457.5129982334
  20
 1915.5103847973
  30
0.0
  40
 40.000000000000
  41
0.0
  71
7
  72
1
   1
\T1.000000;ＧＬ
   7
GMM003
  44
 0.79999984000003
   0
LINE
   5
359
 100
AcDbEntity
   8
LEVEL001
 370
13
 100
AcDbLine
   6
CONTINUOUS
  62
1
  10
 2429.3643277886
  20
 1906.7804477570
  30
0.0
  11
 2404.3643277886
  21
 1956.7804477570
  31
0.0
   0
LINE
   5
35A
 100
AcDbEntity
   8
LEVEL001
 370
13
 100
AcDbLine
   6
CONTINUOUS
  62
1
  10
 2404.3643277886
  20
 1956.7804477570
  30
0.0
  11
 2454.3643277886
  21
 1956.7804477570
  31
0.0
   0
LINE
   5
35B
 100
AcDbEntity
   8
LEVEL001
 370
13
 100
AcDbLine
   6
CONTINUOUS
  62
1
  10
 2454.3643277886
  20
 1956.7804477570
  30
0.0
  11
 2429.3643277886
  21
 1906.7804477570
  31
0.0
   0
LINE
   5
35C
 100
AcDbEntity
   8
LEVEL001
 370
13
 100
AcDbLine
   6
CONTINUOUS
  62
7
  10
 3192.3143930240
  20
 4162.7201676946
  30
0.0
  11
 3192.3143930240
  21
 4600.1804477570
  31
0.0
   0
LINE
   5
35D
 100
AcDbEntity
   8
LEVEL001
 370
13
 100
AcDbLine
   6
CONTINUOUS
  62
7
  10
 3281.4143930240
  20
 4600.1804477570
  30
0.0
  11
 3281.4143930240
  21
 4162.7201676944
  31
0.0
   0
LINE
   5
35E
 100
AcDbEntity
   8
LEVEL001
 370
13
 100
AcDbLine
   6
DASHDOT
  62
6
  10
 3236.8643930240
  20
 4162.7201676946
  30
0.0
  11
 3236.8643930240
  21
 5171.3095955300
  31
0.0
   0
MTEXT
   5
35F
 100
AcDbEntity
   8
LEVEL001
 370
13
  62
1
 100
AcDbMText
  10
 3436.8643930240
  20
 3426.3414602410
  30
0.0
  40
 57.142857142858
  41
0.0
  71
5
  72
1
   1
\T1.000000;15
   7
GMM001
  44
 0.79999984000003
   0
MTEXT
   5
360
 100
AcDbEntity
   8
LEVEL001
 370
13
  62
1
 100
AcDbMText
  10
 3576.8643930240
  20
 3426.3414602410
  30
0.0
  40
 57.142857142858
  41
0.0
  71
5
  72
1
   1
\T1.000000;16
   7
GMM001
  44
 0.79999984000003
   0
LINE
   5
361
 100
AcDbEntity
   8
LEVEL001
 370
13
 100
AcDbLine
   6
CONTINUOUS
  62
7
  10
 1581.4143930240
  20
 5110.7804477570
  30
0.0
  11
 1492.3143930240
  21
 5110.7804477570
  31
0.0
   0
LINE
   5
362
 100
AcDbEntity
   8
LEVEL001
 370
13
 100
AcDbLine
   6
CONTINUOUS
  62
7
  10
 1492.3143930240
  20
 5110.7804477570
  30
0.0
  11
 1492.3143930240
  21
 5107.7804477570
  31
0.0
   0
LINE
   5
363
 100
AcDbEntity
   8
LEVEL001
 370
13
 100
AcDbLine
   6
CONTINUOUS
  62
7
  10
 1492.3143930240
  20
 5107.7804477570
  30
0.0
  11
 1581.4143930240
  21
 5107.7804477570
  31
0.0
   0
LINE
   5
364
 100
AcDbEntity
   8
LEVEL001
 370
13
 100
AcDbLine
   6
CONTINUOUS
  62
7
  10
 1581.4143930240
  20
 5107.7804477570
  30
0.0
  11
 1581.4143930240
  21
 5110.7804477570
  31
0.0
   0
LINE
   5
365
 100
AcDbEntity
   8
LEVEL001
 370
13
 100
AcDbLine
   6
DOT
  62
1
  10
 1576.4143930240
  20
 5107.7804477570
  30
0.0
  11
 1576.4143930240
  21
 5080.7804477570
  31
0.0
   0
LINE
   5
366
 100
AcDbEntity
   8
LEVEL001
 370
13
 100
AcDbLine
   6
DOT
  62
1
  10
 1576.4143930240
  20
 5080.7804477570
  30
0.0
  11
 1497.3143930240
  21
 5080.7804477570
  31
0.0
   0
LINE
   5
367
 100
AcDbEntity
   8
LEVEL001
 370
13
 100
AcDbLine
   6
DOT
  62
1
  10
 1497.3143930240
  20
 5080.7804477570
  30
0.0
  11
 1497.3143930240
  21
 5107.7804477570
  31
0.0
   0
LINE
   5
368
 100
AcDbEntity
   8
LEVEL001
 370
13
 100
AcDbLine
   6
DASHDOT
  62
6
  10
 1536.8643930240
  20
 5162.9764920594
  30
0.0
  11
 1536.8643930240
  21
 606.78044775701
  31
0.0
   0
ARC
   5
369
 100
AcDbEntity
   8
LEVEL001
 370
13
   6
CONTINUOUS
  62
7
 100
AcDbCircle
  10
 1606.8640859129
  20
 3418.3415125648
  30
0.0
  40
 20.000000000000
 100
AcDbArc
  50
0.0
  51
 90.000000000000
   0
LINE
   5
36A
 100
AcDbEntity
   8
LEVEL001
 370
13
 100
AcDbLine
   6
CONTINUOUS
  62
7
  10
 1606.8640859129
  20
 3438.3415125648
  30
0.0
  11
 1466.8667017526
  21
 3438.3415125648
  31
0.0
   0
ARC
   5
36B
 100
AcDbEntity
   8
LEVEL001
 370
13
   6
CONTINUOUS
  62
7
 100
AcDbCircle
  10
 1466.8667017526
  20
 3418.3415125648
  30
0.0
  40
 20.000000000000
 100
AcDbArc
  50
 90.000000000000
  51
 180.00000000000
   0
LINE
   5
36C
 100
AcDbEntity
   8
LEVEL001
 370
13
 100
AcDbLine
   6
CONTINUOUS
  62
7
  10
 1446.8667017526
  20
 3418.3415125648
  30
0.0
  11
 1446.8667017526
  21
 2858.3407278192
  31
0.0
   0
LINE
   5
36D
 100
AcDbEntity
   8
LEVEL001
 370
13
 100
AcDbLine
   6
CONTINUOUS
  62
7
  10
 1626.8640859129
  20
 2858.3407278192
  30
0.0
  11
 1626.8640859129
  21
 3418.3415125648
  31
0.0
   0
LINE
   5
36E
 100
AcDbEntity
   8
LEVEL001
 370
13
 100
AcDbLine
   6
CONTINUOUS
  62
7
  10
 1466.8667017526
  20
 2838.3407278192
  30
0.0
  11
 1606.8640859129
  21
 2838.3407278192
  31
0.0
   0
ARC
   5
36F
 100
AcDbEntity
   8
LEVEL001
 370
13
   6
CONTINUOUS
  62
7
 100
AcDbCircle
  10
 1606.8640859129
  20
 2858.3407278192
  30
0.0
  40
 20.000000000000
 100
AcDbArc
  50
 270.00000000000
  51
0.0
   0
ARC
   5
370
 100
AcDbEntity
   8
LEVEL001
 370
13
   6
CONTINUOUS
  62
7
 100
AcDbCircle
  10
 1466.8667017526
  20
 2858.3407278192
  30
0.0
  40
 20.000000000000
 100
AcDbArc
  50
 180.00000000000
  51
 270.00000000000
   0
LINE
   5
371
 100
AcDbEntity
   8
LEVEL001
 370
13
 100
AcDbLine
   6
CONTINUOUS
  62
7
  10
 1492.3143930240
  20
 2838.3407278192
  30
0.0
  11
 1492.3143930240
  21
 706.78044775701
  31
0.0
   0
LINE
   5
372
 100
AcDbEntity
   8
LEVEL001
 370
13
 100
AcDbLine
   6
CONTINUOUS
  62
7
  10
 1492.3143930240
  20
 706.78044775701
  30
0.0
  11
 1581.4143930240
  21
 706.78044775701
  31
0.0
   0
LINE
   5
373
 100
AcDbEntity
   8
LEVEL001
 370
13
 100
AcDbLine
   6
CONTINUOUS
  62
7
  10
 1581.4143930240
  20
 706.78044775701
  30
0.0
  11
 1581.4143930240
  21
 2838.3407278192
  31
0.0
   0
CIRCLE
   5
374
 100
AcDbEntity
   8
LEVEL001
 370
13
 100
AcDbCircle
   6
CONTINUOUS
  62
1
  10
 1786.8643930240
  20
 3038.3415125648
  30
0.0
  40
 70.000000000000
   0
MTEXT
   5
375
 100
AcDbEntity
   8
LEVEL001
 370
13
  62
1
 100
AcDbMText
  10
 1786.8643930240
  20
 3038.3415125648
  30
0.0
  40
 57.142857142858
  41
0.0
  71
5
  72
1
   1
\T1.000000;14
   7
GMM001
  44
 0.79999984000003
   0
LEADER
   5
376
 100
AcDbEntity
   8
LEVEL001
 370
13
   6
CONTINUOUS
  62
1
 100
AcDbLeader
   3
GMM002
  73
3
  74
1
  75
0
  40
 60.000000000000
  41
0.0
  76
2
  10
 1626.8640859129
  20
 3198.3418196764
  30
0.0
  10
 1737.3669183412
  20
 3087.8389872482
  30
0.0
  77
1
   0
LINE
   5
377
 100
AcDbEntity
   8
LEVEL001
 370
13
 100
AcDbLine
   6
CONTINUOUS
  62
7
  10
 1581.4143930240
  20
 4820.1804477570
  30
0.0
  11
 1581.4143930240
  21
 5106.7804477570
  31
0.0
   0
LINE
   5
378
 100
AcDbEntity
   8
LEVEL001
 370
13
 100
AcDbLine
   6
CONTINUOUS
  62
7
  10
 1581.4143930240
  20
 5106.7804477570
  30
0.0
  11
 1492.3143930240
  21
 5106.7804477570
  31
0.0
   0
LINE
   5
379
 100
AcDbEntity
   8
LEVEL001
 370
13
 100
AcDbLine
   6
CONTINUOUS
  62
7
  10
 1492.3143930240
  20
 5106.7804477570
  30
0.0
  11
 1492.3143930240
  21
 4820.1804477570
  31
0.0
   0
LINE
   5
37A
 100
AcDbEntity
   8
LEVEL001
 370
13
 100
AcDbLine
   6
CONTINUOUS
  62
7
  10
 1581.4143930240
  20
 3438.3415125648
  30
0.0
  11
 1581.4143930240
  21
 4600.1804477570
  31
0.0
   0
LINE
   5
37B
 100
AcDbEntity
   8
LEVEL001
 370
13
 100
AcDbLine
   6
CONTINUOUS
  62
7
  10
 1492.3143930240
  20
 4600.1804477570
  30
0.0
  11
 1492.3143930240
  21
 3438.3415125648
  31
0.0
   0
LINE
   5
37C
 100
AcDbEntity
   8
LEVEL001
 370
13
 100
AcDbLine
   6
CONTINUOUS
  62
3
  10
 2435.2643930240
  20
 4497.6804477570
  30
0.0
  11
 2435.2643930240
  21
 4962.6804477570
  31
0.0
   0
LEADER
   5
37D
 100
AcDbEntity
   8
LEVEL001
 370
13
   6
CONTINUOUS
  62
1
 100
AcDbLeader
   3
GMM002
  73
3
  74
1
  75
0
  40
 60.000000000000
  41
0.0
  76
2
  10
 1581.4143930240
  20
 2585.3654339766
  30
0.0
  10
 1726.6116673035
  20
 2671.1488740722
  30
0.0
  77
1
   0
DIMENSION
   5
37E
 100
AcDbEntity
   8
0
 370
13
   6
CONTINUOUS
  62
1
 100
AcDbDimension
   2
*D15
  10
 2836.8643930240
  20
 2706.7804477570
  30
0.0
  11
 3036.8643930240
  21
 2706.7804477570
  31
0.0
  70
0
   3
GMM003
 100
AcDbAlignedDimension
  13
 3236.8643930240
  23
 4006.7804477550
  33
0.0
  14
 2836.8643930240
  24
 3506.7804477550
  34
0.0
  50
 180.00000000000
 100
AcDbRotatedDimension
   0
LINE
   5
37F
 100
AcDbEntity
   8
LEVEL001
 370
13
 100
AcDbLine
   6
CONTINUOUS
  62
5
  10
 3086.8643930240
  20
 1592.1357868164
  30
0.0
  11
 2881.4144418522
  21
 1386.6858356445
  31
0.0
   0
LINE
   5
380
 100
AcDbEntity
   8
LEVEL001
 370
13
 100
AcDbLine
   6
CONTINUOUS
  62
5
  10
 2881.4144418522
  20
 1351.3304965852
  30
0.0
  11
 3086.8643930240
  21
 1556.7804477570
  31
0.0
   0
LINE
   5
381
 100
AcDbEntity
   8
LEVEL001
 370
13
 100
AcDbLine
   6
CONTINUOUS
  62
5
  10
 3086.8643930240
  20
 1521.4251086977
  30
0.0
  11
 2881.4144418522
  21
 1315.9751575259
  31
0.0
   0
LINE
   5
382
 100
AcDbEntity
   8
LEVEL001
 370
13
 100
AcDbLine
   6
CONTINUOUS
  62
5
  10
 3147.5445878706
  20
 1906.7804477570
  30
0.0
  11
 3095.0445878706
  21
 1854.2804477570
  31
0.0
   0
LINE
   5
383
 100
AcDbEntity
   8
LEVEL001
 370
13
 100
AcDbLine
   6
CONTINUOUS
  62
5
  10
 3110.9544904468
  20
 1854.2804477570
  30
0.0
  11
 3163.4544904468
  21
 1906.7804477570
  31
0.0
   0
LINE
   5
384
 100
AcDbEntity
   8
LEVEL001
 370
13
 100
AcDbLine
   6
CONTINUOUS
  62
5
  10
 3179.3643930244
  20
 1906.7804477570
  30
0.0
  11
 3126.8643930244
  21
 1854.2804477570
  31
0.0
   0
LINE
   5
385
 100
AcDbEntity
   8
LEVEL001
 370
13
 100
AcDbLine
   6
CONTINUOUS
  62
5
  10
 3142.7742956004
  20
 1854.2804477570
  30
0.0
  11
 3195.2742956004
  21
 1906.7804477570
  31
0.0
   0
LINE
   5
386
 100
AcDbEntity
   8
LEVEL001
 370
13
 100
AcDbLine
   6
CONTINUOUS
  62
5
  10
 3200.0445878710
  20
 1854.2804477570
  30
0.0
  11
 3171.4094417356
  21
 1882.9155938923
  31
0.0
   0
LINE
   5
387
 100
AcDbEntity
   8
LEVEL001
 370
13
 100
AcDbLine
   6
CONTINUOUS
  62
5
  10
 3179.3643930238
  20
 1890.8705451805
  30
0.0
  11
 3215.9544904474
  21
 1854.2804477570
  31
0.0
   0
LINE
   5
388
 100
AcDbEntity
   8
LEVEL001
 370
13
 100
AcDbLine
   6
CONTINUOUS
  62
5
  10
 3231.8643930238
  20
 1854.2804477570
  30
0.0
  11
 3187.3193443120
  21
 1898.8254964687
  31
0.0
   0
LINE
   5
389
 100
AcDbEntity
   8
LEVEL001
 370
13
 100
AcDbLine
   6
CONTINUOUS
  62
5
  10
 3195.2742956004
  20
 1906.7804477570
  30
0.0
  11
 3247.7742956006
  21
 1854.2804477570
  31
0.0
   0
LINE
   5
38A
 100
AcDbEntity
   8
LEVEL001
 370
13
 100
AcDbLine
   6
CONTINUOUS
  62
5
  10
 3247.7742956006
  20
 1854.2804477570
  30
0.0
  11
 3300.2742956006
  21
 1906.7804477570
  31
0.0
   0
LINE
   5
38B
 100
AcDbEntity
   8
LEVEL001
 370
13
 100
AcDbLine
   6
CONTINUOUS
  62
5
  10
 3252.5445878708
  20
 1906.7804477570
  30
0.0
  11
 3223.9094417356
  21
 1878.1453016218
  31
0.0
   0
LINE
   5
38C
 100
AcDbEntity
   8
LEVEL001
 370
13
 100
AcDbLine
   6
CONTINUOUS
  62
5
  10
 3231.8643930238
  20
 1870.1903503338
  30
0.0
  11
 3268.4544904470
  21
 1906.7804477570
  31
0.0
   0
LINE
   5
38D
 100
AcDbEntity
   8
LEVEL001
 370
13
 100
AcDbLine
   6
CONTINUOUS
  62
5
  10
 3284.3643930246
  20
 1906.7804477570
  30
0.0
  11
 3239.8193443126
  21
 1862.2353990450
  31
0.0
   0
LINE
   5
38E
 100
AcDbEntity
   8
LEVEL001
 370
13
 100
AcDbLine
   6
CONTINUOUS
  62
5
  10
 3305.0445878712
  20
 1854.2804477570
  30
0.0
  11
 3276.4094417358
  21
 1882.9155938923
  31
0.0
   0
LINE
   5
38F
 100
AcDbEntity
   8
LEVEL001
 370
13
 100
AcDbLine
   6
CONTINUOUS
  62
5
  10
 3284.3643930240
  20
 1890.8705451805
  30
0.0
  11
 3320.9544904476
  21
 1854.2804477570
  31
0.0
   0
LINE
   5
390
 100
AcDbEntity
   8
LEVEL001
 370
13
 100
AcDbLine
   6
CONTINUOUS
  62
5
  10
 3336.8643930240
  20
 1854.2804477570
  30
0.0
  11
 3292.3193443122
  21
 1898.8254964687
  31
0.0
   0
LINE
   5
391
 100
AcDbEntity
   8
LEVEL001
 370
13
 100
AcDbLine
   6
CONTINUOUS
  62
5
  10
 3300.2742956006
  20
 1906.7804477570
  30
0.0
  11
 3336.8643930240
  21
 1870.1903503337
  31
0.0
   0
LINE
   5
392
 100
AcDbEntity
   8
LEVEL001
 370
13
 100
AcDbLine
   6
CONTINUOUS
  62
5
  10
 3086.8643930240
  20
 706.78044775701
  30
0.0
  11
 3086.8643930240
  21
 1906.7804477571
  31
0.0
   0
LINE
   5
393
 100
AcDbEntity
   8
LEVEL001
 370
13
 100
AcDbLine
   6
CONTINUOUS
  62
5
  10
 2881.4143930240
  20
 1906.7804477570
  30
0.0
  11
 3336.8643930240
  21
 1906.7804477570
  31
0.0
   0
LINE
   5
394
 100
AcDbEntity
   8
LEVEL001
 370
13
 100
AcDbLine
   6
CONTINUOUS
  62
5
  10
 3086.8643930240
  20
 706.78044775701
  30
0.0
  11
 3036.8643930240
  21
 606.78044775701
  31
0.0
   0
LINE
   5
395
 100
AcDbEntity
   8
LEVEL001
 370
13
 100
AcDbLine
   6
CONTINUOUS
  62
5
  10
 3036.8643930240
  20
 706.78044775701
  30
0.0
  11
 3076.8643930240
  21
 686.78044775701
  31
0.0
   0
LINE
   5
396
 100
AcDbEntity
   8
LEVEL001
 370
13
 100
AcDbLine
   6
CONTINUOUS
  62
5
  10
 3086.8643930240
  20
 606.78044775701
  30
0.0
  11
 3046.8643930240
  21
 626.78044775701
  31
0.0
   0
LINE
   5
397
 100
AcDbEntity
   8
LEVEL001
 370
13
 100
AcDbLine
   6
CONTINUOUS
  62
5
  10
 3086.8643930240
  20
 706.78044775701
  30
0.0
  11
 2586.8643930240
  21
 706.78044775701
  31
0.0
   0
LINE
   5
398
 100
AcDbEntity
   8
LEVEL001
 370
13
 100
AcDbLine
   6
CONTINUOUS
  62
5
  10
 2586.8643930240
  20
 606.78044775701
  30
0.0
  11
 3086.8643930240
  21
 606.78044775701
  31
0.0
   0
LINE
   5
399
 100
AcDbEntity
   8
LEVEL001
 370
13
 100
AcDbLine
   6
CONTINUOUS
  62
5
  10
 3086.8643930240
  20
 606.78044775701
  30
0.0
  11
 3086.8643930240
  21
 706.78044775701
  31
0.0
   0
LINE
   5
39A
 100
AcDbEntity
   8
LEVEL001
 370
13
 100
AcDbLine
   6
CONTINUOUS
  62
5
  10
 3036.8643930240
  20
 706.78044775701
  30
0.0
  11
 2986.8643930240
  21
 606.78044775701
  31
0.0
   0
LINE
   5
39B
 100
AcDbEntity
   8
LEVEL001
 370
13
 100
AcDbLine
   6
CONTINUOUS
  62
5
  10
 2986.8643930240
  20
 706.78044775701
  30
0.0
  11
 3026.8643930240
  21
 686.78044775701
  31
0.0
   0
LINE
   5
39C
 100
AcDbEntity
   8
LEVEL001
 370
13
 100
AcDbLine
   6
CONTINUOUS
  62
5
  10
 2986.8643930240
  20
 706.78044775701
  30
0.0
  11
 2936.8643930240
  21
 606.78044775701
  31
0.0
   0
LINE
   5
39D
 100
AcDbEntity
   8
LEVEL001
 370
13
 100
AcDbLine
   6
CONTINUOUS
  62
5
  10
 2936.8643930240
  20
 706.78044775701
  30
0.0
  11
 2976.8643930240
  21
 686.78044775701
  31
0.0
   0
LINE
   5
39E
 100
AcDbEntity
   8
LEVEL001
 370
13
 100
AcDbLine
   6
CONTINUOUS
  62
5
  10
 3036.8643930240
  20
 606.78044775701
  30
0.0
  11
 2996.8643930240
  21
 626.78044775701
  31
0.0
   0
LINE
   5
39F
 100
AcDbEntity
   8
LEVEL001
 370
13
 100
AcDbLine
   6
CONTINUOUS
  62
5
  10
 2986.8643930240
  20
 606.78044775701
  30
0.0
  11
 2946.8643930240
  21
 626.78044775701
  31
0.0
   0
LINE
   5
3A0
 100
AcDbEntity
   8
LEVEL001
 370
13
 100
AcDbLine
   6
CONTINUOUS
  62
5
  10
 2586.8643930240
  20
 706.78044775701
  30
0.0
  11
 3086.8643930240
  21
 706.78044775701
  31
0.0
   0
LINE
   5
3A1
 100
AcDbEntity
   8
LEVEL001
 370
13
 100
AcDbLine
   6
CONTINUOUS
  62
5
  10
 2586.8643930240
  20
 706.78044775701
  30
0.0
  11
 2586.8643930240
  21
 606.78044775701
  31
0.0
   0
LINE
   5
3A2
 100
AcDbEntity
   8
LEVEL001
 370
13
 100
AcDbLine
   6
CONTINUOUS
  62
5
  10
 2636.8643930240
  20
 706.78044775701
  30
0.0
  11
 2586.8643930240
  21
 606.78044775701
  31
0.0
   0
LINE
   5
3A3
 100
AcDbEntity
   8
LEVEL001
 370
13
 100
AcDbLine
   6
CONTINUOUS
  62
5
  10
 2586.8643930240
  20
 706.78044775701
  30
0.0
  11
 2626.8643930240
  21
 686.78044775701
  31
0.0
   0
LINE
   5
3A4
 100
AcDbEntity
   8
LEVEL001
 370
13
 100
AcDbLine
   6
CONTINUOUS
  62
5
  10
 2636.8643930240
  20
 606.78044775701
  30
0.0
  11
 2596.8643930240
  21
 626.78044775701
  31
0.0
   0
LINE
   5
3A5
 100
AcDbEntity
   8
LEVEL001
 370
13
 100
AcDbLine
   6
CONTINUOUS
  62
5
  10
 2736.8643930240
  20
 706.78044775701
  30
0.0
  11
 2686.8643930240
  21
 606.78044775701
  31
0.0
   0
LINE
   5
3A6
 100
AcDbEntity
   8
LEVEL001
 370
13
 100
AcDbLine
   6
CONTINUOUS
  62
5
  10
 2686.8643930240
  20
 706.78044775701
  30
0.0
  11
 2726.8643930240
  21
 686.78044775701
  31
0.0
   0
LINE
   5
3A7
 100
AcDbEntity
   8
LEVEL001
 370
13
 100
AcDbLine
   6
CONTINUOUS
  62
5
  10
 2686.8643930240
  20
 706.78044775701
  30
0.0
  11
 2636.8643930240
  21
 606.78044775701
  31
0.0
   0
LINE
   5
3A8
 100
AcDbEntity
   8
LEVEL001
 370
13
 100
AcDbLine
   6
CONTINUOUS
  62
5
  10
 2636.8643930240
  20
 706.78044775701
  30
0.0
  11
 2676.8643930240
  21
 686.78044775701
  31
0.0
   0
LINE
   5
3A9
 100
AcDbEntity
   8
LEVEL001
 370
13
 100
AcDbLine
   6
CONTINUOUS
  62
5
  10
 2736.8643930240
  20
 606.78044775701
  30
0.0
  11
 2696.8643930240
  21
 626.78044775701
  31
0.0
   0
LINE
   5
3AA
 100
AcDbEntity
   8
LEVEL001
 370
13
 100
AcDbLine
   6
CONTINUOUS
  62
5
  10
 2686.8643930240
  20
 606.78044775701
  30
0.0
  11
 2646.8643930240
  21
 626.78044775701
  31
0.0
   0
LINE
   5
3AB
 100
AcDbEntity
   8
LEVEL001
 370
13
 100
AcDbLine
   6
CONTINUOUS
  62
5
  10
 2586.8643930240
  20
 1906.7804477571
  30
0.0
  11
 2586.8643930240
  21
 706.78044775701
  31
0.0
   0
LINE
   5
3AC
 100
AcDbEntity
   8
LEVEL001
 370
13
 100
AcDbLine
   6
CONTINUOUS
  62
5
  10
 2792.3143441958
  20
 1226.8750598696
  30
0.0
  11
 2586.8643930240
  21
 1021.4251086977
  31
0.0
   0
LINE
   5
3AD
 100
AcDbEntity
   8
LEVEL001
 370
13
 100
AcDbLine
   6
CONTINUOUS
  62
5
  10
 2586.8643930240
  20
 1056.7804477570
  30
0.0
  11
 2792.3143441958
  21
 1262.2303989289
  31
0.0
   0
LINE
   5
3AE
 100
AcDbEntity
   8
LEVEL001
 370
13
 100
AcDbLine
   6
CONTINUOUS
  62
5
  10
 2792.3143441958
  20
 1297.5857379882
  30
0.0
  11
 2586.8643930240
  21
 1092.1357868164
  31
0.0
   0
LINE
   5
3AF
 100
AcDbEntity
   8
LEVEL001
 370
13
 100
AcDbLine
   6
CONTINUOUS
  62
5
  10
 2497.7742956006
  20
 1854.2804477570
  30
0.0
  11
 2550.2742956006
  21
 1906.7804477570
  31
0.0
   0
LINE
   5
3B0
 100
AcDbEntity
   8
LEVEL001
 370
13
 100
AcDbLine
   6
CONTINUOUS
  62
5
  10
 2481.8643930238
  20
 1870.1903503338
  30
0.0
  11
 2518.4544904470
  21
 1906.7804477570
  31
0.0
   0
LINE
   5
3B1
 100
AcDbEntity
   8
LEVEL001
 370
13
 100
AcDbLine
   6
CONTINUOUS
  62
5
  10
 2534.3643930246
  20
 1906.7804477570
  30
0.0
  11
 2489.8193443126
  21
 1862.2353990450
  31
0.0
   0
LINE
   5
3B2
 100
AcDbEntity
   8
LEVEL001
 370
13
 100
AcDbLine
   6
CONTINUOUS
  62
5
  10
 2555.0445878712
  20
 1854.2804477570
  30
0.0
  11
 2526.4094417358
  21
 1882.9155938923
  31
0.0
   0
LINE
   5
3B3
 100
AcDbEntity
   8
LEVEL001
 370
13
 100
AcDbLine
   6
CONTINUOUS
  62
5
  10
 2534.3643930240
  20
 1890.8705451805
  30
0.0
  11
 2570.9544904476
  21
 1854.2804477570
  31
0.0
   0
LINE
   5
3B4
 100
AcDbEntity
   8
LEVEL001
 370
13
 100
AcDbLine
   6
CONTINUOUS
  62
5
  10
 2586.8643930240
  20
 1854.2804477570
  30
0.0
  11
 2542.3193443122
  21
 1898.8254964687
  31
0.0
   0
LINE
   5
3B5
 100
AcDbEntity
   8
LEVEL001
 370
13
 100
AcDbLine
   6
CONTINUOUS
  62
5
  10
 2397.5445878706
  20
 1906.7804477570
  30
0.0
  11
 2345.0445878706
  21
 1854.2804477570
  31
0.0
   0
LINE
   5
3B6
 100
AcDbEntity
   8
LEVEL001
 370
13
 100
AcDbLine
   6
CONTINUOUS
  62
5
  10
 2360.9544904468
  20
 1854.2804477570
  30
0.0
  11
 2413.4544904468
  21
 1906.7804477570
  31
0.0
   0
LINE
   5
3B7
 100
AcDbEntity
   8
LEVEL001
 370
13
 100
AcDbLine
   6
CONTINUOUS
  62
5
  10
 2429.3643930244
  20
 1906.7804477570
  30
0.0
  11
 2376.8643930244
  21
 1854.2804477570
  31
0.0
   0
LINE
   5
3B8
 100
AcDbEntity
   8
LEVEL001
 370
13
 100
AcDbLine
   6
CONTINUOUS
  62
5
  10
 2392.7742956004
  20
 1854.2804477570
  30
0.0
  11
 2445.2742956004
  21
 1906.7804477570
  31
0.0
   0
LINE
   5
3B9
 100
AcDbEntity
   8
LEVEL001
 370
13
 100
AcDbLine
   6
CONTINUOUS
  62
5
  10
 2450.0445878710
  20
 1854.2804477570
  30
0.0
  11
 2421.4094417356
  21
 1882.9155938923
  31
0.0
   0
LINE
   5
3BA
 100
AcDbEntity
   8
LEVEL001
 370
13
 100
AcDbLine
   6
CONTINUOUS
  62
5
  10
 2429.3643930238
  20
 1890.8705451805
  30
0.0
  11
 2465.9544904474
  21
 1854.2804477570
  31
0.0
   0
LINE
   5
3BB
 100
AcDbEntity
   8
LEVEL001
 370
13
 100
AcDbLine
   6
CONTINUOUS
  62
5
  10
 2481.8643930238
  20
 1854.2804477570
  30
0.0
  11
 2437.3193443120
  21
 1898.8254964687
  31
0.0
   0
LINE
   5
3BC
 100
AcDbEntity
   8
LEVEL001
 370
13
 100
AcDbLine
   6
CONTINUOUS
  62
5
  10
 2445.2742956004
  20
 1906.7804477570
  30
0.0
  11
 2497.7742956006
  21
 1854.2804477570
  31
0.0
   0
LINE
   5
3BD
 100
AcDbEntity
   8
LEVEL001
 370
13
 100
AcDbLine
   6
CONTINUOUS
  62
5
  10
 2502.5445878708
  20
 1906.7804477570
  30
0.0
  11
 2473.9094417356
  21
 1878.1453016218
  31
0.0
   0
LINE
   5
3BE
 100
AcDbEntity
   8
LEVEL001
 370
13
 100
AcDbLine
   6
CONTINUOUS
  62
5
  10
 2550.2742956006
  20
 1906.7804477570
  30
0.0
  11
 2586.8643930240
  21
 1870.1903503337
  31
0.0
   0
LINE
   5
3BF
 100
AcDbEntity
   8
LEVEL001
 370
13
 100
AcDbLine
   6
CONTINUOUS
  62
5
  10
 2792.3143930240
  20
 1906.7804477570
  30
0.0
  11
 2336.8643930240
  21
 1906.7804477570
  31
0.0
   0
LINE
   5
3C0
 100
AcDbEntity
   8
LEVEL001
 370
13
 100
AcDbLine
   6
CONTINUOUS
  62
5
  10
 1786.8643930240
  20
 706.78044775701
  30
0.0
  11
 1736.8643930240
  21
 606.78044775701
  31
0.0
   0
LINE
   5
3C1
 100
AcDbEntity
   8
LEVEL001
 370
13
 100
AcDbLine
   6
CONTINUOUS
  62
5
  10
 1736.8643930240
  20
 706.78044775701
  30
0.0
  11
 1776.8643930240
  21
 686.78044775701
  31
0.0
   0
LINE
   5
3C2
 100
AcDbEntity
   8
LEVEL001
 370
13
 100
AcDbLine
   6
CONTINUOUS
  62
5
  10
 1736.8643930240
  20
 706.78044775701
  30
0.0
  11
 1686.8643930240
  21
 606.78044775701
  31
0.0
   0
LINE
   5
3C3
 100
AcDbEntity
   8
LEVEL001
 370
13
 100
AcDbLine
   6
CONTINUOUS
  62
5
  10
 1686.8643930240
  20
 706.78044775701
  30
0.0
  11
 1726.8643930240
  21
 686.78044775701
  31
0.0
   0
LINE
   5
3C4
 100
AcDbEntity
   8
LEVEL001
 370
13
 100
AcDbLine
   6
CONTINUOUS
  62
5
  10
 1686.8643930240
  20
 706.78044775701
  30
0.0
  11
 1636.8643930240
  21
 606.78044775701
  31
0.0
   0
LINE
   5
3C5
 100
AcDbEntity
   8
LEVEL001
 370
13
 100
AcDbLine
   6
CONTINUOUS
  62
5
  10
 1786.8643930240
  20
 606.78044775701
  30
0.0
  11
 1746.8643930240
  21
 626.78044775701
  31
0.0
   0
LINE
   5
3C6
 100
AcDbEntity
   8
LEVEL001
 370
13
 100
AcDbLine
   6
CONTINUOUS
  62
5
  10
 1736.8643930240
  20
 606.78044775701
  30
0.0
  11
 1696.8643930240
  21
 626.78044775701
  31
0.0
   0
LINE
   5
3C7
 100
AcDbEntity
   8
LEVEL001
 370
13
 100
AcDbLine
   6
CONTINUOUS
  62
5
  10
 1686.8643930240
  20
 606.78044775701
  30
0.0
  11
 1646.8643930240
  21
 626.78044775701
  31
0.0
   0
LINE
   5
3C8
 100
AcDbEntity
   8
LEVEL001
 370
13
 100
AcDbLine
   6
CONTINUOUS
  62
5
  10
 1286.8643930240
  20
 606.78044775701
  30
0.0
  11
 1786.8643930240
  21
 606.78044775701
  31
0.0
   0
LINE
   5
3C9
 100
AcDbEntity
   8
LEVEL001
 370
13
 100
AcDbLine
   6
CONTINUOUS
  62
5
  10
 1786.8643930240
  20
 606.78044775701
  30
0.0
  11
 1786.8643930240
  21
 706.78044775701
  31
0.0
   0
LINE
   5
3CA
 100
AcDbEntity
   8
LEVEL001
 370
13
 100
AcDbLine
   6
CONTINUOUS
  62
5
  10
 1786.8643930240
  20
 706.78044775701
  30
0.0
  11
 1286.8643930240
  21
 706.78044775701
  31
0.0
   0
LINE
   5
3CB
 100
AcDbEntity
   8
LEVEL001
 370
13
 100
AcDbLine
   6
CONTINUOUS
  62
5
  10
 1786.8643930240
  20
 1592.1357868164
  30
0.0
  11
 1581.4143930240
  21
 1386.6857868164
  31
0.0
   0
LINE
   5
3CC
 100
AcDbEntity
   8
LEVEL001
 370
13
 100
AcDbLine
   6
CONTINUOUS
  62
5
  10
 1581.4143930240
  20
 1351.3304477571
  30
0.0
  11
 1786.8643930240
  21
 1556.7804477570
  31
0.0
   0
LINE
   5
3CD
 100
AcDbEntity
   8
LEVEL001
 370
13
 100
AcDbLine
   6
CONTINUOUS
  62
5
  10
 1786.8643930240
  20
 1521.4251086977
  30
0.0
  11
 1581.4143930240
  21
 1315.9751086977
  31
0.0
   0
LINE
   5
3CE
 100
AcDbEntity
   8
LEVEL001
 370
13
 100
AcDbLine
   6
CONTINUOUS
  62
5
  10
 1286.8643930240
  20
 706.78044775701
  30
0.0
  11
 1786.8643930240
  21
 706.78044775701
  31
0.0
   0
LINE
   5
3CF
 100
AcDbEntity
   8
LEVEL001
 370
13
 100
AcDbLine
   6
CONTINUOUS
  62
5
  10
 1786.8643930240
  20
 706.78044775701
  30
0.0
  11
 1786.8643930240
  21
 1906.7804477570
  31
0.0
   0
LINE
   5
3D0
 100
AcDbEntity
   8
LEVEL001
 370
13
 100
AcDbLine
   6
CONTINUOUS
  62
5
  10
 1847.5445878706
  20
 1906.7804477570
  30
0.0
  11
 1795.0445878706
  21
 1854.2804477570
  31
0.0
   0
LINE
   5
3D1
 100
AcDbEntity
   8
LEVEL001
 370
13
 100
AcDbLine
   6
CONTINUOUS
  62
5
  10
 1810.9544904467
  20
 1854.2804477570
  30
0.0
  11
 1863.4544904467
  21
 1906.7804477570
  31
0.0
   0
LINE
   5
3D2
 100
AcDbEntity
   8
LEVEL001
 370
13
 100
AcDbLine
   6
CONTINUOUS
  62
5
  10
 1879.3643930243
  20
 1906.7804477570
  30
0.0
  11
 1826.8643930243
  21
 1854.2804477570
  31
0.0
   0
LINE
   5
3D3
 100
AcDbEntity
   8
LEVEL001
 370
13
 100
AcDbLine
   6
CONTINUOUS
  62
5
  10
 1842.7742956003
  20
 1854.2804477570
  30
0.0
  11
 1895.2742956003
  21
 1906.7804477570
  31
0.0
   0
LINE
   5
3D4
 100
AcDbEntity
   8
LEVEL001
 370
13
 100
AcDbLine
   6
CONTINUOUS
  62
5
  10
 1900.0445878709
  20
 1854.2804477570
  30
0.0
  11
 1871.4094417356
  21
 1882.9155938923
  31
0.0
   0
LINE
   5
3D5
 100
AcDbEntity
   8
LEVEL001
 370
13
 100
AcDbLine
   6
CONTINUOUS
  62
5
  10
 1879.3643930238
  20
 1890.8705451805
  30
0.0
  11
 1915.9544904473
  21
 1854.2804477570
  31
0.0
   0
LINE
   5
3D6
 100
AcDbEntity
   8
LEVEL001
 370
13
 100
AcDbLine
   6
CONTINUOUS
  62
5
  10
 1931.8643930238
  20
 1854.2804477570
  30
0.0
  11
 1887.3193443121
  21
 1898.8254964687
  31
0.0
   0
LINE
   5
3D7
 100
AcDbEntity
   8
LEVEL001
 370
13
 100
AcDbLine
   6
CONTINUOUS
  62
5
  10
 1895.2742956003
  20
 1906.7804477570
  30
0.0
  11
 1947.7742956005
  21
 1854.2804477570
  31
0.0
   0
LINE
   5
3D8
 100
AcDbEntity
   8
LEVEL001
 370
13
 100
AcDbLine
   6
CONTINUOUS
  62
5
  10
 1947.7742956005
  20
 1854.2804477570
  30
0.0
  11
 2000.2742956006
  21
 1906.7804477570
  31
0.0
   0
LINE
   5
3D9
 100
AcDbEntity
   8
LEVEL001
 370
13
 100
AcDbLine
   6
CONTINUOUS
  62
5
  10
 1952.5445878708
  20
 1906.7804477570
  30
0.0
  11
 1923.9094417356
  21
 1878.1453016218
  31
0.0
   0
LINE
   5
3DA
 100
AcDbEntity
   8
LEVEL001
 370
13
 100
AcDbLine
   6
CONTINUOUS
  62
5
  10
 1931.8643930237
  20
 1870.1903503338
  30
0.0
  11
 1968.4544904470
  21
 1906.7804477570
  31
0.0
   0
LINE
   5
3DB
 100
AcDbEntity
   8
LEVEL001
 370
13
 100
AcDbLine
   6
CONTINUOUS
  62
5
  10
 1984.3643930246
  20
 1906.7804477570
  30
0.0
  11
 1939.8193443125
  21
 1862.2353990450
  31
0.0
   0
LINE
   5
3DC
 100
AcDbEntity
   8
LEVEL001
 370
13
 100
AcDbLine
   6
CONTINUOUS
  62
5
  10
 2005.0445878712
  20
 1854.2804477570
  30
0.0
  11
 1976.4094417358
  21
 1882.9155938923
  31
0.0
   0
LINE
   5
3DD
 100
AcDbEntity
   8
LEVEL001
 370
13
 100
AcDbLine
   6
CONTINUOUS
  62
5
  10
 1984.3643930240
  20
 1890.8705451805
  30
0.0
  11
 2020.9544904476
  21
 1854.2804477570
  31
0.0
   0
LINE
   5
3DE
 100
AcDbEntity
   8
LEVEL001
 370
13
 100
AcDbLine
   6
CONTINUOUS
  62
5
  10
 2036.8643930240
  20
 1854.2804477570
  30
0.0
  11
 1992.3193443122
  21
 1898.8254964687
  31
0.0
   0
LINE
   5
3DF
 100
AcDbEntity
   8
LEVEL001
 370
13
 100
AcDbLine
   6
CONTINUOUS
  62
5
  10
 2000.2742956006
  20
 1906.7804477570
  30
0.0
  11
 2036.8643930240
  21
 1870.1903503337
  31
0.0
   0
LINE
   5
3E0
 100
AcDbEntity
   8
LEVEL001
 370
13
 100
AcDbLine
   6
CONTINUOUS
  62
5
  10
 1581.4143930240
  20
 1906.7804477570
  30
0.0
  11
 2036.8643930240
  21
 1906.7804477570
  31
0.0
   0
LINE
   5
3E1
 100
AcDbEntity
   8
LEVEL001
 370
13
 100
AcDbLine
   6
CONTINUOUS
  62
5
  10
 1636.8643930240
  20
 706.78044775701
  30
0.0
  11
 1676.8643930240
  21
 686.78044775701
  31
0.0
   0
LINE
   5
3E2
 100
AcDbEntity
   8
LEVEL001
 370
13
 100
AcDbLine
   6
CONTINUOUS
  62
5
  10
 1436.8643930240
  20
 706.78044775701
  30
0.0
  11
 1386.8643930240
  21
 606.78044775701
  31
0.0
   0
LINE
   5
3E3
 100
AcDbEntity
   8
LEVEL001
 370
13
 100
AcDbLine
   6
CONTINUOUS
  62
5
  10
 1386.8643930240
  20
 706.78044775701
  30
0.0
  11
 1426.8643930240
  21
 686.78044775701
  31
0.0
   0
LINE
   5
3E4
 100
AcDbEntity
   8
LEVEL001
 370
13
 100
AcDbLine
   6
CONTINUOUS
  62
5
  10
 1386.8643930240
  20
 706.78044775701
  30
0.0
  11
 1336.8643930240
  21
 606.78044775701
  31
0.0
   0
LINE
   5
3E5
 100
AcDbEntity
   8
LEVEL001
 370
13
 100
AcDbLine
   6
CONTINUOUS
  62
5
  10
 1336.8643930240
  20
 706.78044775701
  30
0.0
  11
 1376.8643930240
  21
 686.78044775701
  31
0.0
   0
LINE
   5
3E6
 100
AcDbEntity
   8
LEVEL001
 370
13
 100
AcDbLine
   6
CONTINUOUS
  62
5
  10
 1336.8643930240
  20
 706.78044775701
  30
0.0
  11
 1286.8643930240
  21
 606.78044775701
  31
0.0
   0
LINE
   5
3E7
 100
AcDbEntity
   8
LEVEL001
 370
13
 100
AcDbLine
   6
CONTINUOUS
  62
5
  10
 1286.8643930240
  20
 706.78044775701
  30
0.0
  11
 1326.8643930240
  21
 686.78044775701
  31
0.0
   0
LINE
   5
3E8
 100
AcDbEntity
   8
LEVEL001
 370
13
 100
AcDbLine
   6
CONTINUOUS
  62
5
  10
 1436.8643930240
  20
 606.78044775701
  30
0.0
  11
 1396.8643930240
  21
 626.78044775701
  31
0.0
   0
LINE
   5
3E9
 100
AcDbEntity
   8
LEVEL001
 370
13
 100
AcDbLine
   6
CONTINUOUS
  62
5
  10
 1386.8643930240
  20
 606.78044775701
  30
0.0
  11
 1346.8643930240
  21
 626.78044775701
  31
0.0
   0
LINE
   5
3EA
 100
AcDbEntity
   8
LEVEL001
 370
13
 100
AcDbLine
   6
CONTINUOUS
  62
5
  10
 1336.8643930240
  20
 606.78044775701
  30
0.0
  11
 1296.8643930240
  21
 626.78044775701
  31
0.0
   0
LINE
   5
3EB
 100
AcDbEntity
   8
LEVEL001
 370
13
 100
AcDbLine
   6
CONTINUOUS
  62
5
  10
 1286.8643930240
  20
 706.78044775701
  30
0.0
  11
 1286.8643930240
  21
 606.78044775701
  31
0.0
   0
LINE
   5
3EC
 100
AcDbEntity
   8
LEVEL001
 370
13
 100
AcDbLine
   6
CONTINUOUS
  62
5
  10
 1286.8643930240
  20
 1906.7804477570
  30
0.0
  11
 1286.8643930240
  21
 706.78044775701
  31
0.0
   0
LINE
   5
3ED
 100
AcDbEntity
   8
LEVEL001
 370
13
 100
AcDbLine
   6
CONTINUOUS
  62
5
  10
 1492.3143930240
  20
 1297.5857868164
  30
0.0
  11
 1286.8643930240
  21
 1092.1357868164
  31
0.0
   0
LINE
   5
3EE
 100
AcDbEntity
   8
LEVEL001
 370
13
 100
AcDbLine
   6
CONTINUOUS
  62
5
  10
 1286.8643930240
  20
 1056.7804477570
  30
0.0
  11
 1492.3143930240
  21
 1262.2304477570
  31
0.0
   0
LINE
   5
3EF
 100
AcDbEntity
   8
LEVEL001
 370
13
 100
AcDbLine
   6
CONTINUOUS
  62
5
  10
 1492.3143930240
  20
 1226.8751086977
  30
0.0
  11
 1286.8643930240
  21
 1021.4251086977
  31
0.0
   0
LINE
   5
3F0
 100
AcDbEntity
   8
LEVEL001
 370
13
 100
AcDbLine
   6
CONTINUOUS
  62
5
  10
 1197.7742956005
  20
 1854.2804477570
  30
0.0
  11
 1250.2742956005
  21
 1906.7804477570
  31
0.0
   0
LINE
   5
3F1
 100
AcDbEntity
   8
LEVEL001
 370
13
 100
AcDbLine
   6
CONTINUOUS
  62
5
  10
 1181.8643930237
  20
 1870.1903503338
  30
0.0
  11
 1218.4544904469
  21
 1906.7804477570
  31
0.0
   0
LINE
   5
3F2
 100
AcDbEntity
   8
LEVEL001
 370
13
 100
AcDbLine
   6
CONTINUOUS
  62
5
  10
 1234.3643930245
  20
 1906.7804477570
  30
0.0
  11
 1189.8193443125
  21
 1862.2353990450
  31
0.0
   0
LINE
   5
3F3
 100
AcDbEntity
   8
LEVEL001
 370
13
 100
AcDbLine
   6
CONTINUOUS
  62
5
  10
 1255.0445878711
  20
 1854.2804477570
  30
0.0
  11
 1226.4094417358
  21
 1882.9155938923
  31
0.0
   0
LINE
   5
3F4
 100
AcDbEntity
   8
LEVEL001
 370
13
 100
AcDbLine
   6
CONTINUOUS
  62
5
  10
 1234.3643930240
  20
 1890.8705451805
  30
0.0
  11
 1270.9544904475
  21
 1854.2804477570
  31
0.0
   0
LINE
   5
3F5
 100
AcDbEntity
   8
LEVEL001
 370
13
 100
AcDbLine
   6
CONTINUOUS
  62
5
  10
 1286.8643930240
  20
 1854.2804477570
  30
0.0
  11
 1242.3193443122
  21
 1898.8254964687
  31
0.0
   0
LINE
   5
3F6
 100
AcDbEntity
   8
LEVEL001
 370
13
 100
AcDbLine
   6
CONTINUOUS
  62
5
  10
 1097.5445878706
  20
 1906.7804477570
  30
0.0
  11
 1045.0445878706
  21
 1854.2804477570
  31
0.0
   0
LINE
   5
3F7
 100
AcDbEntity
   8
LEVEL001
 370
13
 100
AcDbLine
   6
CONTINUOUS
  62
5
  10
 1060.9544904467
  20
 1854.2804477570
  30
0.0
  11
 1113.4544904467
  21
 1906.7804477570
  31
0.0
   0
LINE
   5
3F8
 100
AcDbEntity
   8
LEVEL001
 370
13
 100
AcDbLine
   6
CONTINUOUS
  62
5
  10
 1129.3643930243
  20
 1906.7804477570
  30
0.0
  11
 1076.8643930243
  21
 1854.2804477570
  31
0.0
   0
LINE
   5
3F9
 100
AcDbEntity
   8
LEVEL001
 370
13
 100
AcDbLine
   6
CONTINUOUS
  62
5
  10
 1092.7742956003
  20
 1854.2804477570
  30
0.0
  11
 1145.2742956003
  21
 1906.7804477570
  31
0.0
   0
LINE
   5
3FA
 100
AcDbEntity
   8
LEVEL001
 370
13
 100
AcDbLine
   6
CONTINUOUS
  62
5
  10
 1150.0445878709
  20
 1854.2804477570
  30
0.0
  11
 1121.4094417356
  21
 1882.9155938923
  31
0.0
   0
LINE
   5
3FB
 100
AcDbEntity
   8
LEVEL001
 370
13
 100
AcDbLine
   6
CONTINUOUS
  62
5
  10
 1129.3643930238
  20
 1890.8705451805
  30
0.0
  11
 1165.9544904473
  21
 1854.2804477570
  31
0.0
   0
LINE
   5
3FC
 100
AcDbEntity
   8
LEVEL001
 370
13
 100
AcDbLine
   6
CONTINUOUS
  62
5
  10
 1181.8643930238
  20
 1854.2804477570
  30
0.0
  11
 1137.3193443121
  21
 1898.8254964687
  31
0.0
   0
LINE
   5
3FD
 100
AcDbEntity
   8
LEVEL001
 370
13
 100
AcDbLine
   6
CONTINUOUS
  62
5
  10
 1145.2742956003
  20
 1906.7804477570
  30
0.0
  11
 1197.7742956005
  21
 1854.2804477570
  31
0.0
   0
LINE
   5
3FE
 100
AcDbEntity
   8
LEVEL001
 370
13
 100
AcDbLine
   6
CONTINUOUS
  62
5
  10
 1202.5445878708
  20
 1906.7804477570
  30
0.0
  11
 1173.9094417356
  21
 1878.1453016218
  31
0.0
   0
LINE
   5
3FF
 100
AcDbEntity
   8
LEVEL001
 370
13
 100
AcDbLine
   6
CONTINUOUS
  62
5
  10
 1250.2742956005
  20
 1906.7804477570
  30
0.0
  11
 1286.8643930240
  21
 1870.1903503337
  31
0.0
   0
LINE
   5
400
 100
AcDbEntity
   8
LEVEL001
 370
13
 100
AcDbLine
   6
CONTINUOUS
  62
5
  10
 1492.3143930240
  20
 1906.7804477570
  30
0.0
  11
 1036.8643930240
  21
 1906.7804477570
  31
0.0
   0
LINE
   5
401
 100
AcDbEntity
   8
LEVEL001
 370
13
 100
AcDbLine
   6
CONTINUOUS
  62
6
  10
 5496.8643930240
  20
 2610.1804477570
  30
0.0
  11
 8136.8643930240
  21
 2610.1804477570
  31
0.0
   0
MTEXT
   5
402
 100
AcDbEntity
   8
LEVEL001
 370
13
  62
1
 100
AcDbMText
  10
 7376.8643930240
  20
 1710.1804477570
  30
0.0
  40
 51.428571428572
  41
0.0
  71
4
  72
1
   1
\T1.000000;静電粉体塗装
   7
GMM001
  44
 0.79999984000003
   0
MTEXT
   5
403
 100
AcDbEntity
   8
LEVEL001
 370
13
  62
1
 100
AcDbMText
  10
 6816.8643930240
  20
 1710.1804477570
  30
0.0
  40
 51.428571428572
  41
0.0
  71
4
  72
1
   1
\T1.000000;ＳＴＫ４００
   7
GMM001
  44
 0.79999984000003
   0
MTEXT
   5
404
 100
AcDbEntity
   8
LEVEL001
 370
13
  62
1
 100
AcDbMText
  10
 6748.8643930240
  20
 1710.1804477570
  30
0.0
  40
 51.428571428572
  41
0.0
  71
6
  72
1
   1
\T1.000000;１
   7
GMM001
  44
 0.79999984000003
   0
MTEXT
   5
405
 100
AcDbEntity
   8
LEVEL001
 370
13
  62
1
 100
AcDbMText
  10
 7376.8643930240
  20
 1830.1804477570
  30
0.0
  40
 51.428571428572
  41
0.0
  71
4
  72
1
   1
\T1.000000;溶融亜鉛メッキ
   7
GMM001
  44
 0.79999984000003
   0
MTEXT
   5
406
 100
AcDbEntity
   8
LEVEL001
 370
13
  62
1
 100
AcDbMText
  10
 6816.8643930240
  20
 1830.1804477570
  30
0.0
  40
 51.428571428572
  41
0.0
  71
4
  72
1
   1
\T1.000000;ＳＳ４００
   7
GMM001
  44
 0.79999984000003
   0
MTEXT
   5
407
 100
AcDbEntity
   8
LEVEL001
 370
13
  62
1
 100
AcDbMText
  10
 6748.8643930240
  20
 1830.1804477570
  30
0.0
  40
 51.428571428572
  41
0.0
  71
6
  72
1
   1
\T1.000000;４
   7
GMM001
  44
 0.79999984000003
   0
MTEXT
   5
408
 100
AcDbEntity
   8
LEVEL001
 370
13
  62
1
 100
AcDbMText
  10
 7376.8643930240
  20
 1950.1804477570
  30
0.0
  40
 51.428571428572
  41
0.0
  71
4
  72
1
   1
\T1.000000;溶融亜鉛メッキ
   7
GMM001
  44
 0.79999984000003
   0
MTEXT
   5
409
 100
AcDbEntity
   8
LEVEL001
 370
13
  62
1
 100
AcDbMText
  10
 7376.8643930240
  20
 2070.1804477570
  30
0.0
  40
 51.428571428572
  41
0.0
  71
4
  72
1
   1
\T1.000000;溶融亜鉛メッキ
   7
GMM001
  44
 0.79999984000003
   0
MTEXT
   5
40A
 100
AcDbEntity
   8
LEVEL001
 370
13
  62
1
 100
AcDbMText
  10
 7376.8643930240
  20
 2190.1804477570
  30
0.0
  40
 51.428571428572
  41
0.0
  71
4
  72
1
   1
\T1.000000;溶融亜鉛メッキ
   7
GMM001
  44
 0.79999984000003
   0
MTEXT
   5
40B
 100
AcDbEntity
   8
LEVEL001
 370
13
  62
1
 100
AcDbMText
  10
 6816.8643930240
  20
 1950.1804477570
  30
0.0
  40
 51.428571428572
  41
0.0
  71
4
  72
1
   1
\T1.000000;ＳＳ４００
   7
GMM001
  44
 0.79999984000003
   0
MTEXT
   5
40C
 100
AcDbEntity
   8
LEVEL001
 370
13
  62
1
 100
AcDbMText
  10
 6816.8643930240
  20
 2070.1804477570
  30
0.0
  40
 51.428571428572
  41
0.0
  71
4
  72
1
   1
\T1.000000;ＳＳ４００
   7
GMM001
  44
 0.79999984000003
   0
MTEXT
   5
40D
 100
AcDbEntity
   8
LEVEL001
 370
13
  62
1
 100
AcDbMText
  10
 6816.8643930240
  20
 2190.1804477570
  30
0.0
  40
 51.428571428572
  41
0.0
  71
4
  72
1
   1
\T1.000000;ＳＳ４００
   7
GMM001
  44
 0.79999984000003
   0
MTEXT
   5
40E
 100
AcDbEntity
   8
LEVEL001
 370
13
  62
1
 100
AcDbMText
  10
 6748.8643930240
  20
 1950.1804477570
  30
0.0
  40
 51.428571428572
  41
0.0
  71
6
  72
1
   1
\T1.000000;１
   7
GMM001
  44
 0.79999984000003
   0
MTEXT
   5
40F
 100
AcDbEntity
   8
LEVEL001
 370
13
  62
1
 100
AcDbMText
  10
 6748.8643930240
  20
 2070.1804477570
  30
0.0
  40
 51.428571428572
  41
0.0
  71
6
  72
1
   1
\T1.000000;８
   7
GMM001
  44
 0.79999984000003
   0
MTEXT
   5
410
 100
AcDbEntity
   8
LEVEL001
 370
13
  62
1
 100
AcDbMText
  10
 6748.8643930240
  20
 2190.1804477570
  30
0.0
  40
 51.428571428572
  41
0.0
  71
6
  72
1
   1
\T1.000000;８
   7
GMM001
  44
 0.79999984000003
   0
MTEXT
   5
411
 100
AcDbEntity
   8
LEVEL001
 370
13
  62
1
 100
AcDbMText
  10
 5668.8643930240
  20
 1710.1804477570
  30
0.0
  40
 51.428571428572
  41
0.0
  71
6
  72
1
   1
\T1.000000;１１
   7
GMM001
  44
 0.79999984000003
   0
MTEXT
   5
412
 100
AcDbEntity
   8
LEVEL001
 370
13
  62
1
 100
AcDbMText
  10
 5736.8643930240
  20
 1710.1804477570
  30
0.0
  40
 51.428571428572
  41
0.0
  71
4
  72
1
   1
\T1.000000;支柱
   7
GMM001
  44
 0.79999984000003
   0
MTEXT
   5
413
 100
AcDbEntity
   8
LEVEL001
 370
13
  62
1
 100
AcDbMText
  10
 5736.8643930240
  20
 1830.1804477570
  30
0.0
  40
 51.428571428572
  41
0.0
  71
4
  72
1
   1
\T1.000000;同上ボルトナット
   7
GMM001
  44
 0.79999984000003
   0
MTEXT
   5
414
 100
AcDbEntity
   8
LEVEL001
 370
13
  62
1
 100
AcDbMText
  10
 5668.8643930240
  20
 1830.1804477570
  30
0.0
  40
 51.428571428572
  41
0.0
  71
6
  72
1
   1
\T1.000000;１０
   7
GMM001
  44
 0.79999984000003
   0
MTEXT
   5
415
 100
AcDbEntity
   8
LEVEL001
 370
13
  62
1
 100
AcDbMText
  10
 5668.8643930240
  20
 1950.1804477570
  30
0.0
  40
 51.428571428572
  41
0.0
  71
6
  72
1
   1
\T1.000000;９
   7
GMM001
  44
 0.79999984000003
   0
MTEXT
   5
416
 100
AcDbEntity
   8
LEVEL001
 370
13
  62
1
 100
AcDbMText
  10
 5736.8643930240
  20
 1950.1804477570
  30
0.0
  40
 51.428571428572
  41
0.0
  71
4
  72
1
   1
\T1.000000;二面鏡用取付腕木
   7
GMM001
  44
 0.79999984000003
   0
MTEXT
   5
417
 100
AcDbEntity
   8
LEVEL001
 370
13
  62
1
 100
AcDbMText
  10
 5668.8643930240
  20
 2070.1804477570
  30
0.0
  40
 51.428571428572
  41
0.0
  71
6
  72
1
   1
\T1.000000;８
   7
GMM001
  44
 0.79999984000003
   0
MTEXT
   5
418
 100
AcDbEntity
   8
LEVEL001
 370
13
  62
1
 100
AcDbMText
  10
 5736.8643930240
  20
 2070.1804477570
  30
0.0
  40
 51.428571428572
  41
0.0
  71
4
  72
1
   1
\T1.000000;金具締付ボルトナット
   7
GMM001
  44
 0.79999984000003
   0
MTEXT
   5
419
 100
AcDbEntity
   8
LEVEL001
 370
13
  62
1
 100
AcDbMText
  10
 5668.8643930240
  20
 2190.1804477570
  30
0.0
  40
 51.428571428572
  41
0.0
  71
6
  72
1
   1
\T1.000000;７
   7
GMM001
  44
 0.79999984000003
   0
MTEXT
   5
41A
 100
AcDbEntity
   8
LEVEL001
 370
13
  62
1
 100
AcDbMText
  10
 5736.8643930240
  20
 2190.1804477570
  30
0.0
  40
 51.428571428572
  41
0.0
  71
4
  72
1
   1
\T1.000000;裏板金具取付ボルト
   7
GMM001
  44
 0.79999984000003
   0
LINE
   5
41B
 100
AcDbEntity
   8
LEVEL001
 370
13
 100
AcDbLine
   6
CONTINUOUS
  62
6
  10
 5496.8643930240
  20
 1770.1804477570
  30
0.0
  11
 8136.8643930240
  21
 1770.1804477570
  31
0.0
   0
LINE
   5
41C
 100
AcDbEntity
   8
LEVEL001
 370
13
 100
AcDbLine
   6
CONTINUOUS
  62
6
  10
 5496.8643930240
  20
 1890.1804477570
  30
0.0
  11
 8136.8643930240
  21
 1890.1804477570
  31
0.0
   0
LINE
   5
41D
 100
AcDbEntity
   8
LEVEL001
 370
13
 100
AcDbLine
   6
CONTINUOUS
  62
6
  10
 5496.8643930240
  20
 2010.1804477570
  30
0.0
  11
 8136.8643930240
  21
 2010.1804477570
  31
0.0
   0
LINE
   5
41E
 100
AcDbEntity
   8
LEVEL001
 370
13
 100
AcDbLine
   6
CONTINUOUS
  62
6
  10
 5496.8643930240
  20
 2130.1804477570
  30
0.0
  11
 8136.8643930240
  21
 2130.1804477570
  31
0.0
   0
MTEXT
   5
41F
 100
AcDbEntity
   8
LEVEL001
 370
13
  62
1
 100
AcDbMText
  10
 5736.8643930240
  20
 2310.1804477570
  30
0.0
  40
 51.428571428572
  41
0.0
  71
4
  72
1
   1
\T1.000000;支柱取付金具
   7
GMM001
  44
 0.79999984000003
   0
MTEXT
   5
420
 100
AcDbEntity
   8
LEVEL001
 370
13
  62
1
 100
AcDbMText
  10
 5668.8643930240
  20
 2310.1804477570
  30
0.0
  40
 51.428571428572
  41
0.0
  71
6
  72
1
   1
\T1.000000;６
   7
GMM001
  44
 0.79999984000003
   0
MTEXT
   5
421
 100
AcDbEntity
   8
LEVEL001
 370
13
  62
1
 100
AcDbMText
  10
 6748.8643930240
  20
 2310.1804477570
  30
0.0
  40
 51.428571428572
  41
0.0
  71
6
  72
1
   1
\T1.000000;２
   7
GMM001
  44
 0.79999984000003
   0
MTEXT
   5
422
 100
AcDbEntity
   8
LEVEL001
 370
13
  62
1
 100
AcDbMText
  10
 6816.8643930240
  20
 2310.1804477570
  30
0.0
  40
 51.428571428572
  41
0.0
  71
4
  72
1
   1
\T1.000000;ＳＳ４００
   7
GMM001
  44
 0.79999984000003
   0
MTEXT
   5
423
 100
AcDbEntity
   8
LEVEL001
 370
13
  62
1
 100
AcDbMText
  10
 5668.8643930240
  20
 2430.1804477570
  30
0.0
  40
 51.428571428572
  41
0.0
  71
6
  72
1
   1
\T1.000000;５
   7
GMM001
  44
 0.79999984000003
   0
MTEXT
   5
424
 100
AcDbEntity
   8
LEVEL001
 370
13
  62
1
 100
AcDbMText
  10
 5736.8643930240
  20
 2430.1804477570
  30
0.0
  40
 51.428571428572
  41
0.0
  71
4
  72
1
   1
\T1.000000;裏板取付金具
   7
GMM001
  44
 0.79999984000003
   0
MTEXT
   5
425
 100
AcDbEntity
   8
LEVEL001
 370
13
  62
1
 100
AcDbMText
  10
 5668.8643930240
  20
 2550.1804477570
  30
0.0
  40
 51.428571428572
  41
0.0
  71
6
  72
1
   1
\T1.000000;４
   7
GMM001
  44
 0.79999984000003
   0
MTEXT
   5
426
 100
AcDbEntity
   8
LEVEL001
 370
13
  62
1
 100
AcDbMText
  10
 5736.8643930240
  20
 2550.1804477570
  30
0.0
  40
 51.428571428572
  41
0.0
  71
4
  72
1
   1
\T1.000000;リング
   7
GMM001
  44
 0.79999984000003
   0
MTEXT
   5
427
 100
AcDbEntity
   8
LEVEL001
 370
13
  62
1
 100
AcDbMText
  10
 5668.8643930240
  20
 2670.1804477570
  30
0.0
  40
 51.428571428572
  41
0.0
  71
6
  72
1
   1
\T1.000000;３
   7
GMM001
  44
 0.79999984000003
   0
MTEXT
   5
428
 100
AcDbEntity
   8
LEVEL001
 370
13
  62
1
 100
AcDbMText
  10
 5736.8643930240
  20
 2670.1804477570
  30
0.0
  40
 51.428571428572
  41
0.0
  71
4
  72
1
   1
\T1.000000;フード
   7
GMM001
  44
 0.79999984000003
   0
MTEXT
   5
429
 100
AcDbEntity
   8
LEVEL001
 370
13
  62
1
 100
AcDbMText
  10
 5668.8643930240
  20
 2790.1804477570
  30
0.0
  40
 51.428571428572
  41
0.0
  71
6
  72
1
   1
\T1.000000;２
   7
GMM001
  44
 0.79999984000003
   0
MTEXT
   5
42A
 100
AcDbEntity
   8
LEVEL001
 370
13
  62
1
 100
AcDbMText
  10
 5668.8643930240
  20
 2910.1804477570
  30
0.0
  40
 51.428571428572
  41
0.0
  71
6
  72
1
   1
\T1.000000;１
   7
GMM001
  44
 0.79999984000003
   0
MTEXT
   5
42B
 100
AcDbEntity
   8
LEVEL001
 370
13
  62
1
 100
AcDbMText
  10
 5736.8643930240
  20
 2790.1804477570
  30
0.0
  40
 51.428571428572
  41
0.0
  71
4
  72
1
   1
\T1.000000;バックプレート
   7
GMM001
  44
 0.79999984000003
   0
MTEXT
   5
42C
 100
AcDbEntity
   8
LEVEL001
 370
13
  62
1
 100
AcDbMText
  10
 6748.8643930240
  20
 2430.1804477570
  30
0.0
  40
 51.428571428572
  41
0.0
  71
6
  72
1
   1
\T1.000000;２
   7
GMM001
  44
 0.79999984000003
   0
MTEXT
   5
42D
 100
AcDbEntity
   8
LEVEL001
 370
13
  62
1
 100
AcDbMText
  10
 6748.8643930240
  20
 2550.1804477570
  30
0.0
  40
 51.428571428572
  41
0.0
  71
6
  72
1
   1
\T1.000000;２
   7
GMM001
  44
 0.79999984000003
   0
MTEXT
   5
42E
 100
AcDbEntity
   8
LEVEL001
 370
13
  62
1
 100
AcDbMText
  10
 6748.8643930240
  20
 2670.1804477570
  30
0.0
  40
 51.428571428572
  41
0.0
  71
6
  72
1
   1
\T1.000000;２
   7
GMM001
  44
 0.79999984000003
   0
MTEXT
   5
42F
 100
AcDbEntity
   8
LEVEL001
 370
13
  62
1
 100
AcDbMText
  10
 6748.8643930240
  20
 2790.1804477570
  30
0.0
  40
 51.428571428572
  41
0.0
  71
6
  72
1
   1
\T1.000000;２
   7
GMM001
  44
 0.79999984000003
   0
MTEXT
   5
430
 100
AcDbEntity
   8
LEVEL001
 370
13
  62
1
 100
AcDbMText
  10
 6748.8643930240
  20
 2910.1804477570
  30
0.0
  40
 51.428571428572
  41
0.0
  71
6
  72
1
   1
\T1.000000;２
   7
GMM001
  44
 0.79999984000003
   0
MTEXT
   5
431
 100
AcDbEntity
   8
LEVEL001
 370
13
  62
1
 100
AcDbMText
  10
 6816.8643930240
  20
 2430.1804477570
  30
0.0
  40
 51.428571428572
  41
0.0
  71
4
  72
1
   1
\T1.000000;ＳＳ４００
   7
GMM001
  44
 0.79999984000003
   0
MTEXT
   5
432
 100
AcDbEntity
   8
LEVEL001
 370
13
  62
1
 100
AcDbMText
  10
 6816.8643930240
  20
 2550.1804477570
  30
0.0
  40
 51.428571428572
  41
0.0
  71
4
  72
1
   1
\T1.000000;軟質ＰＶＣ
   7
GMM001
  44
 0.79999984000003
   0
MTEXT
   5
433
 100
AcDbEntity
   8
LEVEL001
 370
13
  62
1
 100
AcDbMText
  10
 6816.8643930240
  20
 2910.1804477570
  30
0.0
  40
 51.428571428572
  41
0.0
  71
4
  72
1
   1
\T1.000000;ＳＵＳ３０４
   7
GMM001
  44
 0.79999984000003
   0
MTEXT
   5
434
 100
AcDbEntity
   8
LEVEL001
 370
13
  62
1
 100
AcDbMText
  10
 7376.8643930240
  20
 2310.1804477570
  30
0.0
  40
 51.428571428572
  41
0.0
  71
4
  72
1
   1
\T1.000000;溶融亜鉛メッキ
   7
GMM001
  44
 0.79999984000003
   0
MTEXT
   5
435
 100
AcDbEntity
   8
LEVEL001
 370
13
  62
1
 100
AcDbMText
  10
 7376.8643930240
  20
 2430.1804477570
  30
0.0
  40
 51.428571428572
  41
0.0
  71
4
  72
1
   1
\T1.000000;溶融亜鉛メッキ
   7
GMM001
  44
 0.79999984000003
   0
MTEXT
   5
436
 100
AcDbEntity
   8
LEVEL001
 370
13
  62
1
 100
AcDbMText
  10
 7376.8643930240
  20
 2910.1804477570
  30
0.0
  40
 51.428571428572
  41
0.0
  71
4
  72
1
   1
\T1.000000;t=0.9mm\T1.000000;・表面研磨
   7
GMM001
  44
 0.79999984000003
   0
LINE
   5
437
 100
AcDbEntity
   8
LEVEL001
 370
13
 100
AcDbLine
   6
CONTINUOUS
  62
6
  10
 5496.8643930240
  20
 2250.1804477570
  30
0.0
  11
 8136.8643930240
  21
 2250.1804477570
  31
0.0
   0
LINE
   5
438
 100
AcDbEntity
   8
LEVEL001
 370
13
 100
AcDbLine
   6
CONTINUOUS
  62
6
  10
 5496.8643930240
  20
 2370.1804477570
  30
0.0
  11
 8136.8643930240
  21
 2370.1804477570
  31
0.0
   0
LINE
   5
439
 100
AcDbEntity
   8
LEVEL001
 370
13
 100
AcDbLine
   6
CONTINUOUS
  62
6
  10
 5496.8643930240
  20
 2730.1804477570
  30
0.0
  11
 8136.8643930240
  21
 2730.1804477570
  31
0.0
   0
LINE
   5
43A
 100
AcDbEntity
   8
LEVEL001
 370
13
 100
AcDbLine
   6
CONTINUOUS
  62
6
  10
 5496.8643930240
  20
 2490.1804477570
  30
0.0
  11
 8136.8643930240
  21
 2490.1804477570
  31
0.0
   0
LINE
   5
43B
 100
AcDbEntity
   8
LEVEL001
 370
13
 100
AcDbLine
   6
CONTINUOUS
  62
6
  10
 5496.8643930240
  20
 2850.1804477570
  30
0.0
  11
 8136.8643930240
  21
 2850.1804477570
  31
0.0
   0
MTEXT
   5
43C
 100
AcDbEntity
   8
LEVEL001
 370
13
  62
1
 100
AcDbMText
  10
 6136.8643930240
  20
 3050.1804477570
  30
0.0
  40
 51.428571428572
  41
0.0
  71
5
  72
1
   1
\T1.000000;名　　称
   7
GMM001
  44
 0.79999984000003
   0
MTEXT
   5
43D
 100
AcDbEntity
   8
LEVEL001
 370
13
  62
1
 100
AcDbMText
  10
 6676.8643930240
  20
 3050.1804477570
  30
0.0
  40
 51.428571428572
  41
0.0
  71
5
  72
1
   1
\T1.000000;個数
   7
GMM001
  44
 0.79999984000003
   0
MTEXT
   5
43E
 100
AcDbEntity
   8
LEVEL001
 370
13
  62
1
 100
AcDbMText
  10
 7056.8643930240
  20
 3050.1804477570
  30
0.0
  40
 51.428571428572
  41
0.0
  71
5
  72
1
   1
\T1.000000;材　　質
   7
GMM001
  44
 0.79999984000003
   0
MTEXT
   5
43F
 100
AcDbEntity
   8
LEVEL001
 370
13
  62
1
 100
AcDbMText
  10
 7736.8643930240
  20
 3050.1804477570
  30
0.0
  40
 51.428571428572
  41
0.0
  71
5
  72
1
   1
\T1.000000;規格仕様
   7
GMM001
  44
 0.79999984000003
   0
LINE
   5
440
 100
AcDbEntity
   8
LEVEL001
 370
13
 100
AcDbLine
   6
CONTINUOUS
  62
2
  10
 5496.8643930240
  20
 3130.1804477570
  30
0.0
  11
 8136.8643930240
  21
 3130.1804477570
  31
0.0
   0
LINE
   5
441
 100
AcDbEntity
   8
LEVEL001
 370
13
 100
AcDbLine
   6
CONTINUOUS
  62
2
  10
 5496.8643930240
  20
 2970.1804477570
  30
0.0
  11
 8136.8643930240
  21
 2970.1804477570
  31
0.0
   0
MTEXT
   5
442
 100
AcDbEntity
   8
LEVEL001
 370
13
  62
1
 100
AcDbMText
  10
 5736.8643930240
  20
 2910.1804477570
  30
0.0
  40
 51.428571428572
  41
0.0
  71
4
  72
1
   1
\T1.000000;鏡面　Ｒ＝３０００
   7
GMM001
  44
 0.79999984000003
   0
MTEXT
   5
443
 100
AcDbEntity
   8
LEVEL001
 370
13
  62
1
 100
AcDbMText
  10
 5596.8643930240
  20
 3210.1804477570
  30
0.0
  40
 57.142857142858
  41
0.0
  71
4
  72
1
   1
\T1.000000;□６００×８００（ダブル）
   7
GMM001
  44
 0.79999984000003
   0
MTEXT
   5
444
 100
AcDbEntity
   8
LEVEL001
 370
13
  62
1
 100
AcDbMText
  10
 6816.8643930240
  20
 2670.1804477570
  30
0.0
  40
 51.428571428572
  41
0.0
  71
4
  72
1
   1
\T1.000000;ＳＵＳ４３０
   7
GMM001
  44
 0.79999984000003
   0
MTEXT
   5
445
 100
AcDbEntity
   8
LEVEL001
 370
13
  62
1
 100
AcDbMText
  10
 5596.8643930240
  20
 3370.1804477570
  30
0.0
  40
 57.142857142858
  41
0.0
  71
4
  72
1
   1
\T1.000000;ステンレスミラー　＜Ｚタイプ＞
   7
GMM001
  44
 0.79999984000003
   0
MTEXT
   5
446
 100
AcDbEntity
   8
LEVEL001
 370
13
  62
1
 100
AcDbMText
  10
 6816.8643930240
  20
 2790.1804477570
  30
0.0
  40
 51.428571428572
  41
0.0
  71
4
  72
1
   1
\T1.000000;高耐食溶融めっき鋼板
   7
GMM004
  44
 0.79999984000003
   0
LWPOLYLINE
   5
447
 100
AcDbEntity
   8
0
 370
13
   6
CONTINUOUS
  62
2
 100
AcDbPolyline
  90
4
  70
1
  10
 5496.8643930240
  20
 930.18044775701
  10
 8136.8643930240
  20
 930.18044775701
  10
 8136.8643930240
  20
 3450.1804477570
  10
 5496.8643930240
  20
 3450.1804477570
   0
LINE
   5
448
 100
AcDbEntity
   8
0
 370
13
 100
AcDbLine
   6
CONTINUOUS
  62
6
  10
 6776.8643930240
  20
 3130.1804477570
  30
0.0
  11
 6776.8643930240
  21
 930.18044775701
  31
0.0
   0
LINE
   5
449
 100
AcDbEntity
   8
0
 370
13
 100
AcDbLine
   6
CONTINUOUS
  62
6
  10
 7336.8643930240
  20
 3130.1804477570
  30
0.0
  11
 7336.8643930240
  21
 930.18044775701
  31
0.0
   0
MTEXT
   5
44A
 100
AcDbEntity
   8
LEVEL001
 370
13
  62
1
 100
AcDbMText
  10
 6748.8643930240
  20
 1110.1804477570
  30
0.0
  40
 51.428571428572
  41
0.0
  71
6
  72
1
   1
\T1.000000;１式
   7
GMM001
  44
 0.79999984000003
   0
MTEXT
   5
44B
 100
AcDbEntity
   8
LEVEL001
 370
13
  62
1
 100
AcDbMText
  10
 6748.8643930240
  20
 990.18044775701
  30
0.0
  40
 51.428571428572
  41
0.0
  71
6
  72
1
   1
\T1.000000;１式
   7
GMM001
  44
 0.79999984000003
   0
MTEXT
   5
44C
 100
AcDbEntity
   8
LEVEL001
 370
13
  62
1
 100
AcDbMText
  10
 6816.8643930240
  20
 990.18044775701
  30
0.0
  40
 51.428571428572
  41
0.0
  71
4
  72
1
   1
\T1.000000;―
   7
GMM001
  44
 0.79999984000003
   0
MTEXT
   5
44D
 100
AcDbEntity
   8
LEVEL001
 370
13
  62
1
 100
AcDbMText
  10
 6816.8643930240
  20
 1110.1804477570
  30
0.0
  40
 51.428571428572
  41
0.0
  71
4
  72
1
   1
\T1.000000;―
   7
GMM001
  44
 0.79999984000003
   0
MTEXT
   5
44E
 100
AcDbEntity
   8
LEVEL001
 370
13
  62
1
 100
AcDbMText
  10
 7376.8643930240
  20
 1110.1804477570
  30
0.0
  40
 51.428571428572
  41
0.0
  71
4
  72
1
   1
\T1.000000;―
   7
GMM001
  44
 0.79999984000003
   0
MTEXT
   5
44F
 100
AcDbEntity
   8
LEVEL001
 370
13
  62
1
 100
AcDbMText
  10
 7376.8643930240
  20
 990.18044775701
  30
0.0
  40
 51.428571428572
  41
0.0
  71
4
  72
1
   1
\T1.000000;―
   7
GMM001
  44
 0.79999984000003
   0
MTEXT
   5
450
 100
AcDbEntity
   8
LEVEL001
 370
13
  62
1
 100
AcDbMText
  10
 6816.8643930240
  20
 1230.1804477570
  30
0.0
  40
 51.428571428572
  41
0.0
  71
4
  72
1
   1
\T1.000000;―
   7
GMM001
  44
 0.79999984000003
   0
LINE
   5
451
 100
AcDbEntity
   8
0
 370
13
 100
AcDbLine
   6
CONTINUOUS
  62
6
  10
 5696.8643930240
  20
 3130.1804477570
  30
0.0
  11
 5696.8643930240
  21
 930.18044775701
  31
0.0
   0
MTEXT
   5
452
 100
AcDbEntity
   8
LEVEL001
 370
13
  62
1
 100
AcDbMText
  10
 7379.6263948273
  20
 2843.9779852092
  30
0.0
  40
 34.285714285714
  41
0.0
  71
1
  72
1
   1
{\T1.000000;ＺＡＭ処理鋼板}\P{\T1.000000;プレス成型}
   7
GMM005
  44
 1.0099997980000
   0
MTEXT
   5
453
 100
AcDbEntity
   8
0
 370
13
  62
1
 100
AcDbMText
  10
 6816.4477841554
  20
 1556.4492975114
  30
0.0
  40
 51.428571428571
  41
0.0
  71
7
  72
1
   1
\T1.000000;ＳＴＫ４００
   7
GMM001
  44
 0.79999984000003
   0
MTEXT
   5
454
 100
AcDbEntity
   8
0
 370
13
  62
1
 100
AcDbMText
  10
 7378.2459222739
  20
 1596.0405187279
  30
0.0
  40
 34.285720000000
  41
0.0
  71
4
  72
1
   1
{\T1.000000;下地亜鉛メッキ}\P{\T1.000000;＋静電粉体塗装}
   7
GMM005
  44
 0.79999984000003
   0
MTEXT
   5
455
 100
AcDbEntity
   8
0
 370
13
  62
1
 100
AcDbMText
  10
 6747.8433667780
  20
 1556.4492975114
  30
0.0
  40
 51.428571428571
  41
0.0
  71
9
  72
1
   1
\T1.000000;１
   7
GMM001
  44
 0.79999984000003
   0
LINE
   5
456
 100
AcDbEntity
   8
0
 370
13
 100
AcDbLine
   6
CONTINUOUS
  62
6
  10
 6576.8643930240
  20
 1650.1804477570
  30
0.0
  11
 8136.8643930240
  21
 1650.1804477570
  31
0.0
   0
MTEXT
   5
457
 100
AcDbEntity
   8
LEVEL001
 370
13
  62
1
 100
AcDbMText
  10
 5736.8643930240
  20
 3630.1804477570
  30
0.0
  40
 51.428580000000
  41
0.0
  71
1
  72
1
   1
{\T1.000000;※構成部材は改良のため、変更する場合があります。}\P{\T1.000000;※本図は道路反射鏡ハンドブックに基づいています。}
   7
GMM001
  44
 0.79999984000003
   0
LINE
   5
458
 100
AcDbEntity
   8
0
 370
13
 100
AcDbLine
   6
CONTINUOUS
  62
6
  10
 6576.8643930240
  20
 3130.1804477570
  30
0.0
  11
 6576.8643930240
  21
 930.18044775701
  31
0.0
   0
MTEXT
   5
459
 100
AcDbEntity
   8
LEVEL001
 370
13
  62
1
 100
AcDbMText
  10
 5736.8643930240
  20
 1230.1804477570
  30
0.0
  40
 51.428571428572
  41
0.0
  71
4
  72
1
   1
\T1.000000;注意板
   7
GMM001
  44
 0.79999984000003
   0
MTEXT
   5
45A
 100
AcDbEntity
   8
LEVEL001
 370
13
  62
1
 100
AcDbMText
  10
 6336.8643930240
  20
 774.39919775701
  30
0.0
  40
 42.857142857142
  41
0.0
  71
5
  72
1
   1
\T1.000000;ＭＺＨ６０８ＷＵＰ
   7
GMM001
  44
 0.79999984000003
   0
MTEXT
   5
45B
 100
AcDbEntity
   8
LEVEL001
 370
13
  62
2
 100
AcDbMText
  10
 5506.8643930240
  20
 900.18044775701
  30
0.0
  40
 38.571428571428
  41
0.0
  71
4
  72
1
   1
\T1.370378;図面番号
   7
GMM001
  44
 0.79999984000003
   0
DIMENSION
   5
45C
 100
AcDbEntity
   8
LEVEL001
 370
13
   6
CONTINUOUS
  62
1
 100
AcDbDimension
   2
*D16
  10
 1786.8643930240
  20
 406.78044775701
  30
0.0
  11
 1536.8643930240
  21
 406.78044775701
  31
0.0
  70
128
   1
\A1;□500
   3
GMM004
 100
AcDbAlignedDimension
  13
 1286.8643930240
  23
 606.78044775701
  33
0.0
  14
 1786.8643930240
  24
 606.78044775701
  34
0.0
 100
AcDbRotatedDimension
   0
DIMENSION
   5
45D
 100
AcDbEntity
   8
0
 370
13
   6
CONTINUOUS
  62
1
 100
AcDbDimension
   2
*D17
  10
 536.86439302396
  20
 606.78044775701
  30
0.0
  11
 536.86439302396
  21
 656.78044775701
  31
0.0
  70
0
   3
GMM005
 100
AcDbAlignedDimension
  13
 1286.8643930240
  23
 706.78044775701
  33
0.0
  14
 1286.8643930240
  24
 606.78044775701
  34
0.0
  50
 270.00000000000
 100
AcDbRotatedDimension
   0
DIMENSION
   5
45E
 100
AcDbEntity
   8
0
 370
13
   6
CONTINUOUS
  62
1
 100
AcDbDimension
   2
*D18
  10
 536.86439302396
  20
 1906.7804477570
  30
0.0
  11
 536.86439302396
  21
 1306.7804477570
  31
0.0
  70
0
   3
GMM005
 100
AcDbAlignedDimension
  13
 1286.8643930240
  23
 706.78044775701
  33
0.0
  14
 1036.8643930240
  24
 1906.7804477570
  34
0.0
  50
 90.000000000000
 100
AcDbRotatedDimension
   0
DIMENSION
   5
45F
 100
AcDbEntity
   8
0
 370
13
   6
CONTINUOUS
  62
1
 100
AcDbDimension
   2
*D19
  10
 536.86439302396
  20
 4406.7804477570
  30
0.0
  11
 536.86439302396
  21
 3156.7804477570
  31
0.0
  70
0
   1
\A1;2500(標準設置高さ)
   3
GMM006
 100
AcDbAlignedDimension
  13
 1036.8643930240
  23
 1906.7804477570
  33
0.0
  14
 729.36439302396
  24
 4406.7804477570
  34
0.0
  50
 90.000000000000
 100
AcDbRotatedDimension
   0
DIMENSION
   5
460
 100
AcDbEntity
   8
LEVEL001
 370
13
   6
CONTINUOUS
  62
1
 100
AcDbDimension
   2
*D20
  10
 3086.8643930240
  20
 406.78044775701
  30
0.0
  11
 2836.8643930240
  21
 406.78044775701
  31
0.0
  70
128
   1
\A1;□500
   3
GMM004
 100
AcDbAlignedDimension
  13
 2586.8643930240
  23
 606.78044775701
  33
0.0
  14
 3086.8643930240
  24
 606.78044775701
  34
0.0
 100
AcDbRotatedDimension
   0
LINE
   5
461
 100
AcDbEntity
   8
LEVEL001
 370
13
 100
AcDbLine
   6
CONTINUOUS
  62
5
  10
 1536.8643930126
  20
 3388.3441098824
  30
0.0
  11
 1481.8643946518
  21
 3318.3441119686
  31
0.0
   0
LINE
   5
462
 100
AcDbEntity
   8
LEVEL001
 370
13
 100
AcDbLine
   6
CONTINUOUS
  62
5
  10
 1481.8643946518
  20
 3318.3441119686
  30
0.0
  11
 1511.8643937577
  21
 3318.3441119686
  31
0.0
   0
LINE
   5
463
 100
AcDbEntity
   8
LEVEL001
 370
13
 100
AcDbLine
   6
CONTINUOUS
  62
5
  10
 1511.8643937577
  20
 3318.3441119686
  30
0.0
  11
 1511.8643937577
  21
 3288.3441128626
  31
0.0
   0
LINE
   5
464
 100
AcDbEntity
   8
LEVEL001
 370
13
 100
AcDbLine
   6
CONTINUOUS
  62
5
  10
 1511.8643937577
  20
 3288.3441128626
  30
0.0
  11
 1561.8643922676
  21
 3288.3441128626
  31
0.0
   0
LINE
   5
465
 100
AcDbEntity
   8
LEVEL001
 370
13
 100
AcDbLine
   6
CONTINUOUS
  62
5
  10
 1561.8643922676
  20
 3288.3441128626
  30
0.0
  11
 1561.8643922676
  21
 3318.3441119686
  31
0.0
   0
LINE
   5
466
 100
AcDbEntity
   8
LEVEL001
 370
13
 100
AcDbLine
   6
CONTINUOUS
  62
5
  10
 1561.8643922676
  20
 3318.3441119686
  30
0.0
  11
 1591.8643913735
  21
 3318.3441119686
  31
0.0
   0
LINE
   5
467
 100
AcDbEntity
   8
LEVEL001
 370
13
 100
AcDbLine
   6
CONTINUOUS
  62
5
  10
 1591.8643913735
  20
 3318.3441119686
  30
0.0
  11
 1536.8643930126
  21
 3388.3441098824
  31
0.0
   0
LINE
   5
468
 100
AcDbEntity
   8
LEVEL001
 370
13
 100
AcDbLine
   6
CONTINUOUS
  62
5
  10
 1467.2214507522
  20
 3222.3352036970
  30
0.0
  11
 1482.4906153362
  21
 3220.0805650924
  31
0.0
   0
ARC
   5
469
 100
AcDbEntity
   8
LEVEL001
 370
13
   6
CONTINUOUS
  62
5
 100
AcDbCircle
  10
 1481.1079035000
  20
 3199.5473591396
  30
0.0
  40
 20.579709393390
 100
AcDbArc
  50
 10.432218603600
  51
 86.147502468963
   0
ARC
   5
46A
 100
AcDbEntity
   8
LEVEL001
 370
13
   6
CONTINUOUS
  62
5
 100
AcDbCircle
  10
 1487.4635654047
  20
 3202.9717144538
  30
0.0
  40
 13.887146297480
 100
AcDbArc
  50
 284.73811645764
  51
 1.2463330419053
   0
LINE
   5
46B
 100
AcDbEntity
   8
LEVEL001
 370
13
 100
AcDbLine
   6
CONTINUOUS
  62
5
  10
 1490.9964744577
  20
 3189.5414729850
  30
0.0
  11
 1467.2214507522
  21
 3222.3352036970
  31
0.0
   0
ARC
   5
46C
 100
AcDbEntity
   8
LEVEL001
 370
13
   6
CONTINUOUS
  62
5
 100
AcDbCircle
  10
 1474.7686607390
  20
 3162.7302052532
  30
0.0
  40
 20.228108756896
 100
AcDbArc
  50
 1.0517504590188
  51
 78.795792274241
   0
ARC
   5
46D
 100
AcDbEntity
   8
LEVEL001
 370
13
   6
CONTINUOUS
  62
5
 100
AcDbCircle
  10
 1480.0250912445
  20
 3164.8799911530
  30
0.0
  40
 15.073557642890
 100
AcDbArc
  50
 288.65956808360
  51
 353.22403827741
   0
LINE
   5
46E
 100
AcDbEntity
   8
LEVEL001
 370
13
 100
AcDbLine
   6
CONTINUOUS
  62
5
  10
 1469.5783232406
  20
 3136.5589916538
  30
0.0
  11
 1476.5470119977
  21
 3097.7188133680
  31
0.0
   0
ARC
   5
46F
 100
AcDbEntity
   8
LEVEL001
 370
13
   6
CONTINUOUS
  62
5
 100
AcDbCircle
  10
 1486.5294293194
  20
 3101.3507585544
  30
0.0
  40
 10.622602384609
 100
AcDbArc
  50
 199.99311911335
  51
 1.9679733410701
   0
LINE
   5
470
 100
AcDbEntity
   8
LEVEL001
 370
13
 100
AcDbLine
   6
CONTINUOUS
  62
5
  10
 1497.1457662667
  20
 3101.7155478680
  30
0.0
  11
 1493.9685813028
  21
 3118.8298051704
  31
0.0
   0
LINE
   5
471
 100
AcDbEntity
   8
LEVEL001
 370
13
 100
AcDbLine
   6
CONTINUOUS
  62
5
  10
 1493.9685813028
  20
 3118.8298051704
  30
0.0
  11
 1506.2662493933
  21
 3178.2685851372
  31
0.0
   0
LINE
   5
472
 100
AcDbEntity
   8
LEVEL001
 370
13
 100
AcDbLine
   6
CONTINUOUS
  62
5
  10
 1506.2662493933
  20
 3178.2685851372
  30
0.0
  11
 1483.4131616955
  21
 3128.3605971228
  31
0.0
   0
LINE
   5
473
 100
AcDbEntity
   8
LEVEL001
 370
13
 100
AcDbLine
   6
CONTINUOUS
  62
5
  10
 1483.4131616955
  20
 3128.3605971228
  30
0.0
  11
 1469.5783232406
  21
 3136.5589916538
  31
0.0
   0
ARC
   5
474
 100
AcDbEntity
   8
LEVEL001
 370
13
   6
CONTINUOUS
  62
5
 100
AcDbCircle
  10
 1591.6254319782
  20
 3156.9771134676
  30
0.0
  40
 5.0631766002424
 100
AcDbArc
  50
 274.72626205413
  51
 43.105625042975
   0
ARC
   5
475
 100
AcDbEntity
   8
LEVEL001
 370
13
   6
CONTINUOUS
  62
5
 100
AcDbCircle
  10
 1595.2650656856
  20
 3200.1260699306
  30
0.0
  40
 5.5826340442110
 100
AcDbArc
  50
 274.79665758007
  51
 36.910963374398
   0
LINE
   5
476
 100
AcDbEntity
   8
LEVEL001
 370
13
 100
AcDbLine
   6
CONTINUOUS
  62
5
  10
 1595.3220328720
  20
 3160.4370121824
  30
0.0
  11
 1578.9249386341
  21
 3173.4519959254
  31
0.0
   0
LINE
   5
477
 100
AcDbEntity
   8
LEVEL001
 370
13
 100
AcDbLine
   6
CONTINUOUS
  62
5
  10
 1578.9249386341
  20
 3173.4519959254
  30
0.0
  11
 1571.3413206961
  21
 3164.0237430326
  31
0.0
   0
LINE
   5
478
 100
AcDbEntity
   8
LEVEL001
 370
13
 100
AcDbLine
   6
CONTINUOUS
  62
5
  10
 1571.3413206961
  20
 3164.0237430326
  30
0.0
  11
 1558.5312624841
  21
 3164.0237430326
  31
0.0
   0
LINE
   5
479
 100
AcDbEntity
   8
LEVEL001
 370
13
 100
AcDbLine
   6
CONTINUOUS
  62
5
  10
 1558.5312624841
  20
 3164.0237430326
  30
0.0
  11
 1558.5312624841
  21
 3194.5629877278
  31
0.0
   0
LINE
   5
47A
 100
AcDbEntity
   8
LEVEL001
 370
13
 100
AcDbLine
   6
CONTINUOUS
  62
5
  10
 1558.5312624841
  20
 3194.5629877278
  30
0.0
  11
 1595.7318839340
  21
 3194.5629877278
  31
0.0
   0
LINE
   5
47B
 100
AcDbEntity
   8
LEVEL001
 370
13
 100
AcDbLine
   6
CONTINUOUS
  62
5
  10
 1599.7287710219
  20
 3203.4788504992
  30
0.0
  11
 1585.8936273913
  21
 3215.5714404708
  31
0.0
   0
LINE
   5
47C
 100
AcDbEntity
   8
LEVEL001
 370
13
 100
AcDbLine
   6
CONTINUOUS
  62
5
  10
 1585.8936273913
  20
 3215.5714404708
  30
0.0
  11
 1574.0061155385
  21
 3205.5284109850
  31
0.0
   0
LINE
   5
47D
 100
AcDbEntity
   8
LEVEL001
 370
13
 100
AcDbLine
   6
CONTINUOUS
  62
5
  10
 1574.0061155385
  20
 3205.5284109850
  30
0.0
  11
 1558.5312624841
  21
 3205.5284109850
  31
0.0
   0
LINE
   5
47E
 100
AcDbEntity
   8
LEVEL001
 370
13
 100
AcDbLine
   6
CONTINUOUS
  62
5
  10
 1558.5312624841
  20
 3205.5284109850
  30
0.0
  11
 1558.5312624841
  21
 3221.0029588636
  31
0.0
   0
LINE
   5
47F
 100
AcDbEntity
   8
LEVEL001
 370
13
 100
AcDbLine
   6
CONTINUOUS
  62
5
  10
 1558.5312624841
  20
 3221.0029588636
  30
0.0
  11
 1562.1182985100
  21
 3222.8475938184
  31
0.0
   0
LINE
   5
480
 100
AcDbEntity
   8
LEVEL001
 370
13
 100
AcDbLine
   6
CONTINUOUS
  62
5
  10
 1562.1182985100
  20
 3222.8475938184
  30
0.0
  11
 1562.4256105126
  21
 3225.5120834852
  31
0.0
   0
LINE
   5
481
 100
AcDbEntity
   8
LEVEL001
 370
13
 100
AcDbLine
   6
CONTINUOUS
  62
5
  10
 1562.4256105126
  20
 3225.5120834852
  30
0.0
  11
 1533.5260752410
  21
 3230.0212081066
  31
0.0
   0
LINE
   5
482
 100
AcDbEntity
   8
LEVEL001
 370
13
 100
AcDbLine
   6
CONTINUOUS
  62
5
  10
 1533.5260752410
  20
 3230.0212081066
  30
0.0
  11
 1533.5260752410
  21
 3205.5284109850
  31
0.0
   0
LINE
   5
483
 100
AcDbEntity
   8
LEVEL001
 370
13
 100
AcDbLine
   6
CONTINUOUS
  62
5
  10
 1533.5260752410
  20
 3205.5284109850
  30
0.0
  11
 1504.1141498480
  21
 3205.5284109850
  31
0.0
   0
LINE
   5
484
 100
AcDbEntity
   8
LEVEL001
 370
13
 100
AcDbLine
   6
CONTINUOUS
  62
5
  10
 1504.1141498480
  20
 3205.5284109850
  30
0.0
  11
 1508.5208879980
  21
 3194.5629877278
  31
0.0
   0
LINE
   5
485
 100
AcDbEntity
   8
LEVEL001
 370
13
 100
AcDbLine
   6
CONTINUOUS
  62
5
  10
 1508.5208879980
  20
 3194.5629877278
  30
0.0
  11
 1533.5260752410
  21
 3194.5629877278
  31
0.0
   0
LINE
   5
486
 100
AcDbEntity
   8
LEVEL001
 370
13
 100
AcDbLine
   6
CONTINUOUS
  62
5
  10
 1533.5260752410
  20
 3194.5629877278
  30
0.0
  11
 1533.5260752410
  21
 3164.0237430326
  31
0.0
   0
LINE
   5
487
 100
AcDbEntity
   8
LEVEL001
 370
13
 100
AcDbLine
   6
CONTINUOUS
  62
5
  10
 1533.5260752410
  20
 3164.0237430326
  30
0.0
  11
 1505.7538592718
  21
 3164.0237430326
  31
0.0
   0
LINE
   5
488
 100
AcDbEntity
   8
LEVEL001
 370
13
 100
AcDbLine
   6
CONTINUOUS
  62
5
  10
 1505.7538592718
  20
 3164.0237430326
  30
0.0
  11
 1510.6729875432
  21
 3151.9311530608
  31
0.0
   0
LINE
   5
489
 100
AcDbEntity
   8
LEVEL001
 370
13
 100
AcDbLine
   6
CONTINUOUS
  62
5
  10
 1510.6729875432
  20
 3151.9311530608
  30
0.0
  11
 1533.5260752410
  21
 3151.9311530608
  31
0.0
   0
LINE
   5
48A
 100
AcDbEntity
   8
LEVEL001
 370
13
 100
AcDbLine
   6
CONTINUOUS
  62
5
  10
 1533.5260752410
  20
 3151.9311530608
  30
0.0
  11
 1533.5260752410
  21
 3107.0446797892
  31
0.0
   0
LINE
   5
48B
 100
AcDbEntity
   8
LEVEL001
 370
13
 100
AcDbLine
   6
CONTINUOUS
  62
5
  10
 1533.5260752410
  20
 3107.0446797892
  30
0.0
  11
 1501.0398091194
  21
 3107.0446797892
  31
0.0
   0
LINE
   5
48C
 100
AcDbEntity
   8
LEVEL001
 370
13
 100
AcDbLine
   6
CONTINUOUS
  62
5
  10
 1501.0398091194
  20
 3107.0446797892
  30
0.0
  11
 1506.4713275122
  21
 3094.9517846418
  31
0.0
   0
LINE
   5
48D
 100
AcDbEntity
   8
LEVEL001
 370
13
 100
AcDbLine
   6
CONTINUOUS
  62
5
  10
 1506.4713275122
  20
 3094.9517846418
  30
0.0
  11
 1596.8491324359
  21
 3094.9517846418
  31
0.0
   0
LINE
   5
48E
 100
AcDbEntity
   8
LEVEL001
 370
13
 100
AcDbLine
   6
CONTINUOUS
  62
5
  10
 1600.3037221767
  20
 3106.4746114468
  30
0.0
  11
 1584.9713862078
  21
 3116.5753191536
  31
0.0
   0
LINE
   5
48F
 100
AcDbEntity
   8
LEVEL001
 370
13
 100
AcDbLine
   6
CONTINUOUS
  62
5
  10
 1584.9713862078
  20
 3116.5753191536
  30
0.0
  11
 1577.0804562672
  21
 3107.0446797892
  31
0.0
   0
LINE
   5
490
 100
AcDbEntity
   8
LEVEL001
 370
13
 100
AcDbLine
   6
CONTINUOUS
  62
5
  10
 1577.0804562672
  20
 3107.0446797892
  30
0.0
  11
 1558.5312624841
  21
 3107.0446797892
  31
0.0
   0
LINE
   5
491
 100
AcDbEntity
   8
LEVEL001
 370
13
 100
AcDbLine
   6
CONTINUOUS
  62
5
  10
 1558.5312624841
  20
 3107.0446797892
  30
0.0
  11
 1558.5312624841
  21
 3151.9311530608
  31
0.0
   0
LINE
   5
492
 100
AcDbEntity
   8
LEVEL001
 370
13
 100
AcDbLine
   6
CONTINUOUS
  62
5
  10
 1558.5312624841
  20
 3151.9311530608
  30
0.0
  11
 1592.0426140244
  21
 3151.9311530608
  31
0.0
   0
ARC
   5
493
 100
AcDbEntity
   8
LEVEL001
 370
13
   6
CONTINUOUS
  62
5
 100
AcDbCircle
  10
 1596.8496117358
  20
 3101.2309042856
  30
0.0
  40
 6.2791196620726
 100
AcDbArc
  50
 269.99562647879
  51
 56.626490037599
   0
ARC
   5
494
 100
AcDbEntity
   8
LEVEL001
 370
13
   6
CONTINUOUS
  62
5
 100
AcDbCircle
  10
 1600.6220580878
  20
 2994.7623866492
  30
0.0
  40
 4.7515310421130
 100
AcDbArc
  50
 274.70409570304
  51
 59.112293256633
   0
ARC
   5
495
 100
AcDbEntity
   8
LEVEL001
 370
13
   6
CONTINUOUS
  62
5
 100
AcDbCircle
  10
 1507.4627348903
  20
 2994.4053279982
  30
0.0
  40
 22.293228438698
 100
AcDbArc
  50
 35.161132790361
  51
 78.641284698047
   0
ARC
   5
496
 100
AcDbEntity
   8
LEVEL001
 370
13
   6
CONTINUOUS
  62
5
 100
AcDbCircle
  10
 1519.3427758856
  20
 3005.4620399334
  30
0.0
  40
 6.5907971086860
 100
AcDbArc
  50
 312.23536417698
  51
 15.681870099128
   0
LINE
   5
497
 100
AcDbEntity
   8
LEVEL001
 370
13
 100
AcDbLine
   6
CONTINUOUS
  62
5
  10
 1523.7729627387
  20
 3000.5822806182
  30
0.0
  11
 1542.6999641278
  21
 3000.5822806182
  31
0.0
   0
LINE
   5
498
 100
AcDbEntity
   8
LEVEL001
 370
13
 100
AcDbLine
   6
CONTINUOUS
  62
5
  10
 1542.6999641278
  20
 3000.5822806182
  30
0.0
  11
 1553.1531498514
  21
 3016.2619066158
  31
0.0
   0
LINE
   5
499
 100
AcDbEntity
   8
LEVEL001
 370
13
 100
AcDbLine
   6
CONTINUOUS
  62
5
  10
 1553.1531498514
  20
 3016.2619066158
  30
0.0
  11
 1511.8534074299
  21
 3016.2619066158
  31
0.0
   0
ARC
   5
49A
 100
AcDbEntity
   8
LEVEL001
 370
13
   6
CONTINUOUS
  62
5
 100
AcDbCircle
  10
 1591.1808607185
  20
 3021.4180802408
  30
0.0
  40
 5.1561789168066
 100
AcDbArc
  50
 269.91791191234
  51
 52.070025543831
   0
LINE
   5
49B
 100
AcDbEntity
   8
LEVEL001
 370
13
 100
AcDbLine
   6
CONTINUOUS
  62
5
  10
 1603.0612904539
  20
 2998.8400321350
  30
0.0
  11
 1585.1273310274
  21
 3009.2932178586
  31
0.0
   0
LINE
   5
49C
 100
AcDbEntity
   8
LEVEL001
 370
13
 100
AcDbLine
   6
CONTINUOUS
  62
5
  10
 1585.1273310274
  20
 3009.2932178586
  30
0.0
  11
 1578.5684933323
  21
 3000.5822806182
  31
0.0
   0
LINE
   5
49D
 100
AcDbEntity
   8
LEVEL001
 370
13
 100
AcDbLine
   6
CONTINUOUS
  62
5
  10
 1578.5684933323
  20
 3000.5822806182
  30
0.0
  11
 1562.8195924344
  21
 3000.5822806182
  31
0.0
   0
LINE
   5
49E
 100
AcDbEntity
   8
LEVEL001
 370
13
 100
AcDbLine
   6
CONTINUOUS
  62
5
  10
 1562.8195924344
  20
 3000.5822806182
  30
0.0
  11
 1571.9071165777
  21
 3008.7808277372
  31
0.0
   0
LINE
   5
49F
 100
AcDbEntity
   8
LEVEL001
 370
13
 100
AcDbLine
   6
CONTINUOUS
  62
5
  10
 1571.9071165777
  20
 3008.7808277372
  30
0.0
  11
 1575.6989255467
  21
 3009.2932178586
  31
0.0
   0
LINE
   5
4A0
 100
AcDbEntity
   8
LEVEL001
 370
13
 100
AcDbLine
   6
CONTINUOUS
  62
5
  10
 1575.6989255467
  20
 3009.2932178586
  30
0.0
  11
 1577.3386349705
  21
 3011.6500903470
  31
0.0
   0
LINE
   5
4A1
 100
AcDbEntity
   8
LEVEL001
 370
13
 100
AcDbLine
   6
CONTINUOUS
  62
5
  10
 1577.3386349705
  20
 3011.6500903470
  30
0.0
  11
 1574.6741453038
  21
 3016.2619066158
  31
0.0
   0
LINE
   5
4A2
 100
AcDbEntity
   8
LEVEL001
 370
13
 100
AcDbLine
   6
CONTINUOUS
  62
5
  10
 1574.6741453038
  20
 3016.2619066158
  30
0.0
  11
 1591.1734734254
  21
 3016.2619066158
  31
0.0
   0
LINE
   5
4A3
 100
AcDbEntity
   8
LEVEL001
 370
13
 100
AcDbLine
   6
CONTINUOUS
  62
5
  10
 1594.3503532135
  20
 3025.4850813898
  30
0.0
  11
 1575.6989255467
  21
 3035.7330364066
  31
0.0
   0
LINE
   5
4A4
 100
AcDbEntity
   8
LEVEL001
 370
13
 100
AcDbLine
   6
CONTINUOUS
  62
5
  10
 1575.6989255467
  20
 3035.7330364066
  30
0.0
  11
 1569.5499389135
  21
 3026.2023970422
  31
0.0
   0
LINE
   5
4A5
 100
AcDbEntity
   8
LEVEL001
 370
13
 100
AcDbLine
   6
CONTINUOUS
  62
5
  10
 1569.5499389135
  20
 3026.2023970422
  30
0.0
  11
 1548.1314825206
  21
 3026.2023970422
  31
0.0
   0
LINE
   5
4A6
 100
AcDbEntity
   8
LEVEL001
 370
13
 100
AcDbLine
   6
CONTINUOUS
  62
5
  10
 1548.1314825206
  20
 3026.2023970422
  30
0.0
  11
 1548.1314825206
  21
 3032.5561566186
  31
0.0
   0
LINE
   5
4A7
 100
AcDbEntity
   8
LEVEL001
 370
13
 100
AcDbLine
   6
CONTINUOUS
  62
5
  10
 1548.1314825206
  20
 3032.5561566186
  30
0.0
  11
 1550.2561162463
  21
 3036.2541240376
  31
0.0
   0
LINE
   5
4A8
 100
AcDbEntity
   8
LEVEL001
 370
13
 100
AcDbLine
   6
CONTINUOUS
  62
5
  10
 1550.2561162463
  20
 3036.2541240376
  30
0.0
  11
 1549.4361089466
  21
 3037.9962199330
  31
0.0
   0
LINE
   5
4A9
 100
AcDbEntity
   8
LEVEL001
 370
13
 100
AcDbLine
   6
CONTINUOUS
  62
5
  10
 1549.4361089466
  20
 3037.9962199330
  30
0.0
  11
 1524.6634656419
  21
 3038.6026041922
  31
0.0
   0
LINE
   5
4AA
 100
AcDbEntity
   8
LEVEL001
 370
13
 100
AcDbLine
   6
CONTINUOUS
  62
5
  10
 1524.6634656419
  20
 3038.6026041922
  30
0.0
  11
 1524.6634656419
  21
 3026.2023970422
  31
0.0
   0
LINE
   5
4AB
 100
AcDbEntity
   8
LEVEL001
 370
13
 100
AcDbLine
   6
CONTINUOUS
  62
5
  10
 1524.6634656419
  20
 3026.2023970422
  30
0.0
  11
 1475.2011868425
  21
 3026.2023970422
  31
0.0
   0
LINE
   5
4AC
 100
AcDbEntity
   8
LEVEL001
 370
13
 100
AcDbLine
   6
CONTINUOUS
  62
5
  10
 1475.2011868425
  20
 3026.2023970422
  30
0.0
  11
 1479.6744533108
  21
 3016.2619066158
  31
0.0
   0
LINE
   5
4AD
 100
AcDbEntity
   8
LEVEL001
 370
13
 100
AcDbLine
   6
CONTINUOUS
  62
5
  10
 1479.6744533108
  20
 3016.2619066158
  30
0.0
  11
 1497.3014059105
  21
 3016.2619066158
  31
0.0
   0
LINE
   5
4AE
 100
AcDbEntity
   8
LEVEL001
 370
13
 100
AcDbLine
   6
CONTINUOUS
  62
5
  10
 1497.3014059105
  20
 3016.2619066158
  30
0.0
  11
 1507.2418963369
  21
 3000.5822806182
  31
0.0
   0
LINE
   5
4AF
 100
AcDbEntity
   8
LEVEL001
 370
13
 100
AcDbLine
   6
CONTINUOUS
  62
5
  10
 1507.2418963369
  20
 3000.5822806182
  30
0.0
  11
 1472.5266263754
  21
 3000.5822806182
  31
0.0
   0
LINE
   5
4B0
 100
AcDbEntity
   8
LEVEL001
 370
13
 100
AcDbLine
   6
CONTINUOUS
  62
5
  10
 1472.5266263754
  20
 3000.5822806182
  30
0.0
  11
 1477.4271389246
  21
 2990.0268610110
  31
0.0
   0
LINE
   5
4B1
 100
AcDbEntity
   8
LEVEL001
 370
13
 100
AcDbLine
   6
CONTINUOUS
  62
5
  10
 1477.4271389246
  20
 2990.0268610110
  30
0.0
  11
 1601.0117299681
  21
 2990.0268610110
  31
0.0
   0
ARC
   5
4B2
 100
AcDbEntity
   8
LEVEL001
 370
13
   6
CONTINUOUS
  62
5
 100
AcDbCircle
  10
 1496.8011277782
  20
 2965.9963442902
  30
0.0
  40
 31.206602120202
 100
AcDbArc
  50
 246.86700487444
  51
 289.54634462664
   0
LINE
   5
4B3
 100
AcDbEntity
   8
LEVEL001
 370
13
 100
AcDbLine
   6
CONTINUOUS
  62
5
  10
 1507.2418963369
  20
 2965.9439149514
  30
0.0
  11
 1507.2418963369
  21
 2972.4000609992
  31
0.0
   0
LINE
   5
4B4
 100
AcDbEntity
   8
LEVEL001
 370
13
 100
AcDbLine
   6
CONTINUOUS
  62
5
  10
 1507.2418963369
  20
 2972.4000609992
  30
0.0
  11
 1563.8111085182
  21
 2972.4000609992
  31
0.0
   0
LINE
   5
4B5
 100
AcDbEntity
   8
LEVEL001
 370
13
 100
AcDbLine
   6
CONTINUOUS
  62
5
  10
 1563.8111085182
  20
 2972.4000609992
  30
0.0
  11
 1563.8111085182
  21
 2965.9439149514
  31
0.0
   0
LINE
   5
4B6
 100
AcDbEntity
   8
LEVEL001
 370
13
 100
AcDbLine
   6
CONTINUOUS
  62
5
  10
 1563.8111085182
  20
 2965.9439149514
  30
0.0
  11
 1507.2418963369
  21
 2965.9439149514
  31
0.0
   0
LINE
   5
4B7
 100
AcDbEntity
   8
LEVEL001
 370
13
 100
AcDbLine
   6
CONTINUOUS
  62
5
  10
 1590.3537713013
  20
 2979.3687497564
  30
0.0
  11
 1570.3699462133
  21
 2988.3871515872
  31
0.0
   0
LINE
   5
4B8
 100
AcDbEntity
   8
LEVEL001
 370
13
 100
AcDbLine
   6
CONTINUOUS
  62
5
  10
 1570.3699462133
  20
 2988.3871515872
  30
0.0
  11
 1563.8111085182
  21
 2980.7009945898
  31
0.0
   0
LINE
   5
4B9
 100
AcDbEntity
   8
LEVEL001
 370
13
 100
AcDbLine
   6
CONTINUOUS
  62
5
  10
 1563.8111085182
  20
 2980.7009945898
  30
0.0
  11
 1507.2418963369
  21
 2980.7009945898
  31
0.0
   0
LINE
   5
4BA
 100
AcDbEntity
   8
LEVEL001
 370
13
 100
AcDbLine
   6
CONTINUOUS
  62
5
  10
 1507.2418963369
  20
 2980.7009945898
  30
0.0
  11
 1507.2418963369
  21
 2982.4432430730
  31
0.0
   0
LINE
   5
4BB
 100
AcDbEntity
   8
LEVEL001
 370
13
 100
AcDbLine
   6
CONTINUOUS
  62
5
  10
 1507.2418963369
  20
 2982.4432430730
  30
0.0
  11
 1484.5938867579
  21
 2987.0547541660
  31
0.0
   0
LINE
   5
4BC
 100
AcDbEntity
   8
LEVEL001
 370
13
 100
AcDbLine
   6
CONTINUOUS
  62
5
  10
 1484.5938867579
  20
 2987.0547541660
  30
0.0
  11
 1484.5410913493
  21
 2937.2988962738
  31
0.0
   0
LINE
   5
4BD
 100
AcDbEntity
   8
LEVEL001
 370
13
 100
AcDbLine
   6
CONTINUOUS
  62
5
  10
 1507.2418963369
  20
 2949.9568243634
  30
0.0
  11
 1507.2418963369
  21
 2956.8194645398
  31
0.0
   0
LINE
   5
4BE
 100
AcDbEntity
   8
LEVEL001
 370
13
 100
AcDbLine
   6
CONTINUOUS
  62
5
  10
 1507.2418963369
  20
 2956.8194645398
  30
0.0
  11
 1563.8111085182
  21
 2956.8194645398
  31
0.0
   0
LINE
   5
4BF
 100
AcDbEntity
   8
LEVEL001
 370
13
 100
AcDbLine
   6
CONTINUOUS
  62
5
  10
 1563.8111085182
  20
 2956.8194645398
  30
0.0
  11
 1563.8111085182
  21
 2949.9568243634
  31
0.0
   0
LINE
   5
4C0
 100
AcDbEntity
   8
LEVEL001
 370
13
 100
AcDbLine
   6
CONTINUOUS
  62
5
  10
 1563.8111085182
  20
 2949.9568243634
  30
0.0
  11
 1507.2418963369
  21
 2949.9568243634
  31
0.0
   0
ARC
   5
4C1
 100
AcDbEntity
   8
LEVEL001
 370
13
   6
CONTINUOUS
  62
5
 100
AcDbCircle
  10
 1586.8547957768
  20
 2976.7566569516
  30
0.0
  40
 4.3664469013676
 100
AcDbArc
  50
 266.15058922004
  51
 36.742470507752
   0
LINE
   5
4C2
 100
AcDbEntity
   8
LEVEL001
 370
13
 100
AcDbLine
   6
CONTINUOUS
  62
5
  10
 1507.2418963369
  20
 2936.5881419004
  30
0.0
  11
 1507.2418963369
  21
 2941.3485787704
  31
0.0
   0
LINE
   5
4C3
 100
AcDbEntity
   8
LEVEL001
 370
13
 100
AcDbLine
   6
CONTINUOUS
  62
5
  10
 1507.2418963369
  20
 2941.3485787704
  30
0.0
  11
 1563.8111085182
  21
 2941.3485787704
  31
0.0
   0
LINE
   5
4C4
 100
AcDbEntity
   8
LEVEL001
 370
13
 100
AcDbLine
   6
CONTINUOUS
  62
5
  10
 1563.8111085182
  20
 2941.3485787704
  30
0.0
  11
 1563.8111085182
  21
 2936.4294504990
  31
0.0
   0
LINE
   5
4C5
 100
AcDbEntity
   8
LEVEL001
 370
13
 100
AcDbLine
   6
CONTINUOUS
  62
5
  10
 1563.8111085182
  20
 2936.4294504990
  30
0.0
  11
 1580.7205928775
  21
 2936.4294504990
  31
0.0
   0
LINE
   5
4C6
 100
AcDbEntity
   8
LEVEL001
 370
13
 100
AcDbLine
   6
CONTINUOUS
  62
5
  10
 1580.7205928775
  20
 2936.4294504990
  30
0.0
  11
 1584.4095576113
  21
 2938.4790109848
  31
0.0
   0
LINE
   5
4C7
 100
AcDbEntity
   8
LEVEL001
 370
13
 100
AcDbLine
   6
CONTINUOUS
  62
5
  10
 1584.4095576113
  20
 2938.4790109848
  30
0.0
  11
 1586.5616571565
  21
 2942.8857491346
  31
0.0
   0
LINE
   5
4C8
 100
AcDbEntity
   8
LEVEL001
 370
13
 100
AcDbLine
   6
CONTINUOUS
  62
5
  10
 1586.5616571565
  20
 2942.8857491346
  30
0.0
  11
 1586.5549432896
  21
 2972.4002135870
  31
0.0
   0
LINE
   5
4C9
 100
AcDbEntity
   8
LEVEL001
 370
13
 100
AcDbLine
   6
CONTINUOUS
  62
5
  10
 1490.7743064956
  20
 2930.9979321062
  30
0.0
  11
 1490.2619163742
  21
 2925.8740308916
  31
0.0
   0
LINE
   5
4CA
 100
AcDbEntity
   8
LEVEL001
 370
13
 100
AcDbLine
   6
CONTINUOUS
  62
5
  10
 1490.2619163742
  20
 2925.8740308916
  30
0.0
  11
 1488.3145897720
  21
 2922.2871474536
  31
0.0
   0
LINE
   5
4CB
 100
AcDbEntity
   8
LEVEL001
 370
13
 100
AcDbLine
   6
CONTINUOUS
  62
5
  10
 1488.3145897720
  20
 2922.2871474536
  30
0.0
  11
 1477.2467800433
  21
 2908.5546954704
  31
0.0
   0
ARC
   5
4CC
 100
AcDbEntity
   8
LEVEL001
 370
13
   6
CONTINUOUS
  62
5
 100
AcDbCircle
  10
 1485.7790425579
  20
 2902.9429420020
  30
0.0
  40
 10.212310248246
 100
AcDbArc
  50
 146.66668479782
  51
 331.70163256449
   0
ARC
   5
4CD
 100
AcDbEntity
   8
LEVEL001
 370
13
   6
CONTINUOUS
  62
5
 100
AcDbCircle
  10
 1471.7909583777
  20
 2912.0007288976
  30
0.0
  40
 26.856307183018
 100
AcDbArc
  50
 328.83298190805
  51
 45.020901175860
   0
LINE
   5
4CE
 100
AcDbEntity
   8
LEVEL001
 370
13
 100
AcDbLine
   6
CONTINUOUS
  62
5
  10
 1574.3985715815
  20
 2933.7649608322
  30
0.0
  11
 1587.8232537986
  21
 2911.4242632558
  31
0.0
   0
ARC
   5
4CF
 100
AcDbEntity
   8
LEVEL001
 370
13
   6
CONTINUOUS
  62
5
 100
AcDbCircle
  10
 1580.1298909361
  20
 2901.2485925348
  30
0.0
  40
 8.7884995702356
 100
AcDbArc
  50
 268.04310640332
  51
 95.976315925128
   0
ARC
   5
4D0
 100
AcDbEntity
   8
LEVEL001
 370
13
   6
CONTINUOUS
  62
5
 100
AcDbCircle
  10
 1512.9289499667
  20
 2899.0748096022
  30
0.0
  40
 6.6095999893666
 100
AcDbArc
  50
 179.99949488495
  51
 269.90651577926
   0
LINE
   5
4D1
 100
AcDbEntity
   8
LEVEL001
 370
13
 100
AcDbLine
   6
CONTINUOUS
  62
5
  10
 1512.9181656989
  20
 2892.4652184108
  30
0.0
  11
 1579.8297847986
  21
 2892.4652184108
  31
0.0
   0
LINE
   5
4D2
 100
AcDbEntity
   8
LEVEL001
 370
13
 100
AcDbLine
   6
CONTINUOUS
  62
5
  10
 1579.2148556177
  20
 2909.9893267752
  30
0.0
  11
 1571.8363157985
  21
 2928.4359814988
  31
0.0
   0
LINE
   5
4D3
 100
AcDbEntity
   8
LEVEL001
 370
13
 100
AcDbLine
   6
CONTINUOUS
  62
5
  10
 1571.8363157985
  20
 2928.4359814988
  30
0.0
  11
 1571.6312376796
  21
 2918.1878738942
  31
0.0
   0
LINE
   5
4D4
 100
AcDbEntity
   8
LEVEL001
 370
13
 100
AcDbLine
   6
CONTINUOUS
  62
5
  10
 1571.6312376796
  20
 2918.1878738942
  30
0.0
  11
 1568.9298217445
  21
 2909.9893267752
  31
0.0
   0
LINE
   5
4D5
 100
AcDbEntity
   8
LEVEL001
 370
13
 100
AcDbLine
   6
CONTINUOUS
  62
5
  10
 1568.9298217445
  20
 2909.9893267752
  30
0.0
  11
 1529.0702037918
  21
 2909.9893267752
  31
0.0
   0
LINE
   5
4D6
 100
AcDbEntity
   8
LEVEL001
 370
13
 100
AcDbLine
   6
CONTINUOUS
  62
5
  10
 1529.0702037918
  20
 2909.9893267752
  30
0.0
  11
 1529.0702037918
  21
 2925.8740308916
  31
0.0
   0
LINE
   5
4D7
 100
AcDbEntity
   8
LEVEL001
 370
13
 100
AcDbLine
   6
CONTINUOUS
  62
5
  10
 1529.0702037918
  20
 2925.8740308916
  30
0.0
  11
 1531.1197642776
  21
 2928.8458325608
  31
0.0
   0
LINE
   5
4D8
 100
AcDbEntity
   8
LEVEL001
 370
13
 100
AcDbLine
   6
CONTINUOUS
  62
5
  10
 1531.1197642776
  20
 2928.8458325608
  30
0.0
  11
 1529.2752819107
  21
 2930.9979321062
  31
0.0
   0
LINE
   5
4D9
 100
AcDbEntity
   8
LEVEL001
 370
13
 100
AcDbLine
   6
CONTINUOUS
  62
5
  10
 1529.2752819107
  20
 2930.9979321062
  30
0.0
  11
 1506.3193499776
  21
 2934.0722728348
  31
0.0
   0
LINE
   5
4DA
 100
AcDbEntity
   8
LEVEL001
 370
13
 100
AcDbLine
   6
CONTINUOUS
  62
5
  10
 1506.3193499776
  20
 2934.0722728348
  30
0.0
  11
 1506.3193499776
  21
 2899.0748678720
  31
0.0
   0
LINE
   5
4DB
 100
AcDbEntity
   8
LEVEL001
 370
13
 100
AcDbLine
   6
CONTINUOUS
  62
5
  10
 1549.1754888371
  20
 2914.2935258656
  30
0.0
  11
 1535.0333383797
  21
 2935.6095957870
  31
0.0
   0
ARC
   5
4DC
 100
AcDbEntity
   8
LEVEL001
 370
13
   6
CONTINUOUS
  62
5
 100
AcDbCircle
  10
 1554.0558397940
  20
 2922.0130107444
  30
0.0
  40
 9.1328129430768
 100
AcDbArc
  50
 237.69843463471
  51
 18.768732377752
   0
ARC
   5
4DD
 100
AcDbEntity
   8
LEVEL001
 370
13
   6
CONTINUOUS
  62
5
 100
AcDbCircle
  10
 1536.5205645294
  20
 2897.7097577790
  30
0.0
  40
 37.929006876678
 100
AcDbArc
  50
 46.131549416344
  51
 92.247188603551
   0
ARC
   5
4DE
 100
AcDbEntity
   8
LEVEL001
 370
13
   6
CONTINUOUS
  62
5
 100
AcDbCircle
  10
 1593.6158738359
  20
 2918.2324709136
  30
0.0
  40
 8.9390233475260
 100
AcDbArc
  50
 229.60790187561
  51
 6.7933956220584
   0
ARC
   5
4DF
 100
AcDbEntity
   8
LEVEL001
 370
13
   6
CONTINUOUS
  62
5
 100
AcDbCircle
  10
 1578.3071323300
  20
 2907.2011353242
  30
0.0
  40
 27.037970213950
 100
AcDbArc
  50
 26.557897354825
  51
 98.092162593104
   0
LINE
   5
4E0
 100
AcDbEntity
   8
LEVEL001
 370
13
 100
AcDbLine
   6
CONTINUOUS
  62
5
  10
 1463.7920033247
  20
 3184.9019331854
  30
0.0
  11
 1478.6991115430
  21
 3182.5727842278
  31
0.0
   0
LINE
   5
4E1
 100
AcDbEntity
   8
LEVEL001
 370
13
 100
AcDbLine
   6
CONTINUOUS
  62
5
  10
 1484.8477930004
  20
 3150.5987556396
  30
0.0
  11
 1463.7920033247
  21
 3182.8523504596
  31
0.0
   0
DIMENSION
   5
4E2
 100
AcDbEntity
   8
LEVEL001
 370
13
   6
CONTINUOUS
  62
1
 100
AcDbDimension
   2
*D21
  10
 1464.3643930240
  20
 4880.1804477570
  30
0.0
  11
 1095.6190425895
  21
 4880.1804477570
  31
0.0
  70
128
   1
\A1;800
   3
GMM007
 100
AcDbAlignedDimension
  13
 659.36439302396
  23
 4880.1804477570
  33
0.0
  14
 1464.3643930240
  24
 4880.1804477570
  34
0.0
 100
AcDbRotatedDimension
   0
DIMENSION
   5
4E3
 100
AcDbEntity
   8
LEVEL001
 370
13
   6
CONTINUOUS
  62
1
 100
AcDbDimension
   2
*D22
  10
 2414.3643930240
  20
 4880.1804477570
  30
0.0
  11
 2045.6190425896
  21
 4880.1804477570
  31
0.0
  70
128
   1
\A1;800
   3
GMM007
 100
AcDbAlignedDimension
  13
 1609.3643930240
  23
 4880.1804477570
  33
0.0
  14
 2414.3643930240
  24
 4880.1804477570
  34
0.0
 100
AcDbRotatedDimension
   0
DIMENSION
   5
4E4
 100
AcDbEntity
   8
LEVEL001
 370
13
   6
CONTINUOUS
  62
1
 100
AcDbDimension
   2
*D23
  10
 1811.8643930240
  20
 4427.6804477570
  30
0.0
  11
 1811.8643930240
  21
 4697.9297067286
  31
0.0
  70
128
   1
\A1;600
   3
GMM007
 100
AcDbAlignedDimension
  13
 1811.8643930240
  23
 5032.6804477570
  33
0.0
  14
 1811.8643930240
  24
 4427.6804477570
  34
0.0
  50
 270.00000000000
 100
AcDbRotatedDimension
   0
DIMENSION
   5
4E5
 100
AcDbEntity
   8
LEVEL001
 370
13
   6
CONTINUOUS
  62
1
 100
AcDbDimension
   2
*D24
  10
 861.86439302396
  20
 4427.6804477570
  30
0.0
  11
 861.86439302396
  21
 4697.9297067286
  31
0.0
  70
128
   1
\A1;600
   3
GMM007
 100
AcDbAlignedDimension
  13
 861.86439302396
  23
 5032.6804477570
  33
0.0
  14
 861.86439302396
  24
 4427.6804477570
  34
0.0
  50
 270.00000000000
 100
AcDbRotatedDimension
   0
MTEXT
   5
4E6
 100
AcDbEntity
   8
LEVEL001
 370
13
  62
1
 100
AcDbMText
  10
 1886.8643930240
  20
 2728.2090191856
  30
0.0
  40
 42.857142857142
  41
0.0
  71
1
  72
1
   1
{\T1.000000;支柱}\P%%c{\T1.000000;８９．１×３}{\T1.000000;.}{\T1.000000;２ｔ}\P{\T1.000000;×４４００Ｌ}
   7
GMM001
  44
 0.79999984000003
   0
ENDSEC
  0
SECTION
  2
OBJECTS
  0
DICTIONARY
  5
C
100
AcDbDictionary
  3
ACAD_GROUP
350
D
  3
ACAD_MLINESTYLE
350
1B
  3
DWGPROPS
350
1C
  0
DICTIONARY
  5
D
102
{ACAD_REACTORS
330
C
102
}
100
AcDbDictionary
  0
DICTIONARY
  5
1B
102
{ACAD_REACTORS
330
C
102
}
100
AcDbDictionary
  3
STANDARD
350
1D
  0
MLINESTYLE
  5
1D
102
{ACAD_REACTORS
330
1B
102
}
100
AcDbMlineStyle
  2
STANDARD
 70
     0
  3

 62
   256
 51
90.0
 52
90.0
 71
     2
 49
0.5
 62
   256
  6
BYLAYER
 49
-0.5
 62
   256
  6
BYLAYER
   0
XRECORD
   5
1C
 102
{ACAD_REACTORS
 330
C
 102
}
 330
C
 100
AcDbXrecord
 280
1
   1
DWGPROPS COOKIE
   2
 
   3
 
   4
 
   6
 
   7
MZH608WUP
   8
 
   9

 300
 = 
 301
 = 
 302
 = 
 303
 = 
 304
 = 
 305
 = 
 306
 = 
 307
 = 
 308
 = 
 309
 = 
  40
0.0
  41
 2460340.5000000
  42
 2460340.5000000
   1

  90
10
   0
ENDSEC
   0
EOF
