   0
SECTION
   2
HEADER
   9
$ACADVER
   1
AC1015
   9
$DWGCODEPAGE
   3
ANSI_932
   9
$LIMMIN
  10
0.0
  20
0.0
   9
$LIMMAX
  10
 8400.0000000000
  20
 5940.0000000000
   9
$EXTMIN
  10
0.0
  20
0.0
  30
0.0
   9
$EXTMAX
  10
 8400.0000000000
  20
 5940.0000000000
  30
0.0
   9
$LTSCALE
  40
 168.00000000000
   9
$HANDSEED
   5
41A
   0
ENDSEC
   0
SECTION
   2
TABLES
  0
TABLE
  2
VPORT
  5
8
100
AcDbSymbolTable
 70
     1
  0
VPORT
  5
419
100
AcDbSymbolTableRecord
100
AcDbViewportTableRecord
  2
*ACTIVE
 70
     0
 10
0.0
 20
0.0
 11
1.0
 21
1.0
  12
 4200.0000000000
  22
 2970.0000000000
 13
0.0
 23
0.0
 14
1.0
 24
1.0
 15
0.0
 25
0.0
 16
0.0
 26
0.0
 36
1.0
 17
0.0
 27
0.0
 37
0.0
  40
 8400.0000000000
  41
 1.4787878787879
 42
50.0
 43
0.0
 44
0.0
 50
0.0
 51
0.0
 71
     0
 72
   100
 73
     1
 74
     1
 75
     0
 76
     0
 77
     0
 78
     0
  0
ENDTAB
  0
TABLE
  2
LTYPE
  5
5
100
AcDbSymbolTable
 70
    25
  0
LTYPE
  5
12
100
AcDbSymbolTableRecord
100
AcDbLinetypeTableRecord
  2
BYBLOCK
 70
     0
  3

 72
    65
 73
     0
 40
0.0
  0
LTYPE
  5
13
100
AcDbSymbolTableRecord
100
AcDbLinetypeTableRecord
  2
BYLAYER
 70
     0
  3

 72
    65
 73
     0
 40
0.0
  0
LTYPE
  5
14
100
AcDbSymbolTableRecord
100
AcDbLinetypeTableRecord
  2
CONTINUOUS
 70
     0
  3
Solid line
 72
    65
 73
     0
 40
0.0
  0
LTYPE
  5
20
100
AcDbSymbolTableRecord
100
AcDbLinetypeTableRecord
  2
BORDER
 70
     0
  3
__ __ . __ __ . __ __ . __ __ . __ __ . __ __ .
 72
    65
 73
     6
 40
1.75
 49
0.5
 74
     0
 49
-0.25
 74
     0
 49
0.5
 74
     0
 49
-0.25
 74
     0
 49
0.0
 74
     0
 49
-0.25
 74
     0
  0
LTYPE
  5
21
100
AcDbSymbolTableRecord
100
AcDbLinetypeTableRecord
  2
BORDER2
 70
     0
  3
__.__.__.__.__.__.__.__.__.__.__.__.__.__.__.__
 72
    65
 73
     6
 40
0.875
 49
0.25
 74
     0
 49
-0.125
 74
     0
 49
0.25
 74
     0
 49
-0.125
 74
     0
 49
0.0
 74
     0
 49
-0.125
 74
     0
  0
LTYPE
  5
22
100
AcDbSymbolTableRecord
100
AcDbLinetypeTableRecord
  2
BORDERX2
 70
     0
  3
____  ____  .  ____  ____  .  ____  ____  .  __
 72
    65
 73
     6
 40
3.5
 49
1.0
 74
     0
 49
-0.5
 74
     0
 49
1.0
 74
     0
 49
-0.5
 74
     0
 49
0.0
 74
     0
 49
-0.5
 74
     0
  0
LTYPE
  5
23
100
AcDbSymbolTableRecord
100
AcDbLinetypeTableRecord
  2
CENTER
 70
     0
  3
____ _ ____ _ ____ _ ____ _ ____ _ ____ _ ____ 
 72
    65
 73
     4
 40
2.0
 49
1.25
 74
     0
 49
-0.25
 74
     0
 49
0.25
 74
     0
 49
-0.25
 74
     0
  0
LTYPE
  5
24
100
AcDbSymbolTableRecord
100
AcDbLinetypeTableRecord
  2
CENTER2
 70
     0
  3
___ _ ___ _ ___ _ ___ _ ___ _ ___ _ ___ _ ___ _
 72
    65
 73
     4
 40
1.125
 49
0.75
 74
     0
 49
-0.125
 74
     0
 49
0.125
 74
     0
 49
-0.125
 74
     0
  0
LTYPE
  5
25
100
AcDbSymbolTableRecord
100
AcDbLinetypeTableRecord
  2
CENTERX2
 70
     0
  3
________  __  ________  __  ________  __  _____
 72
    65
 73
     4
 40
4.0
 49
2.5
 74
     0
 49
-0.5
 74
     0
 49
0.5
 74
     0
 49
-0.5
 74
     0
  0
LTYPE
  5
26
100
AcDbSymbolTableRecord
100
AcDbLinetypeTableRecord
  2
DASHDOT
 70
     0
  3
__ . __ . __ . __ . __ . __ . __ . __ . __ . __
 72
    65
 73
     4
 40
1.0
 49
0.5
 74
     0
 49
-0.25
 74
     0
 49
0.0
 74
     0
 49
-0.25
 74
     0
  0
LTYPE
  5
27
100
AcDbSymbolTableRecord
100
AcDbLinetypeTableRecord
  2
DASHDOT2
 70
     0
  3
_._._._._._._._._._._._._._._._._._._._._._._._
 72
    65
 73
     4
 40
0.5
 49
0.25
 74
     0
 49
-0.125
 74
     0
 49
0.0
 74
     0
 49
-0.125
 74
     0
  0
LTYPE
  5
28
100
AcDbSymbolTableRecord
100
AcDbLinetypeTableRecord
  2
DASHDOTX2
 70
     0
  3
____  .  ____  .  ____  .  ____  .  ____  .  __
 72
    65
 73
     4
 40
2.0
 49
1.0
 74
     0
 49
-0.5
 74
     0
 49
0.0
 74
     0
 49
-0.5
 74
     0
  0
LTYPE
  5
29
100
AcDbSymbolTableRecord
100
AcDbLinetypeTableRecord
  2
DASHED
 70
     0
  3
__ __ __ __ __ __ __ __ __ __ __ __ __ __ __ __
 72
    65
 73
     2
 40
0.75
 49
0.5
 74
     0
 49
-0.25
 74
     0
  0
LTYPE
  5
2A
100
AcDbSymbolTableRecord
100
AcDbLinetypeTableRecord
  2
DASHED2
 70
     0
  3
_ _ _ _ _ _ _ _ _ _ _ _ _ _ _ _ _ _ _ _ _ _ _ _
 72
    65
 73
     2
 40
0.375
 49
0.25
 74
     0
 49
-0.125
 74
     0
  0
LTYPE
  5
2B
100
AcDbSymbolTableRecord
100
AcDbLinetypeTableRecord
  2
DASHEDX2
 70
     0
  3
____  ____  ____  ____  ____  ____  ____  ____ 
 72
    65
 73
     2
 40
1.5
 49
1.0
 74
     0
 49
-0.5
 74
     0
  0
LTYPE
  5
2C
100
AcDbSymbolTableRecord
100
AcDbLinetypeTableRecord
  2
DIVIDE
 70
     0
  3
____ . . ____ . . ____ . . ____ . . ____ . . __
 72
    65
 73
     6
 40
1.25
 49
0.5
 74
     0
 49
-0.25
 74
     0
 49
0.0
 74
     0
 49
-0.25
 74
     0
 49
0.0
 74
     0
 49
-0.25
 74
     0
  0
LTYPE
  5
2D
100
AcDbSymbolTableRecord
100
AcDbLinetypeTableRecord
  2
DIVIDE2
 70
     0
  3
__..__..__..__..__..__..__..__..__..__..__..__.
 72
    65
 73
     6
 40
0.625
 49
0.25
 74
     0
 49
-0.125
 74
     0
 49
0.0
 74
     0
 49
-0.125
 74
     0
 49
0.0
 74
     0
 49
-0.125
 74
     0
  0
LTYPE
  5
2E
100
AcDbSymbolTableRecord
100
AcDbLinetypeTableRecord
  2
DIVIDEX2
 70
     0
  3
________  .  .  ________  .  .  ________  .  . 
 72
    65
 73
     6
 40
2.5
 49
1.0
 74
     0
 49
-0.5
 74
     0
 49
0.0
 74
     0
 49
-0.5
 74
     0
 49
0.0
 74
     0
 49
-0.5
 74
     0
  0
LTYPE
  5
2F
100
AcDbSymbolTableRecord
100
AcDbLinetypeTableRecord
  2
DOT
 70
     0
  3
. . . . . . . . . . . . . . . . . . . . . . . .
 72
    65
 73
     2
 40
0.25
 49
0.0
 74
     0
 49
-0.25
 74
     0
  0
LTYPE
  5
30
100
AcDbSymbolTableRecord
100
AcDbLinetypeTableRecord
  2
DOT2
 70
     0
  3
...............................................
 72
    65
 73
     2
 40
0.125
 49
0.0
 74
     0
 49
-0.125
 74
     0
  0
LTYPE
  5
31
100
AcDbSymbolTableRecord
100
AcDbLinetypeTableRecord
  2
DOTX2
 70
     0
  3
.  .  .  .  .  .  .  .  .  .  .  .  .  .  .  . 
 72
    65
 73
     2
 40
0.5
 49
0.0
 74
     0
 49
-0.5
 74
     0
  0
LTYPE
  5
32
100
AcDbSymbolTableRecord
100
AcDbLinetypeTableRecord
  2
HIDDEN
 70
     0
  3
__ __ __ __ __ __ __ __ __ __ __ __ __ __ __ __
 72
    65
 73
     2
 40
0.375
 49
0.25
 74
     0
 49
-0.125
 74
     0
  0
LTYPE
  5
33
100
AcDbSymbolTableRecord
100
AcDbLinetypeTableRecord
  2
HIDDEN2
 70
     0
  3
_ _ _ _ _ _ _ _ _ _ _ _ _ _ _ _ _ _ _ _ _ _ _ _
 72
    65
 73
     2
 40
0.1875
 49
0.125
 74
     0
 49
-0.0625
 74
     0
  0
LTYPE
  5
34
100
AcDbSymbolTableRecord
100
AcDbLinetypeTableRecord
  2
HIDDENX2
 70
     0
  3
____ ____ ____ ____ ____ ____ ____ ____ ____ __
 72
    65
 73
     2
 40
0.75
 49
0.5
 74
     0
 49
-0.25
 74
     0
  0
LTYPE
  5
35
100
AcDbSymbolTableRecord
100
AcDbLinetypeTableRecord
  2
PHANTOM
 70
     0
  3
______  __  __  ______  __  __  ______  __  __ 
 72
    65
 73
     6
 40
2.5
 49
1.25
 74
     0
 49
-0.25
 74
     0
 49
0.25
 74
     0
 49
-0.25
 74
     0
 49
0.25
 74
     0
 49
-0.25
 74
     0
  0
LTYPE
  5
36
100
AcDbSymbolTableRecord
100
AcDbLinetypeTableRecord
  2
PHANTOM2
 70
     0
  3
___ _ _ ___ _ _ ___ _ _ ___ _ _ ___ _ _ ___ _ _
 72
    65
 73
     6
 40
1.25
 49
0.625
 74
     0
 49
-0.125
 74
     0
 49
0.125
 74
     0
 49
-0.125
 74
     0
 49
0.125
 74
     0
 49
-0.125
 74
     0
  0
LTYPE
  5
37
100
AcDbSymbolTableRecord
100
AcDbLinetypeTableRecord
  2
PHANTOMX2
 70
     0
  3
____________    ____    ____    ____________   
 72
    65
 73
     6
 40
5.0
 49
2.5
 74
     0
 49
-0.5
 74
     0
 49
0.5
 74
     0
 49
-0.5
 74
     0
 49
0.5
 74
     0
 49
-0.5
 74
     0
  0
ENDTAB
   0
TABLE
   2
LAYER
   5
2
 100
AcDbSymbolTable
  70
2
   0
LAYER
   5
E
 100
AcDbSymbolTableRecord
 100
AcDbLayerTableRecord
   2
0
  70
0
  62
7
   6
CONTINUOUS
 390
30
   0
LAYER
   5
39
 100
AcDbSymbolTableRecord
 100
AcDbLayerTableRecord
   2
LEVEL001
  70
0
  62
7
   6
CONTINUOUS
 390
30
   0
ENDTAB
  0
TABLE
  2
STYLE
  5
3
100
AcDbSymbolTable
  70
8
  0
STYLE
  5
F
100
AcDbSymbolTableRecord
100
AcDbTextStyleTableRecord
  2
STANDARD
 70
     0
 40
0.0
 41
1.0
 50
0.0
 71
     0
 42
0.2
  3
TXT
  4
BIGFONT
  0
STYLE
  5
38
100
AcDbSymbolTableRecord
100
AcDbTextStyleTableRecord
  2
STANDARD1
 70
     4
 40
0.0
 41
1.0
 50
0.0
 71
     0
 42
0.2
  3
TXT
  4
BIGFONT
   0
STYLE
   5
3A
 100
AcDbSymbolTableRecord
 100
AcDbTextStyleTableRecord
   2
GMM001
  70
0
  40
0.0
  41
 1.0000000000000
  50
0.0
  71
     0
  42
1.0
   3

   4

1001
ACAD
1000
ＭＳ ゴシック
1071
32817
   0
STYLE
   5
3B
 100
AcDbSymbolTableRecord
 100
AcDbTextStyleTableRecord
   2
GMM002
  70
0
  40
0.0
  41
 1.0000000000000
  50
0.0
  71
     0
  42
1.0
   3
txt.shx
   4
bigfont.shx
   0
STYLE
   5
3C
 100
AcDbSymbolTableRecord
 100
AcDbTextStyleTableRecord
   2
GMM003
  70
0
  40
0.0
  41
 0.75000000000000
  50
0.0
  71
     0
  42
1.0
   3
txt.shx
   4
bigfont.shx
   0
STYLE
   5
3D
 100
AcDbSymbolTableRecord
 100
AcDbTextStyleTableRecord
   2
GMM004
  70
0
  40
0.0
  41
 0.66666666666667
  50
0.0
  71
     0
  42
1.0
   3

   4

1001
ACAD
1000
ＭＳ ゴシック
1071
32817
   0
STYLE
   5
3E
 100
AcDbSymbolTableRecord
 100
AcDbTextStyleTableRecord
   2
GMM005
  70
0
  40
0.0
  41
 1.5000000000000
  50
0.0
  71
     0
  42
1.0
   3

   4

1001
ACAD
1000
ＭＳ ゴシック
1071
32817
   0
STYLE
   5
3F
 100
AcDbSymbolTableRecord
 100
AcDbTextStyleTableRecord
   2
GMM006
  70
0
  40
0.0
  41
 0.78273809523810
  50
0.0
  71
     0
  42
1.0
   3
txt.shx
   4
bigfont.shx
   0
ENDTAB
  0
TABLE
  2
VIEW
  5
6
100
AcDbSymbolTable
 70
     0
  0
ENDTAB
  0
TABLE
  2
UCS
  5
7
100
AcDbSymbolTable
 70
     0
  0
ENDTAB
  0
TABLE
  2
APPID
  5
9
100
AcDbSymbolTable
 70
     1
  0
APPID
  5
10
100
AcDbSymbolTableRecord
100
AcDbRegAppTableRecord
  2
ACAD
 70
     0
  0
ENDTAB
   0
TABLE
   2
DIMSTYLE
   5
A
 100
AcDbSymbolTable
  70
10
 100
AcDbDimStyleTable
  0
DIMSTYLE
105
1D
100
AcDbSymbolTableRecord
100
AcDbDimStyleTableRecord
  2
STANDARD
 70
     0
  3

  4

  5

  6

  7

 40
1.0
 41
0.18
 42
0.0625
 43
0.38
 44
0.18
 45
0.0
 46
0.0
 47
0.0
 48
0.0
140
0.18
141
0.09
142
0.0
143
25.4
144
1.0
145
0.0
146
1.0
147
0.09
 71
     0
 72
     0
 73
     1
 74
     1
 75
     0
 76
     0
 77
     0
 78
     0
170
     0
171
     2
172
     0
173
     0
174
     0
175
     0
176
     0
177
     0
178
     0
270
     2
271
     4
272
     4
273
     2
274
     2
340
F
275
     0
280
     0
281
     0
282
     0
283
     1
284
     0
285
     0
286
     0
287
     3
288
     0
   0
DIMSTYLE
 105
40
 100
AcDbSymbolTableRecord
 100
AcDbDimStyleTableRecord
   2
GMM001
  70
0
   3

   4

   5

   6
_OPEN
   7
_OPEN
  40
 1.0000000000000
  41
 30.000000000000
  42
 30.000000000000
  43
 160.00000000000
  44
 30.000000000000
  45
0.0
  46
0.0
  47
0.0
  48
0.0
 140
 66.000000000000
 141
 20.000000000000
 142
0.0
 143
 0.39400000000000E-1
 144
 1.0000000000000
 145
0.0
 146
 0.75757575757576
 147
0.0
  71
0
  72
0
  73
0
  74
0
  75
0
  76
0
  77
0
  78
8
 170
0
 171
2
 172
1
 173
1
 174
0
 175
0
 176
1
 177
1
 178
7
 270
2
 271
1
 272
0
 273
2
 274
2
 340
3B
 275
0
 280
0
 281
0
 282
0
 283
1
 284
0
 285
0
 286
0
 287
3
 288
1
   0
DIMSTYLE
 105
41
 100
AcDbSymbolTableRecord
 100
AcDbDimStyleTableRecord
   2
GMM002
  70
0
   3

   4

   5

   6
_OPEN
   7
_OPEN
  40
 1.0000000000000
  41
 42.000000000000
  42
 30.000000000000
  43
 160.00000000000
  44
 30.000000000000
  45
0.0
  46
0.0
  47
0.0
  48
0.0
 140
 60.000000000000
 141
 20.000000000000
 142
0.0
 143
 0.39400000000000E-1
 144
 1.0000000000000
 145
0.0
 146
 0.83333333333333
 147
0.0
  71
0
  72
0
  73
0
  74
0
  75
0
  76
0
  77
0
  78
8
 170
0
 171
2
 172
1
 173
1
 174
0
 175
0
 176
1
 177
1
 178
7
 270
2
 271
1
 272
0
 273
2
 274
2
 340
3B
 275
0
 280
0
 281
0
 282
0
 283
1
 284
0
 285
0
 286
0
 287
3
 288
1
   0
DIMSTYLE
 105
42
 100
AcDbSymbolTableRecord
 100
AcDbDimStyleTableRecord
   2
GMM003
  70
0
   3

   4

   5

   6
_OPEN
   7
_OPEN
  40
 1.0000000000000
  41
 42.000000000000
  42
 30.000000000000
  43
 160.00000000000
  44
 30.000000000000
  45
0.0
  46
0.0
  47
0.0
  48
0.0
 140
 63.000000000000
 141
 20.000000000000
 142
0.0
 143
 0.39400000000000E-1
 144
 1.0000000000000
 145
0.0
 146
 0.79365079365079
 147
 14.000000000000
  71
0
  72
0
  73
0
  74
0
  75
0
  76
0
  77
3
  78
8
 170
0
 171
2
 172
1
 173
1
 174
0
 175
0
 176
6
 177
6
 178
1
 270
2
 271
1
 272
0
 273
2
 274
2
 340
3F
 275
0
 280
0
 281
0
 282
0
 283
1
 284
0
 285
0
 286
0
 287
3
 288
1
   0
DIMSTYLE
 105
43
 100
AcDbSymbolTableRecord
 100
AcDbDimStyleTableRecord
   2
GMM004
  70
0
   3
□<>
   4

   5

   6
_OPEN
   7
_OPEN
  40
 1.0000000000000
  41
 42.000000000000
  42
 30.000000000000
  43
 160.00000000000
  44
 30.000000000000
  45
0.0
  46
0.0
  47
0.0
  48
0.0
 140
 60.000000000000
 141
 20.000000000000
 142
0.0
 143
 0.39400000000000E-1
 144
 1.0000000000000
 145
0.0
 146
 0.83333333333333
 147
 14.000000000000
  71
0
  72
0
  73
0
  74
0
  75
0
  76
0
  77
3
  78
8
 170
0
 171
2
 172
1
 173
1
 174
0
 175
0
 176
6
 177
6
 178
1
 270
2
 271
1
 272
0
 273
2
 274
2
 340
3B
 275
0
 280
0
 281
0
 282
0
 283
1
 284
0
 285
0
 286
0
 287
3
 288
1
   0
DIMSTYLE
 105
44
 100
AcDbSymbolTableRecord
 100
AcDbDimStyleTableRecord
   2
GMM005
  70
0
   3

   4

   5

   6
_OPEN
   7
_OPEN
  40
 1.0000000000000
  41
 42.000000000000
  42
 30.000000000000
  43
 160.00000000000
  44
 30.000000000000
  45
0.0
  46
0.0
  47
0.0
  48
0.0
 140
 60.000000000000
 141
 20.000000000000
 142
0.0
 143
 0.39400000000000E-1
 144
 1.0000000000000
 145
0.0
 146
 0.83333333333333
 147
 14.000000000000
  71
0
  72
0
  73
0
  74
0
  75
0
  76
0
  77
3
  78
8
 170
0
 171
2
 172
1
 173
1
 174
0
 175
0
 176
6
 177
6
 178
1
 270
2
 271
1
 272
0
 273
2
 274
2
 340
3B
 275
0
 280
0
 281
0
 282
0
 283
1
 284
0
 285
0
 286
0
 287
3
 288
1
   0
DIMSTYLE
 105
45
 100
AcDbSymbolTableRecord
 100
AcDbDimStyleTableRecord
   2
GMM006
  70
0
   3

   4

   5

   6
_OPEN
   7
_OPEN
  40
 1.0000000000000
  41
 42.000000000000
  42
 30.000000000000
  43
 160.00000000000
  44
 30.000000000000
  45
0.0
  46
0.0
  47
0.0
  48
0.0
 140
 60.000000000000
 141
 20.000000000000
 142
0.0
 143
 0.39400000000000E-1
 144
 1.0000000000000
 145
0.0
 146
 0.83333333333333
 147
 25.714285714286
  71
0
  72
0
  73
0
  74
0
  75
0
  76
0
  77
3
  78
8
 170
0
 171
2
 172
1
 173
1
 174
0
 175
0
 176
6
 177
6
 178
1
 270
2
 271
6
 272
0
 273
2
 274
2
 340
3B
 275
1
 280
0
 281
0
 282
0
 283
1
 284
0
 285
0
 286
0
 287
3
 288
0
   0
DIMSTYLE
 105
46
 100
AcDbSymbolTableRecord
 100
AcDbDimStyleTableRecord
   2
GMM007
  70
0
   3

   4

   5

   6
_OPEN
   7
_OPEN
  40
 1.0000000000000
  41
 42.000000000000
  42
 30.000000000000
  43
 160.00000000000
  44
 30.000000000000
  45
0.0
  46
0.0
  47
0.0
  48
0.0
 140
 60.000000000000
 141
 20.000000000000
 142
0.0
 143
 0.39400000000000E-1
 144
 1.0000000000000
 145
0.0
 146
 0.83333333333333
 147
 25.714285714286
  71
0
  72
0
  73
0
  74
0
  75
0
  76
1
  77
3
  78
8
 170
0
 171
2
 172
1
 173
1
 174
0
 175
0
 176
6
 177
6
 178
1
 270
2
 271
6
 272
0
 273
2
 274
2
 340
3B
 275
1
 280
0
 281
0
 282
0
 283
1
 284
0
 285
0
 286
0
 287
3
 288
0
   0
DIMSTYLE
 105
47
 100
AcDbSymbolTableRecord
 100
AcDbDimStyleTableRecord
   2
GMM008
  70
0
   3

   4

   5

   6
_OPEN
   7
_OPEN
  40
 1.0000000000000
  41
 42.000000000000
  42
 30.000000000000
  43
 160.00000000000
  44
 30.000000000000
  45
0.0
  46
0.0
  47
0.0
  48
0.0
 140
 60.000000000000
 141
 20.000000000000
 142
0.0
 143
 0.39400000000000E-1
 144
 1.0000000000000
 145
0.0
 146
 0.83333333333333
 147
 14.000000000000
  71
0
  72
0
  73
0
  74
0
  75
0
  76
0
  77
3
  78
8
 170
0
 171
2
 172
1
 173
1
 174
0
 175
0
 176
6
 177
6
 178
1
 270
2
 271
0
 272
0
 273
2
 274
2
 340
3B
 275
0
 280
0
 281
0
 282
0
 283
1
 284
0
 285
0
 286
0
 287
3
 288
1
   0
ENDTAB
  0
TABLE
  2
BLOCK_RECORD
  5
1
100
AcDbSymbolTable
 70
     0
  0
BLOCK_RECORD
  5
18
100
AcDbSymbolTableRecord
100
AcDbBlockTableRecord
  2
*MODEL_SPACE
  0
BLOCK_RECORD
  5
15
100
AcDbSymbolTableRecord
100
AcDbBlockTableRecord
  2
*PAPER_SPACE
   0
BLOCK_RECORD
   5
48
 100
AcDbSymbolTableRecord
 100
AcDbBlockTableRecord
   2
BLOCK001
   0
BLOCK_RECORD
   5
49
 100
AcDbSymbolTableRecord
 100
AcDbBlockTableRecord
   2
BLOCK002
   0
BLOCK_RECORD
   5
4A
 100
AcDbSymbolTableRecord
 100
AcDbBlockTableRecord
   2
BLOCK003
   0
BLOCK_RECORD
   5
4B
 100
AcDbSymbolTableRecord
 100
AcDbBlockTableRecord
   2
*D14
   0
BLOCK_RECORD
   5
4C
 100
AcDbSymbolTableRecord
 100
AcDbBlockTableRecord
   2
*D15
   0
BLOCK_RECORD
   5
4D
 100
AcDbSymbolTableRecord
 100
AcDbBlockTableRecord
   2
*D16
   0
BLOCK_RECORD
   5
4E
 100
AcDbSymbolTableRecord
 100
AcDbBlockTableRecord
   2
*D17
   0
BLOCK_RECORD
   5
4F
 100
AcDbSymbolTableRecord
 100
AcDbBlockTableRecord
   2
*D18
   0
BLOCK_RECORD
   5
50
 100
AcDbSymbolTableRecord
 100
AcDbBlockTableRecord
   2
*D19
   0
BLOCK_RECORD
   5
51
 100
AcDbSymbolTableRecord
 100
AcDbBlockTableRecord
   2
*D20
   0
BLOCK_RECORD
   5
52
 100
AcDbSymbolTableRecord
 100
AcDbBlockTableRecord
   2
*D21
   0
BLOCK_RECORD
   5
53
 100
AcDbSymbolTableRecord
 100
AcDbBlockTableRecord
   2
_ARCHTICK
   0
BLOCK_RECORD
   5
54
 100
AcDbSymbolTableRecord
 100
AcDbBlockTableRecord
   2
_BOXBLANK
   0
BLOCK_RECORD
   5
55
 100
AcDbSymbolTableRecord
 100
AcDbBlockTableRecord
   2
_BOXFILLED
   0
BLOCK_RECORD
   5
56
 100
AcDbSymbolTableRecord
 100
AcDbBlockTableRecord
   2
_CLOSED
   0
BLOCK_RECORD
   5
57
 100
AcDbSymbolTableRecord
 100
AcDbBlockTableRecord
   2
_CLOSEDBLANK
   0
BLOCK_RECORD
   5
58
 100
AcDbSymbolTableRecord
 100
AcDbBlockTableRecord
   2
_DATUMBLANK
   0
BLOCK_RECORD
   5
59
 100
AcDbSymbolTableRecord
 100
AcDbBlockTableRecord
   2
_DATUMFILLED
   0
BLOCK_RECORD
   5
5A
 100
AcDbSymbolTableRecord
 100
AcDbBlockTableRecord
   2
_DOT
   0
BLOCK_RECORD
   5
5B
 100
AcDbSymbolTableRecord
 100
AcDbBlockTableRecord
   2
_DOTBLANK
   0
BLOCK_RECORD
   5
5C
 100
AcDbSymbolTableRecord
 100
AcDbBlockTableRecord
   2
_DOTSMALL
   0
BLOCK_RECORD
   5
5D
 100
AcDbSymbolTableRecord
 100
AcDbBlockTableRecord
   2
_INTEGRAL
   0
BLOCK_RECORD
   5
5E
 100
AcDbSymbolTableRecord
 100
AcDbBlockTableRecord
   2
_NONE
   0
BLOCK_RECORD
   5
5F
 100
AcDbSymbolTableRecord
 100
AcDbBlockTableRecord
   2
_OBLIQUE
   0
BLOCK_RECORD
   5
60
 100
AcDbSymbolTableRecord
 100
AcDbBlockTableRecord
   2
_OPEN
   0
BLOCK_RECORD
   5
61
 100
AcDbSymbolTableRecord
 100
AcDbBlockTableRecord
   2
_OPEN30
   0
BLOCK_RECORD
   5
62
 100
AcDbSymbolTableRecord
 100
AcDbBlockTableRecord
   2
_OPEN90
   0
BLOCK_RECORD
   5
63
 100
AcDbSymbolTableRecord
 100
AcDbBlockTableRecord
   2
_ORIGIN
   0
ENDTAB
   0
ENDSEC
  0
SECTION
  2
BLOCKS
  0
BLOCK
  5
19
100
AcDbEntity
  8
0
100
AcDbBlockBegin
  2
*MODEL_SPACE
 70
     0
 10
0.0
 20
0.0
 30
0.0
  3
*MODEL_SPACE
  1

  0
ENDBLK
  5
1A
100
AcDbEntity
  8
0
100
AcDbBlockEnd
  0
BLOCK
  5
16
100
AcDbEntity
 67
     1
  8
0
100
AcDbBlockBegin
  2
*PAPER_SPACE
 70
     0
 10
0.0
 20
0.0
 30
0.0
  3
*PAPER_SPACE
  1

  0
ENDBLK
  5
17
100
AcDbEntity
 67
     1
  8
0
100
AcDbBlockEnd
   0
BLOCK
   5
64
 100
AcDbEntity
   8
0
 100
AcDbBlockBegin
   2
_ARCHTICK
  70
0
  10
0.0
  20
0.0
  30
0.0
   3
_ARCHTICK
   0
POLYLINE
   5
65
 100
AcDbEntity
   8
0
 370
-2
   6
BYBLOCK
  62
0
 100
AcDb2dPolyline
  66
1
  10
0.0
  20
0.0
  30
0.0
  70
1
  40
 0.15000000000000
  41
 0.15000000000000
   0
VERTEX
   5
66
 100
AcDbEntity
   8
0
   6
BYBLOCK
  62
0
 100
AcDbVertex
 100
AcDb2dVertex
  10
-0.50000000000000
  20
-0.50000000000000
  30
0.0
  40
 0.15000000000000
  41
 0.15000000000000
   0
VERTEX
   5
67
 100
AcDbEntity
   8
0
   6
BYBLOCK
  62
0
 100
AcDbVertex
 100
AcDb2dVertex
  10
 0.50000000000000
  20
 0.50000000000000
  30
0.0
  40
 0.15000000000000
  41
 0.15000000000000
   0
SEQEND
   5
68
 100
AcDbEntity
   8
0
   6
BYBLOCK
  62
0
   0
ENDBLK
   5
69
 100
AcDbEntity
   8
0
 100
AcDbBlockEnd
   0
BLOCK
   5
6A
 100
AcDbEntity
   8
0
 100
AcDbBlockBegin
   2
_OBLIQUE
  70
0
  10
0.0
  20
0.0
  30
0.0
   3
_OBLIQUE
   0
LINE
   5
6B
 100
AcDbEntity
   8
0
 370
-2
 100
AcDbLine
   6
BYBLOCK
  62
0
  10
-0.50000000000000
  20
-0.50000000000000
  30
0.0
  11
 0.50000000000000
  21
 0.50000000000000
  31
0.0
   0
ENDBLK
   5
6C
 100
AcDbEntity
   8
0
 100
AcDbBlockEnd
   0
BLOCK
   5
6D
 100
AcDbEntity
   8
0
 100
AcDbBlockBegin
   2
_BOXBLANK
  70
0
  10
0.0
  20
0.0
  30
0.0
   3
_BOXBLANK
   0
LINE
   5
6E
 100
AcDbEntity
   8
0
 370
-2
 100
AcDbLine
   6
BYBLOCK
  62
0
  10
-0.50000000000000
  20
-0.50000000000000
  30
0.0
  11
 0.50000000000000
  21
-0.50000000000000
  31
0.0
   0
LINE
   5
6F
 100
AcDbEntity
   8
0
 370
-2
 100
AcDbLine
   6
BYBLOCK
  62
0
  10
 0.50000000000000
  20
-0.50000000000000
  30
0.0
  11
 0.50000000000000
  21
 0.50000000000000
  31
0.0
   0
LINE
   5
70
 100
AcDbEntity
   8
0
 370
-2
 100
AcDbLine
   6
BYBLOCK
  62
0
  10
 0.50000000000000
  20
 0.50000000000000
  30
0.0
  11
-0.50000000000000
  21
 0.50000000000000
  31
0.0
   0
LINE
   5
71
 100
AcDbEntity
   8
0
 370
-2
 100
AcDbLine
   6
BYBLOCK
  62
0
  10
-0.50000000000000
  20
 0.50000000000000
  30
0.0
  11
-0.50000000000000
  21
-0.50000000000000
  31
0.0
   0
LINE
   5
72
 100
AcDbEntity
   8
0
 370
-2
 100
AcDbLine
   6
BYBLOCK
  62
0
  10
-0.50000000000000
  20
0.0
  30
0.0
  11
-1.0000000000000
  21
0.0
  31
0.0
   0
ENDBLK
   5
73
 100
AcDbEntity
   8
0
 100
AcDbBlockEnd
   0
BLOCK
   5
74
 100
AcDbEntity
   8
0
 100
AcDbBlockBegin
   2
_BOXFILLED
  70
0
  10
0.0
  20
0.0
  30
0.0
   3
_BOXFILLED
   0
SOLID
   5
75
 100
AcDbEntity
   8
0
 100
AcDbTrace
   6
BYBLOCK
  62
0
  10
-0.50000000000000
  20
 0.50000000000000
  30
0.0
  11
 0.50000000000000
  21
 0.50000000000000
  31
0.0
  12
-0.50000000000000
  22
-0.50000000000000
  32
0.0
  13
 0.50000000000000
  23
-0.50000000000000
  33
0.0
   0
LINE
   5
76
 100
AcDbEntity
   8
0
 370
-2
 100
AcDbLine
   6
BYBLOCK
  62
0
  10
-0.50000000000000
  20
0.0
  30
0.0
  11
-1.0000000000000
  21
0.0
  31
0.0
   0
ENDBLK
   5
77
 100
AcDbEntity
   8
0
 100
AcDbBlockEnd
   0
BLOCK
   5
78
 100
AcDbEntity
   8
0
 100
AcDbBlockBegin
   2
_CLOSED
  70
0
  10
0.0
  20
0.0
  30
0.0
   3
_CLOSED
   0
LINE
   5
79
 100
AcDbEntity
   8
0
 370
-2
 100
AcDbLine
   6
BYBLOCK
  62
0
  10
-1.0000000000000
  20
 0.16666666666667
  30
0.0
  11
0.0
  21
0.0
  31
0.0
   0
LINE
   5
7A
 100
AcDbEntity
   8
0
 370
-2
 100
AcDbLine
   6
BYBLOCK
  62
0
  10
0.0
  20
0.0
  30
0.0
  11
-1.0000000000000
  21
-0.16666666666667
  31
0.0
   0
LINE
   5
7B
 100
AcDbEntity
   8
0
 370
-2
 100
AcDbLine
   6
BYBLOCK
  62
0
  10
-1.0000000000000
  20
 0.16666666666667
  30
0.0
  11
-1.0000000000000
  21
-0.16666666666667
  31
0.0
   0
LINE
   5
7C
 100
AcDbEntity
   8
0
 370
-2
 100
AcDbLine
   6
BYBLOCK
  62
0
  10
0.0
  20
0.0
  30
0.0
  11
-1.0000000000000
  21
0.0
  31
0.0
   0
ENDBLK
   5
7D
 100
AcDbEntity
   8
0
 100
AcDbBlockEnd
   0
BLOCK
   5
7E
 100
AcDbEntity
   8
0
 100
AcDbBlockBegin
   2
_OPEN
  70
0
  10
0.0
  20
0.0
  30
0.0
   3
_OPEN
   0
LINE
   5
7F
 100
AcDbEntity
   8
0
 370
-2
 100
AcDbLine
   6
BYBLOCK
  62
0
  10
-1.0000000000000
  20
 0.16666666666667
  30
0.0
  11
0.0
  21
0.0
  31
0.0
   0
LINE
   5
80
 100
AcDbEntity
   8
0
 370
-2
 100
AcDbLine
   6
BYBLOCK
  62
0
  10
0.0
  20
0.0
  30
0.0
  11
-1.0000000000000
  21
-0.16666666666667
  31
0.0
   0
LINE
   5
81
 100
AcDbEntity
   8
0
 370
-2
 100
AcDbLine
   6
BYBLOCK
  62
0
  10
0.0
  20
0.0
  30
0.0
  11
-1.0000000000000
  21
0.0
  31
0.0
   0
ENDBLK
   5
82
 100
AcDbEntity
   8
0
 100
AcDbBlockEnd
   0
BLOCK
   5
83
 100
AcDbEntity
   8
0
 100
AcDbBlockBegin
   2
_OPEN30
  70
0
  10
0.0
  20
0.0
  30
0.0
   3
_OPEN30
   0
LINE
   5
84
 100
AcDbEntity
   8
0
 370
-2
 100
AcDbLine
   6
BYBLOCK
  62
0
  10
-1.0000000000000
  20
 0.26794919243110
  30
0.0
  11
0.0
  21
0.0
  31
0.0
   0
LINE
   5
85
 100
AcDbEntity
   8
0
 370
-2
 100
AcDbLine
   6
BYBLOCK
  62
0
  10
0.0
  20
0.0
  30
0.0
  11
-1.0000000000000
  21
-0.26794919243110
  31
0.0
   0
LINE
   5
86
 100
AcDbEntity
   8
0
 370
-2
 100
AcDbLine
   6
BYBLOCK
  62
0
  10
0.0
  20
0.0
  30
0.0
  11
-1.0000000000000
  21
0.0
  31
0.0
   0
ENDBLK
   5
87
 100
AcDbEntity
   8
0
 100
AcDbBlockEnd
   0
BLOCK
   5
88
 100
AcDbEntity
   8
0
 100
AcDbBlockBegin
   2
_OPEN90
  70
0
  10
0.0
  20
0.0
  30
0.0
   3
_OPEN90
   0
LINE
   5
89
 100
AcDbEntity
   8
0
 370
-2
 100
AcDbLine
   6
BYBLOCK
  62
0
  10
-0.50000000000000
  20
 0.50000000000000
  30
0.0
  11
0.0
  21
0.0
  31
0.0
   0
LINE
   5
8A
 100
AcDbEntity
   8
0
 370
-2
 100
AcDbLine
   6
BYBLOCK
  62
0
  10
0.0
  20
0.0
  30
0.0
  11
-0.50000000000000
  21
-0.50000000000000
  31
0.0
   0
LINE
   5
8B
 100
AcDbEntity
   8
0
 370
-2
 100
AcDbLine
   6
BYBLOCK
  62
0
  10
0.0
  20
0.0
  30
0.0
  11
-1.0000000000000
  21
0.0
  31
0.0
   0
ENDBLK
   5
8C
 100
AcDbEntity
   8
0
 100
AcDbBlockEnd
   0
BLOCK
   5
8D
 100
AcDbEntity
   8
0
 100
AcDbBlockBegin
   2
_CLOSEDBLANK
  70
0
  10
0.0
  20
0.0
  30
0.0
   3
_CLOSEDBLANK
   0
LINE
   5
8E
 100
AcDbEntity
   8
0
 370
-2
 100
AcDbLine
   6
BYBLOCK
  62
0
  10
-1.0000000000000
  20
 0.16666666666667
  30
0.0
  11
0.0
  21
0.0
  31
0.0
   0
LINE
   5
8F
 100
AcDbEntity
   8
0
 370
-2
 100
AcDbLine
   6
BYBLOCK
  62
0
  10
0.0
  20
0.0
  30
0.0
  11
-1.0000000000000
  21
-0.16666666666667
  31
0.0
   0
LINE
   5
90
 100
AcDbEntity
   8
0
 370
-2
 100
AcDbLine
   6
BYBLOCK
  62
0
  10
-1.0000000000000
  20
 0.16666666666667
  30
0.0
  11
-1.0000000000000
  21
-0.16666666666667
  31
0.0
   0
ENDBLK
   5
91
 100
AcDbEntity
   8
0
 100
AcDbBlockEnd
   0
BLOCK
   5
92
 100
AcDbEntity
   8
0
 100
AcDbBlockBegin
   2
_DOT
  70
0
  10
0.0
  20
0.0
  30
0.0
   3
_DOT
   0
POLYLINE
   5
93
 100
AcDbEntity
   8
0
 370
-2
   6
BYBLOCK
  62
0
 100
AcDb2dPolyline
  66
1
  10
0.0
  20
0.0
  30
0.0
  70
1
  40
 0.50000000000000
  41
 0.50000000000000
   0
VERTEX
   5
94
 100
AcDbEntity
   8
0
   6
BYBLOCK
  62
0
 100
AcDbVertex
 100
AcDb2dVertex
  10
-0.25000000000000
  20
0.0
  30
0.0
  42
 1.0000000000000
  40
 0.50000000000000
  41
 0.50000000000000
   0
VERTEX
   5
95
 100
AcDbEntity
   8
0
   6
BYBLOCK
  62
0
 100
AcDbVertex
 100
AcDb2dVertex
  10
 0.25000000000000
  20
0.0
  30
0.0
  42
 1.0000000000000
  40
 0.50000000000000
  41
 0.50000000000000
   0
SEQEND
   5
96
 100
AcDbEntity
   8
0
   6
BYBLOCK
  62
0
   0
LINE
   5
97
 100
AcDbEntity
   8
0
 370
-2
 100
AcDbLine
   6
BYBLOCK
  62
0
  10
-0.50000000000000
  20
0.0
  30
0.0
  11
-1.0000000000000
  21
0.0
  31
0.0
   0
ENDBLK
   5
98
 100
AcDbEntity
   8
0
 100
AcDbBlockEnd
   0
BLOCK
   5
99
 100
AcDbEntity
   8
0
 100
AcDbBlockBegin
   2
_DOTSMALL
  70
0
  10
0.0
  20
0.0
  30
0.0
   3
_DOTSMALL
   0
POLYLINE
   5
9A
 100
AcDbEntity
   8
0
 370
-2
   6
BYBLOCK
  62
0
 100
AcDb2dPolyline
  66
1
  10
0.0
  20
0.0
  30
0.0
  70
1
  40
 0.50000000000000
  41
 0.50000000000000
   0
VERTEX
   5
9B
 100
AcDbEntity
   8
0
   6
BYBLOCK
  62
0
 100
AcDbVertex
 100
AcDb2dVertex
  10
-0.62500000000000E-1
  20
0.0
  30
0.0
  42
 1.0000000000000
  40
 0.50000000000000
  41
 0.50000000000000
   0
VERTEX
   5
9C
 100
AcDbEntity
   8
0
   6
BYBLOCK
  62
0
 100
AcDbVertex
 100
AcDb2dVertex
  10
 0.62500000000000E-1
  20
0.0
  30
0.0
  42
 1.0000000000000
  40
 0.50000000000000
  41
 0.50000000000000
   0
SEQEND
   5
9D
 100
AcDbEntity
   8
0
   6
BYBLOCK
  62
0
   0
ENDBLK
   5
9E
 100
AcDbEntity
   8
0
 100
AcDbBlockEnd
   0
BLOCK
   5
9F
 100
AcDbEntity
   8
0
 100
AcDbBlockBegin
   2
_DATUMBLANK
  70
0
  10
0.0
  20
0.0
  30
0.0
   3
_DATUMBLANK
   0
LINE
   5
A0
 100
AcDbEntity
   8
0
 370
-2
 100
AcDbLine
   6
BYBLOCK
  62
0
  10
0.0
  20
 0.57735027000000
  30
0.0
  11
-1.0000000000000
  21
0.0
  31
0.0
   0
LINE
   5
A1
 100
AcDbEntity
   8
0
 370
-2
 100
AcDbLine
   6
BYBLOCK
  62
0
  10
-1.0000000000000
  20
0.0
  30
0.0
  11
0.0
  21
-0.57735027000000
  31
0.0
   0
LINE
   5
A2
 100
AcDbEntity
   8
0
 370
-2
 100
AcDbLine
   6
BYBLOCK
  62
0
  10
0.0
  20
-0.57735027000000
  30
0.0
  11
0.0
  21
 0.57735027000000
  31
0.0
   0
ENDBLK
   5
A3
 100
AcDbEntity
   8
0
 100
AcDbBlockEnd
   0
BLOCK
   5
A4
 100
AcDbEntity
   8
0
 100
AcDbBlockBegin
   2
_DATUMFILLED
  70
0
  10
0.0
  20
0.0
  30
0.0
   3
_DATUMFILLED
   0
SOLID
   5
A5
 100
AcDbEntity
   8
0
 100
AcDbTrace
   6
BYBLOCK
  62
0
  10
0.0
  20
 0.57735027000000
  30
0.0
  11
-1.0000000000000
  21
0.0
  31
0.0
  12
0.0
  22
-0.57735027000000
  32
0.0
  13
0.0
  23
-0.57735027000000
  33
0.0
   0
ENDBLK
   5
A6
 100
AcDbEntity
   8
0
 100
AcDbBlockEnd
   0
BLOCK
   5
A7
 100
AcDbEntity
   8
0
 100
AcDbBlockBegin
   2
_ORIGIN
  70
0
  10
0.0
  20
0.0
  30
0.0
   3
_ORIGIN
   0
CIRCLE
   5
A8
 100
AcDbEntity
   8
0
 370
-2
 100
AcDbCircle
   6
BYBLOCK
  62
0
  10
0.0
  20
0.0
  30
0.0
  40
 0.50000000000000
   0
LINE
   5
A9
 100
AcDbEntity
   8
0
 370
-2
 100
AcDbLine
   6
BYBLOCK
  62
0
  10
0.0
  20
0.0
  30
0.0
  11
-1.0000000000000
  21
0.0
  31
0.0
   0
ENDBLK
   5
AA
 100
AcDbEntity
   8
0
 100
AcDbBlockEnd
   0
BLOCK
   5
AB
 100
AcDbEntity
   8
0
 100
AcDbBlockBegin
   2
_NONE
  70
0
  10
0.0
  20
0.0
  30
0.0
   3
_NONE
   0
CIRCLE
   5
AC
 100
AcDbEntity
   8
0
 370
-2
 100
AcDbCircle
   6
BYBLOCK
  62
0
  10
0.0
  20
0.0
  30
0.0
  40
 0.25000000000000
   0
ENDBLK
   5
AD
 100
AcDbEntity
   8
0
 100
AcDbBlockEnd
   0
BLOCK
   5
AE
 100
AcDbEntity
   8
0
 100
AcDbBlockBegin
   2
_DOTBLANK
  70
0
  10
0.0
  20
0.0
  30
0.0
   3
_DOTBLANK
   0
CIRCLE
   5
AF
 100
AcDbEntity
   8
0
 370
-2
 100
AcDbCircle
   6
BYBLOCK
  62
0
  10
0.0
  20
0.0
  30
0.0
  40
 0.50000000000000
   0
LINE
   5
B0
 100
AcDbEntity
   8
0
 370
-2
 100
AcDbLine
   6
BYBLOCK
  62
0
  10
-0.50000000000000
  20
0.0
  30
0.0
  11
-1.0000000000000
  21
0.0
  31
0.0
   0
ENDBLK
   5
B1
 100
AcDbEntity
   8
0
 100
AcDbBlockEnd
   0
BLOCK
   5
B2
 100
AcDbEntity
   8
0
 100
AcDbBlockBegin
   2
_INTEGRAL
  70
0
  10
0.0
  20
0.0
  30
0.0
   3
_INTEGRAL
   0
ARC
   5
B3
 100
AcDbEntity
   8
0
 370
-2
   6
BYBLOCK
  62
0
 100
AcDbCircle
  10
 0.44488800000000
  20
-0.91335000000000E-1
  30
0.0
  40
 0.45416700000000
 100
AcDbArc
  50
 102.00000000000
  51
 168.00000000000
   0
ARC
   5
B4
 100
AcDbEntity
   8
0
 370
-2
   6
BYBLOCK
  62
0
 100
AcDbCircle
  10
-0.44488800000000
  20
 0.91335000000000E-1
  30
0.0
  40
 0.45416700000000
 100
AcDbArc
  50
 282.00000000000
  51
 348.00000000000
   0
ENDBLK
   5
B5
 100
AcDbEntity
   8
0
 100
AcDbBlockEnd
   0
BLOCK
   5
B6
 100
AcDbEntity
   8
0
 100
AcDbBlockBegin
   2
BLOCK001
  70
64
  10
0.0
  20
0.0
  30
0.0
   3
BLOCK001
   0
ARC
   5
B7
 100
AcDbEntity
   8
LEVEL001
 370
13
   6
CONTINUOUS
  62
5
 100
AcDbCircle
  10
 1580.6477960529
  20
 4089.9014112984
  30
0.0
  40
 5.5826340442110
 100
AcDbArc
  50
 274.79665758012
  51
 36.910963374514
   0
LINE
   5
B8
 100
AcDbEntity
   8
LEVEL001
 370
13
 100
AcDbLine
   6
CONTINUOUS
  62
5
  10
 1585.6864525440
  20
 3996.2499528146
  30
0.0
  11
 1570.3541165752
  21
 4006.3506605214
  31
0.0
   0
LINE
   5
B9
 100
AcDbEntity
   8
LEVEL001
 370
13
 100
AcDbLine
   6
CONTINUOUS
  62
5
  10
 1570.3541165752
  20
 4006.3506605214
  30
0.0
  11
 1562.4631866346
  21
 3996.8200211570
  31
0.0
   0
LINE
   5
BA
 100
AcDbEntity
   8
LEVEL001
 370
13
 100
AcDbLine
   6
CONTINUOUS
  62
5
  10
 1562.4631866346
  20
 3996.8200211570
  30
0.0
  11
 1543.9139928515
  21
 3996.8200211570
  31
0.0
   0
LINE
   5
BB
 100
AcDbEntity
   8
LEVEL001
 370
13
 100
AcDbLine
   6
CONTINUOUS
  62
5
  10
 1543.9139928515
  20
 3996.8200211570
  30
0.0
  11
 1543.9139928515
  21
 4041.7064944286
  31
0.0
   0
LINE
   5
BC
 100
AcDbEntity
   8
LEVEL001
 370
13
 100
AcDbLine
   6
CONTINUOUS
  62
5
  10
 1543.9139928515
  20
 4041.7064944286
  30
0.0
  11
 1577.4253443918
  21
 4041.7064944286
  31
0.0
   0
ARC
   5
BD
 100
AcDbEntity
   8
LEVEL001
 370
13
   6
CONTINUOUS
  62
5
 100
AcDbCircle
  10
 1582.2323421032
  20
 3991.0062456534
  30
0.0
  40
 6.2791196620726
 100
AcDbArc
  50
 269.99562647882
  51
 56.626490037596
   0
ARC
   5
BE
 100
AcDbEntity
   8
LEVEL001
 370
13
   6
CONTINUOUS
  62
5
 100
AcDbCircle
  10
 1586.0047884552
  20
 3884.5377280170
  30
0.0
  40
 4.7515310421130
 100
AcDbArc
  50
 274.70409570321
  51
 59.112293256555
   0
LINE
   5
BF
 100
AcDbEntity
   8
LEVEL001
 370
13
 100
AcDbLine
   6
CONTINUOUS
  62
5
  10
 1588.4440208212
  20
 3888.6153735028
  30
0.0
  11
 1570.5100613948
  21
 3899.0685592264
  31
0.0
   0
LINE
   5
C0
 100
AcDbEntity
   8
LEVEL001
 370
13
 100
AcDbLine
   6
CONTINUOUS
  62
5
  10
 1570.5100613948
  20
 3899.0685592264
  30
0.0
  11
 1563.9512236996
  21
 3890.3576219860
  31
0.0
   0
LINE
   5
C1
 100
AcDbEntity
   8
LEVEL001
 370
13
 100
AcDbLine
   6
CONTINUOUS
  62
5
  10
 1563.9512236996
  20
 3890.3576219860
  30
0.0
  11
 1548.2023228018
  21
 3890.3576219860
  31
0.0
   0
LINE
   5
C2
 100
AcDbEntity
   8
LEVEL001
 370
13
 100
AcDbLine
   6
CONTINUOUS
  62
5
  10
 1548.2023228018
  20
 3890.3576219860
  30
0.0
  11
 1557.2898469450
  21
 3898.5561691050
  31
0.0
   0
LINE
   5
C3
 100
AcDbEntity
   8
LEVEL001
 370
13
 100
AcDbLine
   6
CONTINUOUS
  62
5
  10
 1557.2898469450
  20
 3898.5561691050
  30
0.0
  11
 1561.0816559140
  21
 3899.0685592264
  31
0.0
   0
LINE
   5
C4
 100
AcDbEntity
   8
LEVEL001
 370
13
 100
AcDbLine
   6
CONTINUOUS
  62
5
  10
 1561.0816559140
  20
 3899.0685592264
  30
0.0
  11
 1562.7213653378
  21
 3901.4254317148
  31
0.0
   0
LINE
   5
C5
 100
AcDbEntity
   8
LEVEL001
 370
13
 100
AcDbLine
   6
CONTINUOUS
  62
5
  10
 1562.7213653378
  20
 3901.4254317148
  30
0.0
  11
 1560.0568756711
  21
 3906.0372479836
  31
0.0
   0
LINE
   5
C6
 100
AcDbEntity
   8
LEVEL001
 370
13
 100
AcDbLine
   6
CONTINUOUS
  62
5
  10
 1560.0568756711
  20
 3906.0372479836
  30
0.0
  11
 1576.5562037927
  21
 3906.0372479836
  31
0.0
   0
LINE
   5
C7
 100
AcDbEntity
   8
LEVEL001
 370
13
 100
AcDbLine
   6
CONTINUOUS
  62
5
  10
 1579.7330835808
  20
 3915.2604227576
  30
0.0
  11
 1561.0816559140
  21
 3925.5083777744
  31
0.0
   0
LINE
   5
C8
 100
AcDbEntity
   8
LEVEL001
 370
13
 100
AcDbLine
   6
CONTINUOUS
  62
5
  10
 1561.0816559140
  20
 3925.5083777744
  30
0.0
  11
 1554.9326692809
  21
 3915.9777384100
  31
0.0
   0
LINE
   5
C9
 100
AcDbEntity
   8
LEVEL001
 370
13
 100
AcDbLine
   6
CONTINUOUS
  62
5
  10
 1554.9326692809
  20
 3915.9777384100
  30
0.0
  11
 1533.5142128880
  21
 3915.9777384100
  31
0.0
   0
LINE
   5
CA
 100
AcDbEntity
   8
LEVEL001
 370
13
 100
AcDbLine
   6
CONTINUOUS
  62
5
  10
 1533.5142128880
  20
 3915.9777384100
  30
0.0
  11
 1533.5142128880
  21
 3922.3314979864
  31
0.0
   0
LINE
   5
CB
 100
AcDbEntity
   8
LEVEL001
 370
13
 100
AcDbLine
   6
CONTINUOUS
  62
5
  10
 1533.5142128880
  20
 3922.3314979864
  30
0.0
  11
 1535.6388466137
  21
 3926.0294654054
  31
0.0
   0
LINE
   5
CC
 100
AcDbEntity
   8
LEVEL001
 370
13
 100
AcDbLine
   6
CONTINUOUS
  62
5
  10
 1535.6388466137
  20
 3926.0294654054
  30
0.0
  11
 1534.8188393139
  21
 3927.7715613008
  31
0.0
   0
LINE
   5
CD
 100
AcDbEntity
   8
LEVEL001
 370
13
 100
AcDbLine
   6
CONTINUOUS
  62
5
  10
 1534.8188393139
  20
 3927.7715613008
  30
0.0
  11
 1510.0461960092
  21
 3928.3779455600
  31
0.0
   0
LINE
   5
CE
 100
AcDbEntity
   8
LEVEL001
 370
13
 100
AcDbLine
   6
CONTINUOUS
  62
5
  10
 1510.0461960092
  20
 3928.3779455600
  30
0.0
  11
 1510.0461960092
  21
 3915.9777384100
  31
0.0
   0
LINE
   5
CF
 100
AcDbEntity
   8
LEVEL001
 370
13
 100
AcDbLine
   6
CONTINUOUS
  62
5
  10
 1510.0461960092
  20
 3915.9777384100
  30
0.0
  11
 1460.5839172099
  21
 3915.9777384100
  31
0.0
   0
LINE
   5
D0
 100
AcDbEntity
   8
LEVEL001
 370
13
 100
AcDbLine
   6
CONTINUOUS
  62
5
  10
 1460.5839172099
  20
 3915.9777384100
  30
0.0
  11
 1465.0571836781
  21
 3906.0372479836
  31
0.0
   0
LINE
   5
D1
 100
AcDbEntity
   8
LEVEL001
 370
13
 100
AcDbLine
   6
CONTINUOUS
  62
5
  10
 1465.0571836781
  20
 3906.0372479836
  30
0.0
  11
 1482.6841362778
  21
 3906.0372479836
  31
0.0
   0
LINE
   5
D2
 100
AcDbEntity
   8
LEVEL001
 370
13
 100
AcDbLine
   6
CONTINUOUS
  62
5
  10
 1482.6841362778
  20
 3906.0372479836
  30
0.0
  11
 1492.6246267042
  21
 3890.3576219860
  31
0.0
   0
LINE
   5
D3
 100
AcDbEntity
   8
LEVEL001
 370
13
 100
AcDbLine
   6
CONTINUOUS
  62
5
  10
 1492.6246267042
  20
 3890.3576219860
  30
0.0
  11
 1457.9093567427
  21
 3890.3576219860
  31
0.0
   0
LINE
   5
D4
 100
AcDbEntity
   8
LEVEL001
 370
13
 100
AcDbLine
   6
CONTINUOUS
  62
5
  10
 1457.9093567427
  20
 3890.3576219860
  30
0.0
  11
 1462.8098692920
  21
 3879.8022023788
  31
0.0
   0
LINE
   5
D5
 100
AcDbEntity
   8
LEVEL001
 370
13
 100
AcDbLine
   6
CONTINUOUS
  62
5
  10
 1462.8098692920
  20
 3879.8022023788
  30
0.0
  11
 1586.3944603354
  21
 3879.8022023788
  31
0.0
   0
ARC
   5
D6
 100
AcDbEntity
   8
LEVEL001
 370
13
   6
CONTINUOUS
  62
5
 100
AcDbCircle
  10
 1578.9986042033
  20
 3808.0078122814
  30
0.0
  40
 8.9390233475260
 100
AcDbArc
  50
 229.60790187558
  51
 6.7933956220481
   0
ARC
   5
D7
 100
AcDbEntity
   8
LEVEL001
 370
13
   6
CONTINUOUS
  62
5
 100
AcDbCircle
  10
 1563.6898626974
  20
 3796.9764766920
  30
0.0
  40
 27.037970213950
 100
AcDbArc
  50
 26.557897354816
  51
 98.092162593094
   0
ARC
   5
D8
 100
AcDbEntity
   8
LEVEL001
 370
13
   6
CONTINUOUS
  62
5
 100
AcDbCircle
  10
 1471.1617729253
  20
 3792.7182833698
  30
0.0
  40
 10.212310248246
 100
AcDbArc
  50
 146.66668479801
  51
 331.70163256431
   0
ARC
   5
D9
 100
AcDbEntity
   8
LEVEL001
 370
13
   6
CONTINUOUS
  62
5
 100
AcDbCircle
  10
 1577.0081623456
  20
 4046.7524548354
  30
0.0
  40
 5.0631766002424
 100
AcDbArc
  50
 274.72626205423
  51
 43.105625043075
   0
LINE
   5
DA
 100
AcDbEntity
   8
LEVEL001
 370
13
 100
AcDbLine
   6
CONTINUOUS
  62
5
  10
 1580.7047632394
  20
 4050.2123535502
  30
0.0
  11
 1564.3076690015
  21
 4063.2273372932
  31
0.0
   0
LINE
   5
DB
 100
AcDbEntity
   8
LEVEL001
 370
13
 100
AcDbLine
   6
CONTINUOUS
  62
5
  10
 1564.3076690015
  20
 4063.2273372932
  30
0.0
  11
 1556.7240510634
  21
 4053.7990844002
  31
0.0
   0
LINE
   5
DC
 100
AcDbEntity
   8
LEVEL001
 370
13
 100
AcDbLine
   6
CONTINUOUS
  62
5
  10
 1556.7240510634
  20
 4053.7990844002
  30
0.0
  11
 1543.9139928515
  21
 4053.7990844002
  31
0.0
   0
LINE
   5
DD
 100
AcDbEntity
   8
LEVEL001
 370
13
 100
AcDbLine
   6
CONTINUOUS
  62
5
  10
 1543.9139928515
  20
 4053.7990844002
  30
0.0
  11
 1543.9139928515
  21
 4084.3383290956
  31
0.0
   0
LINE
   5
DE
 100
AcDbEntity
   8
LEVEL001
 370
13
 100
AcDbLine
   6
CONTINUOUS
  62
5
  10
 1543.9139928515
  20
 4084.3383290956
  30
0.0
  11
 1581.1146143014
  21
 4084.3383290956
  31
0.0
   0
LINE
   5
DF
 100
AcDbEntity
   8
LEVEL001
 370
13
 100
AcDbLine
   6
CONTINUOUS
  62
5
  10
 1585.1115013893
  20
 4093.2541918670
  30
0.0
  11
 1571.2763577587
  21
 4105.3467818386
  31
0.0
   0
LINE
   5
E0
 100
AcDbEntity
   8
LEVEL001
 370
13
 100
AcDbLine
   6
CONTINUOUS
  62
5
  10
 1571.2763577587
  20
 4105.3467818386
  30
0.0
  11
 1559.3888459059
  21
 4095.3037523528
  31
0.0
   0
LINE
   5
E1
 100
AcDbEntity
   8
LEVEL001
 370
13
 100
AcDbLine
   6
CONTINUOUS
  62
5
  10
 1559.3888459059
  20
 4095.3037523528
  30
0.0
  11
 1543.9139928515
  21
 4095.3037523528
  31
0.0
   0
LINE
   5
E2
 100
AcDbEntity
   8
LEVEL001
 370
13
 100
AcDbLine
   6
CONTINUOUS
  62
5
  10
 1543.9139928515
  20
 4095.3037523528
  30
0.0
  11
 1543.9139928515
  21
 4110.7783002314
  31
0.0
   0
LINE
   5
E3
 100
AcDbEntity
   8
LEVEL001
 370
13
 100
AcDbLine
   6
CONTINUOUS
  62
5
  10
 1543.9139928515
  20
 4110.7783002314
  30
0.0
  11
 1547.5010288774
  21
 4112.6229351862
  31
0.0
   0
LINE
   5
E4
 100
AcDbEntity
   8
LEVEL001
 370
13
 100
AcDbLine
   6
CONTINUOUS
  62
5
  10
 1547.5010288774
  20
 4112.6229351862
  30
0.0
  11
 1547.8083408799
  21
 4115.2874248530
  31
0.0
   0
LINE
   5
E5
 100
AcDbEntity
   8
LEVEL001
 370
13
 100
AcDbLine
   6
CONTINUOUS
  62
5
  10
 1547.8083408799
  20
 4115.2874248530
  30
0.0
  11
 1518.9088056084
  21
 4119.7965494744
  31
0.0
   0
LINE
   5
E6
 100
AcDbEntity
   8
LEVEL001
 370
13
 100
AcDbLine
   6
CONTINUOUS
  62
5
  10
 1518.9088056084
  20
 4119.7965494744
  30
0.0
  11
 1518.9088056084
  21
 4095.3037523528
  31
0.0
   0
LINE
   5
E7
 100
AcDbEntity
   8
LEVEL001
 370
13
 100
AcDbLine
   6
CONTINUOUS
  62
5
  10
 1518.9088056084
  20
 4095.3037523528
  30
0.0
  11
 1489.4968802154
  21
 4095.3037523528
  31
0.0
   0
LINE
   5
E8
 100
AcDbEntity
   8
LEVEL001
 370
13
 100
AcDbLine
   6
CONTINUOUS
  62
5
  10
 1489.4968802154
  20
 4095.3037523528
  30
0.0
  11
 1493.9036183653
  21
 4084.3383290956
  31
0.0
   0
LINE
   5
E9
 100
AcDbEntity
   8
LEVEL001
 370
13
 100
AcDbLine
   6
CONTINUOUS
  62
5
  10
 1493.9036183653
  20
 4084.3383290956
  30
0.0
  11
 1518.9088056084
  21
 4084.3383290956
  31
0.0
   0
LINE
   5
EA
 100
AcDbEntity
   8
LEVEL001
 370
13
 100
AcDbLine
   6
CONTINUOUS
  62
5
  10
 1518.9088056084
  20
 4084.3383290956
  30
0.0
  11
 1518.9088056084
  21
 4053.7990844002
  31
0.0
   0
LINE
   5
EB
 100
AcDbEntity
   8
LEVEL001
 370
13
 100
AcDbLine
   6
CONTINUOUS
  62
5
  10
 1518.9088056084
  20
 4053.7990844002
  30
0.0
  11
 1491.1365896392
  21
 4053.7990844002
  31
0.0
   0
LINE
   5
EC
 100
AcDbEntity
   8
LEVEL001
 370
13
 100
AcDbLine
   6
CONTINUOUS
  62
5
  10
 1491.1365896392
  20
 4053.7990844002
  30
0.0
  11
 1496.0557179106
  21
 4041.7064944286
  31
0.0
   0
LINE
   5
ED
 100
AcDbEntity
   8
LEVEL001
 370
13
 100
AcDbLine
   6
CONTINUOUS
  62
5
  10
 1496.0557179106
  20
 4041.7064944286
  30
0.0
  11
 1518.9088056084
  21
 4041.7064944286
  31
0.0
   0
LINE
   5
EE
 100
AcDbEntity
   8
LEVEL001
 370
13
 100
AcDbLine
   6
CONTINUOUS
  62
5
  10
 1518.9088056084
  20
 4041.7064944286
  30
0.0
  11
 1518.9088056084
  21
 3996.8200211570
  31
0.0
   0
LINE
   5
EF
 100
AcDbEntity
   8
LEVEL001
 370
13
 100
AcDbLine
   6
CONTINUOUS
  62
5
  10
 1518.9088056084
  20
 3996.8200211570
  30
0.0
  11
 1486.4225394867
  21
 3996.8200211570
  31
0.0
   0
LINE
   5
F0
 100
AcDbEntity
   8
LEVEL001
 370
13
 100
AcDbLine
   6
CONTINUOUS
  62
5
  10
 1486.4225394867
  20
 3996.8200211570
  30
0.0
  11
 1491.8540578795
  21
 3984.7271260096
  31
0.0
   0
LINE
   5
F1
 100
AcDbEntity
   8
LEVEL001
 370
13
 100
AcDbLine
   6
CONTINUOUS
  62
5
  10
 1491.8540578795
  20
 3984.7271260096
  30
0.0
  11
 1582.2318628033
  21
 3984.7271260096
  31
0.0
   0
ARC
   5
F2
 100
AcDbEntity
   8
LEVEL001
 370
13
   6
CONTINUOUS
  62
5
 100
AcDbCircle
  10
 1576.5635910859
  20
 3911.1934216086
  30
0.0
  40
 5.1561789168066
 100
AcDbArc
  50
 269.91791191264
  51
 52.070025543617
   0
LINE
   5
F3
 100
AcDbEntity
   8
LEVEL001
 370
13
 100
AcDbLine
   6
CONTINUOUS
  62
5
  10
 1476.1570368630
  20
 3820.7732734740
  30
0.0
  11
 1475.6446467415
  21
 3815.6493722594
  31
0.0
   0
LINE
   5
F4
 100
AcDbEntity
   8
LEVEL001
 370
13
 100
AcDbLine
   6
CONTINUOUS
  62
5
  10
 1475.6446467415
  20
 3815.6493722594
  30
0.0
  11
 1473.6973201394
  21
 3812.0624888214
  31
0.0
   0
LINE
   5
F5
 100
AcDbEntity
   8
LEVEL001
 370
13
 100
AcDbLine
   6
CONTINUOUS
  62
5
  10
 1473.6973201394
  20
 3812.0624888214
  30
0.0
  11
 1462.6295104106
  21
 3798.3300368380
  31
0.0
   0
LINE
   5
F6
 100
AcDbEntity
   8
LEVEL001
 370
13
 100
AcDbLine
   6
CONTINUOUS
  62
5
  10
 1452.6041811196
  20
 4112.1105450648
  30
0.0
  11
 1467.8733457036
  21
 4109.8559064602
  31
0.0
   0
ARC
   5
F7
 100
AcDbEntity
   8
LEVEL001
 370
13
   6
CONTINUOUS
  62
5
 100
AcDbCircle
  10
 1466.4906338674
  20
 4089.3227005074
  30
0.0
  40
 20.579709393390
 100
AcDbArc
  50
 10.432218603622
  51
 86.147502468977
   0
ARC
   5
F8
 100
AcDbEntity
   8
LEVEL001
 370
13
   6
CONTINUOUS
  62
5
 100
AcDbCircle
  10
 1472.8462957720
  20
 4092.7470558216
  30
0.0
  40
 13.887146297480
 100
AcDbArc
  50
 284.73811645762
  51
 1.2463330418983
   0
LINE
   5
F9
 100
AcDbEntity
   8
LEVEL001
 370
13
 100
AcDbLine
   6
CONTINUOUS
  62
5
  10
 1476.3792048251
  20
 4079.3168143528
  30
0.0
  11
 1452.6041811196
  21
 4112.1105450648
  31
0.0
   0
ARC
   5
FA
 100
AcDbEntity
   8
LEVEL001
 370
13
   6
CONTINUOUS
  62
5
 100
AcDbCircle
  10
 1460.1513911064
  20
 4052.5055466210
  30
0.0
  40
 20.228108756896
 100
AcDbArc
  50
 1.0517504590301
  51
 78.795792274203
   0
ARC
   5
FB
 100
AcDbEntity
   8
LEVEL001
 370
13
   6
CONTINUOUS
  62
5
 100
AcDbCircle
  10
 1465.4078216118
  20
 4054.6553325208
  30
0.0
  40
 15.073557642890
 100
AcDbArc
  50
 288.65956808358
  51
 353.22403827745
   0
LINE
   5
FC
 100
AcDbEntity
   8
LEVEL001
 370
13
 100
AcDbLine
   6
CONTINUOUS
  62
5
  10
 1454.9610536079
  20
 4026.3343330216
  30
0.0
  11
 1461.9297423651
  21
 3987.4941547358
  31
0.0
   0
ARC
   5
FD
 100
AcDbEntity
   8
LEVEL001
 370
13
   6
CONTINUOUS
  62
5
 100
AcDbCircle
  10
 1471.9121596867
  20
 3991.1260999222
  30
0.0
  40
 10.622602384609
 100
AcDbArc
  50
 199.99311911328
  51
 1.9679733411079
   0
LINE
   5
FE
 100
AcDbEntity
   8
LEVEL001
 370
13
 100
AcDbLine
   6
CONTINUOUS
  62
5
  10
 1482.5284966340
  20
 3991.4908892358
  30
0.0
  11
 1479.3513116701
  21
 4008.6051465382
  31
0.0
   0
LINE
   5
FF
 100
AcDbEntity
   8
LEVEL001
 370
13
 100
AcDbLine
   6
CONTINUOUS
  62
5
  10
 1479.3513116701
  20
 4008.6051465382
  30
0.0
  11
 1491.6489797606
  21
 4068.0439265050
  31
0.0
   0
LINE
   5
100
 100
AcDbEntity
   8
LEVEL001
 370
13
 100
AcDbLine
   6
CONTINUOUS
  62
5
  10
 1491.6489797606
  20
 4068.0439265050
  30
0.0
  11
 1468.7958920628
  21
 4018.1359384904
  31
0.0
   0
LINE
   5
101
 100
AcDbEntity
   8
LEVEL001
 370
13
 100
AcDbLine
   6
CONTINUOUS
  62
5
  10
 1468.7958920628
  20
 4018.1359384904
  30
0.0
  11
 1454.9610536079
  21
 4026.3343330216
  31
0.0
   0
ARC
   5
102
 100
AcDbEntity
   8
LEVEL001
 370
13
   6
CONTINUOUS
  62
5
 100
AcDbCircle
  10
 1492.8454652576
  20
 3884.1806693660
  30
0.0
  40
 22.293228438698
 100
AcDbArc
  50
 35.161132790353
  51
 78.641284698071
   0
ARC
   5
103
 100
AcDbEntity
   8
LEVEL001
 370
13
   6
CONTINUOUS
  62
5
 100
AcDbCircle
  10
 1504.7255062529
  20
 3895.2373813012
  30
0.0
  40
 6.5907971086860
 100
AcDbArc
  50
 312.23536417709
  51
 15.681870099026
   0
LINE
   5
104
 100
AcDbEntity
   8
LEVEL001
 370
13
 100
AcDbLine
   6
CONTINUOUS
  62
5
  10
 1509.1556931061
  20
 3890.3576219860
  30
0.0
  11
 1528.0826944951
  21
 3890.3576219860
  31
0.0
   0
LINE
   5
105
 100
AcDbEntity
   8
LEVEL001
 370
13
 100
AcDbLine
   6
CONTINUOUS
  62
5
  10
 1528.0826944951
  20
 3890.3576219860
  30
0.0
  11
 1538.5358802188
  21
 3906.0372479836
  31
0.0
   0
LINE
   5
106
 100
AcDbEntity
   8
LEVEL001
 370
13
 100
AcDbLine
   6
CONTINUOUS
  62
5
  10
 1538.5358802188
  20
 3906.0372479836
  30
0.0
  11
 1497.2361377973
  21
 3906.0372479836
  31
0.0
   0
ARC
   5
107
 100
AcDbEntity
   8
LEVEL001
 370
13
   6
CONTINUOUS
  62
5
 100
AcDbCircle
  10
 1482.1838581456
  20
 3855.7716856580
  30
0.0
  40
 31.206602120202
 100
AcDbArc
  50
 246.86700487446
  51
 289.54634462665
   0
LINE
   5
108
 100
AcDbEntity
   8
LEVEL001
 370
13
 100
AcDbLine
   6
CONTINUOUS
  62
5
  10
 1492.6246267042
  20
 3855.7192563192
  30
0.0
  11
 1492.6246267042
  21
 3862.1754023670
  31
0.0
   0
LINE
   5
109
 100
AcDbEntity
   8
LEVEL001
 370
13
 100
AcDbLine
   6
CONTINUOUS
  62
5
  10
 1492.6246267042
  20
 3862.1754023670
  30
0.0
  11
 1549.1938388855
  21
 3862.1754023670
  31
0.0
   0
LINE
   5
10A
 100
AcDbEntity
   8
LEVEL001
 370
13
 100
AcDbLine
   6
CONTINUOUS
  62
5
  10
 1549.1938388855
  20
 3862.1754023670
  30
0.0
  11
 1549.1938388855
  21
 3855.7192563192
  31
0.0
   0
LINE
   5
10B
 100
AcDbEntity
   8
LEVEL001
 370
13
 100
AcDbLine
   6
CONTINUOUS
  62
5
  10
 1549.1938388855
  20
 3855.7192563192
  30
0.0
  11
 1492.6246267042
  21
 3855.7192563192
  31
0.0
   0
LINE
   5
10C
 100
AcDbEntity
   8
LEVEL001
 370
13
 100
AcDbLine
   6
CONTINUOUS
  62
5
  10
 1575.7365016687
  20
 3869.1440911242
  30
0.0
  11
 1555.7526765807
  21
 3878.1624929550
  31
0.0
   0
LINE
   5
10D
 100
AcDbEntity
   8
LEVEL001
 370
13
 100
AcDbLine
   6
CONTINUOUS
  62
5
  10
 1555.7526765807
  20
 3878.1624929550
  30
0.0
  11
 1549.1938388855
  21
 3870.4763359574
  31
0.0
   0
LINE
   5
10E
 100
AcDbEntity
   8
LEVEL001
 370
13
 100
AcDbLine
   6
CONTINUOUS
  62
5
  10
 1549.1938388855
  20
 3870.4763359574
  30
0.0
  11
 1492.6246267042
  21
 3870.4763359574
  31
0.0
   0
LINE
   5
10F
 100
AcDbEntity
   8
LEVEL001
 370
13
 100
AcDbLine
   6
CONTINUOUS
  62
5
  10
 1492.6246267042
  20
 3870.4763359574
  30
0.0
  11
 1492.6246267042
  21
 3872.2185844408
  31
0.0
   0
LINE
   5
110
 100
AcDbEntity
   8
LEVEL001
 370
13
 100
AcDbLine
   6
CONTINUOUS
  62
5
  10
 1492.6246267042
  20
 3872.2185844408
  30
0.0
  11
 1469.9766171253
  21
 3876.8300955338
  31
0.0
   0
LINE
   5
111
 100
AcDbEntity
   8
LEVEL001
 370
13
 100
AcDbLine
   6
CONTINUOUS
  62
5
  10
 1469.9766171253
  20
 3876.8300955338
  30
0.0
  11
 1469.9238217167
  21
 3827.0742376416
  31
0.0
   0
LINE
   5
112
 100
AcDbEntity
   8
LEVEL001
 370
13
 100
AcDbLine
   6
CONTINUOUS
  62
5
  10
 1492.6246267042
  20
 3839.7321657312
  30
0.0
  11
 1492.6246267042
  21
 3846.5948059076
  31
0.0
   0
LINE
   5
113
 100
AcDbEntity
   8
LEVEL001
 370
13
 100
AcDbLine
   6
CONTINUOUS
  62
5
  10
 1492.6246267042
  20
 3846.5948059076
  30
0.0
  11
 1549.1938388855
  21
 3846.5948059076
  31
0.0
   0
LINE
   5
114
 100
AcDbEntity
   8
LEVEL001
 370
13
 100
AcDbLine
   6
CONTINUOUS
  62
5
  10
 1549.1938388855
  20
 3846.5948059076
  30
0.0
  11
 1549.1938388855
  21
 3839.7321657312
  31
0.0
   0
LINE
   5
115
 100
AcDbEntity
   8
LEVEL001
 370
13
 100
AcDbLine
   6
CONTINUOUS
  62
5
  10
 1549.1938388855
  20
 3839.7321657312
  30
0.0
  11
 1492.6246267042
  21
 3839.7321657312
  31
0.0
   0
ARC
   5
116
 100
AcDbEntity
   8
LEVEL001
 370
13
   6
CONTINUOUS
  62
5
 100
AcDbCircle
  10
 1572.2375261442
  20
 3866.5319983194
  30
0.0
  40
 4.3664469013676
 100
AcDbArc
  50
 266.15058922022
  51
 36.742470507437
   0
LINE
   5
117
 100
AcDbEntity
   8
LEVEL001
 370
13
 100
AcDbLine
   6
CONTINUOUS
  62
5
  10
 1492.6246267042
  20
 3826.3634832682
  30
0.0
  11
 1492.6246267042
  21
 3831.1239201380
  31
0.0
   0
LINE
   5
118
 100
AcDbEntity
   8
LEVEL001
 370
13
 100
AcDbLine
   6
CONTINUOUS
  62
5
  10
 1492.6246267042
  20
 3831.1239201380
  30
0.0
  11
 1549.1938388855
  21
 3831.1239201380
  31
0.0
   0
LINE
   5
119
 100
AcDbEntity
   8
LEVEL001
 370
13
 100
AcDbLine
   6
CONTINUOUS
  62
5
  10
 1549.1938388855
  20
 3831.1239201380
  30
0.0
  11
 1549.1938388855
  21
 3826.2047918668
  31
0.0
   0
LINE
   5
11A
 100
AcDbEntity
   8
LEVEL001
 370
13
 100
AcDbLine
   6
CONTINUOUS
  62
5
  10
 1549.1938388855
  20
 3826.2047918668
  30
0.0
  11
 1566.1033232449
  21
 3826.2047918668
  31
0.0
   0
LINE
   5
11B
 100
AcDbEntity
   8
LEVEL001
 370
13
 100
AcDbLine
   6
CONTINUOUS
  62
5
  10
 1566.1033232449
  20
 3826.2047918668
  30
0.0
  11
 1569.7922879787
  21
 3828.2543523526
  31
0.0
   0
LINE
   5
11C
 100
AcDbEntity
   8
LEVEL001
 370
13
 100
AcDbLine
   6
CONTINUOUS
  62
5
  10
 1569.7922879787
  20
 3828.2543523526
  30
0.0
  11
 1571.9443875239
  21
 3832.6610905024
  31
0.0
   0
LINE
   5
11D
 100
AcDbEntity
   8
LEVEL001
 370
13
 100
AcDbLine
   6
CONTINUOUS
  62
5
  10
 1571.9443875239
  20
 3832.6610905024
  30
0.0
  11
 1571.9376736569
  21
 3862.1755549548
  31
0.0
   0
ARC
   5
11E
 100
AcDbEntity
   8
LEVEL001
 370
13
   6
CONTINUOUS
  62
5
 100
AcDbCircle
  10
 1457.1736887451
  20
 3801.7760702654
  30
0.0
  40
 26.856307183018
 100
AcDbArc
  50
 328.83298190805
  51
 45.020901175858
   0
LINE
   5
11F
 100
AcDbEntity
   8
LEVEL001
 370
13
 100
AcDbLine
   6
CONTINUOUS
  62
5
  10
 1559.7813019489
  20
 3823.5403022000
  30
0.0
  11
 1573.2059841660
  21
 3801.1996046236
  31
0.0
   0
ARC
   5
120
 100
AcDbEntity
   8
LEVEL001
 370
13
   6
CONTINUOUS
  62
5
 100
AcDbCircle
  10
 1565.5126213034
  20
 3791.0239339026
  30
0.0
  40
 8.7884995702356
 100
AcDbArc
  50
 268.04310640375
  51
 95.976315924693
   0
ARC
   5
121
 100
AcDbEntity
   8
LEVEL001
 370
13
   6
CONTINUOUS
  62
5
 100
AcDbCircle
  10
 1498.3116803341
  20
 3788.8501509700
  30
0.0
  40
 6.6095999893666
 100
AcDbArc
  50
 179.99949488507
  51
 269.90651577931
   0
LINE
   5
122
 100
AcDbEntity
   8
LEVEL001
 370
13
 100
AcDbLine
   6
CONTINUOUS
  62
5
  10
 1498.3008960663
  20
 3782.2405597786
  30
0.0
  11
 1565.2125151659
  21
 3782.2405597786
  31
0.0
   0
LINE
   5
123
 100
AcDbEntity
   8
LEVEL001
 370
13
 100
AcDbLine
   6
CONTINUOUS
  62
5
  10
 1564.5975859850
  20
 3799.7646681430
  30
0.0
  11
 1557.2190461659
  21
 3818.2113228666
  31
0.0
   0
LINE
   5
124
 100
AcDbEntity
   8
LEVEL001
 370
13
 100
AcDbLine
   6
CONTINUOUS
  62
5
  10
 1557.2190461659
  20
 3818.2113228666
  30
0.0
  11
 1557.0139680470
  21
 3807.9632152620
  31
0.0
   0
LINE
   5
125
 100
AcDbEntity
   8
LEVEL001
 370
13
 100
AcDbLine
   6
CONTINUOUS
  62
5
  10
 1557.0139680470
  20
 3807.9632152620
  30
0.0
  11
 1554.3125521119
  21
 3799.7646681430
  31
0.0
   0
LINE
   5
126
 100
AcDbEntity
   8
LEVEL001
 370
13
 100
AcDbLine
   6
CONTINUOUS
  62
5
  10
 1554.3125521119
  20
 3799.7646681430
  30
0.0
  11
 1514.4529341592
  21
 3799.7646681430
  31
0.0
   0
LINE
   5
127
 100
AcDbEntity
   8
LEVEL001
 370
13
 100
AcDbLine
   6
CONTINUOUS
  62
5
  10
 1514.4529341592
  20
 3799.7646681430
  30
0.0
  11
 1514.4529341592
  21
 3815.6493722594
  31
0.0
   0
LINE
   5
128
 100
AcDbEntity
   8
LEVEL001
 370
13
 100
AcDbLine
   6
CONTINUOUS
  62
5
  10
 1514.4529341592
  20
 3815.6493722594
  30
0.0
  11
 1516.5024946450
  21
 3818.6211739286
  31
0.0
   0
LINE
   5
129
 100
AcDbEntity
   8
LEVEL001
 370
13
 100
AcDbLine
   6
CONTINUOUS
  62
5
  10
 1516.5024946450
  20
 3818.6211739286
  30
0.0
  11
 1514.6580122780
  21
 3820.7732734740
  31
0.0
   0
LINE
   5
12A
 100
AcDbEntity
   8
LEVEL001
 370
13
 100
AcDbLine
   6
CONTINUOUS
  62
5
  10
 1514.6580122780
  20
 3820.7732734740
  30
0.0
  11
 1491.7020803450
  21
 3823.8476142026
  31
0.0
   0
LINE
   5
12B
 100
AcDbEntity
   8
LEVEL001
 370
13
 100
AcDbLine
   6
CONTINUOUS
  62
5
  10
 1491.7020803450
  20
 3823.8476142026
  30
0.0
  11
 1491.7020803450
  21
 3788.8502092398
  31
0.0
   0
LINE
   5
12C
 100
AcDbEntity
   8
LEVEL001
 370
13
 100
AcDbLine
   6
CONTINUOUS
  62
5
  10
 1534.5582192045
  20
 3804.0688672334
  30
0.0
  11
 1520.4160687471
  21
 3825.3849371548
  31
0.0
   0
ARC
   5
12D
 100
AcDbEntity
   8
LEVEL001
 370
13
   6
CONTINUOUS
  62
5
 100
AcDbCircle
  10
 1539.4385701613
  20
 3811.7883521120
  30
0.0
  40
 9.1328129430768
 100
AcDbArc
  50
 237.69843463472
  51
 18.768732377694
   0
ARC
   5
12E
 100
AcDbEntity
   8
LEVEL001
 370
13
   6
CONTINUOUS
  62
5
 100
AcDbCircle
  10
 1521.9032948968
  20
 3787.4850991468
  30
0.0
  40
 37.929006876678
 100
AcDbArc
  50
 46.131549416328
  51
 92.247188603532
   0
LINE
   5
12F
 100
AcDbEntity
   8
LEVEL001
 370
13
 100
AcDbLine
   6
CONTINUOUS
  62
5
  10
 1449.1747336921
  20
 4074.6772745532
  30
0.0
  11
 1464.0818419103
  21
 4072.3481255956
  31
0.0
   0
LINE
   5
130
 100
AcDbEntity
   8
LEVEL001
 370
13
 100
AcDbLine
   6
CONTINUOUS
  62
5
  10
 1470.2305233677
  20
 4040.3740970074
  30
0.0
  11
 1449.1747336921
  21
 4072.6276918274
  31
0.0
   0
ENDBLK
   5
131
 100
AcDbEntity
   8
0
 100
AcDbBlockEnd
   0
BLOCK
   5
132
 100
AcDbEntity
   8
0
 100
AcDbBlockBegin
   2
BLOCK002
  70
64
  10
0.0
  20
0.0
  30
0.0
   3
BLOCK002
   0
ARC
   5
133
 100
AcDbEntity
   8
LEVEL001
 370
13
   6
CONTINUOUS
  62
7
 100
AcDbCircle
  10
 1452.2494321200
  20
 4308.1168539326
  30
0.0
  40
 20.000000000000
 100
AcDbArc
  50
 90.000000000000
  51
 180.00000000000
   0
LINE
   5
134
 100
AcDbEntity
   8
LEVEL001
 370
13
 100
AcDbLine
   6
CONTINUOUS
  62
7
  10
 1432.2494321200
  20
 4308.1168539326
  30
0.0
  11
 1432.2494321200
  21
 3748.1160691868
  31
0.0
   0
LINE
   5
135
 100
AcDbEntity
   8
LEVEL001
 370
13
 100
AcDbLine
   6
CONTINUOUS
  62
7
  10
 1592.2468162802
  20
 4328.1168539326
  30
0.0
  11
 1452.2494321200
  21
 4328.1168539326
  31
0.0
   0
LINE
   5
136
 100
AcDbEntity
   8
LEVEL001
 370
13
 100
AcDbLine
   6
CONTINUOUS
  62
7
  10
 1452.2494321200
  20
 3728.1160691868
  30
0.0
  11
 1592.2468162802
  21
 3728.1160691868
  31
0.0
   0
ARC
   5
137
 100
AcDbEntity
   8
LEVEL001
 370
13
   6
CONTINUOUS
  62
7
 100
AcDbCircle
  10
 1452.2494321200
  20
 3748.1160691868
  30
0.0
  40
 20.000000000000
 100
AcDbArc
  50
 180.00000000000
  51
 270.00000000000
   0
ARC
   5
138
 100
AcDbEntity
   8
LEVEL001
 370
13
   6
CONTINUOUS
  62
7
 100
AcDbCircle
  10
 1592.2468162802
  20
 4308.1168539326
  30
0.0
  40
 20.000000000000
 100
AcDbArc
  50
0.0
  51
 90.000000000000
   0
LINE
   5
139
 100
AcDbEntity
   8
LEVEL001
 370
13
 100
AcDbLine
   6
CONTINUOUS
  62
7
  10
 1612.2468162802
  20
 3748.1160691868
  30
0.0
  11
 1612.2468162802
  21
 4308.1168539326
  31
0.0
   0
ARC
   5
13A
 100
AcDbEntity
   8
LEVEL001
 370
13
   6
CONTINUOUS
  62
7
 100
AcDbCircle
  10
 1592.2468162802
  20
 3748.1160691868
  30
0.0
  40
 20.000000000000
 100
AcDbArc
  50
 270.00000000000
  51
0.0
   0
ENDBLK
   5
13B
 100
AcDbEntity
   8
0
 100
AcDbBlockEnd
   0
BLOCK
   5
13C
 100
AcDbEntity
   8
0
 100
AcDbBlockBegin
   2
BLOCK003
  70
64
  10
0.0
  20
0.0
  30
0.0
   3
BLOCK003
   0
LINE
   5
13D
 100
AcDbEntity
   8
LEVEL001
 370
13
 100
AcDbLine
   6
CONTINUOUS
  62
5
  10
 1522.2471233800
  20
 4278.1194512502
  30
0.0
  11
 1467.2471250191
  21
 4208.1194533364
  31
0.0
   0
LINE
   5
13E
 100
AcDbEntity
   8
LEVEL001
 370
13
 100
AcDbLine
   6
CONTINUOUS
  62
5
  10
 1467.2471250191
  20
 4208.1194533364
  30
0.0
  11
 1497.2471241251
  21
 4208.1194533364
  31
0.0
   0
LINE
   5
13F
 100
AcDbEntity
   8
LEVEL001
 370
13
 100
AcDbLine
   6
CONTINUOUS
  62
5
  10
 1497.2471241251
  20
 4208.1194533364
  30
0.0
  11
 1497.2471241251
  21
 4178.1194542304
  31
0.0
   0
LINE
   5
140
 100
AcDbEntity
   8
LEVEL001
 370
13
 100
AcDbLine
   6
CONTINUOUS
  62
5
  10
 1497.2471241251
  20
 4178.1194542304
  30
0.0
  11
 1547.2471226349
  21
 4178.1194542304
  31
0.0
   0
LINE
   5
141
 100
AcDbEntity
   8
LEVEL001
 370
13
 100
AcDbLine
   6
CONTINUOUS
  62
5
  10
 1547.2471226349
  20
 4178.1194542304
  30
0.0
  11
 1547.2471226349
  21
 4208.1194533364
  31
0.0
   0
LINE
   5
142
 100
AcDbEntity
   8
LEVEL001
 370
13
 100
AcDbLine
   6
CONTINUOUS
  62
5
  10
 1547.2471226349
  20
 4208.1194533364
  30
0.0
  11
 1577.2471217409
  21
 4208.1194533364
  31
0.0
   0
LINE
   5
143
 100
AcDbEntity
   8
LEVEL001
 370
13
 100
AcDbLine
   6
CONTINUOUS
  62
5
  10
 1577.2471217409
  20
 4208.1194533364
  30
0.0
  11
 1522.2471233800
  21
 4278.1194512502
  31
0.0
   0
ENDBLK
   5
144
 100
AcDbEntity
   8
0
 100
AcDbBlockEnd
   0
BLOCK
   5
145
 100
AcDbEntity
   8
0
 100
AcDbBlockBegin
   2
*D14
  70
65
  10
0.0
  20
0.0
  30
0.0
   3
*D14
   0
LINE
   5
146
 100
AcDbEntity
   8
LEVEL001
 370
13
 100
AcDbLine
   6
CONTINUOUS
  62
6
  10
 1242.2471910112
  20
 928.11685393258
  30
0.0
  11
 742.24719101123
  21
 928.11685393258
  31
0.0
   0
LINE
   5
147
 100
AcDbEntity
   8
LEVEL001
 370
13
 100
AcDbLine
   6
CONTINUOUS
  62
6
  10
 1242.2471910112
  20
 1028.1168539326
  30
0.0
  11
 742.24719101123
  21
 1028.1168539326
  31
0.0
   0
LINE
   5
148
 100
AcDbEntity
   8
LEVEL001
 370
13
 100
AcDbLine
   6
CONTINUOUS
  62
6
  10
 772.24719101123
  20
 928.11685393258
  30
0.0
  11
 772.24719101123
  21
 978.11685393258
  31
0.0
   0
LINE
   5
149
 100
AcDbEntity
   8
LEVEL001
 370
13
 100
AcDbLine
   6
CONTINUOUS
  62
6
  10
 772.24719101123
  20
 1028.1168539326
  30
0.0
  11
 772.24719101123
  21
 978.11685393258
  31
0.0
   0
INSERT
   5
14A
 100
AcDbEntity
   8
LEVEL001
   6
CONTINUOUS
  62
6
 100
AcDbBlockReference
   2
_OPEN
  10
 772.24719101123
  20
 928.11685393258
  30
0.0
  41
 42.000000000000
  42
 42.000000000000
  43
 42.000000000000
  50
 270.00000000000
   0
INSERT
   5
14B
 100
AcDbEntity
   8
LEVEL001
   6
CONTINUOUS
  62
6
 100
AcDbBlockReference
   2
_OPEN
  10
 772.24719101123
  20
 1028.1168539326
  30
0.0
  41
 42.000000000000
  42
 42.000000000000
  43
 42.000000000000
  50
 90.000000000000
   0
MTEXT
   5
14C
 100
AcDbEntity
   8
LEVEL001
 370
13
  62
1
 100
AcDbMText
  10
 758.24719101123
  20
 978.11685393258
  30
0.0
  40
 63.000000000000
  41
0.0
  71
8
  72
1
   1
\A1;100
   7
GMM006
  11
0.0
  21
 1.0000000000000
  31
0.0
   0
ENDBLK
   5
14D
 100
AcDbEntity
   8
0
 100
AcDbBlockEnd
   0
BLOCK
   5
14E
 100
AcDbEntity
   8
0
 100
AcDbBlockBegin
   2
*D15
  70
65
  10
0.0
  20
0.0
  30
0.0
   3
*D15
   0
LINE
   5
14F
 100
AcDbEntity
   8
LEVEL001
 370
13
 100
AcDbLine
   6
CONTINUOUS
  62
6
  10
 1272.2471910112
  20
 898.11685393258
  30
0.0
  11
 1272.2471910112
  21
 698.11685393258
  31
0.0
   0
LINE
   5
150
 100
AcDbEntity
   8
LEVEL001
 370
13
 100
AcDbLine
   6
CONTINUOUS
  62
6
  10
 1772.2471910112
  20
 898.11685393258
  30
0.0
  11
 1772.2471910112
  21
 698.11685393258
  31
0.0
   0
LINE
   5
151
 100
AcDbEntity
   8
LEVEL001
 370
13
 100
AcDbLine
   6
CONTINUOUS
  62
6
  10
 1272.2471910112
  20
 728.11685393258
  30
0.0
  11
 1522.2471910112
  21
 728.11685393258
  31
0.0
   0
LINE
   5
152
 100
AcDbEntity
   8
LEVEL001
 370
13
 100
AcDbLine
   6
CONTINUOUS
  62
6
  10
 1772.2471910112
  20
 728.11685393258
  30
0.0
  11
 1522.2471910112
  21
 728.11685393258
  31
0.0
   0
INSERT
   5
153
 100
AcDbEntity
   8
LEVEL001
   6
CONTINUOUS
  62
6
 100
AcDbBlockReference
   2
_OPEN
  10
 1272.2471910112
  20
 728.11685393258
  30
0.0
  41
 42.000000000000
  42
 42.000000000000
  43
 42.000000000000
  50
 180.00000000000
   0
INSERT
   5
154
 100
AcDbEntity
   8
LEVEL001
   6
CONTINUOUS
  62
6
 100
AcDbBlockReference
   2
_OPEN
  10
 1772.2471910112
  20
 728.11685393258
  30
0.0
  41
 42.000000000000
  42
 42.000000000000
  43
 42.000000000000
  50
0.0
   0
MTEXT
   5
155
 100
AcDbEntity
   8
LEVEL001
 370
13
  62
1
 100
AcDbMText
  10
 1522.2471910112
  20
 742.11685393258
  30
0.0
  40
 60.000000000000
  41
0.0
  71
8
  72
1
   1
\A1;□500
   7
GMM002
   0
ENDBLK
   5
156
 100
AcDbEntity
   8
0
 100
AcDbBlockEnd
   0
BLOCK
   5
157
 100
AcDbEntity
   8
0
 100
AcDbBlockBegin
   2
*D16
  70
65
  10
0.0
  20
0.0
  30
0.0
   3
*D16
   0
LINE
   5
158
 100
AcDbEntity
   8
LEVEL001
 370
13
 100
AcDbLine
   6
CONTINUOUS
  62
6
  10
 992.24719101123
  20
 1928.1168539326
  30
0.0
  11
 742.24719101123
  21
 1928.1168539326
  31
0.0
   0
LINE
   5
159
 100
AcDbEntity
   8
LEVEL001
 370
13
 100
AcDbLine
   6
CONTINUOUS
  62
6
  10
 1189.7471910112
  20
 4428.1168539326
  30
0.0
  11
 742.24719101123
  21
 4428.1168539326
  31
0.0
   0
LINE
   5
15A
 100
AcDbEntity
   8
LEVEL001
 370
13
 100
AcDbLine
   6
CONTINUOUS
  62
6
  10
 772.24719101123
  20
 1928.1168539326
  30
0.0
  11
 772.24719101123
  21
 3178.1168539326
  31
0.0
   0
LINE
   5
15B
 100
AcDbEntity
   8
LEVEL001
 370
13
 100
AcDbLine
   6
CONTINUOUS
  62
6
  10
 772.24719101123
  20
 4428.1168539326
  30
0.0
  11
 772.24719101123
  21
 3178.1168539326
  31
0.0
   0
INSERT
   5
15C
 100
AcDbEntity
   8
LEVEL001
   6
CONTINUOUS
  62
6
 100
AcDbBlockReference
   2
_OPEN
  10
 772.24719101123
  20
 1928.1168539326
  30
0.0
  41
 42.000000000000
  42
 42.000000000000
  43
 42.000000000000
  50
 270.00000000000
   0
INSERT
   5
15D
 100
AcDbEntity
   8
LEVEL001
   6
CONTINUOUS
  62
6
 100
AcDbBlockReference
   2
_OPEN
  10
 772.24719101123
  20
 4428.1168539326
  30
0.0
  41
 42.000000000000
  42
 42.000000000000
  43
 42.000000000000
  50
 90.000000000000
   0
MTEXT
   5
15E
 100
AcDbEntity
   8
LEVEL001
 370
13
  62
1
 100
AcDbMText
  10
 758.24719101123
  20
 3178.1168539326
  30
0.0
  40
 60.000000000000
  41
0.0
  71
8
  72
1
   1
\A1;2500(標準設置高さ)
   7
GMM002
  11
0.0
  21
 1.0000000000000
  31
0.0
   0
ENDBLK
   5
15F
 100
AcDbEntity
   8
0
 100
AcDbBlockEnd
   0
BLOCK
   5
160
 100
AcDbEntity
   8
0
 100
AcDbBlockBegin
   2
*D17
  70
65
  10
0.0
  20
0.0
  30
0.0
   3
*D17
   0
LINE
   5
161
 100
AcDbEntity
   8
0
 370
13
 100
AcDbLine
   6
CONTINUOUS
  62
6
  10
 992.24719101124
  20
 1928.1168539326
  30
0.0
  11
 742.24719101123
  21
 1928.1168539326
  31
0.0
   0
LINE
   5
162
 100
AcDbEntity
   8
0
 370
13
 100
AcDbLine
   6
CONTINUOUS
  62
6
  10
 1242.2471910112
  20
 1028.1168539326
  30
0.0
  11
 742.24719101123
  21
 1028.1168539326
  31
0.0
   0
LINE
   5
163
 100
AcDbEntity
   8
0
 370
13
 100
AcDbLine
   6
CONTINUOUS
  62
6
  10
 772.24719101123
  20
 1928.1168539326
  30
0.0
  11
 772.24719101123
  21
 1478.1168539326
  31
0.0
   0
LINE
   5
164
 100
AcDbEntity
   8
0
 370
13
 100
AcDbLine
   6
CONTINUOUS
  62
6
  10
 772.24719101123
  20
 1028.1168539326
  30
0.0
  11
 772.24719101123
  21
 1478.1168539326
  31
0.0
   0
INSERT
   5
165
 100
AcDbEntity
   8
0
   6
CONTINUOUS
  62
6
 100
AcDbBlockReference
   2
_OPEN
  10
 772.24719101123
  20
 1928.1168539326
  30
0.0
  41
 42.000000000000
  42
 42.000000000000
  43
 42.000000000000
  50
 90.000000000000
   0
INSERT
   5
166
 100
AcDbEntity
   8
0
   6
CONTINUOUS
  62
6
 100
AcDbBlockReference
   2
_OPEN
  10
 772.24719101123
  20
 1028.1168539326
  30
0.0
  41
 42.000000000000
  42
 42.000000000000
  43
 42.000000000000
  50
 270.00000000000
   0
MTEXT
   5
167
 100
AcDbEntity
   8
0
 370
13
  62
1
 100
AcDbMText
  10
 746.53290529695
  20
 1478.1168539326
  30
0.0
  40
 60.000000000000
  41
0.0
  71
8
  72
1
   1
\A1;900
   7
GMM002
  11
0.0
  21
 1.0000000000000
  31
0.0
   0
ENDBLK
   5
168
 100
AcDbEntity
   8
0
 100
AcDbBlockEnd
   0
BLOCK
   5
169
 100
AcDbEntity
   8
0
 100
AcDbBlockBegin
   2
*D18
  70
65
  10
0.0
  20
0.0
  30
0.0
   3
*D18
   0
LINE
   5
16A
 100
AcDbEntity
   8
0
 370
13
 100
AcDbLine
   6
CONTINUOUS
  62
6
  10
 2672.2471910112
  20
 1858.1168539339
  30
0.0
  11
 2672.2471910112
  21
 2958.1168539326
  31
0.0
   0
LINE
   5
16B
 100
AcDbEntity
   8
0
 370
13
 100
AcDbLine
   6
CONTINUOUS
  62
6
  10
 2672.2471910112
  20
 2928.1168539326
  30
0.0
  11
 2847.2471910112
  21
 2928.1168539326
  31
0.0
   0
LINE
   5
16C
 100
AcDbEntity
   8
0
 370
13
 100
AcDbLine
   6
CONTINUOUS
  62
6
  10
 3022.2471910112
  20
 2928.1168539326
  30
0.0
  11
 2847.2471910112
  21
 2928.1168539326
  31
0.0
   0
INSERT
   5
16D
 100
AcDbEntity
   8
0
   6
CONTINUOUS
  62
6
 100
AcDbBlockReference
   2
_OPEN
  10
 2672.2471910112
  20
 2928.1168539326
  30
0.0
  41
 42.000000000000
  42
 42.000000000000
  43
 42.000000000000
  50
 180.00000000000
   0
INSERT
   5
16E
 100
AcDbEntity
   8
0
   6
CONTINUOUS
  62
6
 100
AcDbBlockReference
   2
_OPEN
  10
 3022.2471910112
  20
 2928.1168539326
  30
0.0
  41
 42.000000000000
  42
 42.000000000000
  43
 42.000000000000
  50
0.0
   0
MTEXT
   5
16F
 100
AcDbEntity
   8
0
 370
13
  62
1
 100
AcDbMText
  10
 2847.2471910112
  20
 2953.8311396469
  30
0.0
  40
 60.000000000000
  41
0.0
  71
8
  72
1
   1
\A1;350
   7
GMM002
   0
ENDBLK
   5
170
 100
AcDbEntity
   8
0
 100
AcDbBlockEnd
   0
BLOCK
   5
171
 100
AcDbEntity
   8
0
 100
AcDbBlockBegin
   2
*D19
  70
65
  10
0.0
  20
0.0
  30
0.0
   3
*D19
   0
LINE
   5
172
 100
AcDbEntity
   8
LEVEL001
 370
13
 100
AcDbLine
   6
CONTINUOUS
  62
6
  10
 1119.7471910112
  20
 4901.5168539326
  30
0.0
  11
 1522.2471910112
  21
 4901.5168539326
  31
0.0
   0
LINE
   5
173
 100
AcDbEntity
   8
LEVEL001
 370
13
 100
AcDbLine
   6
CONTINUOUS
  62
6
  10
 1924.7471910112
  20
 4901.5168539326
  30
0.0
  11
 1522.2471910112
  21
 4901.5168539326
  31
0.0
   0
INSERT
   5
174
 100
AcDbEntity
   8
LEVEL001
   6
CONTINUOUS
  62
6
 100
AcDbBlockReference
   2
_OPEN
  10
 1119.7471910112
  20
 4901.5168539326
  30
0.0
  41
 42.000000000000
  42
 42.000000000000
  43
 42.000000000000
  50
 180.00000000000
   0
INSERT
   5
175
 100
AcDbEntity
   8
LEVEL001
   6
CONTINUOUS
  62
6
 100
AcDbBlockReference
   2
_OPEN
  10
 1924.7471910112
  20
 4901.5168539326
  30
0.0
  41
 42.000000000000
  42
 42.000000000000
  43
 42.000000000000
  50
0.0
   0
MTEXT
   5
176
 100
AcDbEntity
   8
LEVEL001
 370
13
  62
1
 100
AcDbMText
  10
 1556.0018405768
  20
 4915.5168539326
  30
0.0
  40
 60.000000000000
  41
0.0
  71
8
  72
1
   1
\A1;800
   7
GMM002
   0
ENDBLK
   5
177
 100
AcDbEntity
   8
0
 100
AcDbBlockEnd
   0
BLOCK
   5
178
 100
AcDbEntity
   8
0
 100
AcDbBlockBegin
   2
*D20
  70
65
  10
0.0
  20
0.0
  30
0.0
   3
*D20
   0
LINE
   5
179
 100
AcDbEntity
   8
LEVEL001
 370
13
 100
AcDbLine
   6
CONTINUOUS
  62
6
  10
 1322.2471910112
  20
 5054.0168539326
  30
0.0
  11
 1322.2471910112
  21
 4751.5168539326
  31
0.0
   0
LINE
   5
17A
 100
AcDbEntity
   8
LEVEL001
 370
13
 100
AcDbLine
   6
CONTINUOUS
  62
6
  10
 1322.2471910112
  20
 4449.0168539326
  30
0.0
  11
 1322.2471910112
  21
 4751.5168539326
  31
0.0
   0
INSERT
   5
17B
 100
AcDbEntity
   8
LEVEL001
   6
CONTINUOUS
  62
6
 100
AcDbBlockReference
   2
_OPEN
  10
 1322.2471910112
  20
 5054.0168539326
  30
0.0
  41
 42.000000000000
  42
 42.000000000000
  43
 42.000000000000
  50
 90.000000000000
   0
INSERT
   5
17C
 100
AcDbEntity
   8
LEVEL001
   6
CONTINUOUS
  62
6
 100
AcDbBlockReference
   2
_OPEN
  10
 1322.2471910112
  20
 4449.0168539326
  30
0.0
  41
 42.000000000000
  42
 42.000000000000
  43
 42.000000000000
  50
 270.00000000000
   0
MTEXT
   5
17D
 100
AcDbEntity
   8
LEVEL001
 370
13
  62
1
 100
AcDbMText
  10
 1308.2471910112
  20
 4719.2661129042
  30
0.0
  40
 60.000000000000
  41
0.0
  71
8
  72
1
   1
\A1;600
   7
GMM002
  11
0.0
  21
 1.0000000000000
  31
0.0
   0
ENDBLK
   5
17E
 100
AcDbEntity
   8
0
 100
AcDbBlockEnd
   0
BLOCK
   5
17F
 100
AcDbEntity
   8
0
 100
AcDbBlockBegin
   2
*D21
  70
65
  10
0.0
  20
0.0
  30
0.0
   3
*D21
   0
LINE
   5
180
 100
AcDbEntity
   8
LEVEL001
 370
13
 100
AcDbLine
   6
CONTINUOUS
  62
6
  10
 2422.2471910112
  20
 898.11685393258
  30
0.0
  11
 2422.2471910112
  21
 698.11685393258
  31
0.0
   0
LINE
   5
181
 100
AcDbEntity
   8
LEVEL001
 370
13
 100
AcDbLine
   6
CONTINUOUS
  62
6
  10
 2922.2471910112
  20
 898.11685393258
  30
0.0
  11
 2922.2471910112
  21
 698.11685393258
  31
0.0
   0
LINE
   5
182
 100
AcDbEntity
   8
LEVEL001
 370
13
 100
AcDbLine
   6
CONTINUOUS
  62
6
  10
 2422.2471910112
  20
 728.11685393258
  30
0.0
  11
 2672.2471910112
  21
 728.11685393258
  31
0.0
   0
LINE
   5
183
 100
AcDbEntity
   8
LEVEL001
 370
13
 100
AcDbLine
   6
CONTINUOUS
  62
6
  10
 2922.2471910112
  20
 728.11685393258
  30
0.0
  11
 2672.2471910112
  21
 728.11685393258
  31
0.0
   0
INSERT
   5
184
 100
AcDbEntity
   8
LEVEL001
   6
CONTINUOUS
  62
6
 100
AcDbBlockReference
   2
_OPEN
  10
 2422.2471910112
  20
 728.11685393258
  30
0.0
  41
 42.000000000000
  42
 42.000000000000
  43
 42.000000000000
  50
 180.00000000000
   0
INSERT
   5
185
 100
AcDbEntity
   8
LEVEL001
   6
CONTINUOUS
  62
6
 100
AcDbBlockReference
   2
_OPEN
  10
 2922.2471910112
  20
 728.11685393258
  30
0.0
  41
 42.000000000000
  42
 42.000000000000
  43
 42.000000000000
  50
0.0
   0
MTEXT
   5
186
 100
AcDbEntity
   8
LEVEL001
 370
13
  62
1
 100
AcDbMText
  10
 2672.2471910112
  20
 742.11685393258
  30
0.0
  40
 60.000000000000
  41
0.0
  71
8
  72
1
   1
\A1;□500
   7
GMM002
   0
ENDBLK
   5
187
 100
AcDbEntity
   8
0
 100
AcDbBlockEnd
   0
ENDSEC
   0
SECTION
   2
ENTITIES
   0
LINE
   5
188
 100
AcDbEntity
   8
LEVEL001
 370
13
 100
AcDbLine
   6
CONTINUOUS
  62
7
  10
 8122.2471910112
  20
 5751.5168539326
  30
0.0
  11
 322.24719101124
  21
 5751.5168539326
  31
0.0
   0
LINE
   5
189
 100
AcDbEntity
   8
LEVEL001
 370
13
 100
AcDbLine
   6
CONTINUOUS
  62
7
  10
 322.24719101124
  20
 5751.5168539326
  30
0.0
  11
 322.24719101124
  21
 251.51685393258
  31
0.0
   0
LINE
   5
18A
 100
AcDbEntity
   8
LEVEL001
 370
13
 100
AcDbLine
   6
CONTINUOUS
  62
7
  10
 322.24719101124
  20
 251.51685393258
  30
0.0
  11
 8122.2471910112
  21
 251.51685393258
  31
0.0
   0
LINE
   5
18B
 100
AcDbEntity
   8
LEVEL001
 370
13
 100
AcDbLine
   6
CONTINUOUS
  62
7
  10
 8122.2471910112
  20
 251.51685393258
  30
0.0
  11
 8122.2471910112
  21
 5751.5168539326
  31
0.0
   0
POINT
   5
18C
 100
AcDbEntity
   8
LEVEL001
 100
AcDbPoint
  62
3
  10
 6422.2471910112
  20
 791.51685393258
  30
0.0
   0
POINT
   5
18D
 100
AcDbEntity
   8
LEVEL001
 100
AcDbPoint
  62
3
  10
 6322.2471910112
  20
 791.51685393258
  30
0.0
   0
POINT
   5
18E
 100
AcDbEntity
   8
LEVEL001
 100
AcDbPoint
  62
3
  10
 6422.2471910112
  20
 891.51685393258
  30
0.0
   0
LINE
   5
18F
 100
AcDbEntity
   8
LEVEL001
 370
13
 100
AcDbLine
   6
CONTINUOUS
  62
6
  10
 5482.2471910112
  20
 2511.5168539326
  30
0.0
  11
 8122.2471910112
  21
 2511.5168539326
  31
0.0
   0
LINE
   5
190
 100
AcDbEntity
   8
LEVEL001
 370
13
 100
AcDbLine
   6
CONTINUOUS
  62
6
  10
 5482.2471910112
  20
 1071.5168539326
  30
0.0
  11
 8122.2471910112
  21
 1071.5168539326
  31
0.0
   0
LINE
   5
191
 100
AcDbEntity
   8
LEVEL001
 370
13
 100
AcDbLine
   6
CONTINUOUS
  62
6
  10
 5482.2471910112
  20
 1191.5168539326
  30
0.0
  11
 8122.2471910112
  21
 1191.5168539326
  31
0.0
   0
LINE
   5
192
 100
AcDbEntity
   8
LEVEL001
 370
13
 100
AcDbLine
   6
CONTINUOUS
  62
6
  10
 5482.2471910112
  20
 1311.5168539326
  30
0.0
  11
 8122.2471910112
  21
 1311.5168539326
  31
0.0
   0
LINE
   5
193
 100
AcDbEntity
   8
LEVEL001
 370
13
 100
AcDbLine
   6
CONTINUOUS
  62
6
  10
 5482.2471910112
  20
 1431.5168539326
  30
0.0
  11
 8122.2471910112
  21
 1431.5168539326
  31
0.0
   0
LINE
   5
194
 100
AcDbEntity
   8
LEVEL001
 370
13
 100
AcDbLine
   6
CONTINUOUS
  62
6
  10
 5482.2471910112
  20
 1551.5168539326
  30
0.0
  11
 8122.2471910112
  21
 1551.5168539326
  31
0.0
   0
MTEXT
   5
195
 100
AcDbEntity
   8
LEVEL001
 370
13
  62
1
 100
AcDbMText
  10
 7362.2471910112
  20
 1971.5168539326
  30
0.0
  40
 51.428571428572
  41
0.0
  71
4
  72
1
   1
\T1.000000;溶融亜鉛メッキ
   7
GMM001
  44
 0.79999984000003
   0
MTEXT
   5
196
 100
AcDbEntity
   8
LEVEL001
 370
13
  62
1
 100
AcDbMText
  10
 7362.2471910112
  20
 2091.5168539326
  30
0.0
  40
 51.428571428572
  41
0.0
  71
4
  72
1
   1
\T1.000000;溶融亜鉛メッキ
   7
GMM001
  44
 0.79999984000003
   0
MTEXT
   5
197
 100
AcDbEntity
   8
LEVEL001
 370
13
  62
1
 100
AcDbMText
  10
 6802.2471910112
  20
 1971.5168539326
  30
0.0
  40
 51.428571428572
  41
0.0
  71
4
  72
1
   1
\T1.000000;ＳＳ４００
   7
GMM001
  44
 0.79999984000003
   0
MTEXT
   5
198
 100
AcDbEntity
   8
LEVEL001
 370
13
  62
1
 100
AcDbMText
  10
 6802.2471910112
  20
 2091.5168539326
  30
0.0
  40
 51.428571428572
  41
0.0
  71
4
  72
1
   1
\T1.000000;ＳＳ４００
   7
GMM001
  44
 0.79999984000003
   0
MTEXT
   5
199
 100
AcDbEntity
   8
LEVEL001
 370
13
  62
1
 100
AcDbMText
  10
 5654.2471910112
  20
 1851.5168539326
  30
0.0
  40
 51.428571428572
  41
0.0
  71
6
  72
1
   1
\T1.000000;９
   7
GMM001
  44
 0.79999984000003
   0
MTEXT
   5
19A
 100
AcDbEntity
   8
LEVEL001
 370
13
  62
1
 100
AcDbMText
  10
 5654.2471910112
  20
 1971.5168539326
  30
0.0
  40
 51.428571428572
  41
0.0
  71
6
  72
1
   1
\T1.000000;８
   7
GMM001
  44
 0.79999984000003
   0
MTEXT
   5
19B
 100
AcDbEntity
   8
LEVEL001
 370
13
  62
1
 100
AcDbMText
  10
 5722.2471910112
  20
 1971.5168539326
  30
0.0
  40
 51.428571428572
  41
0.0
  71
4
  72
1
   1
\T1.000000;金具締付ボルトナット
   7
GMM001
  44
 0.79999984000003
   0
MTEXT
   5
19C
 100
AcDbEntity
   8
LEVEL001
 370
13
  62
1
 100
AcDbMText
  10
 5654.2471910112
  20
 2091.5168539326
  30
0.0
  40
 51.428571428572
  41
0.0
  71
6
  72
1
   1
\T1.000000;７
   7
GMM001
  44
 0.79999984000003
   0
MTEXT
   5
19D
 100
AcDbEntity
   8
LEVEL001
 370
13
  62
1
 100
AcDbMText
  10
 5722.2471910112
  20
 2091.5168539326
  30
0.0
  40
 51.428571428572
  41
0.0
  71
4
  72
1
   1
\T1.000000;裏板金具取付ボルト
   7
GMM001
  44
 0.79999984000003
   0
LINE
   5
19E
 100
AcDbEntity
   8
LEVEL001
 370
13
 100
AcDbLine
   6
CONTINUOUS
  62
6
  10
 5482.2471910112
  20
 1671.5168539326
  30
0.0
  11
 8122.2471910112
  21
 1671.5168539326
  31
0.0
   0
LINE
   5
19F
 100
AcDbEntity
   8
LEVEL001
 370
13
 100
AcDbLine
   6
CONTINUOUS
  62
6
  10
 5482.2471910112
  20
 1911.5168539326
  30
0.0
  11
 8122.2471910112
  21
 1911.5168539326
  31
0.0
   0
LINE
   5
1A0
 100
AcDbEntity
   8
LEVEL001
 370
13
 100
AcDbLine
   6
CONTINUOUS
  62
6
  10
 5482.2471910112
  20
 2031.5168539326
  30
0.0
  11
 8122.2471910112
  21
 2031.5168539326
  31
0.0
   0
MTEXT
   5
1A1
 100
AcDbEntity
   8
LEVEL001
 370
13
  62
1
 100
AcDbMText
  10
 5722.2471910112
  20
 2211.5168539326
  30
0.0
  40
 51.428571428572
  41
0.0
  71
4
  72
1
   1
\T1.000000;支柱取付金具
   7
GMM001
  44
 0.79999984000003
   0
MTEXT
   5
1A2
 100
AcDbEntity
   8
LEVEL001
 370
13
  62
1
 100
AcDbMText
  10
 5654.2471910112
  20
 2211.5168539326
  30
0.0
  40
 51.428571428572
  41
0.0
  71
6
  72
1
   1
\T1.000000;６
   7
GMM001
  44
 0.79999984000003
   0
MTEXT
   5
1A3
 100
AcDbEntity
   8
LEVEL001
 370
13
  62
1
 100
AcDbMText
  10
 6802.2471910112
  20
 2211.5168539326
  30
0.0
  40
 51.428571428572
  41
0.0
  71
4
  72
1
   1
\T1.000000;ＳＳ４００
   7
GMM001
  44
 0.79999984000003
   0
MTEXT
   5
1A4
 100
AcDbEntity
   8
LEVEL001
 370
13
  62
1
 100
AcDbMText
  10
 5654.2471910112
  20
 2331.5168539326
  30
0.0
  40
 51.428571428572
  41
0.0
  71
6
  72
1
   1
\T1.000000;５
   7
GMM001
  44
 0.79999984000003
   0
MTEXT
   5
1A5
 100
AcDbEntity
   8
LEVEL001
 370
13
  62
1
 100
AcDbMText
  10
 5722.2471910112
  20
 2331.5168539326
  30
0.0
  40
 51.428571428572
  41
0.0
  71
4
  72
1
   1
\T1.000000;裏板取付金具
   7
GMM001
  44
 0.79999984000003
   0
MTEXT
   5
1A6
 100
AcDbEntity
   8
LEVEL001
 370
13
  62
1
 100
AcDbMText
  10
 5654.2471910112
  20
 2451.5168539326
  30
0.0
  40
 51.428571428572
  41
0.0
  71
6
  72
1
   1
\T1.000000;４
   7
GMM001
  44
 0.79999984000003
   0
MTEXT
   5
1A7
 100
AcDbEntity
   8
LEVEL001
 370
13
  62
1
 100
AcDbMText
  10
 5722.2471910112
  20
 2451.5168539326
  30
0.0
  40
 51.428571428572
  41
0.0
  71
4
  72
1
   1
\T1.000000;リング
   7
GMM001
  44
 0.79999984000003
   0
MTEXT
   5
1A8
 100
AcDbEntity
   8
LEVEL001
 370
13
  62
1
 100
AcDbMText
  10
 5654.2471910112
  20
 2571.5168539326
  30
0.0
  40
 51.428571428572
  41
0.0
  71
6
  72
1
   1
\T1.000000;３
   7
GMM001
  44
 0.79999984000003
   0
MTEXT
   5
1A9
 100
AcDbEntity
   8
LEVEL001
 370
13
  62
1
 100
AcDbMText
  10
 5722.2471910112
  20
 2571.5168539326
  30
0.0
  40
 51.428571428572
  41
0.0
  71
4
  72
1
   1
\T1.000000;フード
   7
GMM001
  44
 0.79999984000003
   0
MTEXT
   5
1AA
 100
AcDbEntity
   8
LEVEL001
 370
13
  62
1
 100
AcDbMText
  10
 5654.2471910112
  20
 2691.5168539326
  30
0.0
  40
 51.428571428572
  41
0.0
  71
6
  72
1
   1
\T1.000000;２
   7
GMM001
  44
 0.79999984000003
   0
MTEXT
   5
1AB
 100
AcDbEntity
   8
LEVEL001
 370
13
  62
1
 100
AcDbMText
  10
 5654.2471910112
  20
 2811.5168539326
  30
0.0
  40
 51.428571428572
  41
0.0
  71
6
  72
1
   1
\T1.000000;１
   7
GMM001
  44
 0.79999984000003
   0
MTEXT
   5
1AC
 100
AcDbEntity
   8
LEVEL001
 370
13
  62
1
 100
AcDbMText
  10
 5722.2471910112
  20
 2691.5168539326
  30
0.0
  40
 51.428571428572
  41
0.0
  71
4
  72
1
   1
\T1.000000;バックプレート
   7
GMM001
  44
 0.79999984000003
   0
MTEXT
   5
1AD
 100
AcDbEntity
   8
LEVEL001
 370
13
  62
1
 100
AcDbMText
  10
 6802.2471910112
  20
 2331.5168539326
  30
0.0
  40
 51.428571428572
  41
0.0
  71
4
  72
1
   1
\T1.000000;ＳＳ４００
   7
GMM001
  44
 0.79999984000003
   0
MTEXT
   5
1AE
 100
AcDbEntity
   8
LEVEL001
 370
13
  62
1
 100
AcDbMText
  10
 6802.2471910112
  20
 2451.5168539326
  30
0.0
  40
 51.428571428572
  41
0.0
  71
4
  72
1
   1
\T1.000000;軟質ＰＶＣ
   7
GMM001
  44
 0.79999984000003
   0
MTEXT
   5
1AF
 100
AcDbEntity
   8
LEVEL001
 370
13
  62
1
 100
AcDbMText
  10
 6802.2471910112
  20
 2811.5168539326
  30
0.0
  40
 51.428571428572
  41
0.0
  71
4
  72
1
   1
\T1.000000;ＳＵＳ３０４
   7
GMM001
  44
 0.79999984000003
   0
MTEXT
   5
1B0
 100
AcDbEntity
   8
LEVEL001
 370
13
  62
1
 100
AcDbMText
  10
 7362.2471910112
  20
 2211.5168539326
  30
0.0
  40
 51.428571428572
  41
0.0
  71
4
  72
1
   1
\T1.000000;溶融亜鉛メッキ
   7
GMM001
  44
 0.79999984000003
   0
MTEXT
   5
1B1
 100
AcDbEntity
   8
LEVEL001
 370
13
  62
1
 100
AcDbMText
  10
 7362.2471910112
  20
 2331.5168539326
  30
0.0
  40
 51.428571428572
  41
0.0
  71
4
  72
1
   1
\T1.000000;溶融亜鉛メッキ
   7
GMM001
  44
 0.79999984000003
   0
MTEXT
   5
1B2
 100
AcDbEntity
   8
LEVEL001
 370
13
  62
1
 100
AcDbMText
  10
 7362.2471910112
  20
 2811.5168539326
  30
0.0
  40
 51.428571428572
  41
0.0
  71
4
  72
1
   1
\T1.000000;t=0.9mm\T1.000000;・表面研磨
   7
GMM001
  44
 0.79999984000003
   0
LINE
   5
1B3
 100
AcDbEntity
   8
LEVEL001
 370
13
 100
AcDbLine
   6
CONTINUOUS
  62
6
  10
 5482.2471910112
  20
 2151.5168539326
  30
0.0
  11
 8122.2471910112
  21
 2151.5168539326
  31
0.0
   0
LINE
   5
1B4
 100
AcDbEntity
   8
LEVEL001
 370
13
 100
AcDbLine
   6
CONTINUOUS
  62
6
  10
 5482.2471910112
  20
 2271.5168539326
  30
0.0
  11
 8122.2471910112
  21
 2271.5168539326
  31
0.0
   0
LINE
   5
1B5
 100
AcDbEntity
   8
LEVEL001
 370
13
 100
AcDbLine
   6
CONTINUOUS
  62
6
  10
 5482.2471910112
  20
 2631.5168539326
  30
0.0
  11
 8122.2471910112
  21
 2631.5168539326
  31
0.0
   0
LINE
   5
1B6
 100
AcDbEntity
   8
LEVEL001
 370
13
 100
AcDbLine
   6
CONTINUOUS
  62
6
  10
 5482.2471910112
  20
 2391.5168539326
  30
0.0
  11
 8122.2471910112
  21
 2391.5168539326
  31
0.0
   0
LINE
   5
1B7
 100
AcDbEntity
   8
LEVEL001
 370
13
 100
AcDbLine
   6
CONTINUOUS
  62
6
  10
 5482.2471910112
  20
 2751.5168539326
  30
0.0
  11
 8122.2471910112
  21
 2751.5168539326
  31
0.0
   0
MTEXT
   5
1B8
 100
AcDbEntity
   8
LEVEL001
 370
13
  62
1
 100
AcDbMText
  10
 6122.2471910112
  20
 2951.5168539326
  30
0.0
  40
 51.428571428572
  41
0.0
  71
5
  72
1
   1
\T1.000000;名　　称
   7
GMM001
  44
 0.79999984000003
   0
MTEXT
   5
1B9
 100
AcDbEntity
   8
LEVEL001
 370
13
  62
1
 100
AcDbMText
  10
 6662.2471910112
  20
 2951.5168539326
  30
0.0
  40
 51.428571428572
  41
0.0
  71
5
  72
1
   1
\T1.000000;個数
   7
GMM001
  44
 0.79999984000003
   0
MTEXT
   5
1BA
 100
AcDbEntity
   8
LEVEL001
 370
13
  62
1
 100
AcDbMText
  10
 7042.2471910112
  20
 2951.5168539326
  30
0.0
  40
 51.428571428572
  41
0.0
  71
5
  72
1
   1
\T1.000000;材　　質
   7
GMM001
  44
 0.79999984000003
   0
MTEXT
   5
1BB
 100
AcDbEntity
   8
LEVEL001
 370
13
  62
1
 100
AcDbMText
  10
 7722.2471910112
  20
 2951.5168539326
  30
0.0
  40
 51.428571428572
  41
0.0
  71
5
  72
1
   1
\T1.000000;規格仕様
   7
GMM001
  44
 0.79999984000003
   0
LINE
   5
1BC
 100
AcDbEntity
   8
LEVEL001
 370
13
 100
AcDbLine
   6
CONTINUOUS
  62
6
  10
 5682.2471910112
  20
 3031.5168539326
  30
0.0
  11
 5682.2471910112
  21
 951.51685393258
  31
0.0
   0
LINE
   5
1BD
 100
AcDbEntity
   8
LEVEL001
 370
13
 100
AcDbLine
   6
CONTINUOUS
  62
6
  10
 6562.2471910112
  20
 3031.5168539326
  30
0.0
  11
 6562.2471910112
  21
 951.51685393258
  31
0.0
   0
LINE
   5
1BE
 100
AcDbEntity
   8
LEVEL001
 370
13
 100
AcDbLine
   6
CONTINUOUS
  62
6
  10
 6762.2471910112
  20
 3031.5168539326
  30
0.0
  11
 6762.2471910112
  21
 951.51685393258
  31
0.0
   0
LINE
   5
1BF
 100
AcDbEntity
   8
LEVEL001
 370
13
 100
AcDbLine
   6
CONTINUOUS
  62
2
  10
 5482.2471910112
  20
 3031.5168539326
  30
0.0
  11
 8122.2471910112
  21
 3031.5168539326
  31
0.0
   0
LINE
   5
1C0
 100
AcDbEntity
   8
LEVEL001
 370
13
 100
AcDbLine
   6
CONTINUOUS
  62
2
  10
 5482.2471910112
  20
 2871.5168539326
  30
0.0
  11
 8122.2471910112
  21
 2871.5168539326
  31
0.0
   0
MTEXT
   5
1C1
 100
AcDbEntity
   8
LEVEL001
 370
13
  62
1
 100
AcDbMText
  10
 7362.2471910112
  20
 1851.5168539326
  30
0.0
  40
 51.428571428572
  41
0.0
  71
4
  72
1
   1
\T1.000000;静電粉体塗装
   7
GMM001
  44
 0.79999984000003
   0
MTEXT
   5
1C2
 100
AcDbEntity
   8
LEVEL001
 370
13
  62
1
 100
AcDbMText
  10
 6802.2471910112
  20
 1851.5168539326
  30
0.0
  40
 51.428571428572
  41
0.0
  71
4
  72
1
   1
\T1.000000;ＳＴＫ４００
   7
GMM001
  44
 0.79999984000003
   0
MTEXT
   5
1C3
 100
AcDbEntity
   8
LEVEL001
 370
13
  62
1
 100
AcDbMText
  10
 6734.2471910112
  20
 1851.5168539326
  30
0.0
  40
 51.428571428572
  41
0.0
  71
6
  72
1
   1
\T1.000000;１
   7
GMM001
  44
 0.79999984000003
   0
MTEXT
   5
1C4
 100
AcDbEntity
   8
LEVEL001
 370
13
  62
1
 100
AcDbMText
  10
 5722.2471910112
  20
 1851.5168539326
  30
0.0
  40
 51.428571428572
  41
0.0
  71
4
  72
1
   1
\T1.000000;支柱
   7
GMM001
  44
 0.79999984000003
   0
MTEXT
   5
1C5
 100
AcDbEntity
   8
LEVEL001
 370
13
  62
1
 100
AcDbMText
  10
 6734.2471910112
  20
 2811.5168539326
  30
0.0
  40
 51.428571428572
  41
0.0
  71
6
  72
1
   1
\T1.000000;１
   7
GMM001
  44
 0.79999984000003
   0
MTEXT
   5
1C6
 100
AcDbEntity
   8
LEVEL001
 370
13
  62
1
 100
AcDbMText
  10
 6734.2471910112
  20
 2091.5168539326
  30
0.0
  40
 51.428571428572
  41
0.0
  71
6
  72
1
   1
\T1.000000;４
   7
GMM001
  44
 0.79999984000003
   0
MTEXT
   5
1C7
 100
AcDbEntity
   8
LEVEL001
 370
13
  62
1
 100
AcDbMText
  10
 6734.2471910112
  20
 1971.5168539326
  30
0.0
  40
 51.428571428572
  41
0.0
  71
6
  72
1
   1
\T1.000000;４
   7
GMM001
  44
 0.79999984000003
   0
MTEXT
   5
1C8
 100
AcDbEntity
   8
LEVEL001
 370
13
  62
1
 100
AcDbMText
  10
 6734.2471910112
  20
 2691.5168539326
  30
0.0
  40
 51.428571428572
  41
0.0
  71
6
  72
1
   1
\T1.000000;１
   7
GMM001
  44
 0.79999984000003
   0
MTEXT
   5
1C9
 100
AcDbEntity
   8
LEVEL001
 370
13
  62
1
 100
AcDbMText
  10
 6734.2471910112
  20
 2571.5168539326
  30
0.0
  40
 51.428571428572
  41
0.0
  71
6
  72
1
   1
\T1.000000;１
   7
GMM001
  44
 0.79999984000003
   0
MTEXT
   5
1CA
 100
AcDbEntity
   8
LEVEL001
 370
13
  62
1
 100
AcDbMText
  10
 6734.2471910112
  20
 2451.5168539326
  30
0.0
  40
 51.428571428572
  41
0.0
  71
6
  72
1
   1
\T1.000000;１
   7
GMM001
  44
 0.79999984000003
   0
MTEXT
   5
1CB
 100
AcDbEntity
   8
LEVEL001
 370
13
  62
1
 100
AcDbMText
  10
 6734.2471910112
  20
 2331.5168539326
  30
0.0
  40
 51.428571428572
  41
0.0
  71
6
  72
1
   1
\T1.000000;１
   7
GMM001
  44
 0.79999984000003
   0
MTEXT
   5
1CC
 100
AcDbEntity
   8
LEVEL001
 370
13
  62
1
 100
AcDbMText
  10
 6734.2471910112
  20
 2211.5168539326
  30
0.0
  40
 51.428571428572
  41
0.0
  71
6
  72
1
   1
\T1.000000;１
   7
GMM001
  44
 0.79999984000003
   0
LINE
   5
1CD
 100
AcDbEntity
   8
LEVEL001
 370
13
 100
AcDbLine
   6
DASHDOT
  62
6
  10
 3078.4305459780
  20
 4796.5168539326
  30
0.0
  11
 3078.4305459780
  21
 4766.5168539326
  31
0.0
   0
LINE
   5
1CE
 100
AcDbEntity
   8
LEVEL001
 370
13
 100
AcDbLine
   6
DASHDOT
  62
6
  10
 3063.4305459780
  20
 4781.5168539326
  30
0.0
  11
 3093.4305459780
  21
 4781.5168539326
  31
0.0
   0
LINE
   5
1CF
 100
AcDbEntity
   8
LEVEL001
 370
13
 100
AcDbLine
   6
DASHDOT
  62
6
  10
 3078.4305459780
  20
 4736.5168539326
  30
0.0
  11
 3078.4305459780
  21
 4706.5168539326
  31
0.0
   0
LINE
   5
1D0
 100
AcDbEntity
   8
LEVEL001
 370
13
 100
AcDbLine
   6
DASHDOT
  62
6
  10
 3063.4305459780
  20
 4721.5168539326
  30
0.0
  11
 3093.4305459780
  21
 4721.5168539326
  31
0.0
   0
LINE
   5
1D1
 100
AcDbEntity
   8
LEVEL001
 370
13
 100
AcDbLine
   6
CONTINUOUS
  62
6
  10
 3056.3906632100
  20
 4801.5168539326
  30
0.0
  11
 3056.3906632100
  21
 4701.5168539326
  31
0.0
   0
LINE
   5
1D2
 100
AcDbEntity
   8
LEVEL001
 370
13
 100
AcDbLine
   6
CONTINUOUS
  62
3
  10
 3071.4305459780
  20
 4774.5168539326
  30
0.0
  11
 3085.4305459780
  21
 4774.5168539326
  31
0.0
   0
LINE
   5
1D3
 100
AcDbEntity
   8
LEVEL001
 370
13
 100
AcDbLine
   6
CONTINUOUS
  62
3
  10
 3085.4305459780
  20
 4774.5168539326
  30
0.0
  11
 3085.4305459780
  21
 4788.5168539326
  31
0.0
   0
LINE
   5
1D4
 100
AcDbEntity
   8
LEVEL001
 370
13
 100
AcDbLine
   6
CONTINUOUS
  62
3
  10
 3085.4305459780
  20
 4788.5168539326
  30
0.0
  11
 3071.4305459780
  21
 4788.5168539326
  31
0.0
   0
LINE
   5
1D5
 100
AcDbEntity
   8
LEVEL001
 370
13
 100
AcDbLine
   6
CONTINUOUS
  62
3
  10
 3071.4305459780
  20
 4788.5168539326
  30
0.0
  11
 3071.4305459780
  21
 4774.5168539326
  31
0.0
   0
LINE
   5
1D6
 100
AcDbEntity
   8
LEVEL001
 370
13
 100
AcDbLine
   6
CONTINUOUS
  62
3
  10
 3071.4305459780
  20
 4714.5168539326
  30
0.0
  11
 3085.4305459780
  21
 4714.5168539326
  31
0.0
   0
LINE
   5
1D7
 100
AcDbEntity
   8
LEVEL001
 370
13
 100
AcDbLine
   6
CONTINUOUS
  62
3
  10
 3085.4305459780
  20
 4714.5168539326
  30
0.0
  11
 3085.4305459780
  21
 4728.5168539326
  31
0.0
   0
LINE
   5
1D8
 100
AcDbEntity
   8
LEVEL001
 370
13
 100
AcDbLine
   6
CONTINUOUS
  62
3
  10
 3085.4305459780
  20
 4728.5168539326
  30
0.0
  11
 3071.4305459780
  21
 4728.5168539326
  31
0.0
   0
LINE
   5
1D9
 100
AcDbEntity
   8
LEVEL001
 370
13
 100
AcDbLine
   6
CONTINUOUS
  62
3
  10
 3071.4305459780
  20
 4728.5168539326
  30
0.0
  11
 3071.4305459780
  21
 4714.5168539326
  31
0.0
   0
LINE
   5
1DA
 100
AcDbEntity
   8
LEVEL001
 370
13
 100
AcDbLine
   6
DASHDOT
  62
6
  10
 3148.4305459780
  20
 4751.5168539326
  30
0.0
  11
 2697.2228295686
  21
 4751.5168539326
  31
0.0
   0
LINE
   5
1DB
 100
AcDbEntity
   8
LEVEL001
 370
13
 100
AcDbLine
   6
DASHDOT
  62
6
  10
 2904.4638282704
  20
 4796.5168539326
  30
0.0
  11
 2904.4638282704
  21
 4766.5168539326
  31
0.0
   0
LINE
   5
1DC
 100
AcDbEntity
   8
LEVEL001
 370
13
 100
AcDbLine
   6
DASHDOT
  62
6
  10
 2889.4638282704
  20
 4781.5168539326
  30
0.0
  11
 2919.4638282704
  21
 4781.5168539326
  31
0.0
   0
LINE
   5
1DD
 100
AcDbEntity
   8
LEVEL001
 370
13
 100
AcDbLine
   6
DASHDOT
  62
6
  10
 2904.4638282704
  20
 4736.5168539326
  30
0.0
  11
 2904.4638282704
  21
 4706.5168539326
  31
0.0
   0
LINE
   5
1DE
 100
AcDbEntity
   8
LEVEL001
 370
13
 100
AcDbLine
   6
DASHDOT
  62
6
  10
 2889.4638282704
  20
 4721.5168539326
  30
0.0
  11
 2919.4638282704
  21
 4721.5168539326
  31
0.0
   0
LINE
   5
1DF
 100
AcDbEntity
   8
LEVEL001
 370
13
 100
AcDbLine
   6
CONTINUOUS
  62
7
  10
 2984.4638282704
  20
 4696.5168539326
  30
0.0
  11
 3098.4305459780
  21
 4696.5168539326
  31
0.0
   0
LINE
   5
1E0
 100
AcDbEntity
   8
LEVEL001
 370
13
 100
AcDbLine
   6
CONTINUOUS
  62
7
  10
 3098.4305459780
  20
 4696.5168539326
  30
0.0
  11
 3098.4305459780
  21
 4806.5168539326
  31
0.0
   0
LINE
   5
1E1
 100
AcDbEntity
   8
LEVEL001
 370
13
 100
AcDbLine
   6
CONTINUOUS
  62
7
  10
 3098.4305459780
  20
 4806.5168539326
  30
0.0
  11
 2984.4638282704
  21
 4806.5168539326
  31
0.0
   0
LINE
   5
1E2
 100
AcDbEntity
   8
LEVEL001
 370
13
 100
AcDbLine
   6
CONTINUOUS
  62
7
  10
 2929.4638282704
  20
 4806.5168539326
  30
0.0
  11
 2984.4638282704
  21
 4806.5168539326
  31
0.0
   0
LINE
   5
1E3
 100
AcDbEntity
   8
LEVEL001
 370
13
 100
AcDbLine
   6
CONTINUOUS
  62
7
  10
 2984.4638282704
  20
 4806.5168539326
  30
0.0
  11
 2984.4638282704
  21
 4696.5168539326
  31
0.0
   0
LINE
   5
1E4
 100
AcDbEntity
   8
LEVEL001
 370
13
 100
AcDbLine
   6
CONTINUOUS
  62
7
  10
 2984.4638282704
  20
 4696.5168539326
  30
0.0
  11
 2929.4638282704
  21
 4696.5168539326
  31
0.0
   0
LINE
   5
1E5
 100
AcDbEntity
   8
LEVEL001
 370
13
 100
AcDbLine
   6
DASHDOT
  62
6
  10
 2953.6129509276
  20
 4762.1022677516
  30
0.0
  11
 2953.6129509276
  21
 4732.1022677516
  31
0.0
   0
LINE
   5
1E6
 100
AcDbEntity
   8
LEVEL001
 370
13
 100
AcDbLine
   6
DASHDOT
  62
6
  10
 2938.6129509276
  20
 4747.1022677516
  30
0.0
  11
 2968.6129509276
  21
 4747.1022677516
  31
0.0
   0
LINE
   5
1E7
 100
AcDbEntity
   8
LEVEL001
 370
13
 100
AcDbLine
   6
CONTINUOUS
  62
3
  10
 2897.4638282704
  20
 4774.5168539326
  30
0.0
  11
 2911.4638282704
  21
 4774.5168539326
  31
0.0
   0
LINE
   5
1E8
 100
AcDbEntity
   8
LEVEL001
 370
13
 100
AcDbLine
   6
CONTINUOUS
  62
3
  10
 2911.4638282704
  20
 4774.5168539326
  30
0.0
  11
 2911.4638282704
  21
 4788.5168539326
  31
0.0
   0
LINE
   5
1E9
 100
AcDbEntity
   8
LEVEL001
 370
13
 100
AcDbLine
   6
CONTINUOUS
  62
3
  10
 2911.4638282704
  20
 4788.5168539326
  30
0.0
  11
 2897.4638282704
  21
 4788.5168539326
  31
0.0
   0
LINE
   5
1EA
 100
AcDbEntity
   8
LEVEL001
 370
13
 100
AcDbLine
   6
CONTINUOUS
  62
3
  10
 2897.4638282704
  20
 4788.5168539326
  30
0.0
  11
 2897.4638282704
  21
 4774.5168539326
  31
0.0
   0
LINE
   5
1EB
 100
AcDbEntity
   8
LEVEL001
 370
13
 100
AcDbLine
   6
CONTINUOUS
  62
3
  10
 2897.4638282704
  20
 4714.5168539326
  30
0.0
  11
 2911.4638282704
  21
 4714.5168539326
  31
0.0
   0
LINE
   5
1EC
 100
AcDbEntity
   8
LEVEL001
 370
13
 100
AcDbLine
   6
CONTINUOUS
  62
3
  10
 2911.4638282704
  20
 4714.5168539326
  30
0.0
  11
 2911.4638282704
  21
 4728.5168539326
  31
0.0
   0
LINE
   5
1ED
 100
AcDbEntity
   8
LEVEL001
 370
13
 100
AcDbLine
   6
CONTINUOUS
  62
3
  10
 2911.4638282704
  20
 4728.5168539326
  30
0.0
  11
 2897.4638282704
  21
 4728.5168539326
  31
0.0
   0
LINE
   5
1EE
 100
AcDbEntity
   8
LEVEL001
 370
13
 100
AcDbLine
   6
CONTINUOUS
  62
3
  10
 2897.4638282704
  20
 4728.5168539326
  30
0.0
  11
 2897.4638282704
  21
 4714.5168539326
  31
0.0
   0
ARC
   5
1EF
 100
AcDbEntity
   8
LEVEL001
 370
13
   6
CONTINUOUS
  62
3
 100
AcDbCircle
  10
 2904.4638282704
  20
 4781.5168539326
  30
0.0
  40
 52.000000000000
 100
AcDbArc
  50
 298.73565374507
  51
 325.00000000000
   0
ARC
   5
1F0
 100
AcDbEntity
   8
LEVEL001
 370
13
   6
CONTINUOUS
  62
3
 100
AcDbCircle
  10
 2904.4638282704
  20
 4781.5168539326
  30
0.0
  40
 68.000000000000
 100
AcDbArc
  50
 291.57057830173
  51
 325.00000000000
   0
ARC
   5
1F1
 100
AcDbEntity
   8
LEVEL001
 370
13
   6
CONTINUOUS
  62
3
 100
AcDbCircle
  10
 2953.6129509276
  20
 4747.1022677516
  30
0.0
  40
 8.0000000000000
 100
AcDbArc
  50
 325.00000000001
  51
 145.00000000001
   0
MTEXT
   5
1F2
 100
AcDbEntity
   8
LEVEL001
 370
13
  62
1
 100
AcDbMText
  10
 5722.2471910112
  20
 2811.5168539326
  30
0.0
  40
 51.428571428572
  41
0.0
  71
4
  72
1
   1
\T1.000000;鏡面　Ｒ＝３０００
   7
GMM001
  44
 0.79999984000003
   0
ARC
   5
1F3
 100
AcDbEntity
   8
LEVEL001
 370
13
   6
CONTINUOUS
  62
7
 100
AcDbCircle
  10
 4189.7471910112
  20
 4984.0168539326
  30
0.0
  40
 65.000000000000
 100
AcDbArc
  50
 90.000000000000
  51
 180.00000000000
   0
LINE
   5
1F4
 100
AcDbEntity
   8
LEVEL001
 370
13
 100
AcDbLine
   6
CONTINUOUS
  62
7
  10
 4854.7471910112
  20
 5049.0168539326
  30
0.0
  11
 4189.7471910112
  21
 5049.0168539326
  31
0.0
   0
ARC
   5
1F5
 100
AcDbEntity
   8
LEVEL001
 370
13
   6
CONTINUOUS
  62
7
 100
AcDbCircle
  10
 4854.7471910112
  20
 4984.0168539326
  30
0.0
  40
 65.000000000000
 100
AcDbArc
  50
0.0
  51
 90.000000000000
   0
LINE
   5
1F6
 100
AcDbEntity
   8
LEVEL001
 370
13
 100
AcDbLine
   6
CONTINUOUS
  62
7
  10
 4124.7471910112
  20
 4984.0168539326
  30
0.0
  11
 4124.7471910112
  21
 4519.0168539326
  31
0.0
   0
ARC
   5
1F7
 100
AcDbEntity
   8
LEVEL001
 370
13
   6
CONTINUOUS
  62
7
 100
AcDbCircle
  10
 4189.7471910112
  20
 4519.0168539326
  30
0.0
  40
 65.000000000000
 100
AcDbArc
  50
 180.00000000000
  51
 270.00000000000
   0
LINE
   5
1F8
 100
AcDbEntity
   8
LEVEL001
 370
13
 100
AcDbLine
   6
CONTINUOUS
  62
7
  10
 4189.7471910112
  20
 4454.0168539326
  30
0.0
  11
 4854.7471910112
  21
 4454.0168539326
  31
0.0
   0
LINE
   5
1F9
 100
AcDbEntity
   8
LEVEL001
 370
13
 100
AcDbLine
   6
CONTINUOUS
  62
7
  10
 4919.7471910112
  20
 4519.0168539326
  30
0.0
  11
 4919.7471910112
  21
 4984.0168539326
  31
0.0
   0
ARC
   5
1FA
 100
AcDbEntity
   8
LEVEL001
 370
13
   6
CONTINUOUS
  62
7
 100
AcDbCircle
  10
 4854.7471910112
  20
 4519.0168539326
  30
0.0
  40
 65.000000000000
 100
AcDbArc
  50
 270.00000000000
  51
0.0
   0
LINE
   5
1FB
 100
AcDbEntity
   8
LEVEL001
 370
13
 100
AcDbLine
   6
DASHDOT
  62
6
  10
 4572.2471910112
  20
 4816.5168539326
  30
0.0
  11
 4572.2471910112
  21
 4786.5168539326
  31
0.0
   0
LINE
   5
1FC
 100
AcDbEntity
   8
LEVEL001
 370
13
 100
AcDbLine
   6
DASHDOT
  62
6
  10
 4557.2471910112
  20
 4801.5168539326
  30
0.0
  11
 4587.2471910112
  21
 4801.5168539326
  31
0.0
   0
CIRCLE
   5
1FD
 100
AcDbEntity
   8
LEVEL001
 370
13
 100
AcDbCircle
   6
CONTINUOUS
  62
3
  10
 4572.2471910112
  20
 4801.5168539326
  30
0.0
  40
 7.0000000000000
   0
LINE
   5
1FE
 100
AcDbEntity
   8
LEVEL001
 370
13
 100
AcDbLine
   6
DASHDOT
  62
6
  10
 4572.2471910112
  20
 4716.5168539326
  30
0.0
  11
 4572.2471910112
  21
 4686.5168539326
  31
0.0
   0
LINE
   5
1FF
 100
AcDbEntity
   8
LEVEL001
 370
13
 100
AcDbLine
   6
DASHDOT
  62
6
  10
 4557.2471910112
  20
 4701.5168539326
  30
0.0
  11
 4587.2471910112
  21
 4701.5168539326
  31
0.0
   0
CIRCLE
   5
200
 100
AcDbEntity
   8
LEVEL001
 370
13
 100
AcDbCircle
   6
CONTINUOUS
  62
3
  10
 4572.2471910112
  20
 4701.5168539326
  30
0.0
  40
 7.0000000000000
   0
LINE
   5
201
 100
AcDbEntity
   8
LEVEL001
 370
13
 100
AcDbLine
   6
DASHDOT
  62
6
  10
 4472.2471910112
  20
 4716.5168539326
  30
0.0
  11
 4472.2471910112
  21
 4686.5168539326
  31
0.0
   0
LINE
   5
202
 100
AcDbEntity
   8
LEVEL001
 370
13
 100
AcDbLine
   6
DASHDOT
  62
6
  10
 4457.2471910112
  20
 4701.5168539326
  30
0.0
  11
 4487.2471910112
  21
 4701.5168539326
  31
0.0
   0
CIRCLE
   5
203
 100
AcDbEntity
   8
LEVEL001
 370
13
 100
AcDbCircle
   6
CONTINUOUS
  62
3
  10
 4472.2471910112
  20
 4701.5168539326
  30
0.0
  40
 7.0000000000000
   0
LINE
   5
204
 100
AcDbEntity
   8
LEVEL001
 370
13
 100
AcDbLine
   6
DASHDOT
  62
6
  10
 4472.2471910112
  20
 4816.5168539326
  30
0.0
  11
 4472.2471910112
  21
 4786.5168539326
  31
0.0
   0
LINE
   5
205
 100
AcDbEntity
   8
LEVEL001
 370
13
 100
AcDbLine
   6
DASHDOT
  62
6
  10
 4457.2471910112
  20
 4801.5168539326
  30
0.0
  11
 4487.2471910112
  21
 4801.5168539326
  31
0.0
   0
CIRCLE
   5
206
 100
AcDbEntity
   8
LEVEL001
 370
13
 100
AcDbCircle
   6
CONTINUOUS
  62
3
  10
 4472.2471910112
  20
 4801.5168539326
  30
0.0
  40
 7.0000000000000
   0
LINE
   5
207
 100
AcDbEntity
   8
LEVEL001
 370
13
 100
AcDbLine
   6
DASHDOT
  62
6
  10
 4047.2471910112
  20
 4751.5168539326
  30
0.0
  11
 4997.2471910112
  21
 4751.5168539326
  31
0.0
   0
LINE
   5
208
 100
AcDbEntity
   8
LEVEL001
 370
13
 100
AcDbLine
   6
DASHDOT
  62
6
  10
 4522.2471910112
  20
 5126.5168539326
  30
0.0
  11
 4522.2471910112
  21
 4376.5168539326
  31
0.0
   0
ARC
   5
209
 100
AcDbEntity
   8
LEVEL001
 370
13
   6
CONTINUOUS
  62
6
 100
AcDbCircle
  10
 4840.4872109088
  20
 4989.6964914662
  30
0.0
  40
 22.500000000000
 100
AcDbArc
  50
 306.81219798807
  51
 36.812197988077
   0
ARC
   5
20A
 100
AcDbEntity
   8
LEVEL001
 370
13
   6
CONTINUOUS
  62
6
 100
AcDbCircle
  10
 4840.4872109088
  20
 4989.6964914662
  30
0.0
  40
 22.500000000000
 100
AcDbArc
  50
 36.812197988091
  51
 126.81219798812
   0
LINE
   5
20B
 100
AcDbEntity
   8
LEVEL001
 370
13
 100
AcDbLine
   6
CONTINUOUS
  62
6
  10
 4827.0053446334
  20
 5007.7100774982
  30
0.0
  11
 4670.8875990232
  21
 4890.8672364440
  31
0.0
   0
LINE
   5
20C
 100
AcDbEntity
   8
LEVEL001
 370
13
 100
AcDbLine
   6
CONTINUOUS
  62
6
  10
 4697.8513315742
  20
 4854.8400643802
  30
0.0
  11
 4853.9690771844
  21
 4971.6829054342
  31
0.0
   0
ARC
   5
20D
 100
AcDbEntity
   8
LEVEL001
 370
13
   6
CONTINUOUS
  62
6
 100
AcDbCircle
  10
 4684.3694652988
  20
 4872.8536504120
  30
0.0
  40
 22.500000000000
 100
AcDbArc
  50
 216.81219798809
  51
 306.81219798811
   0
ARC
   5
20E
 100
AcDbEntity
   8
LEVEL001
 370
13
   6
CONTINUOUS
  62
6
 100
AcDbCircle
  10
 4684.3694652988
  20
 4872.8536504122
  30
0.0
  40
 22.500000000000
 100
AcDbArc
  50
 126.81219798808
  51
 216.81219798809
   0
ARC
   5
20F
 100
AcDbEntity
   8
LEVEL001
 370
13
   6
CONTINUOUS
  62
6
 100
AcDbCircle
  10
 4562.2471910112
  20
 4898.6774804602
  30
0.0
  40
 10.000000000000
 100
AcDbArc
  50
 180.00000000000
  51
 254.79371212395
   0
ARC
   5
210
 100
AcDbEntity
   8
LEVEL001
 370
13
   6
CONTINUOUS
  62
6
 100
AcDbCircle
  10
 4522.2471910112
  20
 4751.5168539326
  30
0.0
  40
 142.50000000000
 100
AcDbArc
  50
 15.206287876058
  51
 74.793712123941
   0
LINE
   5
211
 100
AcDbEntity
   8
LEVEL001
 370
13
 100
AcDbLine
   6
CONTINUOUS
  62
6
  10
 4552.2471910112
  20
 4991.5168539326
  30
0.0
  11
 4552.2471910112
  21
 4898.6774804602
  31
0.0
   0
ARC
   5
212
 100
AcDbEntity
   8
LEVEL001
 370
13
   6
CONTINUOUS
  62
6
 100
AcDbCircle
  10
 4522.2471910112
  20
 4991.5168539326
  30
0.0
  40
 30.000000000000
 100
AcDbArc
  50
0.0
  51
 90.000000000000
   0
ARC
   5
213
 100
AcDbEntity
   8
LEVEL001
 370
13
   6
CONTINUOUS
  62
6
 100
AcDbCircle
  10
 4482.2471910112
  20
 4898.6774804602
  30
0.0
  40
 10.000000000000
 100
AcDbArc
  50
 285.20628787613
  51
0.0
   0
ARC
   5
214
 100
AcDbEntity
   8
LEVEL001
 370
13
   6
CONTINUOUS
  62
6
 100
AcDbCircle
  10
 4522.2471910112
  20
 4751.5168539326
  30
0.0
  40
 142.50000000000
 100
AcDbArc
  50
 105.20628787606
  51
 164.79371212394
   0
LINE
   5
215
 100
AcDbEntity
   8
LEVEL001
 370
13
 100
AcDbLine
   6
CONTINUOUS
  62
6
  10
 4492.2471910112
  20
 4898.6774804602
  30
0.0
  11
 4492.2471910112
  21
 4991.5168539326
  31
0.0
   0
ARC
   5
216
 100
AcDbEntity
   8
LEVEL001
 370
13
   6
CONTINUOUS
  62
6
 100
AcDbCircle
  10
 4522.2471910112
  20
 4991.5168539326
  30
0.0
  40
 30.000000000000
 100
AcDbArc
  50
 90.000000000000
  51
 180.00000000000
   0
ARC
   5
217
 100
AcDbEntity
   8
LEVEL001
 370
13
   6
CONTINUOUS
  62
6
 100
AcDbCircle
  10
 4375.0865644836
  20
 4791.5168539326
  30
0.0
  40
 10.000000000000
 100
AcDbArc
  50
 270.00000000000
  51
 344.79371212395
   0
LINE
   5
218
 100
AcDbEntity
   8
LEVEL001
 370
13
 100
AcDbLine
   6
CONTINUOUS
  62
6
  10
 4375.0865644836
  20
 4781.5168539326
  30
0.0
  11
 4184.7471910112
  21
 4781.5168539326
  31
0.0
   0
ARC
   5
219
 100
AcDbEntity
   8
LEVEL001
 370
13
   6
CONTINUOUS
  62
6
 100
AcDbCircle
  10
 4184.7471910112
  20
 4751.5168539326
  30
0.0
  40
 30.000000000000
 100
AcDbArc
  50
 90.000000000000
  51
 180.00000000000
   0
ARC
   5
21A
 100
AcDbEntity
   8
LEVEL001
 370
13
   6
CONTINUOUS
  62
6
 100
AcDbCircle
  10
 4375.0865644836
  20
 4711.5168539326
  30
0.0
  40
 10.000000000000
 100
AcDbArc
  50
 15.206287876050
  51
 90.000000000000
   0
ARC
   5
21B
 100
AcDbEntity
   8
LEVEL001
 370
13
   6
CONTINUOUS
  62
6
 100
AcDbCircle
  10
 4522.2471910112
  20
 4751.5168539326
  30
0.0
  40
 142.50000000000
 100
AcDbArc
  50
 195.20628787606
  51
 254.79371212394
   0
LINE
   5
21C
 100
AcDbEntity
   8
LEVEL001
 370
13
 100
AcDbLine
   6
CONTINUOUS
  62
6
  10
 4184.7471910112
  20
 4721.5168539326
  30
0.0
  11
 4375.0865644836
  21
 4721.5168539326
  31
0.0
   0
ARC
   5
21D
 100
AcDbEntity
   8
LEVEL001
 370
13
   6
CONTINUOUS
  62
6
 100
AcDbCircle
  10
 4184.7471910112
  20
 4751.5168539326
  30
0.0
  40
 30.000000000000
 100
AcDbArc
  50
 180.00000000000
  51
 270.00000000000
   0
ARC
   5
21E
 100
AcDbEntity
   8
LEVEL001
 370
13
   6
CONTINUOUS
  62
6
 100
AcDbCircle
  10
 4482.2471910112
  20
 4604.3562274050
  30
0.0
  40
 10.000000000000
 100
AcDbArc
  50
0.0
  51
 74.793712123869
   0
LINE
   5
21F
 100
AcDbEntity
   8
LEVEL001
 370
13
 100
AcDbLine
   6
CONTINUOUS
  62
6
  10
 4492.2471910112
  20
 4604.3562274050
  30
0.0
  11
 4492.2471910112
  21
 4511.5168539326
  31
0.0
   0
ARC
   5
220
 100
AcDbEntity
   8
LEVEL001
 370
13
   6
CONTINUOUS
  62
6
 100
AcDbCircle
  10
 4522.2471910112
  20
 4511.5168539326
  30
0.0
  40
 30.000000000000
 100
AcDbArc
  50
 180.00000000000
  51
 270.00000000000
   0
ARC
   5
221
 100
AcDbEntity
   8
LEVEL001
 370
13
   6
CONTINUOUS
  62
6
 100
AcDbCircle
  10
 4562.2471910112
  20
 4604.3562274050
  30
0.0
  40
 10.000000000000
 100
AcDbArc
  50
 105.20628787605
  51
 180.00000000000
   0
ARC
   5
222
 100
AcDbEntity
   8
LEVEL001
 370
13
   6
CONTINUOUS
  62
6
 100
AcDbCircle
  10
 4522.2471910112
  20
 4751.5168539326
  30
0.0
  40
 142.50000000000
 100
AcDbArc
  50
 285.20628787606
  51
 344.79371212394
   0
LINE
   5
223
 100
AcDbEntity
   8
LEVEL001
 370
13
 100
AcDbLine
   6
CONTINUOUS
  62
6
  10
 4552.2471910112
  20
 4511.5168539326
  30
0.0
  11
 4552.2471910112
  21
 4604.3562274050
  31
0.0
   0
ARC
   5
224
 100
AcDbEntity
   8
LEVEL001
 370
13
   6
CONTINUOUS
  62
6
 100
AcDbCircle
  10
 4522.2471910112
  20
 4511.5168539326
  30
0.0
  40
 30.000000000000
 100
AcDbArc
  50
 270.00000000000
  51
0.0
   0
ARC
   5
225
 100
AcDbEntity
   8
LEVEL001
 370
13
   6
CONTINUOUS
  62
6
 100
AcDbCircle
  10
 4669.4078175388
  20
 4711.5168539326
  30
0.0
  40
 10.000000000000
 100
AcDbArc
  50
 90.000000000000
  51
 164.79371212395
   0
LINE
   5
226
 100
AcDbEntity
   8
LEVEL001
 370
13
 100
AcDbLine
   6
CONTINUOUS
  62
6
  10
 4859.7471910112
  20
 4721.5168539326
  30
0.0
  11
 4669.4078175388
  21
 4721.5168539326
  31
0.0
   0
ARC
   5
227
 100
AcDbEntity
   8
LEVEL001
 370
13
   6
CONTINUOUS
  62
6
 100
AcDbCircle
  10
 4859.7471910112
  20
 4751.5168539326
  30
0.0
  40
 30.000000000000
 100
AcDbArc
  50
 270.00000000000
  51
0.0
   0
ARC
   5
228
 100
AcDbEntity
   8
LEVEL001
 370
13
   6
CONTINUOUS
  62
6
 100
AcDbCircle
  10
 4669.4078175388
  20
 4791.5168539326
  30
0.0
  40
 10.000000000000
 100
AcDbArc
  50
 195.20628787605
  51
 270.00000000000
   0
LINE
   5
229
 100
AcDbEntity
   8
LEVEL001
 370
13
 100
AcDbLine
   6
CONTINUOUS
  62
6
  10
 4669.4078175388
  20
 4781.5168539326
  30
0.0
  11
 4859.7471910112
  21
 4781.5168539326
  31
0.0
   0
ARC
   5
22A
 100
AcDbEntity
   8
LEVEL001
 370
13
   6
CONTINUOUS
  62
6
 100
AcDbCircle
  10
 4859.7471910112
  20
 4751.5168539326
  30
0.0
  40
 30.000000000000
 100
AcDbArc
  50
0.0
  51
 90.000000000000
   0
ARC
   5
22B
 100
AcDbEntity
   8
LEVEL001
 370
13
   6
CONTINUOUS
  62
6
 100
AcDbCircle
  10
 4360.1249167236
  20
 4872.8536504122
  30
0.0
  40
 22.500000000000
 100
AcDbArc
  50
 323.18780201191
  51
 53.187802011894
   0
ARC
   5
22C
 100
AcDbEntity
   8
LEVEL001
 370
13
   6
CONTINUOUS
  62
6
 100
AcDbCircle
  10
 4360.1249167236
  20
 4872.8536504120
  30
0.0
  40
 22.500000000000
 100
AcDbArc
  50
 233.18780201189
  51
 323.18780201191
   0
LINE
   5
22D
 100
AcDbEntity
   8
LEVEL001
 370
13
 100
AcDbLine
   6
CONTINUOUS
  62
6
  10
 4217.4890373890
  20
 5007.7100774982
  30
0.0
  11
 4373.6067829992
  21
 4890.8672364440
  31
0.0
   0
ARC
   5
22E
 100
AcDbEntity
   8
LEVEL001
 370
13
   6
CONTINUOUS
  62
6
 100
AcDbCircle
  10
 4204.0071711136
  20
 4989.6964914662
  30
0.0
  40
 22.500000000000
 100
AcDbArc
  50
 53.187802011883
  51
 143.18780201191
   0
ARC
   5
22F
 100
AcDbEntity
   8
LEVEL001
 370
13
   6
CONTINUOUS
  62
6
 100
AcDbCircle
  10
 4204.0071711136
  20
 4989.6964914662
  30
0.0
  40
 22.500000000000
 100
AcDbArc
  50
 143.18780201192
  51
 233.18780201192
   0
LINE
   5
230
 100
AcDbEntity
   8
LEVEL001
 370
13
 100
AcDbLine
   6
CONTINUOUS
  62
6
  10
 4346.6430504482
  20
 4854.8400643802
  30
0.0
  11
 4190.5253048380
  21
 4971.6829054342
  31
0.0
   0
ARC
   5
231
 100
AcDbEntity
   8
LEVEL001
 370
13
   6
CONTINUOUS
  62
6
 100
AcDbCircle
  10
 4204.0071711136
  20
 4513.3372163990
  30
0.0
  40
 22.500000000000
 100
AcDbArc
  50
 216.81219798809
  51
 306.81219798812
   0
ARC
   5
232
 100
AcDbEntity
   8
LEVEL001
 370
13
   6
CONTINUOUS
  62
6
 100
AcDbCircle
  10
 4204.0071711136
  20
 4513.3372163990
  30
0.0
  40
 22.500000000000
 100
AcDbArc
  50
 126.81219798807
  51
 216.81219798809
   0
LINE
   5
233
 100
AcDbEntity
   8
LEVEL001
 370
13
 100
AcDbLine
   6
CONTINUOUS
  62
6
  10
 4346.6430504482
  20
 4648.1936434850
  30
0.0
  11
 4190.5253048380
  21
 4531.3508024310
  31
0.0
   0
ARC
   5
234
 100
AcDbEntity
   8
LEVEL001
 370
13
   6
CONTINUOUS
  62
6
 100
AcDbCircle
  10
 4360.1249167236
  20
 4630.1800574532
  30
0.0
  40
 22.500000000000
 100
AcDbArc
  50
 36.812197988091
  51
 126.81219798811
   0
ARC
   5
235
 100
AcDbEntity
   8
LEVEL001
 370
13
   6
CONTINUOUS
  62
6
 100
AcDbCircle
  10
 4360.1249167236
  20
 4630.1800574530
  30
0.0
  40
 22.500000000000
 100
AcDbArc
  50
 306.81219798811
  51
 36.812197988091
   0
LINE
   5
236
 100
AcDbEntity
   8
LEVEL001
 370
13
 100
AcDbLine
   6
CONTINUOUS
  62
6
  10
 4217.4890373890
  20
 4495.3236303670
  30
0.0
  11
 4373.6067829992
  21
 4612.1664714212
  31
0.0
   0
ARC
   5
237
 100
AcDbEntity
   8
LEVEL001
 370
13
   6
CONTINUOUS
  62
6
 100
AcDbCircle
  10
 4684.3694652988
  20
 4630.1800574530
  30
0.0
  40
 22.500000000000
 100
AcDbArc
  50
 143.18780201191
  51
 233.18780201192
   0
ARC
   5
238
 100
AcDbEntity
   8
LEVEL001
 370
13
   6
CONTINUOUS
  62
6
 100
AcDbCircle
  10
 4684.3694652988
  20
 4630.1800574532
  30
0.0
  40
 22.500000000000
 100
AcDbArc
  50
 53.187802011894
  51
 143.18780201191
   0
LINE
   5
239
 100
AcDbEntity
   8
LEVEL001
 370
13
 100
AcDbLine
   6
CONTINUOUS
  62
6
  10
 4697.8513315742
  20
 4648.1936434850
  30
0.0
  11
 4853.9690771844
  21
 4531.3508024310
  31
0.0
   0
ARC
   5
23A
 100
AcDbEntity
   8
LEVEL001
 370
13
   6
CONTINUOUS
  62
6
 100
AcDbCircle
  10
 4840.4872109088
  20
 4513.3372163990
  30
0.0
  40
 22.500000000000
 100
AcDbArc
  50
 323.18780201192
  51
 53.187802011934
   0
ARC
   5
23B
 100
AcDbEntity
   8
LEVEL001
 370
13
   6
CONTINUOUS
  62
6
 100
AcDbCircle
  10
 4840.4872109088
  20
 4513.3372163990
  30
0.0
  40
 22.500000000000
 100
AcDbArc
  50
 233.18780201188
  51
 323.18780201191
   0
LINE
   5
23C
 100
AcDbEntity
   8
LEVEL001
 370
13
 100
AcDbLine
   6
CONTINUOUS
  62
6
  10
 4827.0053446334
  20
 4495.3236303670
  30
0.0
  11
 4670.8875990232
  21
 4612.1664714212
  31
0.0
   0
ARC
   5
23D
 100
AcDbEntity
   8
LEVEL001
 370
13
   6
CONTINUOUS
  62
7
 100
AcDbCircle
  10
 4389.9596254580
  20
 4789.0168539326
  30
0.0
  40
 25.000000000000
 100
AcDbArc
  50
 270.00000000000
  51
 344.17337986812
   0
ARC
   5
23E
 100
AcDbEntity
   8
LEVEL001
 370
13
   6
CONTINUOUS
  62
7
 100
AcDbCircle
  10
 4389.9596254580
  20
 4714.0168539326
  30
0.0
  40
 25.000000000000
 100
AcDbArc
  50
 15.826620131880
  51
 90.000000000000
   0
ARC
   5
23F
 100
AcDbEntity
   8
LEVEL001
 370
13
   6
CONTINUOUS
  62
7
 100
AcDbCircle
  10
 4484.7471910112
  20
 4619.2292883794
  30
0.0
  40
 25.000000000000
 100
AcDbArc
  50
 359.99999999998
  51
 74.173379868141
   0
ARC
   5
240
 100
AcDbEntity
   8
LEVEL001
 370
13
   6
CONTINUOUS
  62
7
 100
AcDbCircle
  10
 4522.2471910112
  20
 4751.5168539326
  30
0.0
  40
 112.50000000000
 100
AcDbArc
  50
 195.82662013187
  51
 254.17337986813
   0
ARC
   5
241
 100
AcDbEntity
   8
LEVEL001
 370
13
   6
CONTINUOUS
  62
7
 100
AcDbCircle
  10
 4559.7471910112
  20
 4619.2292883794
  30
0.0
  40
 25.000000000000
 100
AcDbArc
  50
 105.82662013186
  51
 180.00000000002
   0
ARC
   5
242
 100
AcDbEntity
   8
LEVEL001
 370
13
   6
CONTINUOUS
  62
7
 100
AcDbCircle
  10
 4654.5347565644
  20
 4714.0168539326
  30
0.0
  40
 25.000000000000
 100
AcDbArc
  50
 90.000000000000
  51
 164.17337986812
   0
ARC
   5
243
 100
AcDbEntity
   8
LEVEL001
 370
13
   6
CONTINUOUS
  62
7
 100
AcDbCircle
  10
 4522.2471910112
  20
 4751.5168539326
  30
0.0
  40
 112.50000000000
 100
AcDbArc
  50
 285.82662013187
  51
 344.17337986813
   0
ARC
   5
244
 100
AcDbEntity
   8
LEVEL001
 370
13
   6
CONTINUOUS
  62
7
 100
AcDbCircle
  10
 4654.5347565644
  20
 4789.0168539326
  30
0.0
  40
 25.000000000000
 100
AcDbArc
  50
 195.82662013188
  51
 270.00000000000
   0
ARC
   5
245
 100
AcDbEntity
   8
LEVEL001
 370
13
   6
CONTINUOUS
  62
7
 100
AcDbCircle
  10
 4559.7471910112
  20
 4883.8044194858
  30
0.0
  40
 25.000000000000
 100
AcDbArc
  50
 180.00000000000
  51
 254.17337986814
   0
ARC
   5
246
 100
AcDbEntity
   8
LEVEL001
 370
13
   6
CONTINUOUS
  62
7
 100
AcDbCircle
  10
 4522.2471910112
  20
 4751.5168539326
  30
0.0
  40
 112.50000000000
 100
AcDbArc
  50
 15.826620131871
  51
 74.173379868126
   0
ARC
   5
247
 100
AcDbEntity
   8
LEVEL001
 370
13
   6
CONTINUOUS
  62
7
 100
AcDbCircle
  10
 4484.7471910112
  20
 4883.8044194858
  30
0.0
  40
 25.000000000000
 100
AcDbArc
  50
 285.82662013186
  51
0.0
   0
ARC
   5
248
 100
AcDbEntity
   8
LEVEL001
 370
13
   6
CONTINUOUS
  62
7
 100
AcDbCircle
  10
 4522.2471910112
  20
 4751.5168539326
  30
0.0
  40
 112.50000000000
 100
AcDbArc
  50
 105.82662013187
  51
 164.17337986813
   0
LINE
   5
249
 100
AcDbEntity
   8
LEVEL001
 370
13
 100
AcDbLine
   6
CONTINUOUS
  62
7
  10
 4509.7471910112
  20
 4883.8044194858
  30
0.0
  11
 4509.7471910112
  21
 4984.0168539326
  31
0.0
   0
ARC
   5
24A
 100
AcDbEntity
   8
LEVEL001
 370
13
   6
CONTINUOUS
  62
7
 100
AcDbCircle
  10
 4522.2471910112
  20
 4984.0168539326
  30
0.0
  40
 12.500000000000
 100
AcDbArc
  50
 90.000000000000
  51
 180.00000000000
   0
LINE
   5
24B
 100
AcDbEntity
   8
LEVEL001
 370
13
 100
AcDbLine
   6
CONTINUOUS
  62
7
  10
 4534.7471910112
  20
 4984.0168539326
  30
0.0
  11
 4534.7471910112
  21
 4883.8044194858
  31
0.0
   0
ARC
   5
24C
 100
AcDbEntity
   8
LEVEL001
 370
13
   6
CONTINUOUS
  62
7
 100
AcDbCircle
  10
 4522.2471910112
  20
 4984.0168539326
  30
0.0
  40
 12.500000000000
 100
AcDbArc
  50
0.0
  51
 90.000000000000
   0
LINE
   5
24D
 100
AcDbEntity
   8
LEVEL001
 370
13
 100
AcDbLine
   6
CONTINUOUS
  62
7
  10
 4654.5347565644
  20
 4764.0168539326
  30
0.0
  11
 4852.2471910112
  21
 4764.0168539326
  31
0.0
   0
ARC
   5
24E
 100
AcDbEntity
   8
LEVEL001
 370
13
   6
CONTINUOUS
  62
7
 100
AcDbCircle
  10
 4852.2471910112
  20
 4751.5168539326
  30
0.0
  40
 12.500000000000
 100
AcDbArc
  50
0.0
  51
 90.000000000000
   0
LINE
   5
24F
 100
AcDbEntity
   8
LEVEL001
 370
13
 100
AcDbLine
   6
CONTINUOUS
  62
7
  10
 4852.2471910112
  20
 4739.0168539326
  30
0.0
  11
 4654.5347565644
  21
 4739.0168539326
  31
0.0
   0
ARC
   5
250
 100
AcDbEntity
   8
LEVEL001
 370
13
   6
CONTINUOUS
  62
7
 100
AcDbCircle
  10
 4852.2471910112
  20
 4751.5168539326
  30
0.0
  40
 12.500000000000
 100
AcDbArc
  50
 270.00000000000
  51
0.0
   0
LINE
   5
251
 100
AcDbEntity
   8
LEVEL001
 370
13
 100
AcDbLine
   6
CONTINUOUS
  62
7
  10
 4509.7471910112
  20
 4619.2292883794
  30
0.0
  11
 4509.7471910112
  21
 4519.0168539326
  31
0.0
   0
ARC
   5
252
 100
AcDbEntity
   8
LEVEL001
 370
13
   6
CONTINUOUS
  62
7
 100
AcDbCircle
  10
 4522.2471910112
  20
 4519.0168539326
  30
0.0
  40
 12.500000000000
 100
AcDbArc
  50
 180.00000000000
  51
 270.00000000000
   0
LINE
   5
253
 100
AcDbEntity
   8
LEVEL001
 370
13
 100
AcDbLine
   6
CONTINUOUS
  62
7
  10
 4534.7471910112
  20
 4519.0168539326
  30
0.0
  11
 4534.7471910112
  21
 4619.2292883794
  31
0.0
   0
ARC
   5
254
 100
AcDbEntity
   8
LEVEL001
 370
13
   6
CONTINUOUS
  62
7
 100
AcDbCircle
  10
 4522.2471910112
  20
 4519.0168539326
  30
0.0
  40
 12.500000000000
 100
AcDbArc
  50
 270.00000000000
  51
0.0
   0
LINE
   5
255
 100
AcDbEntity
   8
LEVEL001
 370
13
 100
AcDbLine
   6
CONTINUOUS
  62
7
  10
 4192.2471910112
  20
 4739.0168539326
  30
0.0
  11
 4389.9596254580
  21
 4739.0168539326
  31
0.0
   0
ARC
   5
256
 100
AcDbEntity
   8
LEVEL001
 370
13
   6
CONTINUOUS
  62
7
 100
AcDbCircle
  10
 4192.2471910112
  20
 4751.5168539326
  30
0.0
  40
 12.500000000000
 100
AcDbArc
  50
 180.00000000000
  51
 270.00000000000
   0
LINE
   5
257
 100
AcDbEntity
   8
LEVEL001
 370
13
 100
AcDbLine
   6
CONTINUOUS
  62
7
  10
 4389.9596254580
  20
 4764.0168539326
  30
0.0
  11
 4192.2471910112
  21
 4764.0168539326
  31
0.0
   0
ARC
   5
258
 100
AcDbEntity
   8
LEVEL001
 370
13
   6
CONTINUOUS
  62
7
 100
AcDbCircle
  10
 4192.2471910112
  20
 4751.5168539326
  30
0.0
  40
 12.500000000000
 100
AcDbArc
  50
 90.000000000000
  51
 180.00000000000
   0
ARC
   5
259
 100
AcDbEntity
   8
LEVEL001
 370
13
   6
CONTINUOUS
  62
7
 100
AcDbCircle
  10
 4836.4841917910
  20
 4986.7005211830
  30
0.0
  40
 9.9999999998834
 100
AcDbArc
  50
 36.812197988106
  51
 126.81219798808
   0
ARC
   5
25A
 100
AcDbEntity
   8
LEVEL001
 370
13
   6
CONTINUOUS
  62
7
 100
AcDbCircle
  10
 4836.4841917910
  20
 4986.7005211830
  30
0.0
  40
 9.9999999998834
 100
AcDbArc
  50
 306.81219798812
  51
 36.812197988106
   0
LINE
   5
25B
 100
AcDbEntity
   8
LEVEL001
 370
13
 100
AcDbLine
   6
CONTINUOUS
  62
7
  10
 4842.4761323578
  20
 4978.6944829466
  30
0.0
  11
 4694.3644249840
  21
 4867.8435824592
  31
0.0
   0
ARC
   5
25C
 100
AcDbEntity
   8
LEVEL001
 370
13
   6
CONTINUOUS
  62
7
 100
AcDbCircle
  10
 4688.3724844172
  20
 4875.8496206956
  30
0.0
  40
 9.9999999998834
 100
AcDbArc
  50
 216.81219798809
  51
 306.81219798806
   0
LINE
   5
25D
 100
AcDbEntity
   8
LEVEL001
 370
13
 100
AcDbLine
   6
CONTINUOUS
  62
7
  10
 4682.3805438502
  20
 4883.8556589320
  30
0.0
  11
 4830.4922512242
  21
 4994.7065594194
  31
0.0
   0
ARC
   5
25E
 100
AcDbEntity
   8
LEVEL001
 370
13
   6
CONTINUOUS
  62
7
 100
AcDbCircle
  10
 4688.3724844170
  20
 4875.8496206956
  30
0.0
  40
 9.9999999998834
 100
AcDbArc
  50
 126.81219798819
  51
 216.81219798809
   0
ARC
   5
25F
 100
AcDbEntity
   8
LEVEL001
 370
13
   6
CONTINUOUS
  62
7
 100
AcDbCircle
  10
 4208.0101902314
  20
 4986.7005211830
  30
0.0
  40
 9.9999999998834
 100
AcDbArc
  50
 53.187802011986
  51
 143.18780201194
   0
ARC
   5
260
 100
AcDbEntity
   8
LEVEL001
 370
13
   6
CONTINUOUS
  62
7
 100
AcDbCircle
  10
 4208.0101902314
  20
 4986.7005211830
  30
0.0
  40
 9.9999999998834
 100
AcDbArc
  50
 143.18780201194
  51
 233.18780201188
   0
LINE
   5
261
 100
AcDbEntity
   8
LEVEL001
 370
13
 100
AcDbLine
   6
CONTINUOUS
  62
7
  10
 4202.0182496646
  20
 4978.6944829466
  30
0.0
  11
 4350.1299570384
  21
 4867.8435824592
  31
0.0
   0
LINE
   5
262
 100
AcDbEntity
   8
LEVEL001
 370
13
 100
AcDbLine
   6
CONTINUOUS
  62
7
  10
 4362.1138381722
  20
 4883.8556589320
  30
0.0
  11
 4214.0021307982
  21
 4994.7065594194
  31
0.0
   0
ARC
   5
263
 100
AcDbEntity
   8
LEVEL001
 370
13
   6
CONTINUOUS
  62
7
 100
AcDbCircle
  10
 4356.1218976052
  20
 4875.8496206956
  30
0.0
  40
 9.9999999998834
 100
AcDbArc
  50
 233.18780201201
  51
 323.18780201191
   0
ARC
   5
264
 100
AcDbEntity
   8
LEVEL001
 370
13
   6
CONTINUOUS
  62
7
 100
AcDbCircle
  10
 4356.1218976054
  20
 4875.8496206956
  30
0.0
  40
 9.9999999998834
 100
AcDbArc
  50
 323.18780201191
  51
 53.187802011878
   0
ARC
   5
265
 100
AcDbEntity
   8
LEVEL001
 370
13
   6
CONTINUOUS
  62
7
 100
AcDbCircle
  10
 4836.4841917910
  20
 4516.3331866822
  30
0.0
  40
 9.9999999998834
 100
AcDbArc
  50
 233.18780201192
  51
 323.18780201189
   0
ARC
   5
266
 100
AcDbEntity
   8
LEVEL001
 370
13
   6
CONTINUOUS
  62
7
 100
AcDbCircle
  10
 4836.4841917910
  20
 4516.3331866822
  30
0.0
  40
 9.9999999998834
 100
AcDbArc
  50
 323.18780201189
  51
 53.187802011878
   0
LINE
   5
267
 100
AcDbEntity
   8
LEVEL001
 370
13
 100
AcDbLine
   6
CONTINUOUS
  62
7
  10
 4842.4761323578
  20
 4524.3392249186
  30
0.0
  11
 4694.3644249840
  21
 4635.1901254060
  31
0.0
   0
LINE
   5
268
 100
AcDbEntity
   8
LEVEL001
 370
13
 100
AcDbLine
   6
CONTINUOUS
  62
7
  10
 4682.3805438502
  20
 4619.1780489332
  30
0.0
  11
 4830.4922512242
  21
 4508.3271484458
  31
0.0
   0
ARC
   5
269
 100
AcDbEntity
   8
LEVEL001
 370
13
   6
CONTINUOUS
  62
7
 100
AcDbCircle
  10
 4688.3724844172
  20
 4627.1840871696
  30
0.0
  40
 9.9999999998834
 100
AcDbArc
  50
 53.187802011944
  51
 143.18780201191
   0
ARC
   5
26A
 100
AcDbEntity
   8
LEVEL001
 370
13
   6
CONTINUOUS
  62
7
 100
AcDbCircle
  10
 4688.3724844170
  20
 4627.1840871696
  30
0.0
  40
 9.9999999998834
 100
AcDbArc
  50
 143.18780201191
  51
 233.18780201181
   0
LINE
   5
26B
 100
AcDbEntity
   8
LEVEL001
 370
13
 100
AcDbLine
   6
CONTINUOUS
  62
7
  10
 4202.0182496646
  20
 4524.3392249186
  30
0.0
  11
 4350.1299570384
  21
 4635.1901254060
  31
0.0
   0
LINE
   5
26C
 100
AcDbEntity
   8
LEVEL001
 370
13
 100
AcDbLine
   6
CONTINUOUS
  62
7
  10
 4362.1138381722
  20
 4619.1780489332
  30
0.0
  11
 4214.0021307982
  21
 4508.3271484458
  31
0.0
   0
ARC
   5
26D
 100
AcDbEntity
   8
LEVEL001
 370
13
   6
CONTINUOUS
  62
7
 100
AcDbCircle
  10
 4356.1218976052
  20
 4627.1840871696
  30
0.0
  40
 9.9999999998834
 100
AcDbArc
  50
 36.812197988089
  51
 126.81219798799
   0
ARC
   5
26E
 100
AcDbEntity
   8
LEVEL001
 370
13
   6
CONTINUOUS
  62
7
 100
AcDbCircle
  10
 4356.1218976054
  20
 4627.1840871696
  30
0.0
  40
 9.9999999998834
 100
AcDbArc
  50
 306.81219798812
  51
 36.812197988089
   0
ARC
   5
26F
 100
AcDbEntity
   8
LEVEL001
 370
13
   6
CONTINUOUS
  62
7
 100
AcDbCircle
  10
 4208.0101902314
  20
 4516.3331866822
  30
0.0
  40
 9.9999999998834
 100
AcDbArc
  50
 216.81219798806
  51
 306.81219798801
   0
ARC
   5
270
 100
AcDbEntity
   8
LEVEL001
 370
13
   6
CONTINUOUS
  62
7
 100
AcDbCircle
  10
 4208.0101902314
  20
 4516.3331866822
  30
0.0
  40
 9.9999999998834
 100
AcDbArc
  50
 126.81219798812
  51
 216.81219798806
   0
ARC
   5
271
 100
AcDbEntity
   8
LEVEL001
 370
13
   6
CONTINUOUS
  62
7
 100
AcDbCircle
  10
 4854.7471910112
  20
 4984.0168539326
  30
0.0
  40
 90.900000000000
 100
AcDbArc
  50
0.0
  51
 90.000000000000
   0
LINE
   5
272
 100
AcDbEntity
   8
LEVEL001
 370
13
 100
AcDbLine
   6
CONTINUOUS
  62
7
  10
 4945.6471910112
  20
 4519.0168539326
  30
0.0
  11
 4945.6471910112
  21
 4984.0168539326
  31
0.0
   0
LINE
   5
273
 100
AcDbEntity
   8
LEVEL001
 370
13
 100
AcDbLine
   6
CONTINUOUS
  62
7
  10
 4930.6471910112
  20
 4519.0168539326
  30
0.0
  11
 4930.6471910112
  21
 4984.0168539326
  31
0.0
   0
ARC
   5
274
 100
AcDbEntity
   8
LEVEL001
 370
13
   6
CONTINUOUS
  62
7
 100
AcDbCircle
  10
 4854.7471910112
  20
 4984.0168539326
  30
0.0
  40
 75.900000000000
 100
AcDbArc
  50
0.0
  51
 90.000000000000
   0
LINE
   5
275
 100
AcDbEntity
   8
LEVEL001
 370
13
 100
AcDbLine
   6
CONTINUOUS
  62
7
  10
 4189.7471910112
  20
 4428.1168539326
  30
0.0
  11
 4854.7471910112
  21
 4428.1168539326
  31
0.0
   0
ARC
   5
276
 100
AcDbEntity
   8
LEVEL001
 370
13
   6
CONTINUOUS
  62
7
 100
AcDbCircle
  10
 4854.7471910112
  20
 4519.0168539326
  30
0.0
  40
 90.900000000000
 100
AcDbArc
  50
 270.00000000000
  51
0.0
   0
LINE
   5
277
 100
AcDbEntity
   8
LEVEL001
 370
13
 100
AcDbLine
   6
CONTINUOUS
  62
7
  10
 4189.7471910112
  20
 4443.1168539326
  30
0.0
  11
 4854.7471910112
  21
 4443.1168539326
  31
0.0
   0
ARC
   5
278
 100
AcDbEntity
   8
LEVEL001
 370
13
   6
CONTINUOUS
  62
7
 100
AcDbCircle
  10
 4854.7471910112
  20
 4519.0168539326
  30
0.0
  40
 75.900000000000
 100
AcDbArc
  50
 270.00000000000
  51
0.0
   0
ARC
   5
279
 100
AcDbEntity
   8
LEVEL001
 370
13
   6
CONTINUOUS
  62
7
 100
AcDbCircle
  10
 4189.7471910112
  20
 4519.0168539326
  30
0.0
  40
 90.900000000000
 100
AcDbArc
  50
 180.00000000000
  51
 270.00000000000
   0
LINE
   5
27A
 100
AcDbEntity
   8
LEVEL001
 370
13
 100
AcDbLine
   6
CONTINUOUS
  62
7
  10
 4098.8471910112
  20
 4984.0168539326
  30
0.0
  11
 4098.8471910112
  21
 4519.0168539326
  31
0.0
   0
LINE
   5
27B
 100
AcDbEntity
   8
LEVEL001
 370
13
 100
AcDbLine
   6
CONTINUOUS
  62
7
  10
 4113.8471910112
  20
 4984.0168539326
  30
0.0
  11
 4113.8471910112
  21
 4519.0168539326
  31
0.0
   0
ARC
   5
27C
 100
AcDbEntity
   8
LEVEL001
 370
13
   6
CONTINUOUS
  62
7
 100
AcDbCircle
  10
 4189.7471910112
  20
 4519.0168539326
  30
0.0
  40
 75.900000000000
 100
AcDbArc
  50
 180.00000000000
  51
 270.00000000000
   0
LINE
   5
27D
 100
AcDbEntity
   8
LEVEL001
 370
13
 100
AcDbLine
   6
CONTINUOUS
  62
7
  10
 4854.7471910112
  20
 5074.9168539326
  30
0.0
  11
 4189.7471910112
  21
 5074.9168539326
  31
0.0
   0
ARC
   5
27E
 100
AcDbEntity
   8
LEVEL001
 370
13
   6
CONTINUOUS
  62
7
 100
AcDbCircle
  10
 4189.7471910112
  20
 4984.0168539326
  30
0.0
  40
 90.900000000000
 100
AcDbArc
  50
 90.000000000000
  51
 180.00000000000
   0
LINE
   5
27F
 100
AcDbEntity
   8
LEVEL001
 370
13
 100
AcDbLine
   6
CONTINUOUS
  62
7
  10
 4854.7471910112
  20
 5059.9168539326
  30
0.0
  11
 4189.7471910112
  21
 5059.9168539326
  31
0.0
   0
ARC
   5
280
 100
AcDbEntity
   8
LEVEL001
 370
13
   6
CONTINUOUS
  62
7
 100
AcDbCircle
  10
 4189.7471910112
  20
 4984.0168539326
  30
0.0
  40
 75.900000000000
 100
AcDbArc
  50
 90.000000000000
  51
 180.00000000000
   0
CIRCLE
   5
281
 100
AcDbEntity
   8
LEVEL001
 370
13
 100
AcDbCircle
   6
CONTINUOUS
  62
1
  10
 4022.2471910112
  20
 4301.5168539326
  30
0.0
  40
 69.999997913838
   0
MTEXT
   5
282
 100
AcDbEntity
   8
LEVEL001
 370
13
  62
1
 100
AcDbMText
  10
 4022.2471910112
  20
 4301.5168539326
  30
0.0
  40
 57.142857142858
  41
0.0
  71
5
  72
1
   1
\T1.000000;2
   7
GMM001
  44
 0.79999984000003
   0
LEADER
   5
283
 100
AcDbEntity
   8
LEVEL001
 370
13
   6
CONTINUOUS
  62
1
 100
AcDbLeader
   3
GMM001
  73
3
  74
1
  75
0
  40
 66.000000000000
  41
0.0
  76
2
  10
 4172.2471910112
  20
 4551.5168539326
  30
0.0
  10
 4058.3289746302
  20
 4361.5010568432
  30
0.0
  77
1
   0
CIRCLE
   5
284
 100
AcDbEntity
   8
LEVEL001
 370
13
 100
AcDbCircle
   6
CONTINUOUS
  62
1
  10
 3381.7410091388
  20
 5251.5168539326
  30
0.0
  40
 69.999997913838
   0
CIRCLE
   5
285
 100
AcDbEntity
   8
LEVEL001
 370
13
 100
AcDbCircle
   6
CONTINUOUS
  62
1
  10
 3521.7410049666
  20
 5251.5168539326
  30
0.0
  40
 69.999997913838
   0
CIRCLE
   5
286
 100
AcDbEntity
   8
LEVEL001
 370
13
 100
AcDbCircle
   6
CONTINUOUS
  62
1
  10
 3222.2471910112
  20
 5251.5168539326
  30
0.0
  40
 70.000000000000
   0
MTEXT
   5
287
 100
AcDbEntity
   8
LEVEL001
 370
13
  62
1
 100
AcDbMText
  10
 3381.7410091388
  20
 5251.5168539326
  30
0.0
  40
 57.142857142858
  41
0.0
  71
5
  72
1
   1
\T1.000000;6
   7
GMM001
  44
 0.79999984000003
   0
MTEXT
   5
288
 100
AcDbEntity
   8
LEVEL001
 370
13
  62
1
 100
AcDbMText
  10
 3521.7410049666
  20
 5251.5168539326
  30
0.0
  40
 57.142857142858
  41
0.0
  71
5
  72
1
   1
\T1.000000;8
   7
GMM001
  44
 0.79999984000003
   0
MTEXT
   5
289
 100
AcDbEntity
   8
LEVEL001
 370
13
  62
1
 100
AcDbMText
  10
 3222.2471910112
  20
 5251.5168539326
  30
0.0
  40
 57.142857142858
  41
0.0
  71
5
  72
1
   1
\T1.000000;11
   7
GMM001
  44
 0.79999984000003
   0
LEADER
   5
28A
 100
AcDbEntity
   8
LEVEL001
 370
13
   6
CONTINUOUS
  62
1
 100
AcDbLeader
   3
GMM002
  73
3
  74
1
  75
0
  40
 60.000000000000
  41
0.0
  76
2
  10
 3098.4305459780
  20
 4806.5168539326
  30
0.0
  10
 3345.6936261316
  20
 5191.5119717456
  30
0.0
  77
1
   0
LEADER
   5
28B
 100
AcDbEntity
   8
LEVEL001
 370
13
   6
CONTINUOUS
  62
1
 100
AcDbLeader
   3
GMM002
  73
3
  74
1
  75
0
  40
 60.000000000000
  41
0.0
  76
2
  10
 3022.2471910112
  20
 5032.1168539326
  30
0.0
  10
 3175.1024548108
  20
 5199.7735079972
  30
0.0
  77
1
   0
LINE
   5
28C
 100
AcDbEntity
   8
LEVEL001
 370
13
 100
AcDbLine
   6
CONTINUOUS
  62
3
  10
 2834.4638282704
  20
 5073.1168539326
  30
0.0
  11
 2834.4638282704
  21
 4429.9168539326
  31
0.0
   0
ARC
   5
28D
 100
AcDbEntity
   8
LEVEL001
 370
13
   6
CONTINUOUS
  62
3
 100
AcDbCircle
  10
 2836.2638282704
  20
 5073.1168539326
  30
0.0
  40
 1.8000000000002
 100
AcDbArc
  50
 90.000000000000
  51
 180.00000000000
   0
LINE
   5
28E
 100
AcDbEntity
   8
LEVEL001
 370
13
 100
AcDbLine
   6
CONTINUOUS
  62
3
  10
 2838.0638282704
  20
 4429.9168539326
  30
0.0
  11
 2838.0638282704
  21
 5073.1168539326
  31
0.0
   0
ARC
   5
28F
 100
AcDbEntity
   8
LEVEL001
 370
13
   6
CONTINUOUS
  62
3
 100
AcDbCircle
  10
 2836.2638282704
  20
 5073.1168539326
  30
0.0
  40
 1.8000000000002
 100
AcDbArc
  50
0.0
  51
 90.000000000000
   0
ARC
   5
290
 100
AcDbEntity
   8
LEVEL001
 370
13
   6
CONTINUOUS
  62
1
 100
AcDbCircle
  10
 2815.1529747564
  20
 4832.8863134326
  30
0.0
  40
 5.0000000000000
 100
AcDbArc
  50
 254.02764019586
  51
 270.00000000000
   0
LINE
   5
291
 100
AcDbEntity
   8
LEVEL001
 370
13
 100
AcDbLine
   6
CONTINUOUS
  62
1
  10
 2815.8677094682
  20
 4827.8863134326
  30
0.0
  11
 2834.4638282704
  21
 4827.8863134326
  31
0.0
   0
ARC
   5
292
 100
AcDbEntity
   8
LEVEL001
 370
13
   6
CONTINUOUS
  62
1
 100
AcDbCircle
  10
 2815.8677094682
  20
 4837.8863134326
  30
0.0
  40
 10.000000000000
 100
AcDbArc
  50
 253.42053515301
  51
 270.00000000000
   0
ARC
   5
293
 100
AcDbEntity
   8
LEVEL001
 370
13
   6
CONTINUOUS
  62
1
 100
AcDbCircle
  10
 2834.4151266988
  20
 4900.1839322802
  30
0.0
  40
 75.000000000000
 100
AcDbArc
  50
 177.93508589806
  51
 253.42053515294
   0
LINE
   5
294
 100
AcDbEntity
   8
LEVEL001
 370
13
 100
AcDbLine
   6
CONTINUOUS
  62
1
  10
 2834.4638282704
  20
 5054.9168539326
  30
0.0
  11
 2759.4638282704
  21
 5054.9168539326
  31
0.0
   0
LINE
   5
295
 100
AcDbEntity
   8
LEVEL001
 370
13
 100
AcDbLine
   6
CONTINUOUS
  62
1
  10
 2759.4638282704
  20
 5054.9168539326
  30
0.0
  11
 2759.4638282704
  21
 4897.4815511276
  31
0.0
   0
LINE
   5
296
 100
AcDbEntity
   8
LEVEL001
 370
13
 100
AcDbLine
   6
HIDDEN
  62
1
  10
 2814.4152819992
  20
 5054.0168539326
  30
0.0
  11
 2834.4638282704
  21
 5054.0168539326
  31
0.0
   0
ARC
   5
297
 100
AcDbEntity
   8
LEVEL001
 370
13
   6
HIDDEN
  62
1
 100
AcDbCircle
  10
 2814.4152819992
  20
 5044.0168539326
  30
0.0
  40
 10.000000000000
 100
AcDbArc
  50
 90.000000000000
  51
 174.38599941373
   0
LINE
   5
298
 100
AcDbEntity
   8
LEVEL001
 370
13
 100
AcDbLine
   6
HIDDEN
  62
1
  10
 2814.4152819992
  20
 5054.0168539326
  30
0.0
  11
 2814.4152819992
  21
 4827.8863134326
  31
0.0
   0
ARC
   5
299
 100
AcDbEntity
   8
LEVEL001
 370
13
   6
HIDDEN
  62
1
 100
AcDbCircle
  10
 5790.0738225580
  20
 4751.5168539326
  30
0.0
  40
 3000.0000000000
 100
AcDbArc
  50
 174.38599941370
  51
 178.33306537835
   0
CIRCLE
   5
29A
 100
AcDbEntity
   8
LEVEL001
 370
13
 100
AcDbCircle
   6
CONTINUOUS
  62
1
  10
 2322.2471910112
  20
 5251.5168539326
  30
0.0
  40
 69.999997913838
   0
MTEXT
   5
29B
 100
AcDbEntity
   8
LEVEL001
 370
13
  62
1
 100
AcDbMText
  10
 2322.2471910112
  20
 5251.5168539326
  30
0.0
  40
 57.142857142858
  41
0.0
  71
5
  72
1
   1
\T1.000000;3
   7
GMM001
  44
 0.79999984000003
   0
CIRCLE
   5
29C
 100
AcDbEntity
   8
LEVEL001
 370
13
 100
AcDbCircle
   6
CONTINUOUS
  62
1
  10
 2732.2471951836
  20
 5251.5168539326
  30
0.0
  40
 69.999997913838
   0
CIRCLE
   5
29D
 100
AcDbEntity
   8
LEVEL001
 370
13
 100
AcDbCircle
   6
CONTINUOUS
  62
1
  10
 2872.2471910112
  20
 5251.5168539326
  30
0.0
  40
 69.999997913838
   0
MTEXT
   5
29E
 100
AcDbEntity
   8
LEVEL001
 370
13
  62
1
 100
AcDbMText
  10
 2872.2471910112
  20
 5251.5168539326
  30
0.0
  40
 57.142857142858
  41
0.0
  71
5
  72
1
   1
\T1.000000;7
   7
GMM001
  44
 0.79999984000003
   0
MTEXT
   5
29F
 100
AcDbEntity
   8
LEVEL001
 370
13
  62
1
 100
AcDbMText
  10
 2732.2471951836
  20
 5251.5168539326
  30
0.0
  40
 57.142857142858
  41
0.0
  71
5
  72
1
   1
\T1.000000;5
   7
GMM001
  44
 0.79999984000003
   0
LEADER
   5
2A0
 100
AcDbEntity
   8
LEVEL001
 370
13
   6
CONTINUOUS
  62
1
 100
AcDbLeader
   3
GMM002
  73
3
  74
1
  75
0
  40
 60.000000000000
  41
0.0
  76
2
  10
 2915.7350944076
  20
 4806.5168539326
  30
0.0
  10
 2878.7921985544
  20
 5181.8235071612
  30
0.0
  77
1
   0
LEADER
   5
2A1
 100
AcDbEntity
   8
LEVEL001
 370
13
   6
CONTINUOUS
  62
1
 100
AcDbLeader
   3
GMM002
  73
3
  74
1
  75
0
  40
 60.000000000000
  41
0.0
  76
2
  10
 2759.4638282704
  20
 5054.9168539326
  30
0.0
  10
 2386.0241650684
  20
 5222.6638248360
  30
0.0
  77
1
   0
LEADER
   5
2A2
 100
AcDbEntity
   8
LEVEL001
 370
13
   6
CONTINUOUS
  62
1
 100
AcDbLeader
   3
GMM002
  73
3
  74
1
  75
0
  40
 60.000000000000
  41
0.0
  76
2
  10
 1854.7471910112
  20
 5054.9168539326
  30
0.0
  10
 2257.7419160562
  20
 5224.3310265420
  30
0.0
  77
1
   0
ARC
   5
2A3
 100
AcDbEntity
   8
LEVEL001
 370
13
   6
CONTINUOUS
  62
7
 100
AcDbCircle
  10
 5790.0738225580
  20
 4751.5168539326
  30
0.0
  40
 3000.0000000000
 100
AcDbArc
  50
 178.33306537835
  51
 185.61400058630
   0
LINE
   5
2A4
 100
AcDbEntity
   8
LEVEL001
 370
13
 100
AcDbLine
   6
CONTINUOUS
  62
6
  10
 2814.4152819992
  20
 4827.9923529290
  30
0.0
  11
 2814.4152819992
  21
 4449.0168539326
  31
0.0
   0
LINE
   5
2A5
 100
AcDbEntity
   8
LEVEL001
 370
13
 100
AcDbLine
   6
CONTINUOUS
  62
7
  10
 2838.0638282704
  20
 4806.5168539326
  30
0.0
  11
 2929.4638282704
  21
 4806.5168539326
  31
0.0
   0
LINE
   5
2A6
 100
AcDbEntity
   8
LEVEL001
 370
13
 100
AcDbLine
   6
CONTINUOUS
  62
7
  10
 2929.4638282704
  20
 4806.5168539326
  30
0.0
  11
 2929.4638282704
  21
 4696.5168539326
  31
0.0
   0
LINE
   5
2A7
 100
AcDbEntity
   8
LEVEL001
 370
13
 100
AcDbLine
   6
CONTINUOUS
  62
7
  10
 2929.4638282704
  20
 4696.5168539326
  30
0.0
  11
 2838.7638282704
  21
 4696.5168539326
  31
0.0
   0
ARC
   5
2A8
 100
AcDbEntity
   8
LEVEL001
 370
13
   6
CONTINUOUS
  62
3
 100
AcDbCircle
  10
 2836.2638282704
  20
 4429.9168539326
  30
0.0
  40
 1.8000000000002
 100
AcDbArc
  50
 180.00000000000
  51
 270.00000000000
   0
ARC
   5
2A9
 100
AcDbEntity
   8
LEVEL001
 370
13
   6
CONTINUOUS
  62
3
 100
AcDbCircle
  10
 2836.2638282704
  20
 4429.9168539326
  30
0.0
  40
 1.8000000000002
 100
AcDbArc
  50
 270.00000000000
  51
0.0
   0
LINE
   5
2AA
 100
AcDbEntity
   8
LEVEL001
 370
13
 100
AcDbLine
   6
CONTINUOUS
  62
7
  10
 2834.4638282704
  20
 4449.0168539326
  30
0.0
  11
 2814.4152819992
  21
 4449.0168539326
  31
0.0
   0
ARC
   5
2AB
 100
AcDbEntity
   8
LEVEL001
 370
13
   6
CONTINUOUS
  62
7
 100
AcDbCircle
  10
 2814.4152819992
  20
 4459.0168539326
  30
0.0
  40
 10.000000000000
 100
AcDbArc
  50
 185.61400058627
  51
 270.00000000000
   0
LINE
   5
2AC
 100
AcDbEntity
   8
LEVEL001
 370
13
 100
AcDbLine
   6
CONTINUOUS
  62
7
  10
 1924.7471910112
  20
 4519.0168539326
  30
0.0
  11
 1924.7471910112
  21
 4984.0168539326
  31
0.0
   0
ARC
   5
2AD
 100
AcDbEntity
   8
LEVEL001
 370
13
   6
CONTINUOUS
  62
7
 100
AcDbCircle
  10
 1854.7471910112
  20
 4519.0168539326
  30
0.0
  40
 70.000000000000
 100
AcDbArc
  50
 270.00000000000
  51
0.0
   0
LINE
   5
2AE
 100
AcDbEntity
   8
LEVEL001
 370
13
 100
AcDbLine
   6
CONTINUOUS
  62
7
  10
 1189.7471910112
  20
 4449.0168539326
  30
0.0
  11
 1854.7471910112
  21
 4449.0168539326
  31
0.0
   0
LINE
   5
2AF
 100
AcDbEntity
   8
LEVEL001
 370
13
 100
AcDbLine
   6
CONTINUOUS
  62
3
  10
 1189.7471910112
  20
 4428.1168539326
  30
0.0
  11
 1854.7471910112
  21
 4428.1168539326
  31
0.0
   0
ARC
   5
2B0
 100
AcDbEntity
   8
LEVEL001
 370
13
   6
CONTINUOUS
  62
3
 100
AcDbCircle
  10
 1854.7471910112
  20
 4519.0168539326
  30
0.0
  40
 90.900000000000
 100
AcDbArc
  50
 270.00000000000
  51
0.0
   0
LINE
   5
2B1
 100
AcDbEntity
   8
LEVEL001
 370
13
 100
AcDbLine
   6
CONTINUOUS
  62
3
  10
 1945.6471910112
  20
 4519.0168539326
  30
0.0
  11
 1945.6471910112
  21
 4984.0168539326
  31
0.0
   0
LINE
   5
2B2
 100
AcDbEntity
   8
LEVEL001
 370
13
 100
AcDbLine
   6
CONTINUOUS
  62
3
  10
 1930.6471910112
  20
 4519.0168539326
  30
0.0
  11
 1930.6471910112
  21
 4984.0168539326
  31
0.0
   0
LINE
   5
2B3
 100
AcDbEntity
   8
LEVEL001
 370
13
 100
AcDbLine
   6
CONTINUOUS
  62
3
  10
 1189.7471910112
  20
 4443.1168539326
  30
0.0
  11
 1854.7471910112
  21
 4443.1168539326
  31
0.0
   0
ARC
   5
2B4
 100
AcDbEntity
   8
LEVEL001
 370
13
   6
CONTINUOUS
  62
3
 100
AcDbCircle
  10
 1854.7471910112
  20
 4519.0168539326
  30
0.0
  40
 75.900000000000
 100
AcDbArc
  50
 270.00000000000
  51
0.0
   0
CIRCLE
   5
2B5
 100
AcDbEntity
   8
LEVEL001
 370
13
 100
AcDbCircle
   6
CONTINUOUS
  62
1
  10
 2322.2471910112
  20
 4301.5168539326
  30
0.0
  40
 69.999997913838
   0
MTEXT
   5
2B6
 100
AcDbEntity
   8
LEVEL001
 370
13
  62
1
 100
AcDbMText
  10
 2322.2471910112
  20
 4301.5168539326
  30
0.0
  40
 57.142857142858
  41
0.0
  71
5
  72
1
   1
\T1.000000;1
   7
GMM001
  44
 0.79999984000003
   0
CIRCLE
   5
2B7
 100
AcDbEntity
   8
LEVEL001
 370
13
 100
AcDbCircle
   6
CONTINUOUS
  62
1
  10
 1772.2471910112
  20
 4301.5168539326
  30
0.0
  40
 69.999997913838
   0
MTEXT
   5
2B8
 100
AcDbEntity
   8
LEVEL001
 370
13
  62
1
 100
AcDbMText
  10
 1772.2471910112
  20
 4301.5168539326
  30
0.0
  40
 57.142857142858
  41
0.0
  71
5
  72
1
   1
\T1.000000;4
   7
GMM001
  44
 0.79999984000003
   0
LEADER
   5
2B9
 100
AcDbEntity
   8
LEVEL001
 370
13
   6
CONTINUOUS
  62
1
 100
AcDbLeader
   3
GMM002
  73
3
  74
1
  75
0
  40
 60.000000000000
  41
0.0
  76
2
  10
 1644.8310484894
  20
 4428.1168539326
  30
0.0
  10
 1722.7497178037
  20
 4351.0143271410
  30
0.0
  77
1
   0
LEADER
   5
2BA
 100
AcDbEntity
   8
LEVEL001
 370
13
   6
CONTINUOUS
  62
1
 100
AcDbLeader
   3
GMM002
  73
3
  74
1
  75
0
  40
 60.000000000000
  41
0.0
  76
2
  10
 1772.2471910112
  20
 4551.5168539326
  30
0.0
  10
 2258.1561689782
  20
 4329.6653992360
  30
0.0
  77
1
   0
LEADER
   5
2BB
 100
AcDbEntity
   8
LEVEL001
 370
13
   6
CONTINUOUS
  62
1
 100
AcDbLeader
   3
GMM002
  73
3
  74
1
  75
0
  40
 60.000000000000
  41
0.0
  76
2
  10
 2796.7479131388
  20
 4551.5168539326
  30
0.0
  10
 2384.2404306466
  20
 4334.0258980196
  30
0.0
  77
1
   0
LINE
   5
2BC
 100
AcDbEntity
   8
LEVEL001
 370
13
 100
AcDbLine
   6
CONTINUOUS
  62
7
  10
 1854.7471910112
  20
 5054.0168539326
  30
0.0
  11
 1189.7471910112
  21
 5054.0168539326
  31
0.0
   0
ARC
   5
2BD
 100
AcDbEntity
   8
LEVEL001
 370
13
   6
CONTINUOUS
  62
7
 100
AcDbCircle
  10
 1854.7471910112
  20
 4984.0168539326
  30
0.0
  40
 70.000000000000
 100
AcDbArc
  50
0.0
  51
 90.000000000000
   0
ARC
   5
2BE
 100
AcDbEntity
   8
LEVEL001
 370
13
   6
CONTINUOUS
  62
3
 100
AcDbCircle
  10
 1854.7471910112
  20
 4984.0168539326
  30
0.0
  40
 90.900000000000
 100
AcDbArc
  50
0.0
  51
 90.000000000000
   0
LINE
   5
2BF
 100
AcDbEntity
   8
LEVEL001
 370
13
 100
AcDbLine
   6
CONTINUOUS
  62
3
  10
 1854.7471910112
  20
 5074.9168539326
  30
0.0
  11
 1189.7471910112
  21
 5074.9168539326
  31
0.0
   0
ARC
   5
2C0
 100
AcDbEntity
   8
LEVEL001
 370
13
   6
CONTINUOUS
  62
3
 100
AcDbCircle
  10
 1854.7471910112
  20
 4984.0168539326
  30
0.0
  40
 75.900000000000
 100
AcDbArc
  50
0.0
  51
 90.000000000000
   0
LINE
   5
2C1
 100
AcDbEntity
   8
LEVEL001
 370
13
 100
AcDbLine
   6
CONTINUOUS
  62
3
  10
 1854.7471910112
  20
 5059.9168539326
  30
0.0
  11
 1189.7471910112
  21
 5059.9168539326
  31
0.0
   0
ARC
   5
2C2
 100
AcDbEntity
   8
LEVEL001
 370
13
   6
CONTINUOUS
  62
1
 100
AcDbCircle
  10
 1189.7471910112
  20
 4984.0168539326
  30
0.0
  40
 70.900000000000
 100
AcDbArc
  50
 90.000000000000
  51
 180.00000000000
   0
LINE
   5
2C3
 100
AcDbEntity
   8
LEVEL001
 370
13
 100
AcDbLine
   6
CONTINUOUS
  62
1
  10
 1854.7471910112
  20
 5054.9168539326
  30
0.0
  11
 1189.7471910112
  21
 5054.9168539326
  31
0.0
   0
ARC
   5
2C4
 100
AcDbEntity
   8
LEVEL001
 370
13
   6
CONTINUOUS
  62
1
 100
AcDbCircle
  10
 1854.7471910112
  20
 4984.0168539326
  30
0.0
  40
 70.900000000000
 100
AcDbArc
  50
0.0
  51
 90.000000000000
   0
LINE
   5
2C5
 100
AcDbEntity
   8
LEVEL001
 370
13
 100
AcDbLine
   6
CONTINUOUS
  62
1
  10
 1118.8471910112
  20
 4984.0168539326
  30
0.0
  11
 1118.8471910112
  21
 4827.8863134326
  31
0.0
   0
LINE
   5
2C6
 100
AcDbEntity
   8
LEVEL001
 370
13
 100
AcDbLine
   6
CONTINUOUS
  62
1
  10
 1925.6471910112
  20
 4827.8863134326
  30
0.0
  11
 1925.6471910112
  21
 4984.0168539326
  31
0.0
   0
LINE
   5
2C7
 100
AcDbEntity
   8
LEVEL001
 370
13
 100
AcDbLine
   6
CONTINUOUS
  62
1
  10
 1118.8471910112
  20
 4827.8863134326
  30
0.0
  11
 1119.7471910112
  21
 4827.8863134326
  31
0.0
   0
LINE
   5
2C8
 100
AcDbEntity
   8
LEVEL001
 370
13
 100
AcDbLine
   6
CONTINUOUS
  62
1
  10
 1925.6471910112
  20
 4827.8863134326
  30
0.0
  11
 1924.7471910112
  21
 4827.8863134326
  31
0.0
   0
LINE
   5
2C9
 100
AcDbEntity
   8
LEVEL001
 370
13
 100
AcDbLine
   6
DASHDOT
  62
6
  10
 1047.2471910112
  20
 4751.5168539326
  30
0.0
  11
 1997.2471910112
  21
 4751.5168539326
  31
0.0
   0
ARC
   5
2CA
 100
AcDbEntity
   8
LEVEL001
 370
13
   6
CONTINUOUS
  62
7
 100
AcDbCircle
  10
 1189.7471910112
  20
 4984.0168539326
  30
0.0
  40
 70.000000000000
 100
AcDbArc
  50
 90.000000000000
  51
 180.00000000000
   0
LINE
   5
2CB
 100
AcDbEntity
   8
LEVEL001
 370
13
 100
AcDbLine
   6
CONTINUOUS
  62
7
  10
 1119.7471910112
  20
 4984.0168539326
  30
0.0
  11
 1119.7471910112
  21
 4519.0168539326
  31
0.0
   0
ARC
   5
2CC
 100
AcDbEntity
   8
LEVEL001
 370
13
   6
CONTINUOUS
  62
7
 100
AcDbCircle
  10
 1189.7471910112
  20
 4519.0168539326
  30
0.0
  40
 70.000000000000
 100
AcDbArc
  50
 180.00000000000
  51
 270.00000000000
   0
ARC
   5
2CD
 100
AcDbEntity
   8
LEVEL001
 370
13
   6
CONTINUOUS
  62
3
 100
AcDbCircle
  10
 1189.7471910112
  20
 4984.0168539326
  30
0.0
  40
 90.900000000000
 100
AcDbArc
  50
 90.000000000000
  51
 180.00000000000
   0
ARC
   5
2CE
 100
AcDbEntity
   8
LEVEL001
 370
13
   6
CONTINUOUS
  62
3
 100
AcDbCircle
  10
 1189.7471910112
  20
 4519.0168539326
  30
0.0
  40
 90.900000000000
 100
AcDbArc
  50
 180.00000000000
  51
 270.00000000000
   0
LINE
   5
2CF
 100
AcDbEntity
   8
LEVEL001
 370
13
 100
AcDbLine
   6
CONTINUOUS
  62
3
  10
 1098.8471910112
  20
 4984.0168539326
  30
0.0
  11
 1098.8471910112
  21
 4519.0168539326
  31
0.0
   0
ARC
   5
2D0
 100
AcDbEntity
   8
LEVEL001
 370
13
   6
CONTINUOUS
  62
3
 100
AcDbCircle
  10
 1189.7471910112
  20
 4984.0168539326
  30
0.0
  40
 75.900000000000
 100
AcDbArc
  50
 90.000000000000
  51
 180.00000000000
   0
LINE
   5
2D1
 100
AcDbEntity
   8
LEVEL001
 370
13
 100
AcDbLine
   6
CONTINUOUS
  62
3
  10
 1113.8471910112
  20
 4984.0168539326
  30
0.0
  11
 1113.8471910112
  21
 4519.0168539326
  31
0.0
   0
ARC
   5
2D2
 100
AcDbEntity
   8
LEVEL001
 370
13
   6
CONTINUOUS
  62
3
 100
AcDbCircle
  10
 1189.7471910112
  20
 4519.0168539326
  30
0.0
  40
 75.900000000000
 100
AcDbArc
  50
 180.00000000000
  51
 270.00000000000
   0
LINE
   5
2D3
 100
AcDbEntity
   8
LEVEL001
 370
13
 100
AcDbLine
   6
DASHDOT
  62
6
  10
 1462.2471729256
  20
 1428.1168539326
  30
0.0
  11
 1582.2471729256
  21
 1428.1168539326
  31
0.0
   0
LINE
   5
2D4
 100
AcDbEntity
   8
LEVEL001
 370
13
 100
AcDbLine
   6
CONTINUOUS
  62
7
  10
 2970.3958047520
  20
 4328.1168539326
  30
0.0
  11
 2967.6818979886
  21
 4321.3320870238
  31
0.0
   0
ARC
   5
2D5
 100
AcDbEntity
   8
LEVEL001
 370
13
   6
CONTINUOUS
  62
7
 100
AcDbCircle
  10
 2972.3242814430
  20
 4319.4751336420
  30
0.0
  40
 5.0000000000000
 100
AcDbArc
  50
 158.19859051363
  51
 180.00000000000
   0
LINE
   5
2D6
 100
AcDbEntity
   8
LEVEL001
 370
13
 100
AcDbLine
   6
CONTINUOUS
  62
7
  10
 2967.3242814430
  20
 4319.4751336420
  30
0.0
  11
 2967.3242814430
  21
 3736.7585742216
  31
0.0
   0
LINE
   5
2D7
 100
AcDbEntity
   8
LEVEL001
 370
13
 100
AcDbLine
   6
CONTINUOUS
  62
6
  10
 2974.3242814430
  20
 4257.1169149708
  30
0.0
  11
 2974.3242814430
  21
 4258.1168539318
  31
0.0
   0
ARC
   5
2D8
 100
AcDbEntity
   8
LEVEL001
 370
13
   6
CONTINUOUS
  62
7
 100
AcDbCircle
  10
 2966.3242814430
  20
 4312.2692074736
  30
0.0
  40
 5.0000000000000
 100
AcDbArc
  50
0.0
  51
 21.801409486367
   0
LINE
   5
2D9
 100
AcDbEntity
   8
LEVEL001
 370
13
 100
AcDbLine
   6
CONTINUOUS
  62
7
  10
 2969.1643940426
  20
 4318.6318379920
  30
0.0
  11
 2970.9666648974
  21
 4314.1261608552
  31
0.0
   0
ARC
   5
2DA
 100
AcDbEntity
   8
LEVEL001
 370
13
   6
CONTINUOUS
  62
7
 100
AcDbCircle
  10
 2973.8067774970
  20
 4320.4887913738
  30
0.0
  40
 5.0000000000000
 100
AcDbArc
  50
 158.19859051371
  51
 201.80140948629
   0
LINE
   5
2DB
 100
AcDbEntity
   8
LEVEL001
 370
13
 100
AcDbLine
   6
CONTINUOUS
  62
7
  10
 2970.3958047520
  20
 4328.1168539326
  30
0.0
  11
 2971.3242814430
  21
 4327.7454632562
  31
0.0
   0
LINE
   5
2DC
 100
AcDbEntity
   8
LEVEL001
 370
13
 100
AcDbLine
   6
CONTINUOUS
  62
7
  10
 2971.3242814430
  20
 4327.7454632562
  30
0.0
  11
 2969.1643940426
  21
 4322.3457447556
  31
0.0
   0
LINE
   5
2DD
 100
AcDbEntity
   8
LEVEL001
 370
13
 100
AcDbLine
   6
CONTINUOUS
  62
7
  10
 2971.3242814430
  20
 4312.2692074736
  30
0.0
  11
 2971.3242814430
  21
 3743.9645003900
  31
0.0
   0
LINE
   5
2DE
 100
AcDbEntity
   8
LEVEL001
 370
13
 100
AcDbLine
   6
CONTINUOUS
  62
7
  10
 2974.3242814430
  20
 4258.1168539318
  30
0.0
  11
 2971.3242814430
  21
 4258.1168539318
  31
0.0
   0
LINE
   5
2DF
 100
AcDbEntity
   8
LEVEL001
 370
13
 100
AcDbLine
   6
CONTINUOUS
  62
6
  10
 2971.3242814430
  20
 4257.1169149708
  30
0.0
  11
 2974.3242814430
  21
 4257.1169149708
  31
0.0
   0
LINE
   5
2E0
 100
AcDbEntity
   8
LEVEL001
 370
13
 100
AcDbLine
   6
CONTINUOUS
  62
7
  10
 2974.7797602220
  20
 4243.1164877794
  30
0.0
  11
 2974.7802179860
  21
 4201.1165794960
  31
0.0
   0
ELLIPSE
   5
2E1
 100
AcDbEntity
   8
LEVEL001
 370
13
   6
CONTINUOUS
  62
7
 100
AcDbEllipse
  10
 2970.7797576722
  20
 4243.1166097306
  30
0.0
  11
-4.0000025516047
  21
0.0
  31
0.0
  40
 0.99999938800000
  41
 3.1415621657875
  42
-1.7073511820424
   0
LINE
   5
2E2
 100
AcDbEntity
   8
LEVEL001
 370
13
 100
AcDbLine
   6
CONTINUOUS
  62
6
  10
 2974.3242814430
  20
 4186.1168542128
  30
0.0
  11
 2974.3242814430
  21
 4187.1168847264
  31
0.0
   0
LINE
   5
2E3
 100
AcDbEntity
   8
LEVEL001
 370
13
 100
AcDbLine
   6
CONTINUOUS
  62
6
  10
 2974.3242814430
  20
 4187.1168847264
  30
0.0
  11
 2971.3242814430
  21
 4187.1168847264
  31
0.0
   0
ELLIPSE
   5
2E4
 100
AcDbEntity
   8
LEVEL001
 370
13
   6
CONTINUOUS
  62
7
 100
AcDbEllipse
  10
 2970.7802154348
  20
 4201.1166406484
  30
0.0
  11
-4.0000025516047
  21
0.0
  31
0.0
  40
 0.99999938800000
  41
 1.7072356670375
  42
 3.1415773654626
   0
LINE
   5
2E5
 100
AcDbEntity
   8
LEVEL001
 370
13
 100
AcDbLine
   6
CONTINUOUS
  62
7
  10
 2971.3242814430
  20
 4186.1168542128
  30
0.0
  11
 2974.3242814430
  21
 4186.1168542128
  31
0.0
   0
LINE
   5
2E6
 100
AcDbEntity
   8
LEVEL001
 370
13
 100
AcDbLine
   6
CONTINUOUS
  62
7
  10
 2974.7797874660
  20
 4240.6168542126
  30
0.0
  11
 3080.3242814430
  21
 4240.6168542126
  31
0.0
   0
LINE
   5
2E7
 100
AcDbEntity
   8
LEVEL001
 370
13
 100
AcDbLine
   6
CONTINUOUS
  62
7
  10
 3080.3242814430
  20
 4240.6168542126
  30
0.0
  11
 3080.3242814430
  21
 4203.6168542126
  31
0.0
   0
LINE
   5
2E8
 100
AcDbEntity
   8
LEVEL001
 370
13
 100
AcDbLine
   6
CONTINUOUS
  62
7
  10
 3080.3242814430
  20
 4203.6168542126
  30
0.0
  11
 2974.7801907350
  21
 4203.6168542126
  31
0.0
   0
LINE
   5
2E9
 100
AcDbEntity
   8
LEVEL001
 370
13
 100
AcDbLine
   6
CONTINUOUS
  62
7
  10
 2971.3242814430
  20
 4203.6168542126
  30
0.0
  11
 2971.3242814430
  21
 4240.6168542126
  31
0.0
   0
LINE
   5
2EA
 100
AcDbEntity
   8
LEVEL001
 370
13
 100
AcDbLine
   6
CONTINUOUS
  62
6
  10
 3059.1522824426
  20
 4215.6168542126
  30
0.0
  11
 2987.0331106168
  21
 4215.6168542126
  31
0.0
   0
LINE
   5
2EB
 100
AcDbEntity
   8
LEVEL001
 370
13
 100
AcDbLine
   6
CONTINUOUS
  62
6
  10
 2987.0331106168
  20
 4228.6168542126
  30
0.0
  11
 3059.1522824426
  21
 4228.6168542126
  31
0.0
   0
LINE
   5
2EC
 100
AcDbEntity
   8
LEVEL001
 370
13
 100
AcDbLine
   6
CONTINUOUS
  62
6
  10
 2985.7722160472
  20
 4227.6168542126
  30
0.0
  11
 2985.7722160472
  21
 4216.6168542126
  31
0.0
   0
LINE
   5
2ED
 100
AcDbEntity
   8
LEVEL001
 370
13
 100
AcDbLine
   6
CONTINUOUS
  62
6
  10
 2985.7722160472
  20
 4214.6168542126
  30
0.0
  11
 2985.7722160472
  21
 4205.6168542126
  31
0.0
   0
LINE
   5
2EE
 100
AcDbEntity
   8
LEVEL001
 370
13
 100
AcDbLine
   6
CONTINUOUS
  62
6
  10
 2985.7722160472
  20
 4238.6168542126
  30
0.0
  11
 2985.7722160472
  21
 4229.6168542126
  31
0.0
   0
LINE
   5
2EF
 100
AcDbEntity
   8
LEVEL001
 370
13
 100
AcDbLine
   6
CONTINUOUS
  62
6
  10
 3059.1522824426
  20
 4238.6168542126
  30
0.0
  11
 3059.1522824426
  21
 4229.6168542126
  31
0.0
   0
LINE
   5
2F0
 100
AcDbEntity
   8
LEVEL001
 370
13
 100
AcDbLine
   6
CONTINUOUS
  62
6
  10
 3059.1522824426
  20
 4214.6168542126
  30
0.0
  11
 3059.1522824426
  21
 4205.6168542126
  31
0.0
   0
LINE
   5
2F1
 100
AcDbEntity
   8
LEVEL001
 370
13
 100
AcDbLine
   6
CONTINUOUS
  62
6
  10
 3061.4708074838
  20
 4228.6168542126
  30
0.0
  11
 3061.4708074838
  21
 4215.6168542126
  31
0.0
   0
LINE
   5
2F2
 100
AcDbEntity
   8
LEVEL001
 370
13
 100
AcDbLine
   6
CONTINUOUS
  62
7
  10
 3075.3242814430
  20
 4217.1168542126
  30
0.0
  11
 3065.3242814430
  21
 4217.1168542126
  31
0.0
   0
LINE
   5
2F3
 100
AcDbEntity
   8
LEVEL001
 370
13
 100
AcDbLine
   6
CONTINUOUS
  62
7
  10
 3065.3242814430
  20
 4217.1168542126
  30
0.0
  11
 3065.3242814430
  21
 4227.1168542126
  31
0.0
   0
LINE
   5
2F4
 100
AcDbEntity
   8
LEVEL001
 370
13
 100
AcDbLine
   6
CONTINUOUS
  62
7
  10
 3065.3242814430
  20
 4227.1168542126
  30
0.0
  11
 3075.3242814430
  21
 4227.1168542126
  31
0.0
   0
LINE
   5
2F5
 100
AcDbEntity
   8
LEVEL001
 370
13
 100
AcDbLine
   6
CONTINUOUS
  62
7
  10
 3075.3242814430
  20
 4227.1168542126
  30
0.0
  11
 3075.3242814430
  21
 4217.1168542126
  31
0.0
   0
LINE
   5
2F6
 100
AcDbEntity
   8
LEVEL001
 370
13
 100
AcDbLine
   6
CONTINUOUS
  62
7
  10
 3060.3971910112
  20
 5032.1168539326
  30
0.0
  11
 2984.0971910112
  21
 5032.1168539326
  31
0.0
   0
LINE
   5
2F7
 100
AcDbEntity
   8
LEVEL001
 370
13
 100
AcDbLine
   6
CONTINUOUS
  62
7
  10
 2984.0971910112
  20
 5032.1168539326
  30
0.0
  11
 2984.0971910112
  21
 5029.1168539326
  31
0.0
   0
LINE
   5
2F8
 100
AcDbEntity
   8
LEVEL001
 370
13
 100
AcDbLine
   6
CONTINUOUS
  62
7
  10
 2984.0971910112
  20
 5029.1168539326
  30
0.0
  11
 3060.3971910112
  21
 5029.1168539326
  31
0.0
   0
LINE
   5
2F9
 100
AcDbEntity
   8
LEVEL001
 370
13
 100
AcDbLine
   6
CONTINUOUS
  62
7
  10
 3060.3971910112
  20
 5029.1168539326
  30
0.0
  11
 3060.3971910112
  21
 5032.1168539326
  31
0.0
   0
LINE
   5
2FA
 100
AcDbEntity
   8
LEVEL001
 370
13
 100
AcDbLine
   6
DOT
  62
1
  10
 3055.3971910112
  20
 5029.1168539326
  30
0.0
  11
 3055.3971910112
  21
 5002.1168539326
  31
0.0
   0
LINE
   5
2FB
 100
AcDbEntity
   8
LEVEL001
 370
13
 100
AcDbLine
   6
DOT
  62
1
  10
 3055.3971910112
  20
 5002.1168539326
  30
0.0
  11
 2989.0971910112
  21
 5002.1168539326
  31
0.0
   0
LINE
   5
2FC
 100
AcDbEntity
   8
LEVEL001
 370
13
 100
AcDbLine
   6
DOT
  62
1
  10
 2989.0971910112
  20
 5002.1168539326
  30
0.0
  11
 2989.0971910112
  21
 5029.1168539326
  31
0.0
   0
LINE
   5
2FD
 100
AcDbEntity
   8
LEVEL001
 370
13
 100
AcDbLine
   6
CONTINUOUS
  62
7
  10
 2974.7801907350
  20
 3852.6168539318
  30
0.0
  11
 3080.3242864152
  21
 3852.6168539318
  31
0.0
   0
LINE
   5
2FE
 100
AcDbEntity
   8
LEVEL001
 370
13
 100
AcDbLine
   6
CONTINUOUS
  62
7
  10
 3080.3242864152
  20
 3852.6168539318
  30
0.0
  11
 3080.3242864152
  21
 3815.6168539318
  31
0.0
   0
LINE
   5
2FF
 100
AcDbEntity
   8
LEVEL001
 370
13
 100
AcDbLine
   6
CONTINUOUS
  62
7
  10
 3080.3242864152
  20
 3815.6168539318
  30
0.0
  11
 2974.7797874660
  21
 3815.6168539318
  31
0.0
   0
LINE
   5
300
 100
AcDbEntity
   8
LEVEL001
 370
13
 100
AcDbLine
   6
CONTINUOUS
  62
6
  10
 3059.1522874148
  20
 3827.6168539318
  30
0.0
  11
 2987.0331155892
  21
 3827.6168539318
  31
0.0
   0
LINE
   5
301
 100
AcDbEntity
   8
LEVEL001
 370
13
 100
AcDbLine
   6
CONTINUOUS
  62
6
  10
 2987.0331155892
  20
 3840.6168539318
  30
0.0
  11
 3059.1522874148
  21
 3840.6168539318
  31
0.0
   0
LINE
   5
302
 100
AcDbEntity
   8
LEVEL001
 370
13
 100
AcDbLine
   6
CONTINUOUS
  62
6
  10
 3059.1522874148
  20
 3850.6168539318
  30
0.0
  11
 3059.1522874148
  21
 3841.6168539318
  31
0.0
   0
LINE
   5
303
 100
AcDbEntity
   8
LEVEL001
 370
13
 100
AcDbLine
   6
CONTINUOUS
  62
6
  10
 3059.1522874148
  20
 3826.6168539318
  30
0.0
  11
 3059.1522874148
  21
 3817.6168539318
  31
0.0
   0
LINE
   5
304
 100
AcDbEntity
   8
LEVEL001
 370
13
 100
AcDbLine
   6
CONTINUOUS
  62
7
  10
 3075.3242864152
  20
 3829.1168539318
  30
0.0
  11
 3065.3242864152
  21
 3829.1168539318
  31
0.0
   0
LINE
   5
305
 100
AcDbEntity
   8
LEVEL001
 370
13
 100
AcDbLine
   6
CONTINUOUS
  62
7
  10
 3065.3242864152
  20
 3829.1168539318
  30
0.0
  11
 3065.3242864152
  21
 3839.1168539318
  31
0.0
   0
LINE
   5
306
 100
AcDbEntity
   8
LEVEL001
 370
13
 100
AcDbLine
   6
CONTINUOUS
  62
7
  10
 3065.3242864152
  20
 3839.1168539318
  30
0.0
  11
 3075.3242864152
  21
 3839.1168539318
  31
0.0
   0
LINE
   5
307
 100
AcDbEntity
   8
LEVEL001
 370
13
 100
AcDbLine
   6
CONTINUOUS
  62
7
  10
 3075.3242864152
  20
 3839.1168539318
  30
0.0
  11
 3075.3242864152
  21
 3829.1168539318
  31
0.0
   0
LINE
   5
308
 100
AcDbEntity
   8
LEVEL001
 370
13
 100
AcDbLine
   6
CONTINUOUS
  62
6
  10
 3061.4708124562
  20
 3840.6168539318
  30
0.0
  11
 3061.4708124562
  21
 3827.6168539318
  31
0.0
   0
ARC
   5
309
 100
AcDbEntity
   8
LEVEL001
 370
13
   6
CONTINUOUS
  62
7
 100
AcDbCircle
  10
 2966.3242814430
  20
 3743.9645003900
  30
0.0
  40
 5.0000000000000
 100
AcDbArc
  50
 338.19859051356
  51
 359.99999999992
   0
LINE
   5
30A
 100
AcDbEntity
   8
LEVEL001
 370
13
 100
AcDbLine
   6
CONTINUOUS
  62
7
  10
 2969.1643940426
  20
 3737.6018698716
  30
0.0
  11
 2970.9666648974
  21
 3742.1075470082
  31
0.0
   0
ARC
   5
30B
 100
AcDbEntity
   8
LEVEL001
 370
13
   6
CONTINUOUS
  62
7
 100
AcDbCircle
  10
 2973.8067774970
  20
 3735.7449164898
  30
0.0
  40
 5.0000000000000
 100
AcDbArc
  50
 158.19859051356
  51
 201.80140948629
   0
LINE
   5
30C
 100
AcDbEntity
   8
LEVEL001
 370
13
 100
AcDbLine
   6
CONTINUOUS
  62
7
  10
 2971.3242814430
  20
 3870.1168536508
  30
0.0
  11
 2974.3242814430
  21
 3870.1168536508
  31
0.0
   0
LINE
   5
30D
 100
AcDbEntity
   8
LEVEL001
 370
13
 100
AcDbLine
   6
CONTINUOUS
  62
6
  10
 2974.3242814430
  20
 3870.1168536508
  30
0.0
  11
 2974.3242814430
  21
 3869.1168231372
  31
0.0
   0
LINE
   5
30E
 100
AcDbEntity
   8
LEVEL001
 370
13
 100
AcDbLine
   6
CONTINUOUS
  62
6
  10
 2974.3242814430
  20
 3869.1168231372
  30
0.0
  11
 2971.3242814430
  21
 3869.1168231372
  31
0.0
   0
LINE
   5
30F
 100
AcDbEntity
   8
LEVEL001
 370
13
 100
AcDbLine
   6
CONTINUOUS
  62
6
  10
 2974.3242814430
  20
 3799.1167928928
  30
0.0
  11
 2974.3242814430
  21
 3798.1168539318
  31
0.0
   0
LINE
   5
310
 100
AcDbEntity
   8
LEVEL001
 370
13
 100
AcDbLine
   6
CONTINUOUS
  62
6
  10
 2971.3242814430
  20
 3799.1167928928
  30
0.0
  11
 2974.3242814430
  21
 3799.1167928928
  31
0.0
   0
LINE
   5
311
 100
AcDbEntity
   8
LEVEL001
 370
13
 100
AcDbLine
   6
CONTINUOUS
  62
7
  10
 2974.3242814430
  20
 3798.1168539318
  30
0.0
  11
 2971.3242814430
  21
 3798.1168539318
  31
0.0
   0
LINE
   5
312
 100
AcDbEntity
   8
LEVEL001
 370
13
 100
AcDbLine
   6
CONTINUOUS
  62
7
  10
 2974.7797602220
  20
 3813.1172200842
  30
0.0
  11
 2974.7802179860
  21
 3855.1171283676
  31
0.0
   0
ELLIPSE
   5
313
 100
AcDbEntity
   8
LEVEL001
 370
13
   6
CONTINUOUS
  62
7
 100
AcDbEllipse
  10
 2970.7802154348
  20
 3855.1170672150
  30
0.0
  11
-4.0000025516047
  21
0.0
  31
0.0
  40
 0.99999938800000
  41
-3.1415773654645
  42
-1.7072356670373
   0
ELLIPSE
   5
314
 100
AcDbEntity
   8
LEVEL001
 370
13
   6
CONTINUOUS
  62
7
 100
AcDbEllipse
  10
 2970.7797576722
  20
 3813.1170981330
  30
0.0
  11
-4.0000025516047
  21
0.0
  31
0.0
  40
 0.99999938800000
  41
 1.7073511820426
  42
-3.1415621657875
   0
LINE
   5
315
 100
AcDbEntity
   8
LEVEL001
 370
13
 100
AcDbLine
   6
CONTINUOUS
  62
6
  10
 2985.7722210196
  20
 3839.6168539318
  30
0.0
  11
 2985.7722210196
  21
 3828.6168539318
  31
0.0
   0
LINE
   5
316
 100
AcDbEntity
   8
LEVEL001
 370
13
 100
AcDbLine
   6
CONTINUOUS
  62
6
  10
 2985.7722210196
  20
 3850.6168539318
  30
0.0
  11
 2985.7722210196
  21
 3841.6168539318
  31
0.0
   0
LINE
   5
317
 100
AcDbEntity
   8
LEVEL001
 370
13
 100
AcDbLine
   6
CONTINUOUS
  62
6
  10
 2985.7722210196
  20
 3826.6168539318
  30
0.0
  11
 2985.7722210196
  21
 3817.6168539318
  31
0.0
   0
ARC
   5
318
 100
AcDbEntity
   8
LEVEL001
 370
13
   6
CONTINUOUS
  62
7
 100
AcDbCircle
  10
 2972.3242814430
  20
 3736.7585742216
  30
0.0
  40
 5.0000000000000
 100
AcDbArc
  50
 179.99999999992
  51
 201.80140948637
   0
LINE
   5
319
 100
AcDbEntity
   8
LEVEL001
 370
13
 100
AcDbLine
   6
CONTINUOUS
  62
7
  10
 2970.3958047520
  20
 3728.1168539310
  30
0.0
  11
 2967.6818979886
  21
 3734.9016208398
  31
0.0
   0
LINE
   5
31A
 100
AcDbEntity
   8
LEVEL001
 370
13
 100
AcDbLine
   6
CONTINUOUS
  62
7
  10
 2970.3958047520
  20
 3728.1168539310
  30
0.0
  11
 2971.3242814430
  21
 3728.4882446074
  31
0.0
   0
LINE
   5
31B
 100
AcDbEntity
   8
LEVEL001
 370
13
 100
AcDbLine
   6
CONTINUOUS
  62
7
  10
 2971.3242814430
  20
 3728.4882446074
  30
0.0
  11
 2969.1643940426
  21
 3733.8879631080
  31
0.0
   0
LINE
   5
31C
 100
AcDbEntity
   8
LEVEL001
 370
13
 100
AcDbLine
   6
CONTINUOUS
  62
7
  10
 2984.0971910112
  20
 3852.6168539318
  30
0.0
  11
 2984.0971910112
  21
 4203.6168542126
  31
0.0
   0
LINE
   5
31D
 100
AcDbEntity
   8
LEVEL001
 370
13
 100
AcDbLine
   6
CONTINUOUS
  62
7
  10
 3060.3971910112
  20
 4203.6168542126
  30
0.0
  11
 3060.3971910112
  21
 3852.6168539318
  31
0.0
   0
LINE
   5
31E
 100
AcDbEntity
   8
LEVEL001
 370
13
 100
AcDbLine
   6
CONTINUOUS
  62
7
  10
 1484.0971910112
  20
 3728.1160691868
  30
0.0
  11
 1484.0971910112
  21
 1028.1168539326
  31
0.0
   0
LINE
   5
31F
 100
AcDbEntity
   8
LEVEL001
 370
13
 100
AcDbLine
   6
CONTINUOUS
  62
7
  10
 1484.0971910112
  20
 1028.1168539326
  30
0.0
  11
 1560.3971910112
  21
 1028.1168539326
  31
0.0
   0
LINE
   5
320
 100
AcDbEntity
   8
LEVEL001
 370
13
 100
AcDbLine
   6
CONTINUOUS
  62
7
  10
 1560.3971910112
  20
 1028.1168539326
  30
0.0
  11
 1560.3971910112
  21
 3728.1160691868
  31
0.0
   0
CIRCLE
   5
321
 100
AcDbEntity
   8
LEVEL001
 370
13
 100
AcDbCircle
   6
CONTINUOUS
  62
7
  10
 1522.2471572092
  20
 1328.1168539326
  30
0.0
  40
 7.5000000000000
   0
LINE
   5
322
 100
AcDbEntity
   8
LEVEL001
 370
13
 100
AcDbLine
   6
DASHDOT
  62
6
  10
 1492.2471572092
  20
 1328.1168539326
  30
0.0
  11
 1552.2471572092
  21
 1328.1168539326
  31
0.0
   0
LINE
   5
323
 100
AcDbEntity
   8
LEVEL001
 370
13
 100
AcDbLine
   6
CONTINUOUS
  62
7
  10
 2984.0971910112
  20
 4806.5168539326
  30
0.0
  11
 2984.0971910112
  21
 5028.1168539326
  31
0.0
   0
LINE
   5
324
 100
AcDbEntity
   8
LEVEL001
 370
13
 100
AcDbLine
   6
CONTINUOUS
  62
7
  10
 2984.0971910112
  20
 5028.1168539326
  30
0.0
  11
 3060.3971910112
  21
 5028.1168539326
  31
0.0
   0
LINE
   5
325
 100
AcDbEntity
   8
LEVEL001
 370
13
 100
AcDbLine
   6
CONTINUOUS
  62
7
  10
 3060.3971910112
  20
 5028.1168539326
  30
0.0
  11
 3060.3971910112
  21
 4806.5168539326
  31
0.0
   0
LINE
   5
326
 100
AcDbEntity
   8
LEVEL001
 370
13
 100
AcDbLine
   6
CONTINUOUS
  62
7
  10
 2984.0971910112
  20
 4240.6168542126
  30
0.0
  11
 2984.0971910112
  21
 4696.5168539326
  31
0.0
   0
LINE
   5
327
 100
AcDbEntity
   8
LEVEL001
 370
13
 100
AcDbLine
   6
CONTINUOUS
  62
7
  10
 3060.3971910112
  20
 4696.5168539326
  30
0.0
  11
 3060.3971910112
  21
 4240.6168542126
  31
0.0
   0
CIRCLE
   5
328
 100
AcDbEntity
   8
LEVEL001
 370
13
 100
AcDbCircle
   6
CONTINUOUS
  62
1
  10
 1772.2471910112
  20
 3928.1168539326
  30
0.0
  40
 70.000000000000
   0
LEADER
   5
329
 100
AcDbEntity
   8
LEVEL001
 370
13
   6
CONTINUOUS
  62
1
 100
AcDbLeader
   3
GMM002
  73
3
  74
1
  75
0
  40
 60.000000000000
  41
0.0
  76
2
  10
 1612.2468839001
  20
 4088.1171610442
  30
0.0
  10
 1722.7497163285
  20
 3977.6143286160
  30
0.0
  77
1
   0
MTEXT
   5
32A
 100
AcDbEntity
   8
LEVEL001
 370
13
  62
1
 100
AcDbMText
  10
 1772.2471910112
  20
 3928.1168539326
  30
0.0
  40
 57.142857142858
  41
0.0
  71
5
  72
1
   1
\T1.000000;12
   7
GMM001
  44
 0.79999984000003
   0
CIRCLE
   5
32B
 100
AcDbEntity
   8
LEVEL001
 370
13
 100
AcDbCircle
   6
CONTINUOUS
  62
1
  10
 3222.2471910112
  20
 3928.1168539326
  30
0.0
  40
 70.000000000000
   0
CIRCLE
   5
32C
 100
AcDbEntity
   8
LEVEL001
 370
13
 100
AcDbCircle
   6
CONTINUOUS
  62
1
  10
 3362.2471910112
  20
 3928.1168539326
  30
0.0
  40
 70.000000000000
   0
LEADER
   5
32D
 100
AcDbEntity
   8
LEVEL001
 370
13
   6
CONTINUOUS
  62
1
 100
AcDbLeader
   3
GMM002
  73
3
  74
1
  75
0
  40
 60.000000000000
  41
0.0
  76
2
  10
 3080.3242864152
  20
 3852.6168539318
  30
0.0
  10
 3160.8898006992
  20
 3894.4230762562
  30
0.0
  77
1
   0
MTEXT
   5
32E
 100
AcDbEntity
   8
LEVEL001
 370
13
  62
1
 100
AcDbMText
  10
 3222.2471910112
  20
 3928.1168539326
  30
0.0
  40
 57.142857142858
  41
0.0
  71
5
  72
1
   1
\T1.000000;13
   7
GMM001
  44
 0.79999984000003
   0
MTEXT
   5
32F
 100
AcDbEntity
   8
LEVEL001
 370
13
  62
1
 100
AcDbMText
  10
 3362.2471910112
  20
 3928.1168539326
  30
0.0
  40
 57.142857142858
  41
0.0
  71
5
  72
1
   1
\T1.000000;14
   7
GMM001
  44
 0.79999984000003
   0
CIRCLE
   5
330
 100
AcDbEntity
   8
LEVEL001
 370
13
 100
AcDbCircle
   6
CONTINUOUS
  62
1
  10
 1772.2471910112
  20
 2928.1168539326
  30
0.0
  40
 70.000000000000
   0
LEADER
   5
331
 100
AcDbEntity
   8
LEVEL001
 370
13
   6
CONTINUOUS
  62
1
 100
AcDbLeader
   3
GMM002
  73
3
  74
1
  75
0
  40
 60.000000000000
  41
0.0
  76
2
  10
 1560.3971910112
  20
 2803.1168539326
  30
0.0
  10
 1711.9594016501
  20
 2892.5446392990
  30
0.0
  77
1
   0
MTEXT
   5
332
 100
AcDbEntity
   8
LEVEL001
 370
13
  62
1
 100
AcDbMText
  10
 1772.2471910112
  20
 2928.1168539326
  30
0.0
  40
 57.142857142858
  41
0.0
  71
5
  72
1
   1
\T1.000000;9
   7
GMM001
  44
 0.79999984000003
   0
MTEXT
   5
334
 100
AcDbEntity
   8
LEVEL001
 370
13
  62
1
 100
AcDbMText
  10
 1142.8957962207
  20
 1936.8467909729
  30
0.0
  40
 40.000000000000
  41
0.0
  71
7
  72
1
   1
\T1.000000;ＧＬ
   7
GMM003
  44
 0.79999984000003
   0
LINE
   5
335
 100
AcDbEntity
   8
LEVEL001
 370
13
 100
AcDbLine
   6
CONTINUOUS
  62
1
  10
 1114.7471257759
  20
 1928.1168539326
  30
0.0
  11
 1089.7471257759
  21
 1978.1168539326
  31
0.0
   0
LINE
   5
336
 100
AcDbEntity
   8
LEVEL001
 370
13
 100
AcDbLine
   6
CONTINUOUS
  62
1
  10
 1089.7471257759
  20
 1978.1168539326
  30
0.0
  11
 1139.7471257759
  21
 1978.1168539326
  31
0.0
   0
LINE
   5
337
 100
AcDbEntity
   8
LEVEL001
 370
13
 100
AcDbLine
   6
CONTINUOUS
  62
1
  10
 1139.7471257759
  20
 1978.1168539326
  30
0.0
  11
 1114.7471257759
  21
 1928.1168539326
  31
0.0
   0
LINE
   5
338
 100
AcDbEntity
   8
LEVEL001
 370
13
 100
AcDbLine
   6
DASHDOT
  62
6
  10
 2612.2471729256
  20
 1428.1168539326
  30
0.0
  11
 2732.2471729256
  21
 1428.1168539326
  31
0.0
   0
CIRCLE
   5
339
 100
AcDbEntity
   8
LEVEL001
 370
13
 100
AcDbCircle
   6
CONTINUOUS
  62
7
  10
 2672.2471910112
  20
 1428.1168539326
  30
0.0
  40
 7.5000000000000
   0
CIRCLE
   5
33A
 100
AcDbEntity
   8
LEVEL001
 370
13
 100
AcDbCircle
   6
CONTINUOUS
  62
7
  10
 2672.2471910112
  20
 1428.1168539326
  30
0.0
  40
 7.5000000000000
   0
CIRCLE
   5
33B
 100
AcDbEntity
   8
LEVEL001
 370
13
 100
AcDbCircle
   6
CONTINUOUS
  62
7
  10
 2672.2471910112
  20
 1428.1168539326
  30
0.0
  40
 7.5000000000000
   0
LINE
   5
33C
 100
AcDbEntity
   8
LEVEL001
 370
13
 100
AcDbLine
   6
CONTINUOUS
  62
7
  10
 2634.0971910112
  20
 1335.6168539326
  30
0.0
  11
 2562.2471729256
  21
 1335.6168539326
  31
0.0
   0
LINE
   5
33D
 100
AcDbEntity
   8
LEVEL001
 370
13
 100
AcDbLine
   6
CONTINUOUS
  62
7
  10
 2562.2471729256
  20
 1335.6168539326
  30
0.0
  11
 2562.2471729256
  21
 1320.6168539326
  31
0.0
   0
LINE
   5
33E
 100
AcDbEntity
   8
LEVEL001
 370
13
 100
AcDbLine
   6
CONTINUOUS
  62
7
  10
 2562.2471729256
  20
 1320.6168539326
  30
0.0
  11
 2634.0971910112
  21
 1320.6168539326
  31
0.0
   0
LINE
   5
33F
 100
AcDbEntity
   8
LEVEL001
 370
13
 100
AcDbLine
   6
DASHDOT
  62
6
  10
 2612.2471910112
  20
 1328.1168539326
  30
0.0
  11
 2732.2471910112
  21
 1328.1168539326
  31
0.0
   0
LINE
   5
340
 100
AcDbEntity
   8
LEVEL001
 370
13
 100
AcDbLine
   6
CONTINUOUS
  62
7
  10
 2710.3971910112
  20
 1335.6168539326
  30
0.0
  11
 2782.2471729256
  21
 1335.6168539326
  31
0.0
   0
LINE
   5
341
 100
AcDbEntity
   8
LEVEL001
 370
13
 100
AcDbLine
   6
CONTINUOUS
  62
7
  10
 2782.2471729256
  20
 1335.6168539326
  30
0.0
  11
 2782.2471729256
  21
 1320.6168539326
  31
0.0
   0
LINE
   5
342
 100
AcDbEntity
   8
LEVEL001
 370
13
 100
AcDbLine
   6
CONTINUOUS
  62
7
  10
 2782.2471729256
  20
 1320.6168539326
  30
0.0
  11
 2710.3971910112
  21
 1320.6168539326
  31
0.0
   0
LINE
   5
343
 100
AcDbEntity
   8
LEVEL001
 370
13
 100
AcDbLine
   6
DOT
  62
1
  10
 2710.3971910112
  20
 1320.6168539326
  30
0.0
  11
 2634.0971910112
  21
 1320.6168539326
  31
0.0
   0
LINE
   5
344
 100
AcDbEntity
   8
LEVEL001
 370
13
 100
AcDbLine
   6
DOT
  62
1
  10
 2634.0971910112
  20
 1335.6168539326
  30
0.0
  11
 2710.3971910112
  21
 1335.6168539326
  31
0.0
   0
CIRCLE
   5
345
 100
AcDbEntity
   8
LEVEL001
 370
13
 100
AcDbCircle
   6
CONTINUOUS
  62
1
  10
 2297.2471910112
  20
 1178.1168539326
  30
0.0
  40
 70.000000000000
   0
LEADER
   5
346
 100
AcDbEntity
   8
LEVEL001
 370
13
   6
CONTINUOUS
  62
1
 100
AcDbLeader
   3
GMM002
  73
3
  74
1
  75
0
  40
 60.000000000000
  41
0.0
  76
2
  10
 2562.2471729256
  20
 1320.6168539326
  30
0.0
  10
 2358.8988331512
  20
 1211.2691543270
  30
0.0
  77
1
   0
MTEXT
   5
347
 100
AcDbEntity
   8
LEVEL001
 370
13
  62
1
 100
AcDbMText
  10
 2297.2471910112
  20
 1178.1168539326
  30
0.0
  40
 57.142857142858
  41
0.0
  71
5
  72
1
   1
\T1.000000;10
   7
GMM001
  44
 0.79999984000003
   0
MTEXT
   5
349
 100
AcDbEntity
   8
LEVEL001
 370
13
  62
1
 100
AcDbMText
  10
 2292.8957962206
  20
 1936.8467909729
  30
0.0
  40
 40.000000000000
  41
0.0
  71
7
  72
1
   1
\T1.000000;ＧＬ
   7
GMM003
  44
 0.79999984000003
   0
LINE
   5
34A
 100
AcDbEntity
   8
LEVEL001
 370
13
 100
AcDbLine
   6
CONTINUOUS
  62
1
  10
 2264.7471257758
  20
 1928.1168539326
  30
0.0
  11
 2239.7471257758
  21
 1978.1168539326
  31
0.0
   0
LINE
   5
34B
 100
AcDbEntity
   8
LEVEL001
 370
13
 100
AcDbLine
   6
CONTINUOUS
  62
1
  10
 2239.7471257758
  20
 1978.1168539326
  30
0.0
  11
 2289.7471257758
  21
 1978.1168539326
  31
0.0
   0
LINE
   5
34C
 100
AcDbEntity
   8
LEVEL001
 370
13
 100
AcDbLine
   6
CONTINUOUS
  62
1
  10
 2289.7471257758
  20
 1978.1168539326
  30
0.0
  11
 2264.7471257758
  21
 1928.1168539326
  31
0.0
   0
ARC
   5
34D
 100
AcDbEntity
   8
LEVEL001
 370
13
   6
CONTINUOUS
  62
7
 100
AcDbCircle
  10
 2684.0971910112
  20
 2394.1387396430
  30
0.0
  40
 300.00000000000
 100
AcDbArc
  50
 322.12501634890
  51
0.0
   0
ARC
   5
34E
 100
AcDbEntity
   8
LEVEL001
 370
13
   6
DASHDOT
  62
6
 100
AcDbCircle
  10
 2684.0971910112
  20
 2394.1387396430
  30
0.0
  40
 338.15000000000
 100
AcDbArc
  50
 322.12501634890
  51
0.0
   0
LINE
   5
34F
 100
AcDbEntity
   8
LEVEL001
 370
13
 100
AcDbLine
   6
DASHDOT
  62
6
  10
 2743.4777387054
  20
 1919.6989866823
  30
0.0
  11
 2951.0166433170
  21
 2186.5347211830
  31
0.0
   0
LINE
   5
350
 100
AcDbEntity
   8
LEVEL001
 370
13
 100
AcDbLine
   6
CONTINUOUS
  62
7
  10
 2920.9028562240
  20
 2209.9565555886
  30
0.0
  11
 2713.3639516124
  21
 1943.1208210878
  31
0.0
   0
LINE
   5
351
 100
AcDbEntity
   8
LEVEL001
 370
13
 100
AcDbLine
   6
CONTINUOUS
  62
7
  10
 2773.5915257984
  20
 1896.2771522766
  30
0.0
  11
 2981.1304304100
  21
 2163.1128867772
  31
0.0
   0
ARC
   5
352
 100
AcDbEntity
   8
LEVEL001
 370
13
   6
CONTINUOUS
  62
7
 100
AcDbCircle
  10
 2684.0971910112
  20
 2394.1387396430
  30
0.0
  40
 376.30000000000
 100
AcDbArc
  50
 322.12501634890
  51
0.0
   0
ARC
   5
353
 100
AcDbEntity
   8
LEVEL001
 370
13
   6
CONTINUOUS
  62
7
 100
AcDbCircle
  10
 3010.3971910112
  20
 1712.0949682222
  30
0.0
  40
 300.00000000000
 100
AcDbArc
  50
 142.12501634890
  51
 180.00000000000
   0
ARC
   5
354
 100
AcDbEntity
   8
LEVEL001
 370
13
   6
DASHDOT
  62
6
 100
AcDbCircle
  10
 3010.3971910112
  20
 1712.0949682222
  30
0.0
  40
 338.15000000000
 100
AcDbArc
  50
 142.12501634890
  51
 180.00000000000
   0
ARC
   5
355
 100
AcDbEntity
   8
LEVEL001
 370
13
   6
CONTINUOUS
  62
7
 100
AcDbCircle
  10
 3010.3971910112
  20
 1712.0949682222
  30
0.0
  40
 376.30000000000
 100
AcDbArc
  50
 142.12501634890
  51
 180.00000000000
   0
LINE
   5
356
 100
AcDbEntity
   8
LEVEL001
 370
13
 100
AcDbLine
   6
CONTINUOUS
  62
7
  10
 3060.3971910112
  20
 3815.6168539318
  30
0.0
  11
 3060.3971910112
  21
 2394.1387396430
  31
0.0
   0
LINE
   5
357
 100
AcDbEntity
   8
LEVEL001
 370
13
 100
AcDbLine
   6
CONTINUOUS
  62
7
  10
 2984.0971910112
  20
 2394.1387396430
  30
0.0
  11
 2984.0971910112
  21
 3815.6168539318
  31
0.0
   0
LINE
   5
358
 100
AcDbEntity
   8
LEVEL001
 370
13
 100
AcDbLine
   6
CONTINUOUS
  62
7
  10
 2634.0971910112
  20
 1712.0949682222
  30
0.0
  11
 2634.0971910112
  21
 1028.1168539326
  31
0.0
   0
LINE
   5
359
 100
AcDbEntity
   8
LEVEL001
 370
13
 100
AcDbLine
   6
CONTINUOUS
  62
7
  10
 2634.0971910112
  20
 1028.1168539326
  30
0.0
  11
 2710.3971910112
  21
 1028.1168539326
  31
0.0
   0
LINE
   5
35A
 100
AcDbEntity
   8
LEVEL001
 370
13
 100
AcDbLine
   6
CONTINUOUS
  62
7
  10
 2710.3971910112
  20
 1028.1168539326
  30
0.0
  11
 2710.3971910112
  21
 1712.0949682222
  31
0.0
   0
LINE
   5
35B
 100
AcDbEntity
   8
LEVEL001
 370
13
 100
AcDbLine
   6
DASHDOT
  62
6
  10
 3022.2471910112
  20
 5078.1168539326
  30
0.0
  11
 3022.2471910112
  21
 2394.1387396430
  31
0.0
   0
POINT
   5
35C
 100
AcDbEntity
   8
LEVEL001
 100
AcDbPoint
  62
3
  10
 3022.2471910112
  20
 2278.1168539340
  30
0.0
   0
POINT
   5
35D
 100
AcDbEntity
   8
LEVEL001
 100
AcDbPoint
  62
3
  10
 2672.2471910112
  20
 1828.1168539339
  30
0.0
   0
LINE
   5
35E
 100
AcDbEntity
   8
LEVEL001
 370
13
 100
AcDbLine
   6
DASHDOT
  62
6
  10
 2672.2471910112
  20
 1712.0949682222
  30
0.0
  11
 2672.2471910112
  21
 928.11685393258
  31
0.0
   0
LINE
   5
35F
 100
AcDbEntity
   8
LEVEL001
 370
13
 100
AcDbLine
   6
DASHDOT
  62
6
  10
 1522.2471910112
  20
 5126.5168539326
  30
0.0
  11
 1522.2471910112
  21
 928.11685393258
  31
0.0
   0
LINE
   5
360
 100
AcDbEntity
   8
LEVEL001
 370
13
 100
AcDbLine
   6
CONTINUOUS
  62
7
  10
 1484.0971910112
  20
 4428.1168539326
  30
0.0
  11
 1484.0971910112
  21
 4328.1168539326
  31
0.0
   0
LINE
   5
361
 100
AcDbEntity
   8
LEVEL001
 370
13
 100
AcDbLine
   6
CONTINUOUS
  62
7
  10
 1560.3971910112
  20
 4328.1168539326
  30
0.0
  11
 1560.3971910112
  21
 4428.1168539326
  31
0.0
   0
MTEXT
   5
362
 100
AcDbEntity
   8
LEVEL001
 370
13
  62
1
 100
AcDbMText
  10
 5582.2471910112
  20
 3111.5168539326
  30
0.0
  40
 57.142857142858
  41
0.0
  71
4
  72
1
   1
\T1.000000;□６００×８００（シングル）
   7
GMM001
  44
 0.79999984000003
   0
MTEXT
   5
363
 100
AcDbEntity
   8
LEVEL001
 370
13
  62
1
 100
AcDbMText
  10
 4522.2471910112
  20
 5551.5168539326
  30
0.0
  40
 57.142857142858
  41
0.0
  71
5
  72
1
   1
\T1.000000;背　面　図
   7
GMM001
  44
 0.79999984000003
   0
MTEXT
   5
364
 100
AcDbEntity
   8
LEVEL001
 370
13
  62
1
 100
AcDbMText
  10
 3022.2471910112
  20
 5551.5168539326
  30
0.0
  40
 57.142857142858
  41
0.0
  71
5
  72
1
   1
\T1.000000;側　面　図
   7
GMM001
  44
 0.79999984000003
   0
MTEXT
   5
365
 100
AcDbEntity
   8
LEVEL001
 370
13
  62
1
 100
AcDbMText
  10
 1522.2471910112
  20
 5551.5168539326
  30
0.0
  40
 57.142857142858
  41
0.0
  71
5
  72
1
   1
\T1.000000;正　面　図
   7
GMM001
  44
 0.79999984000003
   0
MTEXT
   5
366
 100
AcDbEntity
   8
LEVEL001
 370
13
  62
1
 100
AcDbMText
  10
 6802.2471910112
  20
 2571.5168539326
  30
0.0
  40
 51.428571428572
  41
0.0
  71
4
  72
1
   1
\T1.000000;ＳＵＳ４３０
   7
GMM001
  44
 0.79999984000003
   0
MTEXT
   5
367
 100
AcDbEntity
   8
LEVEL001
 370
13
  62
1
 100
AcDbMText
  10
 5582.2471910112
  20
 3271.5168539326
  30
0.0
  40
 57.142857142858
  41
0.0
  71
4
  72
1
   1
\T1.000000;ステンレスミラー　＜Ｚタイプ＞
   7
GMM001
  44
 0.79999984000003
   0
MTEXT
   5
368
 100
AcDbEntity
   8
LEVEL001
 370
13
  62
1
 100
AcDbMText
  10
 6802.2471910112
  20
 2691.5168539326
  30
0.0
  40
 51.428571428572
  41
0.0
  71
4
  72
1
   1
\T1.000000;高耐食溶融めっき鋼板
   7
GMM004
  44
 0.79999984000003
   0
LINE
   5
369
 100
AcDbEntity
   8
LEVEL001
 370
13
 100
AcDbLine
   6
CONTINUOUS
  62
5
  10
 1772.2471910112
  20
 1028.1168539326
  30
0.0
  11
 1722.2471910112
  21
 928.11685393258
  31
0.0
   0
LINE
   5
36A
 100
AcDbEntity
   8
LEVEL001
 370
13
 100
AcDbLine
   6
CONTINUOUS
  62
5
  10
 1722.2471910112
  20
 1028.1168539326
  30
0.0
  11
 1762.2471910112
  21
 1008.1168539326
  31
0.0
   0
LINE
   5
36B
 100
AcDbEntity
   8
LEVEL001
 370
13
 100
AcDbLine
   6
CONTINUOUS
  62
5
  10
 1772.2471910112
  20
 928.11685393258
  30
0.0
  11
 1732.2471910112
  21
 948.11685393258
  31
0.0
   0
LINE
   5
36C
 100
AcDbEntity
   8
LEVEL001
 370
13
 100
AcDbLine
   6
CONTINUOUS
  62
5
  10
 1272.2471910112
  20
 928.11685393258
  30
0.0
  11
 1772.2471910112
  21
 928.11685393258
  31
0.0
   0
LINE
   5
36D
 100
AcDbEntity
   8
LEVEL001
 370
13
 100
AcDbLine
   6
CONTINUOUS
  62
5
  10
 1772.2471910112
  20
 928.11685393258
  30
0.0
  11
 1772.2471910112
  21
 1028.1168539326
  31
0.0
   0
LINE
   5
36E
 100
AcDbEntity
   8
LEVEL001
 370
13
 100
AcDbLine
   6
CONTINUOUS
  62
5
  10
 1772.2471910112
  20
 1028.1168539326
  30
0.0
  11
 1272.2471910112
  21
 1028.1168539326
  31
0.0
   0
LINE
   5
36F
 100
AcDbEntity
   8
LEVEL001
 370
13
 100
AcDbLine
   6
CONTINUOUS
  62
5
  10
 1772.2471910112
  20
 1751.6221929919
  30
0.0
  11
 1560.3971910112
  21
 1539.7721929919
  31
0.0
   0
LINE
   5
370
 100
AcDbEntity
   8
LEVEL001
 370
13
 100
AcDbLine
   6
CONTINUOUS
  62
5
  10
 1560.3971910112
  20
 1504.4168539326
  30
0.0
  11
 1772.2471910112
  21
 1716.2668539326
  31
0.0
   0
LINE
   5
371
 100
AcDbEntity
   8
LEVEL001
 370
13
 100
AcDbLine
   6
CONTINUOUS
  62
5
  10
 1772.2471910112
  20
 1680.9115148733
  30
0.0
  11
 1560.3971910112
  21
 1469.0615148733
  31
0.0
   0
LINE
   5
372
 100
AcDbEntity
   8
LEVEL001
 370
13
 100
AcDbLine
   6
CONTINUOUS
  62
5
  10
 1272.2471910112
  20
 1028.1168539326
  30
0.0
  11
 1772.2471910112
  21
 1028.1168539326
  31
0.0
   0
LINE
   5
373
 100
AcDbEntity
   8
LEVEL001
 370
13
 100
AcDbLine
   6
CONTINUOUS
  62
5
  10
 1772.2471910112
  20
 1028.1168539326
  30
0.0
  11
 1772.2471910112
  21
 1928.1168539326
  31
0.0
   0
LINE
   5
374
 100
AcDbEntity
   8
LEVEL001
 370
13
 100
AcDbLine
   6
CONTINUOUS
  62
5
  10
 1832.9273858579
  20
 1928.1168539326
  30
0.0
  11
 1780.4273858579
  21
 1875.6168539326
  31
0.0
   0
LINE
   5
375
 100
AcDbEntity
   8
LEVEL001
 370
13
 100
AcDbLine
   6
CONTINUOUS
  62
5
  10
 1796.3372884340
  20
 1875.6168539326
  30
0.0
  11
 1848.8372884340
  21
 1928.1168539326
  31
0.0
   0
LINE
   5
376
 100
AcDbEntity
   8
LEVEL001
 370
13
 100
AcDbLine
   6
CONTINUOUS
  62
5
  10
 1864.7471910116
  20
 1928.1168539326
  30
0.0
  11
 1812.2471910116
  21
 1875.6168539326
  31
0.0
   0
LINE
   5
377
 100
AcDbEntity
   8
LEVEL001
 370
13
 100
AcDbLine
   6
CONTINUOUS
  62
5
  10
 1828.1570935876
  20
 1875.6168539326
  30
0.0
  11
 1880.6570935876
  21
 1928.1168539326
  31
0.0
   0
LINE
   5
378
 100
AcDbEntity
   8
LEVEL001
 370
13
 100
AcDbLine
   6
CONTINUOUS
  62
5
  10
 1885.4273858582
  20
 1875.6168539326
  30
0.0
  11
 1856.7922397229
  21
 1904.2520000679
  31
0.0
   0
LINE
   5
379
 100
AcDbEntity
   8
LEVEL001
 370
13
 100
AcDbLine
   6
CONTINUOUS
  62
5
  10
 1864.7471910111
  20
 1912.2069513561
  30
0.0
  11
 1901.3372884346
  21
 1875.6168539326
  31
0.0
   0
LINE
   5
37A
 100
AcDbEntity
   8
LEVEL001
 370
13
 100
AcDbLine
   6
CONTINUOUS
  62
5
  10
 1917.2471910111
  20
 1875.6168539326
  30
0.0
  11
 1872.7021422993
  21
 1920.1619026443
  31
0.0
   0
LINE
   5
37B
 100
AcDbEntity
   8
LEVEL001
 370
13
 100
AcDbLine
   6
CONTINUOUS
  62
5
  10
 1880.6570935876
  20
 1928.1168539326
  30
0.0
  11
 1933.1570935878
  21
 1875.6168539326
  31
0.0
   0
LINE
   5
37C
 100
AcDbEntity
   8
LEVEL001
 370
13
 100
AcDbLine
   6
CONTINUOUS
  62
5
  10
 1933.1570935878
  20
 1875.6168539326
  30
0.0
  11
 1985.6570935878
  21
 1928.1168539326
  31
0.0
   0
LINE
   5
37D
 100
AcDbEntity
   8
LEVEL001
 370
13
 100
AcDbLine
   6
CONTINUOUS
  62
5
  10
 1937.9273858581
  20
 1928.1168539326
  30
0.0
  11
 1909.2922397229
  21
 1899.4817077974
  31
0.0
   0
LINE
   5
37E
 100
AcDbEntity
   8
LEVEL001
 370
13
 100
AcDbLine
   6
CONTINUOUS
  62
5
  10
 1917.2471910109
  20
 1891.5267565094
  30
0.0
  11
 1953.8372884342
  21
 1928.1168539326
  31
0.0
   0
LINE
   5
37F
 100
AcDbEntity
   8
LEVEL001
 370
13
 100
AcDbLine
   6
CONTINUOUS
  62
5
  10
 1969.7471910118
  20
 1928.1168539326
  30
0.0
  11
 1925.2021422998
  21
 1883.5718052206
  31
0.0
   0
LINE
   5
380
 100
AcDbEntity
   8
LEVEL001
 370
13
 100
AcDbLine
   6
CONTINUOUS
  62
5
  10
 1990.4273858584
  20
 1875.6168539326
  30
0.0
  11
 1961.7922397230
  21
 1904.2520000679
  31
0.0
   0
LINE
   5
381
 100
AcDbEntity
   8
LEVEL001
 370
13
 100
AcDbLine
   6
CONTINUOUS
  62
5
  10
 1969.7471910112
  20
 1912.2069513561
  30
0.0
  11
 2006.3372884348
  21
 1875.6168539326
  31
0.0
   0
LINE
   5
382
 100
AcDbEntity
   8
LEVEL001
 370
13
 100
AcDbLine
   6
CONTINUOUS
  62
5
  10
 2022.2471910112
  20
 1875.6168539326
  30
0.0
  11
 1977.7021422994
  21
 1920.1619026443
  31
0.0
   0
LINE
   5
383
 100
AcDbEntity
   8
LEVEL001
 370
13
 100
AcDbLine
   6
CONTINUOUS
  62
5
  10
 1985.6570935878
  20
 1928.1168539326
  30
0.0
  11
 2022.2471910112
  21
 1891.5267565093
  31
0.0
   0
LINE
   5
384
 100
AcDbEntity
   8
LEVEL001
 370
13
 100
AcDbLine
   6
CONTINUOUS
  62
5
  10
 1560.3971910112
  20
 1928.1168539326
  30
0.0
  11
 2022.2471910112
  21
 1928.1168539326
  31
0.0
   0
LINE
   5
385
 100
AcDbEntity
   8
LEVEL001
 370
13
 100
AcDbLine
   6
CONTINUOUS
  62
5
  10
 1722.2471910112
  20
 1028.1168539326
  30
0.0
  11
 1672.2471910112
  21
 928.11685393258
  31
0.0
   0
LINE
   5
386
 100
AcDbEntity
   8
LEVEL001
 370
13
 100
AcDbLine
   6
CONTINUOUS
  62
5
  10
 1672.2471910112
  20
 1028.1168539326
  30
0.0
  11
 1712.2471910112
  21
 1008.1168539326
  31
0.0
   0
LINE
   5
387
 100
AcDbEntity
   8
LEVEL001
 370
13
 100
AcDbLine
   6
CONTINUOUS
  62
5
  10
 1672.2471910112
  20
 1028.1168539326
  30
0.0
  11
 1622.2471910112
  21
 928.11685393258
  31
0.0
   0
LINE
   5
388
 100
AcDbEntity
   8
LEVEL001
 370
13
 100
AcDbLine
   6
CONTINUOUS
  62
5
  10
 1622.2471910112
  20
 1028.1168539326
  30
0.0
  11
 1662.2471910112
  21
 1008.1168539326
  31
0.0
   0
LINE
   5
389
 100
AcDbEntity
   8
LEVEL001
 370
13
 100
AcDbLine
   6
CONTINUOUS
  62
5
  10
 1722.2471910112
  20
 928.11685393258
  30
0.0
  11
 1682.2471910112
  21
 948.11685393258
  31
0.0
   0
LINE
   5
38A
 100
AcDbEntity
   8
LEVEL001
 370
13
 100
AcDbLine
   6
CONTINUOUS
  62
5
  10
 1672.2471910112
  20
 928.11685393258
  30
0.0
  11
 1632.2471910112
  21
 948.11685393258
  31
0.0
   0
LINE
   5
38B
 100
AcDbEntity
   8
LEVEL001
 370
13
 100
AcDbLine
   6
CONTINUOUS
  62
5
  10
 1422.2471910112
  20
 1028.1168539326
  30
0.0
  11
 1372.2471910112
  21
 928.11685393258
  31
0.0
   0
LINE
   5
38C
 100
AcDbEntity
   8
LEVEL001
 370
13
 100
AcDbLine
   6
CONTINUOUS
  62
5
  10
 1372.2471910112
  20
 1028.1168539326
  30
0.0
  11
 1412.2471910112
  21
 1008.1168539326
  31
0.0
   0
LINE
   5
38D
 100
AcDbEntity
   8
LEVEL001
 370
13
 100
AcDbLine
   6
CONTINUOUS
  62
5
  10
 1372.2471910112
  20
 1028.1168539326
  30
0.0
  11
 1322.2471910112
  21
 928.11685393258
  31
0.0
   0
LINE
   5
38E
 100
AcDbEntity
   8
LEVEL001
 370
13
 100
AcDbLine
   6
CONTINUOUS
  62
5
  10
 1322.2471910112
  20
 1028.1168539326
  30
0.0
  11
 1362.2471910112
  21
 1008.1168539326
  31
0.0
   0
LINE
   5
38F
 100
AcDbEntity
   8
LEVEL001
 370
13
 100
AcDbLine
   6
CONTINUOUS
  62
5
  10
 1322.2471910112
  20
 1028.1168539326
  30
0.0
  11
 1272.2471910112
  21
 928.11685393258
  31
0.0
   0
LINE
   5
390
 100
AcDbEntity
   8
LEVEL001
 370
13
 100
AcDbLine
   6
CONTINUOUS
  62
5
  10
 1272.2471910112
  20
 1028.1168539326
  30
0.0
  11
 1312.2471910112
  21
 1008.1168539326
  31
0.0
   0
LINE
   5
391
 100
AcDbEntity
   8
LEVEL001
 370
13
 100
AcDbLine
   6
CONTINUOUS
  62
5
  10
 1422.2471910112
  20
 928.11685393258
  30
0.0
  11
 1382.2471910112
  21
 948.11685393258
  31
0.0
   0
LINE
   5
392
 100
AcDbEntity
   8
LEVEL001
 370
13
 100
AcDbLine
   6
CONTINUOUS
  62
5
  10
 1372.2471910112
  20
 928.11685393258
  30
0.0
  11
 1332.2471910112
  21
 948.11685393258
  31
0.0
   0
LINE
   5
393
 100
AcDbEntity
   8
LEVEL001
 370
13
 100
AcDbLine
   6
CONTINUOUS
  62
5
  10
 1322.2471910112
  20
 928.11685393258
  30
0.0
  11
 1282.2471910112
  21
 948.11685393258
  31
0.0
   0
LINE
   5
394
 100
AcDbEntity
   8
LEVEL001
 370
13
 100
AcDbLine
   6
CONTINUOUS
  62
5
  10
 1272.2471910112
  20
 1028.1168539326
  30
0.0
  11
 1272.2471910112
  21
 928.11685393258
  31
0.0
   0
LINE
   5
395
 100
AcDbEntity
   8
LEVEL001
 370
13
 100
AcDbLine
   6
CONTINUOUS
  62
5
  10
 1484.0971910112
  20
 1463.4721929919
  30
0.0
  11
 1272.2471910112
  21
 1251.6221929919
  31
0.0
   0
LINE
   5
396
 100
AcDbEntity
   8
LEVEL001
 370
13
 100
AcDbLine
   6
CONTINUOUS
  62
5
  10
 1272.2471910112
  20
 1216.2668539326
  30
0.0
  11
 1484.0971910112
  21
 1428.1168539326
  31
0.0
   0
LINE
   5
397
 100
AcDbEntity
   8
LEVEL001
 370
13
 100
AcDbLine
   6
CONTINUOUS
  62
5
  10
 1484.0971910112
  20
 1392.7615148733
  30
0.0
  11
 1272.2471910112
  21
 1180.9115148733
  31
0.0
   0
LINE
   5
398
 100
AcDbEntity
   8
LEVEL001
 370
13
 100
AcDbLine
   6
CONTINUOUS
  62
5
  10
 1272.2471910112
  20
 1928.1168539326
  30
0.0
  11
 1272.2471910112
  21
 1028.1168539326
  31
0.0
   0
LINE
   5
399
 100
AcDbEntity
   8
LEVEL001
 370
13
 100
AcDbLine
   6
CONTINUOUS
  62
5
  10
 1183.1570935878
  20
 1875.6168539326
  30
0.0
  11
 1235.6570935878
  21
 1928.1168539326
  31
0.0
   0
LINE
   5
39A
 100
AcDbEntity
   8
LEVEL001
 370
13
 100
AcDbLine
   6
CONTINUOUS
  62
5
  10
 1167.2471910109
  20
 1891.5267565094
  30
0.0
  11
 1203.8372884342
  21
 1928.1168539326
  31
0.0
   0
LINE
   5
39B
 100
AcDbEntity
   8
LEVEL001
 370
13
 100
AcDbLine
   6
CONTINUOUS
  62
5
  10
 1219.7471910118
  20
 1928.1168539326
  30
0.0
  11
 1175.2021422998
  21
 1883.5718052206
  31
0.0
   0
LINE
   5
39C
 100
AcDbEntity
   8
LEVEL001
 370
13
 100
AcDbLine
   6
CONTINUOUS
  62
5
  10
 1240.4273858584
  20
 1875.6168539326
  30
0.0
  11
 1211.7922397231
  21
 1904.2520000679
  31
0.0
   0
LINE
   5
39D
 100
AcDbEntity
   8
LEVEL001
 370
13
 100
AcDbLine
   6
CONTINUOUS
  62
5
  10
 1219.7471910113
  20
 1912.2069513561
  30
0.0
  11
 1256.3372884348
  21
 1875.6168539326
  31
0.0
   0
LINE
   5
39E
 100
AcDbEntity
   8
LEVEL001
 370
13
 100
AcDbLine
   6
CONTINUOUS
  62
5
  10
 1272.2471910112
  20
 1875.6168539326
  30
0.0
  11
 1227.7021422995
  21
 1920.1619026443
  31
0.0
   0
LINE
   5
39F
 100
AcDbEntity
   8
LEVEL001
 370
13
 100
AcDbLine
   6
CONTINUOUS
  62
5
  10
 1082.9273858579
  20
 1928.1168539326
  30
0.0
  11
 1030.4273858579
  21
 1875.6168539326
  31
0.0
   0
LINE
   5
3A0
 100
AcDbEntity
   8
LEVEL001
 370
13
 100
AcDbLine
   6
CONTINUOUS
  62
5
  10
 1046.3372884340
  20
 1875.6168539326
  30
0.0
  11
 1098.8372884340
  21
 1928.1168539326
  31
0.0
   0
LINE
   5
3A1
 100
AcDbEntity
   8
LEVEL001
 370
13
 100
AcDbLine
   6
CONTINUOUS
  62
5
  10
 1114.7471910116
  20
 1928.1168539326
  30
0.0
  11
 1062.2471910116
  21
 1875.6168539326
  31
0.0
   0
LINE
   5
3A2
 100
AcDbEntity
   8
LEVEL001
 370
13
 100
AcDbLine
   6
CONTINUOUS
  62
5
  10
 1078.1570935876
  20
 1875.6168539326
  30
0.0
  11
 1130.6570935876
  21
 1928.1168539326
  31
0.0
   0
LINE
   5
3A3
 100
AcDbEntity
   8
LEVEL001
 370
13
 100
AcDbLine
   6
CONTINUOUS
  62
5
  10
 1135.4273858582
  20
 1875.6168539326
  30
0.0
  11
 1106.7922397229
  21
 1904.2520000679
  31
0.0
   0
LINE
   5
3A4
 100
AcDbEntity
   8
LEVEL001
 370
13
 100
AcDbLine
   6
CONTINUOUS
  62
5
  10
 1114.7471910111
  20
 1912.2069513561
  30
0.0
  11
 1151.3372884346
  21
 1875.6168539326
  31
0.0
   0
LINE
   5
3A5
 100
AcDbEntity
   8
LEVEL001
 370
13
 100
AcDbLine
   6
CONTINUOUS
  62
5
  10
 1167.2471910111
  20
 1875.6168539326
  30
0.0
  11
 1122.7021422993
  21
 1920.1619026443
  31
0.0
   0
LINE
   5
3A6
 100
AcDbEntity
   8
LEVEL001
 370
13
 100
AcDbLine
   6
CONTINUOUS
  62
5
  10
 1130.6570935876
  20
 1928.1168539326
  30
0.0
  11
 1183.1570935878
  21
 1875.6168539326
  31
0.0
   0
LINE
   5
3A7
 100
AcDbEntity
   8
LEVEL001
 370
13
 100
AcDbLine
   6
CONTINUOUS
  62
5
  10
 1187.9273858581
  20
 1928.1168539326
  30
0.0
  11
 1159.2922397229
  21
 1899.4817077974
  31
0.0
   0
LINE
   5
3A8
 100
AcDbEntity
   8
LEVEL001
 370
13
 100
AcDbLine
   6
CONTINUOUS
  62
5
  10
 1235.6570935878
  20
 1928.1168539326
  30
0.0
  11
 1272.2471910112
  21
 1891.5267565093
  31
0.0
   0
LINE
   5
3A9
 100
AcDbEntity
   8
LEVEL001
 370
13
 100
AcDbLine
   6
CONTINUOUS
  62
5
  10
 1484.0971910112
  20
 1928.1168539326
  30
0.0
  11
 1022.2471910112
  21
 1928.1168539326
  31
0.0
   0
LINE
   5
3AA
 100
AcDbEntity
   8
LEVEL001
 370
13
 100
AcDbLine
   6
CONTINUOUS
  62
5
  10
 2422.2471910112
  20
 1928.1168539326
  30
0.0
  11
 2422.2471910112
  21
 1028.1168539326
  31
0.0
   0
LINE
   5
3AB
 100
AcDbEntity
   8
LEVEL001
 370
13
 100
AcDbLine
   6
CONTINUOUS
  62
5
  10
 2333.1570935878
  20
 1875.6168539326
  30
0.0
  11
 2385.6570935878
  21
 1928.1168539326
  31
0.0
   0
LINE
   5
3AC
 100
AcDbEntity
   8
LEVEL001
 370
13
 100
AcDbLine
   6
CONTINUOUS
  62
5
  10
 2317.2471910110
  20
 1891.5267565094
  30
0.0
  11
 2353.8372884342
  21
 1928.1168539326
  31
0.0
   0
LINE
   5
3AD
 100
AcDbEntity
   8
LEVEL001
 370
13
 100
AcDbLine
   6
CONTINUOUS
  62
5
  10
 2369.7471910118
  20
 1928.1168539326
  30
0.0
  11
 2325.2021422998
  21
 1883.5718052206
  31
0.0
   0
LINE
   5
3AE
 100
AcDbEntity
   8
LEVEL001
 370
13
 100
AcDbLine
   6
CONTINUOUS
  62
5
  10
 2390.4273858584
  20
 1875.6168539326
  30
0.0
  11
 2361.7922397230
  21
 1904.2520000679
  31
0.0
   0
LINE
   5
3AF
 100
AcDbEntity
   8
LEVEL001
 370
13
 100
AcDbLine
   6
CONTINUOUS
  62
5
  10
 2369.7471910112
  20
 1912.2069513561
  30
0.0
  11
 2406.3372884348
  21
 1875.6168539326
  31
0.0
   0
LINE
   5
3B0
 100
AcDbEntity
   8
LEVEL001
 370
13
 100
AcDbLine
   6
CONTINUOUS
  62
5
  10
 2422.2471910112
  20
 1875.6168539326
  30
0.0
  11
 2377.7021422994
  21
 1920.1619026443
  31
0.0
   0
LINE
   5
3B1
 100
AcDbEntity
   8
LEVEL001
 370
13
 100
AcDbLine
   6
CONTINUOUS
  62
5
  10
 2232.9273858578
  20
 1928.1168539326
  30
0.0
  11
 2180.4273858578
  21
 1875.6168539326
  31
0.0
   0
LINE
   5
3B2
 100
AcDbEntity
   8
LEVEL001
 370
13
 100
AcDbLine
   6
CONTINUOUS
  62
5
  10
 2196.3372884340
  20
 1875.6168539326
  30
0.0
  11
 2248.8372884340
  21
 1928.1168539326
  31
0.0
   0
LINE
   5
3B3
 100
AcDbEntity
   8
LEVEL001
 370
13
 100
AcDbLine
   6
CONTINUOUS
  62
5
  10
 2264.7471910116
  20
 1928.1168539326
  30
0.0
  11
 2212.2471910116
  21
 1875.6168539326
  31
0.0
   0
LINE
   5
3B4
 100
AcDbEntity
   8
LEVEL001
 370
13
 100
AcDbLine
   6
CONTINUOUS
  62
5
  10
 2228.1570935877
  20
 1875.6168539326
  30
0.0
  11
 2280.6570935877
  21
 1928.1168539326
  31
0.0
   0
LINE
   5
3B5
 100
AcDbEntity
   8
LEVEL001
 370
13
 100
AcDbLine
   6
CONTINUOUS
  62
5
  10
 2285.4273858582
  20
 1875.6168539326
  30
0.0
  11
 2256.7922397228
  21
 1904.2520000679
  31
0.0
   0
LINE
   5
3B6
 100
AcDbEntity
   8
LEVEL001
 370
13
 100
AcDbLine
   6
CONTINUOUS
  62
5
  10
 2264.7471910110
  20
 1912.2069513561
  30
0.0
  11
 2301.3372884346
  21
 1875.6168539326
  31
0.0
   0
LINE
   5
3B7
 100
AcDbEntity
   8
LEVEL001
 370
13
 100
AcDbLine
   6
CONTINUOUS
  62
5
  10
 2317.2471910110
  20
 1875.6168539326
  30
0.0
  11
 2272.7021422992
  21
 1920.1619026443
  31
0.0
   0
LINE
   5
3B8
 100
AcDbEntity
   8
LEVEL001
 370
13
 100
AcDbLine
   6
CONTINUOUS
  62
5
  10
 2280.6570935877
  20
 1928.1168539326
  30
0.0
  11
 2333.1570935878
  21
 1875.6168539326
  31
0.0
   0
LINE
   5
3B9
 100
AcDbEntity
   8
LEVEL001
 370
13
 100
AcDbLine
   6
CONTINUOUS
  62
5
  10
 2385.6570935878
  20
 1928.1168539326
  30
0.0
  11
 2422.2471910112
  21
 1891.5267565093
  31
0.0
   0
LINE
   5
3BA
 100
AcDbEntity
   8
LEVEL001
 370
13
 100
AcDbLine
   6
CONTINUOUS
  62
5
  10
 2702.2799488872
  20
 1928.1168539326
  30
0.0
  11
 2172.2471910112
  21
 1928.1168539326
  31
0.0
   0
LINE
   5
3BB
 100
AcDbEntity
   8
LEVEL001
 370
13
 100
AcDbLine
   6
CONTINUOUS
  62
5
  10
 2337.9273858580
  20
 1928.1168539326
  30
0.0
  11
 2309.2922397228
  21
 1899.4817077974
  31
0.0
   0
LINE
   5
3BC
 100
AcDbEntity
   8
LEVEL001
 370
13
 100
AcDbLine
   6
CONTINUOUS
  62
5
  10
 2922.2471910112
  20
 1028.1168539326
  30
0.0
  11
 2872.2471910112
  21
 928.11685393258
  31
0.0
   0
LINE
   5
3BD
 100
AcDbEntity
   8
LEVEL001
 370
13
 100
AcDbLine
   6
CONTINUOUS
  62
5
  10
 2922.2471910112
  20
 928.11685393258
  30
0.0
  11
 2882.2471910112
  21
 948.11685393258
  31
0.0
   0
LINE
   5
3BE
 100
AcDbEntity
   8
LEVEL001
 370
13
 100
AcDbLine
   6
CONTINUOUS
  62
5
  10
 2422.2471910112
  20
 928.11685393258
  30
0.0
  11
 2922.2471910112
  21
 928.11685393258
  31
0.0
   0
LINE
   5
3BF
 100
AcDbEntity
   8
LEVEL001
 370
13
 100
AcDbLine
   6
CONTINUOUS
  62
5
  10
 2922.2471910112
  20
 928.11685393258
  30
0.0
  11
 2922.2471910112
  21
 1028.1168539326
  31
0.0
   0
LINE
   5
3C0
 100
AcDbEntity
   8
LEVEL001
 370
13
 100
AcDbLine
   6
CONTINUOUS
  62
5
  10
 2922.2471910112
  20
 1028.1168539326
  30
0.0
  11
 2422.2471910112
  21
 1028.1168539326
  31
0.0
   0
LINE
   5
3C1
 100
AcDbEntity
   8
LEVEL001
 370
13
 100
AcDbLine
   6
CONTINUOUS
  62
5
  10
 2922.2471910112
  20
 1751.6221929919
  30
0.0
  11
 2710.3971910112
  21
 1539.7721929919
  31
0.0
   0
LINE
   5
3C2
 100
AcDbEntity
   8
LEVEL001
 370
13
 100
AcDbLine
   6
CONTINUOUS
  62
5
  10
 2710.3971910112
  20
 1504.4168539326
  30
0.0
  11
 2922.2471910112
  21
 1716.2668539326
  31
0.0
   0
LINE
   5
3C3
 100
AcDbEntity
   8
LEVEL001
 370
13
 100
AcDbLine
   6
CONTINUOUS
  62
5
  10
 2922.2471910112
  20
 1680.9115148733
  30
0.0
  11
 2710.3971910112
  21
 1469.0615148733
  31
0.0
   0
LINE
   5
3C4
 100
AcDbEntity
   8
LEVEL001
 370
13
 100
AcDbLine
   6
CONTINUOUS
  62
5
  10
 2422.2471910112
  20
 1028.1168539326
  30
0.0
  11
 2922.2471910112
  21
 1028.1168539326
  31
0.0
   0
LINE
   5
3C5
 100
AcDbEntity
   8
LEVEL001
 370
13
 100
AcDbLine
   6
CONTINUOUS
  62
5
  10
 2922.2471910112
  20
 1028.1168539326
  30
0.0
  11
 2922.2471910112
  21
 1928.1168539326
  31
0.0
   0
LINE
   5
3C6
 100
AcDbEntity
   8
LEVEL001
 370
13
 100
AcDbLine
   6
CONTINUOUS
  62
5
  10
 2982.9273858578
  20
 1928.1168539326
  30
0.0
  11
 2930.4273858578
  21
 1875.6168539326
  31
0.0
   0
LINE
   5
3C7
 100
AcDbEntity
   8
LEVEL001
 370
13
 100
AcDbLine
   6
CONTINUOUS
  62
5
  10
 2946.3372884340
  20
 1875.6168539326
  30
0.0
  11
 2998.8372884340
  21
 1928.1168539326
  31
0.0
   0
LINE
   5
3C8
 100
AcDbEntity
   8
LEVEL001
 370
13
 100
AcDbLine
   6
CONTINUOUS
  62
5
  10
 3014.7471910116
  20
 1928.1168539326
  30
0.0
  11
 2962.2471910116
  21
 1875.6168539326
  31
0.0
   0
LINE
   5
3C9
 100
AcDbEntity
   8
LEVEL001
 370
13
 100
AcDbLine
   6
CONTINUOUS
  62
5
  10
 2978.1570935876
  20
 1875.6168539326
  30
0.0
  11
 3030.6570935877
  21
 1928.1168539326
  31
0.0
   0
LINE
   5
3CA
 100
AcDbEntity
   8
LEVEL001
 370
13
 100
AcDbLine
   6
CONTINUOUS
  62
5
  10
 3035.4273858582
  20
 1875.6168539326
  30
0.0
  11
 3006.7922397228
  21
 1904.2520000679
  31
0.0
   0
LINE
   5
3CB
 100
AcDbEntity
   8
LEVEL001
 370
13
 100
AcDbLine
   6
CONTINUOUS
  62
5
  10
 3014.7471910110
  20
 1912.2069513561
  30
0.0
  11
 3051.3372884346
  21
 1875.6168539326
  31
0.0
   0
LINE
   5
3CC
 100
AcDbEntity
   8
LEVEL001
 370
13
 100
AcDbLine
   6
CONTINUOUS
  62
5
  10
 3067.2471910110
  20
 1875.6168539326
  30
0.0
  11
 3022.7021422992
  21
 1920.1619026443
  31
0.0
   0
LINE
   5
3CD
 100
AcDbEntity
   8
LEVEL001
 370
13
 100
AcDbLine
   6
CONTINUOUS
  62
5
  10
 3030.6570935877
  20
 1928.1168539326
  30
0.0
  11
 3083.1570935878
  21
 1875.6168539326
  31
0.0
   0
LINE
   5
3CE
 100
AcDbEntity
   8
LEVEL001
 370
13
 100
AcDbLine
   6
CONTINUOUS
  62
5
  10
 3083.1570935878
  20
 1875.6168539326
  30
0.0
  11
 3135.6570935878
  21
 1928.1168539326
  31
0.0
   0
LINE
   5
3CF
 100
AcDbEntity
   8
LEVEL001
 370
13
 100
AcDbLine
   6
CONTINUOUS
  62
5
  10
 3087.9273858580
  20
 1928.1168539326
  30
0.0
  11
 3059.2922397228
  21
 1899.4817077974
  31
0.0
   0
LINE
   5
3D0
 100
AcDbEntity
   8
LEVEL001
 370
13
 100
AcDbLine
   6
CONTINUOUS
  62
5
  10
 3067.2471910110
  20
 1891.5267565094
  30
0.0
  11
 3103.8372884342
  21
 1928.1168539326
  31
0.0
   0
LINE
   5
3D1
 100
AcDbEntity
   8
LEVEL001
 370
13
 100
AcDbLine
   6
CONTINUOUS
  62
5
  10
 3119.7471910118
  20
 1928.1168539326
  30
0.0
  11
 3075.2021422998
  21
 1883.5718052206
  31
0.0
   0
LINE
   5
3D2
 100
AcDbEntity
   8
LEVEL001
 370
13
 100
AcDbLine
   6
CONTINUOUS
  62
5
  10
 3140.4273858584
  20
 1875.6168539326
  30
0.0
  11
 3111.7922397230
  21
 1904.2520000679
  31
0.0
   0
LINE
   5
3D3
 100
AcDbEntity
   8
LEVEL001
 370
13
 100
AcDbLine
   6
CONTINUOUS
  62
5
  10
 3119.7471910112
  20
 1912.2069513561
  30
0.0
  11
 3156.3372884348
  21
 1875.6168539326
  31
0.0
   0
LINE
   5
3D4
 100
AcDbEntity
   8
LEVEL001
 370
13
 100
AcDbLine
   6
CONTINUOUS
  62
5
  10
 3172.2471910112
  20
 1875.6168539326
  30
0.0
  11
 3127.7021422994
  21
 1920.1619026443
  31
0.0
   0
LINE
   5
3D5
 100
AcDbEntity
   8
LEVEL001
 370
13
 100
AcDbLine
   6
CONTINUOUS
  62
5
  10
 3135.6570935878
  20
 1928.1168539326
  30
0.0
  11
 3172.2471910112
  21
 1891.5267565093
  31
0.0
   0
LINE
   5
3D6
 100
AcDbEntity
   8
LEVEL001
 370
13
 100
AcDbLine
   6
CONTINUOUS
  62
5
  10
 2798.3557381974
  20
 1928.1168539326
  30
0.0
  11
 3172.2471910112
  21
 1928.1168539326
  31
0.0
   0
LINE
   5
3D7
 100
AcDbEntity
   8
LEVEL001
 370
13
 100
AcDbLine
   6
CONTINUOUS
  62
5
  10
 2872.2471910112
  20
 1028.1168539326
  30
0.0
  11
 2912.2471910112
  21
 1008.1168539326
  31
0.0
   0
LINE
   5
3D8
 100
AcDbEntity
   8
LEVEL001
 370
13
 100
AcDbLine
   6
CONTINUOUS
  62
5
  10
 2872.2471910112
  20
 1028.1168539326
  30
0.0
  11
 2822.2471910112
  21
 928.11685393258
  31
0.0
   0
LINE
   5
3D9
 100
AcDbEntity
   8
LEVEL001
 370
13
 100
AcDbLine
   6
CONTINUOUS
  62
5
  10
 2822.2471910112
  20
 1028.1168539326
  30
0.0
  11
 2862.2471910112
  21
 1008.1168539326
  31
0.0
   0
LINE
   5
3DA
 100
AcDbEntity
   8
LEVEL001
 370
13
 100
AcDbLine
   6
CONTINUOUS
  62
5
  10
 2822.2471910112
  20
 1028.1168539326
  30
0.0
  11
 2772.2471910112
  21
 928.11685393258
  31
0.0
   0
LINE
   5
3DB
 100
AcDbEntity
   8
LEVEL001
 370
13
 100
AcDbLine
   6
CONTINUOUS
  62
5
  10
 2772.2471910112
  20
 1028.1168539326
  30
0.0
  11
 2812.2471910112
  21
 1008.1168539326
  31
0.0
   0
LINE
   5
3DC
 100
AcDbEntity
   8
LEVEL001
 370
13
 100
AcDbLine
   6
CONTINUOUS
  62
5
  10
 2872.2471910112
  20
 928.11685393258
  30
0.0
  11
 2832.2471910112
  21
 948.11685393258
  31
0.0
   0
LINE
   5
3DD
 100
AcDbEntity
   8
LEVEL001
 370
13
 100
AcDbLine
   6
CONTINUOUS
  62
5
  10
 2822.2471910112
  20
 928.11685393258
  30
0.0
  11
 2782.2471910112
  21
 948.11685393258
  31
0.0
   0
LINE
   5
3DE
 100
AcDbEntity
   8
LEVEL001
 370
13
 100
AcDbLine
   6
CONTINUOUS
  62
5
  10
 2572.2471910112
  20
 1028.1168539326
  30
0.0
  11
 2522.2471910112
  21
 928.11685393258
  31
0.0
   0
LINE
   5
3DF
 100
AcDbEntity
   8
LEVEL001
 370
13
 100
AcDbLine
   6
CONTINUOUS
  62
5
  10
 2522.2471910112
  20
 1028.1168539326
  30
0.0
  11
 2562.2471910112
  21
 1008.1168539326
  31
0.0
   0
LINE
   5
3E0
 100
AcDbEntity
   8
LEVEL001
 370
13
 100
AcDbLine
   6
CONTINUOUS
  62
5
  10
 2522.2471910112
  20
 1028.1168539326
  30
0.0
  11
 2472.2471910112
  21
 928.11685393258
  31
0.0
   0
LINE
   5
3E1
 100
AcDbEntity
   8
LEVEL001
 370
13
 100
AcDbLine
   6
CONTINUOUS
  62
5
  10
 2472.2471910112
  20
 1028.1168539326
  30
0.0
  11
 2512.2471910112
  21
 1008.1168539326
  31
0.0
   0
LINE
   5
3E2
 100
AcDbEntity
   8
LEVEL001
 370
13
 100
AcDbLine
   6
CONTINUOUS
  62
5
  10
 2472.2471910112
  20
 1028.1168539326
  30
0.0
  11
 2422.2471910112
  21
 928.11685393258
  31
0.0
   0
LINE
   5
3E3
 100
AcDbEntity
   8
LEVEL001
 370
13
 100
AcDbLine
   6
CONTINUOUS
  62
5
  10
 2422.2471910112
  20
 1028.1168539326
  30
0.0
  11
 2462.2471910112
  21
 1008.1168539326
  31
0.0
   0
LINE
   5
3E4
 100
AcDbEntity
   8
LEVEL001
 370
13
 100
AcDbLine
   6
CONTINUOUS
  62
5
  10
 2572.2471910112
  20
 928.11685393258
  30
0.0
  11
 2532.2471910112
  21
 948.11685393258
  31
0.0
   0
LINE
   5
3E5
 100
AcDbEntity
   8
LEVEL001
 370
13
 100
AcDbLine
   6
CONTINUOUS
  62
5
  10
 2522.2471910112
  20
 928.11685393258
  30
0.0
  11
 2482.2471910112
  21
 948.11685393258
  31
0.0
   0
LINE
   5
3E6
 100
AcDbEntity
   8
LEVEL001
 370
13
 100
AcDbLine
   6
CONTINUOUS
  62
5
  10
 2472.2471910112
  20
 928.11685393258
  30
0.0
  11
 2432.2471910112
  21
 948.11685393258
  31
0.0
   0
LINE
   5
3E7
 100
AcDbEntity
   8
LEVEL001
 370
13
 100
AcDbLine
   6
CONTINUOUS
  62
5
  10
 2422.2471910112
  20
 1028.1168539326
  30
0.0
  11
 2422.2471910112
  21
 928.11685393258
  31
0.0
   0
LINE
   5
3E8
 100
AcDbEntity
   8
LEVEL001
 370
13
 100
AcDbLine
   6
CONTINUOUS
  62
5
  10
 2634.0971910112
  20
 1463.4721929919
  30
0.0
  11
 2422.2471910112
  21
 1251.6221929919
  31
0.0
   0
LINE
   5
3E9
 100
AcDbEntity
   8
LEVEL001
 370
13
 100
AcDbLine
   6
CONTINUOUS
  62
5
  10
 2422.2471910112
  20
 1216.2668539326
  30
0.0
  11
 2634.0971910112
  21
 1428.1168539326
  31
0.0
   0
LINE
   5
3EA
 100
AcDbEntity
   8
LEVEL001
 370
13
 100
AcDbLine
   6
CONTINUOUS
  62
5
  10
 2634.0971910112
  20
 1392.7615148733
  30
0.0
  11
 2422.2471910112
  21
 1180.9115148733
  31
0.0
   0
MTEXT
   5
3EB
 100
AcDbEntity
   8
LEVEL001
 370
13
  62
1
 100
AcDbMText
  10
 5654.2471910112
  20
 1131.5168539326
  30
0.0
  40
 51.428571428572
  41
0.0
  71
6
  72
1
   1
\T1.000000;１４
   7
GMM001
  44
 0.79999984000003
   0
MTEXT
   5
3EC
 100
AcDbEntity
   8
LEVEL001
 370
13
  62
1
 100
AcDbMText
  10
 5654.2471910112
  20
 1251.5168539326
  30
0.0
  40
 51.428571428572
  41
0.0
  71
6
  72
1
   1
\T1.000000;１３
   7
GMM001
  44
 0.79999984000003
   0
MTEXT
   5
3ED
 100
AcDbEntity
   8
LEVEL001
 370
13
  62
1
 100
AcDbMText
  10
 5654.2471910112
  20
 1371.5168539326
  30
0.0
  40
 51.428571428572
  41
0.0
  71
6
  72
1
   1
\T1.000000;１２
   7
GMM001
  44
 0.79999984000003
   0
MTEXT
   5
3EE
 100
AcDbEntity
   8
LEVEL001
 370
13
  62
1
 100
AcDbMText
  10
 5654.2471910112
  20
 1491.5168539326
  30
0.0
  40
 51.428571428572
  41
0.0
  71
6
  72
1
   1
\T1.000000;１１
   7
GMM001
  44
 0.79999984000003
   0
MTEXT
   5
3EF
 100
AcDbEntity
   8
LEVEL001
 370
13
  62
1
 100
AcDbMText
  10
 5654.2471910112
  20
 1611.5168539326
  30
0.0
  40
 51.428571428572
  41
0.0
  71
6
  72
1
   1
\T1.000000;１０
   7
GMM001
  44
 0.79999984000003
   0
MTEXT
   5
3F0
 100
AcDbEntity
   8
LEVEL001
 370
13
  62
1
 100
AcDbMText
  10
 5722.2471910112
  20
 1131.5168539326
  30
0.0
  40
 51.428571428572
  41
0.0
  71
4
  72
1
   1
\T1.000000;同上ボルトナット
   7
GMM001
  44
 0.79999984000003
   0
MTEXT
   5
3F1
 100
AcDbEntity
   8
LEVEL001
 370
13
  62
1
 100
AcDbMText
  10
 5722.2471910112
  20
 1251.5168539326
  30
0.0
  40
 51.428571428572
  41
0.0
  71
4
  72
1
   1
\T1.000000;注意板取付バンド
   7
GMM001
  44
 0.79999984000003
   0
MTEXT
   5
3F2
 100
AcDbEntity
   8
LEVEL001
 370
13
  62
1
 100
AcDbMText
  10
 5722.2471910112
  20
 1491.5168539326
  30
0.0
  40
 51.428571428572
  41
0.0
  71
4
  72
1
   1
\T1.000000;キャップ
   7
GMM001
  44
 0.79999984000003
   0
MTEXT
   5
3F3
 100
AcDbEntity
   8
LEVEL001
 370
13
  62
1
 100
AcDbMText
  10
 5722.2471910112
  20
 1611.5168539326
  30
0.0
  40
 51.428571428572
  41
0.0
  71
4
  72
1
   1
\T1.000000;根入れ鉄筋
   7
GMM001
  44
 0.79999984000003
   0
MTEXT
   5
3F4
 100
AcDbEntity
   8
LEVEL001
 370
13
  62
1
 100
AcDbMText
  10
 6734.2471910112
  20
 1371.5168539326
  30
0.0
  40
 51.428571428572
  41
0.0
  71
6
  72
1
   1
\T1.000000;１
   7
GMM001
  44
 0.79999984000003
   0
MTEXT
   5
3F5
 100
AcDbEntity
   8
LEVEL001
 370
13
  62
1
 100
AcDbMText
  10
 6734.2471910112
  20
 1491.5168539326
  30
0.0
  40
 51.428571428572
  41
0.0
  71
6
  72
1
   1
\T1.000000;１
   7
GMM001
  44
 0.79999984000003
   0
MTEXT
   5
3F6
 100
AcDbEntity
   8
LEVEL001
 370
13
  62
1
 100
AcDbMText
  10
 6734.2471910112
  20
 1611.5168539326
  30
0.0
  40
 51.428571428572
  41
0.0
  71
6
  72
1
   1
\T1.000000;１
   7
GMM001
  44
 0.79999984000003
   0
MTEXT
   5
3F7
 100
AcDbEntity
   8
LEVEL001
 370
13
  62
1
 100
AcDbMText
  10
 6812.2471910112
  20
 1488.6640693244
  30
0.0
  40
 51.428571428572
  41
0.0
  71
4
  72
1
   1
\T1.000000;ＰＥ
   7
GMM001
  44
 0.79999984000003
   0
MTEXT
   5
3F8
 100
AcDbEntity
   8
LEVEL001
 370
13
  62
1
 100
AcDbMText
  10
 6802.2471910112
  20
 1611.5168539326
  30
0.0
  40
 51.428571428572
  41
0.0
  71
4
  72
1
   1
\T1.000000;ＳＤ２９５Ａ
   7
GMM001
  44
 0.79999984000003
   0
LWPOLYLINE
   5
3F9
 100
AcDbEntity
   8
0
 370
13
   6
CONTINUOUS
  62
6
 100
AcDbPolyline
  90
4
  70
1
  10
 5482.2471910112
  20
 951.51685393258
  10
 8122.2471910112
  20
 951.51685393258
  10
 8122.2471910112
  20
 3351.5168539326
  10
 5482.2471910112
  20
 3351.5168539326
   0
LINE
   5
3FA
 100
AcDbEntity
   8
LEVEL001
 370
13
 100
AcDbLine
   6
CONTINUOUS
  62
2
  10
 5482.2471910112
  20
 731.51685393258
  30
0.0
  11
 7162.2471910112
  21
 731.51685393258
  31
0.0
   0
MTEXT
   5
3FB
 100
AcDbEntity
   8
LEVEL001
 370
13
  62
2
 100
AcDbMText
  10
 5492.2471910112
  20
 921.51685393258
  30
0.0
  40
 38.571428571428
  41
0.0
  71
4
  72
1
   1
\T1.370378;図面番号
   7
GMM001
  44
 0.79999984000003
   0
LINE
   5
3FC
 100
AcDbEntity
   8
LEVEL001
 370
13
 100
AcDbLine
   6
CONTINUOUS
  62
6
  10
 7322.2471910112
  20
 3031.5168539326
  30
0.0
  11
 7322.2471910112
  21
 951.51685393258
  31
0.0
   0
MTEXT
   5
3FD
 100
AcDbEntity
   8
LEVEL001
 370
13
  62
1
 100
AcDbMText
  10
 7362.2471910112
  20
 1251.5168539326
  30
0.0
  40
 51.428571428572
  41
0.0
  71
4
  72
1
   1
\T1.000000;―
   7
GMM001
  44
 0.79999984000003
   0
MTEXT
   5
3FE
 100
AcDbEntity
   8
LEVEL001
 370
13
  62
1
 100
AcDbMText
  10
 7362.2471910112
  20
 1131.5168539326
  30
0.0
  40
 51.428571428572
  41
0.0
  71
4
  72
1
   1
\T1.000000;―
   7
GMM001
  44
 0.79999984000003
   0
MTEXT
   5
3FF
 100
AcDbEntity
   8
LEVEL001
 370
13
  62
1
 100
AcDbMText
  10
 6802.2471910112
  20
 1251.5168539326
  30
0.0
  40
 51.428571428572
  41
0.0
  71
4
  72
1
   1
\T1.000000;―
   7
GMM001
  44
 0.79999984000003
   0
MTEXT
   5
400
 100
AcDbEntity
   8
LEVEL001
 370
13
  62
1
 100
AcDbMText
  10
 6802.2471910112
  20
 1131.5168539326
  30
0.0
  40
 51.428571428572
  41
0.0
  71
4
  72
1
   1
\T1.000000;―
   7
GMM001
  44
 0.79999984000003
   0
MTEXT
   5
401
 100
AcDbEntity
   8
LEVEL001
 370
13
  62
1
 100
AcDbMText
  10
 6734.2471910112
  20
 1251.5168539326
  30
0.0
  40
 51.428571428572
  41
0.0
  71
6
  72
1
   1
\T1.000000;１式
   7
GMM001
  44
 0.79999984000003
   0
MTEXT
   5
402
 100
AcDbEntity
   8
LEVEL001
 370
13
  62
1
 100
AcDbMText
  10
 6734.2471910112
  20
 1131.5168539326
  30
0.0
  40
 51.428571428572
  41
0.0
  71
6
  72
1
   1
\T1.000000;１式
   7
GMM001
  44
 0.79999984000003
   0
MTEXT
   5
403
 100
AcDbEntity
   8
LEVEL001
 370
13
  62
1
 100
AcDbMText
  10
 6802.2471910112
  20
 1371.5168539326
  30
0.0
  40
 51.428571428572
  41
0.0
  71
4
  72
1
   1
\T1.000000;―
   7
GMM001
  44
 0.79999984000003
   0
MTEXT
   5
404
 100
AcDbEntity
   8
LEVEL001
 370
13
  62
1
 100
AcDbMText
  10
 7362.2471910112
  20
 1371.5168539326
  30
0.0
  40
 51.428571428572
  41
0.0
  71
4
  72
1
   1
\T1.000000;―
   7
GMM001
  44
 0.79999984000003
   0
MTEXT
   5
405
 100
AcDbEntity
   8
0
 370
13
  62
1
 100
AcDbMText
  10
 6733.2261647653
  20
 1697.7857036870
  30
0.0
  40
 51.428571428571
  41
0.0
  71
9
  72
1
   1
\T1.000000;１
   7
GMM001
  44
 0.79999984000003
   0
MTEXT
   5
406
 100
AcDbEntity
   8
0
 370
13
  62
1
 100
AcDbMText
  10
 6801.8305821427
  20
 1697.7857036870
  30
0.0
  40
 51.428571428571
  41
0.0
  71
7
  72
1
   1
\T1.000000;ＳＴＫ４００
   7
GMM001
  44
 0.79999984000003
   0
MTEXT
   5
407
 100
AcDbEntity
   8
0
 370
13
  62
1
 100
AcDbMText
  10
 7363.6287202612
  20
 1737.3769249035
  30
0.0
  40
 34.285720000000
  41
0.0
  71
4
  72
1
   1
{\T1.000000;下地亜鉛メッキ}\P{\T1.000000;＋静電粉体塗装}
   7
GMM005
  44
 0.79999984000003
   0
LINE
   5
408
 100
AcDbEntity
   8
0
 370
13
 100
AcDbLine
   6
CONTINUOUS
  62
6
  10
 6562.2471910112
  20
 1791.5168539326
  30
0.0
  11
 8122.2471910112
  21
 1791.5168539326
  31
0.0
   0
MTEXT
   5
409
 100
AcDbEntity
   8
LEVEL001
 370
13
  62
1
 100
AcDbMText
  10
 5722.2471910112
  20
 3531.5168539326
  30
0.0
  40
 51.428580000000
  41
0.0
  71
1
  72
1
   1
{\T1.000000;※構成部材は改良のため、変更する場合があります。}\P{\T1.000000;※本図は道路反射鏡ハンドブックに基づいています。}
   7
GMM001
  44
 0.79999984000003
   0
MTEXT
   5
40A
 100
AcDbEntity
   8
LEVEL001
 370
13
  62
1
 100
AcDbMText
  10
 6322.2471910112
  20
 795.73560393258
  30
0.0
  40
 42.857142857142
  41
0.0
  71
5
  72
1
   1
\T1.000000;ＭＺＨ６０８ＳＣＰ
   7
GMM001
  44
 0.79999984000003
   0
MTEXT
   5
40B
 100
AcDbEntity
   8
LEVEL001
 370
13
  62
1
 100
AcDbMText
  10
 7363.0156683938
  20
 2745.8968846610
  30
0.0
  40
 34.285714285714
  41
0.0
  71
1
  72
1
   1
{\T1.000000;ＺＡＭ処理鋼板}\P{\T1.000000;プレス成型}
   7
GMM005
  44
 1.0099997980000
   0
MTEXT
   5
40C
 100
AcDbEntity
   8
LEVEL001
 370
13
  62
1
 100
AcDbMText
  10
 5722.2471910112
  20
 1371.5168539326
  30
0.0
  40
 51.428571428572
  41
0.0
  71
4
  72
1
   1
\T1.000000;注意板
   7
GMM001
  44
 0.79999984000003
   0
MTEXT
   5
40D
 100
AcDbEntity
   8
LEVEL001
 370
13
  62
1
 100
AcDbMText
  10
 1872.2471910112
  20
 2949.5454253612
  30
0.0
  40
 42.857142857142
  41
0.0
  71
1
  72
1
   1
{\T1.000000;支柱}\P%%c{\T1.000000;７６}{\T1.000000;.}{\T1.000000;３×３}{\T1.000000;.}{\T1.000000;２ｔ}\P{\T1.000000;×４０００Ｌ}
   7
GMM001
  44
 0.79999984000003
   0
INSERT
   5
40E
 100
AcDbEntity
   8
0
 100
AcDbBlockReference
   2
BLOCK001
  10
0.0
  20
0.0
  30
0.0
   0
INSERT
   5
40F
 100
AcDbEntity
   8
0
 100
AcDbBlockReference
   2
BLOCK002
  10
0.0
  20
0.0
  30
0.0
   0
INSERT
   5
410
 100
AcDbEntity
   8
0
 100
AcDbBlockReference
   2
BLOCK003
  10
0.0
  20
0.0
  30
0.0
   0
DIMENSION
   5
411
 100
AcDbEntity
   8
LEVEL001
 370
13
   6
CONTINUOUS
  62
1
 100
AcDbDimension
   2
*D14
  10
 772.24719101123
  20
 1028.1168539326
  30
0.0
  11
 772.24719101123
  21
 978.11685393258
  31
0.0
  70
128
   1
\A1;100
   3
GMM003
 100
AcDbAlignedDimension
  13
 1272.2471910112
  23
 928.11685393258
  33
0.0
  14
 1272.2471910112
  24
 1028.1168539326
  34
0.0
  50
 90.000000000000
 100
AcDbRotatedDimension
   0
DIMENSION
   5
412
 100
AcDbEntity
   8
LEVEL001
 370
13
   6
CONTINUOUS
  62
1
 100
AcDbDimension
   2
*D15
  10
 1772.2471910112
  20
 728.11685393258
  30
0.0
  11
 1522.2471910112
  21
 728.11685393258
  31
0.0
  70
128
   1
\A1;□500
   3
GMM004
 100
AcDbAlignedDimension
  13
 1272.2471910112
  23
 928.11685393258
  33
0.0
  14
 1772.2471910112
  24
 928.11685393258
  34
0.0
 100
AcDbRotatedDimension
   0
DIMENSION
   5
413
 100
AcDbEntity
   8
LEVEL001
 370
13
   6
CONTINUOUS
  62
1
 100
AcDbDimension
   2
*D16
  10
 772.24719101123
  20
 4428.1168539326
  30
0.0
  11
 772.24719101123
  21
 3178.1168539326
  31
0.0
  70
128
   1
\A1;2500(標準設置高さ)
   3
GMM005
 100
AcDbAlignedDimension
  13
 1022.2471910112
  23
 1928.1168539326
  33
0.0
  14
 1219.7471910112
  24
 4428.1168539326
  34
0.0
  50
 90.000000000000
 100
AcDbRotatedDimension
   0
DIMENSION
   5
414
 100
AcDbEntity
   8
0
 370
13
   6
CONTINUOUS
  62
1
 100
AcDbDimension
   2
*D17
  10
 772.24719101123
  20
 1028.1168539326
  30
0.0
  11
 772.24719101123
  21
 1478.1168539326
  31
0.0
  70
0
   3
GMM006
 100
AcDbAlignedDimension
  13
 1022.2471910112
  23
 1928.1168539326
  33
0.0
  14
 1272.2471910112
  24
 1028.1168539326
  34
0.0
  50
 270.00000000000
 100
AcDbRotatedDimension
   0
DIMENSION
   5
415
 100
AcDbEntity
   8
0
 370
13
   6
CONTINUOUS
  62
1
 100
AcDbDimension
   2
*D18
  10
 3022.2471910112
  20
 2928.1168539326
  30
0.0
  11
 2847.2471910112
  21
 2928.1168539326
  31
0.0
  70
0
   3
GMM007
 100
AcDbAlignedDimension
  13
 2672.2471910112
  23
 1828.1168539339
  33
0.0
  14
 3022.2471910112
  24
 2278.1168539340
  34
0.0
 100
AcDbRotatedDimension
   0
DIMENSION
   5
416
 100
AcDbEntity
   8
LEVEL001
 370
13
   6
CONTINUOUS
  62
1
 100
AcDbDimension
   2
*D19
  10
 1924.7471910112
  20
 4901.5168539326
  30
0.0
  11
 1556.0018405768
  21
 4901.5168539326
  31
0.0
  70
128
   1
\A1;800
   3
GMM008
 100
AcDbAlignedDimension
  13
 1119.7471910112
  23
 4901.5168539326
  33
0.0
  14
 1924.7471910112
  24
 4901.5168539326
  34
0.0
 100
AcDbRotatedDimension
   0
DIMENSION
   5
417
 100
AcDbEntity
   8
LEVEL001
 370
13
   6
CONTINUOUS
  62
1
 100
AcDbDimension
   2
*D20
  10
 1322.2471910112
  20
 4449.0168539326
  30
0.0
  11
 1322.2471910112
  21
 4719.2661129042
  31
0.0
  70
128
   1
\A1;600
   3
GMM008
 100
AcDbAlignedDimension
  13
 1322.2471910112
  23
 5054.0168539326
  33
0.0
  14
 1322.2471910112
  24
 4449.0168539326
  34
0.0
  50
 270.00000000000
 100
AcDbRotatedDimension
   0
DIMENSION
   5
418
 100
AcDbEntity
   8
LEVEL001
 370
13
   6
CONTINUOUS
  62
1
 100
AcDbDimension
   2
*D21
  10
 2922.2471910112
  20
 728.11685393258
  30
0.0
  11
 2672.2471910112
  21
 728.11685393258
  31
0.0
  70
128
   1
\A1;□500
   3
GMM004
 100
AcDbAlignedDimension
  13
 2422.2471910112
  23
 928.11685393258
  33
0.0
  14
 2922.2471910112
  24
 928.11685393258
  34
0.0
 100
AcDbRotatedDimension
   0
ENDSEC
  0
SECTION
  2
OBJECTS
  0
DICTIONARY
  5
C
100
AcDbDictionary
  3
ACAD_GROUP
350
D
  3
ACAD_MLINESTYLE
350
1B
  3
DWGPROPS
350
1C
  0
DICTIONARY
  5
D
102
{ACAD_REACTORS
330
C
102
}
100
AcDbDictionary
  0
DICTIONARY
  5
1B
102
{ACAD_REACTORS
330
C
102
}
100
AcDbDictionary
  3
STANDARD
350
1D
  0
MLINESTYLE
  5
1D
102
{ACAD_REACTORS
330
1B
102
}
100
AcDbMlineStyle
  2
STANDARD
 70
     0
  3

 62
   256
 51
90.0
 52
90.0
 71
     2
 49
0.5
 62
   256
  6
BYLAYER
 49
-0.5
 62
   256
  6
BYLAYER
   0
XRECORD
   5
1C
 102
{ACAD_REACTORS
 330
C
 102
}
 330
C
 100
AcDbXrecord
 280
1
   1
DWGPROPS COOKIE
   2
 
   3
 
   4
 
   6
 
   7
MZH608SCP
   8
 
   9

 300
 = 
 301
 = 
 302
 = 
 303
 = 
 304
 = 
 305
 = 
 306
 = 
 307
 = 
 308
 = 
 309
 = 
  40
0.0
  41
 2460340.5000000
  42
 2460340.5000000
   1

  90
10
   0
ENDSEC
   0
EOF
