   0
SECTION
   2
HEADER
   9
$ACADVER
   1
AC1015
   9
$DWGCODEPAGE
   3
ANSI_932
   9
$LIMMIN
  10
0.0
  20
0.0
   9
$LIMMAX
  10
 8400.0000000000
  20
 5940.0000000000
   9
$EXTMIN
  10
0.0
  20
0.0
  30
0.0
   9
$EXTMAX
  10
 8400.0000000000
  20
 5940.0000000000
  30
0.0
   9
$LTSCALE
  40
 168.00000000000
   9
$HANDSEED
   5
4FF
   0
ENDSEC
   0
SECTION
   2
TABLES
  0
TABLE
  2
VPORT
  5
8
100
AcDbSymbolTable
 70
     1
  0
VPORT
  5
4FE
100
AcDbSymbolTableRecord
100
AcDbViewportTableRecord
  2
*ACTIVE
 70
     0
 10
0.0
 20
0.0
 11
1.0
 21
1.0
  12
 4200.0000000000
  22
 2970.0000000000
 13
0.0
 23
0.0
 14
1.0
 24
1.0
 15
0.0
 25
0.0
 16
0.0
 26
0.0
 36
1.0
 17
0.0
 27
0.0
 37
0.0
  40
 8400.0000000000
  41
 1.4787878787879
 42
50.0
 43
0.0
 44
0.0
 50
0.0
 51
0.0
 71
     0
 72
   100
 73
     1
 74
     1
 75
     0
 76
     0
 77
     0
 78
     0
  0
ENDTAB
  0
TABLE
  2
LTYPE
  5
5
100
AcDbSymbolTable
 70
    25
  0
LTYPE
  5
12
100
AcDbSymbolTableRecord
100
AcDbLinetypeTableRecord
  2
BYBLOCK
 70
     0
  3

 72
    65
 73
     0
 40
0.0
  0
LTYPE
  5
13
100
AcDbSymbolTableRecord
100
AcDbLinetypeTableRecord
  2
BYLAYER
 70
     0
  3

 72
    65
 73
     0
 40
0.0
  0
LTYPE
  5
14
100
AcDbSymbolTableRecord
100
AcDbLinetypeTableRecord
  2
CONTINUOUS
 70
     0
  3
Solid line
 72
    65
 73
     0
 40
0.0
  0
LTYPE
  5
20
100
AcDbSymbolTableRecord
100
AcDbLinetypeTableRecord
  2
BORDER
 70
     0
  3
__ __ . __ __ . __ __ . __ __ . __ __ . __ __ .
 72
    65
 73
     6
 40
1.75
 49
0.5
 74
     0
 49
-0.25
 74
     0
 49
0.5
 74
     0
 49
-0.25
 74
     0
 49
0.0
 74
     0
 49
-0.25
 74
     0
  0
LTYPE
  5
21
100
AcDbSymbolTableRecord
100
AcDbLinetypeTableRecord
  2
BORDER2
 70
     0
  3
__.__.__.__.__.__.__.__.__.__.__.__.__.__.__.__
 72
    65
 73
     6
 40
0.875
 49
0.25
 74
     0
 49
-0.125
 74
     0
 49
0.25
 74
     0
 49
-0.125
 74
     0
 49
0.0
 74
     0
 49
-0.125
 74
     0
  0
LTYPE
  5
22
100
AcDbSymbolTableRecord
100
AcDbLinetypeTableRecord
  2
BORDERX2
 70
     0
  3
____  ____  .  ____  ____  .  ____  ____  .  __
 72
    65
 73
     6
 40
3.5
 49
1.0
 74
     0
 49
-0.5
 74
     0
 49
1.0
 74
     0
 49
-0.5
 74
     0
 49
0.0
 74
     0
 49
-0.5
 74
     0
  0
LTYPE
  5
23
100
AcDbSymbolTableRecord
100
AcDbLinetypeTableRecord
  2
CENTER
 70
     0
  3
____ _ ____ _ ____ _ ____ _ ____ _ ____ _ ____ 
 72
    65
 73
     4
 40
2.0
 49
1.25
 74
     0
 49
-0.25
 74
     0
 49
0.25
 74
     0
 49
-0.25
 74
     0
  0
LTYPE
  5
24
100
AcDbSymbolTableRecord
100
AcDbLinetypeTableRecord
  2
CENTER2
 70
     0
  3
___ _ ___ _ ___ _ ___ _ ___ _ ___ _ ___ _ ___ _
 72
    65
 73
     4
 40
1.125
 49
0.75
 74
     0
 49
-0.125
 74
     0
 49
0.125
 74
     0
 49
-0.125
 74
     0
  0
LTYPE
  5
25
100
AcDbSymbolTableRecord
100
AcDbLinetypeTableRecord
  2
CENTERX2
 70
     0
  3
________  __  ________  __  ________  __  _____
 72
    65
 73
     4
 40
4.0
 49
2.5
 74
     0
 49
-0.5
 74
     0
 49
0.5
 74
     0
 49
-0.5
 74
     0
  0
LTYPE
  5
26
100
AcDbSymbolTableRecord
100
AcDbLinetypeTableRecord
  2
DASHDOT
 70
     0
  3
__ . __ . __ . __ . __ . __ . __ . __ . __ . __
 72
    65
 73
     4
 40
1.0
 49
0.5
 74
     0
 49
-0.25
 74
     0
 49
0.0
 74
     0
 49
-0.25
 74
     0
  0
LTYPE
  5
27
100
AcDbSymbolTableRecord
100
AcDbLinetypeTableRecord
  2
DASHDOT2
 70
     0
  3
_._._._._._._._._._._._._._._._._._._._._._._._
 72
    65
 73
     4
 40
0.5
 49
0.25
 74
     0
 49
-0.125
 74
     0
 49
0.0
 74
     0
 49
-0.125
 74
     0
  0
LTYPE
  5
28
100
AcDbSymbolTableRecord
100
AcDbLinetypeTableRecord
  2
DASHDOTX2
 70
     0
  3
____  .  ____  .  ____  .  ____  .  ____  .  __
 72
    65
 73
     4
 40
2.0
 49
1.0
 74
     0
 49
-0.5
 74
     0
 49
0.0
 74
     0
 49
-0.5
 74
     0
  0
LTYPE
  5
29
100
AcDbSymbolTableRecord
100
AcDbLinetypeTableRecord
  2
DASHED
 70
     0
  3
__ __ __ __ __ __ __ __ __ __ __ __ __ __ __ __
 72
    65
 73
     2
 40
0.75
 49
0.5
 74
     0
 49
-0.25
 74
     0
  0
LTYPE
  5
2A
100
AcDbSymbolTableRecord
100
AcDbLinetypeTableRecord
  2
DASHED2
 70
     0
  3
_ _ _ _ _ _ _ _ _ _ _ _ _ _ _ _ _ _ _ _ _ _ _ _
 72
    65
 73
     2
 40
0.375
 49
0.25
 74
     0
 49
-0.125
 74
     0
  0
LTYPE
  5
2B
100
AcDbSymbolTableRecord
100
AcDbLinetypeTableRecord
  2
DASHEDX2
 70
     0
  3
____  ____  ____  ____  ____  ____  ____  ____ 
 72
    65
 73
     2
 40
1.5
 49
1.0
 74
     0
 49
-0.5
 74
     0
  0
LTYPE
  5
2C
100
AcDbSymbolTableRecord
100
AcDbLinetypeTableRecord
  2
DIVIDE
 70
     0
  3
____ . . ____ . . ____ . . ____ . . ____ . . __
 72
    65
 73
     6
 40
1.25
 49
0.5
 74
     0
 49
-0.25
 74
     0
 49
0.0
 74
     0
 49
-0.25
 74
     0
 49
0.0
 74
     0
 49
-0.25
 74
     0
  0
LTYPE
  5
2D
100
AcDbSymbolTableRecord
100
AcDbLinetypeTableRecord
  2
DIVIDE2
 70
     0
  3
__..__..__..__..__..__..__..__..__..__..__..__.
 72
    65
 73
     6
 40
0.625
 49
0.25
 74
     0
 49
-0.125
 74
     0
 49
0.0
 74
     0
 49
-0.125
 74
     0
 49
0.0
 74
     0
 49
-0.125
 74
     0
  0
LTYPE
  5
2E
100
AcDbSymbolTableRecord
100
AcDbLinetypeTableRecord
  2
DIVIDEX2
 70
     0
  3
________  .  .  ________  .  .  ________  .  . 
 72
    65
 73
     6
 40
2.5
 49
1.0
 74
     0
 49
-0.5
 74
     0
 49
0.0
 74
     0
 49
-0.5
 74
     0
 49
0.0
 74
     0
 49
-0.5
 74
     0
  0
LTYPE
  5
2F
100
AcDbSymbolTableRecord
100
AcDbLinetypeTableRecord
  2
DOT
 70
     0
  3
. . . . . . . . . . . . . . . . . . . . . . . .
 72
    65
 73
     2
 40
0.25
 49
0.0
 74
     0
 49
-0.25
 74
     0
  0
LTYPE
  5
30
100
AcDbSymbolTableRecord
100
AcDbLinetypeTableRecord
  2
DOT2
 70
     0
  3
...............................................
 72
    65
 73
     2
 40
0.125
 49
0.0
 74
     0
 49
-0.125
 74
     0
  0
LTYPE
  5
31
100
AcDbSymbolTableRecord
100
AcDbLinetypeTableRecord
  2
DOTX2
 70
     0
  3
.  .  .  .  .  .  .  .  .  .  .  .  .  .  .  . 
 72
    65
 73
     2
 40
0.5
 49
0.0
 74
     0
 49
-0.5
 74
     0
  0
LTYPE
  5
32
100
AcDbSymbolTableRecord
100
AcDbLinetypeTableRecord
  2
HIDDEN
 70
     0
  3
__ __ __ __ __ __ __ __ __ __ __ __ __ __ __ __
 72
    65
 73
     2
 40
0.375
 49
0.25
 74
     0
 49
-0.125
 74
     0
  0
LTYPE
  5
33
100
AcDbSymbolTableRecord
100
AcDbLinetypeTableRecord
  2
HIDDEN2
 70
     0
  3
_ _ _ _ _ _ _ _ _ _ _ _ _ _ _ _ _ _ _ _ _ _ _ _
 72
    65
 73
     2
 40
0.1875
 49
0.125
 74
     0
 49
-0.0625
 74
     0
  0
LTYPE
  5
34
100
AcDbSymbolTableRecord
100
AcDbLinetypeTableRecord
  2
HIDDENX2
 70
     0
  3
____ ____ ____ ____ ____ ____ ____ ____ ____ __
 72
    65
 73
     2
 40
0.75
 49
0.5
 74
     0
 49
-0.25
 74
     0
  0
LTYPE
  5
35
100
AcDbSymbolTableRecord
100
AcDbLinetypeTableRecord
  2
PHANTOM
 70
     0
  3
______  __  __  ______  __  __  ______  __  __ 
 72
    65
 73
     6
 40
2.5
 49
1.25
 74
     0
 49
-0.25
 74
     0
 49
0.25
 74
     0
 49
-0.25
 74
     0
 49
0.25
 74
     0
 49
-0.25
 74
     0
  0
LTYPE
  5
36
100
AcDbSymbolTableRecord
100
AcDbLinetypeTableRecord
  2
PHANTOM2
 70
     0
  3
___ _ _ ___ _ _ ___ _ _ ___ _ _ ___ _ _ ___ _ _
 72
    65
 73
     6
 40
1.25
 49
0.625
 74
     0
 49
-0.125
 74
     0
 49
0.125
 74
     0
 49
-0.125
 74
     0
 49
0.125
 74
     0
 49
-0.125
 74
     0
  0
LTYPE
  5
37
100
AcDbSymbolTableRecord
100
AcDbLinetypeTableRecord
  2
PHANTOMX2
 70
     0
  3
____________    ____    ____    ____________   
 72
    65
 73
     6
 40
5.0
 49
2.5
 74
     0
 49
-0.5
 74
     0
 49
0.5
 74
     0
 49
-0.5
 74
     0
 49
0.5
 74
     0
 49
-0.5
 74
     0
  0
ENDTAB
   0
TABLE
   2
LAYER
   5
2
 100
AcDbSymbolTable
  70
2
   0
LAYER
   5
E
 100
AcDbSymbolTableRecord
 100
AcDbLayerTableRecord
   2
0
  70
0
  62
7
   6
CONTINUOUS
 390
30
   0
LAYER
   5
39
 100
AcDbSymbolTableRecord
 100
AcDbLayerTableRecord
   2
LEVEL001
  70
0
  62
7
   6
CONTINUOUS
 390
30
   0
ENDTAB
  0
TABLE
  2
STYLE
  5
3
100
AcDbSymbolTable
  70
7
  0
STYLE
  5
F
100
AcDbSymbolTableRecord
100
AcDbTextStyleTableRecord
  2
STANDARD
 70
     0
 40
0.0
 41
1.0
 50
0.0
 71
     0
 42
0.2
  3
TXT
  4
BIGFONT
  0
STYLE
  5
38
100
AcDbSymbolTableRecord
100
AcDbTextStyleTableRecord
  2
STANDARD1
 70
     4
 40
0.0
 41
1.0
 50
0.0
 71
     0
 42
0.2
  3
TXT
  4
BIGFONT
   0
STYLE
   5
3A
 100
AcDbSymbolTableRecord
 100
AcDbTextStyleTableRecord
   2
GMM001
  70
0
  40
0.0
  41
 1.0000000000000
  50
0.0
  71
     0
  42
1.0
   3

   4

1001
ACAD
1000
ＭＳ ゴシック
1071
32817
   0
STYLE
   5
3B
 100
AcDbSymbolTableRecord
 100
AcDbTextStyleTableRecord
   2
GMM002
  70
0
  40
0.0
  41
 1.0000000000000
  50
0.0
  71
     0
  42
1.0
   3
txt.shx
   4
bigfont.shx
   0
STYLE
   5
3C
 100
AcDbSymbolTableRecord
 100
AcDbTextStyleTableRecord
   2
GMM003
  70
0
  40
0.0
  41
 0.75000000000000
  50
0.0
  71
     0
  42
1.0
   3
txt.shx
   4
bigfont.shx
   0
STYLE
   5
3D
 100
AcDbSymbolTableRecord
 100
AcDbTextStyleTableRecord
   2
GMM004
  70
0
  40
0.0
  41
 0.66666666666667
  50
0.0
  71
     0
  42
1.0
   3

   4

1001
ACAD
1000
ＭＳ ゴシック
1071
32817
   0
STYLE
   5
3E
 100
AcDbSymbolTableRecord
 100
AcDbTextStyleTableRecord
   2
GMM005
  70
0
  40
0.0
  41
 1.5000000000000
  50
0.0
  71
     0
  42
1.0
   3

   4

1001
ACAD
1000
ＭＳ ゴシック
1071
32817
   0
ENDTAB
  0
TABLE
  2
VIEW
  5
6
100
AcDbSymbolTable
 70
     0
  0
ENDTAB
  0
TABLE
  2
UCS
  5
7
100
AcDbSymbolTable
 70
     0
  0
ENDTAB
  0
TABLE
  2
APPID
  5
9
100
AcDbSymbolTable
 70
     1
  0
APPID
  5
10
100
AcDbSymbolTableRecord
100
AcDbRegAppTableRecord
  2
ACAD
 70
     0
  0
ENDTAB
   0
TABLE
   2
DIMSTYLE
   5
A
 100
AcDbSymbolTable
  70
11
 100
AcDbDimStyleTable
  0
DIMSTYLE
105
1D
100
AcDbSymbolTableRecord
100
AcDbDimStyleTableRecord
  2
STANDARD
 70
     0
  3

  4

  5

  6

  7

 40
1.0
 41
0.18
 42
0.0625
 43
0.38
 44
0.18
 45
0.0
 46
0.0
 47
0.0
 48
0.0
140
0.18
141
0.09
142
0.0
143
25.4
144
1.0
145
0.0
146
1.0
147
0.09
 71
     0
 72
     0
 73
     1
 74
     1
 75
     0
 76
     0
 77
     0
 78
     0
170
     0
171
     2
172
     0
173
     0
174
     0
175
     0
176
     0
177
     0
178
     0
270
     2
271
     4
272
     4
273
     2
274
     2
340
F
275
     0
280
     0
281
     0
282
     0
283
     1
284
     0
285
     0
286
     0
287
     3
288
     0
   0
DIMSTYLE
 105
3F
 100
AcDbSymbolTableRecord
 100
AcDbDimStyleTableRecord
   2
GMM001
  70
0
   3

   4

   5

   6
_OPEN
   7
_OPEN
  40
 1.0000000000000
  41
 30.000000000000
  42
 30.000000000000
  43
 160.00000000000
  44
 30.000000000000
  45
0.0
  46
0.0
  47
0.0
  48
0.0
 140
 66.000000000000
 141
 20.000000000000
 142
0.0
 143
 0.39400000000000E-1
 144
 1.0000000000000
 145
0.0
 146
 0.75757575757576
 147
0.0
  71
0
  72
0
  73
0
  74
0
  75
0
  76
0
  77
0
  78
8
 170
0
 171
2
 172
1
 173
1
 174
0
 175
0
 176
1
 177
1
 178
7
 270
2
 271
1
 272
0
 273
2
 274
2
 340
3B
 275
0
 280
0
 281
0
 282
0
 283
1
 284
0
 285
0
 286
0
 287
3
 288
1
   0
DIMSTYLE
 105
40
 100
AcDbSymbolTableRecord
 100
AcDbDimStyleTableRecord
   2
GMM002
  70
0
   3

   4

   5

   6
_OPEN
   7
_OPEN
  40
 1.0000000000000
  41
 42.000000000000
  42
 30.000000000000
  43
 160.00000000000
  44
 30.000000000000
  45
0.0
  46
0.0
  47
0.0
  48
0.0
 140
 60.000000000000
 141
 20.000000000000
 142
0.0
 143
 0.39400000000000E-1
 144
 1.0000000000000
 145
0.0
 146
 0.83333333333333
 147
0.0
  71
0
  72
0
  73
0
  74
0
  75
0
  76
0
  77
0
  78
8
 170
0
 171
2
 172
1
 173
1
 174
0
 175
0
 176
1
 177
1
 178
7
 270
2
 271
1
 272
0
 273
2
 274
2
 340
3B
 275
0
 280
0
 281
0
 282
0
 283
1
 284
0
 285
0
 286
0
 287
3
 288
1
   0
DIMSTYLE
 105
41
 100
AcDbSymbolTableRecord
 100
AcDbDimStyleTableRecord
   2
GMM003
  70
0
   3
□<>
   4

   5

   6
_OPEN
   7
_OPEN
  40
 1.0000000000000
  41
 42.000000000000
  42
 30.000000000000
  43
 160.00000000000
  44
 30.000000000000
  45
0.0
  46
0.0
  47
0.0
  48
0.0
 140
 60.000000000000
 141
 20.000000000000
 142
0.0
 143
 0.39400000000000E-1
 144
 1.0000000000000
 145
0.0
 146
 0.83333333333333
 147
 14.000000000000
  71
0
  72
0
  73
0
  74
0
  75
0
  76
0
  77
3
  78
8
 170
0
 171
2
 172
1
 173
1
 174
0
 175
0
 176
6
 177
6
 178
1
 270
2
 271
1
 272
0
 273
2
 274
2
 340
3B
 275
0
 280
0
 281
0
 282
0
 283
1
 284
0
 285
0
 286
0
 287
3
 288
1
   0
DIMSTYLE
 105
42
 100
AcDbSymbolTableRecord
 100
AcDbDimStyleTableRecord
   2
GMM004
  70
0
   3

   4

   5

   6
_OPEN
   7
_OPEN
  40
 1.0000000000000
  41
 42.000000000000
  42
 30.000000000000
  43
 160.00000000000
  44
 30.000000000000
  45
0.0
  46
0.0
  47
0.0
  48
0.0
 140
 60.000000000000
 141
 20.000000000000
 142
0.0
 143
 0.39400000000000E-1
 144
 1.0000000000000
 145
0.0
 146
 0.83333333333333
 147
 14.000000000000
  71
0
  72
0
  73
0
  74
0
  75
0
  76
0
  77
3
  78
8
 170
0
 171
2
 172
1
 173
1
 174
0
 175
0
 176
6
 177
6
 178
1
 270
2
 271
1
 272
0
 273
2
 274
2
 340
3B
 275
0
 280
0
 281
0
 282
0
 283
1
 284
0
 285
0
 286
0
 287
3
 288
1
   0
DIMSTYLE
 105
43
 100
AcDbSymbolTableRecord
 100
AcDbDimStyleTableRecord
   2
GMM005
  70
0
   3

   4

   5

   6
_OPEN
   7
_OPEN
  40
 1.0000000000000
  41
 42.000000000000
  42
 30.000000000000
  43
 160.00000000000
  44
 30.000000000000
  45
0.0
  46
0.0
  47
0.0
  48
0.0
 140
 60.000000000000
 141
 20.000000000000
 142
0.0
 143
 0.39400000000000E-1
 144
 1.0000000000000
 145
0.0
 146
 0.83333333333333
 147
 14.000000000000
  71
0
  72
0
  73
0
  74
0
  75
0
  76
0
  77
3
  78
8
 170
0
 171
2
 172
1
 173
1
 174
0
 175
0
 176
6
 177
6
 178
1
 270
2
 271
1
 272
0
 273
2
 274
2
 340
3B
 275
0
 280
0
 281
0
 282
0
 283
1
 284
0
 285
0
 286
0
 287
3
 288
1
   0
DIMSTYLE
 105
44
 100
AcDbSymbolTableRecord
 100
AcDbDimStyleTableRecord
   2
GMM006
  70
0
   3

   4

   5

   6
_OPEN
   7
_OPEN
  40
 1.0000000000000
  41
 42.000000000000
  42
 30.000000000000
  43
 160.00000000000
  44
 30.000000000000
  45
0.0
  46
0.0
  47
0.0
  48
0.0
 140
 60.000000000000
 141
 20.000000000000
 142
0.0
 143
 0.39400000000000E-1
 144
 1.0000000000000
 145
0.0
 146
 0.83333333333333
 147
 25.714285714286
  71
0
  72
0
  73
0
  74
0
  75
0
  76
0
  77
3
  78
8
 170
0
 171
2
 172
1
 173
1
 174
0
 175
0
 176
6
 177
6
 178
1
 270
2
 271
6
 272
0
 273
2
 274
2
 340
3B
 275
1
 280
0
 281
0
 282
0
 283
1
 284
0
 285
0
 286
0
 287
3
 288
0
   0
DIMSTYLE
 105
45
 100
AcDbSymbolTableRecord
 100
AcDbDimStyleTableRecord
   2
GMM007
  70
0
   3

   4

   5

   6
_OPEN
   7
_OPEN
  40
 1.0000000000000
  41
 42.000000000000
  42
 30.000000000000
  43
 160.00000000000
  44
 30.000000000000
  45
0.0
  46
0.0
  47
0.0
  48
0.0
 140
 60.000000000000
 141
 20.000000000000
 142
0.0
 143
 0.39400000000000E-1
 144
 1.0000000000000
 145
0.0
 146
 0.83333333333333
 147
 25.714285714286
  71
0
  72
0
  73
0
  74
0
  75
1
  76
0
  77
3
  78
8
 170
0
 171
2
 172
1
 173
1
 174
0
 175
0
 176
6
 177
6
 178
1
 270
2
 271
6
 272
0
 273
2
 274
2
 340
3B
 275
1
 280
0
 281
0
 282
0
 283
1
 284
0
 285
0
 286
0
 287
3
 288
0
   0
DIMSTYLE
 105
46
 100
AcDbSymbolTableRecord
 100
AcDbDimStyleTableRecord
   2
GMM008
  70
0
   3

   4

   5

   6
_OPEN
   7
_OPEN
  40
 1.0000000000000
  41
 42.000000000000
  42
 30.000000000000
  43
 160.00000000000
  44
 30.000000000000
  45
0.0
  46
0.0
  47
0.0
  48
0.0
 140
 60.000000000000
 141
 20.000000000000
 142
0.0
 143
 0.39400000000000E-1
 144
 1.0000000000000
 145
0.0
 146
 0.83333333333333
 147
 25.714285714286
  71
0
  72
0
  73
0
  74
0
  75
1
  76
0
  77
3
  78
8
 170
0
 171
2
 172
1
 173
1
 174
0
 175
0
 176
6
 177
6
 178
1
 270
2
 271
6
 272
0
 273
2
 274
2
 340
3B
 275
1
 280
0
 281
0
 282
0
 283
1
 284
0
 285
0
 286
0
 287
3
 288
0
   0
DIMSTYLE
 105
47
 100
AcDbSymbolTableRecord
 100
AcDbDimStyleTableRecord
   2
GMM009
  70
0
   3

   4

   5

   6
_OPEN
   7
_OPEN
  40
 1.0000000000000
  41
 42.000000000000
  42
 30.000000000000
  43
 160.00000000000
  44
 30.000000000000
  45
0.0
  46
0.0
  47
0.0
  48
0.0
 140
 60.000000000000
 141
 20.000000000000
 142
0.0
 143
 0.39400000000000E-1
 144
 1.0000000000000
 145
0.0
 146
 0.83333333333333
 147
 25.714285714286
  71
0
  72
0
  73
0
  74
0
  75
0
  76
1
  77
3
  78
8
 170
0
 171
2
 172
1
 173
1
 174
0
 175
0
 176
6
 177
6
 178
1
 270
2
 271
6
 272
0
 273
2
 274
2
 340
3B
 275
1
 280
0
 281
0
 282
0
 283
1
 284
0
 285
0
 286
0
 287
3
 288
0
   0
ENDTAB
  0
TABLE
  2
BLOCK_RECORD
  5
1
100
AcDbSymbolTable
 70
     0
  0
BLOCK_RECORD
  5
18
100
AcDbSymbolTableRecord
100
AcDbBlockTableRecord
  2
*MODEL_SPACE
  0
BLOCK_RECORD
  5
15
100
AcDbSymbolTableRecord
100
AcDbBlockTableRecord
  2
*PAPER_SPACE
   0
BLOCK_RECORD
   5
48
 100
AcDbSymbolTableRecord
 100
AcDbBlockTableRecord
   2
*D13
   0
BLOCK_RECORD
   5
49
 100
AcDbSymbolTableRecord
 100
AcDbBlockTableRecord
   2
*D14
   0
BLOCK_RECORD
   5
4A
 100
AcDbSymbolTableRecord
 100
AcDbBlockTableRecord
   2
*D15
   0
BLOCK_RECORD
   5
4B
 100
AcDbSymbolTableRecord
 100
AcDbBlockTableRecord
   2
*D16
   0
BLOCK_RECORD
   5
4C
 100
AcDbSymbolTableRecord
 100
AcDbBlockTableRecord
   2
*D17
   0
BLOCK_RECORD
   5
4D
 100
AcDbSymbolTableRecord
 100
AcDbBlockTableRecord
   2
*D18
   0
BLOCK_RECORD
   5
4E
 100
AcDbSymbolTableRecord
 100
AcDbBlockTableRecord
   2
BLOCK001
   0
BLOCK_RECORD
   5
4F
 100
AcDbSymbolTableRecord
 100
AcDbBlockTableRecord
   2
BLOCK002
   0
BLOCK_RECORD
   5
50
 100
AcDbSymbolTableRecord
 100
AcDbBlockTableRecord
   2
*D20
   0
BLOCK_RECORD
   5
51
 100
AcDbSymbolTableRecord
 100
AcDbBlockTableRecord
   2
*D21
   0
BLOCK_RECORD
   5
52
 100
AcDbSymbolTableRecord
 100
AcDbBlockTableRecord
   2
*D22
   0
BLOCK_RECORD
   5
53
 100
AcDbSymbolTableRecord
 100
AcDbBlockTableRecord
   2
*D23
   0
BLOCK_RECORD
   5
54
 100
AcDbSymbolTableRecord
 100
AcDbBlockTableRecord
   2
_ARCHTICK
   0
BLOCK_RECORD
   5
55
 100
AcDbSymbolTableRecord
 100
AcDbBlockTableRecord
   2
_BOXBLANK
   0
BLOCK_RECORD
   5
56
 100
AcDbSymbolTableRecord
 100
AcDbBlockTableRecord
   2
_BOXFILLED
   0
BLOCK_RECORD
   5
57
 100
AcDbSymbolTableRecord
 100
AcDbBlockTableRecord
   2
_CLOSED
   0
BLOCK_RECORD
   5
58
 100
AcDbSymbolTableRecord
 100
AcDbBlockTableRecord
   2
_CLOSEDBLANK
   0
BLOCK_RECORD
   5
59
 100
AcDbSymbolTableRecord
 100
AcDbBlockTableRecord
   2
_DATUMBLANK
   0
BLOCK_RECORD
   5
5A
 100
AcDbSymbolTableRecord
 100
AcDbBlockTableRecord
   2
_DATUMFILLED
   0
BLOCK_RECORD
   5
5B
 100
AcDbSymbolTableRecord
 100
AcDbBlockTableRecord
   2
_DOT
   0
BLOCK_RECORD
   5
5C
 100
AcDbSymbolTableRecord
 100
AcDbBlockTableRecord
   2
_DOTBLANK
   0
BLOCK_RECORD
   5
5D
 100
AcDbSymbolTableRecord
 100
AcDbBlockTableRecord
   2
_DOTSMALL
   0
BLOCK_RECORD
   5
5E
 100
AcDbSymbolTableRecord
 100
AcDbBlockTableRecord
   2
_INTEGRAL
   0
BLOCK_RECORD
   5
5F
 100
AcDbSymbolTableRecord
 100
AcDbBlockTableRecord
   2
_NONE
   0
BLOCK_RECORD
   5
60
 100
AcDbSymbolTableRecord
 100
AcDbBlockTableRecord
   2
_OBLIQUE
   0
BLOCK_RECORD
   5
61
 100
AcDbSymbolTableRecord
 100
AcDbBlockTableRecord
   2
_OPEN
   0
BLOCK_RECORD
   5
62
 100
AcDbSymbolTableRecord
 100
AcDbBlockTableRecord
   2
_OPEN30
   0
BLOCK_RECORD
   5
63
 100
AcDbSymbolTableRecord
 100
AcDbBlockTableRecord
   2
_OPEN90
   0
BLOCK_RECORD
   5
64
 100
AcDbSymbolTableRecord
 100
AcDbBlockTableRecord
   2
_ORIGIN
   0
ENDTAB
   0
ENDSEC
  0
SECTION
  2
BLOCKS
  0
BLOCK
  5
19
100
AcDbEntity
  8
0
100
AcDbBlockBegin
  2
*MODEL_SPACE
 70
     0
 10
0.0
 20
0.0
 30
0.0
  3
*MODEL_SPACE
  1

  0
ENDBLK
  5
1A
100
AcDbEntity
  8
0
100
AcDbBlockEnd
  0
BLOCK
  5
16
100
AcDbEntity
 67
     1
  8
0
100
AcDbBlockBegin
  2
*PAPER_SPACE
 70
     0
 10
0.0
 20
0.0
 30
0.0
  3
*PAPER_SPACE
  1

  0
ENDBLK
  5
17
100
AcDbEntity
 67
     1
  8
0
100
AcDbBlockEnd
   0
BLOCK
   5
65
 100
AcDbEntity
   8
0
 100
AcDbBlockBegin
   2
_ARCHTICK
  70
0
  10
0.0
  20
0.0
  30
0.0
   3
_ARCHTICK
   0
POLYLINE
   5
66
 100
AcDbEntity
   8
0
 370
-2
   6
BYBLOCK
  62
0
 100
AcDb2dPolyline
  66
1
  10
0.0
  20
0.0
  30
0.0
  70
1
  40
 0.15000000000000
  41
 0.15000000000000
   0
VERTEX
   5
67
 100
AcDbEntity
   8
0
   6
BYBLOCK
  62
0
 100
AcDbVertex
 100
AcDb2dVertex
  10
-0.50000000000000
  20
-0.50000000000000
  30
0.0
  40
 0.15000000000000
  41
 0.15000000000000
   0
VERTEX
   5
68
 100
AcDbEntity
   8
0
   6
BYBLOCK
  62
0
 100
AcDbVertex
 100
AcDb2dVertex
  10
 0.50000000000000
  20
 0.50000000000000
  30
0.0
  40
 0.15000000000000
  41
 0.15000000000000
   0
SEQEND
   5
69
 100
AcDbEntity
   8
0
   6
BYBLOCK
  62
0
   0
ENDBLK
   5
6A
 100
AcDbEntity
   8
0
 100
AcDbBlockEnd
   0
BLOCK
   5
6B
 100
AcDbEntity
   8
0
 100
AcDbBlockBegin
   2
_OBLIQUE
  70
0
  10
0.0
  20
0.0
  30
0.0
   3
_OBLIQUE
   0
LINE
   5
6C
 100
AcDbEntity
   8
0
 370
-2
 100
AcDbLine
   6
BYBLOCK
  62
0
  10
-0.50000000000000
  20
-0.50000000000000
  30
0.0
  11
 0.50000000000000
  21
 0.50000000000000
  31
0.0
   0
ENDBLK
   5
6D
 100
AcDbEntity
   8
0
 100
AcDbBlockEnd
   0
BLOCK
   5
6E
 100
AcDbEntity
   8
0
 100
AcDbBlockBegin
   2
_BOXBLANK
  70
0
  10
0.0
  20
0.0
  30
0.0
   3
_BOXBLANK
   0
LINE
   5
6F
 100
AcDbEntity
   8
0
 370
-2
 100
AcDbLine
   6
BYBLOCK
  62
0
  10
-0.50000000000000
  20
-0.50000000000000
  30
0.0
  11
 0.50000000000000
  21
-0.50000000000000
  31
0.0
   0
LINE
   5
70
 100
AcDbEntity
   8
0
 370
-2
 100
AcDbLine
   6
BYBLOCK
  62
0
  10
 0.50000000000000
  20
-0.50000000000000
  30
0.0
  11
 0.50000000000000
  21
 0.50000000000000
  31
0.0
   0
LINE
   5
71
 100
AcDbEntity
   8
0
 370
-2
 100
AcDbLine
   6
BYBLOCK
  62
0
  10
 0.50000000000000
  20
 0.50000000000000
  30
0.0
  11
-0.50000000000000
  21
 0.50000000000000
  31
0.0
   0
LINE
   5
72
 100
AcDbEntity
   8
0
 370
-2
 100
AcDbLine
   6
BYBLOCK
  62
0
  10
-0.50000000000000
  20
 0.50000000000000
  30
0.0
  11
-0.50000000000000
  21
-0.50000000000000
  31
0.0
   0
LINE
   5
73
 100
AcDbEntity
   8
0
 370
-2
 100
AcDbLine
   6
BYBLOCK
  62
0
  10
-0.50000000000000
  20
0.0
  30
0.0
  11
-1.0000000000000
  21
0.0
  31
0.0
   0
ENDBLK
   5
74
 100
AcDbEntity
   8
0
 100
AcDbBlockEnd
   0
BLOCK
   5
75
 100
AcDbEntity
   8
0
 100
AcDbBlockBegin
   2
_BOXFILLED
  70
0
  10
0.0
  20
0.0
  30
0.0
   3
_BOXFILLED
   0
SOLID
   5
76
 100
AcDbEntity
   8
0
 100
AcDbTrace
   6
BYBLOCK
  62
0
  10
-0.50000000000000
  20
 0.50000000000000
  30
0.0
  11
 0.50000000000000
  21
 0.50000000000000
  31
0.0
  12
-0.50000000000000
  22
-0.50000000000000
  32
0.0
  13
 0.50000000000000
  23
-0.50000000000000
  33
0.0
   0
LINE
   5
77
 100
AcDbEntity
   8
0
 370
-2
 100
AcDbLine
   6
BYBLOCK
  62
0
  10
-0.50000000000000
  20
0.0
  30
0.0
  11
-1.0000000000000
  21
0.0
  31
0.0
   0
ENDBLK
   5
78
 100
AcDbEntity
   8
0
 100
AcDbBlockEnd
   0
BLOCK
   5
79
 100
AcDbEntity
   8
0
 100
AcDbBlockBegin
   2
_CLOSED
  70
0
  10
0.0
  20
0.0
  30
0.0
   3
_CLOSED
   0
LINE
   5
7A
 100
AcDbEntity
   8
0
 370
-2
 100
AcDbLine
   6
BYBLOCK
  62
0
  10
-1.0000000000000
  20
 0.16666666666667
  30
0.0
  11
0.0
  21
0.0
  31
0.0
   0
LINE
   5
7B
 100
AcDbEntity
   8
0
 370
-2
 100
AcDbLine
   6
BYBLOCK
  62
0
  10
0.0
  20
0.0
  30
0.0
  11
-1.0000000000000
  21
-0.16666666666667
  31
0.0
   0
LINE
   5
7C
 100
AcDbEntity
   8
0
 370
-2
 100
AcDbLine
   6
BYBLOCK
  62
0
  10
-1.0000000000000
  20
 0.16666666666667
  30
0.0
  11
-1.0000000000000
  21
-0.16666666666667
  31
0.0
   0
LINE
   5
7D
 100
AcDbEntity
   8
0
 370
-2
 100
AcDbLine
   6
BYBLOCK
  62
0
  10
0.0
  20
0.0
  30
0.0
  11
-1.0000000000000
  21
0.0
  31
0.0
   0
ENDBLK
   5
7E
 100
AcDbEntity
   8
0
 100
AcDbBlockEnd
   0
BLOCK
   5
7F
 100
AcDbEntity
   8
0
 100
AcDbBlockBegin
   2
_OPEN
  70
0
  10
0.0
  20
0.0
  30
0.0
   3
_OPEN
   0
LINE
   5
80
 100
AcDbEntity
   8
0
 370
-2
 100
AcDbLine
   6
BYBLOCK
  62
0
  10
-1.0000000000000
  20
 0.16666666666667
  30
0.0
  11
0.0
  21
0.0
  31
0.0
   0
LINE
   5
81
 100
AcDbEntity
   8
0
 370
-2
 100
AcDbLine
   6
BYBLOCK
  62
0
  10
0.0
  20
0.0
  30
0.0
  11
-1.0000000000000
  21
-0.16666666666667
  31
0.0
   0
LINE
   5
82
 100
AcDbEntity
   8
0
 370
-2
 100
AcDbLine
   6
BYBLOCK
  62
0
  10
0.0
  20
0.0
  30
0.0
  11
-1.0000000000000
  21
0.0
  31
0.0
   0
ENDBLK
   5
83
 100
AcDbEntity
   8
0
 100
AcDbBlockEnd
   0
BLOCK
   5
84
 100
AcDbEntity
   8
0
 100
AcDbBlockBegin
   2
_OPEN30
  70
0
  10
0.0
  20
0.0
  30
0.0
   3
_OPEN30
   0
LINE
   5
85
 100
AcDbEntity
   8
0
 370
-2
 100
AcDbLine
   6
BYBLOCK
  62
0
  10
-1.0000000000000
  20
 0.26794919243110
  30
0.0
  11
0.0
  21
0.0
  31
0.0
   0
LINE
   5
86
 100
AcDbEntity
   8
0
 370
-2
 100
AcDbLine
   6
BYBLOCK
  62
0
  10
0.0
  20
0.0
  30
0.0
  11
-1.0000000000000
  21
-0.26794919243110
  31
0.0
   0
LINE
   5
87
 100
AcDbEntity
   8
0
 370
-2
 100
AcDbLine
   6
BYBLOCK
  62
0
  10
0.0
  20
0.0
  30
0.0
  11
-1.0000000000000
  21
0.0
  31
0.0
   0
ENDBLK
   5
88
 100
AcDbEntity
   8
0
 100
AcDbBlockEnd
   0
BLOCK
   5
89
 100
AcDbEntity
   8
0
 100
AcDbBlockBegin
   2
_OPEN90
  70
0
  10
0.0
  20
0.0
  30
0.0
   3
_OPEN90
   0
LINE
   5
8A
 100
AcDbEntity
   8
0
 370
-2
 100
AcDbLine
   6
BYBLOCK
  62
0
  10
-0.50000000000000
  20
 0.50000000000000
  30
0.0
  11
0.0
  21
0.0
  31
0.0
   0
LINE
   5
8B
 100
AcDbEntity
   8
0
 370
-2
 100
AcDbLine
   6
BYBLOCK
  62
0
  10
0.0
  20
0.0
  30
0.0
  11
-0.50000000000000
  21
-0.50000000000000
  31
0.0
   0
LINE
   5
8C
 100
AcDbEntity
   8
0
 370
-2
 100
AcDbLine
   6
BYBLOCK
  62
0
  10
0.0
  20
0.0
  30
0.0
  11
-1.0000000000000
  21
0.0
  31
0.0
   0
ENDBLK
   5
8D
 100
AcDbEntity
   8
0
 100
AcDbBlockEnd
   0
BLOCK
   5
8E
 100
AcDbEntity
   8
0
 100
AcDbBlockBegin
   2
_CLOSEDBLANK
  70
0
  10
0.0
  20
0.0
  30
0.0
   3
_CLOSEDBLANK
   0
LINE
   5
8F
 100
AcDbEntity
   8
0
 370
-2
 100
AcDbLine
   6
BYBLOCK
  62
0
  10
-1.0000000000000
  20
 0.16666666666667
  30
0.0
  11
0.0
  21
0.0
  31
0.0
   0
LINE
   5
90
 100
AcDbEntity
   8
0
 370
-2
 100
AcDbLine
   6
BYBLOCK
  62
0
  10
0.0
  20
0.0
  30
0.0
  11
-1.0000000000000
  21
-0.16666666666667
  31
0.0
   0
LINE
   5
91
 100
AcDbEntity
   8
0
 370
-2
 100
AcDbLine
   6
BYBLOCK
  62
0
  10
-1.0000000000000
  20
 0.16666666666667
  30
0.0
  11
-1.0000000000000
  21
-0.16666666666667
  31
0.0
   0
ENDBLK
   5
92
 100
AcDbEntity
   8
0
 100
AcDbBlockEnd
   0
BLOCK
   5
93
 100
AcDbEntity
   8
0
 100
AcDbBlockBegin
   2
_DOT
  70
0
  10
0.0
  20
0.0
  30
0.0
   3
_DOT
   0
POLYLINE
   5
94
 100
AcDbEntity
   8
0
 370
-2
   6
BYBLOCK
  62
0
 100
AcDb2dPolyline
  66
1
  10
0.0
  20
0.0
  30
0.0
  70
1
  40
 0.50000000000000
  41
 0.50000000000000
   0
VERTEX
   5
95
 100
AcDbEntity
   8
0
   6
BYBLOCK
  62
0
 100
AcDbVertex
 100
AcDb2dVertex
  10
-0.25000000000000
  20
0.0
  30
0.0
  42
 1.0000000000000
  40
 0.50000000000000
  41
 0.50000000000000
   0
VERTEX
   5
96
 100
AcDbEntity
   8
0
   6
BYBLOCK
  62
0
 100
AcDbVertex
 100
AcDb2dVertex
  10
 0.25000000000000
  20
0.0
  30
0.0
  42
 1.0000000000000
  40
 0.50000000000000
  41
 0.50000000000000
   0
SEQEND
   5
97
 100
AcDbEntity
   8
0
   6
BYBLOCK
  62
0
   0
LINE
   5
98
 100
AcDbEntity
   8
0
 370
-2
 100
AcDbLine
   6
BYBLOCK
  62
0
  10
-0.50000000000000
  20
0.0
  30
0.0
  11
-1.0000000000000
  21
0.0
  31
0.0
   0
ENDBLK
   5
99
 100
AcDbEntity
   8
0
 100
AcDbBlockEnd
   0
BLOCK
   5
9A
 100
AcDbEntity
   8
0
 100
AcDbBlockBegin
   2
_DOTSMALL
  70
0
  10
0.0
  20
0.0
  30
0.0
   3
_DOTSMALL
   0
POLYLINE
   5
9B
 100
AcDbEntity
   8
0
 370
-2
   6
BYBLOCK
  62
0
 100
AcDb2dPolyline
  66
1
  10
0.0
  20
0.0
  30
0.0
  70
1
  40
 0.50000000000000
  41
 0.50000000000000
   0
VERTEX
   5
9C
 100
AcDbEntity
   8
0
   6
BYBLOCK
  62
0
 100
AcDbVertex
 100
AcDb2dVertex
  10
-0.62500000000000E-1
  20
0.0
  30
0.0
  42
 1.0000000000000
  40
 0.50000000000000
  41
 0.50000000000000
   0
VERTEX
   5
9D
 100
AcDbEntity
   8
0
   6
BYBLOCK
  62
0
 100
AcDbVertex
 100
AcDb2dVertex
  10
 0.62500000000000E-1
  20
0.0
  30
0.0
  42
 1.0000000000000
  40
 0.50000000000000
  41
 0.50000000000000
   0
SEQEND
   5
9E
 100
AcDbEntity
   8
0
   6
BYBLOCK
  62
0
   0
ENDBLK
   5
9F
 100
AcDbEntity
   8
0
 100
AcDbBlockEnd
   0
BLOCK
   5
A0
 100
AcDbEntity
   8
0
 100
AcDbBlockBegin
   2
_DATUMBLANK
  70
0
  10
0.0
  20
0.0
  30
0.0
   3
_DATUMBLANK
   0
LINE
   5
A1
 100
AcDbEntity
   8
0
 370
-2
 100
AcDbLine
   6
BYBLOCK
  62
0
  10
0.0
  20
 0.57735027000000
  30
0.0
  11
-1.0000000000000
  21
0.0
  31
0.0
   0
LINE
   5
A2
 100
AcDbEntity
   8
0
 370
-2
 100
AcDbLine
   6
BYBLOCK
  62
0
  10
-1.0000000000000
  20
0.0
  30
0.0
  11
0.0
  21
-0.57735027000000
  31
0.0
   0
LINE
   5
A3
 100
AcDbEntity
   8
0
 370
-2
 100
AcDbLine
   6
BYBLOCK
  62
0
  10
0.0
  20
-0.57735027000000
  30
0.0
  11
0.0
  21
 0.57735027000000
  31
0.0
   0
ENDBLK
   5
A4
 100
AcDbEntity
   8
0
 100
AcDbBlockEnd
   0
BLOCK
   5
A5
 100
AcDbEntity
   8
0
 100
AcDbBlockBegin
   2
_DATUMFILLED
  70
0
  10
0.0
  20
0.0
  30
0.0
   3
_DATUMFILLED
   0
SOLID
   5
A6
 100
AcDbEntity
   8
0
 100
AcDbTrace
   6
BYBLOCK
  62
0
  10
0.0
  20
 0.57735027000000
  30
0.0
  11
-1.0000000000000
  21
0.0
  31
0.0
  12
0.0
  22
-0.57735027000000
  32
0.0
  13
0.0
  23
-0.57735027000000
  33
0.0
   0
ENDBLK
   5
A7
 100
AcDbEntity
   8
0
 100
AcDbBlockEnd
   0
BLOCK
   5
A8
 100
AcDbEntity
   8
0
 100
AcDbBlockBegin
   2
_ORIGIN
  70
0
  10
0.0
  20
0.0
  30
0.0
   3
_ORIGIN
   0
CIRCLE
   5
A9
 100
AcDbEntity
   8
0
 370
-2
 100
AcDbCircle
   6
BYBLOCK
  62
0
  10
0.0
  20
0.0
  30
0.0
  40
 0.50000000000000
   0
LINE
   5
AA
 100
AcDbEntity
   8
0
 370
-2
 100
AcDbLine
   6
BYBLOCK
  62
0
  10
0.0
  20
0.0
  30
0.0
  11
-1.0000000000000
  21
0.0
  31
0.0
   0
ENDBLK
   5
AB
 100
AcDbEntity
   8
0
 100
AcDbBlockEnd
   0
BLOCK
   5
AC
 100
AcDbEntity
   8
0
 100
AcDbBlockBegin
   2
_NONE
  70
0
  10
0.0
  20
0.0
  30
0.0
   3
_NONE
   0
CIRCLE
   5
AD
 100
AcDbEntity
   8
0
 370
-2
 100
AcDbCircle
   6
BYBLOCK
  62
0
  10
0.0
  20
0.0
  30
0.0
  40
 0.25000000000000
   0
ENDBLK
   5
AE
 100
AcDbEntity
   8
0
 100
AcDbBlockEnd
   0
BLOCK
   5
AF
 100
AcDbEntity
   8
0
 100
AcDbBlockBegin
   2
_DOTBLANK
  70
0
  10
0.0
  20
0.0
  30
0.0
   3
_DOTBLANK
   0
CIRCLE
   5
B0
 100
AcDbEntity
   8
0
 370
-2
 100
AcDbCircle
   6
BYBLOCK
  62
0
  10
0.0
  20
0.0
  30
0.0
  40
 0.50000000000000
   0
LINE
   5
B1
 100
AcDbEntity
   8
0
 370
-2
 100
AcDbLine
   6
BYBLOCK
  62
0
  10
-0.50000000000000
  20
0.0
  30
0.0
  11
-1.0000000000000
  21
0.0
  31
0.0
   0
ENDBLK
   5
B2
 100
AcDbEntity
   8
0
 100
AcDbBlockEnd
   0
BLOCK
   5
B3
 100
AcDbEntity
   8
0
 100
AcDbBlockBegin
   2
_INTEGRAL
  70
0
  10
0.0
  20
0.0
  30
0.0
   3
_INTEGRAL
   0
ARC
   5
B4
 100
AcDbEntity
   8
0
 370
-2
   6
BYBLOCK
  62
0
 100
AcDbCircle
  10
 0.44488800000000
  20
-0.91335000000000E-1
  30
0.0
  40
 0.45416700000000
 100
AcDbArc
  50
 102.00000000000
  51
 168.00000000000
   0
ARC
   5
B5
 100
AcDbEntity
   8
0
 370
-2
   6
BYBLOCK
  62
0
 100
AcDbCircle
  10
-0.44488800000000
  20
 0.91335000000000E-1
  30
0.0
  40
 0.45416700000000
 100
AcDbArc
  50
 282.00000000000
  51
 348.00000000000
   0
ENDBLK
   5
B6
 100
AcDbEntity
   8
0
 100
AcDbBlockEnd
   0
BLOCK
   5
B7
 100
AcDbEntity
   8
0
 100
AcDbBlockBegin
   2
*D13
  70
65
  10
0.0
  20
0.0
  30
0.0
   3
*D13
   0
LINE
   5
B8
 100
AcDbEntity
   8
LEVEL001
 370
13
 100
AcDbLine
   6
CONTINUOUS
  62
6
  10
 1241.6573033708
  20
 943.45393258429
  30
0.0
  11
 1241.6573033708
  21
 743.45393258429
  31
0.0
   0
LINE
   5
B9
 100
AcDbEntity
   8
LEVEL001
 370
13
 100
AcDbLine
   6
CONTINUOUS
  62
6
  10
 1741.6573033708
  20
 943.45393258429
  30
0.0
  11
 1741.6573033708
  21
 743.45393258429
  31
0.0
   0
LINE
   5
BA
 100
AcDbEntity
   8
LEVEL001
 370
13
 100
AcDbLine
   6
CONTINUOUS
  62
6
  10
 1241.6573033708
  20
 773.45393258429
  30
0.0
  11
 1491.6573033708
  21
 773.45393258429
  31
0.0
   0
LINE
   5
BB
 100
AcDbEntity
   8
LEVEL001
 370
13
 100
AcDbLine
   6
CONTINUOUS
  62
6
  10
 1741.6573033708
  20
 773.45393258429
  30
0.0
  11
 1491.6573033708
  21
 773.45393258429
  31
0.0
   0
INSERT
   5
BC
 100
AcDbEntity
   8
LEVEL001
   6
CONTINUOUS
  62
6
 100
AcDbBlockReference
   2
_OPEN
  10
 1241.6573033708
  20
 773.45393258429
  30
0.0
  41
 42.000000000000
  42
 42.000000000000
  43
 42.000000000000
  50
 180.00000000000
   0
INSERT
   5
BD
 100
AcDbEntity
   8
LEVEL001
   6
CONTINUOUS
  62
6
 100
AcDbBlockReference
   2
_OPEN
  10
 1741.6573033708
  20
 773.45393258429
  30
0.0
  41
 42.000000000000
  42
 42.000000000000
  43
 42.000000000000
  50
0.0
   0
MTEXT
   5
BE
 100
AcDbEntity
   8
LEVEL001
 370
13
  62
1
 100
AcDbMText
  10
 1491.6573033708
  20
 787.45393258429
  30
0.0
  40
 60.000000000000
  41
0.0
  71
8
  72
1
   1
\A1;□500
   7
GMM002
   0
ENDBLK
   5
BF
 100
AcDbEntity
   8
0
 100
AcDbBlockEnd
   0
BLOCK
   5
C0
 100
AcDbEntity
   8
0
 100
AcDbBlockBegin
   2
*D14
  70
65
  10
0.0
  20
0.0
  30
0.0
   3
*D14
   0
LINE
   5
C1
 100
AcDbEntity
   8
LEVEL001
 370
13
 100
AcDbLine
   6
CONTINUOUS
  62
6
  10
 2591.6573033708
  20
 943.45393258429
  30
0.0
  11
 2591.6573033708
  21
 743.45393258429
  31
0.0
   0
LINE
   5
C2
 100
AcDbEntity
   8
LEVEL001
 370
13
 100
AcDbLine
   6
CONTINUOUS
  62
6
  10
 3091.6573033708
  20
 943.45393258429
  30
0.0
  11
 3091.6573033708
  21
 743.45393258429
  31
0.0
   0
LINE
   5
C3
 100
AcDbEntity
   8
LEVEL001
 370
13
 100
AcDbLine
   6
CONTINUOUS
  62
6
  10
 2591.6573033708
  20
 773.45393258429
  30
0.0
  11
 2841.6573033708
  21
 773.45393258429
  31
0.0
   0
LINE
   5
C4
 100
AcDbEntity
   8
LEVEL001
 370
13
 100
AcDbLine
   6
CONTINUOUS
  62
6
  10
 3091.6573033708
  20
 773.45393258429
  30
0.0
  11
 2841.6573033708
  21
 773.45393258429
  31
0.0
   0
INSERT
   5
C5
 100
AcDbEntity
   8
LEVEL001
   6
CONTINUOUS
  62
6
 100
AcDbBlockReference
   2
_OPEN
  10
 2591.6573033708
  20
 773.45393258429
  30
0.0
  41
 42.000000000000
  42
 42.000000000000
  43
 42.000000000000
  50
 180.00000000000
   0
INSERT
   5
C6
 100
AcDbEntity
   8
LEVEL001
   6
CONTINUOUS
  62
6
 100
AcDbBlockReference
   2
_OPEN
  10
 3091.6573033708
  20
 773.45393258429
  30
0.0
  41
 42.000000000000
  42
 42.000000000000
  43
 42.000000000000
  50
0.0
   0
MTEXT
   5
C7
 100
AcDbEntity
   8
LEVEL001
 370
13
  62
1
 100
AcDbMText
  10
 2841.6573033708
  20
 787.45393258429
  30
0.0
  40
 60.000000000000
  41
0.0
  71
8
  72
1
   1
\A1;□500
   7
GMM002
   0
ENDBLK
   5
C8
 100
AcDbEntity
   8
0
 100
AcDbBlockEnd
   0
BLOCK
   5
C9
 100
AcDbEntity
   8
0
 100
AcDbBlockBegin
   2
*D15
  70
65
  10
0.0
  20
0.0
  30
0.0
   3
*D15
   0
LINE
   5
CA
 100
AcDbEntity
   8
LEVEL001
 370
13
 100
AcDbLine
   6
CONTINUOUS
  62
6
  10
 2194.1573033708
  20
 4821.8539325843
  30
0.0
  11
 1891.6573033708
  21
 4821.8539325843
  31
0.0
   0
LINE
   5
CB
 100
AcDbEntity
   8
LEVEL001
 370
13
 100
AcDbLine
   6
CONTINUOUS
  62
6
  10
 1589.1573033708
  20
 4821.8539325843
  30
0.0
  11
 1891.6573033708
  21
 4821.8539325843
  31
0.0
   0
INSERT
   5
CC
 100
AcDbEntity
   8
LEVEL001
   6
CONTINUOUS
  62
6
 100
AcDbBlockReference
   2
_OPEN
  10
 2194.1573033708
  20
 4821.8539325843
  30
0.0
  41
 42.000000000000
  42
 42.000000000000
  43
 42.000000000000
  50
0.0
   0
INSERT
   5
CD
 100
AcDbEntity
   8
LEVEL001
   6
CONTINUOUS
  62
6
 100
AcDbBlockReference
   2
_OPEN
  10
 1589.1573033708
  20
 4821.8539325843
  30
0.0
  41
 42.000000000000
  42
 42.000000000000
  43
 42.000000000000
  50
 180.00000000000
   0
MTEXT
   5
CE
 100
AcDbEntity
   8
LEVEL001
 370
13
  62
1
 100
AcDbMText
  10
 1922.4065119900
  20
 4835.8539325843
  30
0.0
  40
 60.000000000000
  41
0.0
  71
8
  72
1
   1
\A1;600
   7
GMM002
   0
ENDBLK
   5
CF
 100
AcDbEntity
   8
0
 100
AcDbBlockEnd
   0
BLOCK
   5
D0
 100
AcDbEntity
   8
0
 100
AcDbBlockBegin
   2
*D16
  70
65
  10
0.0
  20
0.0
  30
0.0
   3
*D16
   0
LINE
   5
D1
 100
AcDbEntity
   8
LEVEL001
 370
13
 100
AcDbLine
   6
CONTINUOUS
  62
6
  10
 1394.1573033708
  20
 4821.8539325843
  30
0.0
  11
 1091.6573033708
  21
 4821.8539325843
  31
0.0
   0
LINE
   5
D2
 100
AcDbEntity
   8
LEVEL001
 370
13
 100
AcDbLine
   6
CONTINUOUS
  62
6
  10
 789.15730337078
  20
 4821.8539325843
  30
0.0
  11
 1091.6573033708
  21
 4821.8539325843
  31
0.0
   0
INSERT
   5
D3
 100
AcDbEntity
   8
LEVEL001
   6
CONTINUOUS
  62
6
 100
AcDbBlockReference
   2
_OPEN
  10
 1394.1573033708
  20
 4821.8539325843
  30
0.0
  41
 42.000000000000
  42
 42.000000000000
  43
 42.000000000000
  50
0.0
   0
INSERT
   5
D4
 100
AcDbEntity
   8
LEVEL001
   6
CONTINUOUS
  62
6
 100
AcDbBlockReference
   2
_OPEN
  10
 789.15730337078
  20
 4821.8539325843
  30
0.0
  41
 42.000000000000
  42
 42.000000000000
  43
 42.000000000000
  50
 180.00000000000
   0
MTEXT
   5
D5
 100
AcDbEntity
   8
LEVEL001
 370
13
  62
1
 100
AcDbMText
  10
 1122.4065119900
  20
 4835.8539325843
  30
0.0
  40
 60.000000000000
  41
0.0
  71
8
  72
1
   1
\A1;600
   7
GMM002
   0
ENDBLK
   5
D6
 100
AcDbEntity
   8
0
 100
AcDbBlockEnd
   0
BLOCK
   5
D7
 100
AcDbEntity
   8
0
 100
AcDbBlockBegin
   2
*D17
  70
65
  10
0.0
  20
0.0
  30
0.0
   3
*D17
   0
LINE
   5
D8
 100
AcDbEntity
   8
LEVEL001
 370
13
 100
AcDbLine
   6
CONTINUOUS
  62
6
  10
 1741.6573033708
  20
 4494.3539325843
  30
0.0
  11
 1741.6573033708
  21
 4721.8539325843
  31
0.0
   0
LINE
   5
D9
 100
AcDbEntity
   8
LEVEL001
 370
13
 100
AcDbLine
   6
CONTINUOUS
  62
6
  10
 1741.6573033708
  20
 4949.3539325843
  30
0.0
  11
 1741.6573033708
  21
 4721.8539325843
  31
0.0
   0
INSERT
   5
DA
 100
AcDbEntity
   8
LEVEL001
   6
CONTINUOUS
  62
6
 100
AcDbBlockReference
   2
_OPEN
  10
 1741.6573033708
  20
 4494.3539325843
  30
0.0
  41
 42.000000000000
  42
 42.000000000000
  43
 42.000000000000
  50
 270.00000000000
   0
INSERT
   5
DB
 100
AcDbEntity
   8
LEVEL001
   6
CONTINUOUS
  62
6
 100
AcDbBlockReference
   2
_OPEN
  10
 1741.6573033708
  20
 4949.3539325843
  30
0.0
  41
 42.000000000000
  42
 42.000000000000
  43
 42.000000000000
  50
 90.000000000000
   0
MTEXT
   5
DC
 100
AcDbEntity
   8
LEVEL001
 370
13
  62
1
 100
AcDbMText
  10
 1727.6573033708
  20
 4689.0406921285
  30
0.0
  40
 60.000000000000
  41
0.0
  71
8
  72
1
   1
\A1;450
   7
GMM002
  11
0.0
  21
 1.0000000000000
  31
0.0
   0
ENDBLK
   5
DD
 100
AcDbEntity
   8
0
 100
AcDbBlockEnd
   0
BLOCK
   5
DE
 100
AcDbEntity
   8
0
 100
AcDbBlockBegin
   2
*D18
  70
65
  10
0.0
  20
0.0
  30
0.0
   3
*D18
   0
LINE
   5
DF
 100
AcDbEntity
   8
LEVEL001
 370
13
 100
AcDbLine
   6
CONTINUOUS
  62
6
  10
 941.65730337078
  20
 4494.3539325843
  30
0.0
  11
 941.65730337078
  21
 4721.8539325843
  31
0.0
   0
LINE
   5
E0
 100
AcDbEntity
   8
LEVEL001
 370
13
 100
AcDbLine
   6
CONTINUOUS
  62
6
  10
 941.65730337078
  20
 4949.3539325843
  30
0.0
  11
 941.65730337078
  21
 4721.8539325843
  31
0.0
   0
INSERT
   5
E1
 100
AcDbEntity
   8
LEVEL001
   6
CONTINUOUS
  62
6
 100
AcDbBlockReference
   2
_OPEN
  10
 941.65730337078
  20
 4494.3539325843
  30
0.0
  41
 42.000000000000
  42
 42.000000000000
  43
 42.000000000000
  50
 270.00000000000
   0
INSERT
   5
E2
 100
AcDbEntity
   8
LEVEL001
   6
CONTINUOUS
  62
6
 100
AcDbBlockReference
   2
_OPEN
  10
 941.65730337078
  20
 4949.3539325843
  30
0.0
  41
 42.000000000000
  42
 42.000000000000
  43
 42.000000000000
  50
 90.000000000000
   0
MTEXT
   5
E3
 100
AcDbEntity
   8
LEVEL001
 370
13
  62
1
 100
AcDbMText
  10
 927.65730337078
  20
 4689.0406921285
  30
0.0
  40
 60.000000000000
  41
0.0
  71
8
  72
1
   1
\A1;450
   7
GMM002
  11
0.0
  21
 1.0000000000000
  31
0.0
   0
ENDBLK
   5
E4
 100
AcDbEntity
   8
0
 100
AcDbBlockEnd
   0
BLOCK
   5
E5
 100
AcDbEntity
   8
0
 100
AcDbBlockBegin
   2
BLOCK001
  70
64
  10
0.0
  20
0.0
  30
0.0
   3
BLOCK001
   0
LINE
   5
E6
 100
AcDbEntity
   8
LEVEL001
 370
13
 100
AcDbLine
   6
CONTINUOUS
  62
5
  10
 1491.6563025507
  20
 3744.9354286554
  30
0.0
  11
 1436.6563041898
  21
 3674.9354307416
  31
0.0
   0
LINE
   5
E7
 100
AcDbEntity
   8
LEVEL001
 370
13
 100
AcDbLine
   6
CONTINUOUS
  62
5
  10
 1436.6563041898
  20
 3674.9354307416
  30
0.0
  11
 1466.6563032958
  21
 3674.9354307416
  31
0.0
   0
LINE
   5
E8
 100
AcDbEntity
   8
LEVEL001
 370
13
 100
AcDbLine
   6
CONTINUOUS
  62
5
  10
 1466.6563032958
  20
 3674.9354307416
  30
0.0
  11
 1466.6563032958
  21
 3644.9354316356
  31
0.0
   0
LINE
   5
E9
 100
AcDbEntity
   8
LEVEL001
 370
13
 100
AcDbLine
   6
CONTINUOUS
  62
5
  10
 1466.6563032958
  20
 3644.9354316356
  30
0.0
  11
 1516.6563018056
  21
 3644.9354316356
  31
0.0
   0
LINE
   5
EA
 100
AcDbEntity
   8
LEVEL001
 370
13
 100
AcDbLine
   6
CONTINUOUS
  62
5
  10
 1516.6563018056
  20
 3644.9354316356
  30
0.0
  11
 1516.6563018056
  21
 3674.9354307416
  31
0.0
   0
LINE
   5
EB
 100
AcDbEntity
   8
LEVEL001
 370
13
 100
AcDbLine
   6
CONTINUOUS
  62
5
  10
 1516.6563018056
  20
 3674.9354307416
  30
0.0
  11
 1546.6563009116
  21
 3674.9354307416
  31
0.0
   0
LINE
   5
EC
 100
AcDbEntity
   8
LEVEL001
 370
13
 100
AcDbLine
   6
CONTINUOUS
  62
5
  10
 1546.6563009116
  20
 3674.9354307416
  30
0.0
  11
 1491.6563025507
  21
 3744.9354286554
  31
0.0
   0
LINE
   5
ED
 100
AcDbEntity
   8
LEVEL001
 370
13
 100
AcDbLine
   6
CONTINUOUS
  62
5
  10
 1422.0133602903
  20
 3578.9265224700
  30
0.0
  11
 1437.2825248743
  21
 3576.6718838654
  31
0.0
   0
ARC
   5
EE
 100
AcDbEntity
   8
LEVEL001
 370
13
   6
CONTINUOUS
  62
5
 100
AcDbCircle
  10
 1435.8998130381
  20
 3556.1386779126
  30
0.0
  40
 20.579709393390
 100
AcDbArc
  50
 10.432218603597
  51
 86.147502468922
   0
ARC
   5
EF
 100
AcDbEntity
   8
LEVEL001
 370
13
   6
CONTINUOUS
  62
5
 100
AcDbCircle
  10
 1442.2554749427
  20
 3559.5630332268
  30
0.0
  40
 13.887146297480
 100
AcDbArc
  50
 284.73811645770
  51
 1.2463330419203
   0
LINE
   5
F0
 100
AcDbEntity
   8
LEVEL001
 370
13
 100
AcDbLine
   6
CONTINUOUS
  62
5
  10
 1445.7883839958
  20
 3546.1327917580
  30
0.0
  11
 1422.0133602903
  21
 3578.9265224700
  31
0.0
   0
ARC
   5
F1
 100
AcDbEntity
   8
LEVEL001
 370
13
   6
CONTINUOUS
  62
5
 100
AcDbCircle
  10
 1429.5605702770
  20
 3519.3215240262
  30
0.0
  40
 20.228108756896
 100
AcDbArc
  50
 1.0517504589814
  51
 78.795792274262
   0
ARC
   5
F2
 100
AcDbEntity
   8
LEVEL001
 370
13
   6
CONTINUOUS
  62
5
 100
AcDbCircle
  10
 1434.8170007825
  20
 3521.4713099260
  30
0.0
  40
 15.073557642890
 100
AcDbArc
  50
 288.65956808371
  51
 353.22403827739
   0
LINE
   5
F3
 100
AcDbEntity
   8
LEVEL001
 370
13
 100
AcDbLine
   6
CONTINUOUS
  62
5
  10
 1424.3702327786
  20
 3493.1503104268
  30
0.0
  11
 1431.3389215358
  21
 3454.3101321410
  31
0.0
   0
LINE
   5
F4
 100
AcDbEntity
   8
LEVEL001
 370
13
 100
AcDbLine
   6
CONTINUOUS
  62
5
  10
 1451.9376758047
  20
 3458.3068666410
  30
0.0
  11
 1448.7604908408
  21
 3475.4211239434
  31
0.0
   0
LINE
   5
F5
 100
AcDbEntity
   8
LEVEL001
 370
13
 100
AcDbLine
   6
CONTINUOUS
  62
5
  10
 1448.7604908408
  20
 3475.4211239434
  30
0.0
  11
 1461.0581589313
  21
 3534.8599039102
  31
0.0
   0
LINE
   5
F6
 100
AcDbEntity
   8
LEVEL001
 370
13
 100
AcDbLine
   6
CONTINUOUS
  62
5
  10
 1461.0581589313
  20
 3534.8599039102
  30
0.0
  11
 1438.2050712335
  21
 3484.9519158956
  31
0.0
   0
LINE
   5
F7
 100
AcDbEntity
   8
LEVEL001
 370
13
 100
AcDbLine
   6
CONTINUOUS
  62
5
  10
 1438.2050712335
  20
 3484.9519158956
  30
0.0
  11
 1424.3702327786
  21
 3493.1503104268
  31
0.0
   0
ARC
   5
F8
 100
AcDbEntity
   8
LEVEL001
 370
13
   6
CONTINUOUS
  62
5
 100
AcDbCircle
  10
 1546.4173415163
  20
 3513.5684322406
  30
0.0
  40
 5.0631766002424
 100
AcDbArc
  50
 274.72626205444
  51
 43.105625043010
   0
ARC
   5
F9
 100
AcDbEntity
   8
LEVEL001
 370
13
   6
CONTINUOUS
  62
5
 100
AcDbCircle
  10
 1550.0569752236
  20
 3556.7173887036
  30
0.0
  40
 5.5826340442110
 100
AcDbArc
  50
 274.79665758014
  51
 36.910963374404
   0
LINE
   5
FA
 100
AcDbEntity
   8
LEVEL001
 370
13
 100
AcDbLine
   6
CONTINUOUS
  62
5
  10
 1550.1139424101
  20
 3517.0283309554
  30
0.0
  11
 1533.7168481722
  21
 3530.0433146984
  31
0.0
   0
LINE
   5
FB
 100
AcDbEntity
   8
LEVEL001
 370
13
 100
AcDbLine
   6
CONTINUOUS
  62
5
  10
 1533.7168481722
  20
 3530.0433146984
  30
0.0
  11
 1526.1332302341
  21
 3520.6150618056
  31
0.0
   0
LINE
   5
FC
 100
AcDbEntity
   8
LEVEL001
 370
13
 100
AcDbLine
   6
CONTINUOUS
  62
5
  10
 1526.1332302341
  20
 3520.6150618056
  30
0.0
  11
 1513.3231720221
  21
 3520.6150618056
  31
0.0
   0
LINE
   5
FD
 100
AcDbEntity
   8
LEVEL001
 370
13
 100
AcDbLine
   6
CONTINUOUS
  62
5
  10
 1513.3231720221
  20
 3520.6150618056
  30
0.0
  11
 1513.3231720221
  21
 3551.1543065008
  31
0.0
   0
LINE
   5
FE
 100
AcDbEntity
   8
LEVEL001
 370
13
 100
AcDbLine
   6
CONTINUOUS
  62
5
  10
 1513.3231720221
  20
 3551.1543065008
  30
0.0
  11
 1550.5237934721
  21
 3551.1543065008
  31
0.0
   0
LINE
   5
FF
 100
AcDbEntity
   8
LEVEL001
 370
13
 100
AcDbLine
   6
CONTINUOUS
  62
5
  10
 1554.5206805600
  20
 3560.0701692722
  30
0.0
  11
 1540.6855369294
  21
 3572.1627592438
  31
0.0
   0
LINE
   5
100
 100
AcDbEntity
   8
LEVEL001
 370
13
 100
AcDbLine
   6
CONTINUOUS
  62
5
  10
 1540.6855369294
  20
 3572.1627592438
  30
0.0
  11
 1528.7980250766
  21
 3562.1197297580
  31
0.0
   0
LINE
   5
101
 100
AcDbEntity
   8
LEVEL001
 370
13
 100
AcDbLine
   6
CONTINUOUS
  62
5
  10
 1528.7980250766
  20
 3562.1197297580
  30
0.0
  11
 1513.3231720221
  21
 3562.1197297580
  31
0.0
   0
LINE
   5
102
 100
AcDbEntity
   8
LEVEL001
 370
13
 100
AcDbLine
   6
CONTINUOUS
  62
5
  10
 1513.3231720221
  20
 3562.1197297580
  30
0.0
  11
 1513.3231720221
  21
 3577.5942776366
  31
0.0
   0
LINE
   5
103
 100
AcDbEntity
   8
LEVEL001
 370
13
 100
AcDbLine
   6
CONTINUOUS
  62
5
  10
 1513.3231720221
  20
 3577.5942776366
  30
0.0
  11
 1516.9102080481
  21
 3579.4389125914
  31
0.0
   0
LINE
   5
104
 100
AcDbEntity
   8
LEVEL001
 370
13
 100
AcDbLine
   6
CONTINUOUS
  62
5
  10
 1516.9102080481
  20
 3579.4389125914
  30
0.0
  11
 1517.2175200506
  21
 3582.1034022582
  31
0.0
   0
LINE
   5
105
 100
AcDbEntity
   8
LEVEL001
 370
13
 100
AcDbLine
   6
CONTINUOUS
  62
5
  10
 1517.2175200506
  20
 3582.1034022582
  30
0.0
  11
 1488.3179847791
  21
 3586.6125268796
  31
0.0
   0
LINE
   5
106
 100
AcDbEntity
   8
LEVEL001
 370
13
 100
AcDbLine
   6
CONTINUOUS
  62
5
  10
 1488.3179847791
  20
 3586.6125268796
  30
0.0
  11
 1488.3179847791
  21
 3562.1197297580
  31
0.0
   0
LINE
   5
107
 100
AcDbEntity
   8
LEVEL001
 370
13
 100
AcDbLine
   6
CONTINUOUS
  62
5
  10
 1488.3179847791
  20
 3562.1197297580
  30
0.0
  11
 1458.9060593861
  21
 3562.1197297580
  31
0.0
   0
LINE
   5
108
 100
AcDbEntity
   8
LEVEL001
 370
13
 100
AcDbLine
   6
CONTINUOUS
  62
5
  10
 1458.9060593861
  20
 3562.1197297580
  30
0.0
  11
 1463.3127975360
  21
 3551.1543065008
  31
0.0
   0
LINE
   5
109
 100
AcDbEntity
   8
LEVEL001
 370
13
 100
AcDbLine
   6
CONTINUOUS
  62
5
  10
 1463.3127975360
  20
 3551.1543065008
  30
0.0
  11
 1488.3179847791
  21
 3551.1543065008
  31
0.0
   0
LINE
   5
10A
 100
AcDbEntity
   8
LEVEL001
 370
13
 100
AcDbLine
   6
CONTINUOUS
  62
5
  10
 1488.3179847791
  20
 3551.1543065008
  30
0.0
  11
 1488.3179847791
  21
 3520.6150618056
  31
0.0
   0
LINE
   5
10B
 100
AcDbEntity
   8
LEVEL001
 370
13
 100
AcDbLine
   6
CONTINUOUS
  62
5
  10
 1488.3179847791
  20
 3520.6150618056
  30
0.0
  11
 1460.5457688099
  21
 3520.6150618056
  31
0.0
   0
LINE
   5
10C
 100
AcDbEntity
   8
LEVEL001
 370
13
 100
AcDbLine
   6
CONTINUOUS
  62
5
  10
 1460.5457688099
  20
 3520.6150618056
  30
0.0
  11
 1465.4648970813
  21
 3508.5224718338
  31
0.0
   0
LINE
   5
10D
 100
AcDbEntity
   8
LEVEL001
 370
13
 100
AcDbLine
   6
CONTINUOUS
  62
5
  10
 1465.4648970813
  20
 3508.5224718338
  30
0.0
  11
 1488.3179847791
  21
 3508.5224718338
  31
0.0
   0
LINE
   5
10E
 100
AcDbEntity
   8
LEVEL001
 370
13
 100
AcDbLine
   6
CONTINUOUS
  62
5
  10
 1488.3179847791
  20
 3508.5224718338
  30
0.0
  11
 1488.3179847791
  21
 3463.6359985622
  31
0.0
   0
LINE
   5
10F
 100
AcDbEntity
   8
LEVEL001
 370
13
 100
AcDbLine
   6
CONTINUOUS
  62
5
  10
 1488.3179847791
  20
 3463.6359985622
  30
0.0
  11
 1455.8317186574
  21
 3463.6359985622
  31
0.0
   0
LINE
   5
110
 100
AcDbEntity
   8
LEVEL001
 370
13
 100
AcDbLine
   6
CONTINUOUS
  62
5
  10
 1455.8317186574
  20
 3463.6359985622
  30
0.0
  11
 1461.2632370502
  21
 3451.5431034148
  31
0.0
   0
LINE
   5
111
 100
AcDbEntity
   8
LEVEL001
 370
13
 100
AcDbLine
   6
CONTINUOUS
  62
5
  10
 1461.2632370502
  20
 3451.5431034148
  30
0.0
  11
 1551.6410419739
  21
 3451.5431034148
  31
0.0
   0
LINE
   5
112
 100
AcDbEntity
   8
LEVEL001
 370
13
 100
AcDbLine
   6
CONTINUOUS
  62
5
  10
 1555.0956317148
  20
 3463.0659302198
  30
0.0
  11
 1539.7632957459
  21
 3473.1666379266
  31
0.0
   0
LINE
   5
113
 100
AcDbEntity
   8
LEVEL001
 370
13
 100
AcDbLine
   6
CONTINUOUS
  62
5
  10
 1539.7632957459
  20
 3473.1666379266
  30
0.0
  11
 1531.8723658053
  21
 3463.6359985622
  31
0.0
   0
LINE
   5
114
 100
AcDbEntity
   8
LEVEL001
 370
13
 100
AcDbLine
   6
CONTINUOUS
  62
5
  10
 1531.8723658053
  20
 3463.6359985622
  30
0.0
  11
 1513.3231720221
  21
 3463.6359985622
  31
0.0
   0
LINE
   5
115
 100
AcDbEntity
   8
LEVEL001
 370
13
 100
AcDbLine
   6
CONTINUOUS
  62
5
  10
 1513.3231720221
  20
 3463.6359985622
  30
0.0
  11
 1513.3231720221
  21
 3508.5224718338
  31
0.0
   0
LINE
   5
116
 100
AcDbEntity
   8
LEVEL001
 370
13
 100
AcDbLine
   6
CONTINUOUS
  62
5
  10
 1513.3231720221
  20
 3508.5224718338
  30
0.0
  11
 1546.8345235625
  21
 3508.5224718338
  31
0.0
   0
LINE
   5
117
 100
AcDbEntity
   8
LEVEL001
 370
13
 100
AcDbLine
   6
CONTINUOUS
  62
5
  10
 1418.5839128628
  20
 3541.4932519584
  30
0.0
  11
 1433.4910210810
  21
 3539.1641030008
  31
0.0
   0
LINE
   5
118
 100
AcDbEntity
   8
LEVEL001
 370
13
 100
AcDbLine
   6
CONTINUOUS
  62
5
  10
 1439.6397025384
  20
 3507.1900744126
  30
0.0
  11
 1418.5839128628
  21
 3539.4436692326
  31
0.0
   0
ARC
   5
119
 100
AcDbEntity
   8
LEVEL001
 370
13
   6
CONTINUOUS
  62
5
 100
AcDbCircle
  10
 1441.3213388574
  20
 3457.9420773275
  30
0.0
  40
 10.622602384609
 100
AcDbArc
  50
 199.99311911374
  51
 1.9679733406258
   0
ARC
   5
11A
 100
AcDbEntity
   8
LEVEL001
 370
13
   6
CONTINUOUS
  62
5
 100
AcDbCircle
  10
 1551.6415212739
  20
 3457.8222230586
  30
0.0
  40
 6.2791196620726
 100
AcDbArc
  50
 269.99562647866
  51
 56.626490037599
   0
ARC
   5
11B
 100
AcDbEntity
   8
LEVEL001
 370
13
   6
CONTINUOUS
  62
5
 100
AcDbCircle
  10
 1555.4139676259
  20
 3351.3537054222
  30
0.0
  40
 4.7515310421130
 100
AcDbArc
  50
 274.70409570306
  51
 59.112293256299
   0
ARC
   5
11C
 100
AcDbEntity
   8
LEVEL001
 370
13
   6
CONTINUOUS
  62
5
 100
AcDbCircle
  10
 1462.2546444283
  20
 3350.9966467712
  30
0.0
  40
 22.293228438698
 100
AcDbArc
  50
 35.161132790361
  51
 78.641284698047
   0
ARC
   5
11D
 100
AcDbEntity
   8
LEVEL001
 370
13
   6
CONTINUOUS
  62
5
 100
AcDbCircle
  10
 1474.1346854236
  20
 3362.0533587064
  30
0.0
  40
 6.5907971086860
 100
AcDbArc
  50
 312.23536417692
  51
 15.681870099083
   0
LINE
   5
11E
 100
AcDbEntity
   8
LEVEL001
 370
13
 100
AcDbLine
   6
CONTINUOUS
  62
5
  10
 1478.5648722768
  20
 3357.1735993912
  30
0.0
  11
 1497.4918736658
  21
 3357.1735993912
  31
0.0
   0
LINE
   5
11F
 100
AcDbEntity
   8
LEVEL001
 370
13
 100
AcDbLine
   6
CONTINUOUS
  62
5
  10
 1497.4918736658
  20
 3357.1735993912
  30
0.0
  11
 1507.9450593895
  21
 3372.8532253888
  31
0.0
   0
LINE
   5
120
 100
AcDbEntity
   8
LEVEL001
 370
13
 100
AcDbLine
   6
CONTINUOUS
  62
5
  10
 1507.9450593895
  20
 3372.8532253888
  30
0.0
  11
 1466.6453169680
  21
 3372.8532253888
  31
0.0
   0
ARC
   5
121
 100
AcDbEntity
   8
LEVEL001
 370
13
   6
CONTINUOUS
  62
5
 100
AcDbCircle
  10
 1545.9727702566
  20
 3378.0093990138
  30
0.0
  40
 5.1561789168066
 100
AcDbArc
  50
 269.91791191287
  51
 52.070025543566
   0
LINE
   5
122
 100
AcDbEntity
   8
LEVEL001
 370
13
 100
AcDbLine
   6
CONTINUOUS
  62
5
  10
 1557.8531999919
  20
 3355.4313509080
  30
0.0
  11
 1539.9192405655
  21
 3365.8845366316
  31
0.0
   0
LINE
   5
123
 100
AcDbEntity
   8
LEVEL001
 370
13
 100
AcDbLine
   6
CONTINUOUS
  62
5
  10
 1539.9192405655
  20
 3365.8845366316
  30
0.0
  11
 1533.3604028703
  21
 3357.1735993912
  31
0.0
   0
LINE
   5
124
 100
AcDbEntity
   8
LEVEL001
 370
13
 100
AcDbLine
   6
CONTINUOUS
  62
5
  10
 1533.3604028703
  20
 3357.1735993912
  30
0.0
  11
 1517.6115019725
  21
 3357.1735993912
  31
0.0
   0
LINE
   5
125
 100
AcDbEntity
   8
LEVEL001
 370
13
 100
AcDbLine
   6
CONTINUOUS
  62
5
  10
 1517.6115019725
  20
 3357.1735993912
  30
0.0
  11
 1526.6990261157
  21
 3365.3721465102
  31
0.0
   0
LINE
   5
126
 100
AcDbEntity
   8
LEVEL001
 370
13
 100
AcDbLine
   6
CONTINUOUS
  62
5
  10
 1526.6990261157
  20
 3365.3721465102
  30
0.0
  11
 1530.4908350847
  21
 3365.8845366316
  31
0.0
   0
LINE
   5
127
 100
AcDbEntity
   8
LEVEL001
 370
13
 100
AcDbLine
   6
CONTINUOUS
  62
5
  10
 1530.4908350847
  20
 3365.8845366316
  30
0.0
  11
 1532.1305445085
  21
 3368.2414091200
  31
0.0
   0
LINE
   5
128
 100
AcDbEntity
   8
LEVEL001
 370
13
 100
AcDbLine
   6
CONTINUOUS
  62
5
  10
 1532.1305445085
  20
 3368.2414091200
  30
0.0
  11
 1529.4660548418
  21
 3372.8532253888
  31
0.0
   0
LINE
   5
129
 100
AcDbEntity
   8
LEVEL001
 370
13
 100
AcDbLine
   6
CONTINUOUS
  62
5
  10
 1529.4660548418
  20
 3372.8532253888
  30
0.0
  11
 1545.9653829634
  21
 3372.8532253888
  31
0.0
   0
LINE
   5
12A
 100
AcDbEntity
   8
LEVEL001
 370
13
 100
AcDbLine
   6
CONTINUOUS
  62
5
  10
 1549.1422627515
  20
 3382.0764001628
  30
0.0
  11
 1530.4908350847
  21
 3392.3243551796
  31
0.0
   0
LINE
   5
12B
 100
AcDbEntity
   8
LEVEL001
 370
13
 100
AcDbLine
   6
CONTINUOUS
  62
5
  10
 1530.4908350847
  20
 3392.3243551796
  30
0.0
  11
 1524.3418484516
  21
 3382.7937158152
  31
0.0
   0
LINE
   5
12C
 100
AcDbEntity
   8
LEVEL001
 370
13
 100
AcDbLine
   6
CONTINUOUS
  62
5
  10
 1524.3418484516
  20
 3382.7937158152
  30
0.0
  11
 1502.9233920587
  21
 3382.7937158152
  31
0.0
   0
LINE
   5
12D
 100
AcDbEntity
   8
LEVEL001
 370
13
 100
AcDbLine
   6
CONTINUOUS
  62
5
  10
 1502.9233920587
  20
 3382.7937158152
  30
0.0
  11
 1502.9233920587
  21
 3389.1474753916
  31
0.0
   0
LINE
   5
12E
 100
AcDbEntity
   8
LEVEL001
 370
13
 100
AcDbLine
   6
CONTINUOUS
  62
5
  10
 1502.9233920587
  20
 3389.1474753916
  30
0.0
  11
 1505.0480257844
  21
 3392.8454428106
  31
0.0
   0
LINE
   5
12F
 100
AcDbEntity
   8
LEVEL001
 370
13
 100
AcDbLine
   6
CONTINUOUS
  62
5
  10
 1505.0480257844
  20
 3392.8454428106
  30
0.0
  11
 1504.2280184846
  21
 3394.5875387060
  31
0.0
   0
LINE
   5
130
 100
AcDbEntity
   8
LEVEL001
 370
13
 100
AcDbLine
   6
CONTINUOUS
  62
5
  10
 1504.2280184846
  20
 3394.5875387060
  30
0.0
  11
 1479.4553751800
  21
 3395.1939229652
  31
0.0
   0
LINE
   5
131
 100
AcDbEntity
   8
LEVEL001
 370
13
 100
AcDbLine
   6
CONTINUOUS
  62
5
  10
 1479.4553751800
  20
 3395.1939229652
  30
0.0
  11
 1479.4553751800
  21
 3382.7937158152
  31
0.0
   0
LINE
   5
132
 100
AcDbEntity
   8
LEVEL001
 370
13
 100
AcDbLine
   6
CONTINUOUS
  62
5
  10
 1479.4553751800
  20
 3382.7937158152
  30
0.0
  11
 1429.9930963806
  21
 3382.7937158152
  31
0.0
   0
LINE
   5
133
 100
AcDbEntity
   8
LEVEL001
 370
13
 100
AcDbLine
   6
CONTINUOUS
  62
5
  10
 1429.9930963806
  20
 3382.7937158152
  30
0.0
  11
 1434.4663628488
  21
 3372.8532253888
  31
0.0
   0
LINE
   5
134
 100
AcDbEntity
   8
LEVEL001
 370
13
 100
AcDbLine
   6
CONTINUOUS
  62
5
  10
 1434.4663628488
  20
 3372.8532253888
  30
0.0
  11
 1452.0933154485
  21
 3372.8532253888
  31
0.0
   0
LINE
   5
135
 100
AcDbEntity
   8
LEVEL001
 370
13
 100
AcDbLine
   6
CONTINUOUS
  62
5
  10
 1452.0933154485
  20
 3372.8532253888
  30
0.0
  11
 1462.0338058749
  21
 3357.1735993912
  31
0.0
   0
LINE
   5
136
 100
AcDbEntity
   8
LEVEL001
 370
13
 100
AcDbLine
   6
CONTINUOUS
  62
5
  10
 1462.0338058749
  20
 3357.1735993912
  30
0.0
  11
 1427.3185359134
  21
 3357.1735993912
  31
0.0
   0
LINE
   5
137
 100
AcDbEntity
   8
LEVEL001
 370
13
 100
AcDbLine
   6
CONTINUOUS
  62
5
  10
 1427.3185359134
  20
 3357.1735993912
  30
0.0
  11
 1432.2190484627
  21
 3346.6181797840
  31
0.0
   0
LINE
   5
138
 100
AcDbEntity
   8
LEVEL001
 370
13
 100
AcDbLine
   6
CONTINUOUS
  62
5
  10
 1432.2190484627
  20
 3346.6181797840
  30
0.0
  11
 1555.8036395061
  21
 3346.6181797840
  31
0.0
   0
ARC
   5
139
 100
AcDbEntity
   8
LEVEL001
 370
13
   6
CONTINUOUS
  62
5
 100
AcDbCircle
  10
 1451.5930373163
  20
 3322.5876630632
  30
0.0
  40
 31.206602120202
 100
AcDbArc
  50
 246.86700487442
  51
 289.54634462667
   0
LINE
   5
13A
 100
AcDbEntity
   8
LEVEL001
 370
13
 100
AcDbLine
   6
CONTINUOUS
  62
5
  10
 1462.0338058749
  20
 3322.5352337244
  30
0.0
  11
 1462.0338058749
  21
 3328.9913797722
  31
0.0
   0
LINE
   5
13B
 100
AcDbEntity
   8
LEVEL001
 370
13
 100
AcDbLine
   6
CONTINUOUS
  62
5
  10
 1462.0338058749
  20
 3328.9913797722
  30
0.0
  11
 1518.6030180562
  21
 3328.9913797722
  31
0.0
   0
LINE
   5
13C
 100
AcDbEntity
   8
LEVEL001
 370
13
 100
AcDbLine
   6
CONTINUOUS
  62
5
  10
 1518.6030180562
  20
 3328.9913797722
  30
0.0
  11
 1518.6030180562
  21
 3322.5352337244
  31
0.0
   0
LINE
   5
13D
 100
AcDbEntity
   8
LEVEL001
 370
13
 100
AcDbLine
   6
CONTINUOUS
  62
5
  10
 1518.6030180562
  20
 3322.5352337244
  30
0.0
  11
 1462.0338058749
  21
 3322.5352337244
  31
0.0
   0
LINE
   5
13E
 100
AcDbEntity
   8
LEVEL001
 370
13
 100
AcDbLine
   6
CONTINUOUS
  62
5
  10
 1545.1456808394
  20
 3335.9600685294
  30
0.0
  11
 1525.1618557514
  21
 3344.9784703602
  31
0.0
   0
LINE
   5
13F
 100
AcDbEntity
   8
LEVEL001
 370
13
 100
AcDbLine
   6
CONTINUOUS
  62
5
  10
 1525.1618557514
  20
 3344.9784703602
  30
0.0
  11
 1518.6030180562
  21
 3337.2923133628
  31
0.0
   0
LINE
   5
140
 100
AcDbEntity
   8
LEVEL001
 370
13
 100
AcDbLine
   6
CONTINUOUS
  62
5
  10
 1518.6030180562
  20
 3337.2923133628
  30
0.0
  11
 1462.0338058749
  21
 3337.2923133628
  31
0.0
   0
LINE
   5
141
 100
AcDbEntity
   8
LEVEL001
 370
13
 100
AcDbLine
   6
CONTINUOUS
  62
5
  10
 1462.0338058749
  20
 3337.2923133628
  30
0.0
  11
 1462.0338058749
  21
 3339.0345618460
  31
0.0
   0
LINE
   5
142
 100
AcDbEntity
   8
LEVEL001
 370
13
 100
AcDbLine
   6
CONTINUOUS
  62
5
  10
 1462.0338058749
  20
 3339.0345618460
  30
0.0
  11
 1439.3857962960
  21
 3343.6460729390
  31
0.0
   0
LINE
   5
143
 100
AcDbEntity
   8
LEVEL001
 370
13
 100
AcDbLine
   6
CONTINUOUS
  62
5
  10
 1439.3857962960
  20
 3343.6460729390
  30
0.0
  11
 1439.3330008874
  21
 3293.8902150468
  31
0.0
   0
LINE
   5
144
 100
AcDbEntity
   8
LEVEL001
 370
13
 100
AcDbLine
   6
CONTINUOUS
  62
5
  10
 1462.0338058749
  20
 3306.5481431364
  30
0.0
  11
 1462.0338058749
  21
 3313.4107833128
  31
0.0
   0
LINE
   5
145
 100
AcDbEntity
   8
LEVEL001
 370
13
 100
AcDbLine
   6
CONTINUOUS
  62
5
  10
 1462.0338058749
  20
 3313.4107833128
  30
0.0
  11
 1518.6030180562
  21
 3313.4107833128
  31
0.0
   0
LINE
   5
146
 100
AcDbEntity
   8
LEVEL001
 370
13
 100
AcDbLine
   6
CONTINUOUS
  62
5
  10
 1518.6030180562
  20
 3313.4107833128
  30
0.0
  11
 1518.6030180562
  21
 3306.5481431364
  31
0.0
   0
LINE
   5
147
 100
AcDbEntity
   8
LEVEL001
 370
13
 100
AcDbLine
   6
CONTINUOUS
  62
5
  10
 1518.6030180562
  20
 3306.5481431364
  30
0.0
  11
 1462.0338058749
  21
 3306.5481431364
  31
0.0
   0
ARC
   5
148
 100
AcDbEntity
   8
LEVEL001
 370
13
   6
CONTINUOUS
  62
5
 100
AcDbCircle
  10
 1541.6467053149
  20
 3333.3479757246
  30
0.0
  40
 4.3664469013676
 100
AcDbArc
  50
 266.15058922045
  51
 36.742470507716
   0
LINE
   5
149
 100
AcDbEntity
   8
LEVEL001
 370
13
 100
AcDbLine
   6
CONTINUOUS
  62
5
  10
 1462.0338058749
  20
 3293.1794606734
  30
0.0
  11
 1462.0338058749
  21
 3297.9398975434
  31
0.0
   0
LINE
   5
14A
 100
AcDbEntity
   8
LEVEL001
 370
13
 100
AcDbLine
   6
CONTINUOUS
  62
5
  10
 1462.0338058749
  20
 3297.9398975434
  30
0.0
  11
 1518.6030180562
  21
 3297.9398975434
  31
0.0
   0
LINE
   5
14B
 100
AcDbEntity
   8
LEVEL001
 370
13
 100
AcDbLine
   6
CONTINUOUS
  62
5
  10
 1518.6030180562
  20
 3297.9398975434
  30
0.0
  11
 1518.6030180562
  21
 3293.0207692720
  31
0.0
   0
LINE
   5
14C
 100
AcDbEntity
   8
LEVEL001
 370
13
 100
AcDbLine
   6
CONTINUOUS
  62
5
  10
 1518.6030180562
  20
 3293.0207692720
  30
0.0
  11
 1535.5125024156
  21
 3293.0207692720
  31
0.0
   0
LINE
   5
14D
 100
AcDbEntity
   8
LEVEL001
 370
13
 100
AcDbLine
   6
CONTINUOUS
  62
5
  10
 1535.5125024156
  20
 3293.0207692720
  30
0.0
  11
 1539.2014671494
  21
 3295.0703297578
  31
0.0
   0
LINE
   5
14E
 100
AcDbEntity
   8
LEVEL001
 370
13
 100
AcDbLine
   6
CONTINUOUS
  62
5
  10
 1539.2014671494
  20
 3295.0703297578
  30
0.0
  11
 1541.3535666946
  21
 3299.4770679076
  31
0.0
   0
LINE
   5
14F
 100
AcDbEntity
   8
LEVEL001
 370
13
 100
AcDbLine
   6
CONTINUOUS
  62
5
  10
 1541.3535666946
  20
 3299.4770679076
  30
0.0
  11
 1541.3468528276
  21
 3328.9915323600
  31
0.0
   0
LINE
   5
150
 100
AcDbEntity
   8
LEVEL001
 370
13
 100
AcDbLine
   6
CONTINUOUS
  62
5
  10
 1445.5662160337
  20
 3287.5892508792
  30
0.0
  11
 1445.0538259122
  21
 3282.4653496646
  31
0.0
   0
LINE
   5
151
 100
AcDbEntity
   8
LEVEL001
 370
13
 100
AcDbLine
   6
CONTINUOUS
  62
5
  10
 1445.0538259122
  20
 3282.4653496646
  30
0.0
  11
 1443.1064993101
  21
 3278.8784662266
  31
0.0
   0
LINE
   5
152
 100
AcDbEntity
   8
LEVEL001
 370
13
 100
AcDbLine
   6
CONTINUOUS
  62
5
  10
 1443.1064993101
  20
 3278.8784662266
  30
0.0
  11
 1432.0386895813
  21
 3265.1460142432
  31
0.0
   0
ARC
   5
153
 100
AcDbEntity
   8
LEVEL001
 370
13
   6
CONTINUOUS
  62
5
 100
AcDbCircle
  10
 1440.5709520960
  20
 3259.5342607749
  30
0.0
  40
 10.212310248246
 100
AcDbArc
  50
 146.66668479785
  51
 331.70163256436
   0
ARC
   5
154
 100
AcDbEntity
   8
LEVEL001
 370
13
   6
CONTINUOUS
  62
5
 100
AcDbCircle
  10
 1426.5828679158
  20
 3268.5920476706
  30
0.0
  40
 26.856307183018
 100
AcDbArc
  50
 328.83298190805
  51
 45.020901175904
   0
LINE
   5
155
 100
AcDbEntity
   8
LEVEL001
 370
13
 100
AcDbLine
   6
CONTINUOUS
  62
5
  10
 1529.1904811196
  20
 3290.3562796052
  30
0.0
  11
 1542.6151633367
  21
 3268.0155820288
  31
0.0
   0
ARC
   5
156
 100
AcDbEntity
   8
LEVEL001
 370
13
   6
CONTINUOUS
  62
5
 100
AcDbCircle
  10
 1534.9218004741
  20
 3257.8399113078
  30
0.0
  40
 8.7884995702356
 100
AcDbArc
  50
 268.04310640353
  51
 95.976315925198
   0
ARC
   5
157
 100
AcDbEntity
   8
LEVEL001
 370
13
   6
CONTINUOUS
  62
5
 100
AcDbCircle
  10
 1467.7208595048
  20
 3255.6661283752
  30
0.0
  40
 6.6095999893666
 100
AcDbArc
  50
 179.99949488507
  51
 269.90651577907
   0
LINE
   5
158
 100
AcDbEntity
   8
LEVEL001
 370
13
 100
AcDbLine
   6
CONTINUOUS
  62
5
  10
 1467.7100752370
  20
 3249.0565371838
  30
0.0
  11
 1534.6216943367
  21
 3249.0565371838
  31
0.0
   0
LINE
   5
159
 100
AcDbEntity
   8
LEVEL001
 370
13
 100
AcDbLine
   6
CONTINUOUS
  62
5
  10
 1534.0067651557
  20
 3266.5806455482
  30
0.0
  11
 1526.6282253366
  21
 3285.0273002718
  31
0.0
   0
LINE
   5
15A
 100
AcDbEntity
   8
LEVEL001
 370
13
 100
AcDbLine
   6
CONTINUOUS
  62
5
  10
 1526.6282253366
  20
 3285.0273002718
  30
0.0
  11
 1526.4231472177
  21
 3274.7791926672
  31
0.0
   0
LINE
   5
15B
 100
AcDbEntity
   8
LEVEL001
 370
13
 100
AcDbLine
   6
CONTINUOUS
  62
5
  10
 1526.4231472177
  20
 3274.7791926672
  30
0.0
  11
 1523.7217312826
  21
 3266.5806455482
  31
0.0
   0
LINE
   5
15C
 100
AcDbEntity
   8
LEVEL001
 370
13
 100
AcDbLine
   6
CONTINUOUS
  62
5
  10
 1523.7217312826
  20
 3266.5806455482
  30
0.0
  11
 1483.8621133299
  21
 3266.5806455482
  31
0.0
   0
LINE
   5
15D
 100
AcDbEntity
   8
LEVEL001
 370
13
 100
AcDbLine
   6
CONTINUOUS
  62
5
  10
 1483.8621133299
  20
 3266.5806455482
  30
0.0
  11
 1483.8621133299
  21
 3282.4653496646
  31
0.0
   0
LINE
   5
15E
 100
AcDbEntity
   8
LEVEL001
 370
13
 100
AcDbLine
   6
CONTINUOUS
  62
5
  10
 1483.8621133299
  20
 3282.4653496646
  30
0.0
  11
 1485.9116738156
  21
 3285.4371513338
  31
0.0
   0
LINE
   5
15F
 100
AcDbEntity
   8
LEVEL001
 370
13
 100
AcDbLine
   6
CONTINUOUS
  62
5
  10
 1485.9116738156
  20
 3285.4371513338
  30
0.0
  11
 1484.0671914487
  21
 3287.5892508792
  31
0.0
   0
LINE
   5
160
 100
AcDbEntity
   8
LEVEL001
 370
13
 100
AcDbLine
   6
CONTINUOUS
  62
5
  10
 1484.0671914487
  20
 3287.5892508792
  30
0.0
  11
 1461.1112595157
  21
 3290.6635916078
  31
0.0
   0
LINE
   5
161
 100
AcDbEntity
   8
LEVEL001
 370
13
 100
AcDbLine
   6
CONTINUOUS
  62
5
  10
 1461.1112595157
  20
 3290.6635916078
  30
0.0
  11
 1461.1112595157
  21
 3255.6661866450
  31
0.0
   0
LINE
   5
162
 100
AcDbEntity
   8
LEVEL001
 370
13
 100
AcDbLine
   6
CONTINUOUS
  62
5
  10
 1503.9673983752
  20
 3270.8848446386
  30
0.0
  11
 1489.8252479178
  21
 3292.2009145600
  31
0.0
   0
ARC
   5
163
 100
AcDbEntity
   8
LEVEL001
 370
13
   6
CONTINUOUS
  62
5
 100
AcDbCircle
  10
 1508.8477493320
  20
 3278.6043295174
  30
0.0
  40
 9.1328129430768
 100
AcDbArc
  50
 237.69843463492
  51
 18.768732377634
   0
ARC
   5
164
 100
AcDbEntity
   8
LEVEL001
 370
13
   6
CONTINUOUS
  62
5
 100
AcDbCircle
  10
 1491.3124740675
  20
 3254.3010765520
  30
0.0
  40
 37.929006876678
 100
AcDbArc
  50
 46.131549416345
  51
 92.247188603530
   0
ARC
   5
165
 100
AcDbEntity
   8
LEVEL001
 370
13
   6
CONTINUOUS
  62
5
 100
AcDbCircle
  10
 1548.4077833740
  20
 3274.8237896866
  30
0.0
  40
 8.9390233475260
 100
AcDbArc
  50
 229.60790187534
  51
 6.7933956222345
   0
ARC
   5
166
 100
AcDbEntity
   8
LEVEL001
 370
13
   6
CONTINUOUS
  62
5
 100
AcDbCircle
  10
 1533.0990418681
  20
 3263.7924540972
  30
0.0
  40
 27.037970213950
 100
AcDbArc
  50
 26.557897354805
  51
 98.092162593017
   0
ENDBLK
   5
167
 100
AcDbEntity
   8
0
 100
AcDbBlockEnd
   0
BLOCK
   5
168
 100
AcDbEntity
   8
0
 100
AcDbBlockBegin
   2
BLOCK002
  70
64
  10
0.0
  20
0.0
  30
0.0
   3
BLOCK002
   0
ARC
   5
169
 100
AcDbEntity
   8
LEVEL001
 370
13
   6
CONTINUOUS
  62
7
 100
AcDbCircle
  10
 1561.6559954509
  20
 3774.9328313378
  30
0.0
  40
 20.000000000000
 100
AcDbArc
  50
0.0
  51
 90.000000000000
   0
LINE
   5
16A
 100
AcDbEntity
   8
LEVEL001
 370
13
 100
AcDbLine
   6
CONTINUOUS
  62
7
  10
 1561.6559954509
  20
 3794.9328313378
  30
0.0
  11
 1421.6586112907
  21
 3794.9328313378
  31
0.0
   0
LINE
   5
16B
 100
AcDbEntity
   8
LEVEL001
 370
13
 100
AcDbLine
   6
CONTINUOUS
  62
7
  10
 1581.6559954509
  20
 3214.9320465922
  30
0.0
  11
 1581.6559954509
  21
 3774.9328313378
  31
0.0
   0
ARC
   5
16C
 100
AcDbEntity
   8
LEVEL001
 370
13
   6
CONTINUOUS
  62
7
 100
AcDbCircle
  10
 1421.6586112907
  20
 3774.9328313378
  30
0.0
  40
 20.000000000000
 100
AcDbArc
  50
 90.000000000000
  51
 180.00000000000
   0
LINE
   5
16D
 100
AcDbEntity
   8
LEVEL001
 370
13
 100
AcDbLine
   6
CONTINUOUS
  62
7
  10
 1401.6586112907
  20
 3774.9328313378
  30
0.0
  11
 1401.6586112907
  21
 3214.9320465922
  31
0.0
   0
ARC
   5
16E
 100
AcDbEntity
   8
LEVEL001
 370
13
   6
CONTINUOUS
  62
7
 100
AcDbCircle
  10
 1421.6586112907
  20
 3214.9320465922
  30
0.0
  40
 20.000000000000
 100
AcDbArc
  50
 180.00000000000
  51
 270.00000000000
   0
LINE
   5
16F
 100
AcDbEntity
   8
LEVEL001
 370
13
 100
AcDbLine
   6
CONTINUOUS
  62
7
  10
 1421.6586112907
  20
 3194.9320465922
  30
0.0
  11
 1561.6559954509
  21
 3194.9320465922
  31
0.0
   0
ARC
   5
170
 100
AcDbEntity
   8
LEVEL001
 370
13
   6
CONTINUOUS
  62
7
 100
AcDbCircle
  10
 1561.6559954509
  20
 3214.9320465922
  30
0.0
  40
 20.000000000000
 100
AcDbArc
  50
 270.00000000000
  51
0.0
   0
ENDBLK
   5
171
 100
AcDbEntity
   8
0
 100
AcDbBlockEnd
   0
BLOCK
   5
172
 100
AcDbEntity
   8
0
 100
AcDbBlockBegin
   2
*D20
  70
65
  10
0.0
  20
0.0
  30
0.0
   3
*D20
   0
LINE
   5
173
 100
AcDbEntity
   8
0
 370
13
 100
AcDbLine
   6
CONTINUOUS
  62
6
  10
 1211.6573033708
  20
 1073.4539325843
  30
0.0
  11
 711.65730337078
  21
 1073.4539325843
  31
0.0
   0
LINE
   5
174
 100
AcDbEntity
   8
0
 370
13
 100
AcDbLine
   6
CONTINUOUS
  62
6
  10
 1211.6573033708
  20
 973.45393258429
  30
0.0
  11
 711.65730337078
  21
 973.45393258429
  31
0.0
   0
LINE
   5
175
 100
AcDbEntity
   8
0
 370
13
 100
AcDbLine
   6
CONTINUOUS
  62
6
  10
 741.65730337078
  20
 1073.4539325843
  30
0.0
  11
 741.65730337078
  21
 1023.4539325843
  31
0.0
   0
LINE
   5
176
 100
AcDbEntity
   8
0
 370
13
 100
AcDbLine
   6
CONTINUOUS
  62
6
  10
 741.65730337078
  20
 973.45393258429
  30
0.0
  11
 741.65730337078
  21
 1023.4539325843
  31
0.0
   0
INSERT
   5
177
 100
AcDbEntity
   8
0
   6
CONTINUOUS
  62
6
 100
AcDbBlockReference
   2
_OPEN
  10
 741.65730337078
  20
 1073.4539325843
  30
0.0
  41
 42.000000000000
  42
 42.000000000000
  43
 42.000000000000
  50
 90.000000000000
   0
INSERT
   5
178
 100
AcDbEntity
   8
0
   6
CONTINUOUS
  62
6
 100
AcDbBlockReference
   2
_OPEN
  10
 741.65730337078
  20
 973.45393258429
  30
0.0
  41
 42.000000000000
  42
 42.000000000000
  43
 42.000000000000
  50
 270.00000000000
   0
MTEXT
   5
179
 100
AcDbEntity
   8
0
 370
13
  62
1
 100
AcDbMText
  10
 715.94301765650
  20
 1023.4539325843
  30
0.0
  40
 60.000000000000
  41
0.0
  71
8
  72
1
   1
\A1;100
   7
GMM002
  11
0.0
  21
 1.0000000000000
  31
0.0
   0
ENDBLK
   5
17A
 100
AcDbEntity
   8
0
 100
AcDbBlockEnd
   0
BLOCK
   5
17B
 100
AcDbEntity
   8
0
 100
AcDbBlockBegin
   2
*D21
  70
65
  10
0.0
  20
0.0
  30
0.0
   3
*D21
   0
LINE
   5
17C
 100
AcDbEntity
   8
0
 370
13
 100
AcDbLine
   6
CONTINUOUS
  62
6
  10
 961.65730337078
  20
 1973.4539325843
  30
0.0
  11
 711.65730337078
  21
 1973.4539325843
  31
0.0
   0
LINE
   5
17D
 100
AcDbEntity
   8
0
 370
13
 100
AcDbLine
   6
CONTINUOUS
  62
6
  10
 741.65730337078
  20
 1073.4539325843
  30
0.0
  11
 741.65730337078
  21
 1523.4539325843
  31
0.0
   0
LINE
   5
17E
 100
AcDbEntity
   8
0
 370
13
 100
AcDbLine
   6
CONTINUOUS
  62
6
  10
 741.65730337078
  20
 1973.4539325843
  30
0.0
  11
 741.65730337078
  21
 1523.4539325843
  31
0.0
   0
INSERT
   5
17F
 100
AcDbEntity
   8
0
   6
CONTINUOUS
  62
6
 100
AcDbBlockReference
   2
_OPEN
  10
 741.65730337078
  20
 1073.4539325843
  30
0.0
  41
 42.000000000000
  42
 42.000000000000
  43
 42.000000000000
  50
 270.00000000000
   0
INSERT
   5
180
 100
AcDbEntity
   8
0
   6
CONTINUOUS
  62
6
 100
AcDbBlockReference
   2
_OPEN
  10
 741.65730337078
  20
 1973.4539325843
  30
0.0
  41
 42.000000000000
  42
 42.000000000000
  43
 42.000000000000
  50
 90.000000000000
   0
MTEXT
   5
181
 100
AcDbEntity
   8
0
 370
13
  62
1
 100
AcDbMText
  10
 715.94301765650
  20
 1523.4539325843
  30
0.0
  40
 60.000000000000
  41
0.0
  71
8
  72
1
   1
\A1;900
   7
GMM002
  11
0.0
  21
 1.0000000000000
  31
0.0
   0
ENDBLK
   5
182
 100
AcDbEntity
   8
0
 100
AcDbBlockEnd
   0
BLOCK
   5
183
 100
AcDbEntity
   8
0
 100
AcDbBlockBegin
   2
*D22
  70
65
  10
0.0
  20
0.0
  30
0.0
   3
*D22
   0
LINE
   5
184
 100
AcDbEntity
   8
0
 370
13
 100
AcDbLine
   6
CONTINUOUS
  62
6
  10
 829.15730337078
  20
 4473.4539325843
  30
0.0
  11
 711.65730337078
  21
 4473.4539325843
  31
0.0
   0
LINE
   5
185
 100
AcDbEntity
   8
0
 370
13
 100
AcDbLine
   6
CONTINUOUS
  62
6
  10
 741.65730337078
  20
 1973.4539325843
  30
0.0
  11
 741.65730337078
  21
 3223.4539325843
  31
0.0
   0
LINE
   5
186
 100
AcDbEntity
   8
0
 370
13
 100
AcDbLine
   6
CONTINUOUS
  62
6
  10
 741.65730337078
  20
 4473.4539325843
  30
0.0
  11
 741.65730337078
  21
 3223.4539325843
  31
0.0
   0
INSERT
   5
187
 100
AcDbEntity
   8
0
   6
CONTINUOUS
  62
6
 100
AcDbBlockReference
   2
_OPEN
  10
 741.65730337078
  20
 1973.4539325843
  30
0.0
  41
 42.000000000000
  42
 42.000000000000
  43
 42.000000000000
  50
 270.00000000000
   0
INSERT
   5
188
 100
AcDbEntity
   8
0
   6
CONTINUOUS
  62
6
 100
AcDbBlockReference
   2
_OPEN
  10
 741.65730337078
  20
 4473.4539325843
  30
0.0
  41
 42.000000000000
  42
 42.000000000000
  43
 42.000000000000
  50
 90.000000000000
   0
MTEXT
   5
189
 100
AcDbEntity
   8
0
 370
13
  62
1
 100
AcDbMText
  10
 715.94301765650
  20
 3223.4539325843
  30
0.0
  40
 60.000000000000
  41
0.0
  71
8
  72
1
   1
\A1;2500(標準設置高さ)
   7
GMM002
  11
0.0
  21
 1.0000000000000
  31
0.0
   0
ENDBLK
   5
18A
 100
AcDbEntity
   8
0
 100
AcDbBlockEnd
   0
BLOCK
   5
18B
 100
AcDbEntity
   8
0
 100
AcDbBlockBegin
   2
*D23
  70
65
  10
0.0
  20
0.0
  30
0.0
   3
*D23
   0
LINE
   5
18C
 100
AcDbEntity
   8
0
 370
13
 100
AcDbLine
   6
CONTINUOUS
  62
6
  10
 3191.6573033708
  20
 4243.4539325843
  30
0.0
  11
 3191.6573033708
  21
 2743.4539325843
  31
0.0
   0
LINE
   5
18D
 100
AcDbEntity
   8
0
 370
13
 100
AcDbLine
   6
CONTINUOUS
  62
6
  10
 3191.6573033708
  20
 2773.4539325843
  30
0.0
  11
 3016.6573033708
  21
 2773.4539325843
  31
0.0
   0
LINE
   5
18E
 100
AcDbEntity
   8
0
 370
13
 100
AcDbLine
   6
CONTINUOUS
  62
6
  10
 2841.6573033708
  20
 2773.4539325843
  30
0.0
  11
 3016.6573033708
  21
 2773.4539325843
  31
0.0
   0
INSERT
   5
18F
 100
AcDbEntity
   8
0
   6
CONTINUOUS
  62
6
 100
AcDbBlockReference
   2
_OPEN
  10
 3191.6573033708
  20
 2773.4539325843
  30
0.0
  41
 42.000000000000
  42
 42.000000000000
  43
 42.000000000000
  50
0.0
   0
INSERT
   5
190
 100
AcDbEntity
   8
0
   6
CONTINUOUS
  62
6
 100
AcDbBlockReference
   2
_OPEN
  10
 2841.6573033708
  20
 2773.4539325843
  30
0.0
  41
 42.000000000000
  42
 42.000000000000
  43
 42.000000000000
  50
 180.00000000000
   0
MTEXT
   5
191
 100
AcDbEntity
   8
0
 370
13
  62
1
 100
AcDbMText
  10
 3016.6573033708
  20
 2799.1682182986
  30
0.0
  40
 60.000000000000
  41
0.0
  71
8
  72
1
   1
\A1;350
   7
GMM002
   0
ENDBLK
   5
192
 100
AcDbEntity
   8
0
 100
AcDbBlockEnd
   0
ENDSEC
   0
SECTION
   2
ENTITIES
   0
LINE
   5
193
 100
AcDbEntity
   8
LEVEL001
 370
13
 100
AcDbLine
   6
CONTINUOUS
  62
7
  10
 8091.6573033708
  20
 5721.8539325843
  30
0.0
  11
 291.65730337078
  21
 5721.8539325843
  31
0.0
   0
LINE
   5
194
 100
AcDbEntity
   8
LEVEL001
 370
13
 100
AcDbLine
   6
CONTINUOUS
  62
7
  10
 291.65730337078
  20
 5721.8539325843
  30
0.0
  11
 291.65730337078
  21
 221.85393258427
  31
0.0
   0
LINE
   5
195
 100
AcDbEntity
   8
LEVEL001
 370
13
 100
AcDbLine
   6
CONTINUOUS
  62
7
  10
 291.65730337078
  20
 221.85393258427
  30
0.0
  11
 8091.6573033708
  21
 221.85393258427
  31
0.0
   0
LINE
   5
196
 100
AcDbEntity
   8
LEVEL001
 370
13
 100
AcDbLine
   6
CONTINUOUS
  62
7
  10
 8091.6573033708
  20
 221.85393258427
  30
0.0
  11
 8091.6573033708
  21
 5721.8539325843
  31
0.0
   0
MTEXT
   5
197
 100
AcDbEntity
   8
LEVEL001
 370
13
  62
1
 100
AcDbMText
  10
 5623.6573033708
  20
 981.85393258427
  30
0.0
  40
 51.428571428572
  41
0.0
  71
6
  72
1
   1
\T1.000000;１６
   7
GMM001
  44
 0.79999984000003
   0
MTEXT
   5
198
 100
AcDbEntity
   8
LEVEL001
 370
13
  62
1
 100
AcDbMText
  10
 6781.6573033708
  20
 1339.0011479760
  30
0.0
  40
 51.428571428572
  41
0.0
  71
4
  72
1
   1
\T1.000000;ＰＥ
   7
GMM001
  44
 0.79999984000003
   0
MTEXT
   5
199
 100
AcDbEntity
   8
LEVEL001
 370
13
  62
1
 100
AcDbMText
  10
 5691.6573033708
  20
 981.85393258427
  30
0.0
  40
 51.428571428572
  41
0.0
  71
4
  72
1
   1
\T1.000000;同上ボルトナット
   7
GMM001
  44
 0.79999984000003
   0
MTEXT
   5
19A
 100
AcDbEntity
   8
LEVEL001
 370
13
  62
1
 100
AcDbMText
  10
 5623.6573033708
  20
 1101.8539325843
  30
0.0
  40
 51.428571428572
  41
0.0
  71
6
  72
1
   1
\T1.000000;１５
   7
GMM001
  44
 0.79999984000003
   0
MTEXT
   5
19B
 100
AcDbEntity
   8
LEVEL001
 370
13
  62
1
 100
AcDbMText
  10
 5691.6573033708
  20
 1101.8539325843
  30
0.0
  40
 51.428571428572
  41
0.0
  71
4
  72
1
   1
\T1.000000;注意板取付バンド
   7
GMM001
  44
 0.79999984000003
   0
LINE
   5
19C
 100
AcDbEntity
   8
LEVEL001
 370
13
 100
AcDbLine
   6
CONTINUOUS
  62
6
  10
 5451.6573033708
  20
 1041.8539325843
  30
0.0
  11
 8091.6573033708
  21
 1041.8539325843
  31
0.0
   0
MTEXT
   5
19D
 100
AcDbEntity
   8
LEVEL001
 370
13
  62
1
 100
AcDbMText
  10
 5623.6573033708
  20
 1221.8539325843
  30
0.0
  40
 51.428571428572
  41
0.0
  71
6
  72
1
   1
\T1.000000;１４
   7
GMM001
  44
 0.79999984000003
   0
MTEXT
   5
19E
 100
AcDbEntity
   8
LEVEL001
 370
13
  62
1
 100
AcDbMText
  10
 6703.6573033708
  20
 1221.8539325843
  30
0.0
  40
 51.428571428572
  41
0.0
  71
6
  72
1
   1
\T1.000000;１
   7
GMM001
  44
 0.79999984000003
   0
LINE
   5
19F
 100
AcDbEntity
   8
LEVEL001
 370
13
 100
AcDbLine
   6
CONTINUOUS
  62
6
  10
 5451.6573033708
  20
 1161.8539325843
  30
0.0
  11
 8091.6573033708
  21
 1161.8539325843
  31
0.0
   0
LINE
   5
1A0
 100
AcDbEntity
   8
LEVEL001
 370
13
 100
AcDbLine
   6
CONTINUOUS
  62
6
  10
 5451.6573033708
  20
 1281.8539325843
  30
0.0
  11
 8091.6573033708
  21
 1281.8539325843
  31
0.0
   0
MTEXT
   5
1A1
 100
AcDbEntity
   8
LEVEL001
 370
13
  62
1
 100
AcDbMText
  10
 5623.6573033708
  20
 1341.8539325843
  30
0.0
  40
 51.428571428572
  41
0.0
  71
6
  72
1
   1
\T1.000000;１３
   7
GMM001
  44
 0.79999984000003
   0
MTEXT
   5
1A2
 100
AcDbEntity
   8
LEVEL001
 370
13
  62
1
 100
AcDbMText
  10
 5691.6573033708
  20
 1341.8539325843
  30
0.0
  40
 51.428571428572
  41
0.0
  71
4
  72
1
   1
\T1.000000;キャップ
   7
GMM001
  44
 0.79999984000003
   0
MTEXT
   5
1A3
 100
AcDbEntity
   8
LEVEL001
 370
13
  62
1
 100
AcDbMText
  10
 6703.6573033708
  20
 1341.8539325843
  30
0.0
  40
 51.428571428572
  41
0.0
  71
6
  72
1
   1
\T1.000000;１
   7
GMM001
  44
 0.79999984000003
   0
MTEXT
   5
1A4
 100
AcDbEntity
   8
LEVEL001
 370
13
  62
1
 100
AcDbMText
  10
 5623.6573033708
  20
 1461.8539325843
  30
0.0
  40
 51.428571428572
  41
0.0
  71
6
  72
1
   1
\T1.000000;１２
   7
GMM001
  44
 0.79999984000003
   0
MTEXT
   5
1A5
 100
AcDbEntity
   8
LEVEL001
 370
13
  62
1
 100
AcDbMText
  10
 5691.6573033708
  20
 1461.8539325843
  30
0.0
  40
 51.428571428572
  41
0.0
  71
4
  72
1
   1
\T1.000000;根入れ鉄筋
   7
GMM001
  44
 0.79999984000003
   0
MTEXT
   5
1A6
 100
AcDbEntity
   8
LEVEL001
 370
13
  62
1
 100
AcDbMText
  10
 6703.6573033708
  20
 1461.8539325843
  30
0.0
  40
 51.428571428572
  41
0.0
  71
6
  72
1
   1
\T1.000000;１
   7
GMM001
  44
 0.79999984000003
   0
MTEXT
   5
1A7
 100
AcDbEntity
   8
LEVEL001
 370
13
  62
1
 100
AcDbMText
  10
 6771.6573033708
  20
 1461.8539325843
  30
0.0
  40
 51.428571428572
  41
0.0
  71
4
  72
1
   1
\T1.000000;ＳＤ２９５Ａ
   7
GMM001
  44
 0.79999984000003
   0
LINE
   5
1A8
 100
AcDbEntity
   8
LEVEL001
 370
13
 100
AcDbLine
   6
CONTINUOUS
  62
6
  10
 5451.6573033708
  20
 1401.8539325843
  30
0.0
  11
 8091.6573033708
  21
 1401.8539325843
  31
0.0
   0
LINE
   5
1A9
 100
AcDbEntity
   8
LEVEL001
 370
13
 100
AcDbLine
   6
CONTINUOUS
  62
6
  10
 5451.6573033708
  20
 1521.8539325843
  30
0.0
  11
 8091.6573033708
  21
 1521.8539325843
  31
0.0
   0
CIRCLE
   5
1AA
 100
AcDbEntity
   8
LEVEL001
 370
13
 100
AcDbCircle
   6
CONTINUOUS
  62
1
  10
 4091.6573033708
  20
 4371.8539325843
  30
0.0
  40
 69.999997913838
   0
MTEXT
   5
1AB
 100
AcDbEntity
   8
LEVEL001
 370
13
  62
1
 100
AcDbMText
  10
 4091.6573033708
  20
 4371.8539325843
  30
0.0
  40
 57.142857142858
  41
0.0
  71
5
  72
1
   1
\T1.000000;2
   7
GMM001
  44
 0.79999984000003
   0
LEADER
   5
1AC
 100
AcDbEntity
   8
LEVEL001
 370
13
   6
CONTINUOUS
  62
1
 100
AcDbLeader
   3
GMM001
  73
3
  74
1
  75
0
  40
 66.000000000000
  41
0.0
  76
2
  10
 4232.8746968088
  20
 4588.9389289289
  30
0.0
  10
 4129.8647708490
  20
 4430.5070581347
  30
0.0
  77
1
   0
CIRCLE
   5
1AD
 100
AcDbEntity
   8
LEVEL001
 370
13
 100
AcDbCircle
   6
CONTINUOUS
  62
1
  10
 2291.6573033708
  20
 5171.8539325843
  30
0.0
  40
 69.999997913838
   0
MTEXT
   5
1AE
 100
AcDbEntity
   8
LEVEL001
 370
13
  62
1
 100
AcDbMText
  10
 2291.6573033708
  20
 5171.8539325843
  30
0.0
  40
 57.142857142858
  41
0.0
  71
5
  72
1
   1
\T1.000000;3
   7
GMM001
  44
 0.79999984000003
   0
CIRCLE
   5
1AF
 100
AcDbEntity
   8
LEVEL001
 370
13
 100
AcDbCircle
   6
CONTINUOUS
  62
1
  10
 2291.6573033708
  20
 4355.9539325843
  30
0.0
  40
 69.999997913838
   0
MTEXT
   5
1B0
 100
AcDbEntity
   8
LEVEL001
 370
13
  62
1
 100
AcDbMText
  10
 2291.6573033708
  20
 4355.9539325843
  30
0.0
  40
 57.142857142858
  41
0.0
  71
5
  72
1
   1
\T1.000000;1
   7
GMM001
  44
 0.79999984000003
   0
CIRCLE
   5
1B1
 100
AcDbEntity
   8
LEVEL001
 370
13
 100
AcDbCircle
   6
CONTINUOUS
  62
1
  10
 2091.6573033708
  20
 4355.9539325843
  30
0.0
  40
 69.999997913838
   0
MTEXT
   5
1B2
 100
AcDbEntity
   8
LEVEL001
 370
13
  62
1
 100
AcDbMText
  10
 2091.6573033708
  20
 4355.9539325843
  30
0.0
  40
 57.142857142858
  41
0.0
  71
5
  72
1
   1
\T1.000000;4
   7
GMM001
  44
 0.79999984000003
   0
LINE
   5
1B3
 100
AcDbEntity
   8
LEVEL001
 370
13
 100
AcDbLine
   6
DASHDOT
  62
6
  10
 1421.6573111447
  20
 4674.3538910561
  30
0.0
  11
 1451.6573111447
  21
 4674.3538910561
  31
0.0
   0
LINE
   5
1B4
 100
AcDbEntity
   8
LEVEL001
 370
13
 100
AcDbLine
   6
DASHDOT
  62
6
  10
 1421.6573111447
  20
 4614.3538910561
  30
0.0
  11
 1451.6573111447
  21
 4614.3538910561
  31
0.0
   0
LINE
   5
1B5
 100
AcDbEntity
   8
LEVEL001
 370
13
 100
AcDbLine
   6
CONTINUOUS
  62
7
  10
 1416.6573111447
  20
 4699.3538910561
  30
0.0
  11
 1533.0073033708
  21
 4699.3538910561
  31
0.0
   0
LINE
   5
1B6
 100
AcDbEntity
   8
LEVEL001
 370
13
 100
AcDbLine
   6
CONTINUOUS
  62
7
  10
 1533.0073033708
  20
 4699.3538910561
  30
0.0
  11
 1533.0073033708
  21
 4664.3538910561
  31
0.0
   0
LINE
   5
1B7
 100
AcDbEntity
   8
LEVEL001
 370
13
 100
AcDbLine
   6
CONTINUOUS
  62
7
  10
 1533.0073033708
  20
 4604.3538910561
  30
0.0
  11
 1533.0073033708
  21
 4589.3538910561
  31
0.0
   0
LINE
   5
1B8
 100
AcDbEntity
   8
LEVEL001
 370
13
 100
AcDbLine
   6
CONTINUOUS
  62
7
  10
 1533.0073033708
  20
 4589.3538910561
  30
0.0
  11
 1416.6573111447
  21
 4589.3538910561
  31
0.0
   0
LINE
   5
1B9
 100
AcDbEntity
   8
LEVEL001
 370
13
 100
AcDbLine
   6
CONTINUOUS
  62
7
  10
 1416.6573111447
  20
 4589.3538910561
  30
0.0
  11
 1416.6573111447
  21
 4699.3538910561
  31
0.0
   0
LINE
   5
1BA
 100
AcDbEntity
   8
LEVEL001
 370
13
 100
AcDbLine
   6
DASHDOT
  62
6
  10
 1531.6572955969
  20
 4784.3538910561
  30
0.0
  11
 1561.6572955969
  21
 4784.3538910561
  31
0.0
   0
LINE
   5
1BB
 100
AcDbEntity
   8
LEVEL001
 370
13
 100
AcDbLine
   6
DASHDOT
  62
6
  10
 1546.6572955969
  20
 4799.3538910561
  30
0.0
  11
 1546.6572955969
  21
 4769.3538910561
  31
0.0
   0
LINE
   5
1BC
 100
AcDbEntity
   8
LEVEL001
 370
13
 100
AcDbLine
   6
DASHDOT
  62
6
  10
 1531.6572955969
  20
 4724.3538910561
  30
0.0
  11
 1561.6572955969
  21
 4724.3538910561
  31
0.0
   0
LINE
   5
1BD
 100
AcDbEntity
   8
LEVEL001
 370
13
 100
AcDbLine
   6
DASHDOT
  62
6
  10
 1546.6572955969
  20
 4739.3538910561
  30
0.0
  11
 1546.6572955969
  21
 4709.3538910561
  31
0.0
   0
LINE
   5
1BE
 100
AcDbEntity
   8
LEVEL001
 370
13
 100
AcDbLine
   6
CONTINUOUS
  62
3
  10
 1539.6572955969
  20
 4777.3538910561
  30
0.0
  11
 1553.6572955969
  21
 4777.3538910561
  31
0.0
   0
LINE
   5
1BF
 100
AcDbEntity
   8
LEVEL001
 370
13
 100
AcDbLine
   6
CONTINUOUS
  62
3
  10
 1553.6572955969
  20
 4777.3538910561
  30
0.0
  11
 1553.6572955969
  21
 4791.3538910561
  31
0.0
   0
LINE
   5
1C0
 100
AcDbEntity
   8
LEVEL001
 370
13
 100
AcDbLine
   6
CONTINUOUS
  62
3
  10
 1553.6572955969
  20
 4791.3538910561
  30
0.0
  11
 1539.6572955969
  21
 4791.3538910561
  31
0.0
   0
LINE
   5
1C1
 100
AcDbEntity
   8
LEVEL001
 370
13
 100
AcDbLine
   6
CONTINUOUS
  62
3
  10
 1539.6572955969
  20
 4791.3538910561
  30
0.0
  11
 1539.6572955969
  21
 4777.3538910561
  31
0.0
   0
LINE
   5
1C2
 100
AcDbEntity
   8
LEVEL001
 370
13
 100
AcDbLine
   6
CONTINUOUS
  62
3
  10
 1539.6572955969
  20
 4717.3538910561
  30
0.0
  11
 1553.6572955969
  21
 4717.3538910561
  31
0.0
   0
LINE
   5
1C3
 100
AcDbEntity
   8
LEVEL001
 370
13
 100
AcDbLine
   6
CONTINUOUS
  62
3
  10
 1553.6572955969
  20
 4717.3538910561
  30
0.0
  11
 1553.6572955969
  21
 4731.3538910561
  31
0.0
   0
LINE
   5
1C4
 100
AcDbEntity
   8
LEVEL001
 370
13
 100
AcDbLine
   6
CONTINUOUS
  62
3
  10
 1553.6572955969
  20
 4731.3538910561
  30
0.0
  11
 1539.6572955969
  21
 4731.3538910561
  31
0.0
   0
LINE
   5
1C5
 100
AcDbEntity
   8
LEVEL001
 370
13
 100
AcDbLine
   6
CONTINUOUS
  62
3
  10
 1539.6572955969
  20
 4731.3538910561
  30
0.0
  11
 1539.6572955969
  21
 4717.3538910561
  31
0.0
   0
LINE
   5
1C6
 100
AcDbEntity
   8
LEVEL001
 370
13
 100
AcDbLine
   6
CONTINUOUS
  62
7
  10
 1450.3073033708
  20
 4718.0788961065
  30
0.0
  11
 1450.3073033708
  21
 4699.3538910561
  31
0.0
   0
LINE
   5
1C7
 100
AcDbEntity
   8
LEVEL001
 370
13
 100
AcDbLine
   6
CONTINUOUS
  62
7
  10
 1450.3073033708
  20
 4699.3538910561
  30
0.0
  11
 1566.6572955969
  21
 4699.3538910561
  31
0.0
   0
LINE
   5
1C8
 100
AcDbEntity
   8
LEVEL001
 370
13
 100
AcDbLine
   6
CONTINUOUS
  62
7
  10
 1566.6572955969
  20
 4699.3538910561
  30
0.0
  11
 1566.6572955969
  21
 4809.3538910561
  31
0.0
   0
LINE
   5
1C9
 100
AcDbEntity
   8
LEVEL001
 370
13
 100
AcDbLine
   6
CONTINUOUS
  62
7
  10
 1566.6572955969
  20
 4809.3538910561
  30
0.0
  11
 1450.3073033708
  21
 4809.3538910561
  31
0.0
   0
LINE
   5
1CA
 100
AcDbEntity
   8
LEVEL001
 370
13
 100
AcDbLine
   6
CONTINUOUS
  62
7
  10
 1450.3073033708
  20
 4809.3538910561
  30
0.0
  11
 1450.3073033708
  21
 4788.8296003081
  31
0.0
   0
LINE
   5
1CB
 100
AcDbEntity
   8
LEVEL001
 370
13
 100
AcDbLine
   6
CONTINUOUS
  62
6
  10
 1527.0122046924
  20
 4804.3538910561
  30
0.0
  11
 1527.0122046924
  21
 4704.3538910561
  31
0.0
   0
LINE
   5
1CC
 100
AcDbEntity
   8
LEVEL001
 370
13
 100
AcDbLine
   6
DASHDOT
  62
6
  10
 1436.6573111447
  20
 4689.3538910561
  30
0.0
  11
 1436.6573111447
  21
 4659.3538910561
  31
0.0
   0
LINE
   5
1CD
 100
AcDbEntity
   8
LEVEL001
 370
13
 100
AcDbLine
   6
DASHDOT
  62
6
  10
 1436.6573111447
  20
 4629.3538910561
  30
0.0
  11
 1436.6573111447
  21
 4599.3538910561
  31
0.0
   0
LINE
   5
1CE
 100
AcDbEntity
   8
LEVEL001
 370
13
 100
AcDbLine
   6
CONTINUOUS
  62
3
  10
 1443.6573111447
  20
 4667.3538910561
  30
0.0
  11
 1429.6573111447
  21
 4667.3538910561
  31
0.0
   0
LINE
   5
1CF
 100
AcDbEntity
   8
LEVEL001
 370
13
 100
AcDbLine
   6
CONTINUOUS
  62
3
  10
 1429.6573111447
  20
 4667.3538910561
  30
0.0
  11
 1429.6573111447
  21
 4681.3538910561
  31
0.0
   0
LINE
   5
1D0
 100
AcDbEntity
   8
LEVEL001
 370
13
 100
AcDbLine
   6
CONTINUOUS
  62
3
  10
 1429.6573111447
  20
 4681.3538910561
  30
0.0
  11
 1443.6573111447
  21
 4681.3538910561
  31
0.0
   0
LINE
   5
1D1
 100
AcDbEntity
   8
LEVEL001
 370
13
 100
AcDbLine
   6
CONTINUOUS
  62
3
  10
 1443.6573111447
  20
 4681.3538910561
  30
0.0
  11
 1443.6573111447
  21
 4667.3538910561
  31
0.0
   0
LINE
   5
1D2
 100
AcDbEntity
   8
LEVEL001
 370
13
 100
AcDbLine
   6
CONTINUOUS
  62
3
  10
 1443.6573111447
  20
 4607.3538910561
  30
0.0
  11
 1429.6573111447
  21
 4607.3538910561
  31
0.0
   0
LINE
   5
1D3
 100
AcDbEntity
   8
LEVEL001
 370
13
 100
AcDbLine
   6
CONTINUOUS
  62
3
  10
 1429.6573111447
  20
 4607.3538910561
  30
0.0
  11
 1429.6573111447
  21
 4621.3538910561
  31
0.0
   0
LINE
   5
1D4
 100
AcDbEntity
   8
LEVEL001
 370
13
 100
AcDbLine
   6
CONTINUOUS
  62
3
  10
 1429.6573111447
  20
 4621.3538910561
  30
0.0
  11
 1443.6573111447
  21
 4621.3538910561
  31
0.0
   0
LINE
   5
1D5
 100
AcDbEntity
   8
LEVEL001
 370
13
 100
AcDbLine
   6
CONTINUOUS
  62
3
  10
 1443.6573111447
  20
 4621.3538910561
  30
0.0
  11
 1443.6573111447
  21
 4607.3538910561
  31
0.0
   0
LINE
   5
1D6
 100
AcDbEntity
   8
LEVEL001
 370
13
 100
AcDbLine
   6
CONTINUOUS
  62
6
  10
 1456.3024020492
  20
 4694.3538910561
  30
0.0
  11
 1456.3024020492
  21
 4594.3538910561
  31
0.0
   0
MTEXT
   5
1D8
 100
AcDbEntity
   8
LEVEL001
 370
13
  62
1
 100
AcDbMText
  10
 1112.3059085803
  20
 1982.1838696246
  30
0.0
  40
 40.000000000000
  41
0.0
  71
7
  72
1
   1
\T1.000000;ＧＬ
   7
GMM003
  44
 0.79999984000003
   0
LINE
   5
1D9
 100
AcDbEntity
   8
LEVEL001
 370
13
 100
AcDbLine
   6
CONTINUOUS
  62
1
  10
 1084.1572381355
  20
 1973.4539325843
  30
0.0
  11
 1059.1572381355
  21
 2023.4539325843
  31
0.0
   0
LINE
   5
1DA
 100
AcDbEntity
   8
LEVEL001
 370
13
 100
AcDbLine
   6
CONTINUOUS
  62
1
  10
 1059.1572381355
  20
 2023.4539325843
  30
0.0
  11
 1109.1572381355
  21
 2023.4539325843
  31
0.0
   0
LINE
   5
1DB
 100
AcDbEntity
   8
LEVEL001
 370
13
 100
AcDbLine
   6
CONTINUOUS
  62
1
  10
 1109.1572381355
  20
 2023.4539325843
  30
0.0
  11
 1084.1572381355
  21
 1973.4539325843
  31
0.0
   0
CIRCLE
   5
1DC
 100
AcDbEntity
   8
LEVEL001
 370
13
 100
AcDbCircle
   6
CONTINUOUS
  62
1
  10
 1741.6573033708
  20
 2773.4539325843
  30
0.0
  40
 70.000000000000
   0
MTEXT
   5
1DD
 100
AcDbEntity
   8
LEVEL001
 370
13
  62
1
 100
AcDbMText
  10
 1741.6573033708
  20
 2773.4539325843
  30
0.0
  40
 57.142857142858
  41
0.0
  71
5
  72
1
   1
\T1.000000;11
   7
GMM001
  44
 0.79999984000003
   0
LINE
   5
1DE
 100
AcDbEntity
   8
LEVEL001
 370
13
 100
AcDbLine
   6
CONTINUOUS
  62
7
  10
 1529.8073033708
  20
 5077.4539325843
  30
0.0
  11
 1453.5073033708
  21
 5077.4539325843
  31
0.0
   0
LINE
   5
1DF
 100
AcDbEntity
   8
LEVEL001
 370
13
 100
AcDbLine
   6
CONTINUOUS
  62
7
  10
 1453.5073033708
  20
 5077.4539325843
  30
0.0
  11
 1453.5073033708
  21
 5074.4539325843
  31
0.0
   0
LINE
   5
1E0
 100
AcDbEntity
   8
LEVEL001
 370
13
 100
AcDbLine
   6
CONTINUOUS
  62
7
  10
 1453.5073033708
  20
 5074.4539325843
  30
0.0
  11
 1529.8073033708
  21
 5074.4539325843
  31
0.0
   0
LINE
   5
1E1
 100
AcDbEntity
   8
LEVEL001
 370
13
 100
AcDbLine
   6
CONTINUOUS
  62
7
  10
 1529.8073033708
  20
 5074.4539325843
  30
0.0
  11
 1529.8073033708
  21
 5077.4539325843
  31
0.0
   0
LINE
   5
1E2
 100
AcDbEntity
   8
LEVEL001
 370
13
 100
AcDbLine
   6
DOT
  62
1
  10
 1524.8073033708
  20
 5074.4539325843
  30
0.0
  11
 1524.8073033708
  21
 5047.4539325843
  31
0.0
   0
LINE
   5
1E3
 100
AcDbEntity
   8
LEVEL001
 370
13
 100
AcDbLine
   6
DOT
  62
1
  10
 1524.8073033708
  20
 5047.4539325843
  30
0.0
  11
 1458.5073033708
  21
 5047.4539325843
  31
0.0
   0
LINE
   5
1E4
 100
AcDbEntity
   8
LEVEL001
 370
13
 100
AcDbLine
   6
DOT
  62
1
  10
 1458.5073033708
  20
 5047.4539325843
  30
0.0
  11
 1458.5073033708
  21
 5074.4539325843
  31
0.0
   0
LINE
   5
1E5
 100
AcDbEntity
   8
LEVEL001
 370
13
 100
AcDbLine
   6
CONTINUOUS
  62
7
  10
 1529.8073033708
  20
 4809.3538910561
  30
0.0
  11
 1529.8073033708
  21
 5073.4539325843
  31
0.0
   0
LINE
   5
1E6
 100
AcDbEntity
   8
LEVEL001
 370
13
 100
AcDbLine
   6
CONTINUOUS
  62
7
  10
 1529.8073033708
  20
 5073.4539325843
  30
0.0
  11
 1453.5073033708
  21
 5073.4539325843
  31
0.0
   0
LINE
   5
1E7
 100
AcDbEntity
   8
LEVEL001
 370
13
 100
AcDbLine
   6
CONTINUOUS
  62
7
  10
 1453.5073033708
  20
 5073.4539325843
  30
0.0
  11
 1453.5073033708
  21
 4809.3538910561
  31
0.0
   0
LINE
   5
1E8
 100
AcDbEntity
   8
LEVEL001
 370
13
 100
AcDbLine
   6
DASHDOT
  62
6
  10
 1491.6573033708
  20
 5123.4539325843
  30
0.0
  11
 1491.6573033708
  21
 973.45393258429
  31
0.0
   0
LINE
   5
1E9
 100
AcDbEntity
   8
LEVEL001
 370
13
 100
AcDbLine
   6
DASHDOT
  62
6
  10
 1431.6572852851
  20
 1473.4539325843
  30
0.0
  11
 1551.6572852851
  21
 1473.4539325843
  31
0.0
   0
CIRCLE
   5
1EA
 100
AcDbEntity
   8
LEVEL001
 370
13
 100
AcDbCircle
   6
CONTINUOUS
  62
7
  10
 1491.6572695687
  20
 1373.4539325843
  30
0.0
  40
 7.5000000000000
   0
LINE
   5
1EB
 100
AcDbEntity
   8
LEVEL001
 370
13
 100
AcDbLine
   6
DASHDOT
  62
6
  10
 1461.6572695687
  20
 1373.4539325843
  30
0.0
  11
 1521.6572695687
  21
 1373.4539325843
  31
0.0
   0
LINE
   5
1EC
 100
AcDbEntity
   8
LEVEL001
 370
13
 100
AcDbLine
   6
CONTINUOUS
  62
7
  10
 1453.5073033708
  20
 1073.4539325843
  30
0.0
  11
 1529.8073033708
  21
 1073.4539325843
  31
0.0
   0
MTEXT
   5
1ED
 100
AcDbEntity
   8
LEVEL001
 370
13
  62
1
 100
AcDbMText
  10
 4491.6573033708
  20
 5521.8539325843
  30
0.0
  40
 57.142857142858
  41
0.0
  71
5
  72
1
   1
\T1.000000;背　面　図
   7
GMM001
  44
 0.79999984000003
   0
MTEXT
   5
1EE
 100
AcDbEntity
   8
LEVEL001
 370
13
  62
1
 100
AcDbMText
  10
 1491.6573033708
  20
 5521.8539325843
  30
0.0
  40
 57.142857142858
  41
0.0
  71
5
  72
1
   1
\T1.000000;正　面　図
   7
GMM001
  44
 0.79999984000003
   0
LINE
   5
1EF
 100
AcDbEntity
   8
LEVEL001
 370
13
 100
AcDbLine
   6
DASHDOT
  62
6
  10
 4441.6573033708
  20
 4786.8539325843
  30
0.0
  11
 4441.6573033708
  21
 4756.8539325843
  31
0.0
   0
LINE
   5
1F0
 100
AcDbEntity
   8
LEVEL001
 370
13
 100
AcDbLine
   6
DASHDOT
  62
6
  10
 4426.6573033708
  20
 4771.8539325843
  30
0.0
  11
 4456.6573033708
  21
 4771.8539325843
  31
0.0
   0
LINE
   5
1F1
 100
AcDbEntity
   8
LEVEL001
 370
13
 100
AcDbLine
   6
DASHDOT
  62
6
  10
 4541.6573033708
  20
 4786.8539325843
  30
0.0
  11
 4541.6573033708
  21
 4756.8539325843
  31
0.0
   0
LINE
   5
1F2
 100
AcDbEntity
   8
LEVEL001
 370
13
 100
AcDbLine
   6
DASHDOT
  62
6
  10
 4526.6573033708
  20
 4771.8539325843
  30
0.0
  11
 4556.6573033708
  21
 4771.8539325843
  31
0.0
   0
LINE
   5
1F3
 100
AcDbEntity
   8
LEVEL001
 370
13
 100
AcDbLine
   6
DASHDOT
  62
6
  10
 4541.6573033708
  20
 4686.8539325843
  30
0.0
  11
 4541.6573033708
  21
 4656.8539325843
  31
0.0
   0
LINE
   5
1F4
 100
AcDbEntity
   8
LEVEL001
 370
13
 100
AcDbLine
   6
DASHDOT
  62
6
  10
 4526.6573033708
  20
 4671.8539325843
  30
0.0
  11
 4556.6573033708
  21
 4671.8539325843
  31
0.0
   0
LINE
   5
1F5
 100
AcDbEntity
   8
LEVEL001
 370
13
 100
AcDbLine
   6
DASHDOT
  62
6
  10
 4441.6573033708
  20
 4686.8539325843
  30
0.0
  11
 4441.6573033708
  21
 4656.8539325843
  31
0.0
   0
LINE
   5
1F6
 100
AcDbEntity
   8
LEVEL001
 370
13
 100
AcDbLine
   6
DASHDOT
  62
6
  10
 4426.6573033708
  20
 4671.8539325843
  30
0.0
  11
 4456.6573033708
  21
 4671.8539325843
  31
0.0
   0
LINE
   5
1F7
 100
AcDbEntity
   8
LEVEL001
 370
13
 100
AcDbLine
   6
DASHDOT
  62
6
  10
 4541.6573033708
  20
 4686.8539325843
  30
0.0
  11
 4541.6573033708
  21
 4656.8539325843
  31
0.0
   0
LINE
   5
1F8
 100
AcDbEntity
   8
LEVEL001
 370
13
 100
AcDbLine
   6
DASHDOT
  62
6
  10
 4526.6573033708
  20
 4671.8539325843
  30
0.0
  11
 4556.6573033708
  21
 4671.8539325843
  31
0.0
   0
LINE
   5
1F9
 100
AcDbEntity
   8
LEVEL001
 370
13
 100
AcDbLine
   6
DASHDOT
  62
6
  10
 4441.6573033708
  20
 4686.8539325843
  30
0.0
  11
 4441.6573033708
  21
 4656.8539325843
  31
0.0
   0
LINE
   5
1FA
 100
AcDbEntity
   8
LEVEL001
 370
13
 100
AcDbLine
   6
DASHDOT
  62
6
  10
 4426.6573033708
  20
 4671.8539325843
  30
0.0
  11
 4456.6573033708
  21
 4671.8539325843
  31
0.0
   0
CIRCLE
   5
1FB
 100
AcDbEntity
   8
LEVEL001
 370
13
 100
AcDbCircle
   6
CONTINUOUS
  62
3
  10
 4541.6573033708
  20
 4771.8539325843
  30
0.0
  40
 7.0000000000000
   0
CIRCLE
   5
1FC
 100
AcDbEntity
   8
LEVEL001
 370
13
 100
AcDbCircle
   6
CONTINUOUS
  62
3
  10
 4541.6573033708
  20
 4671.8539325843
  30
0.0
  40
 7.0000000000000
   0
CIRCLE
   5
1FD
 100
AcDbEntity
   8
LEVEL001
 370
13
 100
AcDbCircle
   6
CONTINUOUS
  62
3
  10
 4441.6573033708
  20
 4671.8539325843
  30
0.0
  40
 7.0000000000000
   0
CIRCLE
   5
1FE
 100
AcDbEntity
   8
LEVEL001
 370
13
 100
AcDbCircle
   6
CONTINUOUS
  62
3
  10
 4441.6573033708
  20
 4771.8539325843
  30
0.0
  40
 7.0000000000000
   0
ARC
   5
1FF
 100
AcDbEntity
   8
LEVEL001
 370
13
   6
CONTINUOUS
  62
6
 100
AcDbCircle
  10
 4717.7963361732
  20
 4895.3074936409
  30
0.0
  40
 20.000000000000
 100
AcDbArc
  50
 37.488991427309
  51
 127.48899142730
   0
LINE
   5
200
 100
AcDbEntity
   8
LEVEL001
 370
13
 100
AcDbLine
   6
CONTINUOUS
  62
6
  10
 4614.3750730386
  20
 4841.1868660429
  30
0.0
  11
 4705.6241564500
  21
 4911.1768994515
  31
0.0
   0
ARC
   5
201
 100
AcDbEntity
   8
LEVEL001
 370
13
   6
CONTINUOUS
  62
6
 100
AcDbCircle
  10
 4717.7963361732
  20
 4895.3074936407
  30
0.0
  40
 20.000000000000
 100
AcDbArc
  50
 307.48899142730
  51
 37.488991427304
   0
LINE
   5
202
 100
AcDbEntity
   8
LEVEL001
 370
13
 100
AcDbLine
   6
CONTINUOUS
  62
6
  10
 4729.9685158966
  20
 4879.4380878301
  30
0.0
  11
 4638.7194324852
  21
 4809.4480544213
  31
0.0
   0
ARC
   5
203
 100
AcDbEntity
   8
LEVEL001
 370
13
   6
CONTINUOUS
  62
6
 100
AcDbCircle
  10
 4626.5472527618
  20
 4825.3174602321
  30
0.0
  40
 20.000000000000
 100
AcDbArc
  50
 217.48899142730
  51
 307.48899142730
   0
ARC
   5
204
 100
AcDbEntity
   8
LEVEL001
 370
13
   6
CONTINUOUS
  62
6
 100
AcDbCircle
  10
 4626.5472527618
  20
 4825.3174602321
  30
0.0
  40
 20.000000000000
 100
AcDbArc
  50
 127.48899142730
  51
 217.48899142730
   0
LINE
   5
205
 100
AcDbEntity
   8
LEVEL001
 370
13
 100
AcDbLine
   6
CONTINUOUS
  62
6
  10
 4623.9448689240
  20
 4749.3539325843
  30
0.0
  11
 4734.1573033708
  21
 4749.3539325843
  31
0.0
   0
ARC
   5
206
 100
AcDbEntity
   8
LEVEL001
 370
13
   6
CONTINUOUS
  62
6
 100
AcDbCircle
  10
 4734.1573033708
  20
 4721.8539325843
  30
0.0
  40
 27.500000000000
 100
AcDbArc
  50
0.0
  51
 90.000000000000
   0
ARC
   5
207
 100
AcDbEntity
   8
LEVEL001
 370
13
   6
CONTINUOUS
  62
6
 100
AcDbCircle
  10
 4734.1573033708
  20
 4721.8539325843
  30
0.0
  40
 27.500000000000
 100
AcDbArc
  50
 270.00000000000
  51
0.0
   0
LINE
   5
208
 100
AcDbEntity
   8
LEVEL001
 370
13
 100
AcDbLine
   6
CONTINUOUS
  62
6
  10
 4734.1573033708
  20
 4694.3539325843
  30
0.0
  11
 4623.9448689240
  21
 4694.3539325843
  31
0.0
   0
ARC
   5
209
 100
AcDbEntity
   8
LEVEL001
 370
13
   6
CONTINUOUS
  62
6
 100
AcDbCircle
  10
 4623.9448689240
  20
 4684.3539325843
  30
0.0
  40
 10.000000000000
 100
AcDbArc
  50
 90.000000000005
  51
 164.17337986813
   0
ARC
   5
20A
 100
AcDbEntity
   8
LEVEL001
 370
13
   6
CONTINUOUS
  62
6
 100
AcDbCircle
  10
 4491.6573033708
  20
 4721.8539325843
  30
0.0
  40
 127.50000000000
 100
AcDbArc
  50
 285.82662013187
  51
 344.17337986813
   0
ARC
   5
20B
 100
AcDbEntity
   8
LEVEL001
 370
13
   6
CONTINUOUS
  62
6
 100
AcDbCircle
  10
 4626.5472527618
  20
 4618.3904049365
  30
0.0
  40
 20.000000000000
 100
AcDbArc
  50
 52.511008572702
  51
 142.51100857270
   0
LINE
   5
20C
 100
AcDbEntity
   8
LEVEL001
 370
13
 100
AcDbLine
   6
CONTINUOUS
  62
6
  10
 4729.9685158966
  20
 4564.2697773385
  30
0.0
  11
 4638.7194324852
  21
 4634.2598107473
  31
0.0
   0
ARC
   5
20D
 100
AcDbEntity
   8
LEVEL001
 370
13
   6
CONTINUOUS
  62
6
 100
AcDbCircle
  10
 4626.5472527618
  20
 4618.3904049365
  30
0.0
  40
 20.000000000000
 100
AcDbArc
  50
 142.51100857270
  51
 232.51100857270
   0
LINE
   5
20E
 100
AcDbEntity
   8
LEVEL001
 370
13
 100
AcDbLine
   6
CONTINUOUS
  62
6
  10
 4614.3750730386
  20
 4602.5209991257
  30
0.0
  11
 4705.6241564500
  21
 4532.5309657171
  31
0.0
   0
ARC
   5
20F
 100
AcDbEntity
   8
LEVEL001
 370
13
   6
CONTINUOUS
  62
6
 100
AcDbCircle
  10
 4717.7963361732
  20
 4548.4003715279
  30
0.0
  40
 20.000000000000
 100
AcDbArc
  50
 322.51100857270
  51
 52.511008572696
   0
ARC
   5
210
 100
AcDbEntity
   8
LEVEL001
 370
13
   6
CONTINUOUS
  62
6
 100
AcDbCircle
  10
 4717.7963361732
  20
 4548.4003715277
  30
0.0
  40
 20.000000000000
 100
AcDbArc
  50
 232.51100857270
  51
 322.51100857269
   0
ARC
   5
211
 100
AcDbEntity
   8
LEVEL001
 370
13
   6
CONTINUOUS
  62
6
 100
AcDbCircle
  10
 4491.6573033708
  20
 4554.3539325843
  30
0.0
  40
 27.500000000000
 100
AcDbArc
  50
 270.00000000000
  51
0.0
   0
LINE
   5
212
 100
AcDbEntity
   8
LEVEL001
 370
13
 100
AcDbLine
   6
CONTINUOUS
  62
6
  10
 4519.1573033708
  20
 4554.3539325843
  30
0.0
  11
 4519.1573033708
  21
 4589.5663670311
  31
0.0
   0
ARC
   5
213
 100
AcDbEntity
   8
LEVEL001
 370
13
   6
CONTINUOUS
  62
6
 100
AcDbCircle
  10
 4529.1573033708
  20
 4589.5663670311
  30
0.0
  40
 10.000000000000
 100
AcDbArc
  50
 105.82662013187
  51
 180.00000000001
   0
ARC
   5
214
 100
AcDbEntity
   8
LEVEL001
 370
13
   6
CONTINUOUS
  62
6
 100
AcDbCircle
  10
 4491.6573033708
  20
 4721.8539325843
  30
0.0
  40
 127.50000000000
 100
AcDbArc
  50
 195.82662013187
  51
 254.17337986813
   0
ARC
   5
215
 100
AcDbEntity
   8
LEVEL001
 370
13
   6
CONTINUOUS
  62
6
 100
AcDbCircle
  10
 4491.6573033708
  20
 4554.3539325843
  30
0.0
  40
 27.500000000000
 100
AcDbArc
  50
 180.00000000000
  51
 270.00000000000
   0
LINE
   5
216
 100
AcDbEntity
   8
LEVEL001
 370
13
 100
AcDbLine
   6
CONTINUOUS
  62
6
  10
 4464.1573033708
  20
 4589.5663670311
  30
0.0
  11
 4464.1573033708
  21
 4554.3539325843
  31
0.0
   0
ARC
   5
217
 100
AcDbEntity
   8
LEVEL001
 370
13
   6
CONTINUOUS
  62
6
 100
AcDbCircle
  10
 4454.1573033708
  20
 4589.5663670311
  30
0.0
  40
 10.000000000000
 100
AcDbArc
  50
 359.99999999999
  51
 74.173379868132
   0
ARC
   5
218
 100
AcDbEntity
   8
LEVEL001
 370
13
   6
CONTINUOUS
  62
6
 100
AcDbCircle
  10
 4249.1573033708
  20
 4721.8539325843
  30
0.0
  40
 27.500000000000
 100
AcDbArc
  50
 180.00000000000
  51
 270.00000000000
   0
LINE
   5
219
 100
AcDbEntity
   8
LEVEL001
 370
13
 100
AcDbLine
   6
CONTINUOUS
  62
6
  10
 4249.1573033708
  20
 4694.3539325843
  30
0.0
  11
 4359.3697378176
  21
 4694.3539325843
  31
0.0
   0
ARC
   5
21A
 100
AcDbEntity
   8
LEVEL001
 370
13
   6
CONTINUOUS
  62
6
 100
AcDbCircle
  10
 4359.3697378176
  20
 4684.3539325843
  30
0.0
  40
 10.000000000000
 100
AcDbArc
  50
 15.826620131868
  51
 89.999999999984
   0
ARC
   5
21B
 100
AcDbEntity
   8
LEVEL001
 370
13
   6
CONTINUOUS
  62
6
 100
AcDbCircle
  10
 4249.1573033708
  20
 4721.8539325843
  30
0.0
  40
 27.500000000000
 100
AcDbArc
  50
 90.000000000000
  51
 180.00000000000
   0
LINE
   5
21C
 100
AcDbEntity
   8
LEVEL001
 370
13
 100
AcDbLine
   6
CONTINUOUS
  62
6
  10
 4359.3697378176
  20
 4749.3539325843
  30
0.0
  11
 4249.1573033708
  21
 4749.3539325843
  31
0.0
   0
ARC
   5
21D
 100
AcDbEntity
   8
LEVEL001
 370
13
   6
CONTINUOUS
  62
6
 100
AcDbCircle
  10
 4359.3697378176
  20
 4759.3539325843
  30
0.0
  40
 10.000000000000
 100
AcDbArc
  50
 270.00000000000
  51
 344.17337986812
   0
ARC
   5
21E
 100
AcDbEntity
   8
LEVEL001
 370
13
   6
CONTINUOUS
  62
6
 100
AcDbCircle
  10
 4491.6573033708
  20
 4721.8539325843
  30
0.0
  40
 127.50000000000
 100
AcDbArc
  50
 105.82662013187
  51
 164.17337986813
   0
ARC
   5
21F
 100
AcDbEntity
   8
LEVEL001
 370
13
   6
CONTINUOUS
  62
6
 100
AcDbCircle
  10
 4491.6573033708
  20
 4889.3539325843
  30
0.0
  40
 27.500000000000
 100
AcDbArc
  50
 90.000000000000
  51
 180.00000000000
   0
LINE
   5
220
 100
AcDbEntity
   8
LEVEL001
 370
13
 100
AcDbLine
   6
CONTINUOUS
  62
6
  10
 4464.1573033708
  20
 4854.1414981375
  30
0.0
  11
 4464.1573033708
  21
 4889.3539325843
  31
0.0
   0
ARC
   5
221
 100
AcDbEntity
   8
LEVEL001
 370
13
   6
CONTINUOUS
  62
6
 100
AcDbCircle
  10
 4454.1573033708
  20
 4854.1414981375
  30
0.0
  40
 10.000000000000
 100
AcDbArc
  50
 285.82662013187
  51
 359.99999999999
   0
ARC
   5
222
 100
AcDbEntity
   8
LEVEL001
 370
13
   6
CONTINUOUS
  62
6
 100
AcDbCircle
  10
 4491.6573033708
  20
 4889.3539325843
  30
0.0
  40
 27.500000000000
 100
AcDbArc
  50
0.0
  51
 90.000000000000
   0
LINE
   5
223
 100
AcDbEntity
   8
LEVEL001
 370
13
 100
AcDbLine
   6
CONTINUOUS
  62
6
  10
 4519.1573033708
  20
 4889.3539325843
  30
0.0
  11
 4519.1573033708
  21
 4854.1414981375
  31
0.0
   0
ARC
   5
224
 100
AcDbEntity
   8
LEVEL001
 370
13
   6
CONTINUOUS
  62
6
 100
AcDbCircle
  10
 4529.1573033708
  20
 4854.1414981375
  30
0.0
  40
 10.000000000000
 100
AcDbArc
  50
 180.00000000001
  51
 254.17337986813
   0
ARC
   5
225
 100
AcDbEntity
   8
LEVEL001
 370
13
   6
CONTINUOUS
  62
6
 100
AcDbCircle
  10
 4623.9448689240
  20
 4759.3539325843
  30
0.0
  40
 10.000000000000
 100
AcDbArc
  50
 195.82662013188
  51
 270.00000000000
   0
ARC
   5
226
 100
AcDbEntity
   8
LEVEL001
 370
13
   6
CONTINUOUS
  62
6
 100
AcDbCircle
  10
 4491.6573033708
  20
 4721.8539325843
  30
0.0
  40
 127.50000000000
 100
AcDbArc
  50
 15.826620131872
  51
 74.173379868127
   0
ARC
   5
227
 100
AcDbEntity
   8
LEVEL001
 370
13
   6
CONTINUOUS
  62
6
 100
AcDbCircle
  10
 4356.7673539798
  20
 4825.3174602321
  30
0.0
  40
 20.000000000000
 100
AcDbArc
  50
 322.51100857269
  51
 52.511008572704
   0
LINE
   5
228
 100
AcDbEntity
   8
LEVEL001
 370
13
 100
AcDbLine
   6
CONTINUOUS
  62
6
  10
 4253.3460908450
  20
 4879.4380878301
  30
0.0
  11
 4344.5951742564
  21
 4809.4480544213
  31
0.0
   0
ARC
   5
229
 100
AcDbEntity
   8
LEVEL001
 370
13
   6
CONTINUOUS
  62
6
 100
AcDbCircle
  10
 4356.7673539798
  20
 4825.3174602321
  30
0.0
  40
 20.000000000000
 100
AcDbArc
  50
 232.51100857270
  51
 322.51100857270
   0
LINE
   5
22A
 100
AcDbEntity
   8
LEVEL001
 370
13
 100
AcDbLine
   6
CONTINUOUS
  62
6
  10
 4368.9395337030
  20
 4841.1868660429
  30
0.0
  11
 4277.6904502916
  21
 4911.1768994515
  31
0.0
   0
ARC
   5
22B
 100
AcDbEntity
   8
LEVEL001
 370
13
   6
CONTINUOUS
  62
6
 100
AcDbCircle
  10
 4265.5182705684
  20
 4895.3074936409
  30
0.0
  40
 20.000000000000
 100
AcDbArc
  50
 52.511008572693
  51
 142.51100857270
   0
ARC
   5
22C
 100
AcDbEntity
   8
LEVEL001
 370
13
   6
CONTINUOUS
  62
6
 100
AcDbCircle
  10
 4265.5182705684
  20
 4895.3074936407
  30
0.0
  40
 20.000000000000
 100
AcDbArc
  50
 142.51100857270
  51
 232.51100857270
   0
ARC
   5
22D
 100
AcDbEntity
   8
LEVEL001
 370
13
   6
CONTINUOUS
  62
6
 100
AcDbCircle
  10
 4356.7673539798
  20
 4618.3904049365
  30
0.0
  40
 20.000000000000
 100
AcDbArc
  50
 37.488991427300
  51
 127.48899142730
   0
ARC
   5
22E
 100
AcDbEntity
   8
LEVEL001
 370
13
   6
CONTINUOUS
  62
6
 100
AcDbCircle
  10
 4356.7673539798
  20
 4618.3904049365
  30
0.0
  40
 20.000000000000
 100
AcDbArc
  50
 307.48899142730
  51
 37.488991427306
   0
LINE
   5
22F
 100
AcDbEntity
   8
LEVEL001
 370
13
 100
AcDbLine
   6
CONTINUOUS
  62
6
  10
 4253.3460908450
  20
 4564.2697773385
  30
0.0
  11
 4344.5951742564
  21
 4634.2598107473
  31
0.0
   0
LINE
   5
230
 100
AcDbEntity
   8
LEVEL001
 370
13
 100
AcDbLine
   6
CONTINUOUS
  62
6
  10
 4368.9395337030
  20
 4602.5209991257
  30
0.0
  11
 4277.6904502916
  21
 4532.5309657171
  31
0.0
   0
ARC
   5
231
 100
AcDbEntity
   8
LEVEL001
 370
13
   6
CONTINUOUS
  62
6
 100
AcDbCircle
  10
 4265.5182705684
  20
 4548.4003715277
  30
0.0
  40
 20.000000000000
 100
AcDbArc
  50
 217.48899142730
  51
 307.48899142730
   0
ARC
   5
232
 100
AcDbEntity
   8
LEVEL001
 370
13
   6
CONTINUOUS
  62
6
 100
AcDbCircle
  10
 4265.5182705684
  20
 4548.4003715279
  30
0.0
  40
 20.000000000000
 100
AcDbArc
  50
 127.48899142730
  51
 217.48899142729
   0
ARC
   5
233
 100
AcDbEntity
   8
LEVEL001
 370
13
   6
CONTINUOUS
  62
7
 100
AcDbCircle
  10
 4369.7967273012
  20
 4759.3539325843
  30
0.0
  40
 25.000000000000
 100
AcDbArc
  50
 270.00000000000
  51
 342.89536482335
   0
ARC
   5
234
 100
AcDbEntity
   8
LEVEL001
 370
13
   6
CONTINUOUS
  62
7
 100
AcDbCircle
  10
 4369.7967273012
  20
 4684.3539325843
  30
0.0
  40
 25.000000000000
 100
AcDbArc
  50
 17.104635176643
  51
 90.000000000000
   0
ARC
   5
235
 100
AcDbEntity
   8
LEVEL001
 370
13
   6
CONTINUOUS
  62
7
 100
AcDbCircle
  10
 4491.6573033708
  20
 4721.8539325843
  30
0.0
  40
 102.50000000000
 100
AcDbArc
  50
 197.10463517664
  51
 252.89536482336
   0
ARC
   5
236
 100
AcDbEntity
   8
LEVEL001
 370
13
   6
CONTINUOUS
  62
7
 100
AcDbCircle
  10
 4613.5178794404
  20
 4684.3539325843
  30
0.0
  40
 25.000000000000
 100
AcDbArc
  50
 89.999999999996
  51
 162.89536482336
   0
ARC
   5
237
 100
AcDbEntity
   8
LEVEL001
 370
13
   6
CONTINUOUS
  62
7
 100
AcDbCircle
  10
 4491.6573033708
  20
 4721.8539325843
  30
0.0
  40
 102.50000000000
 100
AcDbArc
  50
 287.10463517664
  51
 342.89536482336
   0
ARC
   5
238
 100
AcDbEntity
   8
LEVEL001
 370
13
   6
CONTINUOUS
  62
7
 100
AcDbCircle
  10
 4613.5178794404
  20
 4759.3539325843
  30
0.0
  40
 25.000000000000
 100
AcDbArc
  50
 197.10463517665
  51
 270.00000000000
   0
ARC
   5
239
 100
AcDbEntity
   8
LEVEL001
 370
13
   6
CONTINUOUS
  62
7
 100
AcDbCircle
  10
 4529.1573033708
  20
 4843.7145086539
  30
0.0
  40
 25.000000000000
 100
AcDbArc
  50
 180.00000000000
  51
 252.89536482336
   0
ARC
   5
23A
 100
AcDbEntity
   8
LEVEL001
 370
13
   6
CONTINUOUS
  62
7
 100
AcDbCircle
  10
 4491.6573033708
  20
 4721.8539325843
  30
0.0
  40
 102.50000000000
 100
AcDbArc
  50
 17.104635176642
  51
 72.895364823354
   0
ARC
   5
23B
 100
AcDbEntity
   8
LEVEL001
 370
13
   6
CONTINUOUS
  62
7
 100
AcDbCircle
  10
 4454.1573033708
  20
 4843.7145086539
  30
0.0
  40
 25.000000000000
 100
AcDbArc
  50
 287.10463517664
  51
 0.20844083160439E-11
   0
ARC
   5
23C
 100
AcDbEntity
   8
LEVEL001
 370
13
   6
CONTINUOUS
  62
7
 100
AcDbCircle
  10
 4491.6573033708
  20
 4721.8539325843
  30
0.0
  40
 102.50000000000
 100
AcDbArc
  50
 107.10463517664
  51
 162.89536482336
   0
LINE
   5
23D
 100
AcDbEntity
   8
LEVEL001
 370
13
 100
AcDbLine
   6
CONTINUOUS
  62
7
  10
 4369.7967273012
  20
 4734.3539325843
  30
0.0
  11
 4251.6573033708
  21
 4734.3539325843
  31
0.0
   0
ARC
   5
23E
 100
AcDbEntity
   8
LEVEL001
 370
13
   6
CONTINUOUS
  62
7
 100
AcDbCircle
  10
 4251.6573033708
  20
 4721.8539325843
  30
0.0
  40
 12.500000000000
 100
AcDbArc
  50
 90.000000000000
  51
 180.00000000000
   0
LINE
   5
23F
 100
AcDbEntity
   8
LEVEL001
 370
13
 100
AcDbLine
   6
CONTINUOUS
  62
7
  10
 4251.6573033708
  20
 4709.3539325843
  30
0.0
  11
 4369.7967273012
  21
 4709.3539325843
  31
0.0
   0
ARC
   5
240
 100
AcDbEntity
   8
LEVEL001
 370
13
   6
CONTINUOUS
  62
7
 100
AcDbCircle
  10
 4251.6573033708
  20
 4721.8539325843
  30
0.0
  40
 12.500000000000
 100
AcDbArc
  50
 180.00000000000
  51
 270.00000000000
   0
LINE
   5
241
 100
AcDbEntity
   8
LEVEL001
 370
13
 100
AcDbLine
   6
CONTINUOUS
  62
7
  10
 4479.1573033708
  20
 4843.7145086539
  30
0.0
  11
 4479.1573033708
  21
 4886.8539325843
  31
0.0
   0
ARC
   5
242
 100
AcDbEntity
   8
LEVEL001
 370
13
   6
CONTINUOUS
  62
7
 100
AcDbCircle
  10
 4491.6573033708
  20
 4886.8539325843
  30
0.0
  40
 12.500000000000
 100
AcDbArc
  50
 90.000000000000
  51
 180.00000000000
   0
LINE
   5
243
 100
AcDbEntity
   8
LEVEL001
 370
13
 100
AcDbLine
   6
CONTINUOUS
  62
7
  10
 4504.1573033708
  20
 4886.8539325843
  30
0.0
  11
 4504.1573033708
  21
 4843.7145086539
  31
0.0
   0
ARC
   5
244
 100
AcDbEntity
   8
LEVEL001
 370
13
   6
CONTINUOUS
  62
7
 100
AcDbCircle
  10
 4491.6573033708
  20
 4886.8539325843
  30
0.0
  40
 12.500000000000
 100
AcDbArc
  50
0.0
  51
 90.000000000000
   0
LINE
   5
245
 100
AcDbEntity
   8
LEVEL001
 370
13
 100
AcDbLine
   6
CONTINUOUS
  62
7
  10
 4613.5178794404
  20
 4734.3539325843
  30
0.0
  11
 4731.6573033708
  21
 4734.3539325843
  31
0.0
   0
LINE
   5
246
 100
AcDbEntity
   8
LEVEL001
 370
13
 100
AcDbLine
   6
CONTINUOUS
  62
7
  10
 4731.6573033708
  20
 4709.3539325843
  30
0.0
  11
 4613.5178794404
  21
 4709.3539325843
  31
0.0
   0
ARC
   5
247
 100
AcDbEntity
   8
LEVEL001
 370
13
   6
CONTINUOUS
  62
7
 100
AcDbCircle
  10
 4628.5309284882
  20
 4826.8389826977
  30
0.0
  40
 7.4999999999998
 100
AcDbArc
  50
 127.48899142732
  51
 217.48899142731
   0
ARC
   5
248
 100
AcDbEntity
   8
LEVEL001
 370
13
   6
CONTINUOUS
  62
7
 100
AcDbCircle
  10
 4628.5309284884
  20
 4826.8389826977
  30
0.0
  40
 7.4999999999998
 100
AcDbArc
  50
 217.48899142730
  51
 307.48899142728
   0
LINE
   5
249
 100
AcDbEntity
   8
LEVEL001
 370
13
 100
AcDbLine
   6
CONTINUOUS
  62
7
  10
 4350.2191108570
  20
 4820.8879555187
  30
0.0
  11
 4262.9373788982
  21
 4887.8349439965
  31
0.0
   0
ARC
   5
24A
 100
AcDbEntity
   8
LEVEL001
 370
13
   6
CONTINUOUS
  62
7
 100
AcDbCircle
  10
 4267.5019462944
  20
 4893.7859711755
  30
0.0
  40
 7.4999999999998
 100
AcDbArc
  50
 142.51100857269
  51
 232.51100857270
   0
LINE
   5
24B
 100
AcDbEntity
   8
LEVEL001
 370
13
 100
AcDbLine
   6
CONTINUOUS
  62
7
  10
 4272.0665136908
  20
 4899.7369983545
  30
0.0
  11
 4359.3482456496
  21
 4832.7900098767
  31
0.0
   0
ARC
   5
24C
 100
AcDbEntity
   8
LEVEL001
 370
13
   6
CONTINUOUS
  62
7
 100
AcDbCircle
  10
 4267.5019462946
  20
 4893.7859711755
  30
0.0
  40
 7.4999999999998
 100
AcDbArc
  50
 52.511008572708
  51
 142.51100857268
   0
ARC
   5
24D
 100
AcDbEntity
   8
LEVEL001
 370
13
   6
CONTINUOUS
  62
7
 100
AcDbCircle
  10
 4354.7836782534
  20
 4826.8389826977
  30
0.0
  40
 7.4999999999998
 100
AcDbArc
  50
 322.51100857269
  51
 52.511008572698
   0
ARC
   5
24E
 100
AcDbEntity
   8
LEVEL001
 370
13
   6
CONTINUOUS
  62
7
 100
AcDbCircle
  10
 4354.7836782532
  20
 4826.8389826977
  30
0.0
  40
 7.4999999999998
 100
AcDbArc
  50
 232.51100857272
  51
 322.51100857270
   0
ARC
   5
24F
 100
AcDbEntity
   8
LEVEL001
 370
13
   6
CONTINUOUS
  62
7
 100
AcDbCircle
  10
 4731.6573033708
  20
 4721.8539325843
  30
0.0
  40
 12.500000000000
 100
AcDbArc
  50
0.0
  51
 90.000000000000
   0
ARC
   5
250
 100
AcDbEntity
   8
LEVEL001
 370
13
   6
CONTINUOUS
  62
7
 100
AcDbCircle
  10
 4731.6573033708
  20
 4721.8539325843
  30
0.0
  40
 12.500000000000
 100
AcDbArc
  50
 270.00000000000
  51
0.0
   0
LINE
   5
251
 100
AcDbEntity
   8
LEVEL001
 370
13
 100
AcDbLine
   6
CONTINUOUS
  62
7
  10
 4633.0954958846
  20
 4820.8879555187
  30
0.0
  11
 4720.3772278434
  21
 4887.8349439965
  31
0.0
   0
ARC
   5
252
 100
AcDbEntity
   8
LEVEL001
 370
13
   6
CONTINUOUS
  62
7
 100
AcDbCircle
  10
 4715.8126604472
  20
 4893.7859711755
  30
0.0
  40
 7.4999999999998
 100
AcDbArc
  50
 307.48899142730
  51
 37.488991427302
   0
LINE
   5
253
 100
AcDbEntity
   8
LEVEL001
 370
13
 100
AcDbLine
   6
CONTINUOUS
  62
7
  10
 4711.2480930508
  20
 4899.7369983545
  30
0.0
  11
 4623.9663610920
  21
 4832.7900098767
  31
0.0
   0
ARC
   5
254
 100
AcDbEntity
   8
LEVEL001
 370
13
   6
CONTINUOUS
  62
7
 100
AcDbCircle
  10
 4715.8126604470
  20
 4893.7859711755
  30
0.0
  40
 7.4999999999998
 100
AcDbArc
  50
 37.488991427287
  51
 127.48899142731
   0
ARC
   5
255
 100
AcDbEntity
   8
LEVEL001
 370
13
   6
CONTINUOUS
  62
7
 100
AcDbCircle
  10
 4454.1573033708
  20
 4599.9933565147
  30
0.0
  40
 25.000000000000
 100
AcDbArc
  50
 0.41688166320879E-11
  51
 72.895364823357
   0
ARC
   5
256
 100
AcDbEntity
   8
LEVEL001
 370
13
   6
CONTINUOUS
  62
7
 100
AcDbCircle
  10
 4529.1573033708
  20
 4599.9933565147
  30
0.0
  40
 25.000000000000
 100
AcDbArc
  50
 107.10463517664
  51
 180.00000000000
   0
LINE
   5
257
 100
AcDbEntity
   8
LEVEL001
 370
13
 100
AcDbLine
   6
CONTINUOUS
  62
7
  10
 4504.1573033708
  20
 4556.8539325843
  30
0.0
  11
 4504.1573033708
  21
 4599.9933565147
  31
0.0
   0
ARC
   5
258
 100
AcDbEntity
   8
LEVEL001
 370
13
   6
CONTINUOUS
  62
7
 100
AcDbCircle
  10
 4491.6573033708
  20
 4556.8539325843
  30
0.0
  40
 12.500000000000
 100
AcDbArc
  50
 270.00000000000
  51
0.0
   0
LINE
   5
259
 100
AcDbEntity
   8
LEVEL001
 370
13
 100
AcDbLine
   6
CONTINUOUS
  62
7
  10
 4479.1573033708
  20
 4599.9933565147
  30
0.0
  11
 4479.1573033708
  21
 4556.8539325843
  31
0.0
   0
ARC
   5
25A
 100
AcDbEntity
   8
LEVEL001
 370
13
   6
CONTINUOUS
  62
7
 100
AcDbCircle
  10
 4491.6573033708
  20
 4556.8539325843
  30
0.0
  40
 12.500000000000
 100
AcDbArc
  50
 180.00000000000
  51
 270.00000000000
   0
LINE
   5
25B
 100
AcDbEntity
   8
LEVEL001
 370
13
 100
AcDbLine
   6
CONTINUOUS
  62
7
  10
 4350.2191108570
  20
 4622.8199096499
  30
0.0
  11
 4262.9373788982
  21
 4555.8729211721
  31
0.0
   0
LINE
   5
25C
 100
AcDbEntity
   8
LEVEL001
 370
13
 100
AcDbLine
   6
CONTINUOUS
  62
7
  10
 4272.0665136908
  20
 4543.9708668141
  30
0.0
  11
 4359.3482456496
  21
 4610.9178552919
  31
0.0
   0
ARC
   5
25D
 100
AcDbEntity
   8
LEVEL001
 370
13
   6
CONTINUOUS
  62
7
 100
AcDbCircle
  10
 4354.7836782534
  20
 4616.8688824709
  30
0.0
  40
 7.4999999999998
 100
AcDbArc
  50
 307.48899142731
  51
 37.488991427297
   0
ARC
   5
25E
 100
AcDbEntity
   8
LEVEL001
 370
13
   6
CONTINUOUS
  62
7
 100
AcDbCircle
  10
 4354.7836782532
  20
 4616.8688824709
  30
0.0
  40
 7.4999999999998
 100
AcDbArc
  50
 37.488991427322
  51
 127.48899142729
   0
LINE
   5
25F
 100
AcDbEntity
   8
LEVEL001
 370
13
 100
AcDbLine
   6
CONTINUOUS
  62
7
  10
 4633.0954958846
  20
 4622.8199096499
  30
0.0
  11
 4720.3772278434
  21
 4555.8729211721
  31
0.0
   0
ARC
   5
260
 100
AcDbEntity
   8
LEVEL001
 370
13
   6
CONTINUOUS
  62
7
 100
AcDbCircle
  10
 4715.8126604472
  20
 4549.9218939931
  30
0.0
  40
 7.4999999999998
 100
AcDbArc
  50
 322.51100857270
  51
 52.511008572703
   0
LINE
   5
261
 100
AcDbEntity
   8
LEVEL001
 370
13
 100
AcDbLine
   6
CONTINUOUS
  62
7
  10
 4711.2480930508
  20
 4543.9708668141
  30
0.0
  11
 4623.9663610920
  21
 4610.9178552919
  31
0.0
   0
ARC
   5
262
 100
AcDbEntity
   8
LEVEL001
 370
13
   6
CONTINUOUS
  62
7
 100
AcDbCircle
  10
 4715.8126604470
  20
 4549.9218939931
  30
0.0
  40
 7.4999999999998
 100
AcDbArc
  50
 232.51100857269
  51
 322.51100857270
   0
ARC
   5
263
 100
AcDbEntity
   8
LEVEL001
 370
13
   6
CONTINUOUS
  62
7
 100
AcDbCircle
  10
 4628.5309284882
  20
 4616.8688824709
  30
0.0
  40
 7.4999999999998
 100
AcDbArc
  50
 142.51100857270
  51
 232.51100857269
   0
ARC
   5
264
 100
AcDbEntity
   8
LEVEL001
 370
13
   6
CONTINUOUS
  62
7
 100
AcDbCircle
  10
 4628.5309284884
  20
 4616.8688824709
  30
0.0
  40
 7.4999999999998
 100
AcDbArc
  50
 52.511008572703
  51
 142.51100857270
   0
ARC
   5
265
 100
AcDbEntity
   8
LEVEL001
 370
13
   6
CONTINUOUS
  62
7
 100
AcDbCircle
  10
 4267.5019462944
  20
 4549.9218939931
  30
0.0
  40
 7.4999999999998
 100
AcDbArc
  50
 127.48899142731
  51
 217.48899142730
   0
ARC
   5
266
 100
AcDbEntity
   8
LEVEL001
 370
13
   6
CONTINUOUS
  62
7
 100
AcDbCircle
  10
 4267.5019462946
  20
 4549.9218939931
  30
0.0
  40
 7.4999999999998
 100
AcDbArc
  50
 217.48899142733
  51
 307.48899142728
   0
ARC
   5
267
 100
AcDbEntity
   8
LEVEL001
 370
13
   6
CONTINUOUS
  62
7
 100
AcDbCircle
  10
 4724.1573033708
  20
 4879.3539325843
  30
0.0
  40
 65.000000000000
 100
AcDbArc
  50
0.0
  51
 90.000000000000
   0
LINE
   5
268
 100
AcDbEntity
   8
LEVEL001
 370
13
 100
AcDbLine
   6
CONTINUOUS
  62
7
  10
 4789.1573033708
  20
 4564.3539325843
  30
0.0
  11
 4789.1573033708
  21
 4879.3539325843
  31
0.0
   0
ARC
   5
269
 100
AcDbEntity
   8
LEVEL001
 370
13
   6
CONTINUOUS
  62
7
 100
AcDbCircle
  10
 4724.1573033708
  20
 4564.3539325843
  30
0.0
  40
 65.000000000000
 100
AcDbArc
  50
 270.00000000000
  51
0.0
   0
ARC
   5
26A
 100
AcDbEntity
   8
LEVEL001
 370
13
   6
CONTINUOUS
  62
7
 100
AcDbCircle
  10
 4724.1573033708
  20
 4879.3539325843
  30
0.0
  40
 90.900000000000
 100
AcDbArc
  50
0.0
  51
 90.000000000000
   0
ARC
   5
26B
 100
AcDbEntity
   8
LEVEL001
 370
13
   6
CONTINUOUS
  62
7
 100
AcDbCircle
  10
 4724.1573033708
  20
 4879.3539325843
  30
0.0
  40
 75.000000000000
 100
AcDbArc
  50
0.0
  51
 90.000000000000
   0
LINE
   5
26C
 100
AcDbEntity
   8
LEVEL001
 370
13
 100
AcDbLine
   6
CONTINUOUS
  62
7
  10
 4815.0573033708
  20
 4564.3539325843
  30
0.0
  11
 4815.0573033708
  21
 4879.3539325843
  31
0.0
   0
LINE
   5
26D
 100
AcDbEntity
   8
LEVEL001
 370
13
 100
AcDbLine
   6
CONTINUOUS
  62
7
  10
 4799.1573033708
  20
 4879.3539325843
  30
0.0
  11
 4799.1573033708
  21
 4564.3539325843
  31
0.0
   0
ARC
   5
26E
 100
AcDbEntity
   8
LEVEL001
 370
13
   6
CONTINUOUS
  62
7
 100
AcDbCircle
  10
 4724.1573033708
  20
 4564.3539325843
  30
0.0
  40
 90.900000000000
 100
AcDbArc
  50
 270.00000000000
  51
 0.57326961387347E-12
   0
ARC
   5
26F
 100
AcDbEntity
   8
LEVEL001
 370
13
   6
CONTINUOUS
  62
7
 100
AcDbCircle
  10
 4724.1573033708
  20
 4564.3539325843
  30
0.0
  40
 75.000000000000
 100
AcDbArc
  50
 270.00000000000
  51
0.0
   0
LINE
   5
270
 100
AcDbEntity
   8
LEVEL001
 370
13
 100
AcDbLine
   6
CONTINUOUS
  62
7
  10
 4259.1573033708
  20
 4499.3539325843
  30
0.0
  11
 4724.1573033708
  21
 4499.3539325843
  31
0.0
   0
ARC
   5
271
 100
AcDbEntity
   8
LEVEL001
 370
13
   6
CONTINUOUS
  62
7
 100
AcDbCircle
  10
 4259.1573033708
  20
 4564.3539325843
  30
0.0
  40
 65.000000000000
 100
AcDbArc
  50
 180.00000000000
  51
 270.00000000000
   0
LINE
   5
272
 100
AcDbEntity
   8
LEVEL001
 370
13
 100
AcDbLine
   6
CONTINUOUS
  62
7
  10
 4259.1573033708
  20
 4473.4539325843
  30
0.0
  11
 4724.1573033708
  21
 4473.4539325843
  31
0.0
   0
LINE
   5
273
 100
AcDbEntity
   8
LEVEL001
 370
13
 100
AcDbLine
   6
CONTINUOUS
  62
7
  10
 4259.1573033708
  20
 4489.3539325843
  30
0.0
  11
 4724.1573033708
  21
 4489.3539325843
  31
0.0
   0
ARC
   5
274
 100
AcDbEntity
   8
LEVEL001
 370
13
   6
CONTINUOUS
  62
7
 100
AcDbCircle
  10
 4259.1573033708
  20
 4564.3539325843
  30
0.0
  40
 90.900000000000
 100
AcDbArc
  50
 180.00000000000
  51
 270.00000000000
   0
ARC
   5
275
 100
AcDbEntity
   8
LEVEL001
 370
13
   6
CONTINUOUS
  62
7
 100
AcDbCircle
  10
 4259.1573033708
  20
 4564.3539325843
  30
0.0
  40
 75.000000000000
 100
AcDbArc
  50
 180.00000000000
  51
 270.00000000000
   0
ARC
   5
276
 100
AcDbEntity
   8
LEVEL001
 370
13
   6
CONTINUOUS
  62
7
 100
AcDbCircle
  10
 4259.1573033708
  20
 4879.3539325843
  30
0.0
  40
 65.000000000000
 100
AcDbArc
  50
 90.000000000000
  51
 180.00000000000
   0
ARC
   5
277
 100
AcDbEntity
   8
LEVEL001
 370
13
   6
CONTINUOUS
  62
7
 100
AcDbCircle
  10
 4259.1573033708
  20
 4879.3539325843
  30
0.0
  40
 90.900000000000
 100
AcDbArc
  50
 90.000000000000
  51
 180.00000000000
   0
ARC
   5
278
 100
AcDbEntity
   8
LEVEL001
 370
13
   6
CONTINUOUS
  62
7
 100
AcDbCircle
  10
 4259.1573033708
  20
 4879.3539325843
  30
0.0
  40
 75.000000000000
 100
AcDbArc
  50
 90.000000000000
  51
 180.00000000000
   0
LINE
   5
279
 100
AcDbEntity
   8
LEVEL001
 370
13
 100
AcDbLine
   6
CONTINUOUS
  62
7
  10
 4724.1573033708
  20
 4944.3539325843
  30
0.0
  11
 4259.1573033708
  21
 4944.3539325843
  31
0.0
   0
LINE
   5
27A
 100
AcDbEntity
   8
LEVEL001
 370
13
 100
AcDbLine
   6
CONTINUOUS
  62
7
  10
 4724.1573033708
  20
 4970.2539325843
  30
0.0
  11
 4259.1573033708
  21
 4970.2539325843
  31
0.0
   0
LINE
   5
27B
 100
AcDbEntity
   8
LEVEL001
 370
13
 100
AcDbLine
   6
CONTINUOUS
  62
7
  10
 4724.1573033708
  20
 4954.3539325843
  30
0.0
  11
 4259.1573033708
  21
 4954.3539325843
  31
0.0
   0
LINE
   5
27C
 100
AcDbEntity
   8
LEVEL001
 370
13
 100
AcDbLine
   6
DASHDOT
  62
6
  10
 4141.6573033708
  20
 4721.8539325843
  30
0.0
  11
 4841.6573033708
  21
 4721.8539325843
  31
0.0
   0
LINE
   5
27D
 100
AcDbEntity
   8
LEVEL001
 370
13
 100
AcDbLine
   6
DASHDOT
  62
6
  10
 4491.6573033708
  20
 4996.8539325843
  30
0.0
  11
 4491.6573033708
  21
 4446.8539325843
  31
0.0
   0
LINE
   5
27E
 100
AcDbEntity
   8
LEVEL001
 370
13
 100
AcDbLine
   6
CONTINUOUS
  62
7
  10
 4194.1573033708
  20
 4879.3539325843
  30
0.0
  11
 4194.1573033708
  21
 4564.3539325843
  31
0.0
   0
LINE
   5
27F
 100
AcDbEntity
   8
LEVEL001
 370
13
 100
AcDbLine
   6
CONTINUOUS
  62
7
  10
 4168.2573033708
  20
 4879.3539325843
  30
0.0
  11
 4168.2573033708
  21
 4564.3539325843
  31
0.0
   0
LINE
   5
280
 100
AcDbEntity
   8
LEVEL001
 370
13
 100
AcDbLine
   6
CONTINUOUS
  62
7
  10
 4184.1573033708
  20
 4879.3539325843
  30
0.0
  11
 4184.1573033708
  21
 4564.3539325843
  31
0.0
   0
LINE
   5
281
 100
AcDbEntity
   8
LEVEL001
 370
13
 100
AcDbLine
   6
CONTINUOUS
  62
7
  10
 2124.1573033708
  20
 4949.3539325843
  30
0.0
  11
 1659.1573033708
  21
 4949.3539325843
  31
0.0
   0
LINE
   5
282
 100
AcDbEntity
   8
LEVEL001
 370
13
 100
AcDbLine
   6
CONTINUOUS
  62
3
  10
 2124.1573033708
  20
 4954.3539325843
  30
0.0
  11
 1659.1573033708
  21
 4954.3539325843
  31
0.0
   0
LINE
   5
283
 100
AcDbEntity
   8
LEVEL001
 370
13
 100
AcDbLine
   6
CONTINUOUS
  62
3
  10
 2124.1573033708
  20
 4970.2539325843
  30
0.0
  11
 1659.1573033708
  21
 4970.2539325843
  31
0.0
   0
LINE
   5
284
 100
AcDbEntity
   8
LEVEL001
 370
13
 100
AcDbLine
   6
CONTINUOUS
  62
1
  10
 2124.1573033708
  20
 4950.2539325843
  30
0.0
  11
 1659.1573033708
  21
 4950.2539325843
  31
0.0
   0
ARC
   5
285
 100
AcDbEntity
   8
LEVEL001
 370
13
   6
CONTINUOUS
  62
1
 100
AcDbCircle
  10
 1659.1573033708
  20
 4879.3539325843
  30
0.0
  40
 70.900000000000
 100
AcDbArc
  50
 90.000000000001
  51
 180.00000000000
   0
ARC
   5
286
 100
AcDbEntity
   8
LEVEL001
 370
13
   6
CONTINUOUS
  62
1
 100
AcDbCircle
  10
 2124.1573033708
  20
 4879.3539325843
  30
0.0
  40
 70.900000000000
 100
AcDbArc
  50
0.0
  51
 90.000000000000
   0
LINE
   5
287
 100
AcDbEntity
   8
LEVEL001
 370
13
 100
AcDbLine
   6
CONTINUOUS
  62
1
  10
 2195.0573033708
  20
 4780.2539325843
  30
0.0
  11
 2195.0573033708
  21
 4879.3539325843
  31
0.0
   0
LINE
   5
288
 100
AcDbEntity
   8
LEVEL001
 370
13
 100
AcDbLine
   6
CONTINUOUS
  62
1
  10
 1588.2573033708
  20
 4879.3539325843
  30
0.0
  11
 1588.2573033708
  21
 4780.2539325843
  31
0.0
   0
LINE
   5
289
 100
AcDbEntity
   8
LEVEL001
 370
13
 100
AcDbLine
   6
CONTINUOUS
  62
1
  10
 1589.1573033708
  20
 4780.2539325843
  30
0.0
  11
 1588.2573033708
  21
 4780.2539325843
  31
0.0
   0
LINE
   5
28A
 100
AcDbEntity
   8
LEVEL001
 370
13
 100
AcDbLine
   6
CONTINUOUS
  62
1
  10
 2194.1573033708
  20
 4780.2539325843
  30
0.0
  11
 2195.0573033708
  21
 4780.2539325843
  31
0.0
   0
ARC
   5
28B
 100
AcDbEntity
   8
LEVEL001
 370
13
   6
CONTINUOUS
  62
7
 100
AcDbCircle
  10
 1659.1573033708
  20
 4879.3539325843
  30
0.0
  40
 70.000000000000
 100
AcDbArc
  50
 90.000000000000
  51
 180.00000000000
   0
ARC
   5
28C
 100
AcDbEntity
   8
LEVEL001
 370
13
   6
CONTINUOUS
  62
3
 100
AcDbCircle
  10
 1659.1573033708
  20
 4879.3539325843
  30
0.0
  40
 75.000000000000
 100
AcDbArc
  50
 90.000000000000
  51
 180.00000000000
   0
ARC
   5
28D
 100
AcDbEntity
   8
LEVEL001
 370
13
   6
CONTINUOUS
  62
3
 100
AcDbCircle
  10
 1659.1573033708
  20
 4879.3539325843
  30
0.0
  40
 90.900000000000
 100
AcDbArc
  50
 90.000000000001
  51
 180.00000000000
   0
LINE
   5
28E
 100
AcDbEntity
   8
LEVEL001
 370
13
 100
AcDbLine
   6
CONTINUOUS
  62
7
  10
 1659.1573033708
  20
 4494.3539325843
  30
0.0
  11
 2124.1573033708
  21
 4494.3539325843
  31
0.0
   0
LINE
   5
28F
 100
AcDbEntity
   8
LEVEL001
 370
13
 100
AcDbLine
   6
CONTINUOUS
  62
3
  10
 1659.1573033708
  20
 4489.3539325843
  30
0.0
  11
 2124.1573033708
  21
 4489.3539325843
  31
0.0
   0
LINE
   5
290
 100
AcDbEntity
   8
LEVEL001
 370
13
 100
AcDbLine
   6
CONTINUOUS
  62
3
  10
 1659.1573033708
  20
 4473.4539325843
  30
0.0
  11
 2124.1573033708
  21
 4473.4539325843
  31
0.0
   0
ARC
   5
291
 100
AcDbEntity
   8
LEVEL001
 370
13
   6
CONTINUOUS
  62
7
 100
AcDbCircle
  10
 1659.1573033708
  20
 4564.3539325843
  30
0.0
  40
 70.000000000000
 100
AcDbArc
  50
 180.00000000000
  51
 270.00000000000
   0
ARC
   5
292
 100
AcDbEntity
   8
LEVEL001
 370
13
   6
CONTINUOUS
  62
3
 100
AcDbCircle
  10
 1659.1573033708
  20
 4564.3539325843
  30
0.0
  40
 75.000000000000
 100
AcDbArc
  50
 180.00000000000
  51
 270.00000000000
   0
ARC
   5
293
 100
AcDbEntity
   8
LEVEL001
 370
13
   6
CONTINUOUS
  62
3
 100
AcDbCircle
  10
 1659.1573033708
  20
 4564.3539325843
  30
0.0
  40
 90.900000000000
 100
AcDbArc
  50
 180.00000000000
  51
 270.00000000000
   0
LINE
   5
294
 100
AcDbEntity
   8
LEVEL001
 370
13
 100
AcDbLine
   6
DASHDOT
  62
6
  10
 1891.6573033708
  20
 4421.8539325843
  30
0.0
  11
 1891.6573033708
  21
 5021.8539325843
  31
0.0
   0
LINE
   5
295
 100
AcDbEntity
   8
LEVEL001
 370
13
 100
AcDbLine
   6
CONTINUOUS
  62
7
  10
 1589.1573033708
  20
 4879.3539325843
  30
0.0
  11
 1589.1573033708
  21
 4564.3539325843
  31
0.0
   0
LINE
   5
296
 100
AcDbEntity
   8
LEVEL001
 370
13
 100
AcDbLine
   6
CONTINUOUS
  62
3
  10
 1584.1573033708
  20
 4879.3539325843
  30
0.0
  11
 1584.1573033708
  21
 4564.3539325843
  31
0.0
   0
ARC
   5
297
 100
AcDbEntity
   8
LEVEL001
 370
13
   6
CONTINUOUS
  62
7
 100
AcDbCircle
  10
 2124.1573033708
  20
 4564.3539325843
  30
0.0
  40
 70.000000000000
 100
AcDbArc
  50
 270.00000000000
  51
0.0
   0
ARC
   5
298
 100
AcDbEntity
   8
LEVEL001
 370
13
   6
CONTINUOUS
  62
3
 100
AcDbCircle
  10
 2124.1573033708
  20
 4564.3539325843
  30
0.0
  40
 75.000000000000
 100
AcDbArc
  50
 270.00000000000
  51
0.0
   0
ARC
   5
299
 100
AcDbEntity
   8
LEVEL001
 370
13
   6
CONTINUOUS
  62
3
 100
AcDbCircle
  10
 2124.1573033708
  20
 4564.3539325843
  30
0.0
  40
 90.900000000000
 100
AcDbArc
  50
 270.00000000000
  51
 0.57326961387347E-12
   0
ARC
   5
29A
 100
AcDbEntity
   8
LEVEL001
 370
13
   6
CONTINUOUS
  62
7
 100
AcDbCircle
  10
 2124.1573033708
  20
 4879.3539325843
  30
0.0
  40
 70.000000000000
 100
AcDbArc
  50
0.0
  51
 90.000000000000
   0
ARC
   5
29B
 100
AcDbEntity
   8
LEVEL001
 370
13
   6
CONTINUOUS
  62
3
 100
AcDbCircle
  10
 2124.1573033708
  20
 4879.3539325843
  30
0.0
  40
 75.000000000000
 100
AcDbArc
  50
0.0
  51
 90.000000000000
   0
ARC
   5
29C
 100
AcDbEntity
   8
LEVEL001
 370
13
   6
CONTINUOUS
  62
3
 100
AcDbCircle
  10
 2124.1573033708
  20
 4879.3539325843
  30
0.0
  40
 90.900000000000
 100
AcDbArc
  50
0.0
  51
 90.000000000000
   0
LINE
   5
29D
 100
AcDbEntity
   8
LEVEL001
 370
13
 100
AcDbLine
   6
CONTINUOUS
  62
7
  10
 2194.1573033708
  20
 4564.3539325843
  30
0.0
  11
 2194.1573033708
  21
 4879.3539325843
  31
0.0
   0
LINE
   5
29E
 100
AcDbEntity
   8
LEVEL001
 370
13
 100
AcDbLine
   6
CONTINUOUS
  62
3
  10
 2199.1573033708
  20
 4564.3539325843
  30
0.0
  11
 2199.1573033708
  21
 4879.3539325843
  31
0.0
   0
LINE
   5
29F
 100
AcDbEntity
   8
LEVEL001
 370
13
 100
AcDbLine
   6
CONTINUOUS
  62
3
  10
 2215.0573033708
  20
 4564.3539325843
  30
0.0
  11
 2215.0573033708
  21
 4879.3539325843
  31
0.0
   0
LINE
   5
2A0
 100
AcDbEntity
   8
LEVEL001
 370
13
 100
AcDbLine
   6
CONTINUOUS
  62
3
  10
 1568.2573033708
  20
 4879.3539325843
  30
0.0
  11
 1568.2573033708
  21
 4564.3539325843
  31
0.0
   0
LINE
   5
2A1
 100
AcDbEntity
   8
LEVEL001
 370
13
 100
AcDbLine
   6
CONTINUOUS
  62
7
  10
 1324.1573033708
  20
 4949.3539325843
  30
0.0
  11
 859.15730337078
  21
 4949.3539325843
  31
0.0
   0
LINE
   5
2A2
 100
AcDbEntity
   8
LEVEL001
 370
13
 100
AcDbLine
   6
CONTINUOUS
  62
3
  10
 1324.1573033708
  20
 4954.3539325843
  30
0.0
  11
 859.15730337078
  21
 4954.3539325843
  31
0.0
   0
LINE
   5
2A3
 100
AcDbEntity
   8
LEVEL001
 370
13
 100
AcDbLine
   6
CONTINUOUS
  62
3
  10
 1324.1573033708
  20
 4970.2539325843
  30
0.0
  11
 859.15730337078
  21
 4970.2539325843
  31
0.0
   0
LINE
   5
2A4
 100
AcDbEntity
   8
LEVEL001
 370
13
 100
AcDbLine
   6
CONTINUOUS
  62
1
  10
 1324.1573033708
  20
 4950.2539325843
  30
0.0
  11
 859.15730337078
  21
 4950.2539325843
  31
0.0
   0
ARC
   5
2A5
 100
AcDbEntity
   8
LEVEL001
 370
13
   6
CONTINUOUS
  62
1
 100
AcDbCircle
  10
 859.15730337078
  20
 4879.3539325843
  30
0.0
  40
 70.900000000000
 100
AcDbArc
  50
 90.000000000000
  51
 180.00000000000
   0
ARC
   5
2A6
 100
AcDbEntity
   8
LEVEL001
 370
13
   6
CONTINUOUS
  62
1
 100
AcDbCircle
  10
 1324.1573033708
  20
 4879.3539325843
  30
0.0
  40
 70.900000000000
 100
AcDbArc
  50
0.0
  51
 90.000000000000
   0
LINE
   5
2A7
 100
AcDbEntity
   8
LEVEL001
 370
13
 100
AcDbLine
   6
CONTINUOUS
  62
1
  10
 1395.0573033708
  20
 4780.2539325843
  30
0.0
  11
 1395.0573033708
  21
 4879.3539325843
  31
0.0
   0
LINE
   5
2A8
 100
AcDbEntity
   8
LEVEL001
 370
13
 100
AcDbLine
   6
CONTINUOUS
  62
1
  10
 788.25730337078
  20
 4879.3539325843
  30
0.0
  11
 788.25730337078
  21
 4780.2539325843
  31
0.0
   0
LINE
   5
2A9
 100
AcDbEntity
   8
LEVEL001
 370
13
 100
AcDbLine
   6
CONTINUOUS
  62
1
  10
 789.15730337078
  20
 4780.2539325843
  30
0.0
  11
 788.25730337078
  21
 4780.2539325843
  31
0.0
   0
LINE
   5
2AA
 100
AcDbEntity
   8
LEVEL001
 370
13
 100
AcDbLine
   6
CONTINUOUS
  62
1
  10
 1394.1573033708
  20
 4780.2539325843
  30
0.0
  11
 1395.0573033708
  21
 4780.2539325843
  31
0.0
   0
ARC
   5
2AB
 100
AcDbEntity
   8
LEVEL001
 370
13
   6
CONTINUOUS
  62
7
 100
AcDbCircle
  10
 859.15730337078
  20
 4879.3539325843
  30
0.0
  40
 70.000000000000
 100
AcDbArc
  50
 90.000000000000
  51
 180.00000000000
   0
ARC
   5
2AC
 100
AcDbEntity
   8
LEVEL001
 370
13
   6
CONTINUOUS
  62
3
 100
AcDbCircle
  10
 859.15730337078
  20
 4879.3539325843
  30
0.0
  40
 75.000000000000
 100
AcDbArc
  50
 90.000000000000
  51
 180.00000000000
   0
ARC
   5
2AD
 100
AcDbEntity
   8
LEVEL001
 370
13
   6
CONTINUOUS
  62
3
 100
AcDbCircle
  10
 859.15730337078
  20
 4879.3539325843
  30
0.0
  40
 90.900000000000
 100
AcDbArc
  50
 90.000000000000
  51
 180.00000000000
   0
LINE
   5
2AE
 100
AcDbEntity
   8
LEVEL001
 370
13
 100
AcDbLine
   6
CONTINUOUS
  62
7
  10
 859.15730337078
  20
 4494.3539325843
  30
0.0
  11
 1324.1573033708
  21
 4494.3539325843
  31
0.0
   0
LINE
   5
2AF
 100
AcDbEntity
   8
LEVEL001
 370
13
 100
AcDbLine
   6
CONTINUOUS
  62
3
  10
 859.15730337078
  20
 4489.3539325843
  30
0.0
  11
 1324.1573033708
  21
 4489.3539325843
  31
0.0
   0
LINE
   5
2B0
 100
AcDbEntity
   8
LEVEL001
 370
13
 100
AcDbLine
   6
CONTINUOUS
  62
3
  10
 859.15730337078
  20
 4473.4539325843
  30
0.0
  11
 1324.1573033708
  21
 4473.4539325843
  31
0.0
   0
ARC
   5
2B1
 100
AcDbEntity
   8
LEVEL001
 370
13
   6
CONTINUOUS
  62
7
 100
AcDbCircle
  10
 859.15730337078
  20
 4564.3539325843
  30
0.0
  40
 70.000000000000
 100
AcDbArc
  50
 180.00000000000
  51
 270.00000000000
   0
ARC
   5
2B2
 100
AcDbEntity
   8
LEVEL001
 370
13
   6
CONTINUOUS
  62
3
 100
AcDbCircle
  10
 859.15730337078
  20
 4564.3539325843
  30
0.0
  40
 75.000000000000
 100
AcDbArc
  50
 180.00000000000
  51
 270.00000000000
   0
ARC
   5
2B3
 100
AcDbEntity
   8
LEVEL001
 370
13
   6
CONTINUOUS
  62
3
 100
AcDbCircle
  10
 859.15730337078
  20
 4564.3539325843
  30
0.0
  40
 90.900000000000
 100
AcDbArc
  50
 180.00000000000
  51
 270.00000000000
   0
LINE
   5
2B4
 100
AcDbEntity
   8
LEVEL001
 370
13
 100
AcDbLine
   6
DASHDOT
  62
6
  10
 1091.6573033708
  20
 4421.8539325843
  30
0.0
  11
 1091.6573033708
  21
 5021.8539325843
  31
0.0
   0
LINE
   5
2B5
 100
AcDbEntity
   8
LEVEL001
 370
13
 100
AcDbLine
   6
CONTINUOUS
  62
7
  10
 789.15730337078
  20
 4879.3539325843
  30
0.0
  11
 789.15730337078
  21
 4564.3539325843
  31
0.0
   0
LINE
   5
2B6
 100
AcDbEntity
   8
LEVEL001
 370
13
 100
AcDbLine
   6
CONTINUOUS
  62
3
  10
 784.15730337078
  20
 4879.3539325843
  30
0.0
  11
 784.15730337078
  21
 4564.3539325843
  31
0.0
   0
LINE
   5
2B7
 100
AcDbEntity
   8
LEVEL001
 370
13
 100
AcDbLine
   6
CONTINUOUS
  62
3
  10
 768.25730337078
  20
 4879.3539325843
  30
0.0
  11
 768.25730337078
  21
 4564.3539325843
  31
0.0
   0
ARC
   5
2B8
 100
AcDbEntity
   8
LEVEL001
 370
13
   6
CONTINUOUS
  62
7
 100
AcDbCircle
  10
 1324.1573033708
  20
 4879.3539325843
  30
0.0
  40
 70.000000000000
 100
AcDbArc
  50
0.0
  51
 90.000000000000
   0
ARC
   5
2B9
 100
AcDbEntity
   8
LEVEL001
 370
13
   6
CONTINUOUS
  62
3
 100
AcDbCircle
  10
 1324.1573033708
  20
 4879.3539325843
  30
0.0
  40
 75.000000000000
 100
AcDbArc
  50
0.0
  51
 90.000000000000
   0
ARC
   5
2BA
 100
AcDbEntity
   8
LEVEL001
 370
13
   6
CONTINUOUS
  62
3
 100
AcDbCircle
  10
 1324.1573033708
  20
 4879.3539325843
  30
0.0
  40
 90.900000000000
 100
AcDbArc
  50
0.0
  51
 90.000000000000
   0
LINE
   5
2BB
 100
AcDbEntity
   8
LEVEL001
 370
13
 100
AcDbLine
   6
CONTINUOUS
  62
7
  10
 1394.1573033708
  20
 4564.3539325843
  30
0.0
  11
 1394.1573033708
  21
 4879.3539325843
  31
0.0
   0
LINE
   5
2BC
 100
AcDbEntity
   8
LEVEL001
 370
13
 100
AcDbLine
   6
CONTINUOUS
  62
3
  10
 1399.1573033708
  20
 4564.3539325843
  30
0.0
  11
 1399.1573033708
  21
 4879.3539325843
  31
0.0
   0
LINE
   5
2BD
 100
AcDbEntity
   8
LEVEL001
 370
13
 100
AcDbLine
   6
CONTINUOUS
  62
3
  10
 1415.0573033708
  20
 4564.3539325843
  30
0.0
  11
 1415.0573033708
  21
 4879.3539325843
  31
0.0
   0
ARC
   5
2BE
 100
AcDbEntity
   8
LEVEL001
 370
13
   6
CONTINUOUS
  62
7
 100
AcDbCircle
  10
 1324.1573033708
  20
 4564.3539325843
  30
0.0
  40
 70.000000000000
 100
AcDbArc
  50
 270.00000000000
  51
0.0
   0
ARC
   5
2BF
 100
AcDbEntity
   8
LEVEL001
 370
13
   6
CONTINUOUS
  62
3
 100
AcDbCircle
  10
 1324.1573033708
  20
 4564.3539325843
  30
0.0
  40
 75.000000000000
 100
AcDbArc
  50
 270.00000000000
  51
0.0
   0
ARC
   5
2C0
 100
AcDbEntity
   8
LEVEL001
 370
13
   6
CONTINUOUS
  62
3
 100
AcDbCircle
  10
 1324.1573033708
  20
 4564.3539325843
  30
0.0
  40
 90.900000000000
 100
AcDbArc
  50
 270.00000000000
  51
 0.57326961387347E-12
   0
LINE
   5
2C1
 100
AcDbEntity
   8
LEVEL001
 370
13
 100
AcDbLine
   6
DASHDOT
  62
6
  10
 2266.6573033708
  20
 4721.8539325843
  30
0.0
  11
 1491.6573033708
  21
 4721.8539325843
  31
0.0
   0
LINE
   5
2C2
 100
AcDbEntity
   8
LEVEL001
 370
13
 100
AcDbLine
   6
DASHDOT
  62
6
  10
 716.65730337078
  20
 4721.8539325843
  30
0.0
  11
 1491.6573033708
  21
 4721.8539325843
  31
0.0
   0
LINE
   5
2C3
 100
AcDbEntity
   8
LEVEL001
 370
13
 100
AcDbLine
   6
CONTINUOUS
  62
7
  10
 1415.0573033708
  20
 4766.8029556533
  30
0.0
  11
 1452.3059056828
  21
 4790.0784656395
  31
0.0
   0
LINE
   5
2C4
 100
AcDbEntity
   8
LEVEL001
 370
13
 100
AcDbLine
   6
CONTINUOUS
  62
7
  10
 1452.3059056828
  20
 4790.0784656395
  30
0.0
  11
 1452.3059056828
  21
 4719.3277614379
  31
0.0
   0
LINE
   5
2C5
 100
AcDbEntity
   8
LEVEL001
 370
13
 100
AcDbLine
   6
CONTINUOUS
  62
7
  10
 1452.3059056828
  20
 4719.3277614379
  30
0.0
  11
 1420.3410312321
  21
 4699.3538910561
  31
0.0
   0
LINE
   5
2C6
 100
AcDbEntity
   8
LEVEL001
 370
13
 100
AcDbLine
   6
CONTINUOUS
  62
7
  10
 1568.2573033708
  20
 4664.3538910561
  30
0.0
  11
 1531.0087010588
  21
 4664.3538910561
  31
0.0
   0
LINE
   5
2C7
 100
AcDbEntity
   8
LEVEL001
 370
13
 100
AcDbLine
   6
CONTINUOUS
  62
7
  10
 1531.0087010588
  20
 4664.3538910561
  30
0.0
  11
 1531.0087010588
  21
 4604.3538910561
  31
0.0
   0
LINE
   5
2C8
 100
AcDbEntity
   8
LEVEL001
 370
13
 100
AcDbLine
   6
CONTINUOUS
  62
7
  10
 1531.0087010588
  20
 4604.3538910561
  30
0.0
  11
 1568.2573033708
  21
 4604.3538910561
  31
0.0
   0
LINE
   5
2C9
 100
AcDbEntity
   8
LEVEL001
 370
13
 100
AcDbLine
   6
CONTINUOUS
  62
6
  10
 3227.0122046924
  20
 4764.2916699051
  30
0.0
  11
 3227.0122046924
  21
 4806.8539325843
  31
0.0
   0
LINE
   5
2CA
 100
AcDbEntity
   8
LEVEL001
 370
13
 100
AcDbLine
   6
CONTINUOUS
  62
6
  10
 3227.0122046924
  20
 4706.8539325843
  30
0.0
  11
 3227.0122046924
  21
 4749.4161952635
  31
0.0
   0
LINE
   5
2CB
 100
AcDbEntity
   8
LEVEL001
 370
13
 100
AcDbLine
   6
CONTINUOUS
  62
6
  10
 3156.3024020492
  20
 4654.2916699051
  30
0.0
  11
 3156.3024020492
  21
 4696.8539325843
  31
0.0
   0
LINE
   5
2CC
 100
AcDbEntity
   8
LEVEL001
 370
13
 100
AcDbLine
   6
CONTINUOUS
  62
6
  10
 3156.3024020492
  20
 4596.8539325843
  30
0.0
  11
 3156.3024020492
  21
 4639.4161952635
  31
0.0
   0
LINE
   5
2CD
 100
AcDbEntity
   8
LEVEL001
 370
13
 100
AcDbLine
   6
CONTINUOUS
  62
7
  10
 3152.3059056828
  20
 4792.5785071679
  30
0.0
  11
 3152.3059056828
  21
 4721.8278029661
  31
0.0
   0
LINE
   5
2CE
 100
AcDbEntity
   8
LEVEL001
 370
13
 100
AcDbLine
   6
CONTINUOUS
  62
7
  10
 3152.3059056828
  20
 4721.8278029661
  30
0.0
  11
 2952.3059056828
  21
 4596.8539325843
  31
0.0
   0
LINE
   5
2CF
 100
AcDbEntity
   8
LEVEL001
 370
13
 100
AcDbLine
   6
CONTINUOUS
  62
7
  10
 2952.3059056828
  20
 4596.8539325843
  30
0.0
  11
 2952.3059056828
  21
 4667.6046367861
  31
0.0
   0
LINE
   5
2D0
 100
AcDbEntity
   8
LEVEL001
 370
13
 100
AcDbLine
   6
CONTINUOUS
  62
7
  10
 2952.3059056828
  20
 4667.6046367861
  30
0.0
  11
 3152.3059056828
  21
 4792.5785071679
  31
0.0
   0
LINE
   5
2D1
 100
AcDbEntity
   8
LEVEL001
 370
13
 100
AcDbLine
   6
CONTINUOUS
  62
7
  10
 3150.3073033708
  20
 4720.5789376347
  30
0.0
  11
 3150.3073033708
  21
 4701.8539325843
  31
0.0
   0
LINE
   5
2D2
 100
AcDbEntity
   8
LEVEL001
 370
13
 100
AcDbLine
   6
CONTINUOUS
  62
7
  10
 3150.3073033708
  20
 4701.8539325843
  30
0.0
  11
 3266.6572955968
  21
 4701.8539325843
  31
0.0
   0
LINE
   5
2D3
 100
AcDbEntity
   8
LEVEL001
 370
13
 100
AcDbLine
   6
CONTINUOUS
  62
7
  10
 3266.6572955968
  20
 4701.8539325843
  30
0.0
  11
 3266.6572955968
  21
 4811.8539325843
  31
0.0
   0
LINE
   5
2D4
 100
AcDbEntity
   8
LEVEL001
 370
13
 100
AcDbLine
   6
CONTINUOUS
  62
7
  10
 3266.6572955968
  20
 4811.8539325843
  30
0.0
  11
 3150.3073033708
  21
 4811.8539325843
  31
0.0
   0
LINE
   5
2D5
 100
AcDbEntity
   8
LEVEL001
 370
13
 100
AcDbLine
   6
CONTINUOUS
  62
7
  10
 3150.3073033708
  20
 4811.8539325843
  30
0.0
  11
 3150.3073033708
  21
 4791.3296418365
  31
0.0
   0
LINE
   5
2D6
 100
AcDbEntity
   8
LEVEL001
 370
13
 100
AcDbLine
   6
CONTINUOUS
  62
7
  10
 3431.0087010588
  20
 4666.8539325843
  30
0.0
  11
 3231.0087010588
  21
 4666.8539325843
  31
0.0
   0
LINE
   5
2D7
 100
AcDbEntity
   8
LEVEL001
 370
13
 100
AcDbLine
   6
CONTINUOUS
  62
7
  10
 3231.0087010588
  20
 4666.8539325843
  30
0.0
  11
 3231.0087010588
  21
 4606.8539325843
  31
0.0
   0
LINE
   5
2D8
 100
AcDbEntity
   8
LEVEL001
 370
13
 100
AcDbLine
   6
CONTINUOUS
  62
7
  10
 3231.0087010588
  20
 4606.8539325843
  30
0.0
  11
 3431.0087010588
  21
 4606.8539325843
  31
0.0
   0
LINE
   5
2D9
 100
AcDbEntity
   8
LEVEL001
 370
13
 100
AcDbLine
   6
CONTINUOUS
  62
7
  10
 3431.0087010588
  20
 4606.8539325843
  30
0.0
  11
 3431.0087010588
  21
 4666.8539325843
  31
0.0
   0
LINE
   5
2DA
 100
AcDbEntity
   8
LEVEL001
 370
13
 100
AcDbLine
   6
CONTINUOUS
  62
7
  10
 3233.0073033708
  20
 4606.8539325843
  30
0.0
  11
 3233.0073033708
  21
 4591.8539325843
  31
0.0
   0
LINE
   5
2DB
 100
AcDbEntity
   8
LEVEL001
 370
13
 100
AcDbLine
   6
CONTINUOUS
  62
7
  10
 3233.0073033708
  20
 4591.8539325843
  30
0.0
  11
 3116.6573111448
  21
 4591.8539325843
  31
0.0
   0
LINE
   5
2DC
 100
AcDbEntity
   8
LEVEL001
 370
13
 100
AcDbLine
   6
CONTINUOUS
  62
7
  10
 3116.6573111448
  20
 4591.8539325843
  30
0.0
  11
 3116.6573111448
  21
 4701.8539325843
  31
0.0
   0
LINE
   5
2DD
 100
AcDbEntity
   8
LEVEL001
 370
13
 100
AcDbLine
   6
CONTINUOUS
  62
7
  10
 3116.6573111448
  20
 4701.8539325843
  30
0.0
  11
 3233.0073033708
  21
 4701.8539325843
  31
0.0
   0
LINE
   5
2DE
 100
AcDbEntity
   8
LEVEL001
 370
13
 100
AcDbLine
   6
CONTINUOUS
  62
7
  10
 3233.0073033708
  20
 4701.8539325843
  30
0.0
  11
 3233.0073033708
  21
 4666.8539325843
  31
0.0
   0
LINE
   5
2DF
 100
AcDbEntity
   8
LEVEL001
 370
13
 100
AcDbLine
   6
DASHDOT
  62
6
  10
 3466.9827542082
  20
 4811.8539325843
  30
0.0
  11
 3466.9827542082
  21
 4571.8539325843
  31
0.0
   0
LINE
   5
2E0
 100
AcDbEntity
   8
LEVEL001
 370
13
 100
AcDbLine
   6
CONTINUOUS
  62
7
  10
 3428.8327542082
  20
 4606.8539325843
  30
0.0
  11
 3428.8327542082
  21
 4591.8539325843
  31
0.0
   0
LINE
   5
2E1
 100
AcDbEntity
   8
LEVEL001
 370
13
 100
AcDbLine
   6
CONTINUOUS
  62
7
  10
 3428.8327542082
  20
 4591.8539325843
  30
0.0
  11
 3505.1327542082
  21
 4591.8539325843
  31
0.0
   0
LINE
   5
2E2
 100
AcDbEntity
   8
LEVEL001
 370
13
 100
AcDbLine
   6
CONTINUOUS
  62
7
  10
 3505.1327542082
  20
 4591.8539325843
  30
0.0
  11
 3505.1327542082
  21
 4666.8539325843
  31
0.0
   0
LINE
   5
2E3
 100
AcDbEntity
   8
LEVEL001
 370
13
 100
AcDbLine
   6
CONTINUOUS
  62
7
  10
 3505.1327542082
  20
 4776.8539325843
  30
0.0
  11
 3505.1327542082
  21
 4791.8539325843
  31
0.0
   0
LINE
   5
2E4
 100
AcDbEntity
   8
LEVEL001
 370
13
 100
AcDbLine
   6
CONTINUOUS
  62
7
  10
 3505.1327542082
  20
 4791.8539325843
  30
0.0
  11
 3428.8327542082
  21
 4791.8539325843
  31
0.0
   0
LINE
   5
2E5
 100
AcDbEntity
   8
LEVEL001
 370
13
 100
AcDbLine
   6
CONTINUOUS
  62
7
  10
 3428.8327542082
  20
 4791.8539325843
  30
0.0
  11
 3428.8327542082
  21
 4776.8539325843
  31
0.0
   0
LINE
   5
2E6
 100
AcDbEntity
   8
LEVEL001
 370
13
 100
AcDbLine
   6
DASHDOT
  62
6
  10
 2916.3318525334
  20
 4811.8539325843
  30
0.0
  11
 2916.3318525334
  21
 4571.8539325843
  31
0.0
   0
LINE
   5
2E7
 100
AcDbEntity
   8
LEVEL001
 370
13
 100
AcDbLine
   6
CONTINUOUS
  62
7
  10
 2954.4818525334
  20
 4668.9643192843
  30
0.0
  11
 2954.4818525334
  21
 4668.8535021175
  31
0.0
   0
LINE
   5
2E8
 100
AcDbEntity
   8
LEVEL001
 370
13
 100
AcDbLine
   6
CONTINUOUS
  62
7
  10
 2954.4818525334
  20
 4598.1027979157
  30
0.0
  11
 2954.4818525334
  21
 4591.8539325843
  31
0.0
   0
LINE
   5
2E9
 100
AcDbEntity
   8
LEVEL001
 370
13
 100
AcDbLine
   6
CONTINUOUS
  62
7
  10
 2954.4818525334
  20
 4591.8539325843
  30
0.0
  11
 2878.1818525334
  21
 4591.8539325843
  31
0.0
   0
LINE
   5
2EA
 100
AcDbEntity
   8
LEVEL001
 370
13
 100
AcDbLine
   6
CONTINUOUS
  62
7
  10
 2878.1818525334
  20
 4591.8539325843
  30
0.0
  11
 2878.1818525334
  21
 4666.8539325843
  31
0.0
   0
LINE
   5
2EB
 100
AcDbEntity
   8
LEVEL001
 370
13
 100
AcDbLine
   6
CONTINUOUS
  62
7
  10
 2878.1818525334
  20
 4776.8539325843
  30
0.0
  11
 2878.1818525334
  21
 4791.8539325843
  31
0.0
   0
LINE
   5
2EC
 100
AcDbEntity
   8
LEVEL001
 370
13
 100
AcDbLine
   6
CONTINUOUS
  62
7
  10
 2878.1818525334
  20
 4791.8539325843
  30
0.0
  11
 2954.4818525334
  21
 4791.8539325843
  31
0.0
   0
LINE
   5
2ED
 100
AcDbEntity
   8
LEVEL001
 370
13
 100
AcDbLine
   6
CONTINUOUS
  62
7
  10
 2954.4818525334
  20
 4791.8539325843
  30
0.0
  11
 2954.4818525334
  21
 4776.8539325843
  31
0.0
   0
LINE
   5
2EE
 100
AcDbEntity
   8
LEVEL001
 370
13
 100
AcDbLine
   6
CONTINUOUS
  62
6
  10
 2952.9432591898
  20
 4771.8539325843
  30
0.0
  11
 2952.9432591898
  21
 4671.8539325843
  31
0.0
   0
LINE
   5
2EF
 100
AcDbEntity
   8
LEVEL001
 370
13
 100
AcDbLine
   6
DASHDOT
  62
6
  10
 2957.5152496360
  20
 4751.8539325843
  30
0.0
  11
 2987.5152496360
  21
 4751.8539325843
  31
0.0
   0
LINE
   5
2F0
 100
AcDbEntity
   8
LEVEL001
 370
13
 100
AcDbLine
   6
DASHDOT
  62
6
  10
 2972.5152496360
  20
 4766.8539325843
  30
0.0
  11
 2972.5152496360
  21
 4736.8539325843
  31
0.0
   0
LINE
   5
2F1
 100
AcDbEntity
   8
LEVEL001
 370
13
 100
AcDbLine
   6
DASHDOT
  62
6
  10
 2957.5152496360
  20
 4691.8539325843
  30
0.0
  11
 2987.5152496360
  21
 4691.8539325843
  31
0.0
   0
LINE
   5
2F2
 100
AcDbEntity
   8
LEVEL001
 370
13
 100
AcDbLine
   6
DASHDOT
  62
6
  10
 2972.5152496360
  20
 4706.8539325843
  30
0.0
  11
 2972.5152496360
  21
 4676.8539325843
  31
0.0
   0
LINE
   5
2F3
 100
AcDbEntity
   8
LEVEL001
 370
13
 100
AcDbLine
   6
DASHDOT
  62
6
  10
 3231.6572955968
  20
 4786.8539325843
  30
0.0
  11
 3261.6572955968
  21
 4786.8539325843
  31
0.0
   0
LINE
   5
2F4
 100
AcDbEntity
   8
LEVEL001
 370
13
 100
AcDbLine
   6
DASHDOT
  62
6
  10
 3246.6572955968
  20
 4801.8539325843
  30
0.0
  11
 3246.6572955968
  21
 4771.8539325843
  31
0.0
   0
LINE
   5
2F5
 100
AcDbEntity
   8
LEVEL001
 370
13
 100
AcDbLine
   6
DASHDOT
  62
6
  10
 3231.6572955968
  20
 4726.8539325843
  30
0.0
  11
 3261.6572955968
  21
 4726.8539325843
  31
0.0
   0
LINE
   5
2F6
 100
AcDbEntity
   8
LEVEL001
 370
13
 100
AcDbLine
   6
DASHDOT
  62
6
  10
 3246.6572955968
  20
 4741.8539325843
  30
0.0
  11
 3246.6572955968
  21
 4711.8539325843
  31
0.0
   0
LINE
   5
2F7
 100
AcDbEntity
   8
LEVEL001
 370
13
 100
AcDbLine
   6
DASHDOT
  62
6
  10
 3121.6573111448
  20
 4676.8539325843
  30
0.0
  11
 3151.6573111448
  21
 4676.8539325843
  31
0.0
   0
LINE
   5
2F8
 100
AcDbEntity
   8
LEVEL001
 370
13
 100
AcDbLine
   6
DASHDOT
  62
6
  10
 3136.6573111448
  20
 4691.8539325843
  30
0.0
  11
 3136.6573111448
  21
 4661.8539325843
  31
0.0
   0
LINE
   5
2F9
 100
AcDbEntity
   8
LEVEL001
 370
13
 100
AcDbLine
   6
DASHDOT
  62
6
  10
 3121.6573111448
  20
 4616.8539325843
  30
0.0
  11
 3151.6573111448
  21
 4616.8539325843
  31
0.0
   0
LINE
   5
2FA
 100
AcDbEntity
   8
LEVEL001
 370
13
 100
AcDbLine
   6
DASHDOT
  62
6
  10
 3136.6573111448
  20
 4631.8539325843
  30
0.0
  11
 3136.6573111448
  21
 4601.8539325843
  31
0.0
   0
LINE
   5
2FB
 100
AcDbEntity
   8
LEVEL001
 370
13
 100
AcDbLine
   6
CONTINUOUS
  62
7
  10
 2878.5484897926
  20
 4666.8539325843
  30
0.0
  11
 2992.5152496360
  21
 4666.8539325843
  31
0.0
   0
LINE
   5
2FC
 100
AcDbEntity
   8
LEVEL001
 370
13
 100
AcDbLine
   6
CONTINUOUS
  62
7
  10
 2992.5152496360
  20
 4666.8539325843
  30
0.0
  11
 2992.5152496360
  21
 4776.8539325843
  31
0.0
   0
LINE
   5
2FD
 100
AcDbEntity
   8
LEVEL001
 370
13
 100
AcDbLine
   6
CONTINUOUS
  62
7
  10
 2992.5152496360
  20
 4776.8539325843
  30
0.0
  11
 2878.5484897926
  21
 4776.8539325843
  31
0.0
   0
LINE
   5
2FE
 100
AcDbEntity
   8
LEVEL001
 370
13
 100
AcDbLine
   6
DASHDOT
  62
6
  10
 3017.5152496360
  20
 4721.8539325843
  30
0.0
  11
 2615.7764216352
  21
 4721.8539325843
  31
0.0
   0
LINE
   5
2FF
 100
AcDbEntity
   8
LEVEL001
 370
13
 100
AcDbLine
   6
DASHDOT
  62
6
  10
 2783.5484897926
  20
 4751.8539325843
  30
0.0
  11
 2813.5484897926
  21
 4751.8539325843
  31
0.0
   0
LINE
   5
300
 100
AcDbEntity
   8
LEVEL001
 370
13
 100
AcDbLine
   6
DASHDOT
  62
6
  10
 2798.5484897926
  20
 4766.8539325843
  30
0.0
  11
 2798.5484897926
  21
 4736.8539325843
  31
0.0
   0
LINE
   5
301
 100
AcDbEntity
   8
LEVEL001
 370
13
 100
AcDbLine
   6
DASHDOT
  62
6
  10
 2783.5484897926
  20
 4691.8539325843
  30
0.0
  11
 2813.5484897926
  21
 4691.8539325843
  31
0.0
   0
LINE
   5
302
 100
AcDbEntity
   8
LEVEL001
 370
13
 100
AcDbLine
   6
DASHDOT
  62
6
  10
 2798.5484897926
  20
 4706.8539325843
  30
0.0
  11
 2798.5484897926
  21
 4676.8539325843
  31
0.0
   0
LINE
   5
303
 100
AcDbEntity
   8
LEVEL001
 370
13
 100
AcDbLine
   6
CONTINUOUS
  62
7
  10
 2823.5484897926
  20
 4776.8539325843
  30
0.0
  11
 2878.5484897926
  21
 4776.8539325843
  31
0.0
   0
LINE
   5
304
 100
AcDbEntity
   8
LEVEL001
 370
13
 100
AcDbLine
   6
CONTINUOUS
  62
7
  10
 2878.5484897926
  20
 4776.8539325843
  30
0.0
  11
 2878.5484897926
  21
 4666.8539325843
  31
0.0
   0
LINE
   5
305
 100
AcDbEntity
   8
LEVEL001
 370
13
 100
AcDbLine
   6
CONTINUOUS
  62
7
  10
 2878.5484897926
  20
 4666.8539325843
  30
0.0
  11
 2823.5484897926
  21
 4666.8539325843
  31
0.0
   0
LINE
   5
306
 100
AcDbEntity
   8
LEVEL001
 370
13
 100
AcDbLine
   6
CONTINUOUS
  62
3
  10
 2791.5484897926
  20
 4744.8539325843
  30
0.0
  11
 2805.5484897926
  21
 4744.8539325843
  31
0.0
   0
LINE
   5
307
 100
AcDbEntity
   8
LEVEL001
 370
13
 100
AcDbLine
   6
CONTINUOUS
  62
3
  10
 2805.5484897926
  20
 4744.8539325843
  30
0.0
  11
 2805.5484897926
  21
 4758.8539325843
  31
0.0
   0
LINE
   5
308
 100
AcDbEntity
   8
LEVEL001
 370
13
 100
AcDbLine
   6
CONTINUOUS
  62
3
  10
 2805.5484897926
  20
 4758.8539325843
  30
0.0
  11
 2791.5484897926
  21
 4758.8539325843
  31
0.0
   0
LINE
   5
309
 100
AcDbEntity
   8
LEVEL001
 370
13
 100
AcDbLine
   6
CONTINUOUS
  62
3
  10
 2791.5484897926
  20
 4758.8539325843
  30
0.0
  11
 2791.5484897926
  21
 4744.8539325843
  31
0.0
   0
LINE
   5
30A
 100
AcDbEntity
   8
LEVEL001
 370
13
 100
AcDbLine
   6
CONTINUOUS
  62
3
  10
 2791.5484897926
  20
 4684.8539325843
  30
0.0
  11
 2805.5484897926
  21
 4684.8539325843
  31
0.0
   0
LINE
   5
30B
 100
AcDbEntity
   8
LEVEL001
 370
13
 100
AcDbLine
   6
CONTINUOUS
  62
3
  10
 2805.5484897926
  20
 4684.8539325843
  30
0.0
  11
 2805.5484897926
  21
 4698.8539325843
  31
0.0
   0
LINE
   5
30C
 100
AcDbEntity
   8
LEVEL001
 370
13
 100
AcDbLine
   6
CONTINUOUS
  62
3
  10
 2805.5484897926
  20
 4698.8539325843
  30
0.0
  11
 2791.5484897926
  21
 4698.8539325843
  31
0.0
   0
LINE
   5
30D
 100
AcDbEntity
   8
LEVEL001
 370
13
 100
AcDbLine
   6
CONTINUOUS
  62
3
  10
 2791.5484897926
  20
 4698.8539325843
  30
0.0
  11
 2791.5484897926
  21
 4684.8539325843
  31
0.0
   0
LINE
   5
30E
 100
AcDbEntity
   8
LEVEL001
 370
13
 100
AcDbLine
   6
CONTINUOUS
  62
3
  10
 2965.5152496360
  20
 4744.8539325843
  30
0.0
  11
 2979.5152496360
  21
 4744.8539325843
  31
0.0
   0
LINE
   5
30F
 100
AcDbEntity
   8
LEVEL001
 370
13
 100
AcDbLine
   6
CONTINUOUS
  62
3
  10
 2979.5152496360
  20
 4744.8539325843
  30
0.0
  11
 2979.5152496360
  21
 4758.8539325843
  31
0.0
   0
LINE
   5
310
 100
AcDbEntity
   8
LEVEL001
 370
13
 100
AcDbLine
   6
CONTINUOUS
  62
3
  10
 2979.5152496360
  20
 4758.8539325843
  30
0.0
  11
 2965.5152496360
  21
 4758.8539325843
  31
0.0
   0
LINE
   5
311
 100
AcDbEntity
   8
LEVEL001
 370
13
 100
AcDbLine
   6
CONTINUOUS
  62
3
  10
 2965.5152496360
  20
 4758.8539325843
  30
0.0
  11
 2965.5152496360
  21
 4744.8539325843
  31
0.0
   0
LINE
   5
312
 100
AcDbEntity
   8
LEVEL001
 370
13
 100
AcDbLine
   6
CONTINUOUS
  62
3
  10
 2965.5152496360
  20
 4684.8539325843
  30
0.0
  11
 2979.5152496360
  21
 4684.8539325843
  31
0.0
   0
LINE
   5
313
 100
AcDbEntity
   8
LEVEL001
 370
13
 100
AcDbLine
   6
CONTINUOUS
  62
3
  10
 2979.5152496360
  20
 4684.8539325843
  30
0.0
  11
 2979.5152496360
  21
 4698.8539325843
  31
0.0
   0
LINE
   5
314
 100
AcDbEntity
   8
LEVEL001
 370
13
 100
AcDbLine
   6
CONTINUOUS
  62
3
  10
 2979.5152496360
  20
 4698.8539325843
  30
0.0
  11
 2965.5152496360
  21
 4698.8539325843
  31
0.0
   0
LINE
   5
315
 100
AcDbEntity
   8
LEVEL001
 370
13
 100
AcDbLine
   6
CONTINUOUS
  62
3
  10
 2965.5152496360
  20
 4698.8539325843
  30
0.0
  11
 2965.5152496360
  21
 4684.8539325843
  31
0.0
   0
LINE
   5
316
 100
AcDbEntity
   8
LEVEL001
 370
13
 100
AcDbLine
   6
CONTINUOUS
  62
3
  10
 3239.6572955968
  20
 4779.8539325843
  30
0.0
  11
 3253.6572955968
  21
 4779.8539325843
  31
0.0
   0
LINE
   5
317
 100
AcDbEntity
   8
LEVEL001
 370
13
 100
AcDbLine
   6
CONTINUOUS
  62
3
  10
 3253.6572955968
  20
 4779.8539325843
  30
0.0
  11
 3253.6572955968
  21
 4793.8539325843
  31
0.0
   0
LINE
   5
318
 100
AcDbEntity
   8
LEVEL001
 370
13
 100
AcDbLine
   6
CONTINUOUS
  62
3
  10
 3253.6572955968
  20
 4793.8539325843
  30
0.0
  11
 3239.6572955968
  21
 4793.8539325843
  31
0.0
   0
LINE
   5
319
 100
AcDbEntity
   8
LEVEL001
 370
13
 100
AcDbLine
   6
CONTINUOUS
  62
3
  10
 3239.6572955968
  20
 4793.8539325843
  30
0.0
  11
 3239.6572955968
  21
 4779.8539325843
  31
0.0
   0
LINE
   5
31A
 100
AcDbEntity
   8
LEVEL001
 370
13
 100
AcDbLine
   6
CONTINUOUS
  62
3
  10
 3239.6572955968
  20
 4719.8539325843
  30
0.0
  11
 3253.6572955968
  21
 4719.8539325843
  31
0.0
   0
LINE
   5
31B
 100
AcDbEntity
   8
LEVEL001
 370
13
 100
AcDbLine
   6
CONTINUOUS
  62
3
  10
 3253.6572955968
  20
 4719.8539325843
  30
0.0
  11
 3253.6572955968
  21
 4733.8539325843
  31
0.0
   0
LINE
   5
31C
 100
AcDbEntity
   8
LEVEL001
 370
13
 100
AcDbLine
   6
CONTINUOUS
  62
3
  10
 3253.6572955968
  20
 4733.8539325843
  30
0.0
  11
 3239.6572955968
  21
 4733.8539325843
  31
0.0
   0
LINE
   5
31D
 100
AcDbEntity
   8
LEVEL001
 370
13
 100
AcDbLine
   6
CONTINUOUS
  62
3
  10
 3239.6572955968
  20
 4733.8539325843
  30
0.0
  11
 3239.6572955968
  21
 4719.8539325843
  31
0.0
   0
LINE
   5
31E
 100
AcDbEntity
   8
LEVEL001
 370
13
 100
AcDbLine
   6
CONTINUOUS
  62
3
  10
 3143.6573111448
  20
 4669.8539325843
  30
0.0
  11
 3129.6573111448
  21
 4669.8539325843
  31
0.0
   0
LINE
   5
31F
 100
AcDbEntity
   8
LEVEL001
 370
13
 100
AcDbLine
   6
CONTINUOUS
  62
3
  10
 3129.6573111448
  20
 4669.8539325843
  30
0.0
  11
 3129.6573111448
  21
 4683.8539325843
  31
0.0
   0
LINE
   5
320
 100
AcDbEntity
   8
LEVEL001
 370
13
 100
AcDbLine
   6
CONTINUOUS
  62
3
  10
 3129.6573111448
  20
 4683.8539325843
  30
0.0
  11
 3143.6573111448
  21
 4683.8539325843
  31
0.0
   0
LINE
   5
321
 100
AcDbEntity
   8
LEVEL001
 370
13
 100
AcDbLine
   6
CONTINUOUS
  62
3
  10
 3143.6573111448
  20
 4683.8539325843
  30
0.0
  11
 3143.6573111448
  21
 4669.8539325843
  31
0.0
   0
LINE
   5
322
 100
AcDbEntity
   8
LEVEL001
 370
13
 100
AcDbLine
   6
CONTINUOUS
  62
3
  10
 3143.6573111448
  20
 4609.8539325843
  30
0.0
  11
 3129.6573111448
  21
 4609.8539325843
  31
0.0
   0
LINE
   5
323
 100
AcDbEntity
   8
LEVEL001
 370
13
 100
AcDbLine
   6
CONTINUOUS
  62
3
  10
 3129.6573111448
  20
 4609.8539325843
  30
0.0
  11
 3129.6573111448
  21
 4623.8539325843
  31
0.0
   0
LINE
   5
324
 100
AcDbEntity
   8
LEVEL001
 370
13
 100
AcDbLine
   6
CONTINUOUS
  62
3
  10
 3129.6573111448
  20
 4623.8539325843
  30
0.0
  11
 3143.6573111448
  21
 4623.8539325843
  31
0.0
   0
LINE
   5
325
 100
AcDbEntity
   8
LEVEL001
 370
13
 100
AcDbLine
   6
CONTINUOUS
  62
3
  10
 3143.6573111448
  20
 4623.8539325843
  30
0.0
  11
 3143.6573111448
  21
 4609.8539325843
  31
0.0
   0
LINE
   5
326
 100
AcDbEntity
   8
LEVEL001
 370
13
 100
AcDbLine
   6
CONTINUOUS
  62
6
  10
 3430.3713475518
  20
 4771.8539325843
  30
0.0
  11
 3430.3713475518
  21
 4671.8539325843
  31
0.0
   0
LINE
   5
327
 100
AcDbEntity
   8
LEVEL001
 370
13
 100
AcDbLine
   6
DASHDOT
  62
6
  10
 3425.7993571056
  20
 4751.8539325843
  30
0.0
  11
 3395.7993571056
  21
 4751.8539325843
  31
0.0
   0
LINE
   5
328
 100
AcDbEntity
   8
LEVEL001
 370
13
 100
AcDbLine
   6
DASHDOT
  62
6
  10
 3410.7993571056
  20
 4766.8539325843
  30
0.0
  11
 3410.7993571056
  21
 4736.8539325843
  31
0.0
   0
LINE
   5
329
 100
AcDbEntity
   8
LEVEL001
 370
13
 100
AcDbLine
   6
DASHDOT
  62
6
  10
 3425.7993571056
  20
 4691.8539325843
  30
0.0
  11
 3395.7993571056
  21
 4691.8539325843
  31
0.0
   0
LINE
   5
32A
 100
AcDbEntity
   8
LEVEL001
 370
13
 100
AcDbLine
   6
DASHDOT
  62
6
  10
 3410.7993571056
  20
 4706.8539325843
  30
0.0
  11
 3410.7993571056
  21
 4676.8539325843
  31
0.0
   0
LINE
   5
32B
 100
AcDbEntity
   8
LEVEL001
 370
13
 100
AcDbLine
   6
DASHDOT
  62
6
  10
 3365.7993571056
  20
 4721.8539325843
  30
0.0
  11
 3767.5381851064
  21
 4721.8539325843
  31
0.0
   0
LINE
   5
32C
 100
AcDbEntity
   8
LEVEL001
 370
13
 100
AcDbLine
   6
DASHDOT
  62
6
  10
 3599.7661169490
  20
 4751.8539325843
  30
0.0
  11
 3569.7661169490
  21
 4751.8539325843
  31
0.0
   0
LINE
   5
32D
 100
AcDbEntity
   8
LEVEL001
 370
13
 100
AcDbLine
   6
DASHDOT
  62
6
  10
 3584.7661169490
  20
 4766.8539325843
  30
0.0
  11
 3584.7661169490
  21
 4736.8539325843
  31
0.0
   0
LINE
   5
32E
 100
AcDbEntity
   8
LEVEL001
 370
13
 100
AcDbLine
   6
DASHDOT
  62
6
  10
 3599.7661169490
  20
 4691.8539325843
  30
0.0
  11
 3569.7661169490
  21
 4691.8539325843
  31
0.0
   0
LINE
   5
32F
 100
AcDbEntity
   8
LEVEL001
 370
13
 100
AcDbLine
   6
DASHDOT
  62
6
  10
 3584.7661169490
  20
 4706.8539325843
  30
0.0
  11
 3584.7661169490
  21
 4676.8539325843
  31
0.0
   0
LINE
   5
330
 100
AcDbEntity
   8
LEVEL001
 370
13
 100
AcDbLine
   6
CONTINUOUS
  62
7
  10
 3559.7661169490
  20
 4776.8539325843
  30
0.0
  11
 3504.7661169490
  21
 4776.8539325843
  31
0.0
   0
LINE
   5
331
 100
AcDbEntity
   8
LEVEL001
 370
13
 100
AcDbLine
   6
CONTINUOUS
  62
7
  10
 3504.7661169490
  20
 4776.8539325843
  30
0.0
  11
 3504.7661169490
  21
 4666.8539325843
  31
0.0
   0
LINE
   5
332
 100
AcDbEntity
   8
LEVEL001
 370
13
 100
AcDbLine
   6
CONTINUOUS
  62
7
  10
 3504.7661169490
  20
 4666.8539325843
  30
0.0
  11
 3559.7661169490
  21
 4666.8539325843
  31
0.0
   0
LINE
   5
333
 100
AcDbEntity
   8
LEVEL001
 370
13
 100
AcDbLine
   6
CONTINUOUS
  62
3
  10
 3591.7661169490
  20
 4744.8539325843
  30
0.0
  11
 3577.7661169490
  21
 4744.8539325843
  31
0.0
   0
LINE
   5
334
 100
AcDbEntity
   8
LEVEL001
 370
13
 100
AcDbLine
   6
CONTINUOUS
  62
3
  10
 3577.7661169490
  20
 4744.8539325843
  30
0.0
  11
 3577.7661169490
  21
 4758.8539325843
  31
0.0
   0
LINE
   5
335
 100
AcDbEntity
   8
LEVEL001
 370
13
 100
AcDbLine
   6
CONTINUOUS
  62
3
  10
 3577.7661169490
  20
 4758.8539325843
  30
0.0
  11
 3591.7661169490
  21
 4758.8539325843
  31
0.0
   0
LINE
   5
336
 100
AcDbEntity
   8
LEVEL001
 370
13
 100
AcDbLine
   6
CONTINUOUS
  62
3
  10
 3591.7661169490
  20
 4758.8539325843
  30
0.0
  11
 3591.7661169490
  21
 4744.8539325843
  31
0.0
   0
LINE
   5
337
 100
AcDbEntity
   8
LEVEL001
 370
13
 100
AcDbLine
   6
CONTINUOUS
  62
3
  10
 3591.7661169490
  20
 4684.8539325843
  30
0.0
  11
 3577.7661169490
  21
 4684.8539325843
  31
0.0
   0
LINE
   5
338
 100
AcDbEntity
   8
LEVEL001
 370
13
 100
AcDbLine
   6
CONTINUOUS
  62
3
  10
 3577.7661169490
  20
 4684.8539325843
  30
0.0
  11
 3577.7661169490
  21
 4698.8539325843
  31
0.0
   0
LINE
   5
339
 100
AcDbEntity
   8
LEVEL001
 370
13
 100
AcDbLine
   6
CONTINUOUS
  62
3
  10
 3577.7661169490
  20
 4698.8539325843
  30
0.0
  11
 3591.7661169490
  21
 4698.8539325843
  31
0.0
   0
LINE
   5
33A
 100
AcDbEntity
   8
LEVEL001
 370
13
 100
AcDbLine
   6
CONTINUOUS
  62
3
  10
 3591.7661169490
  20
 4698.8539325843
  30
0.0
  11
 3591.7661169490
  21
 4684.8539325843
  31
0.0
   0
LINE
   5
33B
 100
AcDbEntity
   8
LEVEL001
 370
13
 100
AcDbLine
   6
CONTINUOUS
  62
3
  10
 3417.7993571056
  20
 4744.8539325843
  30
0.0
  11
 3403.7993571056
  21
 4744.8539325843
  31
0.0
   0
LINE
   5
33C
 100
AcDbEntity
   8
LEVEL001
 370
13
 100
AcDbLine
   6
CONTINUOUS
  62
3
  10
 3403.7993571056
  20
 4744.8539325843
  30
0.0
  11
 3403.7993571056
  21
 4758.8539325843
  31
0.0
   0
LINE
   5
33D
 100
AcDbEntity
   8
LEVEL001
 370
13
 100
AcDbLine
   6
CONTINUOUS
  62
3
  10
 3403.7993571056
  20
 4758.8539325843
  30
0.0
  11
 3417.7993571056
  21
 4758.8539325843
  31
0.0
   0
LINE
   5
33E
 100
AcDbEntity
   8
LEVEL001
 370
13
 100
AcDbLine
   6
CONTINUOUS
  62
3
  10
 3417.7993571056
  20
 4758.8539325843
  30
0.0
  11
 3417.7993571056
  21
 4744.8539325843
  31
0.0
   0
LINE
   5
33F
 100
AcDbEntity
   8
LEVEL001
 370
13
 100
AcDbLine
   6
CONTINUOUS
  62
3
  10
 3417.7993571056
  20
 4684.8539325843
  30
0.0
  11
 3403.7993571056
  21
 4684.8539325843
  31
0.0
   0
LINE
   5
340
 100
AcDbEntity
   8
LEVEL001
 370
13
 100
AcDbLine
   6
CONTINUOUS
  62
3
  10
 3403.7993571056
  20
 4684.8539325843
  30
0.0
  11
 3403.7993571056
  21
 4698.8539325843
  31
0.0
   0
LINE
   5
341
 100
AcDbEntity
   8
LEVEL001
 370
13
 100
AcDbLine
   6
CONTINUOUS
  62
3
  10
 3403.7993571056
  20
 4698.8539325843
  30
0.0
  11
 3417.7993571056
  21
 4698.8539325843
  31
0.0
   0
LINE
   5
342
 100
AcDbEntity
   8
LEVEL001
 370
13
 100
AcDbLine
   6
CONTINUOUS
  62
3
  10
 3417.7993571056
  20
 4698.8539325843
  30
0.0
  11
 3417.7993571056
  21
 4684.8539325843
  31
0.0
   0
LINE
   5
343
 100
AcDbEntity
   8
LEVEL001
 370
13
 100
AcDbLine
   6
CONTINUOUS
  62
7
  10
 3504.7661169490
  20
 4666.8539325843
  30
0.0
  11
 3390.7993571056
  21
 4666.8539325843
  31
0.0
   0
LINE
   5
344
 100
AcDbEntity
   8
LEVEL001
 370
13
 100
AcDbLine
   6
CONTINUOUS
  62
7
  10
 3390.7993571056
  20
 4666.8539325843
  30
0.0
  11
 3390.7993571056
  21
 4776.8539325843
  31
0.0
   0
LINE
   5
345
 100
AcDbEntity
   8
LEVEL001
 370
13
 100
AcDbLine
   6
CONTINUOUS
  62
7
  10
 3390.7993571056
  20
 4776.8539325843
  30
0.0
  11
 3504.7661169490
  21
 4776.8539325843
  31
0.0
   0
ARC
   5
346
 100
AcDbEntity
   8
LEVEL001
 370
13
   6
CONTINUOUS
  62
3
 100
AcDbCircle
  10
 2798.5484897926
  20
 4751.8539325843
  30
0.0
  40
 52.000000000010
 100
AcDbArc
  50
 298.73565374491
  51
 325.00000000000
   0
ARC
   5
347
 100
AcDbEntity
   8
LEVEL001
 370
13
   6
CONTINUOUS
  62
3
 100
AcDbCircle
  10
 2798.5484897926
  20
 4751.8539325843
  30
0.0
  40
 68.000000000070
 100
AcDbArc
  50
 291.57057830163
  51
 324.99999999998
   0
ARC
   5
348
 100
AcDbEntity
   8
LEVEL001
 370
13
   6
CONTINUOUS
  62
3
 100
AcDbCircle
  10
 2847.6976124500
  20
 4717.4393464031
  30
0.0
  40
 8.0000000000000
 100
AcDbArc
  50
 324.99999999994
  51
 146.50781277484
   0
LINE
   5
349
 100
AcDbEntity
   8
LEVEL001
 370
13
 100
AcDbLine
   6
DASHDOT
  62
6
  10
 2832.6976124500
  20
 4717.4393464031
  30
0.0
  11
 2862.6976124500
  21
 4717.4393464031
  31
0.0
   0
LINE
   5
34A
 100
AcDbEntity
   8
LEVEL001
 370
13
 100
AcDbLine
   6
DASHDOT
  62
6
  10
 2847.6976124500
  20
 4732.4393464031
  30
0.0
  11
 2847.6976124500
  21
 4702.4393464031
  31
0.0
   0
ARC
   5
34B
 100
AcDbEntity
   8
LEVEL001
 370
13
   6
CONTINUOUS
  62
3
 100
AcDbCircle
  10
 3584.7661169490
  20
 4751.8539325843
  30
0.0
  40
 52.000000000010
 100
AcDbArc
  50
 215.00000000000
  51
 241.26434625509
   0
ARC
   5
34C
 100
AcDbEntity
   8
LEVEL001
 370
13
   6
CONTINUOUS
  62
3
 100
AcDbCircle
  10
 3584.7661169490
  20
 4751.8539325843
  30
0.0
  40
 68.000000000070
 100
AcDbArc
  50
 215.00000000002
  51
 248.42942169837
   0
ARC
   5
34D
 100
AcDbEntity
   8
LEVEL001
 370
13
   6
CONTINUOUS
  62
3
 100
AcDbCircle
  10
 3535.6169942916
  20
 4717.4393464031
  30
0.0
  40
 8.0000000000000
 100
AcDbArc
  50
 33.492187225299
  51
 214.99999999993
   0
LINE
   5
34E
 100
AcDbEntity
   8
LEVEL001
 370
13
 100
AcDbLine
   6
DASHDOT
  62
6
  10
 3550.6169942916
  20
 4717.4393464031
  30
0.0
  11
 3520.6169942916
  21
 4717.4393464031
  31
0.0
   0
LINE
   5
34F
 100
AcDbEntity
   8
LEVEL001
 370
13
 100
AcDbLine
   6
DASHDOT
  62
6
  10
 3535.6169942916
  20
 4732.4393464031
  30
0.0
  11
 3535.6169942916
  21
 4702.4393464031
  31
0.0
   0
LINE
   5
350
 100
AcDbEntity
   8
LEVEL001
 370
13
 100
AcDbLine
   6
CONTINUOUS
  62
6
  10
 3227.0122046924
  20
 4806.8539325843
  30
0.0
  11
 3227.0122046924
  21
 4706.8539325843
  31
0.0
   0
LINE
   5
351
 100
AcDbEntity
   8
LEVEL001
 370
13
 100
AcDbLine
   6
CONTINUOUS
  62
6
  10
 3156.3024020492
  20
 4696.8539325843
  30
0.0
  11
 3156.3024020492
  21
 4596.8539325843
  31
0.0
   0
LINE
   5
352
 100
AcDbEntity
   8
LEVEL001
 370
13
 100
AcDbLine
   6
CONTINUOUS
  62
3
  10
 3654.7661169490
  20
 4968.4539325843
  30
0.0
  11
 3654.7661169490
  21
 4475.2539325843
  31
0.0
   0
ARC
   5
353
 100
AcDbEntity
   8
LEVEL001
 370
13
   6
CONTINUOUS
  62
3
 100
AcDbCircle
  10
 3652.9661169490
  20
 4968.4539325843
  30
0.0
  40
 1.8000000000002
 100
AcDbArc
  50
 359.99999999991
  51
 89.999999999957
   0
LINE
   5
354
 100
AcDbEntity
   8
LEVEL001
 370
13
 100
AcDbLine
   6
CONTINUOUS
  62
3
  10
 3651.1661169490
  20
 4475.2539325843
  30
0.0
  11
 3651.1661169490
  21
 4968.4539325843
  31
0.0
   0
ARC
   5
355
 100
AcDbEntity
   8
LEVEL001
 370
13
   6
CONTINUOUS
  62
3
 100
AcDbCircle
  10
 3652.9661169490
  20
 4968.4539325843
  30
0.0
  40
 1.8000000000002
 100
AcDbArc
  50
 90.000000000000
  51
 180.00000000009
   0
LINE
   5
356
 100
AcDbEntity
   8
LEVEL001
 370
13
 100
AcDbLine
   6
CONTINUOUS
  62
1
  10
 3654.7661169490
  20
 4950.2539325843
  30
0.0
  11
 3729.7661169490
  21
 4950.2539325843
  31
0.0
   0
LINE
   5
357
 100
AcDbEntity
   8
LEVEL001
 370
13
 100
AcDbLine
   6
CONTINUOUS
  62
1
  10
 3729.7661169490
  20
 4950.2539325843
  30
0.0
  11
 3729.7661169490
  21
 4849.8491702793
  31
0.0
   0
ARC
   5
358
 100
AcDbEntity
   8
LEVEL001
 370
13
   6
CONTINUOUS
  62
1
 100
AcDbCircle
  10
 3674.0769704630
  20
 4785.2539325843
  30
0.0
  40
 5.0000000000000
 100
AcDbArc
  50
 269.99999999998
  51
 285.97235980420
   0
LINE
   5
359
 100
AcDbEntity
   8
LEVEL001
 370
13
 100
AcDbLine
   6
CONTINUOUS
  62
1
  10
 3673.3622357514
  20
 4780.2539325843
  30
0.0
  11
 3654.7661169490
  21
 4780.2539325843
  31
0.0
   0
ARC
   5
35A
 100
AcDbEntity
   8
LEVEL001
 370
13
   6
CONTINUOUS
  62
1
 100
AcDbCircle
  10
 3673.3622357514
  20
 4790.2539325843
  30
0.0
  40
 10.000000000000
 100
AcDbArc
  50
 270.00000000004
  51
 286.57946484708
   0
ARC
   5
35B
 100
AcDbEntity
   8
LEVEL001
 370
13
   6
CONTINUOUS
  62
1
 100
AcDbCircle
  10
 3654.8148185206
  20
 4852.5515514319
  30
0.0
  40
 75.000000000000
 100
AcDbArc
  50
 286.57946484705
  51
 2.0649141019377
   0
ARC
   5
35C
 100
AcDbEntity
   8
LEVEL001
 370
13
   6
CONTINUOUS
  62
7
 100
AcDbCircle
  10
 1496.5605164626
  20
 4721.8539325843
  30
0.0
  40
 2200.0000000000
 100
AcDbArc
  50
 354.30026954860
  51
 1.7635269426121
   0
LINE
   5
35D
 100
AcDbEntity
   8
LEVEL001
 370
13
 100
AcDbLine
   6
CONTINUOUS
  62
6
  10
 3675.7332379328
  20
 4780.5390806217
  30
0.0
  11
 3675.7332379328
  21
 4494.3539325843
  31
0.0
   0
LINE
   5
35E
 100
AcDbEntity
   8
LEVEL001
 370
13
 100
AcDbLine
   6
CONTINUOUS
  62
7
  10
 3651.1661169490
  20
 4666.8539325843
  30
0.0
  11
 3559.7661169490
  21
 4666.8539325843
  31
0.0
   0
LINE
   5
35F
 100
AcDbEntity
   8
LEVEL001
 370
13
 100
AcDbLine
   6
CONTINUOUS
  62
7
  10
 3559.7661169490
  20
 4666.8539325843
  30
0.0
  11
 3559.7661169490
  21
 4776.8539325843
  31
0.0
   0
LINE
   5
360
 100
AcDbEntity
   8
LEVEL001
 370
13
 100
AcDbLine
   6
CONTINUOUS
  62
7
  10
 3559.7661169490
  20
 4776.8539325843
  30
0.0
  11
 3651.1661169490
  21
 4776.8539325843
  31
0.0
   0
LINE
   5
361
 100
AcDbEntity
   8
LEVEL001
 370
13
 100
AcDbLine
   6
DOT
  62
6
  10
 3675.7332379328
  20
 4949.3539325843
  30
0.0
  11
 3654.7661169490
  21
 4949.3539325843
  31
0.0
   0
ARC
   5
362
 100
AcDbEntity
   8
LEVEL001
 370
13
   6
DOT
  62
6
 100
AcDbCircle
  10
 3675.7332379328
  20
 4939.3539325843
  30
0.0
  40
 10.000000000000
 100
AcDbArc
  50
 5.6997304514034
  51
 90.000000000000
   0
ARC
   5
363
 100
AcDbEntity
   8
LEVEL001
 370
13
   6
DOT
  62
6
 100
AcDbCircle
  10
 1496.5605164626
  20
 4721.8539325843
  30
0.0
  40
 2200.0000000000
 100
AcDbArc
  50
 1.7635269426122
  51
 5.6997304514028
   0
ARC
   5
364
 100
AcDbEntity
   8
LEVEL001
 370
13
   6
CONTINUOUS
  62
3
 100
AcDbCircle
  10
 3652.9661169490
  20
 4475.2539325843
  30
0.0
  40
 1.8000000000002
 100
AcDbArc
  50
 270.00000000004
  51
 0.28950115500607E-10
   0
ARC
   5
365
 100
AcDbEntity
   8
LEVEL001
 370
13
   6
CONTINUOUS
  62
3
 100
AcDbCircle
  10
 3652.9661169490
  20
 4475.2539325843
  30
0.0
  40
 1.8000000000002
 100
AcDbArc
  50
 179.99999999997
  51
 270.00000000000
   0
LINE
   5
366
 100
AcDbEntity
   8
LEVEL001
 370
13
 100
AcDbLine
   6
CONTINUOUS
  62
7
  10
 3675.7332379328
  20
 4494.3539325843
  30
0.0
  11
 3654.7661169490
  21
 4494.3539325843
  31
0.0
   0
ARC
   5
367
 100
AcDbEntity
   8
LEVEL001
 370
13
   6
CONTINUOUS
  62
7
 100
AcDbCircle
  10
 3675.7332379328
  20
 4504.3539325843
  30
0.0
  40
 10.000000000000
 100
AcDbArc
  50
 270.00000000000
  51
 354.30026954859
   0
CIRCLE
   5
368
 100
AcDbEntity
   8
LEVEL001
 370
13
 100
AcDbCircle
   6
CONTINUOUS
  62
1
  10
 3391.6573033708
  20
 4355.9539325843
  30
0.0
  40
 69.999997913838
   0
CIRCLE
   5
369
 100
AcDbEntity
   8
LEVEL001
 370
13
 100
AcDbCircle
   6
CONTINUOUS
  62
1
  10
 3531.6573012846
  20
 4355.9539325843
  30
0.0
  40
 70.000000000000
   0
MTEXT
   5
36A
 100
AcDbEntity
   8
LEVEL001
 370
13
  62
1
 100
AcDbMText
  10
 3531.6573012846
  20
 4355.9539325843
  30
0.0
  40
 57.142857142858
  41
0.0
  71
5
  72
1
   1
\T1.000000;10
   7
GMM001
  44
 0.79999984000003
   0
MTEXT
   5
36B
 100
AcDbEntity
   8
LEVEL001
 370
13
  62
1
 100
AcDbMText
  10
 3391.6573033708
  20
 4355.9539325843
  30
0.0
  40
 57.142857142858
  41
0.0
  71
5
  72
1
   1
\T1.000000;9
   7
GMM001
  44
 0.79999984000003
   0
CIRCLE
   5
36C
 100
AcDbEntity
   8
LEVEL001
 370
13
 100
AcDbCircle
   6
CONTINUOUS
  62
1
  10
 3551.1511214984
  20
 5171.8539325843
  30
0.0
  40
 69.999997913838
   0
CIRCLE
   5
36D
 100
AcDbEntity
   8
LEVEL001
 370
13
 100
AcDbCircle
   6
CONTINUOUS
  62
1
  10
 3691.1511173262
  20
 5171.8539325843
  30
0.0
  40
 69.999997913838
   0
MTEXT
   5
36E
 100
AcDbEntity
   8
LEVEL001
 370
13
  62
1
 100
AcDbMText
  10
 3551.1511214984
  20
 5171.8539325843
  30
0.0
  40
 57.142857142858
  41
0.0
  71
5
  72
1
   1
\T1.000000;6
   7
GMM001
  44
 0.79999984000003
   0
MTEXT
   5
36F
 100
AcDbEntity
   8
LEVEL001
 370
13
  62
1
 100
AcDbMText
  10
 3691.1511173262
  20
 5171.8539325843
  30
0.0
  40
 57.142857142858
  41
0.0
  71
5
  72
1
   1
\T1.000000;8
   7
GMM001
  44
 0.79999984000003
   0
MTEXT
   5
370
 100
AcDbEntity
   8
LEVEL001
 370
13
  62
1
 100
AcDbMText
  10
 3391.6573033708
  20
 5171.8539325843
  30
0.0
  40
 57.142857142858
  41
0.0
  71
5
  72
1
   1
\T1.000000;13
   7
GMM001
  44
 0.79999984000003
   0
CIRCLE
   5
371
 100
AcDbEntity
   8
LEVEL001
 370
13
 100
AcDbCircle
   6
CONTINUOUS
  62
1
  10
 3391.6573033708
  20
 5171.8539325843
  30
0.0
  40
 70.000000000000
   0
CIRCLE
   5
372
 100
AcDbEntity
   8
LEVEL001
 370
13
 100
AcDbCircle
   6
CONTINUOUS
  62
1
  10
 2851.6573075432
  20
 5171.8539325843
  30
0.0
  40
 69.999997913838
   0
CIRCLE
   5
373
 100
AcDbEntity
   8
LEVEL001
 370
13
 100
AcDbCircle
   6
CONTINUOUS
  62
1
  10
 2991.6573033708
  20
 5171.8539325843
  30
0.0
  40
 69.999997913838
   0
MTEXT
   5
374
 100
AcDbEntity
   8
LEVEL001
 370
13
  62
1
 100
AcDbMText
  10
 2991.6573033708
  20
 5171.8539325843
  30
0.0
  40
 57.142857142858
  41
0.0
  71
5
  72
1
   1
\T1.000000;7
   7
GMM001
  44
 0.79999984000003
   0
MTEXT
   5
375
 100
AcDbEntity
   8
LEVEL001
 370
13
  62
1
 100
AcDbMText
  10
 2851.6573075432
  20
 5171.8539325843
  30
0.0
  40
 57.142857142858
  41
0.0
  71
5
  72
1
   1
\T1.000000;5
   7
GMM001
  44
 0.79999984000003
   0
LINE
   5
376
 100
AcDbEntity
   8
LEVEL001
 370
13
 100
AcDbLine
   6
CONTINUOUS
  62
7
  10
 2732.1484897926
  20
 4666.8539325843
  30
0.0
  11
 2823.5484897926
  21
 4666.8539325843
  31
0.0
   0
LINE
   5
377
 100
AcDbEntity
   8
LEVEL001
 370
13
 100
AcDbLine
   6
CONTINUOUS
  62
7
  10
 2823.5484897926
  20
 4666.8539325843
  30
0.0
  11
 2823.5484897926
  21
 4776.8539325843
  31
0.0
   0
LINE
   5
378
 100
AcDbEntity
   8
LEVEL001
 370
13
 100
AcDbLine
   6
CONTINUOUS
  62
7
  10
 2823.5484897926
  20
 4776.8539325843
  30
0.0
  11
 2732.1484897926
  21
 4776.8539325843
  31
0.0
   0
LINE
   5
379
 100
AcDbEntity
   8
LEVEL001
 370
13
 100
AcDbLine
   6
CONTINUOUS
  62
3
  10
 2728.5484897926
  20
 4968.4539325843
  30
0.0
  11
 2728.5484897926
  21
 4475.2539325843
  31
0.0
   0
ARC
   5
37A
 100
AcDbEntity
   8
LEVEL001
 370
13
   6
CONTINUOUS
  62
3
 100
AcDbCircle
  10
 2730.3484897926
  20
 4968.4539325843
  30
0.0
  40
 1.8000000000002
 100
AcDbArc
  50
 90.000000000000
  51
 180.00000000009
   0
LINE
   5
37B
 100
AcDbEntity
   8
LEVEL001
 370
13
 100
AcDbLine
   6
CONTINUOUS
  62
3
  10
 2732.1484897926
  20
 4475.2539325843
  30
0.0
  11
 2732.1484897926
  21
 4968.4539325843
  31
0.0
   0
ARC
   5
37C
 100
AcDbEntity
   8
LEVEL001
 370
13
   6
CONTINUOUS
  62
3
 100
AcDbCircle
  10
 2730.3484897926
  20
 4968.4539325843
  30
0.0
  40
 1.8000000000002
 100
AcDbArc
  50
 359.99999999991
  51
 90.000000000014
   0
LINE
   5
37D
 100
AcDbEntity
   8
LEVEL001
 370
13
 100
AcDbLine
   6
CONTINUOUS
  62
1
  10
 2728.5484897926
  20
 4950.2539325843
  30
0.0
  11
 2653.5484897926
  21
 4950.2539325843
  31
0.0
   0
LINE
   5
37E
 100
AcDbEntity
   8
LEVEL001
 370
13
 100
AcDbLine
   6
CONTINUOUS
  62
1
  10
 2653.5484897926
  20
 4950.2539325843
  30
0.0
  11
 2653.5484897926
  21
 4849.8491702793
  31
0.0
   0
ARC
   5
37F
 100
AcDbEntity
   8
LEVEL001
 370
13
   6
CONTINUOUS
  62
1
 100
AcDbCircle
  10
 2709.2376362786
  20
 4785.2539325843
  30
0.0
  40
 5.0000000000000
 100
AcDbArc
  50
 254.02764019580
  51
 270.00000000001
   0
LINE
   5
380
 100
AcDbEntity
   8
LEVEL001
 370
13
 100
AcDbLine
   6
CONTINUOUS
  62
1
  10
 2709.9523709902
  20
 4780.2539325843
  30
0.0
  11
 2728.5484897926
  21
 4780.2539325843
  31
0.0
   0
ARC
   5
381
 100
AcDbEntity
   8
LEVEL001
 370
13
   6
CONTINUOUS
  62
1
 100
AcDbCircle
  10
 2709.9523709902
  20
 4790.2539325843
  30
0.0
  40
 10.000000000000
 100
AcDbArc
  50
 253.42053515292
  51
 269.99999999997
   0
ARC
   5
382
 100
AcDbEntity
   8
LEVEL001
 370
13
   6
CONTINUOUS
  62
1
 100
AcDbCircle
  10
 2728.4997882210
  20
 4852.5515514319
  30
0.0
  40
 75.000000000000
 100
AcDbArc
  50
 177.93508589806
  51
 253.42053515295
   0
ARC
   5
383
 100
AcDbEntity
   8
LEVEL001
 370
13
   6
CONTINUOUS
  62
7
 100
AcDbCircle
  10
 4886.7540902790
  20
 4721.8539325843
  30
0.0
  40
 2200.0000000000
 100
AcDbArc
  50
 178.23647305739
  51
 185.69973045140
   0
LINE
   5
384
 100
AcDbEntity
   8
LEVEL001
 370
13
 100
AcDbLine
   6
CONTINUOUS
  62
6
  10
 2707.5813688088
  20
 4780.5390806217
  30
0.0
  11
 2707.5813688088
  21
 4494.3539325843
  31
0.0
   0
LINE
   5
385
 100
AcDbEntity
   8
LEVEL001
 370
13
 100
AcDbLine
   6
DOT
  62
6
  10
 2707.5813688088
  20
 4949.3539325843
  30
0.0
  11
 2728.5484897926
  21
 4949.3539325843
  31
0.0
   0
ARC
   5
386
 100
AcDbEntity
   8
LEVEL001
 370
13
   6
DOT
  62
6
 100
AcDbCircle
  10
 2707.5813688088
  20
 4939.3539325843
  30
0.0
  40
 10.000000000000
 100
AcDbArc
  50
 90.000000000003
  51
 174.30026954860
   0
ARC
   5
387
 100
AcDbEntity
   8
LEVEL001
 370
13
   6
DOT
  62
6
 100
AcDbCircle
  10
 4886.7540902790
  20
 4721.8539325843
  30
0.0
  40
 2200.0000000000
 100
AcDbArc
  50
 174.30026954860
  51
 178.23647305739
   0
LINE
   5
388
 100
AcDbEntity
   8
LEVEL001
 370
13
 100
AcDbLine
   6
CONTINUOUS
  62
7
  10
 2707.5813688088
  20
 4494.3539325843
  30
0.0
  11
 2728.5484897926
  21
 4494.3539325843
  31
0.0
   0
ARC
   5
389
 100
AcDbEntity
   8
LEVEL001
 370
13
   6
CONTINUOUS
  62
7
 100
AcDbCircle
  10
 2707.5813688088
  20
 4504.3539325843
  30
0.0
  40
 10.000000000000
 100
AcDbArc
  50
 185.69973045141
  51
 270.00000000000
   0
ARC
   5
38A
 100
AcDbEntity
   8
LEVEL001
 370
13
   6
CONTINUOUS
  62
3
 100
AcDbCircle
  10
 2730.3484897926
  20
 4475.2539325843
  30
0.0
  40
 1.8000000000002
 100
AcDbArc
  50
 179.99999999997
  51
 270.00000000000
   0
ARC
   5
38B
 100
AcDbEntity
   8
LEVEL001
 370
13
   6
CONTINUOUS
  62
3
 100
AcDbCircle
  10
 2730.3484897926
  20
 4475.2539325843
  30
0.0
  40
 1.8000000000002
 100
AcDbArc
  50
 269.99999999999
  51
 0.28950115500607E-10
   0
LINE
   5
38C
 100
AcDbEntity
   8
LEVEL001
 370
13
 100
AcDbLine
   6
CONTINUOUS
  62
7
  10
 3229.8073033708
  20
 5077.4539325843
  30
0.0
  11
 3153.5073033708
  21
 5077.4539325843
  31
0.0
   0
LINE
   5
38D
 100
AcDbEntity
   8
LEVEL001
 370
13
 100
AcDbLine
   6
CONTINUOUS
  62
7
  10
 3153.5073033708
  20
 5077.4539325843
  30
0.0
  11
 3153.5073033708
  21
 5074.4539325843
  31
0.0
   0
LINE
   5
38E
 100
AcDbEntity
   8
LEVEL001
 370
13
 100
AcDbLine
   6
CONTINUOUS
  62
7
  10
 3153.5073033708
  20
 5074.4539325843
  30
0.0
  11
 3229.8073033708
  21
 5074.4539325843
  31
0.0
   0
LINE
   5
38F
 100
AcDbEntity
   8
LEVEL001
 370
13
 100
AcDbLine
   6
CONTINUOUS
  62
7
  10
 3229.8073033708
  20
 5074.4539325843
  30
0.0
  11
 3229.8073033708
  21
 5077.4539325843
  31
0.0
   0
LINE
   5
390
 100
AcDbEntity
   8
LEVEL001
 370
13
 100
AcDbLine
   6
DOT
  62
1
  10
 3224.8073033708
  20
 5074.4539325843
  30
0.0
  11
 3224.8073033708
  21
 5047.4539325843
  31
0.0
   0
LINE
   5
391
 100
AcDbEntity
   8
LEVEL001
 370
13
 100
AcDbLine
   6
DOT
  62
1
  10
 3224.8073033708
  20
 5047.4539325843
  30
0.0
  11
 3158.5073033708
  21
 5047.4539325843
  31
0.0
   0
LINE
   5
392
 100
AcDbEntity
   8
LEVEL001
 370
13
 100
AcDbLine
   6
DOT
  62
1
  10
 3158.5073033708
  20
 5047.4539325843
  30
0.0
  11
 3158.5073033708
  21
 5074.4539325843
  31
0.0
   0
LINE
   5
393
 100
AcDbEntity
   8
LEVEL001
 370
13
 100
AcDbLine
   6
CONTINUOUS
  62
7
  10
 3229.8073033708
  20
 4811.8539325843
  30
0.0
  11
 3229.8073033708
  21
 5073.4539325843
  31
0.0
   0
LINE
   5
394
 100
AcDbEntity
   8
LEVEL001
 370
13
 100
AcDbLine
   6
CONTINUOUS
  62
7
  10
 3229.8073033708
  20
 5073.4539325843
  30
0.0
  11
 3153.5073033708
  21
 5073.4539325843
  31
0.0
   0
LINE
   5
395
 100
AcDbEntity
   8
LEVEL001
 370
13
 100
AcDbLine
   6
CONTINUOUS
  62
7
  10
 3153.5073033708
  20
 5073.4539325843
  30
0.0
  11
 3153.5073033708
  21
 4811.8539325843
  31
0.0
   0
LINE
   5
396
 100
AcDbEntity
   8
LEVEL001
 370
13
 100
AcDbLine
   6
CONTINUOUS
  62
7
  10
 2803.5073033708
  20
 1073.4539325843
  30
0.0
  11
 2879.8073033708
  21
 1073.4539325843
  31
0.0
   0
ARC
   5
397
 100
AcDbEntity
   8
LEVEL001
 370
13
   6
CONTINUOUS
  62
7
 100
AcDbCircle
  10
 2853.5073033708
  20
 4389.4758182947
  30
0.0
  40
 300.00000000000
 100
AcDbArc
  50
 322.12501634890
  51
 360.00000000000
   0
ARC
   5
398
 100
AcDbEntity
   8
LEVEL001
 370
13
   6
DASHDOT
  62
6
 100
AcDbCircle
  10
 2853.5073033708
  20
 4389.4758182947
  30
0.0
  40
 338.15000000000
 100
AcDbArc
  50
 322.12501634890
  51
0.0
   0
ARC
   5
399
 100
AcDbEntity
   8
LEVEL001
 370
13
   6
CONTINUOUS
  62
7
 100
AcDbCircle
  10
 2853.5073033708
  20
 4389.4758182947
  30
0.0
  40
 376.30000000000
 100
AcDbArc
  50
 322.12501634890
  51
0.0
   0
POINT
   5
39A
 100
AcDbEntity
   8
LEVEL001
 100
AcDbPoint
  62
2
  10
 3191.6573033708
  20
 4273.4539325843
  30
0.0
   0
LINE
   5
39B
 100
AcDbEntity
   8
LEVEL001
 370
13
 100
AcDbLine
   6
CONTINUOUS
  62
7
  10
 3090.3129685836
  20
 4205.2936342403
  30
0.0
  11
 2882.7740639720
  21
 3938.4578997395
  31
0.0
   0
ARC
   5
39C
 100
AcDbEntity
   8
LEVEL001
 370
13
   6
CONTINUOUS
  62
7
 100
AcDbCircle
  10
 3179.8073033708
  20
 3707.4320468739
  30
0.0
  40
 300.00000000000
 100
AcDbArc
  50
 142.12501634890
  51
 180.00000000000
   0
ARC
   5
39D
 100
AcDbEntity
   8
LEVEL001
 370
13
   6
DASHDOT
  62
6
 100
AcDbCircle
  10
 3179.8073033708
  20
 3707.4320468739
  30
0.0
  40
 338.15000000000
 100
AcDbArc
  50
 142.12501634890
  51
 180.00000000000
   0
ARC
   5
39E
 100
AcDbEntity
   8
LEVEL001
 370
13
   6
CONTINUOUS
  62
7
 100
AcDbCircle
  10
 3179.8073033708
  20
 3707.4320468739
  30
0.0
  40
 376.30000000000
 100
AcDbArc
  50
 142.12501634890
  51
 180.00000000000
   0
LINE
   5
39F
 100
AcDbEntity
   8
LEVEL001
 370
13
 100
AcDbLine
   6
CONTINUOUS
  62
7
  10
 2943.0016381580
  20
 3891.6142309283
  30
0.0
  11
 3150.5405427696
  21
 4158.4499654291
  31
0.0
   0
POINT
   5
3A0
 100
AcDbEntity
   8
LEVEL001
 100
AcDbPoint
  62
2
  10
 2841.6573033708
  20
 3823.4539325843
  30
0.0
   0
LINE
   5
3A1
 100
AcDbEntity
   8
LEVEL001
 370
13
 100
AcDbLine
   6
DASHDOT
  62
6
  10
 2912.8878510650
  20
 3915.0360653339
  30
0.0
  11
 3120.4267556766
  21
 4181.8717998347
  31
0.0
   0
LINE
   5
3A2
 100
AcDbEntity
   8
LEVEL001
 370
13
 100
AcDbLine
   6
CONTINUOUS
  62
7
  10
 3153.5073033708
  20
 4591.8539325843
  30
0.0
  11
 3153.5073033708
  21
 4389.4758182947
  31
0.0
   0
LINE
   5
3A3
 100
AcDbEntity
   8
LEVEL001
 370
13
 100
AcDbLine
   6
DASHDOT
  62
6
  10
 3191.6573033708
  20
 5129.6499768867
  30
0.0
  11
 3191.6573033708
  21
 4389.8851141479
  31
0.0
   0
LINE
   5
3A4
 100
AcDbEntity
   8
LEVEL001
 370
13
 100
AcDbLine
   6
CONTINUOUS
  62
7
  10
 3229.8073033708
  20
 4389.4758182947
  30
0.0
  11
 3229.8073033708
  21
 4591.8539325843
  31
0.0
   0
LINE
   5
3A5
 100
AcDbEntity
   8
LEVEL001
 370
13
 100
AcDbLine
   6
DASHDOT
  62
6
  10
 2841.6573033708
  20
 3707.4320468739
  30
0.0
  11
 2841.6573033708
  21
 973.45393258427
  31
0.0
   0
MTEXT
   5
3A6
 100
AcDbEntity
   8
LEVEL001
 370
13
  62
1
 100
AcDbMText
  10
 3191.6573033708
  20
 5521.8539325843
  30
0.0
  40
 57.142857142858
  41
0.0
  71
5
  72
1
   1
\T1.000000;側　面　図
   7
GMM001
  44
 0.79999984000003
   0
MTEXT
   5
3A8
 100
AcDbEntity
   8
LEVEL001
 370
13
  62
1
 100
AcDbMText
  10
 2462.3059085802
  20
 1982.1838696246
  30
0.0
  40
 40.000000000000
  41
0.0
  71
7
  72
1
   1
\T1.000000;ＧＬ
   7
GMM003
  44
 0.79999984000003
   0
LINE
   5
3A9
 100
AcDbEntity
   8
LEVEL001
 370
13
 100
AcDbLine
   6
CONTINUOUS
  62
1
  10
 2434.1572381354
  20
 1973.4539325843
  30
0.0
  11
 2409.1572381354
  21
 2023.4539325843
  31
0.0
   0
LINE
   5
3AA
 100
AcDbEntity
   8
LEVEL001
 370
13
 100
AcDbLine
   6
CONTINUOUS
  62
1
  10
 2409.1572381354
  20
 2023.4539325843
  30
0.0
  11
 2459.1572381354
  21
 2023.4539325843
  31
0.0
   0
LINE
   5
3AB
 100
AcDbEntity
   8
LEVEL001
 370
13
 100
AcDbLine
   6
CONTINUOUS
  62
1
  10
 2459.1572381354
  20
 2023.4539325843
  30
0.0
  11
 2434.1572381354
  21
 1973.4539325843
  31
0.0
   0
CIRCLE
   5
3AC
 100
AcDbEntity
   8
LEVEL001
 370
13
 100
AcDbCircle
   6
CONTINUOUS
  62
7
  10
 2841.6572695688
  20
 1473.4539325843
  30
0.0
  40
 7.5000000000000
   0
LINE
   5
3AD
 100
AcDbEntity
   8
LEVEL001
 370
13
 100
AcDbLine
   6
DASHDOT
  62
6
  10
 2811.6572695688
  20
 1473.4539325843
  30
0.0
  11
 2871.6572695688
  21
 1473.4539325843
  31
0.0
   0
LINE
   5
3AE
 100
AcDbEntity
   8
LEVEL001
 370
13
 100
AcDbLine
   6
DASHDOT
  62
6
  10
 2781.6572852852
  20
 1373.4539325843
  30
0.0
  11
 2901.6572852852
  21
 1373.4539325843
  31
0.0
   0
LINE
   5
3AF
 100
AcDbEntity
   8
LEVEL001
 370
13
 100
AcDbLine
   6
CONTINUOUS
  62
7
  10
 2803.5073033708
  20
 1380.9539325843
  30
0.0
  11
 2731.6572852852
  21
 1380.9539325843
  31
0.0
   0
LINE
   5
3B0
 100
AcDbEntity
   8
LEVEL001
 370
13
 100
AcDbLine
   6
CONTINUOUS
  62
7
  10
 2731.6572852852
  20
 1380.9539325843
  30
0.0
  11
 2731.6572852852
  21
 1365.9539325843
  31
0.0
   0
LINE
   5
3B1
 100
AcDbEntity
   8
LEVEL001
 370
13
 100
AcDbLine
   6
CONTINUOUS
  62
7
  10
 2731.6572852852
  20
 1365.9539325843
  30
0.0
  11
 2803.5073033708
  21
 1365.9539325843
  31
0.0
   0
LINE
   5
3B2
 100
AcDbEntity
   8
LEVEL001
 370
13
 100
AcDbLine
   6
CONTINUOUS
  62
7
  10
 2879.8073033708
  20
 1380.9539325843
  30
0.0
  11
 2951.6572852852
  21
 1380.9539325843
  31
0.0
   0
LINE
   5
3B3
 100
AcDbEntity
   8
LEVEL001
 370
13
 100
AcDbLine
   6
CONTINUOUS
  62
7
  10
 2951.6572852852
  20
 1380.9539325843
  30
0.0
  11
 2951.6572852852
  21
 1365.9539325843
  31
0.0
   0
LINE
   5
3B4
 100
AcDbEntity
   8
LEVEL001
 370
13
 100
AcDbLine
   6
CONTINUOUS
  62
7
  10
 2951.6572852852
  20
 1365.9539325843
  30
0.0
  11
 2879.8073033708
  21
 1365.9539325843
  31
0.0
   0
CIRCLE
   5
3B5
 100
AcDbEntity
   8
LEVEL001
 370
13
 100
AcDbCircle
   6
CONTINUOUS
  62
1
  10
 2466.6573033708
  20
 1223.4539325843
  30
0.0
  40
 70.000000000000
   0
LINE
   5
3B6
 100
AcDbEntity
   8
LEVEL001
 370
13
 100
AcDbLine
   6
DOT
  62
1
  10
 2879.8073033708
  20
 1365.9539325843
  30
0.0
  11
 2803.5073033708
  21
 1365.9539325843
  31
0.0
   0
LINE
   5
3B7
 100
AcDbEntity
   8
LEVEL001
 370
13
 100
AcDbLine
   6
DOT
  62
1
  10
 2803.5073033708
  20
 1380.9539325843
  30
0.0
  11
 2879.8073033708
  21
 1380.9539325843
  31
0.0
   0
MTEXT
   5
3B8
 100
AcDbEntity
   8
LEVEL001
 370
13
  62
1
 100
AcDbMText
  10
 2466.6573033708
  20
 1223.4539325843
  30
0.0
  40
 57.142857142858
  41
0.0
  71
5
  72
1
   1
\T1.000000;12
   7
GMM001
  44
 0.79999984000003
   0
LINE
   5
3B9
 100
AcDbEntity
   8
LEVEL001
 370
13
 100
AcDbLine
   6
CONTINUOUS
  62
6
  10
 5451.6573033708
  20
 2601.8539325843
  30
0.0
  11
 8091.6573033708
  21
 2601.8539325843
  31
0.0
   0
MTEXT
   5
3BA
 100
AcDbEntity
   8
LEVEL001
 370
13
  62
1
 100
AcDbMText
  10
 7331.6573033708
  20
 1701.8539325843
  30
0.0
  40
 51.428571428572
  41
0.0
  71
4
  72
1
   1
\T1.000000;静電粉体塗装
   7
GMM001
  44
 0.79999984000003
   0
MTEXT
   5
3BB
 100
AcDbEntity
   8
LEVEL001
 370
13
  62
1
 100
AcDbMText
  10
 6771.6573033708
  20
 1701.8539325843
  30
0.0
  40
 51.428571428572
  41
0.0
  71
4
  72
1
   1
\T1.000000;ＳＴＫ４００
   7
GMM001
  44
 0.79999984000003
   0
MTEXT
   5
3BC
 100
AcDbEntity
   8
LEVEL001
 370
13
  62
1
 100
AcDbMText
  10
 6703.6573033708
  20
 1701.8539325843
  30
0.0
  40
 51.428571428572
  41
0.0
  71
6
  72
1
   1
\T1.000000;１
   7
GMM001
  44
 0.79999984000003
   0
MTEXT
   5
3BD
 100
AcDbEntity
   8
LEVEL001
 370
13
  62
1
 100
AcDbMText
  10
 7331.6573033708
  20
 1821.8539325843
  30
0.0
  40
 51.428571428572
  41
0.0
  71
4
  72
1
   1
\T1.000000;溶融亜鉛メッキ
   7
GMM001
  44
 0.79999984000003
   0
MTEXT
   5
3BE
 100
AcDbEntity
   8
LEVEL001
 370
13
  62
1
 100
AcDbMText
  10
 6771.6573033708
  20
 1821.8539325843
  30
0.0
  40
 51.428571428572
  41
0.0
  71
4
  72
1
   1
\T1.000000;ＳＳ４００
   7
GMM001
  44
 0.79999984000003
   0
MTEXT
   5
3BF
 100
AcDbEntity
   8
LEVEL001
 370
13
  62
1
 100
AcDbMText
  10
 6703.6573033708
  20
 1821.8539325843
  30
0.0
  40
 51.428571428572
  41
0.0
  71
6
  72
1
   1
\T1.000000;４
   7
GMM001
  44
 0.79999984000003
   0
MTEXT
   5
3C0
 100
AcDbEntity
   8
LEVEL001
 370
13
  62
1
 100
AcDbMText
  10
 7331.6573033708
  20
 1941.8539325843
  30
0.0
  40
 51.428571428572
  41
0.0
  71
4
  72
1
   1
\T1.000000;溶融亜鉛メッキ
   7
GMM001
  44
 0.79999984000003
   0
MTEXT
   5
3C1
 100
AcDbEntity
   8
LEVEL001
 370
13
  62
1
 100
AcDbMText
  10
 7331.6573033708
  20
 2061.8539325843
  30
0.0
  40
 51.428571428572
  41
0.0
  71
4
  72
1
   1
\T1.000000;溶融亜鉛メッキ
   7
GMM001
  44
 0.79999984000003
   0
MTEXT
   5
3C2
 100
AcDbEntity
   8
LEVEL001
 370
13
  62
1
 100
AcDbMText
  10
 7331.6573033708
  20
 2181.8539325843
  30
0.0
  40
 51.428571428572
  41
0.0
  71
4
  72
1
   1
\T1.000000;溶融亜鉛メッキ
   7
GMM001
  44
 0.79999984000003
   0
MTEXT
   5
3C3
 100
AcDbEntity
   8
LEVEL001
 370
13
  62
1
 100
AcDbMText
  10
 6771.6573033708
  20
 1941.8539325843
  30
0.0
  40
 51.428571428572
  41
0.0
  71
4
  72
1
   1
\T1.000000;ＳＳ４００
   7
GMM001
  44
 0.79999984000003
   0
MTEXT
   5
3C4
 100
AcDbEntity
   8
LEVEL001
 370
13
  62
1
 100
AcDbMText
  10
 6771.6573033708
  20
 2061.8539325843
  30
0.0
  40
 51.428571428572
  41
0.0
  71
4
  72
1
   1
\T1.000000;ＳＳ４００
   7
GMM001
  44
 0.79999984000003
   0
MTEXT
   5
3C5
 100
AcDbEntity
   8
LEVEL001
 370
13
  62
1
 100
AcDbMText
  10
 6771.6573033708
  20
 2181.8539325843
  30
0.0
  40
 51.428571428572
  41
0.0
  71
4
  72
1
   1
\T1.000000;ＳＳ４００
   7
GMM001
  44
 0.79999984000003
   0
MTEXT
   5
3C6
 100
AcDbEntity
   8
LEVEL001
 370
13
  62
1
 100
AcDbMText
  10
 6703.6573033708
  20
 1941.8539325843
  30
0.0
  40
 51.428571428572
  41
0.0
  71
6
  72
1
   1
\T1.000000;１
   7
GMM001
  44
 0.79999984000003
   0
MTEXT
   5
3C7
 100
AcDbEntity
   8
LEVEL001
 370
13
  62
1
 100
AcDbMText
  10
 6703.6573033708
  20
 2061.8539325843
  30
0.0
  40
 51.428571428572
  41
0.0
  71
6
  72
1
   1
\T1.000000;８
   7
GMM001
  44
 0.79999984000003
   0
MTEXT
   5
3C8
 100
AcDbEntity
   8
LEVEL001
 370
13
  62
1
 100
AcDbMText
  10
 6703.6573033708
  20
 2181.8539325843
  30
0.0
  40
 51.428571428572
  41
0.0
  71
6
  72
1
   1
\T1.000000;８
   7
GMM001
  44
 0.79999984000003
   0
MTEXT
   5
3C9
 100
AcDbEntity
   8
LEVEL001
 370
13
  62
1
 100
AcDbMText
  10
 5623.6573033708
  20
 1701.8539325843
  30
0.0
  40
 51.428571428572
  41
0.0
  71
6
  72
1
   1
\T1.000000;１１
   7
GMM001
  44
 0.79999984000003
   0
MTEXT
   5
3CA
 100
AcDbEntity
   8
LEVEL001
 370
13
  62
1
 100
AcDbMText
  10
 5691.6573033708
  20
 1701.8539325843
  30
0.0
  40
 51.428571428572
  41
0.0
  71
4
  72
1
   1
\T1.000000;支柱
   7
GMM001
  44
 0.79999984000003
   0
MTEXT
   5
3CB
 100
AcDbEntity
   8
LEVEL001
 370
13
  62
1
 100
AcDbMText
  10
 5691.6573033708
  20
 1821.8539325843
  30
0.0
  40
 51.428571428572
  41
0.0
  71
4
  72
1
   1
\T1.000000;同上ボルトナット
   7
GMM001
  44
 0.79999984000003
   0
MTEXT
   5
3CC
 100
AcDbEntity
   8
LEVEL001
 370
13
  62
1
 100
AcDbMText
  10
 5623.6573033708
  20
 1821.8539325843
  30
0.0
  40
 51.428571428572
  41
0.0
  71
6
  72
1
   1
\T1.000000;１０
   7
GMM001
  44
 0.79999984000003
   0
MTEXT
   5
3CD
 100
AcDbEntity
   8
LEVEL001
 370
13
  62
1
 100
AcDbMText
  10
 5623.6573033708
  20
 1941.8539325843
  30
0.0
  40
 51.428571428572
  41
0.0
  71
6
  72
1
   1
\T1.000000;９
   7
GMM001
  44
 0.79999984000003
   0
MTEXT
   5
3CE
 100
AcDbEntity
   8
LEVEL001
 370
13
  62
1
 100
AcDbMText
  10
 5691.6573033708
  20
 1941.8539325843
  30
0.0
  40
 51.428571428572
  41
0.0
  71
4
  72
1
   1
\T1.000000;二面鏡用取付腕木
   7
GMM001
  44
 0.79999984000003
   0
MTEXT
   5
3CF
 100
AcDbEntity
   8
LEVEL001
 370
13
  62
1
 100
AcDbMText
  10
 5623.6573033708
  20
 2061.8539325843
  30
0.0
  40
 51.428571428572
  41
0.0
  71
6
  72
1
   1
\T1.000000;８
   7
GMM001
  44
 0.79999984000003
   0
MTEXT
   5
3D0
 100
AcDbEntity
   8
LEVEL001
 370
13
  62
1
 100
AcDbMText
  10
 5691.6573033708
  20
 2061.8539325843
  30
0.0
  40
 51.428571428572
  41
0.0
  71
4
  72
1
   1
\T1.000000;金具締付ボルトナット
   7
GMM001
  44
 0.79999984000003
   0
MTEXT
   5
3D1
 100
AcDbEntity
   8
LEVEL001
 370
13
  62
1
 100
AcDbMText
  10
 5623.6573033708
  20
 2181.8539325843
  30
0.0
  40
 51.428571428572
  41
0.0
  71
6
  72
1
   1
\T1.000000;７
   7
GMM001
  44
 0.79999984000003
   0
MTEXT
   5
3D2
 100
AcDbEntity
   8
LEVEL001
 370
13
  62
1
 100
AcDbMText
  10
 5691.6573033708
  20
 2181.8539325843
  30
0.0
  40
 51.428571428572
  41
0.0
  71
4
  72
1
   1
\T1.000000;裏板金具取付ボルト
   7
GMM001
  44
 0.79999984000003
   0
LINE
   5
3D3
 100
AcDbEntity
   8
LEVEL001
 370
13
 100
AcDbLine
   6
CONTINUOUS
  62
6
  10
 5451.6573033708
  20
 1761.8539325843
  30
0.0
  11
 8091.6573033708
  21
 1761.8539325843
  31
0.0
   0
LINE
   5
3D4
 100
AcDbEntity
   8
LEVEL001
 370
13
 100
AcDbLine
   6
CONTINUOUS
  62
6
  10
 5451.6573033708
  20
 1881.8539325843
  30
0.0
  11
 8091.6573033708
  21
 1881.8539325843
  31
0.0
   0
LINE
   5
3D5
 100
AcDbEntity
   8
LEVEL001
 370
13
 100
AcDbLine
   6
CONTINUOUS
  62
6
  10
 5451.6573033708
  20
 2001.8539325843
  30
0.0
  11
 8091.6573033708
  21
 2001.8539325843
  31
0.0
   0
LINE
   5
3D6
 100
AcDbEntity
   8
LEVEL001
 370
13
 100
AcDbLine
   6
CONTINUOUS
  62
6
  10
 5451.6573033708
  20
 2121.8539325843
  30
0.0
  11
 8091.6573033708
  21
 2121.8539325843
  31
0.0
   0
MTEXT
   5
3D7
 100
AcDbEntity
   8
LEVEL001
 370
13
  62
1
 100
AcDbMText
  10
 5691.6573033708
  20
 2301.8539325843
  30
0.0
  40
 51.428571428572
  41
0.0
  71
4
  72
1
   1
\T1.000000;支柱取付金具
   7
GMM001
  44
 0.79999984000003
   0
MTEXT
   5
3D8
 100
AcDbEntity
   8
LEVEL001
 370
13
  62
1
 100
AcDbMText
  10
 5623.6573033708
  20
 2301.8539325843
  30
0.0
  40
 51.428571428572
  41
0.0
  71
6
  72
1
   1
\T1.000000;６
   7
GMM001
  44
 0.79999984000003
   0
MTEXT
   5
3D9
 100
AcDbEntity
   8
LEVEL001
 370
13
  62
1
 100
AcDbMText
  10
 6703.6573033708
  20
 2301.8539325843
  30
0.0
  40
 51.428571428572
  41
0.0
  71
6
  72
1
   1
\T1.000000;２
   7
GMM001
  44
 0.79999984000003
   0
MTEXT
   5
3DA
 100
AcDbEntity
   8
LEVEL001
 370
13
  62
1
 100
AcDbMText
  10
 6771.6573033708
  20
 2301.8539325843
  30
0.0
  40
 51.428571428572
  41
0.0
  71
4
  72
1
   1
\T1.000000;ＳＳ４００
   7
GMM001
  44
 0.79999984000003
   0
MTEXT
   5
3DB
 100
AcDbEntity
   8
LEVEL001
 370
13
  62
1
 100
AcDbMText
  10
 5623.6573033708
  20
 2421.8539325843
  30
0.0
  40
 51.428571428572
  41
0.0
  71
6
  72
1
   1
\T1.000000;５
   7
GMM001
  44
 0.79999984000003
   0
MTEXT
   5
3DC
 100
AcDbEntity
   8
LEVEL001
 370
13
  62
1
 100
AcDbMText
  10
 5691.6573033708
  20
 2421.8539325843
  30
0.0
  40
 51.428571428572
  41
0.0
  71
4
  72
1
   1
\T1.000000;裏板取付金具
   7
GMM001
  44
 0.79999984000003
   0
MTEXT
   5
3DD
 100
AcDbEntity
   8
LEVEL001
 370
13
  62
1
 100
AcDbMText
  10
 5623.6573033708
  20
 2541.8539325843
  30
0.0
  40
 51.428571428572
  41
0.0
  71
6
  72
1
   1
\T1.000000;４
   7
GMM001
  44
 0.79999984000003
   0
MTEXT
   5
3DE
 100
AcDbEntity
   8
LEVEL001
 370
13
  62
1
 100
AcDbMText
  10
 5691.6573033708
  20
 2541.8539325843
  30
0.0
  40
 51.428571428572
  41
0.0
  71
4
  72
1
   1
\T1.000000;リング
   7
GMM001
  44
 0.79999984000003
   0
MTEXT
   5
3DF
 100
AcDbEntity
   8
LEVEL001
 370
13
  62
1
 100
AcDbMText
  10
 5623.6573033708
  20
 2661.8539325843
  30
0.0
  40
 51.428571428572
  41
0.0
  71
6
  72
1
   1
\T1.000000;３
   7
GMM001
  44
 0.79999984000003
   0
MTEXT
   5
3E0
 100
AcDbEntity
   8
LEVEL001
 370
13
  62
1
 100
AcDbMText
  10
 5691.6573033708
  20
 2661.8539325843
  30
0.0
  40
 51.428571428572
  41
0.0
  71
4
  72
1
   1
\T1.000000;フード
   7
GMM001
  44
 0.79999984000003
   0
MTEXT
   5
3E1
 100
AcDbEntity
   8
LEVEL001
 370
13
  62
1
 100
AcDbMText
  10
 5623.6573033708
  20
 2781.8539325843
  30
0.0
  40
 51.428571428572
  41
0.0
  71
6
  72
1
   1
\T1.000000;２
   7
GMM001
  44
 0.79999984000003
   0
MTEXT
   5
3E2
 100
AcDbEntity
   8
LEVEL001
 370
13
  62
1
 100
AcDbMText
  10
 5623.6573033708
  20
 2901.8539325843
  30
0.0
  40
 51.428571428572
  41
0.0
  71
6
  72
1
   1
\T1.000000;１
   7
GMM001
  44
 0.79999984000003
   0
MTEXT
   5
3E3
 100
AcDbEntity
   8
LEVEL001
 370
13
  62
1
 100
AcDbMText
  10
 5691.6573033708
  20
 2781.8539325843
  30
0.0
  40
 51.428571428572
  41
0.0
  71
4
  72
1
   1
\T1.000000;バックプレート
   7
GMM001
  44
 0.79999984000003
   0
MTEXT
   5
3E4
 100
AcDbEntity
   8
LEVEL001
 370
13
  62
1
 100
AcDbMText
  10
 5691.6573033708
  20
 2901.8539325843
  30
0.0
  40
 51.428571428572
  41
0.0
  71
4
  72
1
   1
\T1.000000;鏡面　Ｒ＝２２００
   7
GMM001
  44
 0.79999984000003
   0
MTEXT
   5
3E5
 100
AcDbEntity
   8
LEVEL001
 370
13
  62
1
 100
AcDbMText
  10
 6703.6573033708
  20
 2421.8539325843
  30
0.0
  40
 51.428571428572
  41
0.0
  71
6
  72
1
   1
\T1.000000;２
   7
GMM001
  44
 0.79999984000003
   0
MTEXT
   5
3E6
 100
AcDbEntity
   8
LEVEL001
 370
13
  62
1
 100
AcDbMText
  10
 6703.6573033708
  20
 2541.8539325843
  30
0.0
  40
 51.428571428572
  41
0.0
  71
6
  72
1
   1
\T1.000000;２
   7
GMM001
  44
 0.79999984000003
   0
MTEXT
   5
3E7
 100
AcDbEntity
   8
LEVEL001
 370
13
  62
1
 100
AcDbMText
  10
 6703.6573033708
  20
 2661.8539325843
  30
0.0
  40
 51.428571428572
  41
0.0
  71
6
  72
1
   1
\T1.000000;２
   7
GMM001
  44
 0.79999984000003
   0
MTEXT
   5
3E8
 100
AcDbEntity
   8
LEVEL001
 370
13
  62
1
 100
AcDbMText
  10
 6703.6573033708
  20
 2781.8539325843
  30
0.0
  40
 51.428571428572
  41
0.0
  71
6
  72
1
   1
\T1.000000;２
   7
GMM001
  44
 0.79999984000003
   0
MTEXT
   5
3E9
 100
AcDbEntity
   8
LEVEL001
 370
13
  62
1
 100
AcDbMText
  10
 6703.6573033708
  20
 2901.8539325843
  30
0.0
  40
 51.428571428572
  41
0.0
  71
6
  72
1
   1
\T1.000000;２
   7
GMM001
  44
 0.79999984000003
   0
MTEXT
   5
3EA
 100
AcDbEntity
   8
LEVEL001
 370
13
  62
1
 100
AcDbMText
  10
 6771.6573033708
  20
 2421.8539325843
  30
0.0
  40
 51.428571428572
  41
0.0
  71
4
  72
1
   1
\T1.000000;ＳＳ４００
   7
GMM001
  44
 0.79999984000003
   0
MTEXT
   5
3EB
 100
AcDbEntity
   8
LEVEL001
 370
13
  62
1
 100
AcDbMText
  10
 6771.6573033708
  20
 2541.8539325843
  30
0.0
  40
 51.428571428572
  41
0.0
  71
4
  72
1
   1
\T1.000000;軟質ＰＶＣ
   7
GMM001
  44
 0.79999984000003
   0
MTEXT
   5
3EC
 100
AcDbEntity
   8
LEVEL001
 370
13
  62
1
 100
AcDbMText
  10
 6771.6573033708
  20
 2901.8539325843
  30
0.0
  40
 51.428571428572
  41
0.0
  71
4
  72
1
   1
\T1.000000;ＳＵＳ３０４
   7
GMM001
  44
 0.79999984000003
   0
MTEXT
   5
3ED
 100
AcDbEntity
   8
LEVEL001
 370
13
  62
1
 100
AcDbMText
  10
 7331.6573033708
  20
 2301.8539325843
  30
0.0
  40
 51.428571428572
  41
0.0
  71
4
  72
1
   1
\T1.000000;溶融亜鉛メッキ
   7
GMM001
  44
 0.79999984000003
   0
MTEXT
   5
3EE
 100
AcDbEntity
   8
LEVEL001
 370
13
  62
1
 100
AcDbMText
  10
 7331.6573033708
  20
 2421.8539325843
  30
0.0
  40
 51.428571428572
  41
0.0
  71
4
  72
1
   1
\T1.000000;溶融亜鉛メッキ
   7
GMM001
  44
 0.79999984000003
   0
MTEXT
   5
3EF
 100
AcDbEntity
   8
LEVEL001
 370
13
  62
1
 100
AcDbMText
  10
 7331.6573033708
  20
 2901.8539325843
  30
0.0
  40
 51.428571428572
  41
0.0
  71
4
  72
1
   1
\T1.000000;t=0.9mm\T1.000000;・表面研磨
   7
GMM001
  44
 0.79999984000003
   0
LINE
   5
3F0
 100
AcDbEntity
   8
LEVEL001
 370
13
 100
AcDbLine
   6
CONTINUOUS
  62
6
  10
 5451.6573033708
  20
 2241.8539325843
  30
0.0
  11
 8091.6573033708
  21
 2241.8539325843
  31
0.0
   0
LINE
   5
3F1
 100
AcDbEntity
   8
LEVEL001
 370
13
 100
AcDbLine
   6
CONTINUOUS
  62
6
  10
 5451.6573033708
  20
 2361.8539325843
  30
0.0
  11
 8091.6573033708
  21
 2361.8539325843
  31
0.0
   0
LINE
   5
3F2
 100
AcDbEntity
   8
LEVEL001
 370
13
 100
AcDbLine
   6
CONTINUOUS
  62
6
  10
 5451.6573033708
  20
 2721.8539325843
  30
0.0
  11
 8091.6573033708
  21
 2721.8539325843
  31
0.0
   0
LINE
   5
3F3
 100
AcDbEntity
   8
LEVEL001
 370
13
 100
AcDbLine
   6
CONTINUOUS
  62
6
  10
 5451.6573033708
  20
 2481.8539325843
  30
0.0
  11
 8091.6573033708
  21
 2481.8539325843
  31
0.0
   0
LINE
   5
3F4
 100
AcDbEntity
   8
LEVEL001
 370
13
 100
AcDbLine
   6
CONTINUOUS
  62
6
  10
 5451.6573033708
  20
 2841.8539325843
  30
0.0
  11
 8091.6573033708
  21
 2841.8539325843
  31
0.0
   0
MTEXT
   5
3F5
 100
AcDbEntity
   8
LEVEL001
 370
13
  62
1
 100
AcDbMText
  10
 6091.6573033708
  20
 3041.8539325843
  30
0.0
  40
 51.428571428572
  41
0.0
  71
5
  72
1
   1
\T1.000000;名　　称
   7
GMM001
  44
 0.79999984000003
   0
MTEXT
   5
3F6
 100
AcDbEntity
   8
LEVEL001
 370
13
  62
1
 100
AcDbMText
  10
 6631.6573033708
  20
 3041.8539325843
  30
0.0
  40
 51.428571428572
  41
0.0
  71
5
  72
1
   1
\T1.000000;個数
   7
GMM001
  44
 0.79999984000003
   0
MTEXT
   5
3F7
 100
AcDbEntity
   8
LEVEL001
 370
13
  62
1
 100
AcDbMText
  10
 7011.6573033708
  20
 3041.8539325843
  30
0.0
  40
 51.428571428572
  41
0.0
  71
5
  72
1
   1
\T1.000000;材　　質
   7
GMM001
  44
 0.79999984000003
   0
MTEXT
   5
3F8
 100
AcDbEntity
   8
LEVEL001
 370
13
  62
1
 100
AcDbMText
  10
 7691.6573033708
  20
 3041.8539325843
  30
0.0
  40
 51.428571428572
  41
0.0
  71
5
  72
1
   1
\T1.000000;規格仕様
   7
GMM001
  44
 0.79999984000003
   0
LINE
   5
3F9
 100
AcDbEntity
   8
LEVEL001
 370
13
 100
AcDbLine
   6
CONTINUOUS
  62
2
  10
 5451.6573033708
  20
 3441.8539325843
  30
0.0
  11
 8091.6573033708
  21
 3441.8539325843
  31
0.0
   0
LINE
   5
3FA
 100
AcDbEntity
   8
LEVEL001
 370
13
 100
AcDbLine
   6
CONTINUOUS
  62
2
  10
 5451.6573033708
  20
 3121.8539325843
  30
0.0
  11
 8091.6573033708
  21
 3121.8539325843
  31
0.0
   0
LINE
   5
3FB
 100
AcDbEntity
   8
LEVEL001
 370
13
 100
AcDbLine
   6
CONTINUOUS
  62
2
  10
 5451.6573033708
  20
 2961.8539325843
  30
0.0
  11
 8091.6573033708
  21
 2961.8539325843
  31
0.0
   0
MTEXT
   5
3FC
 100
AcDbEntity
   8
LEVEL001
 370
13
  62
1
 100
AcDbMText
  10
 5551.6573033708
  20
 3201.8539325843
  30
0.0
  40
 57.142857142858
  41
0.0
  71
4
  72
1
   1
\T1.000000;□４５０×６００（ダブル）
   7
GMM001
  44
 0.79999984000003
   0
MTEXT
   5
3FD
 100
AcDbEntity
   8
LEVEL001
 370
13
  62
1
 100
AcDbMText
  10
 6771.6573033708
  20
 2661.8539325843
  30
0.0
  40
 51.428571428572
  41
0.0
  71
4
  72
1
   1
\T1.000000;ＳＵＳ４３０
   7
GMM001
  44
 0.79999984000003
   0
MTEXT
   5
3FE
 100
AcDbEntity
   8
LEVEL001
 370
13
  62
1
 100
AcDbMText
  10
 5551.6573033708
  20
 3361.8539325843
  30
0.0
  40
 57.142857142858
  41
0.0
  71
4
  72
1
   1
\T1.000000;ステンレスミラー　＜Ｚタイプ＞
   7
GMM001
  44
 0.79999984000003
   0
MTEXT
   5
3FF
 100
AcDbEntity
   8
LEVEL001
 370
13
  62
1
 100
AcDbMText
  10
 6771.6573033708
  20
 2781.8539325843
  30
0.0
  40
 51.428571428572
  41
0.0
  71
4
  72
1
   1
\T1.000000;高耐食溶融めっき鋼板
   7
GMM004
  44
 0.79999984000003
   0
LINE
   5
400
 100
AcDbEntity
   8
LEVEL001
 370
13
 100
AcDbLine
   6
CONTINUOUS
  62
5
  10
 1152.5672059473
  20
 1920.9539325843
  30
0.0
  11
 1205.0672059473
  21
 1973.4539325843
  31
0.0
   0
LINE
   5
401
 100
AcDbEntity
   8
LEVEL001
 370
13
 100
AcDbLine
   6
CONTINUOUS
  62
5
  10
 1136.6573033705
  20
 1936.8638351611
  30
0.0
  11
 1173.2474007937
  21
 1973.4539325843
  31
0.0
   0
LINE
   5
402
 100
AcDbEntity
   8
LEVEL001
 370
13
 100
AcDbLine
   6
CONTINUOUS
  62
5
  10
 1189.1573033713
  20
 1973.4539325843
  30
0.0
  11
 1144.6122546593
  21
 1928.9088838723
  31
0.0
   0
LINE
   5
403
 100
AcDbEntity
   8
LEVEL001
 370
13
 100
AcDbLine
   6
CONTINUOUS
  62
5
  10
 1209.8374982179
  20
 1920.9539325843
  30
0.0
  11
 1181.2023520826
  21
 1949.5890787196
  31
0.0
   0
LINE
   5
404
 100
AcDbEntity
   8
LEVEL001
 370
13
 100
AcDbLine
   6
CONTINUOUS
  62
5
  10
 1189.1573033708
  20
 1957.5440300078
  30
0.0
  11
 1225.7474007944
  21
 1920.9539325843
  31
0.0
   0
LINE
   5
405
 100
AcDbEntity
   8
LEVEL001
 370
13
 100
AcDbLine
   6
CONTINUOUS
  62
5
  10
 1241.6573033708
  20
 1920.9539325843
  30
0.0
  11
 1197.1122546591
  21
 1965.4989812960
  31
0.0
   0
LINE
   5
406
 100
AcDbEntity
   8
LEVEL001
 370
13
 100
AcDbLine
   6
CONTINUOUS
  62
5
  10
 1052.3374982175
  20
 1973.4539325843
  30
0.0
  11
 999.83749821746
  21
 1920.9539325843
  31
0.0
   0
LINE
   5
407
 100
AcDbEntity
   8
LEVEL001
 370
13
 100
AcDbLine
   6
CONTINUOUS
  62
5
  10
 1015.7474007935
  20
 1920.9539325843
  30
0.0
  11
 1068.2474007935
  21
 1973.4539325843
  31
0.0
   0
LINE
   5
408
 100
AcDbEntity
   8
LEVEL001
 370
13
 100
AcDbLine
   6
CONTINUOUS
  62
5
  10
 1084.1573033711
  20
 1973.4539325843
  30
0.0
  11
 1031.6573033711
  21
 1920.9539325843
  31
0.0
   0
LINE
   5
409
 100
AcDbEntity
   8
LEVEL001
 370
13
 100
AcDbLine
   6
CONTINUOUS
  62
5
  10
 1047.5672059471
  20
 1920.9539325843
  30
0.0
  11
 1100.0672059471
  21
 1973.4539325843
  31
0.0
   0
LINE
   5
40A
 100
AcDbEntity
   8
LEVEL001
 370
13
 100
AcDbLine
   6
CONTINUOUS
  62
5
  10
 1104.8374982177
  20
 1920.9539325843
  30
0.0
  11
 1076.2023520824
  21
 1949.5890787196
  31
0.0
   0
LINE
   5
40B
 100
AcDbEntity
   8
LEVEL001
 370
13
 100
AcDbLine
   6
CONTINUOUS
  62
5
  10
 1084.1573033707
  20
 1957.5440300078
  30
0.0
  11
 1120.7474007942
  21
 1920.9539325843
  31
0.0
   0
LINE
   5
40C
 100
AcDbEntity
   8
LEVEL001
 370
13
 100
AcDbLine
   6
CONTINUOUS
  62
5
  10
 1136.6573033706
  20
 1920.9539325843
  30
0.0
  11
 1092.1122546589
  21
 1965.4989812960
  31
0.0
   0
LINE
   5
40D
 100
AcDbEntity
   8
LEVEL001
 370
13
 100
AcDbLine
   6
CONTINUOUS
  62
5
  10
 1100.0672059471
  20
 1973.4539325843
  30
0.0
  11
 1152.5672059473
  21
 1920.9539325843
  31
0.0
   0
LINE
   5
40E
 100
AcDbEntity
   8
LEVEL001
 370
13
 100
AcDbLine
   6
CONTINUOUS
  62
5
  10
 1157.3374982176
  20
 1973.4539325843
  30
0.0
  11
 1128.7023520824
  21
 1944.8187864491
  31
0.0
   0
LINE
   5
40F
 100
AcDbEntity
   8
LEVEL001
 370
13
 100
AcDbLine
   6
CONTINUOUS
  62
5
  10
 1205.0672059473
  20
 1973.4539325843
  30
0.0
  11
 1241.6573033708
  21
 1936.8638351609
  31
0.0
   0
LINE
   5
410
 100
AcDbEntity
   8
LEVEL001
 370
13
 100
AcDbLine
   6
CONTINUOUS
  62
5
  10
 1241.6573033708
  20
 1973.4539325843
  30
0.0
  11
 1241.6573033708
  21
 1073.4539325843
  31
0.0
   0
LINE
   5
411
 100
AcDbEntity
   8
LEVEL001
 370
13
 100
AcDbLine
   6
CONTINUOUS
  62
5
  10
 1453.5073033708
  20
 1973.4539325843
  30
0.0
  11
 991.65730337078
  21
 1973.4539325843
  31
0.0
   0
LINE
   5
412
 100
AcDbEntity
   8
LEVEL001
 370
13
 100
AcDbLine
   6
CONTINUOUS
  62
5
  10
 1391.6573033708
  20
 1073.4539325843
  30
0.0
  11
 1341.6573033708
  21
 973.45393258429
  31
0.0
   0
LINE
   5
413
 100
AcDbEntity
   8
LEVEL001
 370
13
 100
AcDbLine
   6
CONTINUOUS
  62
5
  10
 1341.6573033708
  20
 1073.4539325843
  30
0.0
  11
 1381.6573033708
  21
 1053.4539325843
  31
0.0
   0
LINE
   5
414
 100
AcDbEntity
   8
LEVEL001
 370
13
 100
AcDbLine
   6
CONTINUOUS
  62
5
  10
 1391.6573033708
  20
 973.45393258429
  30
0.0
  11
 1351.6573033708
  21
 993.45393258429
  31
0.0
   0
LINE
   5
415
 100
AcDbEntity
   8
LEVEL001
 370
13
 100
AcDbLine
   6
CONTINUOUS
  62
5
  10
 1741.6573033708
  20
 1073.4539325843
  30
0.0
  11
 1241.6573033708
  21
 1073.4539325843
  31
0.0
   0
LINE
   5
416
 100
AcDbEntity
   8
LEVEL001
 370
13
 100
AcDbLine
   6
CONTINUOUS
  62
5
  10
 1241.6573033708
  20
 973.45393258429
  30
0.0
  11
 1741.6573033708
  21
 973.45393258429
  31
0.0
   0
LINE
   5
417
 100
AcDbEntity
   8
LEVEL001
 370
13
 100
AcDbLine
   6
CONTINUOUS
  62
5
  10
 1241.6573033708
  20
 1073.4539325843
  30
0.0
  11
 1741.6573033708
  21
 1073.4539325843
  31
0.0
   0
LINE
   5
418
 100
AcDbEntity
   8
LEVEL001
 370
13
 100
AcDbLine
   6
CONTINUOUS
  62
5
  10
 1241.6573033708
  20
 1261.6039325843
  30
0.0
  11
 1453.5073033708
  21
 1473.4539325843
  31
0.0
   0
LINE
   5
419
 100
AcDbEntity
   8
LEVEL001
 370
13
 100
AcDbLine
   6
CONTINUOUS
  62
5
  10
 1453.5073033708
  20
 1438.0985935249
  30
0.0
  11
 1241.6573033708
  21
 1226.2485935249
  31
0.0
   0
LINE
   5
41A
 100
AcDbEntity
   8
LEVEL001
 370
13
 100
AcDbLine
   6
CONTINUOUS
  62
5
  10
 1453.5073033708
  20
 1508.8092716436
  30
0.0
  11
 1241.6573033708
  21
 1296.9592716436
  31
0.0
   0
LINE
   5
41B
 100
AcDbEntity
   8
LEVEL001
 370
13
 100
AcDbLine
   6
CONTINUOUS
  62
5
  10
 1341.6573033708
  20
 1073.4539325843
  30
0.0
  11
 1291.6573033708
  21
 973.45393258429
  31
0.0
   0
LINE
   5
41C
 100
AcDbEntity
   8
LEVEL001
 370
13
 100
AcDbLine
   6
CONTINUOUS
  62
5
  10
 1291.6573033708
  20
 1073.4539325843
  30
0.0
  11
 1331.6573033708
  21
 1053.4539325843
  31
0.0
   0
LINE
   5
41D
 100
AcDbEntity
   8
LEVEL001
 370
13
 100
AcDbLine
   6
CONTINUOUS
  62
5
  10
 1291.6573033708
  20
 1073.4539325843
  30
0.0
  11
 1241.6573033708
  21
 973.45393258429
  31
0.0
   0
LINE
   5
41E
 100
AcDbEntity
   8
LEVEL001
 370
13
 100
AcDbLine
   6
CONTINUOUS
  62
5
  10
 1241.6573033708
  20
 1073.4539325843
  30
0.0
  11
 1281.6573033708
  21
 1053.4539325843
  31
0.0
   0
LINE
   5
41F
 100
AcDbEntity
   8
LEVEL001
 370
13
 100
AcDbLine
   6
CONTINUOUS
  62
5
  10
 1341.6573033708
  20
 973.45393258429
  30
0.0
  11
 1301.6573033708
  21
 993.45393258429
  31
0.0
   0
LINE
   5
420
 100
AcDbEntity
   8
LEVEL001
 370
13
 100
AcDbLine
   6
CONTINUOUS
  62
5
  10
 1291.6573033708
  20
 973.45393258429
  30
0.0
  11
 1251.6573033708
  21
 993.45393258429
  31
0.0
   0
LINE
   5
421
 100
AcDbEntity
   8
LEVEL001
 370
13
 100
AcDbLine
   6
CONTINUOUS
  62
5
  10
 1241.6573033708
  20
 1073.4539325843
  30
0.0
  11
 1241.6573033708
  21
 973.45393258429
  31
0.0
   0
LINE
   5
422
 100
AcDbEntity
   8
LEVEL001
 370
13
 100
AcDbLine
   6
CONTINUOUS
  62
5
  10
 1741.6573033708
  20
 1073.4539325843
  30
0.0
  11
 1691.6573033708
  21
 973.45393258429
  31
0.0
   0
LINE
   5
423
 100
AcDbEntity
   8
LEVEL001
 370
13
 100
AcDbLine
   6
CONTINUOUS
  62
5
  10
 1691.6573033708
  20
 1073.4539325843
  30
0.0
  11
 1731.6573033708
  21
 1053.4539325843
  31
0.0
   0
LINE
   5
424
 100
AcDbEntity
   8
LEVEL001
 370
13
 100
AcDbLine
   6
CONTINUOUS
  62
5
  10
 1691.6573033708
  20
 1073.4539325843
  30
0.0
  11
 1641.6573033708
  21
 973.45393258429
  31
0.0
   0
LINE
   5
425
 100
AcDbEntity
   8
LEVEL001
 370
13
 100
AcDbLine
   6
CONTINUOUS
  62
5
  10
 1641.6573033708
  20
 1073.4539325843
  30
0.0
  11
 1681.6573033708
  21
 1053.4539325843
  31
0.0
   0
LINE
   5
426
 100
AcDbEntity
   8
LEVEL001
 370
13
 100
AcDbLine
   6
CONTINUOUS
  62
5
  10
 1641.6573033708
  20
 1073.4539325843
  30
0.0
  11
 1591.6573033708
  21
 973.45393258429
  31
0.0
   0
LINE
   5
427
 100
AcDbEntity
   8
LEVEL001
 370
13
 100
AcDbLine
   6
CONTINUOUS
  62
5
  10
 1591.6573033708
  20
 1073.4539325843
  30
0.0
  11
 1631.6573033708
  21
 1053.4539325843
  31
0.0
   0
LINE
   5
428
 100
AcDbEntity
   8
LEVEL001
 370
13
 100
AcDbLine
   6
CONTINUOUS
  62
5
  10
 1741.6573033708
  20
 973.45393258429
  30
0.0
  11
 1701.6573033708
  21
 993.45393258429
  31
0.0
   0
LINE
   5
429
 100
AcDbEntity
   8
LEVEL001
 370
13
 100
AcDbLine
   6
CONTINUOUS
  62
5
  10
 1691.6573033708
  20
 973.45393258429
  30
0.0
  11
 1651.6573033708
  21
 993.45393258429
  31
0.0
   0
LINE
   5
42A
 100
AcDbEntity
   8
LEVEL001
 370
13
 100
AcDbLine
   6
CONTINUOUS
  62
5
  10
 1641.6573033708
  20
 973.45393258429
  30
0.0
  11
 1601.6573033708
  21
 993.45393258429
  31
0.0
   0
LINE
   5
42B
 100
AcDbEntity
   8
LEVEL001
 370
13
 100
AcDbLine
   6
CONTINUOUS
  62
5
  10
 1741.6573033708
  20
 973.45393258429
  30
0.0
  11
 1741.6573033708
  21
 1073.4539325843
  31
0.0
   0
LINE
   5
42C
 100
AcDbEntity
   8
LEVEL001
 370
13
 100
AcDbLine
   6
CONTINUOUS
  62
5
  10
 1741.6573033708
  20
 1073.4539325843
  30
0.0
  11
 1741.6573033708
  21
 1973.4539325843
  31
0.0
   0
LINE
   5
42D
 100
AcDbEntity
   8
LEVEL001
 370
13
 100
AcDbLine
   6
CONTINUOUS
  62
5
  10
 1802.3374982175
  20
 1973.4539325843
  30
0.0
  11
 1749.8374982175
  21
 1920.9539325843
  31
0.0
   0
LINE
   5
42E
 100
AcDbEntity
   8
LEVEL001
 370
13
 100
AcDbLine
   6
CONTINUOUS
  62
5
  10
 1765.7474007935
  20
 1920.9539325843
  30
0.0
  11
 1818.2474007935
  21
 1973.4539325843
  31
0.0
   0
LINE
   5
42F
 100
AcDbEntity
   8
LEVEL001
 370
13
 100
AcDbLine
   6
CONTINUOUS
  62
5
  10
 1834.1573033711
  20
 1973.4539325843
  30
0.0
  11
 1781.6573033711
  21
 1920.9539325843
  31
0.0
   0
LINE
   5
430
 100
AcDbEntity
   8
LEVEL001
 370
13
 100
AcDbLine
   6
CONTINUOUS
  62
5
  10
 1797.5672059471
  20
 1920.9539325843
  30
0.0
  11
 1850.0672059471
  21
 1973.4539325843
  31
0.0
   0
LINE
   5
431
 100
AcDbEntity
   8
LEVEL001
 370
13
 100
AcDbLine
   6
CONTINUOUS
  62
5
  10
 1854.8374982177
  20
 1920.9539325843
  30
0.0
  11
 1826.2023520824
  21
 1949.5890787196
  31
0.0
   0
LINE
   5
432
 100
AcDbEntity
   8
LEVEL001
 370
13
 100
AcDbLine
   6
CONTINUOUS
  62
5
  10
 1834.1573033707
  20
 1957.5440300078
  30
0.0
  11
 1870.7474007942
  21
 1920.9539325843
  31
0.0
   0
LINE
   5
433
 100
AcDbEntity
   8
LEVEL001
 370
13
 100
AcDbLine
   6
CONTINUOUS
  62
5
  10
 1886.6573033706
  20
 1920.9539325843
  30
0.0
  11
 1842.1122546589
  21
 1965.4989812960
  31
0.0
   0
LINE
   5
434
 100
AcDbEntity
   8
LEVEL001
 370
13
 100
AcDbLine
   6
CONTINUOUS
  62
5
  10
 1850.0672059471
  20
 1973.4539325843
  30
0.0
  11
 1902.5672059473
  21
 1920.9539325843
  31
0.0
   0
LINE
   5
435
 100
AcDbEntity
   8
LEVEL001
 370
13
 100
AcDbLine
   6
CONTINUOUS
  62
5
  10
 1902.5672059473
  20
 1920.9539325843
  30
0.0
  11
 1955.0672059474
  21
 1973.4539325843
  31
0.0
   0
LINE
   5
436
 100
AcDbEntity
   8
LEVEL001
 370
13
 100
AcDbLine
   6
CONTINUOUS
  62
5
  10
 1907.3374982176
  20
 1973.4539325843
  30
0.0
  11
 1878.7023520824
  21
 1944.8187864491
  31
0.0
   0
LINE
   5
437
 100
AcDbEntity
   8
LEVEL001
 370
13
 100
AcDbLine
   6
CONTINUOUS
  62
5
  10
 1886.6573033705
  20
 1936.8638351611
  30
0.0
  11
 1923.2474007938
  21
 1973.4539325843
  31
0.0
   0
LINE
   5
438
 100
AcDbEntity
   8
LEVEL001
 370
13
 100
AcDbLine
   6
CONTINUOUS
  62
5
  10
 1939.1573033714
  20
 1973.4539325843
  30
0.0
  11
 1894.6122546593
  21
 1928.9088838723
  31
0.0
   0
LINE
   5
439
 100
AcDbEntity
   8
LEVEL001
 370
13
 100
AcDbLine
   6
CONTINUOUS
  62
5
  10
 1959.8374982180
  20
 1920.9539325843
  30
0.0
  11
 1931.2023520826
  21
 1949.5890787196
  31
0.0
   0
LINE
   5
43A
 100
AcDbEntity
   8
LEVEL001
 370
13
 100
AcDbLine
   6
CONTINUOUS
  62
5
  10
 1939.1573033708
  20
 1957.5440300078
  30
0.0
  11
 1975.7474007944
  21
 1920.9539325843
  31
0.0
   0
LINE
   5
43B
 100
AcDbEntity
   8
LEVEL001
 370
13
 100
AcDbLine
   6
CONTINUOUS
  62
5
  10
 1991.6573033708
  20
 1920.9539325843
  30
0.0
  11
 1947.1122546590
  21
 1965.4989812960
  31
0.0
   0
LINE
   5
43C
 100
AcDbEntity
   8
LEVEL001
 370
13
 100
AcDbLine
   6
CONTINUOUS
  62
5
  10
 1955.0672059474
  20
 1973.4539325843
  30
0.0
  11
 1991.6573033708
  21
 1936.8638351609
  31
0.0
   0
LINE
   5
43D
 100
AcDbEntity
   8
LEVEL001
 370
13
 100
AcDbLine
   6
CONTINUOUS
  62
5
  10
 1529.8073033708
  20
 1973.4539325843
  30
0.0
  11
 1991.6573033708
  21
 1973.4539325843
  31
0.0
   0
LINE
   5
43E
 100
AcDbEntity
   8
LEVEL001
 370
13
 100
AcDbLine
   6
CONTINUOUS
  62
5
  10
 1741.6573033708
  20
 1796.9592716436
  30
0.0
  11
 1529.8073033708
  21
 1585.1092716436
  31
0.0
   0
LINE
   5
43F
 100
AcDbEntity
   8
LEVEL001
 370
13
 100
AcDbLine
   6
CONTINUOUS
  62
5
  10
 1529.8073033708
  20
 1549.7539325843
  30
0.0
  11
 1741.6573033708
  21
 1761.6039325843
  31
0.0
   0
LINE
   5
440
 100
AcDbEntity
   8
LEVEL001
 370
13
 100
AcDbLine
   6
CONTINUOUS
  62
5
  10
 1741.6573033708
  20
 1726.2485935249
  30
0.0
  11
 1529.8073033708
  21
 1514.3985935249
  31
0.0
   0
LINE
   5
441
 100
AcDbEntity
   8
LEVEL001
 370
13
 100
AcDbLine
   6
CONTINUOUS
  62
5
  10
 2502.5672059474
  20
 1920.9539325843
  30
0.0
  11
 2555.0672059474
  21
 1973.4539325843
  31
0.0
   0
LINE
   5
442
 100
AcDbEntity
   8
LEVEL001
 370
13
 100
AcDbLine
   6
CONTINUOUS
  62
5
  10
 2486.6573033706
  20
 1936.8638351611
  30
0.0
  11
 2523.2474007938
  21
 1973.4539325843
  31
0.0
   0
LINE
   5
443
 100
AcDbEntity
   8
LEVEL001
 370
13
 100
AcDbLine
   6
CONTINUOUS
  62
5
  10
 2539.1573033714
  20
 1973.4539325843
  30
0.0
  11
 2494.6122546594
  21
 1928.9088838723
  31
0.0
   0
LINE
   5
444
 100
AcDbEntity
   8
LEVEL001
 370
13
 100
AcDbLine
   6
CONTINUOUS
  62
5
  10
 2559.8374982180
  20
 1920.9539325843
  30
0.0
  11
 2531.2023520826
  21
 1949.5890787196
  31
0.0
   0
LINE
   5
445
 100
AcDbEntity
   8
LEVEL001
 370
13
 100
AcDbLine
   6
CONTINUOUS
  62
5
  10
 2539.1573033708
  20
 1957.5440300078
  30
0.0
  11
 2575.7474007944
  21
 1920.9539325843
  31
0.0
   0
LINE
   5
446
 100
AcDbEntity
   8
LEVEL001
 370
13
 100
AcDbLine
   6
CONTINUOUS
  62
5
  10
 2591.6573033708
  20
 1920.9539325843
  30
0.0
  11
 2547.1122546590
  21
 1965.4989812960
  31
0.0
   0
LINE
   5
447
 100
AcDbEntity
   8
LEVEL001
 370
13
 100
AcDbLine
   6
CONTINUOUS
  62
5
  10
 2402.3374982174
  20
 1973.4539325843
  30
0.0
  11
 2349.8374982174
  21
 1920.9539325843
  31
0.0
   0
LINE
   5
448
 100
AcDbEntity
   8
LEVEL001
 370
13
 100
AcDbLine
   6
CONTINUOUS
  62
5
  10
 2365.7474007936
  20
 1920.9539325843
  30
0.0
  11
 2418.2474007936
  21
 1973.4539325843
  31
0.0
   0
LINE
   5
449
 100
AcDbEntity
   8
LEVEL001
 370
13
 100
AcDbLine
   6
CONTINUOUS
  62
5
  10
 2434.1573033712
  20
 1973.4539325843
  30
0.0
  11
 2381.6573033712
  21
 1920.9539325843
  31
0.0
   0
LINE
   5
44A
 100
AcDbEntity
   8
LEVEL001
 370
13
 100
AcDbLine
   6
CONTINUOUS
  62
5
  10
 2397.5672059472
  20
 1920.9539325843
  30
0.0
  11
 2450.0672059472
  21
 1973.4539325843
  31
0.0
   0
LINE
   5
44B
 100
AcDbEntity
   8
LEVEL001
 370
13
 100
AcDbLine
   6
CONTINUOUS
  62
5
  10
 2454.8374982178
  20
 1920.9539325843
  30
0.0
  11
 2426.2023520824
  21
 1949.5890787196
  31
0.0
   0
LINE
   5
44C
 100
AcDbEntity
   8
LEVEL001
 370
13
 100
AcDbLine
   6
CONTINUOUS
  62
5
  10
 2434.1573033706
  20
 1957.5440300078
  30
0.0
  11
 2470.7474007942
  21
 1920.9539325843
  31
0.0
   0
LINE
   5
44D
 100
AcDbEntity
   8
LEVEL001
 370
13
 100
AcDbLine
   6
CONTINUOUS
  62
5
  10
 2486.6573033706
  20
 1920.9539325843
  30
0.0
  11
 2442.1122546588
  21
 1965.4989812960
  31
0.0
   0
LINE
   5
44E
 100
AcDbEntity
   8
LEVEL001
 370
13
 100
AcDbLine
   6
CONTINUOUS
  62
5
  10
 2450.0672059472
  20
 1973.4539325843
  30
0.0
  11
 2502.5672059474
  21
 1920.9539325843
  31
0.0
   0
LINE
   5
44F
 100
AcDbEntity
   8
LEVEL001
 370
13
 100
AcDbLine
   6
CONTINUOUS
  62
5
  10
 2507.3374982176
  20
 1973.4539325843
  30
0.0
  11
 2478.7023520824
  21
 1944.8187864491
  31
0.0
   0
LINE
   5
450
 100
AcDbEntity
   8
LEVEL001
 370
13
 100
AcDbLine
   6
CONTINUOUS
  62
5
  10
 2555.0672059474
  20
 1973.4539325843
  30
0.0
  11
 2591.6573033708
  21
 1936.8638351609
  31
0.0
   0
LINE
   5
451
 100
AcDbEntity
   8
LEVEL001
 370
13
 100
AcDbLine
   6
CONTINUOUS
  62
5
  10
 2591.6573033708
  20
 1973.4539325843
  30
0.0
  11
 2591.6573033708
  21
 1073.4539325843
  31
0.0
   0
LINE
   5
452
 100
AcDbEntity
   8
LEVEL001
 370
13
 100
AcDbLine
   6
CONTINUOUS
  62
5
  10
 2803.5073033708
  20
 1973.4539325843
  30
0.0
  11
 2341.6573033708
  21
 1973.4539325843
  31
0.0
   0
LINE
   5
453
 100
AcDbEntity
   8
LEVEL001
 370
13
 100
AcDbLine
   6
CONTINUOUS
  62
5
  10
 2591.6573033708
  20
 1261.6039325843
  30
0.0
  11
 2803.5073033708
  21
 1473.4539325843
  31
0.0
   0
LINE
   5
454
 100
AcDbEntity
   8
LEVEL001
 370
13
 100
AcDbLine
   6
CONTINUOUS
  62
5
  10
 2803.5073033708
  20
 1508.8092716436
  30
0.0
  11
 2591.6573033708
  21
 1296.9592716436
  31
0.0
   0
LINE
   5
455
 100
AcDbEntity
   8
LEVEL001
 370
13
 100
AcDbLine
   6
CONTINUOUS
  62
5
  10
 2741.6573033708
  20
 1073.4539325843
  30
0.0
  11
 2691.6573033708
  21
 973.45393258429
  31
0.0
   0
LINE
   5
456
 100
AcDbEntity
   8
LEVEL001
 370
13
 100
AcDbLine
   6
CONTINUOUS
  62
5
  10
 2691.6573033708
  20
 1073.4539325843
  30
0.0
  11
 2731.6573033708
  21
 1053.4539325843
  31
0.0
   0
LINE
   5
457
 100
AcDbEntity
   8
LEVEL001
 370
13
 100
AcDbLine
   6
CONTINUOUS
  62
5
  10
 2691.6573033708
  20
 1073.4539325843
  30
0.0
  11
 2641.6573033708
  21
 973.45393258429
  31
0.0
   0
LINE
   5
458
 100
AcDbEntity
   8
LEVEL001
 370
13
 100
AcDbLine
   6
CONTINUOUS
  62
5
  10
 2641.6573033708
  20
 1073.4539325843
  30
0.0
  11
 2681.6573033708
  21
 1053.4539325843
  31
0.0
   0
LINE
   5
459
 100
AcDbEntity
   8
LEVEL001
 370
13
 100
AcDbLine
   6
CONTINUOUS
  62
5
  10
 2741.6573033708
  20
 973.45393258429
  30
0.0
  11
 2701.6573033708
  21
 993.45393258429
  31
0.0
   0
LINE
   5
45A
 100
AcDbEntity
   8
LEVEL001
 370
13
 100
AcDbLine
   6
CONTINUOUS
  62
5
  10
 2691.6573033708
  20
 973.45393258429
  30
0.0
  11
 2651.6573033708
  21
 993.45393258429
  31
0.0
   0
LINE
   5
45B
 100
AcDbEntity
   8
LEVEL001
 370
13
 100
AcDbLine
   6
CONTINUOUS
  62
5
  10
 3091.6573033708
  20
 1073.4539325843
  30
0.0
  11
 2591.6573033708
  21
 1073.4539325843
  31
0.0
   0
LINE
   5
45C
 100
AcDbEntity
   8
LEVEL001
 370
13
 100
AcDbLine
   6
CONTINUOUS
  62
5
  10
 2591.6573033708
  20
 973.45393258429
  30
0.0
  11
 3091.6573033708
  21
 973.45393258429
  31
0.0
   0
LINE
   5
45D
 100
AcDbEntity
   8
LEVEL001
 370
13
 100
AcDbLine
   6
CONTINUOUS
  62
5
  10
 2591.6573033708
  20
 1073.4539325843
  30
0.0
  11
 3091.6573033708
  21
 1073.4539325843
  31
0.0
   0
LINE
   5
45E
 100
AcDbEntity
   8
LEVEL001
 370
13
 100
AcDbLine
   6
CONTINUOUS
  62
5
  10
 2803.5073033708
  20
 1438.0985935249
  30
0.0
  11
 2591.6573033708
  21
 1226.2485935249
  31
0.0
   0
LINE
   5
45F
 100
AcDbEntity
   8
LEVEL001
 370
13
 100
AcDbLine
   6
CONTINUOUS
  62
5
  10
 2641.6573033708
  20
 1073.4539325843
  30
0.0
  11
 2591.6573033708
  21
 973.45393258429
  31
0.0
   0
LINE
   5
460
 100
AcDbEntity
   8
LEVEL001
 370
13
 100
AcDbLine
   6
CONTINUOUS
  62
5
  10
 2591.6573033708
  20
 1073.4539325843
  30
0.0
  11
 2631.6573033708
  21
 1053.4539325843
  31
0.0
   0
LINE
   5
461
 100
AcDbEntity
   8
LEVEL001
 370
13
 100
AcDbLine
   6
CONTINUOUS
  62
5
  10
 2641.6573033708
  20
 973.45393258429
  30
0.0
  11
 2601.6573033708
  21
 993.45393258429
  31
0.0
   0
LINE
   5
462
 100
AcDbEntity
   8
LEVEL001
 370
13
 100
AcDbLine
   6
CONTINUOUS
  62
5
  10
 2591.6573033708
  20
 1073.4539325843
  30
0.0
  11
 2591.6573033708
  21
 973.45393258429
  31
0.0
   0
LINE
   5
463
 100
AcDbEntity
   8
LEVEL001
 370
13
 100
AcDbLine
   6
CONTINUOUS
  62
5
  10
 3091.6573033708
  20
 1073.4539325843
  30
0.0
  11
 3041.6573033708
  21
 973.45393258429
  31
0.0
   0
LINE
   5
464
 100
AcDbEntity
   8
LEVEL001
 370
13
 100
AcDbLine
   6
CONTINUOUS
  62
5
  10
 3041.6573033708
  20
 1073.4539325843
  30
0.0
  11
 3081.6573033708
  21
 1053.4539325843
  31
0.0
   0
LINE
   5
465
 100
AcDbEntity
   8
LEVEL001
 370
13
 100
AcDbLine
   6
CONTINUOUS
  62
5
  10
 3041.6573033708
  20
 1073.4539325843
  30
0.0
  11
 2991.6573033708
  21
 973.45393258429
  31
0.0
   0
LINE
   5
466
 100
AcDbEntity
   8
LEVEL001
 370
13
 100
AcDbLine
   6
CONTINUOUS
  62
5
  10
 2991.6573033708
  20
 1073.4539325843
  30
0.0
  11
 3031.6573033708
  21
 1053.4539325843
  31
0.0
   0
LINE
   5
467
 100
AcDbEntity
   8
LEVEL001
 370
13
 100
AcDbLine
   6
CONTINUOUS
  62
5
  10
 2991.6573033708
  20
 1073.4539325843
  30
0.0
  11
 2941.6573033708
  21
 973.45393258429
  31
0.0
   0
LINE
   5
468
 100
AcDbEntity
   8
LEVEL001
 370
13
 100
AcDbLine
   6
CONTINUOUS
  62
5
  10
 2941.6573033708
  20
 1073.4539325843
  30
0.0
  11
 2981.6573033708
  21
 1053.4539325843
  31
0.0
   0
LINE
   5
469
 100
AcDbEntity
   8
LEVEL001
 370
13
 100
AcDbLine
   6
CONTINUOUS
  62
5
  10
 3091.6573033708
  20
 973.45393258429
  30
0.0
  11
 3051.6573033708
  21
 993.45393258429
  31
0.0
   0
LINE
   5
46A
 100
AcDbEntity
   8
LEVEL001
 370
13
 100
AcDbLine
   6
CONTINUOUS
  62
5
  10
 3041.6573033708
  20
 973.45393258429
  30
0.0
  11
 3001.6573033708
  21
 993.45393258429
  31
0.0
   0
LINE
   5
46B
 100
AcDbEntity
   8
LEVEL001
 370
13
 100
AcDbLine
   6
CONTINUOUS
  62
5
  10
 2991.6573033708
  20
 973.45393258429
  30
0.0
  11
 2951.6573033708
  21
 993.45393258429
  31
0.0
   0
LINE
   5
46C
 100
AcDbEntity
   8
LEVEL001
 370
13
 100
AcDbLine
   6
CONTINUOUS
  62
5
  10
 3091.6573033708
  20
 973.45393258429
  30
0.0
  11
 3091.6573033708
  21
 1073.4539325843
  31
0.0
   0
LINE
   5
46D
 100
AcDbEntity
   8
LEVEL001
 370
13
 100
AcDbLine
   6
CONTINUOUS
  62
5
  10
 3091.6573033708
  20
 1073.4539325843
  30
0.0
  11
 3091.6573033708
  21
 1973.4539325843
  31
0.0
   0
LINE
   5
46E
 100
AcDbEntity
   8
LEVEL001
 370
13
 100
AcDbLine
   6
CONTINUOUS
  62
5
  10
 3152.3374982174
  20
 1973.4539325843
  30
0.0
  11
 3099.8374982174
  21
 1920.9539325843
  31
0.0
   0
LINE
   5
46F
 100
AcDbEntity
   8
LEVEL001
 370
13
 100
AcDbLine
   6
CONTINUOUS
  62
5
  10
 3115.7474007936
  20
 1920.9539325843
  30
0.0
  11
 3168.2474007936
  21
 1973.4539325843
  31
0.0
   0
LINE
   5
470
 100
AcDbEntity
   8
LEVEL001
 370
13
 100
AcDbLine
   6
CONTINUOUS
  62
5
  10
 3184.1573033712
  20
 1973.4539325843
  30
0.0
  11
 3131.6573033712
  21
 1920.9539325843
  31
0.0
   0
LINE
   5
471
 100
AcDbEntity
   8
LEVEL001
 370
13
 100
AcDbLine
   6
CONTINUOUS
  62
5
  10
 3147.5672059472
  20
 1920.9539325843
  30
0.0
  11
 3200.0672059472
  21
 1973.4539325843
  31
0.0
   0
LINE
   5
472
 100
AcDbEntity
   8
LEVEL001
 370
13
 100
AcDbLine
   6
CONTINUOUS
  62
5
  10
 3204.8374982178
  20
 1920.9539325843
  30
0.0
  11
 3176.2023520824
  21
 1949.5890787196
  31
0.0
   0
LINE
   5
473
 100
AcDbEntity
   8
LEVEL001
 370
13
 100
AcDbLine
   6
CONTINUOUS
  62
5
  10
 3184.1573033706
  20
 1957.5440300078
  30
0.0
  11
 3220.7474007942
  21
 1920.9539325843
  31
0.0
   0
LINE
   5
474
 100
AcDbEntity
   8
LEVEL001
 370
13
 100
AcDbLine
   6
CONTINUOUS
  62
5
  10
 3236.6573033706
  20
 1920.9539325843
  30
0.0
  11
 3192.1122546588
  21
 1965.4989812960
  31
0.0
   0
LINE
   5
475
 100
AcDbEntity
   8
LEVEL001
 370
13
 100
AcDbLine
   6
CONTINUOUS
  62
5
  10
 3200.0672059472
  20
 1973.4539325843
  30
0.0
  11
 3252.5672059474
  21
 1920.9539325843
  31
0.0
   0
LINE
   5
476
 100
AcDbEntity
   8
LEVEL001
 370
13
 100
AcDbLine
   6
CONTINUOUS
  62
5
  10
 3252.5672059474
  20
 1920.9539325843
  30
0.0
  11
 3305.0672059474
  21
 1973.4539325843
  31
0.0
   0
LINE
   5
477
 100
AcDbEntity
   8
LEVEL001
 370
13
 100
AcDbLine
   6
CONTINUOUS
  62
5
  10
 3257.3374982176
  20
 1973.4539325843
  30
0.0
  11
 3228.7023520824
  21
 1944.8187864491
  31
0.0
   0
LINE
   5
478
 100
AcDbEntity
   8
LEVEL001
 370
13
 100
AcDbLine
   6
CONTINUOUS
  62
5
  10
 3236.6573033706
  20
 1936.8638351611
  30
0.0
  11
 3273.2474007938
  21
 1973.4539325843
  31
0.0
   0
LINE
   5
479
 100
AcDbEntity
   8
LEVEL001
 370
13
 100
AcDbLine
   6
CONTINUOUS
  62
5
  10
 3289.1573033714
  20
 1973.4539325843
  30
0.0
  11
 3244.6122546594
  21
 1928.9088838723
  31
0.0
   0
LINE
   5
47A
 100
AcDbEntity
   8
LEVEL001
 370
13
 100
AcDbLine
   6
CONTINUOUS
  62
5
  10
 3309.8374982180
  20
 1920.9539325843
  30
0.0
  11
 3281.2023520826
  21
 1949.5890787196
  31
0.0
   0
LINE
   5
47B
 100
AcDbEntity
   8
LEVEL001
 370
13
 100
AcDbLine
   6
CONTINUOUS
  62
5
  10
 3289.1573033708
  20
 1957.5440300078
  30
0.0
  11
 3325.7474007944
  21
 1920.9539325843
  31
0.0
   0
LINE
   5
47C
 100
AcDbEntity
   8
LEVEL001
 370
13
 100
AcDbLine
   6
CONTINUOUS
  62
5
  10
 3341.6573033708
  20
 1920.9539325843
  30
0.0
  11
 3297.1122546590
  21
 1965.4989812960
  31
0.0
   0
LINE
   5
47D
 100
AcDbEntity
   8
LEVEL001
 370
13
 100
AcDbLine
   6
CONTINUOUS
  62
5
  10
 3305.0672059474
  20
 1973.4539325843
  30
0.0
  11
 3341.6573033708
  21
 1936.8638351609
  31
0.0
   0
LINE
   5
47E
 100
AcDbEntity
   8
LEVEL001
 370
13
 100
AcDbLine
   6
CONTINUOUS
  62
5
  10
 2879.8073033708
  20
 1973.4539325843
  30
0.0
  11
 3341.6573033708
  21
 1973.4539325843
  31
0.0
   0
LINE
   5
47F
 100
AcDbEntity
   8
LEVEL001
 370
13
 100
AcDbLine
   6
CONTINUOUS
  62
5
  10
 3091.6573033708
  20
 1796.9592716436
  30
0.0
  11
 2879.8073033708
  21
 1585.1092716436
  31
0.0
   0
LINE
   5
480
 100
AcDbEntity
   8
LEVEL001
 370
13
 100
AcDbLine
   6
CONTINUOUS
  62
5
  10
 2879.8073033708
  20
 1549.7539325843
  30
0.0
  11
 3091.6573033708
  21
 1761.6039325843
  31
0.0
   0
LINE
   5
481
 100
AcDbEntity
   8
LEVEL001
 370
13
 100
AcDbLine
   6
CONTINUOUS
  62
5
  10
 3091.6573033708
  20
 1726.2485935249
  30
0.0
  11
 2879.8073033708
  21
 1514.3985935249
  31
0.0
   0
LEADER
   5
482
 100
AcDbEntity
   8
LEVEL001
 370
13
   6
CONTINUOUS
  62
1
 100
AcDbLeader
   3
GMM002
  73
3
  74
1
  75
0
  40
 60.000000000000
  41
0.0
  76
2
  10
 1974.0969420672
  20
 4473.4539325843
  30
0.0
  10
 2042.2356289582
  20
 4405.5270886891
  30
0.0
  77
1
   0
LEADER
   5
483
 100
AcDbEntity
   8
LEVEL001
 370
13
   6
CONTINUOUS
  62
1
 100
AcDbLeader
   3
GMM002
  73
3
  74
1
  75
0
  40
 60.000000000000
  41
0.0
  76
2
  10
 1529.8073033708
  20
 2648.4539325843
  30
0.0
  10
 1681.3695140096
  20
 2737.8817179507
  30
0.0
  77
1
   0
LEADER
   5
484
 100
AcDbEntity
   8
LEVEL001
 370
13
   6
CONTINUOUS
  62
1
 100
AcDbLeader
   3
GMM002
  73
3
  74
1
  75
0
  40
 60.000000000000
  41
0.0
  76
2
  10
 2124.1573033708
  20
 4950.2539325843
  30
0.0
  10
 2249.6098615974
  20
 5115.8895479433
  30
0.0
  77
1
   0
LEADER
   5
485
 100
AcDbEntity
   8
LEVEL001
 370
13
   6
CONTINUOUS
  62
1
 100
AcDbLeader
   3
GMM002
  73
3
  74
1
  75
0
  40
 60.000000000000
  41
0.0
  76
2
  10
 3312.6679919502
  20
 4606.8539325843
  30
0.0
  10
 3371.0580188138
  20
 4422.8543749123
  30
0.0
  77
1
   0
LEADER
   5
486
 100
AcDbEntity
   8
LEVEL001
 370
13
   6
CONTINUOUS
  62
1
 100
AcDbLeader
   3
GMM002
  73
3
  74
1
  75
0
  40
 60.000000000000
  41
0.0
  76
2
  10
 3390.7993571056
  20
 4776.8539325843
  30
0.0
  10
 3525.2145948788
  20
 5106.8362711771
  30
0.0
  77
1
   0
LEADER
   5
487
 100
AcDbEntity
   8
LEVEL001
 370
13
   6
CONTINUOUS
  62
1
 100
AcDbLeader
   3
GMM002
  73
3
  74
1
  75
0
  40
 60.000000000000
  41
0.0
  76
2
  10
 3191.6573033708
  20
 5077.4539325843
  30
0.0
  10
 3328.4480911114
  20
 5141.7774386805
  30
0.0
  77
1
   0
LEADER
   5
488
 100
AcDbEntity
   8
LEVEL001
 370
13
   6
CONTINUOUS
  62
1
 100
AcDbLeader
   3
GMM002
  73
3
  74
1
  75
0
  40
 60.000000000000
  41
0.0
  76
2
  10
 2792.4379956876
  20
 4776.8539325845
  30
0.0
  10
 2840.2717432912
  20
 5102.7860772925
  30
0.0
  77
1
   0
LEADER
   5
489
 100
AcDbEntity
   8
LEVEL001
 370
13
   6
CONTINUOUS
  62
1
 100
AcDbLeader
   3
GMM002
  73
3
  74
1
  75
0
  40
 60.000000000000
  41
0.0
  76
2
  10
 2731.6572852852
  20
 1365.9539325843
  30
0.0
  10
 2528.3089455108
  20
 1256.6062329787
  30
0.0
  77
1
   0
LEADER
   5
48A
 100
AcDbEntity
   8
LEVEL001
 370
13
   6
CONTINUOUS
  62
1
 100
AcDbLeader
   3
GMM002
  73
3
  74
1
  75
0
  40
 60.000000000000
  41
0.0
  76
2
  10
 2653.5484897926
  20
 4950.2539325843
  30
0.0
  10
 2351.8444245866
  20
 5136.1116586263
  30
0.0
  77
1
   0
LEADER
   5
48B
 100
AcDbEntity
   8
LEVEL001
 370
13
   6
CONTINUOUS
  62
1
 100
AcDbLeader
   3
GMM002
  73
3
  74
1
  75
0
  40
 60.000000000000
  41
0.0
  76
2
  10
 2691.8736835142
  20
 4571.8539325843
  30
0.0
  10
 2353.2455401620
  20
 4389.2238709203
  30
0.0
  77
1
   0
LEADER
   5
48C
 100
AcDbEntity
   8
LEVEL001
 370
13
   6
CONTINUOUS
  62
1
 100
AcDbLeader
   3
GMM002
  73
3
  74
1
  75
0
  40
 60.000000000000
  41
0.0
  76
2
  10
 2091.6573033708
  20
 4571.8539325843
  30
0.0
  10
 2244.5202609862
  20
 4407.7042846909
  30
0.0
  77
1
   0
MTEXT
   5
48D
 100
AcDbEntity
   8
LEVEL001
 370
13
  62
1
 100
AcDbMText
  10
 1841.6573033708
  20
 2794.8825040129
  30
0.0
  40
 42.857142857142
  41
0.0
  71
1
  72
1
   1
{\T1.000000;支柱}\P%%c{\T1.000000;７６}{\T1.000000;.}{\T1.000000;３×３}{\T1.000000;.}{\T1.000000;２ｔ}\P{\T1.000000;×４０００Ｌ}
   7
GMM001
  44
 0.79999984000003
   0
POINT
   5
48E
 100
AcDbEntity
   8
LEVEL001
 100
AcDbPoint
  62
3
  10
 6391.6573033708
  20
 761.85393258427
  30
0.0
   0
POINT
   5
48F
 100
AcDbEntity
   8
LEVEL001
 100
AcDbPoint
  62
3
  10
 6291.6573033708
  20
 761.85393258427
  30
0.0
   0
POINT
   5
490
 100
AcDbEntity
   8
LEVEL001
 100
AcDbPoint
  62
3
  10
 6391.6573033708
  20
 861.85393258427
  30
0.0
   0
LINE
   5
491
 100
AcDbEntity
   8
LEVEL001
 370
13
 100
AcDbLine
   6
CONTINUOUS
  62
2
  10
 5451.6573033708
  20
 701.85393258427
  30
0.0
  11
 7131.6573033708
  21
 701.85393258427
  31
0.0
   0
MTEXT
   5
492
 100
AcDbEntity
   8
LEVEL001
 370
13
  62
2
 100
AcDbMText
  10
 5461.6573033708
  20
 891.85393258427
  30
0.0
  40
 38.571428571428
  41
0.0
  71
4
  72
1
   1
\T1.370378;図面番号
   7
GMM001
  44
 0.79999984000003
   0
LWPOLYLINE
   5
493
 100
AcDbEntity
   8
0
 370
13
   6
CONTINUOUS
  62
6
 100
AcDbPolyline
  90
4
  70
1
  10
 5451.6573033708
  20
 3441.8539325843
  10
 5451.6573033708
  20
 921.85393258427
  10
 8091.6573033708
  20
 921.85393258427
  10
 8091.6573033708
  20
 3441.8539325843
   0
LINE
   5
494
 100
AcDbEntity
   8
0
 370
13
 100
AcDbLine
   6
CONTINUOUS
  62
6
  10
 7291.6573033708
  20
 3121.8539325843
  30
0.0
  11
 7291.6573033708
  21
 921.85393258427
  31
0.0
   0
LINE
   5
495
 100
AcDbEntity
   8
0
 370
13
 100
AcDbLine
   6
CONTINUOUS
  62
6
  10
 6731.6573033708
  20
 3121.8539325843
  30
0.0
  11
 6731.6573033708
  21
 921.85393258427
  31
0.0
   0
LINE
   5
496
 100
AcDbEntity
   8
0
 370
13
 100
AcDbLine
   6
CONTINUOUS
  62
6
  10
 6531.6573033708
  20
 3121.8539325843
  30
0.0
  11
 6531.6573033708
  21
 921.85393258427
  31
0.0
   0
LINE
   5
497
 100
AcDbEntity
   8
0
 370
13
 100
AcDbLine
   6
CONTINUOUS
  62
6
  10
 5651.6573033708
  20
 3121.8539325843
  30
0.0
  11
 5651.6573033708
  21
 921.85393258427
  31
0.0
   0
MTEXT
   5
498
 100
AcDbEntity
   8
LEVEL001
 370
13
  62
1
 100
AcDbMText
  10
 5691.6573033708
  20
 1221.8539325843
  30
0.0
  40
 51.428571428572
  41
0.0
  71
4
  72
1
   1
\T1.000000;注意板
   7
GMM001
  44
 0.79999984000003
   0
MTEXT
   5
499
 100
AcDbEntity
   8
LEVEL001
 370
13
  62
1
 100
AcDbMText
  10
 6703.6573033708
  20
 1101.8539325843
  30
0.0
  40
 51.428571428572
  41
0.0
  71
6
  72
1
   1
\T1.000000;１式
   7
GMM001
  44
 0.79999984000003
   0
MTEXT
   5
49A
 100
AcDbEntity
   8
LEVEL001
 370
13
  62
1
 100
AcDbMText
  10
 6703.6573033708
  20
 981.85393258427
  30
0.0
  40
 51.428571428572
  41
0.0
  71
6
  72
1
   1
\T1.000000;１式
   7
GMM001
  44
 0.79999984000003
   0
MTEXT
   5
49B
 100
AcDbEntity
   8
LEVEL001
 370
13
  62
1
 100
AcDbMText
  10
 6771.6573033708
  20
 1101.8539325843
  30
0.0
  40
 51.428571428572
  41
0.0
  71
4
  72
1
   1
\T1.000000;―
   7
GMM001
  44
 0.79999984000003
   0
MTEXT
   5
49C
 100
AcDbEntity
   8
LEVEL001
 370
13
  62
1
 100
AcDbMText
  10
 6771.6573033708
  20
 981.85393258427
  30
0.0
  40
 51.428571428572
  41
0.0
  71
4
  72
1
   1
\T1.000000;―
   7
GMM001
  44
 0.79999984000003
   0
MTEXT
   5
49D
 100
AcDbEntity
   8
LEVEL001
 370
13
  62
1
 100
AcDbMText
  10
 6771.6573033708
  20
 1221.8539325843
  30
0.0
  40
 51.428571428572
  41
0.0
  71
4
  72
1
   1
\T1.000000;―
   7
GMM001
  44
 0.79999984000003
   0
MTEXT
   5
49E
 100
AcDbEntity
   8
LEVEL001
 370
13
  62
1
 100
AcDbMText
  10
 7331.6573033708
  20
 1101.8539325843
  30
0.0
  40
 51.428571428572
  41
0.0
  71
4
  72
1
   1
\T1.000000;―
   7
GMM001
  44
 0.79999984000003
   0
MTEXT
   5
49F
 100
AcDbEntity
   8
LEVEL001
 370
13
  62
1
 100
AcDbMText
  10
 7331.6573033708
  20
 981.85393258427
  30
0.0
  40
 51.428571428572
  41
0.0
  71
4
  72
1
   1
\T1.000000;―
   7
GMM001
  44
 0.79999984000003
   0
MTEXT
   5
4A0
 100
AcDbEntity
   8
0
 370
13
  62
1
 100
AcDbMText
  10
 7333.0388326207
  20
 1587.7140035552
  30
0.0
  40
 34.285720000000
  41
0.0
  71
4
  72
1
   1
{\T1.000000;下地亜鉛メッキ}\P{\T1.000000;＋静電粉体塗装}
   7
GMM005
  44
 0.79999984000003
   0
MTEXT
   5
4A1
 100
AcDbEntity
   8
0
 370
13
  62
1
 100
AcDbMText
  10
 6771.2406945022
  20
 1548.1227823387
  30
0.0
  40
 51.428571428571
  41
0.0
  71
7
  72
1
   1
\T1.000000;ＳＴＫ４００
   7
GMM001
  44
 0.79999984000003
   0
LINE
   5
4A2
 100
AcDbEntity
   8
0
 370
13
 100
AcDbLine
   6
CONTINUOUS
  62
6
  10
 6531.6573033708
  20
 1641.8539325843
  30
0.0
  11
 8091.6573033708
  21
 1641.8539325843
  31
0.0
   0
MTEXT
   5
4A3
 100
AcDbEntity
   8
0
 370
13
  62
1
 100
AcDbMText
  10
 6702.6362771248
  20
 1548.1227823387
  30
0.0
  40
 51.428571428571
  41
0.0
  71
9
  72
1
   1
\T1.000000;１
   7
GMM001
  44
 0.79999984000003
   0
MTEXT
   5
4A4
 100
AcDbEntity
   8
LEVEL001
 370
13
  62
1
 100
AcDbMText
  10
 6291.6573033708
  20
 766.07268258427
  30
0.0
  40
 42.857142857142
  41
0.0
  71
5
  72
1
   1
\T1.000000;ＭＺＨ４５６ＷＵＰ
   7
GMM001
  44
 0.79999984000003
   0
MTEXT
   5
4A5
 100
AcDbEntity
   8
LEVEL001
 370
13
  62
1
 100
AcDbMText
  10
 7335.0692637478
  20
 2835.9776099569
  30
0.0
  40
 34.285714285714
  41
0.0
  71
1
  72
1
   1
{\T1.000000;ＺＡＭ処理鋼板}\P{\T1.000000;プレス成型}
   7
GMM005
  44
 1.0099997980000
   0
DIMENSION
   5
4A6
 100
AcDbEntity
   8
LEVEL001
 370
13
   6
CONTINUOUS
  62
1
 100
AcDbDimension
   2
*D13
  10
 1741.6573033708
  20
 773.45393258429
  30
0.0
  11
 1491.6573033708
  21
 773.45393258429
  31
0.0
  70
128
   1
\A1;□500
   3
GMM003
 100
AcDbAlignedDimension
  13
 1241.6573033708
  23
 973.45393258429
  33
0.0
  14
 1741.6573033708
  24
 973.45393258429
  34
0.0
 100
AcDbRotatedDimension
   0
DIMENSION
   5
4A7
 100
AcDbEntity
   8
LEVEL001
 370
13
   6
CONTINUOUS
  62
1
 100
AcDbDimension
   2
*D14
  10
 3091.6573033708
  20
 773.45393258429
  30
0.0
  11
 2841.6573033708
  21
 773.45393258429
  31
0.0
  70
128
   1
\A1;□500
   3
GMM003
 100
AcDbAlignedDimension
  13
 2591.6573033708
  23
 973.45393258429
  33
0.0
  14
 3091.6573033708
  24
 973.45393258429
  34
0.0
 100
AcDbRotatedDimension
   0
DIMENSION
   5
4A8
 100
AcDbEntity
   8
LEVEL001
 370
13
   6
CONTINUOUS
  62
1
 100
AcDbDimension
   2
*D15
  10
 1589.1573033708
  20
 4821.8539325843
  30
0.0
  11
 1922.4065119900
  21
 4821.8539325843
  31
0.0
  70
128
   1
\A1;600
   3
GMM004
 100
AcDbAlignedDimension
  13
 2194.1573033708
  23
 4821.8539325843
  33
0.0
  14
 1589.1573033708
  24
 4821.8539325843
  34
0.0
  50
 180.00000000000
 100
AcDbRotatedDimension
   0
DIMENSION
   5
4A9
 100
AcDbEntity
   8
LEVEL001
 370
13
   6
CONTINUOUS
  62
1
 100
AcDbDimension
   2
*D16
  10
 789.15730337078
  20
 4821.8539325843
  30
0.0
  11
 1122.4065119900
  21
 4821.8539325843
  31
0.0
  70
128
   1
\A1;600
   3
GMM004
 100
AcDbAlignedDimension
  13
 1394.1573033708
  23
 4821.8539325843
  33
0.0
  14
 789.15730337078
  24
 4821.8539325843
  34
0.0
  50
 180.00000000000
 100
AcDbRotatedDimension
   0
DIMENSION
   5
4AA
 100
AcDbEntity
   8
LEVEL001
 370
13
   6
CONTINUOUS
  62
1
 100
AcDbDimension
   2
*D17
  10
 1741.6573033708
  20
 4949.3539325843
  30
0.0
  11
 1741.6573033708
  21
 4689.0406921285
  31
0.0
  70
128
   1
\A1;450
   3
GMM005
 100
AcDbAlignedDimension
  13
 1741.6573033708
  23
 4494.3539325843
  33
0.0
  14
 1741.6573033708
  24
 4949.3539325843
  34
0.0
  50
 90.000000000000
 100
AcDbRotatedDimension
   0
DIMENSION
   5
4AB
 100
AcDbEntity
   8
LEVEL001
 370
13
   6
CONTINUOUS
  62
1
 100
AcDbDimension
   2
*D18
  10
 941.65730337078
  20
 4949.3539325843
  30
0.0
  11
 941.65730337078
  21
 4689.0406921285
  31
0.0
  70
128
   1
\A1;450
   3
GMM005
 100
AcDbAlignedDimension
  13
 941.65730337078
  23
 4494.3539325843
  33
0.0
  14
 941.65730337078
  24
 4949.3539325843
  34
0.0
  50
 90.000000000000
 100
AcDbRotatedDimension
   0
INSERT
   5
4AC
 100
AcDbEntity
   8
0
 100
AcDbBlockReference
   2
BLOCK001
  10
0.0
  20
0.0
  30
0.0
   0
INSERT
   5
4AD
 100
AcDbEntity
   8
0
 100
AcDbBlockReference
   2
BLOCK002
  10
0.0
  20
0.0
  30
0.0
   0
LINE
   5
4AE
 100
AcDbEntity
   8
LEVEL001
 370
13
 100
AcDbLine
   6
CONTINUOUS
  62
7
  10
 2789.8059171116
  20
 3794.9324389658
  30
0.0
  11
 2787.0920103482
  21
 3788.1476720570
  31
0.0
   0
ARC
   5
4AF
 100
AcDbEntity
   8
LEVEL001
 370
13
   6
CONTINUOUS
  62
7
 100
AcDbCircle
  10
 2791.7343938026
  20
 3786.2907186752
  30
0.0
  40
 5.0000000000000
 100
AcDbArc
  50
 158.19859051363
  51
 179.99999999992
   0
LINE
   5
4B0
 100
AcDbEntity
   8
LEVEL001
 370
13
 100
AcDbLine
   6
CONTINUOUS
  62
7
  10
 2786.7343938026
  20
 3786.2907186752
  30
0.0
  11
 2786.7343938026
  21
 3203.5741592548
  31
0.0
   0
LINE
   5
4B1
 100
AcDbEntity
   8
LEVEL001
 370
13
 100
AcDbLine
   6
CONTINUOUS
  62
6
  10
 2793.7343938026
  20
 3723.9325000040
  30
0.0
  11
 2793.7343938026
  21
 3724.9324389650
  31
0.0
   0
ARC
   5
4B2
 100
AcDbEntity
   8
LEVEL001
 370
13
   6
CONTINUOUS
  62
7
 100
AcDbCircle
  10
 2785.7343938026
  20
 3779.0847925068
  30
0.0
  40
 5.0000000000000
 100
AcDbArc
  50
 0.25012899792527E-9
  51
 21.801409486367
   0
LINE
   5
4B3
 100
AcDbEntity
   8
LEVEL001
 370
13
 100
AcDbLine
   6
CONTINUOUS
  62
7
  10
 2788.5745064022
  20
 3785.4474230252
  30
0.0
  11
 2790.3767772570
  21
 3780.9417458884
  31
0.0
   0
ARC
   5
4B4
 100
AcDbEntity
   8
LEVEL001
 370
13
   6
CONTINUOUS
  62
7
 100
AcDbCircle
  10
 2793.2168898566
  20
 3787.3043764070
  30
0.0
  40
 5.0000000000000
 100
AcDbArc
  50
 158.19859051363
  51
 201.80140948637
   0
LINE
   5
4B5
 100
AcDbEntity
   8
LEVEL001
 370
13
 100
AcDbLine
   6
CONTINUOUS
  62
7
  10
 2789.8059171116
  20
 3794.9324389658
  30
0.0
  11
 2790.7343938026
  21
 3794.5610482894
  31
0.0
   0
LINE
   5
4B6
 100
AcDbEntity
   8
LEVEL001
 370
13
 100
AcDbLine
   6
CONTINUOUS
  62
7
  10
 2790.7343938026
  20
 3794.5610482894
  30
0.0
  11
 2788.5745064022
  21
 3789.1613297888
  31
0.0
   0
LINE
   5
4B7
 100
AcDbEntity
   8
LEVEL001
 370
13
 100
AcDbLine
   6
CONTINUOUS
  62
7
  10
 2790.7343938026
  20
 3779.0847925068
  30
0.0
  11
 2790.7343938026
  21
 3210.7800854232
  31
0.0
   0
LINE
   5
4B8
 100
AcDbEntity
   8
LEVEL001
 370
13
 100
AcDbLine
   6
CONTINUOUS
  62
7
  10
 2793.7343938026
  20
 3724.9324389650
  30
0.0
  11
 2790.7343938026
  21
 3724.9324389650
  31
0.0
   0
LINE
   5
4B9
 100
AcDbEntity
   8
LEVEL001
 370
13
 100
AcDbLine
   6
CONTINUOUS
  62
6
  10
 2790.7343938026
  20
 3723.9325000040
  30
0.0
  11
 2793.7343938026
  21
 3723.9325000040
  31
0.0
   0
LINE
   5
4BA
 100
AcDbEntity
   8
LEVEL001
 370
13
 100
AcDbLine
   6
CONTINUOUS
  62
7
  10
 2794.1898725816
  20
 3709.9320728126
  30
0.0
  11
 2794.1903303456
  21
 3667.9321645292
  31
0.0
   0
ELLIPSE
   5
4BB
 100
AcDbEntity
   8
LEVEL001
 370
13
   6
CONTINUOUS
  62
7
 100
AcDbEllipse
  10
 2790.1898700318
  20
 3709.9321947638
  30
0.0
  11
-4.0000025516047
  21
0.0
  31
0.0
  40
 0.99999938800000
  41
 3.1415621657893
  42
-1.7073511820388
   0
LINE
   5
4BC
 100
AcDbEntity
   8
LEVEL001
 370
13
 100
AcDbLine
   6
CONTINUOUS
  62
7
  10
 2794.1898998256
  20
 3707.4324392460
  30
0.0
  11
 2899.7343938026
  21
 3707.4324392460
  31
0.0
   0
LINE
   5
4BD
 100
AcDbEntity
   8
LEVEL001
 370
13
 100
AcDbLine
   6
CONTINUOUS
  62
7
  10
 2899.7343938026
  20
 3670.4324392460
  30
0.0
  11
 2794.1903030946
  21
 3670.4324392460
  31
0.0
   0
LINE
   5
4BE
 100
AcDbEntity
   8
LEVEL001
 370
13
 100
AcDbLine
   6
CONTINUOUS
  62
7
  10
 2790.7343938026
  20
 3670.4324392460
  30
0.0
  11
 2790.7343938026
  21
 3707.4324392460
  31
0.0
   0
LINE
   5
4BF
 100
AcDbEntity
   8
LEVEL001
 370
13
 100
AcDbLine
   6
CONTINUOUS
  62
6
  10
 2793.7343938026
  20
 3652.9324392460
  30
0.0
  11
 2793.7343938026
  21
 3653.9324697596
  31
0.0
   0
LINE
   5
4C0
 100
AcDbEntity
   8
LEVEL001
 370
13
 100
AcDbLine
   6
CONTINUOUS
  62
6
  10
 2793.7343938026
  20
 3653.9324697596
  30
0.0
  11
 2790.7343938026
  21
 3653.9324697596
  31
0.0
   0
ELLIPSE
   5
4C1
 100
AcDbEntity
   8
LEVEL001
 370
13
   6
CONTINUOUS
  62
7
 100
AcDbEllipse
  10
 2790.1903277944
  20
 3667.9322256816
  30
0.0
  11
-4.0000025516047
  21
0.0
  31
0.0
  40
 0.99999938800000
  41
 1.7072356670409
  42
 3.1415773654645
   0
LINE
   5
4C2
 100
AcDbEntity
   8
LEVEL001
 370
13
 100
AcDbLine
   6
CONTINUOUS
  62
7
  10
 2790.7343938026
  20
 3652.9324392460
  30
0.0
  11
 2793.7343938026
  21
 3652.9324392460
  31
0.0
   0
LINE
   5
4C3
 100
AcDbEntity
   8
LEVEL001
 370
13
 100
AcDbLine
   6
CONTINUOUS
  62
7
  10
 2790.7343938026
  20
 3336.9324386840
  30
0.0
  11
 2793.7343938026
  21
 3336.9324386840
  31
0.0
   0
LINE
   5
4C4
 100
AcDbEntity
   8
LEVEL001
 370
13
 100
AcDbLine
   6
CONTINUOUS
  62
6
  10
 2793.7343938026
  20
 3336.9324386840
  30
0.0
  11
 2793.7343938026
  21
 3335.9324081704
  31
0.0
   0
LINE
   5
4C5
 100
AcDbEntity
   8
LEVEL001
 370
13
 100
AcDbLine
   6
CONTINUOUS
  62
6
  10
 2793.7343938026
  20
 3335.9324081704
  30
0.0
  11
 2790.7343938026
  21
 3335.9324081704
  31
0.0
   0
LINE
   5
4C6
 100
AcDbEntity
   8
LEVEL001
 370
13
 100
AcDbLine
   6
CONTINUOUS
  62
7
  10
 2794.1898725816
  20
 3279.9328051174
  30
0.0
  11
 2794.1903303456
  21
 3321.9327134008
  31
0.0
   0
ELLIPSE
   5
4C7
 100
AcDbEntity
   8
LEVEL001
 370
13
   6
CONTINUOUS
  62
7
 100
AcDbEllipse
  10
 2790.1903277944
  20
 3321.9326522484
  30
0.0
  11
-4.0000025516047
  21
0.0
  31
0.0
  40
 0.99999938800000
  41
-3.1415773654681
  42
-1.7072356670414
   0
LINE
   5
4C8
 100
AcDbEntity
   8
LEVEL001
 370
13
 100
AcDbLine
   6
CONTINUOUS
  62
6
  10
 2793.7343938026
  20
 3265.9323779260
  30
0.0
  11
 2793.7343938026
  21
 3264.9324389650
  31
0.0
   0
LINE
   5
4C9
 100
AcDbEntity
   8
LEVEL001
 370
13
 100
AcDbLine
   6
CONTINUOUS
  62
6
  10
 2790.7343938026
  20
 3265.9323779260
  30
0.0
  11
 2793.7343938026
  21
 3265.9323779260
  31
0.0
   0
ELLIPSE
   5
4CA
 100
AcDbEntity
   8
LEVEL001
 370
13
   6
CONTINUOUS
  62
7
 100
AcDbEllipse
  10
 2790.1898700318
  20
 3279.9326831662
  30
0.0
  11
-4.0000025516047
  21
0.0
  31
0.0
  40
 0.99999938800000
  41
 1.7073511820393
  42
-3.1415621657857
   0
LINE
   5
4CB
 100
AcDbEntity
   8
LEVEL001
 370
13
 100
AcDbLine
   6
CONTINUOUS
  62
7
  10
 2793.7343938026
  20
 3264.9324389650
  30
0.0
  11
 2790.7343938026
  21
 3264.9324389650
  31
0.0
   0
ARC
   5
4CC
 100
AcDbEntity
   8
LEVEL001
 370
13
   6
CONTINUOUS
  62
7
 100
AcDbCircle
  10
 2791.7343938026
  20
 3203.5741592548
  30
0.0
  40
 5.0000000000000
 100
AcDbArc
  50
 179.99999999992
  51
 201.80140948637
   0
LINE
   5
4CD
 100
AcDbEntity
   8
LEVEL001
 370
13
 100
AcDbLine
   6
CONTINUOUS
  62
7
  10
 2789.8059171116
  20
 3194.9324389642
  30
0.0
  11
 2787.0920103482
  21
 3201.7172058730
  31
0.0
   0
ARC
   5
4CE
 100
AcDbEntity
   8
LEVEL001
 370
13
   6
CONTINUOUS
  62
7
 100
AcDbCircle
  10
 2785.7343938026
  20
 3210.7800854232
  30
0.0
  40
 5.0000000000000
 100
AcDbArc
  50
 338.19859051363
  51
 359.99999999992
   0
LINE
   5
4CF
 100
AcDbEntity
   8
LEVEL001
 370
13
 100
AcDbLine
   6
CONTINUOUS
  62
7
  10
 2788.5745064022
  20
 3204.4174549048
  30
0.0
  11
 2790.3767772570
  21
 3208.9231320414
  31
0.0
   0
ARC
   5
4D0
 100
AcDbEntity
   8
LEVEL001
 370
13
   6
CONTINUOUS
  62
7
 100
AcDbCircle
  10
 2793.2168898566
  20
 3202.5605015230
  30
0.0
  40
 5.0000000000000
 100
AcDbArc
  50
 158.19859051372
  51
 201.80140948628
   0
LINE
   5
4D1
 100
AcDbEntity
   8
LEVEL001
 370
13
 100
AcDbLine
   6
CONTINUOUS
  62
7
  10
 2789.8059171116
  20
 3194.9324389642
  30
0.0
  11
 2790.7343938026
  21
 3195.3038296406
  31
0.0
   0
LINE
   5
4D2
 100
AcDbEntity
   8
LEVEL001
 370
13
 100
AcDbLine
   6
CONTINUOUS
  62
7
  10
 2790.7343938026
  20
 3195.3038296406
  30
0.0
  11
 2788.5745064022
  21
 3200.7035481412
  31
0.0
   0
LINE
   5
4D3
 100
AcDbEntity
   8
LEVEL001
 370
13
 100
AcDbLine
   6
CONTINUOUS
  62
7
  10
 2794.1903030946
  20
 3319.4324389650
  30
0.0
  11
 2899.7343987748
  21
 3319.4324389650
  31
0.0
   0
LINE
   5
4D4
 100
AcDbEntity
   8
LEVEL001
 370
13
 100
AcDbLine
   6
CONTINUOUS
  62
7
  10
 2899.7343987748
  20
 3282.4324389650
  30
0.0
  11
 2794.1898998256
  21
 3282.4324389650
  31
0.0
   0
LINE
   5
4D5
 100
AcDbEntity
   8
LEVEL001
 370
13
 100
AcDbLine
   6
CONTINUOUS
  62
6
  10
 2878.5623997744
  20
 3294.4324389650
  30
0.0
  11
 2806.4432279488
  21
 3294.4324389650
  31
0.0
   0
LINE
   5
4D6
 100
AcDbEntity
   8
LEVEL001
 370
13
 100
AcDbLine
   6
CONTINUOUS
  62
6
  10
 2806.4432279488
  20
 3307.4324389650
  30
0.0
  11
 2878.5623997744
  21
 3307.4324389650
  31
0.0
   0
LINE
   5
4D7
 100
AcDbEntity
   8
LEVEL001
 370
13
 100
AcDbLine
   6
CONTINUOUS
  62
6
  10
 2878.5623997744
  20
 3317.4324389650
  30
0.0
  11
 2878.5623997744
  21
 3308.4324389650
  31
0.0
   0
LINE
   5
4D8
 100
AcDbEntity
   8
LEVEL001
 370
13
 100
AcDbLine
   6
CONTINUOUS
  62
6
  10
 2878.5623997744
  20
 3293.4324389650
  30
0.0
  11
 2878.5623997744
  21
 3284.4324389650
  31
0.0
   0
LINE
   5
4D9
 100
AcDbEntity
   8
LEVEL001
 370
13
 100
AcDbLine
   6
CONTINUOUS
  62
7
  10
 2894.7343987748
  20
 3295.9324389650
  30
0.0
  11
 2884.7343987748
  21
 3295.9324389650
  31
0.0
   0
LINE
   5
4DA
 100
AcDbEntity
   8
LEVEL001
 370
13
 100
AcDbLine
   6
CONTINUOUS
  62
7
  10
 2884.7343987748
  20
 3295.9324389650
  30
0.0
  11
 2884.7343987748
  21
 3305.9324389650
  31
0.0
   0
LINE
   5
4DB
 100
AcDbEntity
   8
LEVEL001
 370
13
 100
AcDbLine
   6
CONTINUOUS
  62
7
  10
 2884.7343987748
  20
 3305.9324389650
  30
0.0
  11
 2894.7343987748
  21
 3305.9324389650
  31
0.0
   0
LINE
   5
4DC
 100
AcDbEntity
   8
LEVEL001
 370
13
 100
AcDbLine
   6
CONTINUOUS
  62
7
  10
 2894.7343987748
  20
 3305.9324389650
  30
0.0
  11
 2894.7343987748
  21
 3295.9324389650
  31
0.0
   0
LINE
   5
4DD
 100
AcDbEntity
   8
LEVEL001
 370
13
 100
AcDbLine
   6
CONTINUOUS
  62
6
  10
 2880.8809248158
  20
 3307.4324389650
  30
0.0
  11
 2880.8809248158
  21
 3294.4324389650
  31
0.0
   0
LINE
   5
4DE
 100
AcDbEntity
   8
LEVEL001
 370
13
 100
AcDbLine
   6
CONTINUOUS
  62
6
  10
 2805.1823333792
  20
 3306.4324389650
  30
0.0
  11
 2805.1823333792
  21
 3295.4324389650
  31
0.0
   0
LINE
   5
4DF
 100
AcDbEntity
   8
LEVEL001
 370
13
 100
AcDbLine
   6
CONTINUOUS
  62
6
  10
 2805.1823333792
  20
 3317.4324389650
  30
0.0
  11
 2805.1823333792
  21
 3308.4324389650
  31
0.0
   0
LINE
   5
4E0
 100
AcDbEntity
   8
LEVEL001
 370
13
 100
AcDbLine
   6
CONTINUOUS
  62
6
  10
 2805.1823333792
  20
 3293.4324389650
  30
0.0
  11
 2805.1823333792
  21
 3284.4324389650
  31
0.0
   0
LINE
   5
4E1
 100
AcDbEntity
   8
LEVEL001
 370
13
 100
AcDbLine
   6
CONTINUOUS
  62
7
  10
 2899.7343987748
  20
 3319.4324389650
  30
0.0
  11
 2899.7343987748
  21
 3282.4324389650
  31
0.0
   0
LINE
   5
4E2
 100
AcDbEntity
   8
LEVEL001
 370
13
 100
AcDbLine
   6
CONTINUOUS
  62
6
  10
 2878.5623948022
  20
 3705.4324392460
  30
0.0
  11
 2878.5623948022
  21
 3696.4324392460
  31
0.0
   0
LINE
   5
4E3
 100
AcDbEntity
   8
LEVEL001
 370
13
 100
AcDbLine
   6
CONTINUOUS
  62
6
  10
 2878.5623948022
  20
 3681.4324392460
  30
0.0
  11
 2878.5623948022
  21
 3672.4324392460
  31
0.0
   0
LINE
   5
4E4
 100
AcDbEntity
   8
LEVEL001
 370
13
 100
AcDbLine
   6
CONTINUOUS
  62
7
  10
 2894.7343938026
  20
 3683.9324392460
  30
0.0
  11
 2884.7343938026
  21
 3683.9324392460
  31
0.0
   0
LINE
   5
4E5
 100
AcDbEntity
   8
LEVEL001
 370
13
 100
AcDbLine
   6
CONTINUOUS
  62
7
  10
 2884.7343938026
  20
 3683.9324392460
  30
0.0
  11
 2884.7343938026
  21
 3693.9324392460
  31
0.0
   0
LINE
   5
4E6
 100
AcDbEntity
   8
LEVEL001
 370
13
 100
AcDbLine
   6
CONTINUOUS
  62
7
  10
 2884.7343938026
  20
 3693.9324392460
  30
0.0
  11
 2894.7343938026
  21
 3693.9324392460
  31
0.0
   0
LINE
   5
4E7
 100
AcDbEntity
   8
LEVEL001
 370
13
 100
AcDbLine
   6
CONTINUOUS
  62
7
  10
 2894.7343938026
  20
 3693.9324392460
  30
0.0
  11
 2894.7343938026
  21
 3683.9324392460
  31
0.0
   0
LINE
   5
4E8
 100
AcDbEntity
   8
LEVEL001
 370
13
 100
AcDbLine
   6
CONTINUOUS
  62
6
  10
 2880.8809198434
  20
 3695.4324392460
  30
0.0
  11
 2880.8809198434
  21
 3682.4324392460
  31
0.0
   0
LINE
   5
4E9
 100
AcDbEntity
   8
LEVEL001
 370
13
 100
AcDbLine
   6
CONTINUOUS
  62
6
  10
 2805.1823284068
  20
 3694.4324392460
  30
0.0
  11
 2805.1823284068
  21
 3683.4324392460
  31
0.0
   0
LINE
   5
4EA
 100
AcDbEntity
   8
LEVEL001
 370
13
 100
AcDbLine
   6
CONTINUOUS
  62
6
  10
 2805.1823284068
  20
 3681.4324392460
  30
0.0
  11
 2805.1823284068
  21
 3672.4324392460
  31
0.0
   0
LINE
   5
4EB
 100
AcDbEntity
   8
LEVEL001
 370
13
 100
AcDbLine
   6
CONTINUOUS
  62
6
  10
 2805.1823284068
  20
 3705.4324392460
  30
0.0
  11
 2805.1823284068
  21
 3696.4324392460
  31
0.0
   0
LINE
   5
4EC
 100
AcDbEntity
   8
LEVEL001
 370
13
 100
AcDbLine
   6
CONTINUOUS
  62
6
  10
 2878.5623948022
  20
 3682.4324392460
  30
0.0
  11
 2806.4432229764
  21
 3682.4324392460
  31
0.0
   0
LINE
   5
4ED
 100
AcDbEntity
   8
LEVEL001
 370
13
 100
AcDbLine
   6
CONTINUOUS
  62
6
  10
 2806.4432229764
  20
 3695.4324392460
  30
0.0
  11
 2878.5623948022
  21
 3695.4324392460
  31
0.0
   0
LINE
   5
4EE
 100
AcDbEntity
   8
LEVEL001
 370
13
 100
AcDbLine
   6
CONTINUOUS
  62
7
  10
 2899.7343938026
  20
 3707.4324392460
  30
0.0
  11
 2899.7343938026
  21
 3670.4324392460
  31
0.0
   0
LWPOLYLINE
   5
4EF
 100
AcDbEntity
   8
0
 370
13
   6
CONTINUOUS
  62
7
 100
AcDbPolyline
  90
4
  70
0
  10
 2803.5073033708
  20
 3282.4324389650
  10
 2803.5073033708
  20
 1073.4539325843
  10
 2879.8073033708
  20
 1073.4539325843
  10
 2879.8073033708
  20
 3282.4324389650
   0
LINE
   5
4F0
 100
AcDbEntity
   8
0
 370
13
 100
AcDbLine
   6
CONTINUOUS
  62
7
  10
 1453.5073033708
  20
 4589.3538910561
  30
0.0
  11
 1453.5073033708
  21
 3794.9328313378
  31
0.0
   0
LINE
   5
4F1
 100
AcDbEntity
   8
0
 370
13
 100
AcDbLine
   6
CONTINUOUS
  62
7
  10
 1529.8073033708
  20
 4589.3538910561
  30
0.0
  11
 1529.8073033708
  21
 3794.9328313378
  31
0.0
   0
LWPOLYLINE
   5
4F2
 100
AcDbEntity
   8
0
 370
13
   6
CONTINUOUS
  62
7
 100
AcDbPolyline
  90
4
  70
0
  10
 1453.5073033708
  20
 3194.9320465922
  10
 1453.5073033708
  20
 1073.4539325843
  10
 1529.8073033708
  20
 1073.4539325843
  10
 1529.8073033708
  20
 3194.9320465922
   0
LINE
   5
4F3
 100
AcDbEntity
   8
0
 370
13
 100
AcDbLine
   6
CONTINUOUS
  62
7
  10
 2879.8073033708
  20
 3319.4324389650
  30
0.0
  11
 2879.8073033708
  21
 3670.4324392460
  31
0.0
   0
LINE
   5
4F4
 100
AcDbEntity
   8
0
 370
13
 100
AcDbLine
   6
CONTINUOUS
  62
7
  10
 2803.5073033708
  20
 3319.4324389650
  30
0.0
  11
 2803.5073033708
  21
 3670.4324392460
  31
0.0
   0
LEADER
   5
4F5
 100
AcDbEntity
   8
LEVEL001
 370
13
   6
CONTINUOUS
  62
1
 100
AcDbLeader
   3
GMM002
  73
3
  74
1
  75
0
  40
 60.000000000000
  41
0.0
  76
2
  10
 2899.7343987748
  20
 3300.9324389650
  30
0.0
  10
 3322.6445767558
  20
 3364.7173390878
  30
0.0
  77
1
   0
CIRCLE
   5
4F6
 100
AcDbEntity
   8
LEVEL001
 370
13
 100
AcDbCircle
   6
CONTINUOUS
  62
1
  10
 3391.6573033708
  20
 3376.4324389658
  30
0.0
  40
 70.000000000000
   0
CIRCLE
   5
4F7
 100
AcDbEntity
   8
LEVEL001
 370
13
 100
AcDbCircle
   6
CONTINUOUS
  62
1
  10
 3531.6573033708
  20
 3376.4324389658
  30
0.0
  40
 70.000000000000
   0
MTEXT
   5
4F8
 100
AcDbEntity
   8
LEVEL001
 370
13
  62
1
 100
AcDbMText
  10
 3391.6573033708
  20
 3376.4324389658
  30
0.0
  40
 57.142857142858
  41
0.0
  71
5
  72
1
   1
\T1.000000;15
   7
GMM001
  44
 0.79999984000003
   0
MTEXT
   5
4F9
 100
AcDbEntity
   8
LEVEL001
 370
13
  62
1
 100
AcDbMText
  10
 3531.6573033708
  20
 3376.4324389658
  30
0.0
  40
 57.142857142858
  41
0.0
  71
5
  72
1
   1
\T1.000000;16
   7
GMM001
  44
 0.79999984000003
   0
DIMENSION
   5
4FA
 100
AcDbEntity
   8
0
 370
13
   6
CONTINUOUS
  62
1
 100
AcDbDimension
   2
*D20
  10
 741.65730337078
  20
 973.45393258429
  30
0.0
  11
 741.65730337078
  21
 1023.4539325843
  31
0.0
  70
0
   3
GMM006
 100
AcDbAlignedDimension
  13
 1241.6573033708
  23
 1073.4539325843
  33
0.0
  14
 1241.6573033708
  24
 973.45393258429
  34
0.0
  50
 270.00000000000
 100
AcDbRotatedDimension
   0
DIMENSION
   5
4FB
 100
AcDbEntity
   8
0
 370
13
   6
CONTINUOUS
  62
1
 100
AcDbDimension
   2
*D21
  10
 741.65730337078
  20
 1973.4539325843
  30
0.0
  11
 741.65730337078
  21
 1523.4539325843
  31
0.0
  70
0
   3
GMM007
 100
AcDbAlignedDimension
  13
 1241.6573033708
  23
 1073.4539325843
  33
0.0
  14
 991.65730337078
  24
 1973.4539325843
  34
0.0
  50
 90.000000000000
 100
AcDbRotatedDimension
   0
DIMENSION
   5
4FC
 100
AcDbEntity
   8
0
 370
13
   6
CONTINUOUS
  62
1
 100
AcDbDimension
   2
*D22
  10
 741.65730337078
  20
 4473.4539325843
  30
0.0
  11
 741.65730337078
  21
 3223.4539325843
  31
0.0
  70
0
   1
\A1;2500(標準設置高さ)
   3
GMM008
 100
AcDbAlignedDimension
  13
 991.65730337078
  23
 1973.4539325843
  33
0.0
  14
 859.15730337078
  24
 4473.4539325843
  34
0.0
  50
 90.000000000000
 100
AcDbRotatedDimension
   0
DIMENSION
   5
4FD
 100
AcDbEntity
   8
0
 370
13
   6
CONTINUOUS
  62
1
 100
AcDbDimension
   2
*D23
  10
 2841.6573033708
  20
 2773.4539325843
  30
0.0
  11
 3016.6573033708
  21
 2773.4539325843
  31
0.0
  70
0
   3
GMM009
 100
AcDbAlignedDimension
  13
 3191.6573033708
  23
 4273.4539325843
  33
0.0
  14
 2841.6573033708
  24
 3823.4539325843
  34
0.0
  50
 180.00000000000
 100
AcDbRotatedDimension
   0
ENDSEC
  0
SECTION
  2
OBJECTS
  0
DICTIONARY
  5
C
100
AcDbDictionary
  3
ACAD_GROUP
350
D
  3
ACAD_MLINESTYLE
350
1B
  3
DWGPROPS
350
1C
  0
DICTIONARY
  5
D
102
{ACAD_REACTORS
330
C
102
}
100
AcDbDictionary
  0
DICTIONARY
  5
1B
102
{ACAD_REACTORS
330
C
102
}
100
AcDbDictionary
  3
STANDARD
350
1D
  0
MLINESTYLE
  5
1D
102
{ACAD_REACTORS
330
1B
102
}
100
AcDbMlineStyle
  2
STANDARD
 70
     0
  3

 62
   256
 51
90.0
 52
90.0
 71
     2
 49
0.5
 62
   256
  6
BYLAYER
 49
-0.5
 62
   256
  6
BYLAYER
   0
XRECORD
   5
1C
 102
{ACAD_REACTORS
 330
C
 102
}
 330
C
 100
AcDbXrecord
 280
1
   1
DWGPROPS COOKIE
   2
 
   3
 
   4
 
   6
 
   7
MZH456WUP
   8
 
   9

 300
 = 
 301
 = 
 302
 = 
 303
 = 
 304
 = 
 305
 = 
 306
 = 
 307
 = 
 308
 = 
 309
 = 
  40
0.0
  41
 2460339.5000000
  42
 2460342.5000000
   1

  90
10
   0
ENDSEC
   0
EOF
