   0
SECTION
   2
HEADER
   9
$ACADVER
   1
AC1015
   9
$DWGCODEPAGE
   3
ANSI_932
   9
$LIMMIN
  10
0.0
  20
0.0
   9
$LIMMAX
  10
 8400.0000000000
  20
 5940.0000000000
   9
$EXTMIN
  10
0.0
  20
0.0
  30
0.0
   9
$EXTMAX
  10
 8400.0000000000
  20
 5940.0000000000
  30
0.0
   9
$LTSCALE
  40
 168.00000000000
   9
$HANDSEED
   5
502
   0
ENDSEC
   0
SECTION
   2
TABLES
  0
TABLE
  2
VPORT
  5
8
100
AcDbSymbolTable
 70
     1
  0
VPORT
  5
501
100
AcDbSymbolTableRecord
100
AcDbViewportTableRecord
  2
*ACTIVE
 70
     0
 10
0.0
 20
0.0
 11
1.0
 21
1.0
  12
 4200.0000000000
  22
 2970.0000000000
 13
0.0
 23
0.0
 14
1.0
 24
1.0
 15
0.0
 25
0.0
 16
0.0
 26
0.0
 36
1.0
 17
0.0
 27
0.0
 37
0.0
  40
 8400.0000000000
  41
 1.4787878787879
 42
50.0
 43
0.0
 44
0.0
 50
0.0
 51
0.0
 71
     0
 72
   100
 73
     1
 74
     1
 75
     0
 76
     0
 77
     0
 78
     0
  0
ENDTAB
  0
TABLE
  2
LTYPE
  5
5
100
AcDbSymbolTable
 70
    25
  0
LTYPE
  5
12
100
AcDbSymbolTableRecord
100
AcDbLinetypeTableRecord
  2
BYBLOCK
 70
     0
  3

 72
    65
 73
     0
 40
0.0
  0
LTYPE
  5
13
100
AcDbSymbolTableRecord
100
AcDbLinetypeTableRecord
  2
BYLAYER
 70
     0
  3

 72
    65
 73
     0
 40
0.0
  0
LTYPE
  5
14
100
AcDbSymbolTableRecord
100
AcDbLinetypeTableRecord
  2
CONTINUOUS
 70
     0
  3
Solid line
 72
    65
 73
     0
 40
0.0
  0
LTYPE
  5
20
100
AcDbSymbolTableRecord
100
AcDbLinetypeTableRecord
  2
BORDER
 70
     0
  3
__ __ . __ __ . __ __ . __ __ . __ __ . __ __ .
 72
    65
 73
     6
 40
1.75
 49
0.5
 74
     0
 49
-0.25
 74
     0
 49
0.5
 74
     0
 49
-0.25
 74
     0
 49
0.0
 74
     0
 49
-0.25
 74
     0
  0
LTYPE
  5
21
100
AcDbSymbolTableRecord
100
AcDbLinetypeTableRecord
  2
BORDER2
 70
     0
  3
__.__.__.__.__.__.__.__.__.__.__.__.__.__.__.__
 72
    65
 73
     6
 40
0.875
 49
0.25
 74
     0
 49
-0.125
 74
     0
 49
0.25
 74
     0
 49
-0.125
 74
     0
 49
0.0
 74
     0
 49
-0.125
 74
     0
  0
LTYPE
  5
22
100
AcDbSymbolTableRecord
100
AcDbLinetypeTableRecord
  2
BORDERX2
 70
     0
  3
____  ____  .  ____  ____  .  ____  ____  .  __
 72
    65
 73
     6
 40
3.5
 49
1.0
 74
     0
 49
-0.5
 74
     0
 49
1.0
 74
     0
 49
-0.5
 74
     0
 49
0.0
 74
     0
 49
-0.5
 74
     0
  0
LTYPE
  5
23
100
AcDbSymbolTableRecord
100
AcDbLinetypeTableRecord
  2
CENTER
 70
     0
  3
____ _ ____ _ ____ _ ____ _ ____ _ ____ _ ____ 
 72
    65
 73
     4
 40
2.0
 49
1.25
 74
     0
 49
-0.25
 74
     0
 49
0.25
 74
     0
 49
-0.25
 74
     0
  0
LTYPE
  5
24
100
AcDbSymbolTableRecord
100
AcDbLinetypeTableRecord
  2
CENTER2
 70
     0
  3
___ _ ___ _ ___ _ ___ _ ___ _ ___ _ ___ _ ___ _
 72
    65
 73
     4
 40
1.125
 49
0.75
 74
     0
 49
-0.125
 74
     0
 49
0.125
 74
     0
 49
-0.125
 74
     0
  0
LTYPE
  5
25
100
AcDbSymbolTableRecord
100
AcDbLinetypeTableRecord
  2
CENTERX2
 70
     0
  3
________  __  ________  __  ________  __  _____
 72
    65
 73
     4
 40
4.0
 49
2.5
 74
     0
 49
-0.5
 74
     0
 49
0.5
 74
     0
 49
-0.5
 74
     0
  0
LTYPE
  5
26
100
AcDbSymbolTableRecord
100
AcDbLinetypeTableRecord
  2
DASHDOT
 70
     0
  3
__ . __ . __ . __ . __ . __ . __ . __ . __ . __
 72
    65
 73
     4
 40
1.0
 49
0.5
 74
     0
 49
-0.25
 74
     0
 49
0.0
 74
     0
 49
-0.25
 74
     0
  0
LTYPE
  5
27
100
AcDbSymbolTableRecord
100
AcDbLinetypeTableRecord
  2
DASHDOT2
 70
     0
  3
_._._._._._._._._._._._._._._._._._._._._._._._
 72
    65
 73
     4
 40
0.5
 49
0.25
 74
     0
 49
-0.125
 74
     0
 49
0.0
 74
     0
 49
-0.125
 74
     0
  0
LTYPE
  5
28
100
AcDbSymbolTableRecord
100
AcDbLinetypeTableRecord
  2
DASHDOTX2
 70
     0
  3
____  .  ____  .  ____  .  ____  .  ____  .  __
 72
    65
 73
     4
 40
2.0
 49
1.0
 74
     0
 49
-0.5
 74
     0
 49
0.0
 74
     0
 49
-0.5
 74
     0
  0
LTYPE
  5
29
100
AcDbSymbolTableRecord
100
AcDbLinetypeTableRecord
  2
DASHED
 70
     0
  3
__ __ __ __ __ __ __ __ __ __ __ __ __ __ __ __
 72
    65
 73
     2
 40
0.75
 49
0.5
 74
     0
 49
-0.25
 74
     0
  0
LTYPE
  5
2A
100
AcDbSymbolTableRecord
100
AcDbLinetypeTableRecord
  2
DASHED2
 70
     0
  3
_ _ _ _ _ _ _ _ _ _ _ _ _ _ _ _ _ _ _ _ _ _ _ _
 72
    65
 73
     2
 40
0.375
 49
0.25
 74
     0
 49
-0.125
 74
     0
  0
LTYPE
  5
2B
100
AcDbSymbolTableRecord
100
AcDbLinetypeTableRecord
  2
DASHEDX2
 70
     0
  3
____  ____  ____  ____  ____  ____  ____  ____ 
 72
    65
 73
     2
 40
1.5
 49
1.0
 74
     0
 49
-0.5
 74
     0
  0
LTYPE
  5
2C
100
AcDbSymbolTableRecord
100
AcDbLinetypeTableRecord
  2
DIVIDE
 70
     0
  3
____ . . ____ . . ____ . . ____ . . ____ . . __
 72
    65
 73
     6
 40
1.25
 49
0.5
 74
     0
 49
-0.25
 74
     0
 49
0.0
 74
     0
 49
-0.25
 74
     0
 49
0.0
 74
     0
 49
-0.25
 74
     0
  0
LTYPE
  5
2D
100
AcDbSymbolTableRecord
100
AcDbLinetypeTableRecord
  2
DIVIDE2
 70
     0
  3
__..__..__..__..__..__..__..__..__..__..__..__.
 72
    65
 73
     6
 40
0.625
 49
0.25
 74
     0
 49
-0.125
 74
     0
 49
0.0
 74
     0
 49
-0.125
 74
     0
 49
0.0
 74
     0
 49
-0.125
 74
     0
  0
LTYPE
  5
2E
100
AcDbSymbolTableRecord
100
AcDbLinetypeTableRecord
  2
DIVIDEX2
 70
     0
  3
________  .  .  ________  .  .  ________  .  . 
 72
    65
 73
     6
 40
2.5
 49
1.0
 74
     0
 49
-0.5
 74
     0
 49
0.0
 74
     0
 49
-0.5
 74
     0
 49
0.0
 74
     0
 49
-0.5
 74
     0
  0
LTYPE
  5
2F
100
AcDbSymbolTableRecord
100
AcDbLinetypeTableRecord
  2
DOT
 70
     0
  3
. . . . . . . . . . . . . . . . . . . . . . . .
 72
    65
 73
     2
 40
0.25
 49
0.0
 74
     0
 49
-0.25
 74
     0
  0
LTYPE
  5
30
100
AcDbSymbolTableRecord
100
AcDbLinetypeTableRecord
  2
DOT2
 70
     0
  3
...............................................
 72
    65
 73
     2
 40
0.125
 49
0.0
 74
     0
 49
-0.125
 74
     0
  0
LTYPE
  5
31
100
AcDbSymbolTableRecord
100
AcDbLinetypeTableRecord
  2
DOTX2
 70
     0
  3
.  .  .  .  .  .  .  .  .  .  .  .  .  .  .  . 
 72
    65
 73
     2
 40
0.5
 49
0.0
 74
     0
 49
-0.5
 74
     0
  0
LTYPE
  5
32
100
AcDbSymbolTableRecord
100
AcDbLinetypeTableRecord
  2
HIDDEN
 70
     0
  3
__ __ __ __ __ __ __ __ __ __ __ __ __ __ __ __
 72
    65
 73
     2
 40
0.375
 49
0.25
 74
     0
 49
-0.125
 74
     0
  0
LTYPE
  5
33
100
AcDbSymbolTableRecord
100
AcDbLinetypeTableRecord
  2
HIDDEN2
 70
     0
  3
_ _ _ _ _ _ _ _ _ _ _ _ _ _ _ _ _ _ _ _ _ _ _ _
 72
    65
 73
     2
 40
0.1875
 49
0.125
 74
     0
 49
-0.0625
 74
     0
  0
LTYPE
  5
34
100
AcDbSymbolTableRecord
100
AcDbLinetypeTableRecord
  2
HIDDENX2
 70
     0
  3
____ ____ ____ ____ ____ ____ ____ ____ ____ __
 72
    65
 73
     2
 40
0.75
 49
0.5
 74
     0
 49
-0.25
 74
     0
  0
LTYPE
  5
35
100
AcDbSymbolTableRecord
100
AcDbLinetypeTableRecord
  2
PHANTOM
 70
     0
  3
______  __  __  ______  __  __  ______  __  __ 
 72
    65
 73
     6
 40
2.5
 49
1.25
 74
     0
 49
-0.25
 74
     0
 49
0.25
 74
     0
 49
-0.25
 74
     0
 49
0.25
 74
     0
 49
-0.25
 74
     0
  0
LTYPE
  5
36
100
AcDbSymbolTableRecord
100
AcDbLinetypeTableRecord
  2
PHANTOM2
 70
     0
  3
___ _ _ ___ _ _ ___ _ _ ___ _ _ ___ _ _ ___ _ _
 72
    65
 73
     6
 40
1.25
 49
0.625
 74
     0
 49
-0.125
 74
     0
 49
0.125
 74
     0
 49
-0.125
 74
     0
 49
0.125
 74
     0
 49
-0.125
 74
     0
  0
LTYPE
  5
37
100
AcDbSymbolTableRecord
100
AcDbLinetypeTableRecord
  2
PHANTOMX2
 70
     0
  3
____________    ____    ____    ____________   
 72
    65
 73
     6
 40
5.0
 49
2.5
 74
     0
 49
-0.5
 74
     0
 49
0.5
 74
     0
 49
-0.5
 74
     0
 49
0.5
 74
     0
 49
-0.5
 74
     0
  0
ENDTAB
   0
TABLE
   2
LAYER
   5
2
 100
AcDbSymbolTable
  70
2
   0
LAYER
   5
E
 100
AcDbSymbolTableRecord
 100
AcDbLayerTableRecord
   2
0
  70
0
  62
7
   6
CONTINUOUS
 390
30
   0
LAYER
   5
39
 100
AcDbSymbolTableRecord
 100
AcDbLayerTableRecord
   2
LEVEL001
  70
0
  62
7
   6
CONTINUOUS
 390
30
   0
ENDTAB
  0
TABLE
  2
STYLE
  5
3
100
AcDbSymbolTable
  70
7
  0
STYLE
  5
F
100
AcDbSymbolTableRecord
100
AcDbTextStyleTableRecord
  2
STANDARD
 70
     0
 40
0.0
 41
1.0
 50
0.0
 71
     0
 42
0.2
  3
TXT
  4
BIGFONT
  0
STYLE
  5
38
100
AcDbSymbolTableRecord
100
AcDbTextStyleTableRecord
  2
STANDARD1
 70
     4
 40
0.0
 41
1.0
 50
0.0
 71
     0
 42
0.2
  3
TXT
  4
BIGFONT
   0
STYLE
   5
3A
 100
AcDbSymbolTableRecord
 100
AcDbTextStyleTableRecord
   2
GMM001
  70
0
  40
0.0
  41
 1.0000000000000
  50
0.0
  71
     0
  42
1.0
   3

   4

1001
ACAD
1000
ＭＳ ゴシック
1071
32817
   0
STYLE
   5
3B
 100
AcDbSymbolTableRecord
 100
AcDbTextStyleTableRecord
   2
GMM002
  70
0
  40
0.0
  41
 1.0000000000000
  50
0.0
  71
     0
  42
1.0
   3
txt.shx
   4
bigfont.shx
   0
STYLE
   5
3C
 100
AcDbSymbolTableRecord
 100
AcDbTextStyleTableRecord
   2
GMM003
  70
0
  40
0.0
  41
 0.75000000000000
  50
0.0
  71
     0
  42
1.0
   3
txt.shx
   4
bigfont.shx
   0
STYLE
   5
3D
 100
AcDbSymbolTableRecord
 100
AcDbTextStyleTableRecord
   2
GMM004
  70
0
  40
0.0
  41
 0.66666666666667
  50
0.0
  71
     0
  42
1.0
   3

   4

1001
ACAD
1000
ＭＳ ゴシック
1071
32817
   0
STYLE
   5
3E
 100
AcDbSymbolTableRecord
 100
AcDbTextStyleTableRecord
   2
GMM005
  70
0
  40
0.0
  41
 1.5000000000000
  50
0.0
  71
     0
  42
1.0
   3

   4

1001
ACAD
1000
ＭＳ ゴシック
1071
32817
   0
ENDTAB
  0
TABLE
  2
VIEW
  5
6
100
AcDbSymbolTable
 70
     0
  0
ENDTAB
  0
TABLE
  2
UCS
  5
7
100
AcDbSymbolTable
 70
     0
  0
ENDTAB
  0
TABLE
  2
APPID
  5
9
100
AcDbSymbolTable
 70
     1
  0
APPID
  5
10
100
AcDbSymbolTableRecord
100
AcDbRegAppTableRecord
  2
ACAD
 70
     0
  0
ENDTAB
   0
TABLE
   2
DIMSTYLE
   5
A
 100
AcDbSymbolTable
  70
7
 100
AcDbDimStyleTable
  0
DIMSTYLE
105
1D
100
AcDbSymbolTableRecord
100
AcDbDimStyleTableRecord
  2
STANDARD
 70
     0
  3

  4

  5

  6

  7

 40
1.0
 41
0.18
 42
0.0625
 43
0.38
 44
0.18
 45
0.0
 46
0.0
 47
0.0
 48
0.0
140
0.18
141
0.09
142
0.0
143
25.4
144
1.0
145
0.0
146
1.0
147
0.09
 71
     0
 72
     0
 73
     1
 74
     1
 75
     0
 76
     0
 77
     0
 78
     0
170
     0
171
     2
172
     0
173
     0
174
     0
175
     0
176
     0
177
     0
178
     0
270
     2
271
     4
272
     4
273
     2
274
     2
340
F
275
     0
280
     0
281
     0
282
     0
283
     1
284
     0
285
     0
286
     0
287
     3
288
     0
   0
DIMSTYLE
 105
3F
 100
AcDbSymbolTableRecord
 100
AcDbDimStyleTableRecord
   2
GMM001
  70
0
   3

   4

   5

   6
_OPEN
   7
_OPEN
  40
 1.0000000000000
  41
 30.000000000000
  42
 30.000000000000
  43
 160.00000000000
  44
 30.000000000000
  45
0.0
  46
0.0
  47
0.0
  48
0.0
 140
 66.000000000000
 141
 20.000000000000
 142
0.0
 143
 0.39400000000000E-1
 144
 1.0000000000000
 145
0.0
 146
 0.75757575757576
 147
0.0
  71
0
  72
0
  73
0
  74
0
  75
0
  76
0
  77
0
  78
8
 170
0
 171
2
 172
1
 173
1
 174
0
 175
0
 176
1
 177
1
 178
7
 270
2
 271
1
 272
0
 273
2
 274
2
 340
3B
 275
0
 280
0
 281
0
 282
0
 283
1
 284
0
 285
0
 286
0
 287
3
 288
1
   0
DIMSTYLE
 105
40
 100
AcDbSymbolTableRecord
 100
AcDbDimStyleTableRecord
   2
GMM002
  70
0
   3

   4

   5

   6
_OPEN
   7
_OPEN
  40
 1.0000000000000
  41
 42.000000000000
  42
 30.000000000000
  43
 160.00000000000
  44
 30.000000000000
  45
0.0
  46
0.0
  47
0.0
  48
0.0
 140
 60.000000000000
 141
 20.000000000000
 142
0.0
 143
 0.39400000000000E-1
 144
 1.0000000000000
 145
0.0
 146
 0.83333333333333
 147
0.0
  71
0
  72
0
  73
0
  74
0
  75
0
  76
0
  77
0
  78
8
 170
0
 171
2
 172
1
 173
1
 174
0
 175
0
 176
1
 177
1
 178
7
 270
2
 271
1
 272
0
 273
2
 274
2
 340
3B
 275
0
 280
0
 281
0
 282
0
 283
1
 284
0
 285
0
 286
0
 287
3
 288
1
   0
DIMSTYLE
 105
41
 100
AcDbSymbolTableRecord
 100
AcDbDimStyleTableRecord
   2
GMM003
  70
0
   3

   4

   5

   6
_OPEN
   7
_OPEN
  40
 1.0000000000000
  41
 42.000000000000
  42
 30.000000000000
  43
 160.00000000000
  44
 30.000000000000
  45
0.0
  46
0.0
  47
0.0
  48
0.0
 140
 60.000000000000
 141
 20.000000000000
 142
0.0
 143
 0.39400000000000E-1
 144
 1.0000000000000
 145
0.0
 146
 0.83333333333333
 147
 25.714285714286
  71
0
  72
0
  73
0
  74
0
  75
0
  76
0
  77
3
  78
8
 170
0
 171
2
 172
1
 173
1
 174
0
 175
0
 176
6
 177
6
 178
1
 270
2
 271
6
 272
0
 273
2
 274
2
 340
3B
 275
1
 280
0
 281
0
 282
0
 283
1
 284
0
 285
0
 286
0
 287
3
 288
0
   0
DIMSTYLE
 105
42
 100
AcDbSymbolTableRecord
 100
AcDbDimStyleTableRecord
   2
GMM004
  70
0
   3

   4

   5

   6
_OPEN
   7
_OPEN
  40
 1.0000000000000
  41
 42.000000000000
  42
 30.000000000000
  43
 160.00000000000
  44
 30.000000000000
  45
0.0
  46
0.0
  47
0.0
  48
0.0
 140
 60.000000000000
 141
 20.000000000000
 142
0.0
 143
 0.39400000000000E-1
 144
 1.0000000000000
 145
0.0
 146
 0.83333333333333
 147
 25.714285714286
  71
0
  72
0
  73
0
  74
0
  75
0
  76
0
  77
3
  78
8
 170
0
 171
2
 172
1
 173
1
 174
0
 175
0
 176
6
 177
6
 178
1
 270
2
 271
6
 272
0
 273
2
 274
2
 340
3B
 275
1
 280
0
 281
0
 282
0
 283
1
 284
0
 285
0
 286
0
 287
3
 288
0
   0
DIMSTYLE
 105
43
 100
AcDbSymbolTableRecord
 100
AcDbDimStyleTableRecord
   2
GMM005
  70
0
   3
□<>
   4

   5

   6
_OPEN
   7
_OPEN
  40
 1.0000000000000
  41
 42.000000000000
  42
 30.000000000000
  43
 160.00000000000
  44
 30.000000000000
  45
0.0
  46
0.0
  47
0.0
  48
0.0
 140
 60.000000000000
 141
 20.000000000000
 142
0.0
 143
 0.39400000000000E-1
 144
 1.0000000000000
 145
0.0
 146
 0.83333333333333
 147
 25.714285714286
  71
0
  72
0
  73
0
  74
0
  75
0
  76
0
  77
3
  78
8
 170
0
 171
2
 172
1
 173
1
 174
0
 175
0
 176
6
 177
6
 178
1
 270
2
 271
6
 272
0
 273
2
 274
2
 340
3B
 275
1
 280
0
 281
0
 282
0
 283
1
 284
0
 285
0
 286
0
 287
3
 288
0
   0
ENDTAB
  0
TABLE
  2
BLOCK_RECORD
  5
1
100
AcDbSymbolTable
 70
     0
  0
BLOCK_RECORD
  5
18
100
AcDbSymbolTableRecord
100
AcDbBlockTableRecord
  2
*MODEL_SPACE
  0
BLOCK_RECORD
  5
15
100
AcDbSymbolTableRecord
100
AcDbBlockTableRecord
  2
*PAPER_SPACE
   0
BLOCK_RECORD
   5
44
 100
AcDbSymbolTableRecord
 100
AcDbBlockTableRecord
   2
*D15
   0
BLOCK_RECORD
   5
45
 100
AcDbSymbolTableRecord
 100
AcDbBlockTableRecord
   2
*D16
   0
BLOCK_RECORD
   5
46
 100
AcDbSymbolTableRecord
 100
AcDbBlockTableRecord
   2
*D17
   0
BLOCK_RECORD
   5
47
 100
AcDbSymbolTableRecord
 100
AcDbBlockTableRecord
   2
*D18
   0
BLOCK_RECORD
   5
48
 100
AcDbSymbolTableRecord
 100
AcDbBlockTableRecord
   2
BLOCK001
   0
BLOCK_RECORD
   5
49
 100
AcDbSymbolTableRecord
 100
AcDbBlockTableRecord
   2
BLOCK002
   0
BLOCK_RECORD
   5
4A
 100
AcDbSymbolTableRecord
 100
AcDbBlockTableRecord
   2
*D19
   0
BLOCK_RECORD
   5
4B
 100
AcDbSymbolTableRecord
 100
AcDbBlockTableRecord
   2
*D20
   0
BLOCK_RECORD
   5
4C
 100
AcDbSymbolTableRecord
 100
AcDbBlockTableRecord
   2
*D21
   0
BLOCK_RECORD
   5
4D
 100
AcDbSymbolTableRecord
 100
AcDbBlockTableRecord
   2
*D22
   0
BLOCK_RECORD
   5
4E
 100
AcDbSymbolTableRecord
 100
AcDbBlockTableRecord
   2
*D23
   0
BLOCK_RECORD
   5
4F
 100
AcDbSymbolTableRecord
 100
AcDbBlockTableRecord
   2
*D24
   0
BLOCK_RECORD
   5
50
 100
AcDbSymbolTableRecord
 100
AcDbBlockTableRecord
   2
_ARCHTICK
   0
BLOCK_RECORD
   5
51
 100
AcDbSymbolTableRecord
 100
AcDbBlockTableRecord
   2
_BOXBLANK
   0
BLOCK_RECORD
   5
52
 100
AcDbSymbolTableRecord
 100
AcDbBlockTableRecord
   2
_BOXFILLED
   0
BLOCK_RECORD
   5
53
 100
AcDbSymbolTableRecord
 100
AcDbBlockTableRecord
   2
_CLOSED
   0
BLOCK_RECORD
   5
54
 100
AcDbSymbolTableRecord
 100
AcDbBlockTableRecord
   2
_CLOSEDBLANK
   0
BLOCK_RECORD
   5
55
 100
AcDbSymbolTableRecord
 100
AcDbBlockTableRecord
   2
_DATUMBLANK
   0
BLOCK_RECORD
   5
56
 100
AcDbSymbolTableRecord
 100
AcDbBlockTableRecord
   2
_DATUMFILLED
   0
BLOCK_RECORD
   5
57
 100
AcDbSymbolTableRecord
 100
AcDbBlockTableRecord
   2
_DOT
   0
BLOCK_RECORD
   5
58
 100
AcDbSymbolTableRecord
 100
AcDbBlockTableRecord
   2
_DOTBLANK
   0
BLOCK_RECORD
   5
59
 100
AcDbSymbolTableRecord
 100
AcDbBlockTableRecord
   2
_DOTSMALL
   0
BLOCK_RECORD
   5
5A
 100
AcDbSymbolTableRecord
 100
AcDbBlockTableRecord
   2
_INTEGRAL
   0
BLOCK_RECORD
   5
5B
 100
AcDbSymbolTableRecord
 100
AcDbBlockTableRecord
   2
_NONE
   0
BLOCK_RECORD
   5
5C
 100
AcDbSymbolTableRecord
 100
AcDbBlockTableRecord
   2
_OBLIQUE
   0
BLOCK_RECORD
   5
5D
 100
AcDbSymbolTableRecord
 100
AcDbBlockTableRecord
   2
_OPEN
   0
BLOCK_RECORD
   5
5E
 100
AcDbSymbolTableRecord
 100
AcDbBlockTableRecord
   2
_OPEN30
   0
BLOCK_RECORD
   5
5F
 100
AcDbSymbolTableRecord
 100
AcDbBlockTableRecord
   2
_OPEN90
   0
BLOCK_RECORD
   5
60
 100
AcDbSymbolTableRecord
 100
AcDbBlockTableRecord
   2
_ORIGIN
   0
ENDTAB
   0
ENDSEC
  0
SECTION
  2
BLOCKS
  0
BLOCK
  5
19
100
AcDbEntity
  8
0
100
AcDbBlockBegin
  2
*MODEL_SPACE
 70
     0
 10
0.0
 20
0.0
 30
0.0
  3
*MODEL_SPACE
  1

  0
ENDBLK
  5
1A
100
AcDbEntity
  8
0
100
AcDbBlockEnd
  0
BLOCK
  5
16
100
AcDbEntity
 67
     1
  8
0
100
AcDbBlockBegin
  2
*PAPER_SPACE
 70
     0
 10
0.0
 20
0.0
 30
0.0
  3
*PAPER_SPACE
  1

  0
ENDBLK
  5
17
100
AcDbEntity
 67
     1
  8
0
100
AcDbBlockEnd
   0
BLOCK
   5
61
 100
AcDbEntity
   8
0
 100
AcDbBlockBegin
   2
_ARCHTICK
  70
0
  10
0.0
  20
0.0
  30
0.0
   3
_ARCHTICK
   0
POLYLINE
   5
62
 100
AcDbEntity
   8
0
 370
-2
   6
BYBLOCK
  62
0
 100
AcDb2dPolyline
  66
1
  10
0.0
  20
0.0
  30
0.0
  70
1
  40
 0.15000000000000
  41
 0.15000000000000
   0
VERTEX
   5
63
 100
AcDbEntity
   8
0
   6
BYBLOCK
  62
0
 100
AcDbVertex
 100
AcDb2dVertex
  10
-0.50000000000000
  20
-0.50000000000000
  30
0.0
  40
 0.15000000000000
  41
 0.15000000000000
   0
VERTEX
   5
64
 100
AcDbEntity
   8
0
   6
BYBLOCK
  62
0
 100
AcDbVertex
 100
AcDb2dVertex
  10
 0.50000000000000
  20
 0.50000000000000
  30
0.0
  40
 0.15000000000000
  41
 0.15000000000000
   0
SEQEND
   5
65
 100
AcDbEntity
   8
0
   6
BYBLOCK
  62
0
   0
ENDBLK
   5
66
 100
AcDbEntity
   8
0
 100
AcDbBlockEnd
   0
BLOCK
   5
67
 100
AcDbEntity
   8
0
 100
AcDbBlockBegin
   2
_OBLIQUE
  70
0
  10
0.0
  20
0.0
  30
0.0
   3
_OBLIQUE
   0
LINE
   5
68
 100
AcDbEntity
   8
0
 370
-2
 100
AcDbLine
   6
BYBLOCK
  62
0
  10
-0.50000000000000
  20
-0.50000000000000
  30
0.0
  11
 0.50000000000000
  21
 0.50000000000000
  31
0.0
   0
ENDBLK
   5
69
 100
AcDbEntity
   8
0
 100
AcDbBlockEnd
   0
BLOCK
   5
6A
 100
AcDbEntity
   8
0
 100
AcDbBlockBegin
   2
_BOXBLANK
  70
0
  10
0.0
  20
0.0
  30
0.0
   3
_BOXBLANK
   0
LINE
   5
6B
 100
AcDbEntity
   8
0
 370
-2
 100
AcDbLine
   6
BYBLOCK
  62
0
  10
-0.50000000000000
  20
-0.50000000000000
  30
0.0
  11
 0.50000000000000
  21
-0.50000000000000
  31
0.0
   0
LINE
   5
6C
 100
AcDbEntity
   8
0
 370
-2
 100
AcDbLine
   6
BYBLOCK
  62
0
  10
 0.50000000000000
  20
-0.50000000000000
  30
0.0
  11
 0.50000000000000
  21
 0.50000000000000
  31
0.0
   0
LINE
   5
6D
 100
AcDbEntity
   8
0
 370
-2
 100
AcDbLine
   6
BYBLOCK
  62
0
  10
 0.50000000000000
  20
 0.50000000000000
  30
0.0
  11
-0.50000000000000
  21
 0.50000000000000
  31
0.0
   0
LINE
   5
6E
 100
AcDbEntity
   8
0
 370
-2
 100
AcDbLine
   6
BYBLOCK
  62
0
  10
-0.50000000000000
  20
 0.50000000000000
  30
0.0
  11
-0.50000000000000
  21
-0.50000000000000
  31
0.0
   0
LINE
   5
6F
 100
AcDbEntity
   8
0
 370
-2
 100
AcDbLine
   6
BYBLOCK
  62
0
  10
-0.50000000000000
  20
0.0
  30
0.0
  11
-1.0000000000000
  21
0.0
  31
0.0
   0
ENDBLK
   5
70
 100
AcDbEntity
   8
0
 100
AcDbBlockEnd
   0
BLOCK
   5
71
 100
AcDbEntity
   8
0
 100
AcDbBlockBegin
   2
_BOXFILLED
  70
0
  10
0.0
  20
0.0
  30
0.0
   3
_BOXFILLED
   0
SOLID
   5
72
 100
AcDbEntity
   8
0
 100
AcDbTrace
   6
BYBLOCK
  62
0
  10
-0.50000000000000
  20
 0.50000000000000
  30
0.0
  11
 0.50000000000000
  21
 0.50000000000000
  31
0.0
  12
-0.50000000000000
  22
-0.50000000000000
  32
0.0
  13
 0.50000000000000
  23
-0.50000000000000
  33
0.0
   0
LINE
   5
73
 100
AcDbEntity
   8
0
 370
-2
 100
AcDbLine
   6
BYBLOCK
  62
0
  10
-0.50000000000000
  20
0.0
  30
0.0
  11
-1.0000000000000
  21
0.0
  31
0.0
   0
ENDBLK
   5
74
 100
AcDbEntity
   8
0
 100
AcDbBlockEnd
   0
BLOCK
   5
75
 100
AcDbEntity
   8
0
 100
AcDbBlockBegin
   2
_CLOSED
  70
0
  10
0.0
  20
0.0
  30
0.0
   3
_CLOSED
   0
LINE
   5
76
 100
AcDbEntity
   8
0
 370
-2
 100
AcDbLine
   6
BYBLOCK
  62
0
  10
-1.0000000000000
  20
 0.16666666666667
  30
0.0
  11
0.0
  21
0.0
  31
0.0
   0
LINE
   5
77
 100
AcDbEntity
   8
0
 370
-2
 100
AcDbLine
   6
BYBLOCK
  62
0
  10
0.0
  20
0.0
  30
0.0
  11
-1.0000000000000
  21
-0.16666666666667
  31
0.0
   0
LINE
   5
78
 100
AcDbEntity
   8
0
 370
-2
 100
AcDbLine
   6
BYBLOCK
  62
0
  10
-1.0000000000000
  20
 0.16666666666667
  30
0.0
  11
-1.0000000000000
  21
-0.16666666666667
  31
0.0
   0
LINE
   5
79
 100
AcDbEntity
   8
0
 370
-2
 100
AcDbLine
   6
BYBLOCK
  62
0
  10
0.0
  20
0.0
  30
0.0
  11
-1.0000000000000
  21
0.0
  31
0.0
   0
ENDBLK
   5
7A
 100
AcDbEntity
   8
0
 100
AcDbBlockEnd
   0
BLOCK
   5
7B
 100
AcDbEntity
   8
0
 100
AcDbBlockBegin
   2
_OPEN
  70
0
  10
0.0
  20
0.0
  30
0.0
   3
_OPEN
   0
LINE
   5
7C
 100
AcDbEntity
   8
0
 370
-2
 100
AcDbLine
   6
BYBLOCK
  62
0
  10
-1.0000000000000
  20
 0.16666666666667
  30
0.0
  11
0.0
  21
0.0
  31
0.0
   0
LINE
   5
7D
 100
AcDbEntity
   8
0
 370
-2
 100
AcDbLine
   6
BYBLOCK
  62
0
  10
0.0
  20
0.0
  30
0.0
  11
-1.0000000000000
  21
-0.16666666666667
  31
0.0
   0
LINE
   5
7E
 100
AcDbEntity
   8
0
 370
-2
 100
AcDbLine
   6
BYBLOCK
  62
0
  10
0.0
  20
0.0
  30
0.0
  11
-1.0000000000000
  21
0.0
  31
0.0
   0
ENDBLK
   5
7F
 100
AcDbEntity
   8
0
 100
AcDbBlockEnd
   0
BLOCK
   5
80
 100
AcDbEntity
   8
0
 100
AcDbBlockBegin
   2
_OPEN30
  70
0
  10
0.0
  20
0.0
  30
0.0
   3
_OPEN30
   0
LINE
   5
81
 100
AcDbEntity
   8
0
 370
-2
 100
AcDbLine
   6
BYBLOCK
  62
0
  10
-1.0000000000000
  20
 0.26794919243110
  30
0.0
  11
0.0
  21
0.0
  31
0.0
   0
LINE
   5
82
 100
AcDbEntity
   8
0
 370
-2
 100
AcDbLine
   6
BYBLOCK
  62
0
  10
0.0
  20
0.0
  30
0.0
  11
-1.0000000000000
  21
-0.26794919243110
  31
0.0
   0
LINE
   5
83
 100
AcDbEntity
   8
0
 370
-2
 100
AcDbLine
   6
BYBLOCK
  62
0
  10
0.0
  20
0.0
  30
0.0
  11
-1.0000000000000
  21
0.0
  31
0.0
   0
ENDBLK
   5
84
 100
AcDbEntity
   8
0
 100
AcDbBlockEnd
   0
BLOCK
   5
85
 100
AcDbEntity
   8
0
 100
AcDbBlockBegin
   2
_OPEN90
  70
0
  10
0.0
  20
0.0
  30
0.0
   3
_OPEN90
   0
LINE
   5
86
 100
AcDbEntity
   8
0
 370
-2
 100
AcDbLine
   6
BYBLOCK
  62
0
  10
-0.50000000000000
  20
 0.50000000000000
  30
0.0
  11
0.0
  21
0.0
  31
0.0
   0
LINE
   5
87
 100
AcDbEntity
   8
0
 370
-2
 100
AcDbLine
   6
BYBLOCK
  62
0
  10
0.0
  20
0.0
  30
0.0
  11
-0.50000000000000
  21
-0.50000000000000
  31
0.0
   0
LINE
   5
88
 100
AcDbEntity
   8
0
 370
-2
 100
AcDbLine
   6
BYBLOCK
  62
0
  10
0.0
  20
0.0
  30
0.0
  11
-1.0000000000000
  21
0.0
  31
0.0
   0
ENDBLK
   5
89
 100
AcDbEntity
   8
0
 100
AcDbBlockEnd
   0
BLOCK
   5
8A
 100
AcDbEntity
   8
0
 100
AcDbBlockBegin
   2
_CLOSEDBLANK
  70
0
  10
0.0
  20
0.0
  30
0.0
   3
_CLOSEDBLANK
   0
LINE
   5
8B
 100
AcDbEntity
   8
0
 370
-2
 100
AcDbLine
   6
BYBLOCK
  62
0
  10
-1.0000000000000
  20
 0.16666666666667
  30
0.0
  11
0.0
  21
0.0
  31
0.0
   0
LINE
   5
8C
 100
AcDbEntity
   8
0
 370
-2
 100
AcDbLine
   6
BYBLOCK
  62
0
  10
0.0
  20
0.0
  30
0.0
  11
-1.0000000000000
  21
-0.16666666666667
  31
0.0
   0
LINE
   5
8D
 100
AcDbEntity
   8
0
 370
-2
 100
AcDbLine
   6
BYBLOCK
  62
0
  10
-1.0000000000000
  20
 0.16666666666667
  30
0.0
  11
-1.0000000000000
  21
-0.16666666666667
  31
0.0
   0
ENDBLK
   5
8E
 100
AcDbEntity
   8
0
 100
AcDbBlockEnd
   0
BLOCK
   5
8F
 100
AcDbEntity
   8
0
 100
AcDbBlockBegin
   2
_DOT
  70
0
  10
0.0
  20
0.0
  30
0.0
   3
_DOT
   0
POLYLINE
   5
90
 100
AcDbEntity
   8
0
 370
-2
   6
BYBLOCK
  62
0
 100
AcDb2dPolyline
  66
1
  10
0.0
  20
0.0
  30
0.0
  70
1
  40
 0.50000000000000
  41
 0.50000000000000
   0
VERTEX
   5
91
 100
AcDbEntity
   8
0
   6
BYBLOCK
  62
0
 100
AcDbVertex
 100
AcDb2dVertex
  10
-0.25000000000000
  20
0.0
  30
0.0
  42
 1.0000000000000
  40
 0.50000000000000
  41
 0.50000000000000
   0
VERTEX
   5
92
 100
AcDbEntity
   8
0
   6
BYBLOCK
  62
0
 100
AcDbVertex
 100
AcDb2dVertex
  10
 0.25000000000000
  20
0.0
  30
0.0
  42
 1.0000000000000
  40
 0.50000000000000
  41
 0.50000000000000
   0
SEQEND
   5
93
 100
AcDbEntity
   8
0
   6
BYBLOCK
  62
0
   0
LINE
   5
94
 100
AcDbEntity
   8
0
 370
-2
 100
AcDbLine
   6
BYBLOCK
  62
0
  10
-0.50000000000000
  20
0.0
  30
0.0
  11
-1.0000000000000
  21
0.0
  31
0.0
   0
ENDBLK
   5
95
 100
AcDbEntity
   8
0
 100
AcDbBlockEnd
   0
BLOCK
   5
96
 100
AcDbEntity
   8
0
 100
AcDbBlockBegin
   2
_DOTSMALL
  70
0
  10
0.0
  20
0.0
  30
0.0
   3
_DOTSMALL
   0
POLYLINE
   5
97
 100
AcDbEntity
   8
0
 370
-2
   6
BYBLOCK
  62
0
 100
AcDb2dPolyline
  66
1
  10
0.0
  20
0.0
  30
0.0
  70
1
  40
 0.50000000000000
  41
 0.50000000000000
   0
VERTEX
   5
98
 100
AcDbEntity
   8
0
   6
BYBLOCK
  62
0
 100
AcDbVertex
 100
AcDb2dVertex
  10
-0.62500000000000E-1
  20
0.0
  30
0.0
  42
 1.0000000000000
  40
 0.50000000000000
  41
 0.50000000000000
   0
VERTEX
   5
99
 100
AcDbEntity
   8
0
   6
BYBLOCK
  62
0
 100
AcDbVertex
 100
AcDb2dVertex
  10
 0.62500000000000E-1
  20
0.0
  30
0.0
  42
 1.0000000000000
  40
 0.50000000000000
  41
 0.50000000000000
   0
SEQEND
   5
9A
 100
AcDbEntity
   8
0
   6
BYBLOCK
  62
0
   0
ENDBLK
   5
9B
 100
AcDbEntity
   8
0
 100
AcDbBlockEnd
   0
BLOCK
   5
9C
 100
AcDbEntity
   8
0
 100
AcDbBlockBegin
   2
_DATUMBLANK
  70
0
  10
0.0
  20
0.0
  30
0.0
   3
_DATUMBLANK
   0
LINE
   5
9D
 100
AcDbEntity
   8
0
 370
-2
 100
AcDbLine
   6
BYBLOCK
  62
0
  10
0.0
  20
 0.57735027000000
  30
0.0
  11
-1.0000000000000
  21
0.0
  31
0.0
   0
LINE
   5
9E
 100
AcDbEntity
   8
0
 370
-2
 100
AcDbLine
   6
BYBLOCK
  62
0
  10
-1.0000000000000
  20
0.0
  30
0.0
  11
0.0
  21
-0.57735027000000
  31
0.0
   0
LINE
   5
9F
 100
AcDbEntity
   8
0
 370
-2
 100
AcDbLine
   6
BYBLOCK
  62
0
  10
0.0
  20
-0.57735027000000
  30
0.0
  11
0.0
  21
 0.57735027000000
  31
0.0
   0
ENDBLK
   5
A0
 100
AcDbEntity
   8
0
 100
AcDbBlockEnd
   0
BLOCK
   5
A1
 100
AcDbEntity
   8
0
 100
AcDbBlockBegin
   2
_DATUMFILLED
  70
0
  10
0.0
  20
0.0
  30
0.0
   3
_DATUMFILLED
   0
SOLID
   5
A2
 100
AcDbEntity
   8
0
 100
AcDbTrace
   6
BYBLOCK
  62
0
  10
0.0
  20
 0.57735027000000
  30
0.0
  11
-1.0000000000000
  21
0.0
  31
0.0
  12
0.0
  22
-0.57735027000000
  32
0.0
  13
0.0
  23
-0.57735027000000
  33
0.0
   0
ENDBLK
   5
A3
 100
AcDbEntity
   8
0
 100
AcDbBlockEnd
   0
BLOCK
   5
A4
 100
AcDbEntity
   8
0
 100
AcDbBlockBegin
   2
_ORIGIN
  70
0
  10
0.0
  20
0.0
  30
0.0
   3
_ORIGIN
   0
CIRCLE
   5
A5
 100
AcDbEntity
   8
0
 370
-2
 100
AcDbCircle
   6
BYBLOCK
  62
0
  10
0.0
  20
0.0
  30
0.0
  40
 0.50000000000000
   0
LINE
   5
A6
 100
AcDbEntity
   8
0
 370
-2
 100
AcDbLine
   6
BYBLOCK
  62
0
  10
0.0
  20
0.0
  30
0.0
  11
-1.0000000000000
  21
0.0
  31
0.0
   0
ENDBLK
   5
A7
 100
AcDbEntity
   8
0
 100
AcDbBlockEnd
   0
BLOCK
   5
A8
 100
AcDbEntity
   8
0
 100
AcDbBlockBegin
   2
_NONE
  70
0
  10
0.0
  20
0.0
  30
0.0
   3
_NONE
   0
CIRCLE
   5
A9
 100
AcDbEntity
   8
0
 370
-2
 100
AcDbCircle
   6
BYBLOCK
  62
0
  10
0.0
  20
0.0
  30
0.0
  40
 0.25000000000000
   0
ENDBLK
   5
AA
 100
AcDbEntity
   8
0
 100
AcDbBlockEnd
   0
BLOCK
   5
AB
 100
AcDbEntity
   8
0
 100
AcDbBlockBegin
   2
_DOTBLANK
  70
0
  10
0.0
  20
0.0
  30
0.0
   3
_DOTBLANK
   0
CIRCLE
   5
AC
 100
AcDbEntity
   8
0
 370
-2
 100
AcDbCircle
   6
BYBLOCK
  62
0
  10
0.0
  20
0.0
  30
0.0
  40
 0.50000000000000
   0
LINE
   5
AD
 100
AcDbEntity
   8
0
 370
-2
 100
AcDbLine
   6
BYBLOCK
  62
0
  10
-0.50000000000000
  20
0.0
  30
0.0
  11
-1.0000000000000
  21
0.0
  31
0.0
   0
ENDBLK
   5
AE
 100
AcDbEntity
   8
0
 100
AcDbBlockEnd
   0
BLOCK
   5
AF
 100
AcDbEntity
   8
0
 100
AcDbBlockBegin
   2
_INTEGRAL
  70
0
  10
0.0
  20
0.0
  30
0.0
   3
_INTEGRAL
   0
ARC
   5
B0
 100
AcDbEntity
   8
0
 370
-2
   6
BYBLOCK
  62
0
 100
AcDbCircle
  10
 0.44488800000000
  20
-0.91335000000000E-1
  30
0.0
  40
 0.45416700000000
 100
AcDbArc
  50
 102.00000000000
  51
 168.00000000000
   0
ARC
   5
B1
 100
AcDbEntity
   8
0
 370
-2
   6
BYBLOCK
  62
0
 100
AcDbCircle
  10
-0.44488800000000
  20
 0.91335000000000E-1
  30
0.0
  40
 0.45416700000000
 100
AcDbArc
  50
 282.00000000000
  51
 348.00000000000
   0
ENDBLK
   5
B2
 100
AcDbEntity
   8
0
 100
AcDbBlockEnd
   0
BLOCK
   5
B3
 100
AcDbEntity
   8
0
 100
AcDbBlockBegin
   2
*D15
  70
65
  10
0.0
  20
0.0
  30
0.0
   3
*D15
   0
LINE
   5
B4
 100
AcDbEntity
   8
0
 370
13
 100
AcDbLine
   6
CONTINUOUS
  62
6
  10
 985.03983920500
  20
 1950.4607460432
  30
0.0
  11
 735.03983920500
  21
 1950.4607460432
  31
0.0
   0
LINE
   5
B5
 100
AcDbEntity
   8
0
 370
13
 100
AcDbLine
   6
CONTINUOUS
  62
6
  10
 1235.0398392050
  20
 1050.4607460432
  30
0.0
  11
 735.03983920500
  21
 1050.4607460432
  31
0.0
   0
LINE
   5
B6
 100
AcDbEntity
   8
0
 370
13
 100
AcDbLine
   6
CONTINUOUS
  62
6
  10
 765.03983920500
  20
 1950.4607460432
  30
0.0
  11
 765.03983920500
  21
 1500.4607460432
  31
0.0
   0
LINE
   5
B7
 100
AcDbEntity
   8
0
 370
13
 100
AcDbLine
   6
CONTINUOUS
  62
6
  10
 765.03983920500
  20
 1050.4607460432
  30
0.0
  11
 765.03983920500
  21
 1500.4607460432
  31
0.0
   0
INSERT
   5
B8
 100
AcDbEntity
   8
0
   6
CONTINUOUS
  62
6
 100
AcDbBlockReference
   2
_OPEN
  10
 765.03983920500
  20
 1950.4607460432
  30
0.0
  41
 42.000000000000
  42
 42.000000000000
  43
 42.000000000000
  50
 90.000000000000
   0
INSERT
   5
B9
 100
AcDbEntity
   8
0
   6
CONTINUOUS
  62
6
 100
AcDbBlockReference
   2
_OPEN
  10
 765.03983920500
  20
 1050.4607460432
  30
0.0
  41
 42.000000000000
  42
 42.000000000000
  43
 42.000000000000
  50
 270.00000000000
   0
MTEXT
   5
BA
 100
AcDbEntity
   8
0
 370
13
  62
1
 100
AcDbMText
  10
 739.32555349072
  20
 1500.4607460432
  30
0.0
  40
 60.000000000000
  41
0.0
  71
8
  72
1
   1
\A1;900
   7
GMM002
  11
0.0
  21
 1.0000000000000
  31
0.0
   0
ENDBLK
   5
BB
 100
AcDbEntity
   8
0
 100
AcDbBlockEnd
   0
BLOCK
   5
BC
 100
AcDbEntity
   8
0
 100
AcDbBlockBegin
   2
*D16
  70
65
  10
0.0
  20
0.0
  30
0.0
   3
*D16
   0
LINE
   5
BD
 100
AcDbEntity
   8
0
 370
13
 100
AcDbLine
   6
CONTINUOUS
  62
6
  10
 1235.0398392050
  20
 1050.4607460432
  30
0.0
  11
 735.03983920500
  21
 1050.4607460432
  31
0.0
   0
LINE
   5
BE
 100
AcDbEntity
   8
0
 370
13
 100
AcDbLine
   6
CONTINUOUS
  62
6
  10
 1235.0398392050
  20
 950.46074604320
  30
0.0
  11
 735.03983920500
  21
 950.46074604320
  31
0.0
   0
LINE
   5
BF
 100
AcDbEntity
   8
0
 370
13
 100
AcDbLine
   6
CONTINUOUS
  62
6
  10
 765.03983920500
  20
 1050.4607460432
  30
0.0
  11
 765.03983920500
  21
 1000.4607460432
  31
0.0
   0
LINE
   5
C0
 100
AcDbEntity
   8
0
 370
13
 100
AcDbLine
   6
CONTINUOUS
  62
6
  10
 765.03983920500
  20
 950.46074604320
  30
0.0
  11
 765.03983920500
  21
 1000.4607460432
  31
0.0
   0
INSERT
   5
C1
 100
AcDbEntity
   8
0
   6
CONTINUOUS
  62
6
 100
AcDbBlockReference
   2
_OPEN
  10
 765.03983920500
  20
 1050.4607460432
  30
0.0
  41
 42.000000000000
  42
 42.000000000000
  43
 42.000000000000
  50
 90.000000000000
   0
INSERT
   5
C2
 100
AcDbEntity
   8
0
   6
CONTINUOUS
  62
6
 100
AcDbBlockReference
   2
_OPEN
  10
 765.03983920500
  20
 950.46074604320
  30
0.0
  41
 42.000000000000
  42
 42.000000000000
  43
 42.000000000000
  50
 270.00000000000
   0
MTEXT
   5
C3
 100
AcDbEntity
   8
0
 370
13
  62
1
 100
AcDbMText
  10
 739.32555349072
  20
 1000.4607460432
  30
0.0
  40
 60.000000000000
  41
0.0
  71
8
  72
1
   1
\A1;100
   7
GMM002
  11
0.0
  21
 1.0000000000000
  31
0.0
   0
ENDBLK
   5
C4
 100
AcDbEntity
   8
0
 100
AcDbBlockEnd
   0
BLOCK
   5
C5
 100
AcDbEntity
   8
0
 100
AcDbBlockBegin
   2
*D17
  70
65
  10
0.0
  20
0.0
  30
0.0
   3
*D17
   0
LINE
   5
C6
 100
AcDbEntity
   8
0
 370
13
 100
AcDbLine
   6
CONTINUOUS
  62
6
  10
 2865.0398392050
  20
 1880.4607460432
  30
0.0
  11
 2865.0398392050
  21
 2780.4607460432
  31
0.0
   0
LINE
   5
C7
 100
AcDbEntity
   8
0
 370
13
 100
AcDbLine
   6
CONTINUOUS
  62
6
  10
 2865.0398392050
  20
 2750.4607460432
  30
0.0
  11
 3040.0398392050
  21
 2750.4607460432
  31
0.0
   0
LINE
   5
C8
 100
AcDbEntity
   8
0
 370
13
 100
AcDbLine
   6
CONTINUOUS
  62
6
  10
 3215.0398392050
  20
 2750.4607460432
  30
0.0
  11
 3040.0398392050
  21
 2750.4607460432
  31
0.0
   0
INSERT
   5
C9
 100
AcDbEntity
   8
0
   6
CONTINUOUS
  62
6
 100
AcDbBlockReference
   2
_OPEN
  10
 2865.0398392050
  20
 2750.4607460432
  30
0.0
  41
 42.000000000000
  42
 42.000000000000
  43
 42.000000000000
  50
 180.00000000000
   0
INSERT
   5
CA
 100
AcDbEntity
   8
0
   6
CONTINUOUS
  62
6
 100
AcDbBlockReference
   2
_OPEN
  10
 3215.0398392050
  20
 2750.4607460432
  30
0.0
  41
 42.000000000000
  42
 42.000000000000
  43
 42.000000000000
  50
0.0
   0
MTEXT
   5
CB
 100
AcDbEntity
   8
0
 370
13
  62
1
 100
AcDbMText
  10
 3040.0398392050
  20
 2776.1750317575
  30
0.0
  40
 60.000000000000
  41
0.0
  71
8
  72
1
   1
\A1;350
   7
GMM002
   0
ENDBLK
   5
CC
 100
AcDbEntity
   8
0
 100
AcDbBlockEnd
   0
BLOCK
   5
CD
 100
AcDbEntity
   8
0
 100
AcDbBlockBegin
   2
*D18
  70
65
  10
0.0
  20
0.0
  30
0.0
   3
*D18
   0
LINE
   5
CE
 100
AcDbEntity
   8
0
 370
13
 100
AcDbLine
   6
CONTINUOUS
  62
6
  10
 852.53983920500
  20
 4450.4607460432
  30
0.0
  11
 735.03983920500
  21
 4450.4607460432
  31
0.0
   0
LINE
   5
CF
 100
AcDbEntity
   8
0
 370
13
 100
AcDbLine
   6
CONTINUOUS
  62
6
  10
 985.03983920500
  20
 1950.4607460432
  30
0.0
  11
 735.03983920500
  21
 1950.4607460432
  31
0.0
   0
LINE
   5
D0
 100
AcDbEntity
   8
0
 370
13
 100
AcDbLine
   6
CONTINUOUS
  62
6
  10
 765.03983920500
  20
 4450.4607460432
  30
0.0
  11
 765.03983920500
  21
 3200.4607460432
  31
0.0
   0
LINE
   5
D1
 100
AcDbEntity
   8
0
 370
13
 100
AcDbLine
   6
CONTINUOUS
  62
6
  10
 765.03983920500
  20
 1950.4607460432
  30
0.0
  11
 765.03983920500
  21
 3200.4607460432
  31
0.0
   0
INSERT
   5
D2
 100
AcDbEntity
   8
0
   6
CONTINUOUS
  62
6
 100
AcDbBlockReference
   2
_OPEN
  10
 765.03983920500
  20
 4450.4607460432
  30
0.0
  41
 42.000000000000
  42
 42.000000000000
  43
 42.000000000000
  50
 90.000000000000
   0
INSERT
   5
D3
 100
AcDbEntity
   8
0
   6
CONTINUOUS
  62
6
 100
AcDbBlockReference
   2
_OPEN
  10
 765.03983920500
  20
 1950.4607460432
  30
0.0
  41
 42.000000000000
  42
 42.000000000000
  43
 42.000000000000
  50
 270.00000000000
   0
MTEXT
   5
D4
 100
AcDbEntity
   8
0
 370
13
  62
1
 100
AcDbMText
  10
 739.32555349072
  20
 3200.4607460432
  30
0.0
  40
 60.000000000000
  41
0.0
  71
8
  72
1
   1
\A1;2500(標準設置高さ)
   7
GMM002
  11
0.0
  21
 1.0000000000000
  31
0.0
   0
ENDBLK
   5
D5
 100
AcDbEntity
   8
0
 100
AcDbBlockEnd
   0
BLOCK
   5
D6
 100
AcDbEntity
   8
0
 100
AcDbBlockBegin
   2
BLOCK001
  70
64
  10
0.0
  20
0.0
  30
0.0
   3
BLOCK001
   0
ARC
   5
D7
 100
AcDbEntity
   8
LEVEL001
 370
13
   6
CONTINUOUS
  62
7
 100
AcDbCircle
  10
 1585.0395320939
  20
 4330.4607460432
  30
0.0
  40
 20.000000000000
 100
AcDbArc
  50
0.0
  51
 90.000000000000
   0
LINE
   5
D8
 100
AcDbEntity
   8
LEVEL001
 370
13
 100
AcDbLine
   6
CONTINUOUS
  62
7
  10
 1585.0395320939
  20
 4350.4607460432
  30
0.0
  11
 1445.0421479336
  21
 4350.4607460432
  31
0.0
   0
LINE
   5
D9
 100
AcDbEntity
   8
LEVEL001
 370
13
 100
AcDbLine
   6
CONTINUOUS
  62
7
  10
 1605.0395320939
  20
 3770.4599612976
  30
0.0
  11
 1605.0395320939
  21
 4330.4607460432
  31
0.0
   0
ARC
   5
DA
 100
AcDbEntity
   8
LEVEL001
 370
13
   6
CONTINUOUS
  62
7
 100
AcDbCircle
  10
 1445.0421479336
  20
 4330.4607460432
  30
0.0
  40
 20.000000000000
 100
AcDbArc
  50
 90.000000000000
  51
 180.00000000000
   0
LINE
   5
DB
 100
AcDbEntity
   8
LEVEL001
 370
13
 100
AcDbLine
   6
CONTINUOUS
  62
7
  10
 1425.0421479336
  20
 4330.4607460432
  30
0.0
  11
 1425.0421479336
  21
 3770.4599612976
  31
0.0
   0
ARC
   5
DC
 100
AcDbEntity
   8
LEVEL001
 370
13
   6
CONTINUOUS
  62
7
 100
AcDbCircle
  10
 1445.0421479336
  20
 3770.4599612976
  30
0.0
  40
 20.000000000000
 100
AcDbArc
  50
 180.00000000000
  51
 270.00000000000
   0
LINE
   5
DD
 100
AcDbEntity
   8
LEVEL001
 370
13
 100
AcDbLine
   6
CONTINUOUS
  62
7
  10
 1445.0421479336
  20
 3750.4599612976
  30
0.0
  11
 1585.0395320939
  21
 3750.4599612976
  31
0.0
   0
ARC
   5
DE
 100
AcDbEntity
   8
LEVEL001
 370
13
   6
CONTINUOUS
  62
7
 100
AcDbCircle
  10
 1585.0395320939
  20
 3770.4599612976
  30
0.0
  40
 20.000000000000
 100
AcDbArc
  50
 270.00000000000
  51
0.0
   0
ENDBLK
   5
DF
 100
AcDbEntity
   8
0
 100
AcDbBlockEnd
   0
BLOCK
   5
E0
 100
AcDbEntity
   8
0
 100
AcDbBlockBegin
   2
BLOCK002
  70
64
  10
0.0
  20
0.0
  30
0.0
   3
BLOCK002
   0
LINE
   5
E1
 100
AcDbEntity
   8
LEVEL001
 370
13
 100
AcDbLine
   6
CONTINUOUS
  62
5
  10
 1515.0398391937
  20
 4300.4633433608
  30
0.0
  11
 1460.0398408328
  21
 4230.4633454470
  31
0.0
   0
LINE
   5
E2
 100
AcDbEntity
   8
LEVEL001
 370
13
 100
AcDbLine
   6
CONTINUOUS
  62
5
  10
 1460.0398408328
  20
 4230.4633454470
  30
0.0
  11
 1490.0398399387
  21
 4230.4633454470
  31
0.0
   0
LINE
   5
E3
 100
AcDbEntity
   8
LEVEL001
 370
13
 100
AcDbLine
   6
CONTINUOUS
  62
5
  10
 1490.0398399387
  20
 4230.4633454470
  30
0.0
  11
 1490.0398399387
  21
 4200.4633463410
  31
0.0
   0
LINE
   5
E4
 100
AcDbEntity
   8
LEVEL001
 370
13
 100
AcDbLine
   6
CONTINUOUS
  62
5
  10
 1490.0398399387
  20
 4200.4633463410
  30
0.0
  11
 1540.0398384486
  21
 4200.4633463410
  31
0.0
   0
LINE
   5
E5
 100
AcDbEntity
   8
LEVEL001
 370
13
 100
AcDbLine
   6
CONTINUOUS
  62
5
  10
 1540.0398384486
  20
 4200.4633463410
  30
0.0
  11
 1540.0398384486
  21
 4230.4633454470
  31
0.0
   0
LINE
   5
E6
 100
AcDbEntity
   8
LEVEL001
 370
13
 100
AcDbLine
   6
CONTINUOUS
  62
5
  10
 1540.0398384486
  20
 4230.4633454470
  30
0.0
  11
 1570.0398375546
  21
 4230.4633454470
  31
0.0
   0
LINE
   5
E7
 100
AcDbEntity
   8
LEVEL001
 370
13
 100
AcDbLine
   6
CONTINUOUS
  62
5
  10
 1570.0398375546
  20
 4230.4633454470
  30
0.0
  11
 1515.0398391937
  21
 4300.4633433608
  31
0.0
   0
LINE
   5
E8
 100
AcDbEntity
   8
LEVEL001
 370
13
 100
AcDbLine
   6
CONTINUOUS
  62
5
  10
 1445.3968969333
  20
 4134.4544371754
  30
0.0
  11
 1460.6660615173
  21
 4132.1997985708
  31
0.0
   0
ARC
   5
E9
 100
AcDbEntity
   8
LEVEL001
 370
13
   6
CONTINUOUS
  62
5
 100
AcDbCircle
  10
 1459.2833496811
  20
 4111.6665926180
  30
0.0
  40
 20.579709393390
 100
AcDbArc
  50
 10.432218603622
  51
 86.147502468938
   0
ARC
   5
EA
 100
AcDbEntity
   8
LEVEL001
 370
13
   6
CONTINUOUS
  62
5
 100
AcDbCircle
  10
 1465.6390115857
  20
 4115.0909479322
  30
0.0
  40
 13.887146297480
 100
AcDbArc
  50
 284.73811645763
  51
 1.2463330419296
   0
LINE
   5
EB
 100
AcDbEntity
   8
LEVEL001
 370
13
 100
AcDbLine
   6
CONTINUOUS
  62
5
  10
 1469.1719206388
  20
 4101.6607064634
  30
0.0
  11
 1445.3968969333
  21
 4134.4544371754
  31
0.0
   0
ARC
   5
EC
 100
AcDbEntity
   8
LEVEL001
 370
13
   6
CONTINUOUS
  62
5
 100
AcDbCircle
  10
 1452.9441069200
  20
 4074.8494387316
  30
0.0
  40
 20.228108756896
 100
AcDbArc
  50
 1.0517504589904
  51
 78.795792274328
   0
ARC
   5
ED
 100
AcDbEntity
   8
LEVEL001
 370
13
   6
CONTINUOUS
  62
5
 100
AcDbCircle
  10
 1458.2005374255
  20
 4076.9992246314
  30
0.0
  40
 15.073557642890
 100
AcDbArc
  50
 288.65956808367
  51
 353.22403827734
   0
LINE
   5
EE
 100
AcDbEntity
   8
LEVEL001
 370
13
 100
AcDbLine
   6
CONTINUOUS
  62
5
  10
 1447.7537694216
  20
 4048.6782251322
  30
0.0
  11
 1454.7224581788
  21
 4009.8380468464
  31
0.0
   0
LINE
   5
EF
 100
AcDbEntity
   8
LEVEL001
 370
13
 100
AcDbLine
   6
CONTINUOUS
  62
5
  10
 1475.3212124477
  20
 4013.8347813464
  30
0.0
  11
 1472.1440274838
  21
 4030.9490386488
  31
0.0
   0
LINE
   5
F0
 100
AcDbEntity
   8
LEVEL001
 370
13
 100
AcDbLine
   6
CONTINUOUS
  62
5
  10
 1472.1440274838
  20
 4030.9490386488
  30
0.0
  11
 1484.4416955743
  21
 4090.3878186156
  31
0.0
   0
LINE
   5
F1
 100
AcDbEntity
   8
LEVEL001
 370
13
 100
AcDbLine
   6
CONTINUOUS
  62
5
  10
 1484.4416955743
  20
 4090.3878186156
  30
0.0
  11
 1461.5886078765
  21
 4040.4798306010
  31
0.0
   0
LINE
   5
F2
 100
AcDbEntity
   8
LEVEL001
 370
13
 100
AcDbLine
   6
CONTINUOUS
  62
5
  10
 1461.5886078765
  20
 4040.4798306010
  30
0.0
  11
 1447.7537694216
  21
 4048.6782251322
  31
0.0
   0
ARC
   5
F3
 100
AcDbEntity
   8
LEVEL001
 370
13
   6
CONTINUOUS
  62
5
 100
AcDbCircle
  10
 1569.8008781592
  20
 4069.0963469460
  30
0.0
  40
 5.0631766002424
 100
AcDbArc
  50
 274.72626205454
  51
 43.105625042782
   0
ARC
   5
F4
 100
AcDbEntity
   8
LEVEL001
 370
13
   6
CONTINUOUS
  62
5
 100
AcDbCircle
  10
 1573.4405118666
  20
 4112.2453034090
  30
0.0
  40
 5.5826340442110
 100
AcDbArc
  50
 274.79665758012
  51
 36.910963374394
   0
LINE
   5
F5
 100
AcDbEntity
   8
LEVEL001
 370
13
 100
AcDbLine
   6
CONTINUOUS
  62
5
  10
 1573.4974790531
  20
 4072.5562456608
  30
0.0
  11
 1557.1003848152
  21
 4085.5712294038
  31
0.0
   0
LINE
   5
F6
 100
AcDbEntity
   8
LEVEL001
 370
13
 100
AcDbLine
   6
CONTINUOUS
  62
5
  10
 1557.1003848152
  20
 4085.5712294038
  30
0.0
  11
 1549.5167668771
  21
 4076.1429765110
  31
0.0
   0
LINE
   5
F7
 100
AcDbEntity
   8
LEVEL001
 370
13
 100
AcDbLine
   6
CONTINUOUS
  62
5
  10
 1549.5167668771
  20
 4076.1429765110
  30
0.0
  11
 1536.7067086651
  21
 4076.1429765110
  31
0.0
   0
LINE
   5
F8
 100
AcDbEntity
   8
LEVEL001
 370
13
 100
AcDbLine
   6
CONTINUOUS
  62
5
  10
 1536.7067086651
  20
 4076.1429765110
  30
0.0
  11
 1536.7067086651
  21
 4106.6822212062
  31
0.0
   0
LINE
   5
F9
 100
AcDbEntity
   8
LEVEL001
 370
13
 100
AcDbLine
   6
CONTINUOUS
  62
5
  10
 1536.7067086651
  20
 4106.6822212062
  30
0.0
  11
 1573.9073301151
  21
 4106.6822212062
  31
0.0
   0
LINE
   5
FA
 100
AcDbEntity
   8
LEVEL001
 370
13
 100
AcDbLine
   6
CONTINUOUS
  62
5
  10
 1577.9042172030
  20
 4115.5980839776
  30
0.0
  11
 1564.0690735723
  21
 4127.6906739492
  31
0.0
   0
LINE
   5
FB
 100
AcDbEntity
   8
LEVEL001
 370
13
 100
AcDbLine
   6
CONTINUOUS
  62
5
  10
 1564.0690735723
  20
 4127.6906739492
  30
0.0
  11
 1552.1815617196
  21
 4117.6476444634
  31
0.0
   0
LINE
   5
FC
 100
AcDbEntity
   8
LEVEL001
 370
13
 100
AcDbLine
   6
CONTINUOUS
  62
5
  10
 1552.1815617196
  20
 4117.6476444634
  30
0.0
  11
 1536.7067086651
  21
 4117.6476444634
  31
0.0
   0
LINE
   5
FD
 100
AcDbEntity
   8
LEVEL001
 370
13
 100
AcDbLine
   6
CONTINUOUS
  62
5
  10
 1536.7067086651
  20
 4117.6476444634
  30
0.0
  11
 1536.7067086651
  21
 4133.1221923420
  31
0.0
   0
LINE
   5
FE
 100
AcDbEntity
   8
LEVEL001
 370
13
 100
AcDbLine
   6
CONTINUOUS
  62
5
  10
 1536.7067086651
  20
 4133.1221923420
  30
0.0
  11
 1540.2937446911
  21
 4134.9668272968
  31
0.0
   0
LINE
   5
FF
 100
AcDbEntity
   8
LEVEL001
 370
13
 100
AcDbLine
   6
CONTINUOUS
  62
5
  10
 1540.2937446911
  20
 4134.9668272968
  30
0.0
  11
 1540.6010566936
  21
 4137.6313169636
  31
0.0
   0
LINE
   5
100
 100
AcDbEntity
   8
LEVEL001
 370
13
 100
AcDbLine
   6
CONTINUOUS
  62
5
  10
 1540.6010566936
  20
 4137.6313169636
  30
0.0
  11
 1511.7015214221
  21
 4142.1404415850
  31
0.0
   0
LINE
   5
101
 100
AcDbEntity
   8
LEVEL001
 370
13
 100
AcDbLine
   6
CONTINUOUS
  62
5
  10
 1511.7015214221
  20
 4142.1404415850
  30
0.0
  11
 1511.7015214221
  21
 4117.6476444634
  31
0.0
   0
LINE
   5
102
 100
AcDbEntity
   8
LEVEL001
 370
13
 100
AcDbLine
   6
CONTINUOUS
  62
5
  10
 1511.7015214221
  20
 4117.6476444634
  30
0.0
  11
 1482.2895960291
  21
 4117.6476444634
  31
0.0
   0
LINE
   5
103
 100
AcDbEntity
   8
LEVEL001
 370
13
 100
AcDbLine
   6
CONTINUOUS
  62
5
  10
 1482.2895960291
  20
 4117.6476444634
  30
0.0
  11
 1486.6963341790
  21
 4106.6822212062
  31
0.0
   0
LINE
   5
104
 100
AcDbEntity
   8
LEVEL001
 370
13
 100
AcDbLine
   6
CONTINUOUS
  62
5
  10
 1486.6963341790
  20
 4106.6822212062
  30
0.0
  11
 1511.7015214221
  21
 4106.6822212062
  31
0.0
   0
LINE
   5
105
 100
AcDbEntity
   8
LEVEL001
 370
13
 100
AcDbLine
   6
CONTINUOUS
  62
5
  10
 1511.7015214221
  20
 4106.6822212062
  30
0.0
  11
 1511.7015214221
  21
 4076.1429765110
  31
0.0
   0
LINE
   5
106
 100
AcDbEntity
   8
LEVEL001
 370
13
 100
AcDbLine
   6
CONTINUOUS
  62
5
  10
 1511.7015214221
  20
 4076.1429765110
  30
0.0
  11
 1483.9293054529
  21
 4076.1429765110
  31
0.0
   0
LINE
   5
107
 100
AcDbEntity
   8
LEVEL001
 370
13
 100
AcDbLine
   6
CONTINUOUS
  62
5
  10
 1483.9293054529
  20
 4076.1429765110
  30
0.0
  11
 1488.8484337242
  21
 4064.0503865392
  31
0.0
   0
LINE
   5
108
 100
AcDbEntity
   8
LEVEL001
 370
13
 100
AcDbLine
   6
CONTINUOUS
  62
5
  10
 1488.8484337242
  20
 4064.0503865392
  30
0.0
  11
 1511.7015214221
  21
 4064.0503865392
  31
0.0
   0
LINE
   5
109
 100
AcDbEntity
   8
LEVEL001
 370
13
 100
AcDbLine
   6
CONTINUOUS
  62
5
  10
 1511.7015214221
  20
 4064.0503865392
  30
0.0
  11
 1511.7015214221
  21
 4019.1639132676
  31
0.0
   0
LINE
   5
10A
 100
AcDbEntity
   8
LEVEL001
 370
13
 100
AcDbLine
   6
CONTINUOUS
  62
5
  10
 1511.7015214221
  20
 4019.1639132676
  30
0.0
  11
 1479.2152553004
  21
 4019.1639132676
  31
0.0
   0
LINE
   5
10B
 100
AcDbEntity
   8
LEVEL001
 370
13
 100
AcDbLine
   6
CONTINUOUS
  62
5
  10
 1479.2152553004
  20
 4019.1639132676
  30
0.0
  11
 1484.6467736932
  21
 4007.0710181202
  31
0.0
   0
LINE
   5
10C
 100
AcDbEntity
   8
LEVEL001
 370
13
 100
AcDbLine
   6
CONTINUOUS
  62
5
  10
 1484.6467736932
  20
 4007.0710181202
  30
0.0
  11
 1575.0245786169
  21
 4007.0710181202
  31
0.0
   0
LINE
   5
10D
 100
AcDbEntity
   8
LEVEL001
 370
13
 100
AcDbLine
   6
CONTINUOUS
  62
5
  10
 1578.4791683577
  20
 4018.5938449252
  30
0.0
  11
 1563.1468323889
  21
 4028.6945526320
  31
0.0
   0
LINE
   5
10E
 100
AcDbEntity
   8
LEVEL001
 370
13
 100
AcDbLine
   6
CONTINUOUS
  62
5
  10
 1563.1468323889
  20
 4028.6945526320
  30
0.0
  11
 1555.2559024483
  21
 4019.1639132676
  31
0.0
   0
LINE
   5
10F
 100
AcDbEntity
   8
LEVEL001
 370
13
 100
AcDbLine
   6
CONTINUOUS
  62
5
  10
 1555.2559024483
  20
 4019.1639132676
  30
0.0
  11
 1536.7067086651
  21
 4019.1639132676
  31
0.0
   0
LINE
   5
110
 100
AcDbEntity
   8
LEVEL001
 370
13
 100
AcDbLine
   6
CONTINUOUS
  62
5
  10
 1536.7067086651
  20
 4019.1639132676
  30
0.0
  11
 1536.7067086651
  21
 4064.0503865392
  31
0.0
   0
LINE
   5
111
 100
AcDbEntity
   8
LEVEL001
 370
13
 100
AcDbLine
   6
CONTINUOUS
  62
5
  10
 1536.7067086651
  20
 4064.0503865392
  30
0.0
  11
 1570.2180602055
  21
 4064.0503865392
  31
0.0
   0
LINE
   5
112
 100
AcDbEntity
   8
LEVEL001
 370
13
 100
AcDbLine
   6
CONTINUOUS
  62
5
  10
 1441.9674495058
  20
 4097.0211666638
  30
0.0
  11
 1456.8745577240
  21
 4094.6920177062
  31
0.0
   0
LINE
   5
113
 100
AcDbEntity
   8
LEVEL001
 370
13
 100
AcDbLine
   6
CONTINUOUS
  62
5
  10
 1463.0232391814
  20
 4062.7179891180
  30
0.0
  11
 1441.9674495058
  21
 4094.9715839380
  31
0.0
   0
ARC
   5
114
 100
AcDbEntity
   8
LEVEL001
 370
13
   6
CONTINUOUS
  62
5
 100
AcDbCircle
  10
 1464.7048755004
  20
 4013.4699920328
  30
0.0
  40
 10.622602384609
 100
AcDbArc
  50
 199.99311911323
  51
 1.9679733411498
   0
ARC
   5
115
 100
AcDbEntity
   8
LEVEL001
 370
13
   6
CONTINUOUS
  62
5
 100
AcDbCircle
  10
 1575.0250579168
  20
 4013.3501377640
  30
0.0
  40
 6.2791196620726
 100
AcDbArc
  50
 269.99562647882
  51
 56.626490037412
   0
ARC
   5
116
 100
AcDbEntity
   8
LEVEL001
 370
13
   6
CONTINUOUS
  62
5
 100
AcDbCircle
  10
 1578.7975042689
  20
 3906.8816201276
  30
0.0
  40
 4.7515310421130
 100
AcDbArc
  50
 274.70409570270
  51
 59.112293256705
   0
ARC
   5
117
 100
AcDbEntity
   8
LEVEL001
 370
13
   6
CONTINUOUS
  62
5
 100
AcDbCircle
  10
 1485.6381810713
  20
 3906.5245614766
  30
0.0
  40
 22.293228438698
 100
AcDbArc
  50
 35.161132790332
  51
 78.641284698027
   0
ARC
   5
118
 100
AcDbEntity
   8
LEVEL001
 370
13
   6
CONTINUOUS
  62
5
 100
AcDbCircle
  10
 1497.5182220666
  20
 3917.5812734118
  30
0.0
  40
 6.5907971086860
 100
AcDbArc
  50
 312.23536417690
  51
 15.681870099121
   0
LINE
   5
119
 100
AcDbEntity
   8
LEVEL001
 370
13
 100
AcDbLine
   6
CONTINUOUS
  62
5
  10
 1501.9484089198
  20
 3912.7015140966
  30
0.0
  11
 1520.8754103088
  21
 3912.7015140966
  31
0.0
   0
LINE
   5
11A
 100
AcDbEntity
   8
LEVEL001
 370
13
 100
AcDbLine
   6
CONTINUOUS
  62
5
  10
 1520.8754103088
  20
 3912.7015140966
  30
0.0
  11
 1531.3285960324
  21
 3928.3811400942
  31
0.0
   0
LINE
   5
11B
 100
AcDbEntity
   8
LEVEL001
 370
13
 100
AcDbLine
   6
CONTINUOUS
  62
5
  10
 1531.3285960324
  20
 3928.3811400942
  30
0.0
  11
 1490.0288536109
  21
 3928.3811400942
  31
0.0
   0
ARC
   5
11C
 100
AcDbEntity
   8
LEVEL001
 370
13
   6
CONTINUOUS
  62
5
 100
AcDbCircle
  10
 1569.3563068996
  20
 3933.5373137192
  30
0.0
  40
 5.1561789168066
 100
AcDbArc
  50
 269.91791191280
  51
 52.070025543567
   0
LINE
   5
11D
 100
AcDbEntity
   8
LEVEL001
 370
13
 100
AcDbLine
   6
CONTINUOUS
  62
5
  10
 1581.2367366349
  20
 3910.9592656134
  30
0.0
  11
 1563.3027772085
  21
 3921.4124513370
  31
0.0
   0
LINE
   5
11E
 100
AcDbEntity
   8
LEVEL001
 370
13
 100
AcDbLine
   6
CONTINUOUS
  62
5
  10
 1563.3027772085
  20
 3921.4124513370
  30
0.0
  11
 1556.7439395133
  21
 3912.7015140966
  31
0.0
   0
LINE
   5
11F
 100
AcDbEntity
   8
LEVEL001
 370
13
 100
AcDbLine
   6
CONTINUOUS
  62
5
  10
 1556.7439395133
  20
 3912.7015140966
  30
0.0
  11
 1540.9950386154
  21
 3912.7015140966
  31
0.0
   0
LINE
   5
120
 100
AcDbEntity
   8
LEVEL001
 370
13
 100
AcDbLine
   6
CONTINUOUS
  62
5
  10
 1540.9950386154
  20
 3912.7015140966
  30
0.0
  11
 1550.0825627587
  21
 3920.9000612156
  31
0.0
   0
LINE
   5
121
 100
AcDbEntity
   8
LEVEL001
 370
13
 100
AcDbLine
   6
CONTINUOUS
  62
5
  10
 1550.0825627587
  20
 3920.9000612156
  30
0.0
  11
 1553.8743717277
  21
 3921.4124513370
  31
0.0
   0
LINE
   5
122
 100
AcDbEntity
   8
LEVEL001
 370
13
 100
AcDbLine
   6
CONTINUOUS
  62
5
  10
 1553.8743717277
  20
 3921.4124513370
  30
0.0
  11
 1555.5140811515
  21
 3923.7693238254
  31
0.0
   0
LINE
   5
123
 100
AcDbEntity
   8
LEVEL001
 370
13
 100
AcDbLine
   6
CONTINUOUS
  62
5
  10
 1555.5140811515
  20
 3923.7693238254
  30
0.0
  11
 1552.8495914848
  21
 3928.3811400942
  31
0.0
   0
LINE
   5
124
 100
AcDbEntity
   8
LEVEL001
 370
13
 100
AcDbLine
   6
CONTINUOUS
  62
5
  10
 1552.8495914848
  20
 3928.3811400942
  30
0.0
  11
 1569.3489196064
  21
 3928.3811400942
  31
0.0
   0
LINE
   5
125
 100
AcDbEntity
   8
LEVEL001
 370
13
 100
AcDbLine
   6
CONTINUOUS
  62
5
  10
 1572.5257993945
  20
 3937.6043148682
  30
0.0
  11
 1553.8743717277
  21
 3947.8522698850
  31
0.0
   0
LINE
   5
126
 100
AcDbEntity
   8
LEVEL001
 370
13
 100
AcDbLine
   6
CONTINUOUS
  62
5
  10
 1553.8743717277
  20
 3947.8522698850
  30
0.0
  11
 1547.7253850946
  21
 3938.3216305206
  31
0.0
   0
LINE
   5
127
 100
AcDbEntity
   8
LEVEL001
 370
13
 100
AcDbLine
   6
CONTINUOUS
  62
5
  10
 1547.7253850946
  20
 3938.3216305206
  30
0.0
  11
 1526.3069287016
  21
 3938.3216305206
  31
0.0
   0
LINE
   5
128
 100
AcDbEntity
   8
LEVEL001
 370
13
 100
AcDbLine
   6
CONTINUOUS
  62
5
  10
 1526.3069287016
  20
 3938.3216305206
  30
0.0
  11
 1526.3069287016
  21
 3944.6753900970
  31
0.0
   0
LINE
   5
129
 100
AcDbEntity
   8
LEVEL001
 370
13
 100
AcDbLine
   6
CONTINUOUS
  62
5
  10
 1526.3069287016
  20
 3944.6753900970
  30
0.0
  11
 1528.4315624274
  21
 3948.3733575160
  31
0.0
   0
LINE
   5
12A
 100
AcDbEntity
   8
LEVEL001
 370
13
 100
AcDbLine
   6
CONTINUOUS
  62
5
  10
 1528.4315624274
  20
 3948.3733575160
  30
0.0
  11
 1527.6115551276
  21
 3950.1154534114
  31
0.0
   0
LINE
   5
12B
 100
AcDbEntity
   8
LEVEL001
 370
13
 100
AcDbLine
   6
CONTINUOUS
  62
5
  10
 1527.6115551276
  20
 3950.1154534114
  30
0.0
  11
 1502.8389118229
  21
 3950.7218376706
  31
0.0
   0
LINE
   5
12C
 100
AcDbEntity
   8
LEVEL001
 370
13
 100
AcDbLine
   6
CONTINUOUS
  62
5
  10
 1502.8389118229
  20
 3950.7218376706
  30
0.0
  11
 1502.8389118229
  21
 3938.3216305206
  31
0.0
   0
LINE
   5
12D
 100
AcDbEntity
   8
LEVEL001
 370
13
 100
AcDbLine
   6
CONTINUOUS
  62
5
  10
 1502.8389118229
  20
 3938.3216305206
  30
0.0
  11
 1453.3766330235
  21
 3938.3216305206
  31
0.0
   0
LINE
   5
12E
 100
AcDbEntity
   8
LEVEL001
 370
13
 100
AcDbLine
   6
CONTINUOUS
  62
5
  10
 1453.3766330235
  20
 3938.3216305206
  30
0.0
  11
 1457.8498994918
  21
 3928.3811400942
  31
0.0
   0
LINE
   5
12F
 100
AcDbEntity
   8
LEVEL001
 370
13
 100
AcDbLine
   6
CONTINUOUS
  62
5
  10
 1457.8498994918
  20
 3928.3811400942
  30
0.0
  11
 1475.4768520915
  21
 3928.3811400942
  31
0.0
   0
LINE
   5
130
 100
AcDbEntity
   8
LEVEL001
 370
13
 100
AcDbLine
   6
CONTINUOUS
  62
5
  10
 1475.4768520915
  20
 3928.3811400942
  30
0.0
  11
 1485.4173425179
  21
 3912.7015140966
  31
0.0
   0
LINE
   5
131
 100
AcDbEntity
   8
LEVEL001
 370
13
 100
AcDbLine
   6
CONTINUOUS
  62
5
  10
 1485.4173425179
  20
 3912.7015140966
  30
0.0
  11
 1450.7020725564
  21
 3912.7015140966
  31
0.0
   0
LINE
   5
132
 100
AcDbEntity
   8
LEVEL001
 370
13
 100
AcDbLine
   6
CONTINUOUS
  62
5
  10
 1450.7020725564
  20
 3912.7015140966
  30
0.0
  11
 1455.6025851057
  21
 3902.1460944894
  31
0.0
   0
LINE
   5
133
 100
AcDbEntity
   8
LEVEL001
 370
13
 100
AcDbLine
   6
CONTINUOUS
  62
5
  10
 1455.6025851057
  20
 3902.1460944894
  30
0.0
  11
 1579.1871761491
  21
 3902.1460944894
  31
0.0
   0
ARC
   5
134
 100
AcDbEntity
   8
LEVEL001
 370
13
   6
CONTINUOUS
  62
5
 100
AcDbCircle
  10
 1474.9765739593
  20
 3878.1155777686
  30
0.0
  40
 31.206602120202
 100
AcDbArc
  50
 246.86700487444
  51
 289.54634462667
   0
LINE
   5
135
 100
AcDbEntity
   8
LEVEL001
 370
13
 100
AcDbLine
   6
CONTINUOUS
  62
5
  10
 1485.4173425179
  20
 3878.0631484298
  30
0.0
  11
 1485.4173425179
  21
 3884.5192944776
  31
0.0
   0
LINE
   5
136
 100
AcDbEntity
   8
LEVEL001
 370
13
 100
AcDbLine
   6
CONTINUOUS
  62
5
  10
 1485.4173425179
  20
 3884.5192944776
  30
0.0
  11
 1541.9865546992
  21
 3884.5192944776
  31
0.0
   0
LINE
   5
137
 100
AcDbEntity
   8
LEVEL001
 370
13
 100
AcDbLine
   6
CONTINUOUS
  62
5
  10
 1541.9865546992
  20
 3884.5192944776
  30
0.0
  11
 1541.9865546992
  21
 3878.0631484298
  31
0.0
   0
LINE
   5
138
 100
AcDbEntity
   8
LEVEL001
 370
13
 100
AcDbLine
   6
CONTINUOUS
  62
5
  10
 1541.9865546992
  20
 3878.0631484298
  30
0.0
  11
 1485.4173425179
  21
 3878.0631484298
  31
0.0
   0
LINE
   5
139
 100
AcDbEntity
   8
LEVEL001
 370
13
 100
AcDbLine
   6
CONTINUOUS
  62
5
  10
 1568.5292174824
  20
 3891.4879832348
  30
0.0
  11
 1548.5453923943
  21
 3900.5063850656
  31
0.0
   0
LINE
   5
13A
 100
AcDbEntity
   8
LEVEL001
 370
13
 100
AcDbLine
   6
CONTINUOUS
  62
5
  10
 1548.5453923943
  20
 3900.5063850656
  30
0.0
  11
 1541.9865546992
  21
 3892.8202280682
  31
0.0
   0
LINE
   5
13B
 100
AcDbEntity
   8
LEVEL001
 370
13
 100
AcDbLine
   6
CONTINUOUS
  62
5
  10
 1541.9865546992
  20
 3892.8202280682
  30
0.0
  11
 1485.4173425179
  21
 3892.8202280682
  31
0.0
   0
LINE
   5
13C
 100
AcDbEntity
   8
LEVEL001
 370
13
 100
AcDbLine
   6
CONTINUOUS
  62
5
  10
 1485.4173425179
  20
 3892.8202280682
  30
0.0
  11
 1485.4173425179
  21
 3894.5624765514
  31
0.0
   0
LINE
   5
13D
 100
AcDbEntity
   8
LEVEL001
 370
13
 100
AcDbLine
   6
CONTINUOUS
  62
5
  10
 1485.4173425179
  20
 3894.5624765514
  30
0.0
  11
 1462.7693329390
  21
 3899.1739876444
  31
0.0
   0
LINE
   5
13E
 100
AcDbEntity
   8
LEVEL001
 370
13
 100
AcDbLine
   6
CONTINUOUS
  62
5
  10
 1462.7693329390
  20
 3899.1739876444
  30
0.0
  11
 1462.7165375304
  21
 3849.4181297522
  31
0.0
   0
LINE
   5
13F
 100
AcDbEntity
   8
LEVEL001
 370
13
 100
AcDbLine
   6
CONTINUOUS
  62
5
  10
 1485.4173425179
  20
 3862.0760578418
  30
0.0
  11
 1485.4173425179
  21
 3868.9386980182
  31
0.0
   0
LINE
   5
140
 100
AcDbEntity
   8
LEVEL001
 370
13
 100
AcDbLine
   6
CONTINUOUS
  62
5
  10
 1485.4173425179
  20
 3868.9386980182
  30
0.0
  11
 1541.9865546992
  21
 3868.9386980182
  31
0.0
   0
LINE
   5
141
 100
AcDbEntity
   8
LEVEL001
 370
13
 100
AcDbLine
   6
CONTINUOUS
  62
5
  10
 1541.9865546992
  20
 3868.9386980182
  30
0.0
  11
 1541.9865546992
  21
 3862.0760578418
  31
0.0
   0
LINE
   5
142
 100
AcDbEntity
   8
LEVEL001
 370
13
 100
AcDbLine
   6
CONTINUOUS
  62
5
  10
 1541.9865546992
  20
 3862.0760578418
  30
0.0
  11
 1485.4173425179
  21
 3862.0760578418
  31
0.0
   0
ARC
   5
143
 100
AcDbEntity
   8
LEVEL001
 370
13
   6
CONTINUOUS
  62
5
 100
AcDbCircle
  10
 1565.0302419579
  20
 3888.8758904300
  30
0.0
  40
 4.3664469013676
 100
AcDbArc
  50
 266.15058922003
  51
 36.742470507933
   0
LINE
   5
144
 100
AcDbEntity
   8
LEVEL001
 370
13
 100
AcDbLine
   6
CONTINUOUS
  62
5
  10
 1485.4173425179
  20
 3848.7073753788
  30
0.0
  11
 1485.4173425179
  21
 3853.4678122488
  31
0.0
   0
LINE
   5
145
 100
AcDbEntity
   8
LEVEL001
 370
13
 100
AcDbLine
   6
CONTINUOUS
  62
5
  10
 1485.4173425179
  20
 3853.4678122488
  30
0.0
  11
 1541.9865546992
  21
 3853.4678122488
  31
0.0
   0
LINE
   5
146
 100
AcDbEntity
   8
LEVEL001
 370
13
 100
AcDbLine
   6
CONTINUOUS
  62
5
  10
 1541.9865546992
  20
 3853.4678122488
  30
0.0
  11
 1541.9865546992
  21
 3848.5486839774
  31
0.0
   0
LINE
   5
147
 100
AcDbEntity
   8
LEVEL001
 370
13
 100
AcDbLine
   6
CONTINUOUS
  62
5
  10
 1541.9865546992
  20
 3848.5486839774
  30
0.0
  11
 1558.8960390585
  21
 3848.5486839774
  31
0.0
   0
LINE
   5
148
 100
AcDbEntity
   8
LEVEL001
 370
13
 100
AcDbLine
   6
CONTINUOUS
  62
5
  10
 1558.8960390585
  20
 3848.5486839774
  30
0.0
  11
 1562.5850037924
  21
 3850.5982444632
  31
0.0
   0
LINE
   5
149
 100
AcDbEntity
   8
LEVEL001
 370
13
 100
AcDbLine
   6
CONTINUOUS
  62
5
  10
 1562.5850037924
  20
 3850.5982444632
  30
0.0
  11
 1564.7371033376
  21
 3855.0049826130
  31
0.0
   0
LINE
   5
14A
 100
AcDbEntity
   8
LEVEL001
 370
13
 100
AcDbLine
   6
CONTINUOUS
  62
5
  10
 1564.7371033376
  20
 3855.0049826130
  30
0.0
  11
 1564.7303894706
  21
 3884.5194470654
  31
0.0
   0
LINE
   5
14B
 100
AcDbEntity
   8
LEVEL001
 370
13
 100
AcDbLine
   6
CONTINUOUS
  62
5
  10
 1468.9497526766
  20
 3843.1171655846
  30
0.0
  11
 1468.4373625552
  21
 3837.9932643700
  31
0.0
   0
LINE
   5
14C
 100
AcDbEntity
   8
LEVEL001
 370
13
 100
AcDbLine
   6
CONTINUOUS
  62
5
  10
 1468.4373625552
  20
 3837.9932643700
  30
0.0
  11
 1466.4900359531
  21
 3834.4063809320
  31
0.0
   0
LINE
   5
14D
 100
AcDbEntity
   8
LEVEL001
 370
13
 100
AcDbLine
   6
CONTINUOUS
  62
5
  10
 1466.4900359531
  20
 3834.4063809320
  30
0.0
  11
 1455.4222262243
  21
 3820.6739289486
  31
0.0
   0
ARC
   5
14E
 100
AcDbEntity
   8
LEVEL001
 370
13
   6
CONTINUOUS
  62
5
 100
AcDbCircle
  10
 1463.9544887390
  20
 3815.0621754804
  30
0.0
  40
 10.212310248246
 100
AcDbArc
  50
 146.66668479800
  51
 331.70163256420
   0
ARC
   5
14F
 100
AcDbEntity
   8
LEVEL001
 370
13
   6
CONTINUOUS
  62
5
 100
AcDbCircle
  10
 1449.9664045588
  20
 3824.1199623760
  30
0.0
  40
 26.856307183018
 100
AcDbArc
  50
 328.83298190803
  51
 45.020901175880
   0
LINE
   5
150
 100
AcDbEntity
   8
LEVEL001
 370
13
 100
AcDbLine
   6
CONTINUOUS
  62
5
  10
 1552.5740177626
  20
 3845.8841943106
  30
0.0
  11
 1565.9986999797
  21
 3823.5434967342
  31
0.0
   0
ARC
   5
151
 100
AcDbEntity
   8
LEVEL001
 370
13
   6
CONTINUOUS
  62
5
 100
AcDbCircle
  10
 1558.3053371171
  20
 3813.3678260132
  30
0.0
  40
 8.7884995702356
 100
AcDbArc
  50
 268.04310640385
  51
 95.976315924897
   0
ARC
   5
152
 100
AcDbEntity
   8
LEVEL001
 370
13
   6
CONTINUOUS
  62
5
 100
AcDbCircle
  10
 1491.1043961478
  20
 3811.1940430806
  30
0.0
  40
 6.6095999893666
 100
AcDbArc
  50
 179.99949488507
  51
 269.90651577931
   0
LINE
   5
153
 100
AcDbEntity
   8
LEVEL001
 370
13
 100
AcDbLine
   6
CONTINUOUS
  62
5
  10
 1491.0936118800
  20
 3804.5844518892
  30
0.0
  11
 1558.0052309796
  21
 3804.5844518892
  31
0.0
   0
LINE
   5
154
 100
AcDbEntity
   8
LEVEL001
 370
13
 100
AcDbLine
   6
CONTINUOUS
  62
5
  10
 1557.3903017987
  20
 3822.1085602536
  30
0.0
  11
 1550.0117619796
  21
 3840.5552149772
  31
0.0
   0
LINE
   5
155
 100
AcDbEntity
   8
LEVEL001
 370
13
 100
AcDbLine
   6
CONTINUOUS
  62
5
  10
 1550.0117619796
  20
 3840.5552149772
  30
0.0
  11
 1549.8066838607
  21
 3830.3071073726
  31
0.0
   0
LINE
   5
156
 100
AcDbEntity
   8
LEVEL001
 370
13
 100
AcDbLine
   6
CONTINUOUS
  62
5
  10
 1549.8066838607
  20
 3830.3071073726
  30
0.0
  11
 1547.1052679256
  21
 3822.1085602536
  31
0.0
   0
LINE
   5
157
 100
AcDbEntity
   8
LEVEL001
 370
13
 100
AcDbLine
   6
CONTINUOUS
  62
5
  10
 1547.1052679256
  20
 3822.1085602536
  30
0.0
  11
 1507.2456499728
  21
 3822.1085602536
  31
0.0
   0
LINE
   5
158
 100
AcDbEntity
   8
LEVEL001
 370
13
 100
AcDbLine
   6
CONTINUOUS
  62
5
  10
 1507.2456499728
  20
 3822.1085602536
  30
0.0
  11
 1507.2456499728
  21
 3837.9932643700
  31
0.0
   0
LINE
   5
159
 100
AcDbEntity
   8
LEVEL001
 370
13
 100
AcDbLine
   6
CONTINUOUS
  62
5
  10
 1507.2456499728
  20
 3837.9932643700
  30
0.0
  11
 1509.2952104586
  21
 3840.9650660392
  31
0.0
   0
LINE
   5
15A
 100
AcDbEntity
   8
LEVEL001
 370
13
 100
AcDbLine
   6
CONTINUOUS
  62
5
  10
 1509.2952104586
  20
 3840.9650660392
  30
0.0
  11
 1507.4507280917
  21
 3843.1171655846
  31
0.0
   0
LINE
   5
15B
 100
AcDbEntity
   8
LEVEL001
 370
13
 100
AcDbLine
   6
CONTINUOUS
  62
5
  10
 1507.4507280917
  20
 3843.1171655846
  30
0.0
  11
 1484.4947961587
  21
 3846.1915063132
  31
0.0
   0
LINE
   5
15C
 100
AcDbEntity
   8
LEVEL001
 370
13
 100
AcDbLine
   6
CONTINUOUS
  62
5
  10
 1484.4947961587
  20
 3846.1915063132
  30
0.0
  11
 1484.4947961587
  21
 3811.1941013504
  31
0.0
   0
LINE
   5
15D
 100
AcDbEntity
   8
LEVEL001
 370
13
 100
AcDbLine
   6
CONTINUOUS
  62
5
  10
 1527.3509350181
  20
 3826.4127593440
  30
0.0
  11
 1513.2087845607
  21
 3847.7288292654
  31
0.0
   0
ARC
   5
15E
 100
AcDbEntity
   8
LEVEL001
 370
13
   6
CONTINUOUS
  62
5
 100
AcDbCircle
  10
 1532.2312859750
  20
 3834.1322442228
  30
0.0
  40
 9.1328129430768
 100
AcDbArc
  50
 237.69843463475
  51
 18.768732377853
   0
ARC
   5
15F
 100
AcDbEntity
   8
LEVEL001
 370
13
   6
CONTINUOUS
  62
5
 100
AcDbCircle
  10
 1514.6960107104
  20
 3809.8289912574
  30
0.0
  40
 37.929006876678
 100
AcDbArc
  50
 46.131549416312
  51
 92.247188603489
   0
ARC
   5
160
 100
AcDbEntity
   8
LEVEL001
 370
13
   6
CONTINUOUS
  62
5
 100
AcDbCircle
  10
 1571.7913200169
  20
 3830.3517043920
  30
0.0
  40
 8.9390233475260
 100
AcDbArc
  50
 229.60790187558
  51
 6.7933956220261
   0
ARC
   5
161
 100
AcDbEntity
   8
LEVEL001
 370
13
   6
CONTINUOUS
  62
5
 100
AcDbCircle
  10
 1556.4825785111
  20
 3819.3203688026
  30
0.0
  40
 27.037970213950
 100
AcDbArc
  50
 26.557897354830
  51
 98.092162593061
   0
ENDBLK
   5
162
 100
AcDbEntity
   8
0
 100
AcDbBlockEnd
   0
BLOCK
   5
163
 100
AcDbEntity
   8
0
 100
AcDbBlockBegin
   2
*D19
  70
65
  10
0.0
  20
0.0
  30
0.0
   3
*D19
   0
LINE
   5
164
 100
AcDbEntity
   8
0
 370
13
 100
AcDbLine
   6
CONTINUOUS
  62
6
  10
 2615.0398392050
  20
 920.46074604320
  30
0.0
  11
 2615.0398392050
  21
 720.46074604320
  31
0.0
   0
LINE
   5
165
 100
AcDbEntity
   8
0
 370
13
 100
AcDbLine
   6
CONTINUOUS
  62
6
  10
 3115.0398392050
  20
 920.46074604320
  30
0.0
  11
 3115.0398392050
  21
 720.46074604320
  31
0.0
   0
LINE
   5
166
 100
AcDbEntity
   8
0
 370
13
 100
AcDbLine
   6
CONTINUOUS
  62
6
  10
 2615.0398392050
  20
 750.46074604320
  30
0.0
  11
 2865.0398392050
  21
 750.46074604320
  31
0.0
   0
LINE
   5
167
 100
AcDbEntity
   8
0
 370
13
 100
AcDbLine
   6
CONTINUOUS
  62
6
  10
 3115.0398392050
  20
 750.46074604320
  30
0.0
  11
 2865.0398392050
  21
 750.46074604320
  31
0.0
   0
INSERT
   5
168
 100
AcDbEntity
   8
0
   6
CONTINUOUS
  62
6
 100
AcDbBlockReference
   2
_OPEN
  10
 2615.0398392050
  20
 750.46074604320
  30
0.0
  41
 42.000000000000
  42
 42.000000000000
  43
 42.000000000000
  50
 180.00000000000
   0
INSERT
   5
169
 100
AcDbEntity
   8
0
   6
CONTINUOUS
  62
6
 100
AcDbBlockReference
   2
_OPEN
  10
 3115.0398392050
  20
 750.46074604320
  30
0.0
  41
 42.000000000000
  42
 42.000000000000
  43
 42.000000000000
  50
0.0
   0
MTEXT
   5
16A
 100
AcDbEntity
   8
0
 370
13
  62
1
 100
AcDbMText
  10
 2865.0398392050
  20
 776.17503175749
  30
0.0
  40
 60.000000000000
  41
0.0
  71
8
  72
1
   1
\A1;□500
   7
GMM002
   0
ENDBLK
   5
16B
 100
AcDbEntity
   8
0
 100
AcDbBlockEnd
   0
BLOCK
   5
16C
 100
AcDbEntity
   8
0
 100
AcDbBlockBegin
   2
*D20
  70
65
  10
0.0
  20
0.0
  30
0.0
   3
*D20
   0
LINE
   5
16D
 100
AcDbEntity
   8
0
 370
13
 100
AcDbLine
   6
CONTINUOUS
  62
6
  10
 1265.0398392050
  20
 920.46074604320
  30
0.0
  11
 1265.0398392050
  21
 720.46074604320
  31
0.0
   0
LINE
   5
16E
 100
AcDbEntity
   8
0
 370
13
 100
AcDbLine
   6
CONTINUOUS
  62
6
  10
 1765.0398392050
  20
 920.46074604320
  30
0.0
  11
 1765.0398392050
  21
 720.46074604320
  31
0.0
   0
LINE
   5
16F
 100
AcDbEntity
   8
0
 370
13
 100
AcDbLine
   6
CONTINUOUS
  62
6
  10
 1265.0398392050
  20
 750.46074604320
  30
0.0
  11
 1515.0398392050
  21
 750.46074604320
  31
0.0
   0
LINE
   5
170
 100
AcDbEntity
   8
0
 370
13
 100
AcDbLine
   6
CONTINUOUS
  62
6
  10
 1765.0398392050
  20
 750.46074604320
  30
0.0
  11
 1515.0398392050
  21
 750.46074604320
  31
0.0
   0
INSERT
   5
171
 100
AcDbEntity
   8
0
   6
CONTINUOUS
  62
6
 100
AcDbBlockReference
   2
_OPEN
  10
 1265.0398392050
  20
 750.46074604320
  30
0.0
  41
 42.000000000000
  42
 42.000000000000
  43
 42.000000000000
  50
 180.00000000000
   0
INSERT
   5
172
 100
AcDbEntity
   8
0
   6
CONTINUOUS
  62
6
 100
AcDbBlockReference
   2
_OPEN
  10
 1765.0398392050
  20
 750.46074604320
  30
0.0
  41
 42.000000000000
  42
 42.000000000000
  43
 42.000000000000
  50
0.0
   0
MTEXT
   5
173
 100
AcDbEntity
   8
0
 370
13
  62
1
 100
AcDbMText
  10
 1515.0398392050
  20
 776.17503175749
  30
0.0
  40
 60.000000000000
  41
0.0
  71
8
  72
1
   1
\A1;□500
   7
GMM002
   0
ENDBLK
   5
174
 100
AcDbEntity
   8
0
 100
AcDbBlockEnd
   0
BLOCK
   5
175
 100
AcDbEntity
   8
0
 100
AcDbBlockBegin
   2
*D21
  70
65
  10
0.0
  20
0.0
  30
0.0
   3
*D21
   0
LINE
   5
176
 100
AcDbEntity
   8
0
 370
13
 100
AcDbLine
   6
CONTINUOUS
  62
6
  10
 1612.5398392050
  20
 4798.8607460432
  30
0.0
  11
 1915.0398392050
  21
 4798.8607460432
  31
0.0
   0
LINE
   5
177
 100
AcDbEntity
   8
0
 370
13
 100
AcDbLine
   6
CONTINUOUS
  62
6
  10
 2217.5398392050
  20
 4798.8607460432
  30
0.0
  11
 1915.0398392050
  21
 4798.8607460432
  31
0.0
   0
INSERT
   5
178
 100
AcDbEntity
   8
0
   6
CONTINUOUS
  62
6
 100
AcDbBlockReference
   2
_OPEN
  10
 1612.5398392050
  20
 4798.8607460432
  30
0.0
  41
 42.000000000000
  42
 42.000000000000
  43
 42.000000000000
  50
 180.00000000000
   0
INSERT
   5
179
 100
AcDbEntity
   8
0
   6
CONTINUOUS
  62
6
 100
AcDbBlockReference
   2
_OPEN
  10
 2217.5398392050
  20
 4798.8607460432
  30
0.0
  41
 42.000000000000
  42
 42.000000000000
  43
 42.000000000000
  50
0.0
   0
MTEXT
   5
17A
 100
AcDbEntity
   8
0
 370
13
  62
1
 100
AcDbMText
  10
 1915.0398392050
  20
 4824.5750317575
  30
0.0
  40
 60.000000000000
  41
0.0
  71
8
  72
1
   1
\A1;600
   7
GMM002
   0
ENDBLK
   5
17B
 100
AcDbEntity
   8
0
 100
AcDbBlockEnd
   0
BLOCK
   5
17C
 100
AcDbEntity
   8
0
 100
AcDbBlockBegin
   2
*D22
  70
65
  10
0.0
  20
0.0
  30
0.0
   3
*D22
   0
LINE
   5
17D
 100
AcDbEntity
   8
0
 370
13
 100
AcDbLine
   6
CONTINUOUS
  62
6
  10
 812.53983920500
  20
 4798.8607460432
  30
0.0
  11
 1115.0398392050
  21
 4798.8607460432
  31
0.0
   0
LINE
   5
17E
 100
AcDbEntity
   8
0
 370
13
 100
AcDbLine
   6
CONTINUOUS
  62
6
  10
 1417.5398392050
  20
 4798.8607460432
  30
0.0
  11
 1115.0398392050
  21
 4798.8607460432
  31
0.0
   0
INSERT
   5
17F
 100
AcDbEntity
   8
0
   6
CONTINUOUS
  62
6
 100
AcDbBlockReference
   2
_OPEN
  10
 812.53983920500
  20
 4798.8607460432
  30
0.0
  41
 42.000000000000
  42
 42.000000000000
  43
 42.000000000000
  50
 180.00000000000
   0
INSERT
   5
180
 100
AcDbEntity
   8
0
   6
CONTINUOUS
  62
6
 100
AcDbBlockReference
   2
_OPEN
  10
 1417.5398392050
  20
 4798.8607460432
  30
0.0
  41
 42.000000000000
  42
 42.000000000000
  43
 42.000000000000
  50
0.0
   0
MTEXT
   5
181
 100
AcDbEntity
   8
0
 370
13
  62
1
 100
AcDbMText
  10
 1115.0398392050
  20
 4824.5750317575
  30
0.0
  40
 60.000000000000
  41
0.0
  71
8
  72
1
   1
\A1;600
   7
GMM002
   0
ENDBLK
   5
182
 100
AcDbEntity
   8
0
 100
AcDbBlockEnd
   0
BLOCK
   5
183
 100
AcDbEntity
   8
0
 100
AcDbBlockBegin
   2
*D23
  70
65
  10
0.0
  20
0.0
  30
0.0
   3
*D23
   0
LINE
   5
184
 100
AcDbEntity
   8
0
 370
13
 100
AcDbLine
   6
CONTINUOUS
  62
6
  10
 1765.0398392050
  20
 4926.3607460432
  30
0.0
  11
 1765.0398392050
  21
 4698.8607460432
  31
0.0
   0
LINE
   5
185
 100
AcDbEntity
   8
0
 370
13
 100
AcDbLine
   6
CONTINUOUS
  62
6
  10
 1765.0398392050
  20
 4471.3607460432
  30
0.0
  11
 1765.0398392050
  21
 4698.8607460432
  31
0.0
   0
INSERT
   5
186
 100
AcDbEntity
   8
0
   6
CONTINUOUS
  62
6
 100
AcDbBlockReference
   2
_OPEN
  10
 1765.0398392050
  20
 4926.3607460432
  30
0.0
  41
 42.000000000000
  42
 42.000000000000
  43
 42.000000000000
  50
 90.000000000000
   0
INSERT
   5
187
 100
AcDbEntity
   8
0
   6
CONTINUOUS
  62
6
 100
AcDbBlockReference
   2
_OPEN
  10
 1765.0398392050
  20
 4471.3607460432
  30
0.0
  41
 42.000000000000
  42
 42.000000000000
  43
 42.000000000000
  50
 270.00000000000
   0
MTEXT
   5
188
 100
AcDbEntity
   8
0
 370
13
  62
1
 100
AcDbMText
  10
 1739.3255534907
  20
 4698.8607460432
  30
0.0
  40
 60.000000000000
  41
0.0
  71
8
  72
1
   1
\A1;450
   7
GMM002
  11
0.0
  21
 1.0000000000000
  31
0.0
   0
ENDBLK
   5
189
 100
AcDbEntity
   8
0
 100
AcDbBlockEnd
   0
BLOCK
   5
18A
 100
AcDbEntity
   8
0
 100
AcDbBlockBegin
   2
*D24
  70
65
  10
0.0
  20
0.0
  30
0.0
   3
*D24
   0
LINE
   5
18B
 100
AcDbEntity
   8
0
 370
13
 100
AcDbLine
   6
CONTINUOUS
  62
6
  10
 965.03983920500
  20
 4926.3607460432
  30
0.0
  11
 965.03983920500
  21
 4698.8607460432
  31
0.0
   0
LINE
   5
18C
 100
AcDbEntity
   8
0
 370
13
 100
AcDbLine
   6
CONTINUOUS
  62
6
  10
 965.03983920500
  20
 4471.3607460432
  30
0.0
  11
 965.03983920500
  21
 4698.8607460432
  31
0.0
   0
INSERT
   5
18D
 100
AcDbEntity
   8
0
   6
CONTINUOUS
  62
6
 100
AcDbBlockReference
   2
_OPEN
  10
 965.03983920500
  20
 4926.3607460432
  30
0.0
  41
 42.000000000000
  42
 42.000000000000
  43
 42.000000000000
  50
 90.000000000000
   0
INSERT
   5
18E
 100
AcDbEntity
   8
0
   6
CONTINUOUS
  62
6
 100
AcDbBlockReference
   2
_OPEN
  10
 965.03983920500
  20
 4471.3607460432
  30
0.0
  41
 42.000000000000
  42
 42.000000000000
  43
 42.000000000000
  50
 270.00000000000
   0
MTEXT
   5
18F
 100
AcDbEntity
   8
0
 370
13
  62
1
 100
AcDbMText
  10
 939.32555349072
  20
 4698.8607460432
  30
0.0
  40
 60.000000000000
  41
0.0
  71
8
  72
1
   1
\A1;450
   7
GMM002
  11
0.0
  21
 1.0000000000000
  31
0.0
   0
ENDBLK
   5
190
 100
AcDbEntity
   8
0
 100
AcDbBlockEnd
   0
ENDSEC
   0
SECTION
   2
ENTITIES
   0
LINE
   5
191
 100
AcDbEntity
   8
LEVEL001
 370
13
 100
AcDbLine
   6
CONTINUOUS
  62
7
  10
 8115.0398392050
  20
 5698.8607460432
  30
0.0
  11
 315.03983920500
  21
 5698.8607460432
  31
0.0
   0
LINE
   5
192
 100
AcDbEntity
   8
LEVEL001
 370
13
 100
AcDbLine
   6
CONTINUOUS
  62
7
  10
 315.03983920500
  20
 5698.8607460432
  30
0.0
  11
 315.03983920500
  21
 198.86074604318
  31
0.0
   0
LINE
   5
193
 100
AcDbEntity
   8
LEVEL001
 370
13
 100
AcDbLine
   6
CONTINUOUS
  62
7
  10
 315.03983920500
  20
 198.86074604318
  30
0.0
  11
 8115.0398392050
  21
 198.86074604318
  31
0.0
   0
LINE
   5
194
 100
AcDbEntity
   8
LEVEL001
 370
13
 100
AcDbLine
   6
CONTINUOUS
  62
7
  10
 8115.0398392050
  20
 198.86074604318
  30
0.0
  11
 8115.0398392050
  21
 5698.8607460432
  31
0.0
   0
POINT
   5
195
 100
AcDbEntity
   8
LEVEL001
 100
AcDbPoint
  62
3
  10
 6315.0398392050
  20
 738.86074604318
  30
0.0
   0
MTEXT
   5
196
 100
AcDbEntity
   8
LEVEL001
 370
13
  62
1
 100
AcDbMText
  10
 5647.0398392050
  20
 958.86074604318
  30
0.0
  40
 51.428571428572
  41
0.0
  71
6
  72
1
   1
\T1.000000;１６
   7
GMM001
  44
 0.79999984000003
   0
MTEXT
   5
197
 100
AcDbEntity
   8
LEVEL001
 370
13
  62
1
 100
AcDbMText
  10
 6805.0398392050
  20
 1316.0079614350
  30
0.0
  40
 51.428571428572
  41
0.0
  71
4
  72
1
   1
\T1.000000;ＰＥ
   7
GMM001
  44
 0.79999984000003
   0
MTEXT
   5
198
 100
AcDbEntity
   8
LEVEL001
 370
13
  62
1
 100
AcDbMText
  10
 5715.0398392050
  20
 958.86074604318
  30
0.0
  40
 51.428571428572
  41
0.0
  71
4
  72
1
   1
\T1.000000;同上ボルトナット
   7
GMM001
  44
 0.79999984000003
   0
MTEXT
   5
199
 100
AcDbEntity
   8
LEVEL001
 370
13
  62
1
 100
AcDbMText
  10
 5647.0398392050
  20
 1078.8607460432
  30
0.0
  40
 51.428571428572
  41
0.0
  71
6
  72
1
   1
\T1.000000;１５
   7
GMM001
  44
 0.79999984000003
   0
MTEXT
   5
19A
 100
AcDbEntity
   8
LEVEL001
 370
13
  62
1
 100
AcDbMText
  10
 5715.0398392050
  20
 1078.8607460432
  30
0.0
  40
 51.428571428572
  41
0.0
  71
4
  72
1
   1
\T1.000000;注意板取付バンド
   7
GMM001
  44
 0.79999984000003
   0
LINE
   5
19B
 100
AcDbEntity
   8
LEVEL001
 370
13
 100
AcDbLine
   6
CONTINUOUS
  62
6
  10
 5475.0398392050
  20
 1018.8607460432
  30
0.0
  11
 8115.0398392050
  21
 1018.8607460432
  31
0.0
   0
MTEXT
   5
19C
 100
AcDbEntity
   8
LEVEL001
 370
13
  62
1
 100
AcDbMText
  10
 5647.0398392050
  20
 1198.8607460432
  30
0.0
  40
 51.428571428572
  41
0.0
  71
6
  72
1
   1
\T1.000000;１４
   7
GMM001
  44
 0.79999984000003
   0
MTEXT
   5
19D
 100
AcDbEntity
   8
LEVEL001
 370
13
  62
1
 100
AcDbMText
  10
 6727.0398392050
  20
 1198.8607460432
  30
0.0
  40
 51.428571428572
  41
0.0
  71
6
  72
1
   1
\T1.000000;１
   7
GMM001
  44
 0.79999984000003
   0
LINE
   5
19E
 100
AcDbEntity
   8
LEVEL001
 370
13
 100
AcDbLine
   6
CONTINUOUS
  62
6
  10
 5475.0398392050
  20
 1138.8607460432
  30
0.0
  11
 8115.0398392050
  21
 1138.8607460432
  31
0.0
   0
LINE
   5
19F
 100
AcDbEntity
   8
LEVEL001
 370
13
 100
AcDbLine
   6
CONTINUOUS
  62
6
  10
 5475.0398392050
  20
 1258.8607460432
  30
0.0
  11
 8115.0398392050
  21
 1258.8607460432
  31
0.0
   0
MTEXT
   5
1A0
 100
AcDbEntity
   8
LEVEL001
 370
13
  62
1
 100
AcDbMText
  10
 5647.0398392050
  20
 1318.8607460432
  30
0.0
  40
 51.428571428572
  41
0.0
  71
6
  72
1
   1
\T1.000000;１３
   7
GMM001
  44
 0.79999984000003
   0
MTEXT
   5
1A1
 100
AcDbEntity
   8
LEVEL001
 370
13
  62
1
 100
AcDbMText
  10
 5715.0398392050
  20
 1318.8607460432
  30
0.0
  40
 51.428571428572
  41
0.0
  71
4
  72
1
   1
\T1.000000;キャップ
   7
GMM001
  44
 0.79999984000003
   0
MTEXT
   5
1A2
 100
AcDbEntity
   8
LEVEL001
 370
13
  62
1
 100
AcDbMText
  10
 6727.0398392050
  20
 1318.8607460432
  30
0.0
  40
 51.428571428572
  41
0.0
  71
6
  72
1
   1
\T1.000000;１
   7
GMM001
  44
 0.79999984000003
   0
MTEXT
   5
1A3
 100
AcDbEntity
   8
LEVEL001
 370
13
  62
1
 100
AcDbMText
  10
 5647.0398392050
  20
 1438.8607460432
  30
0.0
  40
 51.428571428572
  41
0.0
  71
6
  72
1
   1
\T1.000000;１２
   7
GMM001
  44
 0.79999984000003
   0
MTEXT
   5
1A4
 100
AcDbEntity
   8
LEVEL001
 370
13
  62
1
 100
AcDbMText
  10
 5715.0398392050
  20
 1438.8607460432
  30
0.0
  40
 51.428571428572
  41
0.0
  71
4
  72
1
   1
\T1.000000;根入れ鉄筋
   7
GMM001
  44
 0.79999984000003
   0
MTEXT
   5
1A5
 100
AcDbEntity
   8
LEVEL001
 370
13
  62
1
 100
AcDbMText
  10
 6727.0398392050
  20
 1438.8607460432
  30
0.0
  40
 51.428571428572
  41
0.0
  71
6
  72
1
   1
\T1.000000;１
   7
GMM001
  44
 0.79999984000003
   0
MTEXT
   5
1A6
 100
AcDbEntity
   8
LEVEL001
 370
13
  62
1
 100
AcDbMText
  10
 6795.0398392050
  20
 1438.8607460432
  30
0.0
  40
 51.428571428572
  41
0.0
  71
4
  72
1
   1
\T1.000000;ＳＤ２９５Ａ
   7
GMM001
  44
 0.79999984000003
   0
LINE
   5
1A7
 100
AcDbEntity
   8
LEVEL001
 370
13
 100
AcDbLine
   6
CONTINUOUS
  62
6
  10
 5475.0398392050
  20
 1378.8607460432
  30
0.0
  11
 8115.0398392050
  21
 1378.8607460432
  31
0.0
   0
LINE
   5
1A8
 100
AcDbEntity
   8
LEVEL001
 370
13
 100
AcDbLine
   6
CONTINUOUS
  62
6
  10
 5475.0398392050
  20
 1498.8607460432
  30
0.0
  11
 8115.0398392050
  21
 1498.8607460432
  31
0.0
   0
CIRCLE
   5
1A9
 100
AcDbEntity
   8
LEVEL001
 370
13
 100
AcDbCircle
   6
CONTINUOUS
  62
1
  10
 4115.0398392050
  20
 4348.8607460432
  30
0.0
  40
 69.999997913838
   0
MTEXT
   5
1AA
 100
AcDbEntity
   8
LEVEL001
 370
13
  62
1
 100
AcDbMText
  10
 4115.0398392050
  20
 4348.8607460432
  30
0.0
  40
 57.142857142858
  41
0.0
  71
5
  72
1
   1
\T1.000000;2
   7
GMM001
  44
 0.79999984000003
   0
LEADER
   5
1AB
 100
AcDbEntity
   8
LEVEL001
 370
13
   6
CONTINUOUS
  62
1
 100
AcDbLeader
   3
GMM001
  73
3
  74
1
  75
0
  40
 66.000000000000
  41
0.0
  76
2
  10
 4256.2572326430
  20
 4565.9457423878
  30
0.0
  10
 4153.2473066832
  20
 4407.5138715936
  30
0.0
  77
1
   0
CIRCLE
   5
1AC
 100
AcDbEntity
   8
LEVEL001
 370
13
 100
AcDbCircle
   6
CONTINUOUS
  62
1
  10
 2315.0398392050
  20
 5148.8607460432
  30
0.0
  40
 69.999997913838
   0
MTEXT
   5
1AD
 100
AcDbEntity
   8
LEVEL001
 370
13
  62
1
 100
AcDbMText
  10
 2315.0398392050
  20
 5148.8607460432
  30
0.0
  40
 57.142857142858
  41
0.0
  71
5
  72
1
   1
\T1.000000;3
   7
GMM001
  44
 0.79999984000003
   0
CIRCLE
   5
1AE
 100
AcDbEntity
   8
LEVEL001
 370
13
 100
AcDbCircle
   6
CONTINUOUS
  62
1
  10
 2315.0398392050
  20
 4332.9607460432
  30
0.0
  40
 69.999997913838
   0
MTEXT
   5
1AF
 100
AcDbEntity
   8
LEVEL001
 370
13
  62
1
 100
AcDbMText
  10
 2315.0398392050
  20
 4332.9607460432
  30
0.0
  40
 57.142857142858
  41
0.0
  71
5
  72
1
   1
\T1.000000;1
   7
GMM001
  44
 0.79999984000003
   0
CIRCLE
   5
1B0
 100
AcDbEntity
   8
LEVEL001
 370
13
 100
AcDbCircle
   6
CONTINUOUS
  62
1
  10
 2115.0398392050
  20
 4332.9607460432
  30
0.0
  40
 69.999997913838
   0
MTEXT
   5
1B1
 100
AcDbEntity
   8
LEVEL001
 370
13
  62
1
 100
AcDbMText
  10
 2115.0398392050
  20
 4332.9607460432
  30
0.0
  40
 57.142857142858
  41
0.0
  71
5
  72
1
   1
\T1.000000;4
   7
GMM001
  44
 0.79999984000003
   0
LEADER
   5
1B2
 100
AcDbEntity
   8
LEVEL001
 370
13
   6
CONTINUOUS
  62
1
 100
AcDbLeader
   3
GMM002
  73
3
  74
1
  75
0
  40
 60.000000000000
  41
0.0
  76
2
  10
 1997.4794779014
  20
 4450.4607460432
  30
0.0
  10
 2065.6181647924
  20
 4382.5339021480
  30
0.0
  77
1
   0
LINE
   5
1B3
 100
AcDbEntity
   8
LEVEL001
 370
13
 100
AcDbLine
   6
DASHDOT
  62
6
  10
 1555.0398314311
  20
 4761.3607045150
  30
0.0
  11
 1585.0398314311
  21
 4761.3607045150
  31
0.0
   0
LINE
   5
1B4
 100
AcDbEntity
   8
LEVEL001
 370
13
 100
AcDbLine
   6
DASHDOT
  62
6
  10
 1570.0398314311
  20
 4776.3607045150
  30
0.0
  11
 1570.0398314311
  21
 4746.3607045150
  31
0.0
   0
LINE
   5
1B5
 100
AcDbEntity
   8
LEVEL001
 370
13
 100
AcDbLine
   6
DASHDOT
  62
6
  10
 1555.0398314311
  20
 4701.3607045150
  30
0.0
  11
 1585.0398314311
  21
 4701.3607045150
  31
0.0
   0
LINE
   5
1B6
 100
AcDbEntity
   8
LEVEL001
 370
13
 100
AcDbLine
   6
DASHDOT
  62
6
  10
 1570.0398314311
  20
 4716.3607045150
  30
0.0
  11
 1570.0398314311
  21
 4686.3607045150
  31
0.0
   0
LINE
   5
1B7
 100
AcDbEntity
   8
LEVEL001
 370
13
 100
AcDbLine
   6
CONTINUOUS
  62
3
  10
 1563.0398314310
  20
 4754.3607045150
  30
0.0
  11
 1577.0398314311
  21
 4754.3607045150
  31
0.0
   0
LINE
   5
1B8
 100
AcDbEntity
   8
LEVEL001
 370
13
 100
AcDbLine
   6
CONTINUOUS
  62
3
  10
 1577.0398314311
  20
 4754.3607045150
  30
0.0
  11
 1577.0398314311
  21
 4768.3607045150
  31
0.0
   0
LINE
   5
1B9
 100
AcDbEntity
   8
LEVEL001
 370
13
 100
AcDbLine
   6
CONTINUOUS
  62
3
  10
 1577.0398314311
  20
 4768.3607045150
  30
0.0
  11
 1563.0398314310
  21
 4768.3607045150
  31
0.0
   0
LINE
   5
1BA
 100
AcDbEntity
   8
LEVEL001
 370
13
 100
AcDbLine
   6
CONTINUOUS
  62
3
  10
 1563.0398314310
  20
 4768.3607045150
  30
0.0
  11
 1563.0398314310
  21
 4754.3607045150
  31
0.0
   0
LINE
   5
1BB
 100
AcDbEntity
   8
LEVEL001
 370
13
 100
AcDbLine
   6
CONTINUOUS
  62
3
  10
 1563.0398314310
  20
 4694.3607045150
  30
0.0
  11
 1577.0398314311
  21
 4694.3607045150
  31
0.0
   0
LINE
   5
1BC
 100
AcDbEntity
   8
LEVEL001
 370
13
 100
AcDbLine
   6
CONTINUOUS
  62
3
  10
 1577.0398314311
  20
 4694.3607045150
  30
0.0
  11
 1577.0398314311
  21
 4708.3607045150
  31
0.0
   0
LINE
   5
1BD
 100
AcDbEntity
   8
LEVEL001
 370
13
 100
AcDbLine
   6
CONTINUOUS
  62
3
  10
 1577.0398314311
  20
 4708.3607045150
  30
0.0
  11
 1563.0398314310
  21
 4708.3607045150
  31
0.0
   0
LINE
   5
1BE
 100
AcDbEntity
   8
LEVEL001
 370
13
 100
AcDbLine
   6
CONTINUOUS
  62
3
  10
 1563.0398314310
  20
 4708.3607045150
  30
0.0
  11
 1563.0398314310
  21
 4694.3607045150
  31
0.0
   0
LINE
   5
1BF
 100
AcDbEntity
   8
LEVEL001
 370
13
 100
AcDbLine
   6
DASHDOT
  62
6
  10
 1445.0398469789
  20
 4651.3607045150
  30
0.0
  11
 1475.0398469789
  21
 4651.3607045150
  31
0.0
   0
LINE
   5
1C0
 100
AcDbEntity
   8
LEVEL001
 370
13
 100
AcDbLine
   6
DASHDOT
  62
6
  10
 1460.0398469789
  20
 4666.3607045150
  30
0.0
  11
 1460.0398469789
  21
 4636.3607045150
  31
0.0
   0
LINE
   5
1C1
 100
AcDbEntity
   8
LEVEL001
 370
13
 100
AcDbLine
   6
DASHDOT
  62
6
  10
 1445.0398469789
  20
 4591.3607045150
  30
0.0
  11
 1475.0398469789
  21
 4591.3607045150
  31
0.0
   0
LINE
   5
1C2
 100
AcDbEntity
   8
LEVEL001
 370
13
 100
AcDbLine
   6
DASHDOT
  62
6
  10
 1460.0398469789
  20
 4606.3607045150
  30
0.0
  11
 1460.0398469789
  21
 4576.3607045150
  31
0.0
   0
LINE
   5
1C3
 100
AcDbEntity
   8
LEVEL001
 370
13
 100
AcDbLine
   6
CONTINUOUS
  62
3
  10
 1467.0398469789
  20
 4644.3607045150
  30
0.0
  11
 1453.0398469789
  21
 4644.3607045150
  31
0.0
   0
LINE
   5
1C4
 100
AcDbEntity
   8
LEVEL001
 370
13
 100
AcDbLine
   6
CONTINUOUS
  62
3
  10
 1453.0398469789
  20
 4644.3607045150
  30
0.0
  11
 1453.0398469789
  21
 4658.3607045150
  31
0.0
   0
LINE
   5
1C5
 100
AcDbEntity
   8
LEVEL001
 370
13
 100
AcDbLine
   6
CONTINUOUS
  62
3
  10
 1453.0398469789
  20
 4658.3607045150
  30
0.0
  11
 1467.0398469789
  21
 4658.3607045150
  31
0.0
   0
LINE
   5
1C6
 100
AcDbEntity
   8
LEVEL001
 370
13
 100
AcDbLine
   6
CONTINUOUS
  62
3
  10
 1467.0398469789
  20
 4658.3607045150
  30
0.0
  11
 1467.0398469789
  21
 4644.3607045150
  31
0.0
   0
LINE
   5
1C7
 100
AcDbEntity
   8
LEVEL001
 370
13
 100
AcDbLine
   6
CONTINUOUS
  62
3
  10
 1467.0398469789
  20
 4584.3607045150
  30
0.0
  11
 1453.0398469789
  21
 4584.3607045150
  31
0.0
   0
LINE
   5
1C8
 100
AcDbEntity
   8
LEVEL001
 370
13
 100
AcDbLine
   6
CONTINUOUS
  62
3
  10
 1453.0398469789
  20
 4584.3607045150
  30
0.0
  11
 1453.0398469789
  21
 4598.3607045150
  31
0.0
   0
LINE
   5
1C9
 100
AcDbEntity
   8
LEVEL001
 370
13
 100
AcDbLine
   6
CONTINUOUS
  62
3
  10
 1453.0398469789
  20
 4598.3607045150
  30
0.0
  11
 1467.0398469789
  21
 4598.3607045150
  31
0.0
   0
LINE
   5
1CA
 100
AcDbEntity
   8
LEVEL001
 370
13
 100
AcDbLine
   6
CONTINUOUS
  62
3
  10
 1467.0398469789
  20
 4598.3607045150
  30
0.0
  11
 1467.0398469789
  21
 4584.3607045150
  31
0.0
   0
LINE
   5
1CB
 100
AcDbEntity
   8
LEVEL001
 370
13
 100
AcDbLine
   6
CONTINUOUS
  62
6
  10
 1550.3947405266
  20
 4781.3607045150
  30
0.0
  11
 1550.3947405266
  21
 4681.3607045150
  31
0.0
   0
LINE
   5
1CC
 100
AcDbEntity
   8
LEVEL001
 370
13
 100
AcDbLine
   6
CONTINUOUS
  62
6
  10
 1479.6849378834
  20
 4671.3607045150
  30
0.0
  11
 1479.6849378834
  21
 4571.3607045150
  31
0.0
   0
LINE
   5
1CD
 100
AcDbEntity
   8
LEVEL001
 370
13
 100
AcDbLine
   6
CONTINUOUS
  62
7
  10
 1440.0398469789
  20
 4676.3607045150
  30
0.0
  11
 1556.3898392050
  21
 4676.3607045150
  31
0.0
   0
LINE
   5
1CE
 100
AcDbEntity
   8
LEVEL001
 370
13
 100
AcDbLine
   6
CONTINUOUS
  62
7
  10
 1556.3898392050
  20
 4676.3607045150
  30
0.0
  11
 1556.3898392050
  21
 4641.3607045150
  31
0.0
   0
LINE
   5
1CF
 100
AcDbEntity
   8
LEVEL001
 370
13
 100
AcDbLine
   6
CONTINUOUS
  62
7
  10
 1556.3898392050
  20
 4581.3607045150
  30
0.0
  11
 1556.3898392050
  21
 4566.3607045150
  31
0.0
   0
LINE
   5
1D0
 100
AcDbEntity
   8
LEVEL001
 370
13
 100
AcDbLine
   6
CONTINUOUS
  62
7
  10
 1556.3898392050
  20
 4566.3607045150
  30
0.0
  11
 1440.0398469789
  21
 4566.3607045150
  31
0.0
   0
LINE
   5
1D1
 100
AcDbEntity
   8
LEVEL001
 370
13
 100
AcDbLine
   6
CONTINUOUS
  62
7
  10
 1440.0398469789
  20
 4566.3607045150
  30
0.0
  11
 1440.0398469789
  21
 4676.3607045150
  31
0.0
   0
LINE
   5
1D2
 100
AcDbEntity
   8
LEVEL001
 370
13
 100
AcDbLine
   6
CONTINUOUS
  62
7
  10
 1473.6898392050
  20
 4695.0857095654
  30
0.0
  11
 1473.6898392050
  21
 4676.3607045150
  31
0.0
   0
LINE
   5
1D3
 100
AcDbEntity
   8
LEVEL001
 370
13
 100
AcDbLine
   6
CONTINUOUS
  62
7
  10
 1473.6898392050
  20
 4676.3607045150
  30
0.0
  11
 1590.0398314311
  21
 4676.3607045150
  31
0.0
   0
LINE
   5
1D4
 100
AcDbEntity
   8
LEVEL001
 370
13
 100
AcDbLine
   6
CONTINUOUS
  62
7
  10
 1590.0398314311
  20
 4676.3607045150
  30
0.0
  11
 1590.0398314311
  21
 4786.3607045150
  31
0.0
   0
LINE
   5
1D5
 100
AcDbEntity
   8
LEVEL001
 370
13
 100
AcDbLine
   6
CONTINUOUS
  62
7
  10
 1590.0398314311
  20
 4786.3607045150
  30
0.0
  11
 1473.6898392050
  21
 4786.3607045150
  31
0.0
   0
LINE
   5
1D6
 100
AcDbEntity
   8
LEVEL001
 370
13
 100
AcDbLine
   6
CONTINUOUS
  62
7
  10
 1473.6898392050
  20
 4786.3607045150
  30
0.0
  11
 1473.6898392050
  21
 4765.8364137670
  31
0.0
   0
LINE
   5
1D7
 100
AcDbEntity
   8
LEVEL001
 370
13
 100
AcDbLine
   6
CONTINUOUS
  62
7
  10
 1476.8898392050
  20
 4566.3607045150
  30
0.0
  11
 1476.8898392050
  21
 4350.4607460432
  31
0.0
   0
LINE
   5
1D8
 100
AcDbEntity
   8
LEVEL001
 370
13
 100
AcDbLine
   6
CONTINUOUS
  62
7
  10
 1553.1898392050
  20
 4350.4607460432
  30
0.0
  11
 1553.1898392050
  21
 4566.3607045150
  31
0.0
   0
CIRCLE
   5
1D9
 100
AcDbEntity
   8
LEVEL001
 370
13
 100
AcDbCircle
   6
CONTINUOUS
  62
1
  10
 1765.0398392050
  20
 3950.4607460432
  30
0.0
  40
 70.000000000000
   0
MTEXT
   5
1DA
 100
AcDbEntity
   8
LEVEL001
 370
13
  62
1
 100
AcDbMText
  10
 1765.0398392050
  20
 3950.4607460432
  30
0.0
  40
 57.142857142858
  41
0.0
  71
5
  72
1
   1
\T1.000000;14
   7
GMM001
  44
 0.79999984000003
   0
LEADER
   5
1DB
 100
AcDbEntity
   8
LEVEL001
 370
13
   6
CONTINUOUS
  62
1
 100
AcDbLeader
   3
GMM002
  73
3
  74
1
  75
0
  40
 60.000000000000
  41
0.0
  76
2
  10
 1605.0395320939
  20
 4110.4610531548
  30
0.0
  10
 1715.5423645222
  20
 3999.9582207266
  30
0.0
  77
1
   0
MTEXT
   5
1DD
 100
AcDbEntity
   8
LEVEL001
 370
13
  62
1
 100
AcDbMText
  10
 1135.6884444145
  20
 1959.1906830835
  30
0.0
  40
 40.000000000000
  41
0.0
  71
7
  72
1
   1
\T1.000000;ＧＬ
   7
GMM003
  44
 0.79999984000003
   0
LINE
   5
1DE
 100
AcDbEntity
   8
LEVEL001
 370
13
 100
AcDbLine
   6
CONTINUOUS
  62
1
  10
 1107.5397739697
  20
 1950.4607460432
  30
0.0
  11
 1082.5397739697
  21
 2000.4607460432
  31
0.0
   0
LINE
   5
1DF
 100
AcDbEntity
   8
LEVEL001
 370
13
 100
AcDbLine
   6
CONTINUOUS
  62
1
  10
 1082.5397739697
  20
 2000.4607460432
  30
0.0
  11
 1132.5397739697
  21
 2000.4607460432
  31
0.0
   0
LINE
   5
1E0
 100
AcDbEntity
   8
LEVEL001
 370
13
 100
AcDbLine
   6
CONTINUOUS
  62
1
  10
 1132.5397739697
  20
 2000.4607460432
  30
0.0
  11
 1107.5397739697
  21
 1950.4607460432
  31
0.0
   0
CIRCLE
   5
1E1
 100
AcDbEntity
   8
LEVEL001
 370
13
 100
AcDbCircle
   6
CONTINUOUS
  62
1
  10
 1765.0398392050
  20
 2750.4607460432
  30
0.0
  40
 70.000000000000
   0
MTEXT
   5
1E2
 100
AcDbEntity
   8
LEVEL001
 370
13
  62
1
 100
AcDbMText
  10
 1765.0398392050
  20
 2750.4607460432
  30
0.0
  40
 57.142857142858
  41
0.0
  71
5
  72
1
   1
\T1.000000;11
   7
GMM001
  44
 0.79999984000003
   0
LEADER
   5
1E3
 100
AcDbEntity
   8
LEVEL001
 370
13
   6
CONTINUOUS
  62
1
 100
AcDbLeader
   3
GMM002
  73
3
  74
1
  75
0
  40
 60.000000000000
  41
0.0
  76
2
  10
 1553.1898392050
  20
 2625.4607460432
  30
0.0
  10
 1704.7520498438
  20
 2714.8885314096
  30
0.0
  77
1
   0
LINE
   5
1E4
 100
AcDbEntity
   8
LEVEL001
 370
13
 100
AcDbLine
   6
CONTINUOUS
  62
7
  10
 1553.1898392050
  20
 5054.4607460432
  30
0.0
  11
 1476.8898392050
  21
 5054.4607460432
  31
0.0
   0
LINE
   5
1E5
 100
AcDbEntity
   8
LEVEL001
 370
13
 100
AcDbLine
   6
CONTINUOUS
  62
7
  10
 1476.8898392050
  20
 5054.4607460432
  30
0.0
  11
 1476.8898392050
  21
 5051.4607460432
  31
0.0
   0
LINE
   5
1E6
 100
AcDbEntity
   8
LEVEL001
 370
13
 100
AcDbLine
   6
CONTINUOUS
  62
7
  10
 1476.8898392050
  20
 5051.4607460432
  30
0.0
  11
 1553.1898392050
  21
 5051.4607460432
  31
0.0
   0
LINE
   5
1E7
 100
AcDbEntity
   8
LEVEL001
 370
13
 100
AcDbLine
   6
CONTINUOUS
  62
7
  10
 1553.1898392050
  20
 5051.4607460432
  30
0.0
  11
 1553.1898392050
  21
 5054.4607460432
  31
0.0
   0
LINE
   5
1E8
 100
AcDbEntity
   8
LEVEL001
 370
13
 100
AcDbLine
   6
DOT
  62
1
  10
 1548.1898392050
  20
 5051.4607460432
  30
0.0
  11
 1548.1898392050
  21
 5024.4607460432
  31
0.0
   0
LINE
   5
1E9
 100
AcDbEntity
   8
LEVEL001
 370
13
 100
AcDbLine
   6
DOT
  62
1
  10
 1548.1898392050
  20
 5024.4607460432
  30
0.0
  11
 1481.8898392050
  21
 5024.4607460432
  31
0.0
   0
LINE
   5
1EA
 100
AcDbEntity
   8
LEVEL001
 370
13
 100
AcDbLine
   6
DOT
  62
1
  10
 1481.8898392050
  20
 5024.4607460432
  30
0.0
  11
 1481.8898392050
  21
 5051.4607460432
  31
0.0
   0
LINE
   5
1EB
 100
AcDbEntity
   8
LEVEL001
 370
13
 100
AcDbLine
   6
CONTINUOUS
  62
7
  10
 1553.1898392050
  20
 4786.3607045150
  30
0.0
  11
 1553.1898392050
  21
 5050.4607460432
  31
0.0
   0
LINE
   5
1EC
 100
AcDbEntity
   8
LEVEL001
 370
13
 100
AcDbLine
   6
CONTINUOUS
  62
7
  10
 1553.1898392050
  20
 5050.4607460432
  30
0.0
  11
 1476.8898392050
  21
 5050.4607460432
  31
0.0
   0
LINE
   5
1ED
 100
AcDbEntity
   8
LEVEL001
 370
13
 100
AcDbLine
   6
CONTINUOUS
  62
7
  10
 1476.8898392050
  20
 5050.4607460432
  30
0.0
  11
 1476.8898392050
  21
 4786.3607045150
  31
0.0
   0
LINE
   5
1EE
 100
AcDbEntity
   8
LEVEL001
 370
13
 100
AcDbLine
   6
DASHDOT
  62
6
  10
 1515.0398392050
  20
 5100.4607460432
  30
0.0
  11
 1515.0398392050
  21
 950.46074604320
  31
0.0
   0
LINE
   5
1EF
 100
AcDbEntity
   8
LEVEL001
 370
13
 100
AcDbLine
   6
DASHDOT
  62
6
  10
 1455.0398211194
  20
 1450.4607460432
  30
0.0
  11
 1575.0398211194
  21
 1450.4607460432
  31
0.0
   0
CIRCLE
   5
1F0
 100
AcDbEntity
   8
LEVEL001
 370
13
 100
AcDbCircle
   6
CONTINUOUS
  62
7
  10
 1515.0398054029
  20
 1350.4607460432
  30
0.0
  40
 7.5000000000000
   0
LINE
   5
1F1
 100
AcDbEntity
   8
LEVEL001
 370
13
 100
AcDbLine
   6
DASHDOT
  62
6
  10
 1485.0398054029
  20
 1350.4607460432
  30
0.0
  11
 1545.0398054029
  21
 1350.4607460432
  31
0.0
   0
LINE
   5
1F2
 100
AcDbEntity
   8
LEVEL001
 370
13
 100
AcDbLine
   6
CONTINUOUS
  62
7
  10
 1476.8898392050
  20
 3750.4599612976
  30
0.0
  11
 1476.8898392050
  21
 1050.4607460432
  31
0.0
   0
LINE
   5
1F3
 100
AcDbEntity
   8
LEVEL001
 370
13
 100
AcDbLine
   6
CONTINUOUS
  62
7
  10
 1476.8898392050
  20
 1050.4607460432
  30
0.0
  11
 1553.1898392050
  21
 1050.4607460432
  31
0.0
   0
LINE
   5
1F4
 100
AcDbEntity
   8
LEVEL001
 370
13
 100
AcDbLine
   6
CONTINUOUS
  62
7
  10
 1553.1898392050
  20
 1050.4607460432
  30
0.0
  11
 1553.1898392050
  21
 3750.4599612976
  31
0.0
   0
MTEXT
   5
1F5
 100
AcDbEntity
   8
LEVEL001
 370
13
  62
1
 100
AcDbMText
  10
 4515.0398392050
  20
 5498.8607460432
  30
0.0
  40
 57.142857142858
  41
0.0
  71
5
  72
1
   1
\T1.000000;背　面　図
   7
GMM001
  44
 0.79999984000003
   0
MTEXT
   5
1F6
 100
AcDbEntity
   8
LEVEL001
 370
13
  62
1
 100
AcDbMText
  10
 1515.0398392050
  20
 5498.8607460432
  30
0.0
  40
 57.142857142858
  41
0.0
  71
5
  72
1
   1
\T1.000000;正　面　図
   7
GMM001
  44
 0.79999984000003
   0
LINE
   5
1F7
 100
AcDbEntity
   8
LEVEL001
 370
13
 100
AcDbLine
   6
DASHDOT
  62
6
  10
 4465.0398392050
  20
 4763.8607460432
  30
0.0
  11
 4465.0398392050
  21
 4733.8607460432
  31
0.0
   0
LINE
   5
1F8
 100
AcDbEntity
   8
LEVEL001
 370
13
 100
AcDbLine
   6
DASHDOT
  62
6
  10
 4450.0398392050
  20
 4748.8607460432
  30
0.0
  11
 4480.0398392050
  21
 4748.8607460432
  31
0.0
   0
LINE
   5
1F9
 100
AcDbEntity
   8
LEVEL001
 370
13
 100
AcDbLine
   6
DASHDOT
  62
6
  10
 4565.0398392050
  20
 4763.8607460432
  30
0.0
  11
 4565.0398392050
  21
 4733.8607460432
  31
0.0
   0
LINE
   5
1FA
 100
AcDbEntity
   8
LEVEL001
 370
13
 100
AcDbLine
   6
DASHDOT
  62
6
  10
 4550.0398392050
  20
 4748.8607460432
  30
0.0
  11
 4580.0398392050
  21
 4748.8607460432
  31
0.0
   0
LINE
   5
1FB
 100
AcDbEntity
   8
LEVEL001
 370
13
 100
AcDbLine
   6
DASHDOT
  62
6
  10
 4565.0398392050
  20
 4663.8607460432
  30
0.0
  11
 4565.0398392050
  21
 4633.8607460432
  31
0.0
   0
LINE
   5
1FC
 100
AcDbEntity
   8
LEVEL001
 370
13
 100
AcDbLine
   6
DASHDOT
  62
6
  10
 4550.0398392050
  20
 4648.8607460432
  30
0.0
  11
 4580.0398392050
  21
 4648.8607460432
  31
0.0
   0
LINE
   5
1FD
 100
AcDbEntity
   8
LEVEL001
 370
13
 100
AcDbLine
   6
DASHDOT
  62
6
  10
 4465.0398392050
  20
 4663.8607460432
  30
0.0
  11
 4465.0398392050
  21
 4633.8607460432
  31
0.0
   0
LINE
   5
1FE
 100
AcDbEntity
   8
LEVEL001
 370
13
 100
AcDbLine
   6
DASHDOT
  62
6
  10
 4450.0398392050
  20
 4648.8607460432
  30
0.0
  11
 4480.0398392050
  21
 4648.8607460432
  31
0.0
   0
LINE
   5
1FF
 100
AcDbEntity
   8
LEVEL001
 370
13
 100
AcDbLine
   6
DASHDOT
  62
6
  10
 4565.0398392050
  20
 4663.8607460432
  30
0.0
  11
 4565.0398392050
  21
 4633.8607460432
  31
0.0
   0
LINE
   5
200
 100
AcDbEntity
   8
LEVEL001
 370
13
 100
AcDbLine
   6
DASHDOT
  62
6
  10
 4550.0398392050
  20
 4648.8607460432
  30
0.0
  11
 4580.0398392050
  21
 4648.8607460432
  31
0.0
   0
LINE
   5
201
 100
AcDbEntity
   8
LEVEL001
 370
13
 100
AcDbLine
   6
DASHDOT
  62
6
  10
 4465.0398392050
  20
 4663.8607460432
  30
0.0
  11
 4465.0398392050
  21
 4633.8607460432
  31
0.0
   0
LINE
   5
202
 100
AcDbEntity
   8
LEVEL001
 370
13
 100
AcDbLine
   6
DASHDOT
  62
6
  10
 4450.0398392050
  20
 4648.8607460432
  30
0.0
  11
 4480.0398392050
  21
 4648.8607460432
  31
0.0
   0
CIRCLE
   5
203
 100
AcDbEntity
   8
LEVEL001
 370
13
 100
AcDbCircle
   6
CONTINUOUS
  62
3
  10
 4565.0398392050
  20
 4748.8607460432
  30
0.0
  40
 7.0000000000000
   0
CIRCLE
   5
204
 100
AcDbEntity
   8
LEVEL001
 370
13
 100
AcDbCircle
   6
CONTINUOUS
  62
3
  10
 4565.0398392050
  20
 4648.8607460432
  30
0.0
  40
 7.0000000000000
   0
CIRCLE
   5
205
 100
AcDbEntity
   8
LEVEL001
 370
13
 100
AcDbCircle
   6
CONTINUOUS
  62
3
  10
 4465.0398392050
  20
 4648.8607460432
  30
0.0
  40
 7.0000000000000
   0
CIRCLE
   5
206
 100
AcDbEntity
   8
LEVEL001
 370
13
 100
AcDbCircle
   6
CONTINUOUS
  62
3
  10
 4465.0398392050
  20
 4748.8607460432
  30
0.0
  40
 7.0000000000000
   0
ARC
   5
207
 100
AcDbEntity
   8
LEVEL001
 370
13
   6
CONTINUOUS
  62
6
 100
AcDbCircle
  10
 4741.1788720074
  20
 4872.3143070998
  30
0.0
  40
 20.000000000000
 100
AcDbArc
  50
 37.488991427348
  51
 127.48899142728
   0
LINE
   5
208
 100
AcDbEntity
   8
LEVEL001
 370
13
 100
AcDbLine
   6
CONTINUOUS
  62
6
  10
 4637.7576088728
  20
 4818.1936795018
  30
0.0
  11
 4729.0066922842
  21
 4888.1837129104
  31
0.0
   0
ARC
   5
209
 100
AcDbEntity
   8
LEVEL001
 370
13
   6
CONTINUOUS
  62
6
 100
AcDbCircle
  10
 4741.1788720074
  20
 4872.3143070996
  30
0.0
  40
 20.000000000000
 100
AcDbArc
  50
 307.48899142735
  51
 37.488991427348
   0
LINE
   5
20A
 100
AcDbEntity
   8
LEVEL001
 370
13
 100
AcDbLine
   6
CONTINUOUS
  62
6
  10
 4753.3510517308
  20
 4856.4449012890
  30
0.0
  11
 4662.1019683194
  21
 4786.4548678802
  31
0.0
   0
ARC
   5
20B
 100
AcDbEntity
   8
LEVEL001
 370
13
   6
CONTINUOUS
  62
6
 100
AcDbCircle
  10
 4649.9297885960
  20
 4802.3242736910
  30
0.0
  40
 20.000000000000
 100
AcDbArc
  50
 217.48899142728
  51
 307.48899142735
   0
ARC
   5
20C
 100
AcDbEntity
   8
LEVEL001
 370
13
   6
CONTINUOUS
  62
6
 100
AcDbCircle
  10
 4649.9297885960
  20
 4802.3242736910
  30
0.0
  40
 20.000000000000
 100
AcDbArc
  50
 127.48899142732
  51
 217.48899142728
   0
LINE
   5
20D
 100
AcDbEntity
   8
LEVEL001
 370
13
 100
AcDbLine
   6
CONTINUOUS
  62
6
  10
 4647.3274047582
  20
 4726.3607460432
  30
0.0
  11
 4757.5398392050
  21
 4726.3607460432
  31
0.0
   0
ARC
   5
20E
 100
AcDbEntity
   8
LEVEL001
 370
13
   6
CONTINUOUS
  62
6
 100
AcDbCircle
  10
 4757.5398392050
  20
 4698.8607460432
  30
0.0
  40
 27.500000000000
 100
AcDbArc
  50
0.0
  51
 90.000000000000
   0
ARC
   5
20F
 100
AcDbEntity
   8
LEVEL001
 370
13
   6
CONTINUOUS
  62
6
 100
AcDbCircle
  10
 4757.5398392050
  20
 4698.8607460432
  30
0.0
  40
 27.500000000000
 100
AcDbArc
  50
 270.00000000000
  51
0.0
   0
LINE
   5
210
 100
AcDbEntity
   8
LEVEL001
 370
13
 100
AcDbLine
   6
CONTINUOUS
  62
6
  10
 4757.5398392050
  20
 4671.3607460432
  30
0.0
  11
 4647.3274047582
  21
 4671.3607460432
  31
0.0
   0
ARC
   5
211
 100
AcDbEntity
   8
LEVEL001
 370
13
   6
CONTINUOUS
  62
6
 100
AcDbCircle
  10
 4647.3274047582
  20
 4661.3607460432
  30
0.0
  40
 10.000000000000
 100
AcDbArc
  50
 90.000000000000
  51
 164.17337986808
   0
ARC
   5
212
 100
AcDbEntity
   8
LEVEL001
 370
13
   6
CONTINUOUS
  62
6
 100
AcDbCircle
  10
 4515.0398392050
  20
 4698.8607460432
  30
0.0
  40
 127.50000000000
 100
AcDbArc
  50
 285.82662013186
  51
 344.17337986813
   0
ARC
   5
213
 100
AcDbEntity
   8
LEVEL001
 370
13
   6
CONTINUOUS
  62
6
 100
AcDbCircle
  10
 4649.9297885960
  20
 4595.3972183954
  30
0.0
  40
 20.000000000000
 100
AcDbArc
  50
 52.511008572677
  51
 142.51100857269
   0
LINE
   5
214
 100
AcDbEntity
   8
LEVEL001
 370
13
 100
AcDbLine
   6
CONTINUOUS
  62
6
  10
 4753.3510517308
  20
 4541.2765907974
  30
0.0
  11
 4662.1019683194
  21
 4611.2666242062
  31
0.0
   0
ARC
   5
215
 100
AcDbEntity
   8
LEVEL001
 370
13
   6
CONTINUOUS
  62
6
 100
AcDbCircle
  10
 4649.9297885960
  20
 4595.3972183954
  30
0.0
  40
 20.000000000000
 100
AcDbArc
  50
 142.51100857269
  51
 232.51100857265
   0
LINE
   5
216
 100
AcDbEntity
   8
LEVEL001
 370
13
 100
AcDbLine
   6
CONTINUOUS
  62
6
  10
 4637.7576088728
  20
 4579.5278125846
  30
0.0
  11
 4729.0066922842
  21
 4509.5377791760
  31
0.0
   0
ARC
   5
217
 100
AcDbEntity
   8
LEVEL001
 370
13
   6
CONTINUOUS
  62
6
 100
AcDbCircle
  10
 4741.1788720074
  20
 4525.4071849868
  30
0.0
  40
 20.000000000000
 100
AcDbArc
  50
 322.51100857269
  51
 52.511008572652
   0
ARC
   5
218
 100
AcDbEntity
   8
LEVEL001
 370
13
   6
CONTINUOUS
  62
6
 100
AcDbCircle
  10
 4741.1788720074
  20
 4525.4071849866
  30
0.0
  40
 20.000000000000
 100
AcDbArc
  50
 232.51100857274
  51
 322.51100857265
   0
ARC
   5
219
 100
AcDbEntity
   8
LEVEL001
 370
13
   6
CONTINUOUS
  62
6
 100
AcDbCircle
  10
 4515.0398392050
  20
 4531.3607460432
  30
0.0
  40
 27.500000000000
 100
AcDbArc
  50
 270.00000000000
  51
0.0
   0
LINE
   5
21A
 100
AcDbEntity
   8
LEVEL001
 370
13
 100
AcDbLine
   6
CONTINUOUS
  62
6
  10
 4542.5398392050
  20
 4531.3607460432
  30
0.0
  11
 4542.5398392050
  21
 4566.5731804900
  31
0.0
   0
ARC
   5
21B
 100
AcDbEntity
   8
LEVEL001
 370
13
   6
CONTINUOUS
  62
6
 100
AcDbCircle
  10
 4552.5398392050
  20
 4566.5731804900
  30
0.0
  40
 10.000000000000
 100
AcDbArc
  50
 105.82662013200
  51
 180.00000000000
   0
ARC
   5
21C
 100
AcDbEntity
   8
LEVEL001
 370
13
   6
CONTINUOUS
  62
6
 100
AcDbCircle
  10
 4515.0398392050
  20
 4698.8607460432
  30
0.0
  40
 127.50000000000
 100
AcDbArc
  50
 195.82662013187
  51
 254.17337986812
   0
ARC
   5
21D
 100
AcDbEntity
   8
LEVEL001
 370
13
   6
CONTINUOUS
  62
6
 100
AcDbCircle
  10
 4515.0398392050
  20
 4531.3607460432
  30
0.0
  40
 27.500000000000
 100
AcDbArc
  50
 180.00000000000
  51
 270.00000000000
   0
LINE
   5
21E
 100
AcDbEntity
   8
LEVEL001
 370
13
 100
AcDbLine
   6
CONTINUOUS
  62
6
  10
 4487.5398392050
  20
 4566.5731804900
  30
0.0
  11
 4487.5398392050
  21
 4531.3607460432
  31
0.0
   0
ARC
   5
21F
 100
AcDbEntity
   8
LEVEL001
 370
13
   6
CONTINUOUS
  62
6
 100
AcDbCircle
  10
 4477.5398392050
  20
 4566.5731804900
  30
0.0
  40
 10.000000000000
 100
AcDbArc
  50
0.0
  51
 74.173379868159
   0
ARC
   5
220
 100
AcDbEntity
   8
LEVEL001
 370
13
   6
CONTINUOUS
  62
6
 100
AcDbCircle
  10
 4272.5398392050
  20
 4698.8607460432
  30
0.0
  40
 27.500000000000
 100
AcDbArc
  50
 180.00000000000
  51
 270.00000000000
   0
LINE
   5
221
 100
AcDbEntity
   8
LEVEL001
 370
13
 100
AcDbLine
   6
CONTINUOUS
  62
6
  10
 4272.5398392050
  20
 4671.3607460432
  30
0.0
  11
 4382.7522736518
  21
 4671.3607460432
  31
0.0
   0
ARC
   5
222
 100
AcDbEntity
   8
LEVEL001
 370
13
   6
CONTINUOUS
  62
6
 100
AcDbCircle
  10
 4382.7522736518
  20
 4661.3607460432
  30
0.0
  40
 10.000000000000
 100
AcDbArc
  50
 15.826620131875
  51
 90.000000000000
   0
ARC
   5
223
 100
AcDbEntity
   8
LEVEL001
 370
13
   6
CONTINUOUS
  62
6
 100
AcDbCircle
  10
 4272.5398392050
  20
 4698.8607460432
  30
0.0
  40
 27.500000000000
 100
AcDbArc
  50
 90.000000000000
  51
 180.00000000000
   0
LINE
   5
224
 100
AcDbEntity
   8
LEVEL001
 370
13
 100
AcDbLine
   6
CONTINUOUS
  62
6
  10
 4382.7522736518
  20
 4726.3607460432
  30
0.0
  11
 4272.5398392050
  21
 4726.3607460432
  31
0.0
   0
ARC
   5
225
 100
AcDbEntity
   8
LEVEL001
 370
13
   6
CONTINUOUS
  62
6
 100
AcDbCircle
  10
 4382.7522736518
  20
 4736.3607460432
  30
0.0
  40
 10.000000000000
 100
AcDbArc
  50
 270.00000000000
  51
 344.17337986812
   0
ARC
   5
226
 100
AcDbEntity
   8
LEVEL001
 370
13
   6
CONTINUOUS
  62
6
 100
AcDbCircle
  10
 4515.0398392050
  20
 4698.8607460432
  30
0.0
  40
 127.50000000000
 100
AcDbArc
  50
 105.82662013188
  51
 164.17337986813
   0
ARC
   5
227
 100
AcDbEntity
   8
LEVEL001
 370
13
   6
CONTINUOUS
  62
6
 100
AcDbCircle
  10
 4515.0398392050
  20
 4866.3607460432
  30
0.0
  40
 27.500000000000
 100
AcDbArc
  50
 90.000000000000
  51
 180.00000000000
   0
LINE
   5
228
 100
AcDbEntity
   8
LEVEL001
 370
13
 100
AcDbLine
   6
CONTINUOUS
  62
6
  10
 4487.5398392050
  20
 4831.1483115964
  30
0.0
  11
 4487.5398392050
  21
 4866.3607460432
  31
0.0
   0
ARC
   5
229
 100
AcDbEntity
   8
LEVEL001
 370
13
   6
CONTINUOUS
  62
6
 100
AcDbCircle
  10
 4477.5398392050
  20
 4831.1483115964
  30
0.0
  40
 10.000000000000
 100
AcDbArc
  50
 285.82662013182
  51
0.0
   0
ARC
   5
22A
 100
AcDbEntity
   8
LEVEL001
 370
13
   6
CONTINUOUS
  62
6
 100
AcDbCircle
  10
 4515.0398392050
  20
 4866.3607460432
  30
0.0
  40
 27.500000000000
 100
AcDbArc
  50
0.0
  51
 90.000000000000
   0
LINE
   5
22B
 100
AcDbEntity
   8
LEVEL001
 370
13
 100
AcDbLine
   6
CONTINUOUS
  62
6
  10
 4542.5398392050
  20
 4866.3607460432
  30
0.0
  11
 4542.5398392050
  21
 4831.1483115964
  31
0.0
   0
ARC
   5
22C
 100
AcDbEntity
   8
LEVEL001
 370
13
   6
CONTINUOUS
  62
6
 100
AcDbCircle
  10
 4552.5398392050
  20
 4831.1483115964
  30
0.0
  40
 10.000000000000
 100
AcDbArc
  50
 180.00000000000
  51
 254.17337986802
   0
ARC
   5
22D
 100
AcDbEntity
   8
LEVEL001
 370
13
   6
CONTINUOUS
  62
6
 100
AcDbCircle
  10
 4647.3274047582
  20
 4736.3607460432
  30
0.0
  40
 10.000000000000
 100
AcDbArc
  50
 195.82662013192
  51
 270.00000000000
   0
ARC
   5
22E
 100
AcDbEntity
   8
LEVEL001
 370
13
   6
CONTINUOUS
  62
6
 100
AcDbCircle
  10
 4515.0398392050
  20
 4698.8607460432
  30
0.0
  40
 127.50000000000
 100
AcDbArc
  50
 15.826620131871
  51
 74.173379868137
   0
ARC
   5
22F
 100
AcDbEntity
   8
LEVEL001
 370
13
   6
CONTINUOUS
  62
6
 100
AcDbCircle
  10
 4380.1498898140
  20
 4802.3242736910
  30
0.0
  40
 20.000000000000
 100
AcDbArc
  50
 322.51100857272
  51
 52.511008572677
   0
LINE
   5
230
 100
AcDbEntity
   8
LEVEL001
 370
13
 100
AcDbLine
   6
CONTINUOUS
  62
6
  10
 4276.7286266792
  20
 4856.4449012890
  30
0.0
  11
 4367.9777100906
  21
 4786.4548678802
  31
0.0
   0
ARC
   5
231
 100
AcDbEntity
   8
LEVEL001
 370
13
   6
CONTINUOUS
  62
6
 100
AcDbCircle
  10
 4380.1498898140
  20
 4802.3242736910
  30
0.0
  40
 20.000000000000
 100
AcDbArc
  50
 232.51100857265
  51
 322.51100857272
   0
LINE
   5
232
 100
AcDbEntity
   8
LEVEL001
 370
13
 100
AcDbLine
   6
CONTINUOUS
  62
6
  10
 4392.3220695372
  20
 4818.1936795018
  30
0.0
  11
 4301.0729861258
  21
 4888.1837129104
  31
0.0
   0
ARC
   5
233
 100
AcDbEntity
   8
LEVEL001
 370
13
   6
CONTINUOUS
  62
6
 100
AcDbCircle
  10
 4288.9008064026
  20
 4872.3143070998
  30
0.0
  40
 20.000000000000
 100
AcDbArc
  50
 52.511008572718
  51
 142.51100857272
   0
ARC
   5
234
 100
AcDbEntity
   8
LEVEL001
 370
13
   6
CONTINUOUS
  62
6
 100
AcDbCircle
  10
 4288.9008064026
  20
 4872.3143070996
  30
0.0
  40
 20.000000000000
 100
AcDbArc
  50
 142.51100857269
  51
 232.51100857265
   0
ARC
   5
235
 100
AcDbEntity
   8
LEVEL001
 370
13
   6
CONTINUOUS
  62
6
 100
AcDbCircle
  10
 4380.1498898140
  20
 4595.3972183954
  30
0.0
  40
 20.000000000000
 100
AcDbArc
  50
 37.488991427315
  51
 127.48899142732
   0
ARC
   5
236
 100
AcDbEntity
   8
LEVEL001
 370
13
   6
CONTINUOUS
  62
6
 100
AcDbCircle
  10
 4380.1498898140
  20
 4595.3972183954
  30
0.0
  40
 20.000000000000
 100
AcDbArc
  50
 307.48899142735
  51
 37.488991427315
   0
LINE
   5
237
 100
AcDbEntity
   8
LEVEL001
 370
13
 100
AcDbLine
   6
CONTINUOUS
  62
6
  10
 4276.7286266792
  20
 4541.2765907974
  30
0.0
  11
 4367.9777100906
  21
 4611.2666242062
  31
0.0
   0
LINE
   5
238
 100
AcDbEntity
   8
LEVEL001
 370
13
 100
AcDbLine
   6
CONTINUOUS
  62
6
  10
 4392.3220695372
  20
 4579.5278125846
  30
0.0
  11
 4301.0729861258
  21
 4509.5377791760
  31
0.0
   0
ARC
   5
239
 100
AcDbEntity
   8
LEVEL001
 370
13
   6
CONTINUOUS
  62
6
 100
AcDbCircle
  10
 4288.9008064026
  20
 4525.4071849866
  30
0.0
  40
 20.000000000000
 100
AcDbArc
  50
 217.48899142731
  51
 307.48899142726
   0
ARC
   5
23A
 100
AcDbEntity
   8
LEVEL001
 370
13
   6
CONTINUOUS
  62
6
 100
AcDbCircle
  10
 4288.9008064026
  20
 4525.4071849868
  30
0.0
  40
 20.000000000000
 100
AcDbArc
  50
 127.48899142735
  51
 217.48899142731
   0
ARC
   5
23B
 100
AcDbEntity
   8
LEVEL001
 370
13
   6
CONTINUOUS
  62
7
 100
AcDbCircle
  10
 4393.1792631354
  20
 4736.3607460432
  30
0.0
  40
 25.000000000000
 100
AcDbArc
  50
 270.00000000000
  51
 342.89536482335
   0
ARC
   5
23C
 100
AcDbEntity
   8
LEVEL001
 370
13
   6
CONTINUOUS
  62
7
 100
AcDbCircle
  10
 4393.1792631354
  20
 4661.3607460432
  30
0.0
  40
 25.000000000000
 100
AcDbArc
  50
 17.104635176622
  51
 90.000000000000
   0
ARC
   5
23D
 100
AcDbEntity
   8
LEVEL001
 370
13
   6
CONTINUOUS
  62
7
 100
AcDbCircle
  10
 4515.0398392050
  20
 4698.8607460432
  30
0.0
  40
 102.50000000000
 100
AcDbArc
  50
 197.10463517665
  51
 252.89536482336
   0
ARC
   5
23E
 100
AcDbEntity
   8
LEVEL001
 370
13
   6
CONTINUOUS
  62
7
 100
AcDbCircle
  10
 4636.9004152746
  20
 4661.3607460432
  30
0.0
  40
 25.000000000000
 100
AcDbArc
  50
 90.000000000000
  51
 162.89536482338
   0
ARC
   5
23F
 100
AcDbEntity
   8
LEVEL001
 370
13
   6
CONTINUOUS
  62
7
 100
AcDbCircle
  10
 4515.0398392050
  20
 4698.8607460432
  30
0.0
  40
 102.50000000000
 100
AcDbArc
  50
 287.10463517664
  51
 342.89536482335
   0
ARC
   5
240
 100
AcDbEntity
   8
LEVEL001
 370
13
   6
CONTINUOUS
  62
7
 100
AcDbCircle
  10
 4636.9004152746
  20
 4736.3607460432
  30
0.0
  40
 25.000000000000
 100
AcDbArc
  50
 197.10463517665
  51
 270.00000000000
   0
ARC
   5
241
 100
AcDbEntity
   8
LEVEL001
 370
13
   6
CONTINUOUS
  62
7
 100
AcDbCircle
  10
 4552.5398392050
  20
 4820.7213221128
  30
0.0
  40
 25.000000000000
 100
AcDbArc
  50
 180.00000000000
  51
 252.89536482335
   0
ARC
   5
242
 100
AcDbEntity
   8
LEVEL001
 370
13
   6
CONTINUOUS
  62
7
 100
AcDbCircle
  10
 4515.0398392050
  20
 4698.8607460432
  30
0.0
  40
 102.50000000000
 100
AcDbArc
  50
 17.104635176637
  51
 72.895364823358
   0
ARC
   5
243
 100
AcDbEntity
   8
LEVEL001
 370
13
   6
CONTINUOUS
  62
7
 100
AcDbCircle
  10
 4477.5398392050
  20
 4820.7213221128
  30
0.0
  40
 25.000000000000
 100
AcDbArc
  50
 287.10463517665
  51
0.0
   0
ARC
   5
244
 100
AcDbEntity
   8
LEVEL001
 370
13
   6
CONTINUOUS
  62
7
 100
AcDbCircle
  10
 4515.0398392050
  20
 4698.8607460432
  30
0.0
  40
 102.50000000000
 100
AcDbArc
  50
 107.10463517664
  51
 162.89536482336
   0
LINE
   5
245
 100
AcDbEntity
   8
LEVEL001
 370
13
 100
AcDbLine
   6
CONTINUOUS
  62
7
  10
 4393.1792631354
  20
 4711.3607460432
  30
0.0
  11
 4275.0398392050
  21
 4711.3607460432
  31
0.0
   0
ARC
   5
246
 100
AcDbEntity
   8
LEVEL001
 370
13
   6
CONTINUOUS
  62
7
 100
AcDbCircle
  10
 4275.0398392050
  20
 4698.8607460432
  30
0.0
  40
 12.500000000000
 100
AcDbArc
  50
 90.000000000000
  51
 180.00000000000
   0
LINE
   5
247
 100
AcDbEntity
   8
LEVEL001
 370
13
 100
AcDbLine
   6
CONTINUOUS
  62
7
  10
 4275.0398392050
  20
 4686.3607460432
  30
0.0
  11
 4393.1792631354
  21
 4686.3607460432
  31
0.0
   0
ARC
   5
248
 100
AcDbEntity
   8
LEVEL001
 370
13
   6
CONTINUOUS
  62
7
 100
AcDbCircle
  10
 4275.0398392050
  20
 4698.8607460432
  30
0.0
  40
 12.500000000000
 100
AcDbArc
  50
 180.00000000000
  51
 270.00000000000
   0
LINE
   5
249
 100
AcDbEntity
   8
LEVEL001
 370
13
 100
AcDbLine
   6
CONTINUOUS
  62
7
  10
 4502.5398392050
  20
 4820.7213221128
  30
0.0
  11
 4502.5398392050
  21
 4863.8607460432
  31
0.0
   0
ARC
   5
24A
 100
AcDbEntity
   8
LEVEL001
 370
13
   6
CONTINUOUS
  62
7
 100
AcDbCircle
  10
 4515.0398392050
  20
 4863.8607460432
  30
0.0
  40
 12.500000000000
 100
AcDbArc
  50
 90.000000000000
  51
 180.00000000000
   0
LINE
   5
24B
 100
AcDbEntity
   8
LEVEL001
 370
13
 100
AcDbLine
   6
CONTINUOUS
  62
7
  10
 4527.5398392050
  20
 4863.8607460432
  30
0.0
  11
 4527.5398392050
  21
 4820.7213221128
  31
0.0
   0
ARC
   5
24C
 100
AcDbEntity
   8
LEVEL001
 370
13
   6
CONTINUOUS
  62
7
 100
AcDbCircle
  10
 4515.0398392050
  20
 4863.8607460432
  30
0.0
  40
 12.500000000000
 100
AcDbArc
  50
0.0
  51
 90.000000000000
   0
LINE
   5
24D
 100
AcDbEntity
   8
LEVEL001
 370
13
 100
AcDbLine
   6
CONTINUOUS
  62
7
  10
 4636.9004152746
  20
 4711.3607460432
  30
0.0
  11
 4755.0398392050
  21
 4711.3607460432
  31
0.0
   0
LINE
   5
24E
 100
AcDbEntity
   8
LEVEL001
 370
13
 100
AcDbLine
   6
CONTINUOUS
  62
7
  10
 4755.0398392050
  20
 4686.3607460432
  30
0.0
  11
 4636.9004152746
  21
 4686.3607460432
  31
0.0
   0
ARC
   5
24F
 100
AcDbEntity
   8
LEVEL001
 370
13
   6
CONTINUOUS
  62
7
 100
AcDbCircle
  10
 4651.9134643224
  20
 4803.8457961566
  30
0.0
  40
 7.4999999999998
 100
AcDbArc
  50
 127.48899142721
  51
 217.48899142721
   0
ARC
   5
250
 100
AcDbEntity
   8
LEVEL001
 370
13
   6
CONTINUOUS
  62
7
 100
AcDbCircle
  10
 4651.9134643226
  20
 4803.8457961566
  30
0.0
  40
 7.4999999999998
 100
AcDbArc
  50
 217.48899142734
  51
 307.48899142728
   0
LINE
   5
251
 100
AcDbEntity
   8
LEVEL001
 370
13
 100
AcDbLine
   6
CONTINUOUS
  62
7
  10
 4373.6016466912
  20
 4797.8947689776
  30
0.0
  11
 4286.3199147324
  21
 4864.8417574554
  31
0.0
   0
ARC
   5
252
 100
AcDbEntity
   8
LEVEL001
 370
13
   6
CONTINUOUS
  62
7
 100
AcDbCircle
  10
 4290.8844821286
  20
 4870.7927846344
  30
0.0
  40
 7.4999999999998
 100
AcDbArc
  50
 142.51100857270
  51
 232.51100857279
   0
LINE
   5
253
 100
AcDbEntity
   8
LEVEL001
 370
13
 100
AcDbLine
   6
CONTINUOUS
  62
7
  10
 4295.4490495250
  20
 4876.7438118134
  30
0.0
  11
 4382.7307814838
  21
 4809.7968233356
  31
0.0
   0
ARC
   5
254
 100
AcDbEntity
   8
LEVEL001
 370
13
   6
CONTINUOUS
  62
7
 100
AcDbCircle
  10
 4290.8844821288
  20
 4870.7927846344
  30
0.0
  40
 7.4999999999998
 100
AcDbArc
  50
 52.511008572791
  51
 142.51100857257
   0
ARC
   5
255
 100
AcDbEntity
   8
LEVEL001
 370
13
   6
CONTINUOUS
  62
7
 100
AcDbCircle
  10
 4378.1662140876
  20
 4803.8457961566
  30
0.0
  40
 7.4999999999998
 100
AcDbArc
  50
 322.51100857293
  51
 52.511008572791
   0
ARC
   5
256
 100
AcDbEntity
   8
LEVEL001
 370
13
   6
CONTINUOUS
  62
7
 100
AcDbCircle
  10
 4378.1662140874
  20
 4803.8457961566
  30
0.0
  40
 7.4999999999998
 100
AcDbArc
  50
 232.51100857255
  51
 322.51100857266
   0
ARC
   5
257
 100
AcDbEntity
   8
LEVEL001
 370
13
   6
CONTINUOUS
  62
7
 100
AcDbCircle
  10
 4755.0398392050
  20
 4698.8607460432
  30
0.0
  40
 12.500000000000
 100
AcDbArc
  50
0.0
  51
 90.000000000000
   0
ARC
   5
258
 100
AcDbEntity
   8
LEVEL001
 370
13
   6
CONTINUOUS
  62
7
 100
AcDbCircle
  10
 4755.0398392050
  20
 4698.8607460432
  30
0.0
  40
 12.500000000000
 100
AcDbArc
  50
 270.00000000000
  51
0.0
   0
LINE
   5
259
 100
AcDbEntity
   8
LEVEL001
 370
13
 100
AcDbLine
   6
CONTINUOUS
  62
7
  10
 4656.4780317188
  20
 4797.8947689776
  30
0.0
  11
 4743.7597636776
  21
 4864.8417574554
  31
0.0
   0
ARC
   5
25A
 100
AcDbEntity
   8
LEVEL001
 370
13
   6
CONTINUOUS
  62
7
 100
AcDbCircle
  10
 4739.1951962814
  20
 4870.7927846344
  30
0.0
  40
 7.4999999999998
 100
AcDbArc
  50
 307.48899142703
  51
 37.488991427344
   0
LINE
   5
25B
 100
AcDbEntity
   8
LEVEL001
 370
13
 100
AcDbLine
   6
CONTINUOUS
  62
7
  10
 4734.6306288850
  20
 4876.7438118134
  30
0.0
  11
 4647.3488969262
  21
 4809.7968233356
  31
0.0
   0
ARC
   5
25C
 100
AcDbEntity
   8
LEVEL001
 370
13
   6
CONTINUOUS
  62
7
 100
AcDbCircle
  10
 4739.1951962812
  20
 4870.7927846344
  30
0.0
  40
 7.4999999999998
 100
AcDbArc
  50
 37.488991427209
  51
 127.48899142721
   0
ARC
   5
25D
 100
AcDbEntity
   8
LEVEL001
 370
13
   6
CONTINUOUS
  62
7
 100
AcDbCircle
  10
 4477.5398392050
  20
 4577.0001699736
  30
0.0
  40
 25.000000000000
 100
AcDbArc
  50
0.0
  51
 72.895364823346
   0
ARC
   5
25E
 100
AcDbEntity
   8
LEVEL001
 370
13
   6
CONTINUOUS
  62
7
 100
AcDbCircle
  10
 4552.5398392050
  20
 4577.0001699736
  30
0.0
  40
 25.000000000000
 100
AcDbArc
  50
 107.10463517665
  51
 180.00000000000
   0
LINE
   5
25F
 100
AcDbEntity
   8
LEVEL001
 370
13
 100
AcDbLine
   6
CONTINUOUS
  62
7
  10
 4527.5398392050
  20
 4533.8607460432
  30
0.0
  11
 4527.5398392050
  21
 4577.0001699736
  31
0.0
   0
ARC
   5
260
 100
AcDbEntity
   8
LEVEL001
 370
13
   6
CONTINUOUS
  62
7
 100
AcDbCircle
  10
 4515.0398392050
  20
 4533.8607460432
  30
0.0
  40
 12.500000000000
 100
AcDbArc
  50
 270.00000000000
  51
0.0
   0
LINE
   5
261
 100
AcDbEntity
   8
LEVEL001
 370
13
 100
AcDbLine
   6
CONTINUOUS
  62
7
  10
 4502.5398392050
  20
 4577.0001699736
  30
0.0
  11
 4502.5398392050
  21
 4533.8607460432
  31
0.0
   0
ARC
   5
262
 100
AcDbEntity
   8
LEVEL001
 370
13
   6
CONTINUOUS
  62
7
 100
AcDbCircle
  10
 4515.0398392050
  20
 4533.8607460432
  30
0.0
  40
 12.500000000000
 100
AcDbArc
  50
 180.00000000000
  51
 270.00000000000
   0
LINE
   5
263
 100
AcDbEntity
   8
LEVEL001
 370
13
 100
AcDbLine
   6
CONTINUOUS
  62
7
  10
 4373.6016466912
  20
 4599.8267231090
  30
0.0
  11
 4286.3199147324
  21
 4532.8797346310
  31
0.0
   0
LINE
   5
264
 100
AcDbEntity
   8
LEVEL001
 370
13
 100
AcDbLine
   6
CONTINUOUS
  62
7
  10
 4295.4490495250
  20
 4520.9776802730
  30
0.0
  11
 4382.7307814838
  21
 4587.9246687508
  31
0.0
   0
ARC
   5
265
 100
AcDbEntity
   8
LEVEL001
 370
13
   6
CONTINUOUS
  62
7
 100
AcDbCircle
  10
 4378.1662140876
  20
 4593.8756959298
  30
0.0
  40
 7.4999999999998
 100
AcDbArc
  50
 307.48899142734
  51
 37.488991427250
   0
ARC
   5
266
 100
AcDbEntity
   8
LEVEL001
 370
13
   6
CONTINUOUS
  62
7
 100
AcDbCircle
  10
 4378.1662140874
  20
 4593.8756959298
  30
0.0
  40
 7.4999999999998
 100
AcDbArc
  50
 37.488991427344
  51
 127.48899142752
   0
LINE
   5
267
 100
AcDbEntity
   8
LEVEL001
 370
13
 100
AcDbLine
   6
CONTINUOUS
  62
7
  10
 4656.4780317188
  20
 4599.8267231090
  30
0.0
  11
 4743.7597636776
  21
 4532.8797346310
  31
0.0
   0
ARC
   5
268
 100
AcDbEntity
   8
LEVEL001
 370
13
   6
CONTINUOUS
  62
7
 100
AcDbCircle
  10
 4739.1951962814
  20
 4526.9287074520
  30
0.0
  40
 7.4999999999998
 100
AcDbArc
  50
 322.51100857248
  51
 52.511008572900
   0
LINE
   5
269
 100
AcDbEntity
   8
LEVEL001
 370
13
 100
AcDbLine
   6
CONTINUOUS
  62
7
  10
 4734.6306288850
  20
 4520.9776802730
  30
0.0
  11
 4647.3488969262
  21
 4587.9246687508
  31
0.0
   0
ARC
   5
26A
 100
AcDbEntity
   8
LEVEL001
 370
13
   6
CONTINUOUS
  62
7
 100
AcDbCircle
  10
 4739.1951962812
  20
 4526.9287074520
  30
0.0
  40
 7.4999999999998
 100
AcDbArc
  50
 232.51100857279
  51
 322.51100857261
   0
ARC
   5
26B
 100
AcDbEntity
   8
LEVEL001
 370
13
   6
CONTINUOUS
  62
7
 100
AcDbCircle
  10
 4651.9134643226
  20
 4593.8756959298
  30
0.0
  40
 7.4999999999998
 100
AcDbArc
  50
 142.51100857266
  51
 232.51100857261
   0
ARC
   5
26C
 100
AcDbEntity
   8
LEVEL001
 370
13
   6
CONTINUOUS
  62
7
 100
AcDbCircle
  10
 4651.9134643226
  20
 4593.8756959298
  30
0.0
  40
 7.4999999999998
 100
AcDbArc
  50
 52.511008572656
  51
 142.51100857266
   0
ARC
   5
26D
 100
AcDbEntity
   8
LEVEL001
 370
13
   6
CONTINUOUS
  62
7
 100
AcDbCircle
  10
 4290.8844821286
  20
 4526.9287074520
  30
0.0
  40
 7.4999999999998
 100
AcDbArc
  50
 127.48899142728
  51
 217.48899142739
   0
ARC
   5
26E
 100
AcDbEntity
   8
LEVEL001
 370
13
   6
CONTINUOUS
  62
7
 100
AcDbCircle
  10
 4290.8844821288
  20
 4526.9287074520
  30
0.0
  40
 7.4999999999998
 100
AcDbArc
  50
 217.48899142752
  51
 307.48899142721
   0
ARC
   5
26F
 100
AcDbEntity
   8
LEVEL001
 370
13
   6
CONTINUOUS
  62
7
 100
AcDbCircle
  10
 4747.5398392050
  20
 4856.3607460432
  30
0.0
  40
 65.000000000000
 100
AcDbArc
  50
0.0
  51
 90.000000000000
   0
LINE
   5
270
 100
AcDbEntity
   8
LEVEL001
 370
13
 100
AcDbLine
   6
CONTINUOUS
  62
7
  10
 4812.5398392050
  20
 4541.3607460432
  30
0.0
  11
 4812.5398392050
  21
 4856.3607460432
  31
0.0
   0
ARC
   5
271
 100
AcDbEntity
   8
LEVEL001
 370
13
   6
CONTINUOUS
  62
7
 100
AcDbCircle
  10
 4747.5398392050
  20
 4541.3607460432
  30
0.0
  40
 65.000000000000
 100
AcDbArc
  50
 270.00000000000
  51
0.0
   0
ARC
   5
272
 100
AcDbEntity
   8
LEVEL001
 370
13
   6
CONTINUOUS
  62
7
 100
AcDbCircle
  10
 4747.5398392050
  20
 4856.3607460432
  30
0.0
  40
 90.900000000000
 100
AcDbArc
  50
0.0
  51
 90.000000000000
   0
ARC
   5
273
 100
AcDbEntity
   8
LEVEL001
 370
13
   6
CONTINUOUS
  62
7
 100
AcDbCircle
  10
 4747.5398392050
  20
 4856.3607460432
  30
0.0
  40
 75.000000000000
 100
AcDbArc
  50
0.0
  51
 90.000000000000
   0
LINE
   5
274
 100
AcDbEntity
   8
LEVEL001
 370
13
 100
AcDbLine
   6
CONTINUOUS
  62
7
  10
 4838.4398392050
  20
 4541.3607460432
  30
0.0
  11
 4838.4398392050
  21
 4856.3607460432
  31
0.0
   0
LINE
   5
275
 100
AcDbEntity
   8
LEVEL001
 370
13
 100
AcDbLine
   6
CONTINUOUS
  62
7
  10
 4822.5398392050
  20
 4856.3607460432
  30
0.0
  11
 4822.5398392050
  21
 4541.3607460432
  31
0.0
   0
ARC
   5
276
 100
AcDbEntity
   8
LEVEL001
 370
13
   6
CONTINUOUS
  62
7
 100
AcDbCircle
  10
 4747.5398392050
  20
 4541.3607460432
  30
0.0
  40
 90.900000000000
 100
AcDbArc
  50
 270.00000000000
  51
0.0
   0
ARC
   5
277
 100
AcDbEntity
   8
LEVEL001
 370
13
   6
CONTINUOUS
  62
7
 100
AcDbCircle
  10
 4747.5398392050
  20
 4541.3607460432
  30
0.0
  40
 75.000000000000
 100
AcDbArc
  50
 270.00000000000
  51
0.0
   0
LINE
   5
278
 100
AcDbEntity
   8
LEVEL001
 370
13
 100
AcDbLine
   6
CONTINUOUS
  62
7
  10
 4282.5398392050
  20
 4476.3607460432
  30
0.0
  11
 4747.5398392050
  21
 4476.3607460432
  31
0.0
   0
ARC
   5
279
 100
AcDbEntity
   8
LEVEL001
 370
13
   6
CONTINUOUS
  62
7
 100
AcDbCircle
  10
 4282.5398392050
  20
 4541.3607460432
  30
0.0
  40
 65.000000000000
 100
AcDbArc
  50
 180.00000000000
  51
 270.00000000000
   0
LINE
   5
27A
 100
AcDbEntity
   8
LEVEL001
 370
13
 100
AcDbLine
   6
CONTINUOUS
  62
7
  10
 4282.5398392050
  20
 4450.4607460432
  30
0.0
  11
 4747.5398392050
  21
 4450.4607460432
  31
0.0
   0
LINE
   5
27B
 100
AcDbEntity
   8
LEVEL001
 370
13
 100
AcDbLine
   6
CONTINUOUS
  62
7
  10
 4282.5398392050
  20
 4466.3607460432
  30
0.0
  11
 4747.5398392050
  21
 4466.3607460432
  31
0.0
   0
ARC
   5
27C
 100
AcDbEntity
   8
LEVEL001
 370
13
   6
CONTINUOUS
  62
7
 100
AcDbCircle
  10
 4282.5398392050
  20
 4541.3607460432
  30
0.0
  40
 90.900000000000
 100
AcDbArc
  50
 180.00000000000
  51
 270.00000000000
   0
ARC
   5
27D
 100
AcDbEntity
   8
LEVEL001
 370
13
   6
CONTINUOUS
  62
7
 100
AcDbCircle
  10
 4282.5398392050
  20
 4541.3607460432
  30
0.0
  40
 75.000000000000
 100
AcDbArc
  50
 180.00000000000
  51
 270.00000000000
   0
ARC
   5
27E
 100
AcDbEntity
   8
LEVEL001
 370
13
   6
CONTINUOUS
  62
7
 100
AcDbCircle
  10
 4282.5398392050
  20
 4856.3607460432
  30
0.0
  40
 65.000000000000
 100
AcDbArc
  50
 90.000000000000
  51
 180.00000000000
   0
ARC
   5
27F
 100
AcDbEntity
   8
LEVEL001
 370
13
   6
CONTINUOUS
  62
7
 100
AcDbCircle
  10
 4282.5398392050
  20
 4856.3607460432
  30
0.0
  40
 90.900000000000
 100
AcDbArc
  50
 90.000000000000
  51
 180.00000000000
   0
ARC
   5
280
 100
AcDbEntity
   8
LEVEL001
 370
13
   6
CONTINUOUS
  62
7
 100
AcDbCircle
  10
 4282.5398392050
  20
 4856.3607460432
  30
0.0
  40
 75.000000000000
 100
AcDbArc
  50
 90.000000000000
  51
 180.00000000000
   0
LINE
   5
281
 100
AcDbEntity
   8
LEVEL001
 370
13
 100
AcDbLine
   6
CONTINUOUS
  62
7
  10
 4747.5398392050
  20
 4921.3607460432
  30
0.0
  11
 4282.5398392050
  21
 4921.3607460432
  31
0.0
   0
LINE
   5
282
 100
AcDbEntity
   8
LEVEL001
 370
13
 100
AcDbLine
   6
CONTINUOUS
  62
7
  10
 4747.5398392050
  20
 4947.2607460432
  30
0.0
  11
 4282.5398392050
  21
 4947.2607460432
  31
0.0
   0
LINE
   5
283
 100
AcDbEntity
   8
LEVEL001
 370
13
 100
AcDbLine
   6
CONTINUOUS
  62
7
  10
 4747.5398392050
  20
 4931.3607460432
  30
0.0
  11
 4282.5398392050
  21
 4931.3607460432
  31
0.0
   0
LINE
   5
284
 100
AcDbEntity
   8
LEVEL001
 370
13
 100
AcDbLine
   6
DASHDOT
  62
6
  10
 4165.0398392050
  20
 4698.8607460432
  30
0.0
  11
 4865.0398392050
  21
 4698.8607460432
  31
0.0
   0
LINE
   5
285
 100
AcDbEntity
   8
LEVEL001
 370
13
 100
AcDbLine
   6
DASHDOT
  62
6
  10
 4515.0398392050
  20
 4973.8607460432
  30
0.0
  11
 4515.0398392050
  21
 4423.8607460432
  31
0.0
   0
LINE
   5
286
 100
AcDbEntity
   8
LEVEL001
 370
13
 100
AcDbLine
   6
CONTINUOUS
  62
7
  10
 4217.5398392050
  20
 4856.3607460432
  30
0.0
  11
 4217.5398392050
  21
 4541.3607460432
  31
0.0
   0
LINE
   5
287
 100
AcDbEntity
   8
LEVEL001
 370
13
 100
AcDbLine
   6
CONTINUOUS
  62
7
  10
 4191.6398392050
  20
 4856.3607460432
  30
0.0
  11
 4191.6398392050
  21
 4541.3607460432
  31
0.0
   0
LINE
   5
288
 100
AcDbEntity
   8
LEVEL001
 370
13
 100
AcDbLine
   6
CONTINUOUS
  62
7
  10
 4207.5398392050
  20
 4856.3607460432
  30
0.0
  11
 4207.5398392050
  21
 4541.3607460432
  31
0.0
   0
LINE
   5
289
 100
AcDbEntity
   8
LEVEL001
 370
13
 100
AcDbLine
   6
CONTINUOUS
  62
7
  10
 2147.5398392050
  20
 4926.3607460432
  30
0.0
  11
 1682.5398392050
  21
 4926.3607460432
  31
0.0
   0
LINE
   5
28A
 100
AcDbEntity
   8
LEVEL001
 370
13
 100
AcDbLine
   6
CONTINUOUS
  62
3
  10
 2147.5398392050
  20
 4931.3607460432
  30
0.0
  11
 1682.5398392050
  21
 4931.3607460432
  31
0.0
   0
LINE
   5
28B
 100
AcDbEntity
   8
LEVEL001
 370
13
 100
AcDbLine
   6
CONTINUOUS
  62
3
  10
 2147.5398392050
  20
 4947.2607460432
  30
0.0
  11
 1682.5398392050
  21
 4947.2607460432
  31
0.0
   0
LINE
   5
28C
 100
AcDbEntity
   8
LEVEL001
 370
13
 100
AcDbLine
   6
CONTINUOUS
  62
1
  10
 2147.5398392050
  20
 4927.2607460432
  30
0.0
  11
 1682.5398392050
  21
 4927.2607460432
  31
0.0
   0
ARC
   5
28D
 100
AcDbEntity
   8
LEVEL001
 370
13
   6
CONTINUOUS
  62
1
 100
AcDbCircle
  10
 1682.5398392050
  20
 4856.3607460432
  30
0.0
  40
 70.900000000000
 100
AcDbArc
  50
 90.000000000000
  51
 180.00000000000
   0
ARC
   5
28E
 100
AcDbEntity
   8
LEVEL001
 370
13
   6
CONTINUOUS
  62
1
 100
AcDbCircle
  10
 2147.5398392050
  20
 4856.3607460432
  30
0.0
  40
 70.900000000000
 100
AcDbArc
  50
0.0
  51
 90.000000000000
   0
LINE
   5
28F
 100
AcDbEntity
   8
LEVEL001
 370
13
 100
AcDbLine
   6
CONTINUOUS
  62
1
  10
 2218.4398392050
  20
 4757.2607460432
  30
0.0
  11
 2218.4398392050
  21
 4856.3607460432
  31
0.0
   0
LINE
   5
290
 100
AcDbEntity
   8
LEVEL001
 370
13
 100
AcDbLine
   6
CONTINUOUS
  62
1
  10
 1611.6398392050
  20
 4856.3607460432
  30
0.0
  11
 1611.6398392050
  21
 4757.2607460432
  31
0.0
   0
LINE
   5
291
 100
AcDbEntity
   8
LEVEL001
 370
13
 100
AcDbLine
   6
CONTINUOUS
  62
1
  10
 1612.5398392050
  20
 4757.2607460432
  30
0.0
  11
 1611.6398392050
  21
 4757.2607460432
  31
0.0
   0
LINE
   5
292
 100
AcDbEntity
   8
LEVEL001
 370
13
 100
AcDbLine
   6
CONTINUOUS
  62
1
  10
 2217.5398392050
  20
 4757.2607460432
  30
0.0
  11
 2218.4398392050
  21
 4757.2607460432
  31
0.0
   0
ARC
   5
293
 100
AcDbEntity
   8
LEVEL001
 370
13
   6
CONTINUOUS
  62
7
 100
AcDbCircle
  10
 1682.5398392050
  20
 4856.3607460432
  30
0.0
  40
 70.000000000000
 100
AcDbArc
  50
 90.000000000000
  51
 180.00000000000
   0
ARC
   5
294
 100
AcDbEntity
   8
LEVEL001
 370
13
   6
CONTINUOUS
  62
3
 100
AcDbCircle
  10
 1682.5398392050
  20
 4856.3607460432
  30
0.0
  40
 75.000000000000
 100
AcDbArc
  50
 90.000000000000
  51
 180.00000000000
   0
ARC
   5
295
 100
AcDbEntity
   8
LEVEL001
 370
13
   6
CONTINUOUS
  62
3
 100
AcDbCircle
  10
 1682.5398392050
  20
 4856.3607460432
  30
0.0
  40
 90.900000000000
 100
AcDbArc
  50
 90.000000000000
  51
 180.00000000000
   0
LINE
   5
296
 100
AcDbEntity
   8
LEVEL001
 370
13
 100
AcDbLine
   6
CONTINUOUS
  62
7
  10
 1682.5398392050
  20
 4471.3607460432
  30
0.0
  11
 2147.5398392050
  21
 4471.3607460432
  31
0.0
   0
LINE
   5
297
 100
AcDbEntity
   8
LEVEL001
 370
13
 100
AcDbLine
   6
CONTINUOUS
  62
3
  10
 1682.5398392050
  20
 4466.3607460432
  30
0.0
  11
 2147.5398392050
  21
 4466.3607460432
  31
0.0
   0
LINE
   5
298
 100
AcDbEntity
   8
LEVEL001
 370
13
 100
AcDbLine
   6
CONTINUOUS
  62
3
  10
 1682.5398392050
  20
 4450.4607460432
  30
0.0
  11
 2147.5398392050
  21
 4450.4607460432
  31
0.0
   0
ARC
   5
299
 100
AcDbEntity
   8
LEVEL001
 370
13
   6
CONTINUOUS
  62
7
 100
AcDbCircle
  10
 1682.5398392050
  20
 4541.3607460432
  30
0.0
  40
 70.000000000000
 100
AcDbArc
  50
 180.00000000000
  51
 270.00000000000
   0
ARC
   5
29A
 100
AcDbEntity
   8
LEVEL001
 370
13
   6
CONTINUOUS
  62
3
 100
AcDbCircle
  10
 1682.5398392050
  20
 4541.3607460432
  30
0.0
  40
 75.000000000000
 100
AcDbArc
  50
 180.00000000000
  51
 270.00000000000
   0
ARC
   5
29B
 100
AcDbEntity
   8
LEVEL001
 370
13
   6
CONTINUOUS
  62
3
 100
AcDbCircle
  10
 1682.5398392050
  20
 4541.3607460432
  30
0.0
  40
 90.900000000000
 100
AcDbArc
  50
 180.00000000000
  51
 270.00000000000
   0
LINE
   5
29C
 100
AcDbEntity
   8
LEVEL001
 370
13
 100
AcDbLine
   6
DASHDOT
  62
6
  10
 1915.0398392050
  20
 4398.8607460432
  30
0.0
  11
 1915.0398392050
  21
 4998.8607460432
  31
0.0
   0
LINE
   5
29D
 100
AcDbEntity
   8
LEVEL001
 370
13
 100
AcDbLine
   6
CONTINUOUS
  62
7
  10
 1612.5398392050
  20
 4856.3607460432
  30
0.0
  11
 1612.5398392050
  21
 4541.3607460432
  31
0.0
   0
LINE
   5
29E
 100
AcDbEntity
   8
LEVEL001
 370
13
 100
AcDbLine
   6
CONTINUOUS
  62
3
  10
 1607.5398392050
  20
 4856.3607460432
  30
0.0
  11
 1607.5398392050
  21
 4541.3607460432
  31
0.0
   0
ARC
   5
29F
 100
AcDbEntity
   8
LEVEL001
 370
13
   6
CONTINUOUS
  62
7
 100
AcDbCircle
  10
 2147.5398392050
  20
 4541.3607460432
  30
0.0
  40
 70.000000000000
 100
AcDbArc
  50
 270.00000000000
  51
0.0
   0
ARC
   5
2A0
 100
AcDbEntity
   8
LEVEL001
 370
13
   6
CONTINUOUS
  62
3
 100
AcDbCircle
  10
 2147.5398392050
  20
 4541.3607460432
  30
0.0
  40
 75.000000000000
 100
AcDbArc
  50
 270.00000000000
  51
0.0
   0
ARC
   5
2A1
 100
AcDbEntity
   8
LEVEL001
 370
13
   6
CONTINUOUS
  62
3
 100
AcDbCircle
  10
 2147.5398392050
  20
 4541.3607460432
  30
0.0
  40
 90.900000000000
 100
AcDbArc
  50
 270.00000000000
  51
0.0
   0
ARC
   5
2A2
 100
AcDbEntity
   8
LEVEL001
 370
13
   6
CONTINUOUS
  62
7
 100
AcDbCircle
  10
 2147.5398392050
  20
 4856.3607460432
  30
0.0
  40
 70.000000000000
 100
AcDbArc
  50
0.0
  51
 90.000000000000
   0
ARC
   5
2A3
 100
AcDbEntity
   8
LEVEL001
 370
13
   6
CONTINUOUS
  62
3
 100
AcDbCircle
  10
 2147.5398392050
  20
 4856.3607460432
  30
0.0
  40
 75.000000000000
 100
AcDbArc
  50
0.0
  51
 90.000000000000
   0
ARC
   5
2A4
 100
AcDbEntity
   8
LEVEL001
 370
13
   6
CONTINUOUS
  62
3
 100
AcDbCircle
  10
 2147.5398392050
  20
 4856.3607460432
  30
0.0
  40
 90.900000000000
 100
AcDbArc
  50
0.0
  51
 90.000000000000
   0
LINE
   5
2A5
 100
AcDbEntity
   8
LEVEL001
 370
13
 100
AcDbLine
   6
CONTINUOUS
  62
7
  10
 2217.5398392050
  20
 4541.3607460432
  30
0.0
  11
 2217.5398392050
  21
 4856.3607460432
  31
0.0
   0
LINE
   5
2A6
 100
AcDbEntity
   8
LEVEL001
 370
13
 100
AcDbLine
   6
CONTINUOUS
  62
3
  10
 2222.5398392050
  20
 4541.3607460432
  30
0.0
  11
 2222.5398392050
  21
 4856.3607460432
  31
0.0
   0
LINE
   5
2A7
 100
AcDbEntity
   8
LEVEL001
 370
13
 100
AcDbLine
   6
CONTINUOUS
  62
3
  10
 2238.4398392050
  20
 4541.3607460432
  30
0.0
  11
 2238.4398392050
  21
 4856.3607460432
  31
0.0
   0
LINE
   5
2A8
 100
AcDbEntity
   8
LEVEL001
 370
13
 100
AcDbLine
   6
CONTINUOUS
  62
3
  10
 1591.6398392050
  20
 4856.3607460432
  30
0.0
  11
 1591.6398392050
  21
 4541.3607460432
  31
0.0
   0
LINE
   5
2A9
 100
AcDbEntity
   8
LEVEL001
 370
13
 100
AcDbLine
   6
CONTINUOUS
  62
7
  10
 1347.5398392050
  20
 4926.3607460432
  30
0.0
  11
 882.53983920500
  21
 4926.3607460432
  31
0.0
   0
LINE
   5
2AA
 100
AcDbEntity
   8
LEVEL001
 370
13
 100
AcDbLine
   6
CONTINUOUS
  62
3
  10
 1347.5398392050
  20
 4931.3607460432
  30
0.0
  11
 882.53983920500
  21
 4931.3607460432
  31
0.0
   0
LINE
   5
2AB
 100
AcDbEntity
   8
LEVEL001
 370
13
 100
AcDbLine
   6
CONTINUOUS
  62
3
  10
 1347.5398392050
  20
 4947.2607460432
  30
0.0
  11
 882.53983920500
  21
 4947.2607460432
  31
0.0
   0
LINE
   5
2AC
 100
AcDbEntity
   8
LEVEL001
 370
13
 100
AcDbLine
   6
CONTINUOUS
  62
1
  10
 1347.5398392050
  20
 4927.2607460432
  30
0.0
  11
 882.53983920500
  21
 4927.2607460432
  31
0.0
   0
ARC
   5
2AD
 100
AcDbEntity
   8
LEVEL001
 370
13
   6
CONTINUOUS
  62
1
 100
AcDbCircle
  10
 882.53983920500
  20
 4856.3607460432
  30
0.0
  40
 70.900000000000
 100
AcDbArc
  50
 90.000000000000
  51
 180.00000000000
   0
ARC
   5
2AE
 100
AcDbEntity
   8
LEVEL001
 370
13
   6
CONTINUOUS
  62
1
 100
AcDbCircle
  10
 1347.5398392050
  20
 4856.3607460432
  30
0.0
  40
 70.900000000000
 100
AcDbArc
  50
0.0
  51
 90.000000000000
   0
LINE
   5
2AF
 100
AcDbEntity
   8
LEVEL001
 370
13
 100
AcDbLine
   6
CONTINUOUS
  62
1
  10
 1418.4398392050
  20
 4757.2607460432
  30
0.0
  11
 1418.4398392050
  21
 4856.3607460432
  31
0.0
   0
LINE
   5
2B0
 100
AcDbEntity
   8
LEVEL001
 370
13
 100
AcDbLine
   6
CONTINUOUS
  62
1
  10
 811.63983920501
  20
 4856.3607460432
  30
0.0
  11
 811.63983920501
  21
 4757.2607460432
  31
0.0
   0
LINE
   5
2B1
 100
AcDbEntity
   8
LEVEL001
 370
13
 100
AcDbLine
   6
CONTINUOUS
  62
1
  10
 812.53983920500
  20
 4757.2607460432
  30
0.0
  11
 811.63983920501
  21
 4757.2607460432
  31
0.0
   0
LINE
   5
2B2
 100
AcDbEntity
   8
LEVEL001
 370
13
 100
AcDbLine
   6
CONTINUOUS
  62
1
  10
 1417.5398392050
  20
 4757.2607460432
  30
0.0
  11
 1418.4398392050
  21
 4757.2607460432
  31
0.0
   0
ARC
   5
2B3
 100
AcDbEntity
   8
LEVEL001
 370
13
   6
CONTINUOUS
  62
7
 100
AcDbCircle
  10
 882.53983920500
  20
 4856.3607460432
  30
0.0
  40
 70.000000000000
 100
AcDbArc
  50
 90.000000000000
  51
 180.00000000000
   0
ARC
   5
2B4
 100
AcDbEntity
   8
LEVEL001
 370
13
   6
CONTINUOUS
  62
3
 100
AcDbCircle
  10
 882.53983920500
  20
 4856.3607460432
  30
0.0
  40
 75.000000000000
 100
AcDbArc
  50
 90.000000000000
  51
 180.00000000000
   0
ARC
   5
2B5
 100
AcDbEntity
   8
LEVEL001
 370
13
   6
CONTINUOUS
  62
3
 100
AcDbCircle
  10
 882.53983920500
  20
 4856.3607460432
  30
0.0
  40
 90.900000000000
 100
AcDbArc
  50
 90.000000000000
  51
 180.00000000000
   0
LINE
   5
2B6
 100
AcDbEntity
   8
LEVEL001
 370
13
 100
AcDbLine
   6
CONTINUOUS
  62
7
  10
 882.53983920500
  20
 4471.3607460432
  30
0.0
  11
 1347.5398392050
  21
 4471.3607460432
  31
0.0
   0
LINE
   5
2B7
 100
AcDbEntity
   8
LEVEL001
 370
13
 100
AcDbLine
   6
CONTINUOUS
  62
3
  10
 882.53983920500
  20
 4466.3607460432
  30
0.0
  11
 1347.5398392050
  21
 4466.3607460432
  31
0.0
   0
LINE
   5
2B8
 100
AcDbEntity
   8
LEVEL001
 370
13
 100
AcDbLine
   6
CONTINUOUS
  62
3
  10
 882.53983920500
  20
 4450.4607460432
  30
0.0
  11
 1347.5398392050
  21
 4450.4607460432
  31
0.0
   0
ARC
   5
2B9
 100
AcDbEntity
   8
LEVEL001
 370
13
   6
CONTINUOUS
  62
7
 100
AcDbCircle
  10
 882.53983920500
  20
 4541.3607460432
  30
0.0
  40
 70.000000000000
 100
AcDbArc
  50
 180.00000000000
  51
 270.00000000000
   0
ARC
   5
2BA
 100
AcDbEntity
   8
LEVEL001
 370
13
   6
CONTINUOUS
  62
3
 100
AcDbCircle
  10
 882.53983920500
  20
 4541.3607460432
  30
0.0
  40
 75.000000000000
 100
AcDbArc
  50
 180.00000000000
  51
 270.00000000000
   0
ARC
   5
2BB
 100
AcDbEntity
   8
LEVEL001
 370
13
   6
CONTINUOUS
  62
3
 100
AcDbCircle
  10
 882.53983920500
  20
 4541.3607460432
  30
0.0
  40
 90.900000000000
 100
AcDbArc
  50
 180.00000000000
  51
 270.00000000000
   0
LINE
   5
2BC
 100
AcDbEntity
   8
LEVEL001
 370
13
 100
AcDbLine
   6
DASHDOT
  62
6
  10
 1115.0398392050
  20
 4398.8607460432
  30
0.0
  11
 1115.0398392050
  21
 4998.8607460432
  31
0.0
   0
ARC
   5
2BD
 100
AcDbEntity
   8
LEVEL001
 370
13
   6
CONTINUOUS
  62
7
 100
AcDbCircle
  10
 1347.5398392050
  20
 4856.3607460432
  30
0.0
  40
 70.000000000000
 100
AcDbArc
  50
0.0
  51
 90.000000000000
   0
ARC
   5
2BE
 100
AcDbEntity
   8
LEVEL001
 370
13
   6
CONTINUOUS
  62
3
 100
AcDbCircle
  10
 1347.5398392050
  20
 4856.3607460432
  30
0.0
  40
 75.000000000000
 100
AcDbArc
  50
0.0
  51
 90.000000000000
   0
ARC
   5
2BF
 100
AcDbEntity
   8
LEVEL001
 370
13
   6
CONTINUOUS
  62
3
 100
AcDbCircle
  10
 1347.5398392050
  20
 4856.3607460432
  30
0.0
  40
 90.900000000000
 100
AcDbArc
  50
0.0
  51
 90.000000000000
   0
LINE
   5
2C0
 100
AcDbEntity
   8
LEVEL001
 370
13
 100
AcDbLine
   6
CONTINUOUS
  62
7
  10
 1417.5398392050
  20
 4541.3607460432
  30
0.0
  11
 1417.5398392050
  21
 4856.3607460432
  31
0.0
   0
LINE
   5
2C1
 100
AcDbEntity
   8
LEVEL001
 370
13
 100
AcDbLine
   6
CONTINUOUS
  62
3
  10
 1422.5398392050
  20
 4541.3607460432
  30
0.0
  11
 1422.5398392050
  21
 4856.3607460432
  31
0.0
   0
ARC
   5
2C2
 100
AcDbEntity
   8
LEVEL001
 370
13
   6
CONTINUOUS
  62
7
 100
AcDbCircle
  10
 1347.5398392050
  20
 4541.3607460432
  30
0.0
  40
 70.000000000000
 100
AcDbArc
  50
 270.00000000000
  51
0.0
   0
ARC
   5
2C3
 100
AcDbEntity
   8
LEVEL001
 370
13
   6
CONTINUOUS
  62
3
 100
AcDbCircle
  10
 1347.5398392050
  20
 4541.3607460432
  30
0.0
  40
 75.000000000000
 100
AcDbArc
  50
 270.00000000000
  51
0.0
   0
ARC
   5
2C4
 100
AcDbEntity
   8
LEVEL001
 370
13
   6
CONTINUOUS
  62
3
 100
AcDbCircle
  10
 1347.5398392050
  20
 4541.3607460432
  30
0.0
  40
 90.900000000000
 100
AcDbArc
  50
 270.00000000000
  51
0.0
   0
LINE
   5
2C5
 100
AcDbEntity
   8
LEVEL001
 370
13
 100
AcDbLine
   6
CONTINUOUS
  62
3
  10
 1438.4398392050
  20
 4541.3607460432
  30
0.0
  11
 1438.4398392050
  21
 4856.3607460432
  31
0.0
   0
LINE
   5
2C6
 100
AcDbEntity
   8
LEVEL001
 370
13
 100
AcDbLine
   6
CONTINUOUS
  62
7
  10
 812.53983920500
  20
 4856.3607460432
  30
0.0
  11
 812.53983920500
  21
 4541.3607460432
  31
0.0
   0
LINE
   5
2C7
 100
AcDbEntity
   8
LEVEL001
 370
13
 100
AcDbLine
   6
CONTINUOUS
  62
3
  10
 807.53983920500
  20
 4856.3607460432
  30
0.0
  11
 807.53983920500
  21
 4541.3607460432
  31
0.0
   0
LINE
   5
2C8
 100
AcDbEntity
   8
LEVEL001
 370
13
 100
AcDbLine
   6
CONTINUOUS
  62
3
  10
 791.63983920501
  20
 4856.3607460432
  30
0.0
  11
 791.63983920501
  21
 4541.3607460432
  31
0.0
   0
LINE
   5
2C9
 100
AcDbEntity
   8
LEVEL001
 370
13
 100
AcDbLine
   6
DASHDOT
  62
6
  10
 2290.4898392050
  20
 4698.8607460432
  30
0.0
  11
 1515.0398392050
  21
 4698.8607460432
  31
0.0
   0
LINE
   5
2CA
 100
AcDbEntity
   8
LEVEL001
 370
13
 100
AcDbLine
   6
DASHDOT
  62
6
  10
 739.58983920502
  20
 4698.8607460432
  30
0.0
  11
 1515.0398392050
  21
 4698.8607460432
  31
0.0
   0
LINE
   5
2CB
 100
AcDbEntity
   8
LEVEL001
 370
13
 100
AcDbLine
   6
CONTINUOUS
  62
7
  10
 1438.4398392050
  20
 4743.8097691122
  30
0.0
  11
 1475.6884415170
  21
 4767.0852790986
  31
0.0
   0
LINE
   5
2CC
 100
AcDbEntity
   8
LEVEL001
 370
13
 100
AcDbLine
   6
CONTINUOUS
  62
7
  10
 1475.6884415170
  20
 4767.0852790986
  30
0.0
  11
 1475.6884415170
  21
 4696.3345748968
  31
0.0
   0
LINE
   5
2CD
 100
AcDbEntity
   8
LEVEL001
 370
13
 100
AcDbLine
   6
CONTINUOUS
  62
7
  10
 1475.6884415170
  20
 4696.3345748968
  30
0.0
  11
 1443.7235670664
  21
 4676.3607045150
  31
0.0
   0
LINE
   5
2CE
 100
AcDbEntity
   8
LEVEL001
 370
13
 100
AcDbLine
   6
CONTINUOUS
  62
7
  10
 1591.6398392050
  20
 4641.3607045150
  30
0.0
  11
 1554.3912368930
  21
 4641.3607045150
  31
0.0
   0
LINE
   5
2CF
 100
AcDbEntity
   8
LEVEL001
 370
13
 100
AcDbLine
   6
CONTINUOUS
  62
7
  10
 1554.3912368930
  20
 4641.3607045150
  30
0.0
  11
 1554.3912368930
  21
 4581.3607045150
  31
0.0
   0
LINE
   5
2D0
 100
AcDbEntity
   8
LEVEL001
 370
13
 100
AcDbLine
   6
CONTINUOUS
  62
7
  10
 1554.3912368930
  20
 4581.3607045150
  30
0.0
  11
 1591.6398392050
  21
 4581.3607045150
  31
0.0
   0
LEADER
   5
2D1
 100
AcDbEntity
   8
LEVEL001
 370
13
   6
CONTINUOUS
  62
1
 100
AcDbLeader
   3
GMM002
  73
3
  74
1
  75
0
  40
 60.000000000000
  41
0.0
  76
2
  10
 2147.5398392050
  20
 4927.2607460432
  30
0.0
  10
 2272.9923974316
  20
 5092.8963614022
  30
0.0
  77
1
   0
LINE
   5
2D2
 100
AcDbEntity
   8
LEVEL001
 370
13
 100
AcDbLine
   6
CONTINUOUS
  62
6
  10
 3250.3947405266
  20
 4741.2984833640
  30
0.0
  11
 3250.3947405266
  21
 4783.8607460432
  31
0.0
   0
LINE
   5
2D3
 100
AcDbEntity
   8
LEVEL001
 370
13
 100
AcDbLine
   6
CONTINUOUS
  62
6
  10
 3250.3947405266
  20
 4683.8607460432
  30
0.0
  11
 3250.3947405266
  21
 4726.4230087224
  31
0.0
   0
LINE
   5
2D4
 100
AcDbEntity
   8
LEVEL001
 370
13
 100
AcDbLine
   6
CONTINUOUS
  62
6
  10
 3179.6849378834
  20
 4631.2984833640
  30
0.0
  11
 3179.6849378834
  21
 4673.8607460432
  31
0.0
   0
LINE
   5
2D5
 100
AcDbEntity
   8
LEVEL001
 370
13
 100
AcDbLine
   6
CONTINUOUS
  62
6
  10
 3179.6849378834
  20
 4573.8607460432
  30
0.0
  11
 3179.6849378834
  21
 4616.4230087224
  31
0.0
   0
LINE
   5
2D6
 100
AcDbEntity
   8
LEVEL001
 370
13
 100
AcDbLine
   6
CONTINUOUS
  62
7
  10
 3175.6884415170
  20
 4769.5853206268
  30
0.0
  11
 3175.6884415170
  21
 4698.8346164250
  31
0.0
   0
LINE
   5
2D7
 100
AcDbEntity
   8
LEVEL001
 370
13
 100
AcDbLine
   6
CONTINUOUS
  62
7
  10
 3175.6884415170
  20
 4698.8346164250
  30
0.0
  11
 2975.6884415170
  21
 4573.8607460432
  31
0.0
   0
LINE
   5
2D8
 100
AcDbEntity
   8
LEVEL001
 370
13
 100
AcDbLine
   6
CONTINUOUS
  62
7
  10
 2975.6884415170
  20
 4573.8607460432
  30
0.0
  11
 2975.6884415170
  21
 4644.6114502450
  31
0.0
   0
LINE
   5
2D9
 100
AcDbEntity
   8
LEVEL001
 370
13
 100
AcDbLine
   6
CONTINUOUS
  62
7
  10
 2975.6884415170
  20
 4644.6114502450
  30
0.0
  11
 3175.6884415170
  21
 4769.5853206268
  31
0.0
   0
LINE
   5
2DA
 100
AcDbEntity
   8
LEVEL001
 370
13
 100
AcDbLine
   6
CONTINUOUS
  62
7
  10
 3173.6898392050
  20
 4697.5857510936
  30
0.0
  11
 3173.6898392050
  21
 4678.8607460432
  31
0.0
   0
LINE
   5
2DB
 100
AcDbEntity
   8
LEVEL001
 370
13
 100
AcDbLine
   6
CONTINUOUS
  62
7
  10
 3173.6898392050
  20
 4678.8607460432
  30
0.0
  11
 3290.0398314310
  21
 4678.8607460432
  31
0.0
   0
LINE
   5
2DC
 100
AcDbEntity
   8
LEVEL001
 370
13
 100
AcDbLine
   6
CONTINUOUS
  62
7
  10
 3290.0398314310
  20
 4678.8607460432
  30
0.0
  11
 3290.0398314310
  21
 4788.8607460432
  31
0.0
   0
LINE
   5
2DD
 100
AcDbEntity
   8
LEVEL001
 370
13
 100
AcDbLine
   6
CONTINUOUS
  62
7
  10
 3290.0398314310
  20
 4788.8607460432
  30
0.0
  11
 3173.6898392050
  21
 4788.8607460432
  31
0.0
   0
LINE
   5
2DE
 100
AcDbEntity
   8
LEVEL001
 370
13
 100
AcDbLine
   6
CONTINUOUS
  62
7
  10
 3173.6898392050
  20
 4788.8607460432
  30
0.0
  11
 3173.6898392050
  21
 4768.3364552954
  31
0.0
   0
LINE
   5
2DF
 100
AcDbEntity
   8
LEVEL001
 370
13
 100
AcDbLine
   6
CONTINUOUS
  62
7
  10
 3454.3912368930
  20
 4643.8607460432
  30
0.0
  11
 3254.3912368930
  21
 4643.8607460432
  31
0.0
   0
LINE
   5
2E0
 100
AcDbEntity
   8
LEVEL001
 370
13
 100
AcDbLine
   6
CONTINUOUS
  62
7
  10
 3254.3912368930
  20
 4643.8607460432
  30
0.0
  11
 3254.3912368930
  21
 4583.8607460432
  31
0.0
   0
LINE
   5
2E1
 100
AcDbEntity
   8
LEVEL001
 370
13
 100
AcDbLine
   6
CONTINUOUS
  62
7
  10
 3254.3912368930
  20
 4583.8607460432
  30
0.0
  11
 3454.3912368930
  21
 4583.8607460432
  31
0.0
   0
LINE
   5
2E2
 100
AcDbEntity
   8
LEVEL001
 370
13
 100
AcDbLine
   6
CONTINUOUS
  62
7
  10
 3454.3912368930
  20
 4583.8607460432
  30
0.0
  11
 3454.3912368930
  21
 4643.8607460432
  31
0.0
   0
LINE
   5
2E3
 100
AcDbEntity
   8
LEVEL001
 370
13
 100
AcDbLine
   6
CONTINUOUS
  62
7
  10
 3256.3898392050
  20
 4583.8607460432
  30
0.0
  11
 3256.3898392050
  21
 4568.8607460432
  31
0.0
   0
LINE
   5
2E4
 100
AcDbEntity
   8
LEVEL001
 370
13
 100
AcDbLine
   6
CONTINUOUS
  62
7
  10
 3256.3898392050
  20
 4568.8607460432
  30
0.0
  11
 3140.0398469790
  21
 4568.8607460432
  31
0.0
   0
LINE
   5
2E5
 100
AcDbEntity
   8
LEVEL001
 370
13
 100
AcDbLine
   6
CONTINUOUS
  62
7
  10
 3140.0398469790
  20
 4568.8607460432
  30
0.0
  11
 3140.0398469790
  21
 4678.8607460432
  31
0.0
   0
LINE
   5
2E6
 100
AcDbEntity
   8
LEVEL001
 370
13
 100
AcDbLine
   6
CONTINUOUS
  62
7
  10
 3140.0398469790
  20
 4678.8607460432
  30
0.0
  11
 3256.3898392050
  21
 4678.8607460432
  31
0.0
   0
LINE
   5
2E7
 100
AcDbEntity
   8
LEVEL001
 370
13
 100
AcDbLine
   6
CONTINUOUS
  62
7
  10
 3256.3898392050
  20
 4678.8607460432
  30
0.0
  11
 3256.3898392050
  21
 4643.8607460432
  31
0.0
   0
LINE
   5
2E8
 100
AcDbEntity
   8
LEVEL001
 370
13
 100
AcDbLine
   6
DASHDOT
  62
6
  10
 3490.3652900424
  20
 4788.8607460432
  30
0.0
  11
 3490.3652900424
  21
 4548.8607460432
  31
0.0
   0
LINE
   5
2E9
 100
AcDbEntity
   8
LEVEL001
 370
13
 100
AcDbLine
   6
CONTINUOUS
  62
7
  10
 3452.2152900424
  20
 4583.8607460432
  30
0.0
  11
 3452.2152900424
  21
 4568.8607460432
  31
0.0
   0
LINE
   5
2EA
 100
AcDbEntity
   8
LEVEL001
 370
13
 100
AcDbLine
   6
CONTINUOUS
  62
7
  10
 3452.2152900424
  20
 4568.8607460432
  30
0.0
  11
 3528.5152900424
  21
 4568.8607460432
  31
0.0
   0
LINE
   5
2EB
 100
AcDbEntity
   8
LEVEL001
 370
13
 100
AcDbLine
   6
CONTINUOUS
  62
7
  10
 3528.5152900424
  20
 4568.8607460432
  30
0.0
  11
 3528.5152900424
  21
 4643.8607460432
  31
0.0
   0
LINE
   5
2EC
 100
AcDbEntity
   8
LEVEL001
 370
13
 100
AcDbLine
   6
CONTINUOUS
  62
7
  10
 3528.5152900424
  20
 4753.8607460432
  30
0.0
  11
 3528.5152900424
  21
 4768.8607460432
  31
0.0
   0
LINE
   5
2ED
 100
AcDbEntity
   8
LEVEL001
 370
13
 100
AcDbLine
   6
CONTINUOUS
  62
7
  10
 3528.5152900424
  20
 4768.8607460432
  30
0.0
  11
 3452.2152900424
  21
 4768.8607460432
  31
0.0
   0
LINE
   5
2EE
 100
AcDbEntity
   8
LEVEL001
 370
13
 100
AcDbLine
   6
CONTINUOUS
  62
7
  10
 3452.2152900424
  20
 4768.8607460432
  30
0.0
  11
 3452.2152900424
  21
 4753.8607460432
  31
0.0
   0
LINE
   5
2EF
 100
AcDbEntity
   8
LEVEL001
 370
13
 100
AcDbLine
   6
DASHDOT
  62
6
  10
 2939.7143883676
  20
 4788.8607460432
  30
0.0
  11
 2939.7143883676
  21
 4548.8607460432
  31
0.0
   0
LINE
   5
2F0
 100
AcDbEntity
   8
LEVEL001
 370
13
 100
AcDbLine
   6
CONTINUOUS
  62
7
  10
 2977.8643883676
  20
 4645.9711327432
  30
0.0
  11
 2977.8643883676
  21
 4645.8603155764
  31
0.0
   0
LINE
   5
2F1
 100
AcDbEntity
   8
LEVEL001
 370
13
 100
AcDbLine
   6
CONTINUOUS
  62
7
  10
 2977.8643883676
  20
 4575.1096113746
  30
0.0
  11
 2977.8643883676
  21
 4568.8607460432
  31
0.0
   0
LINE
   5
2F2
 100
AcDbEntity
   8
LEVEL001
 370
13
 100
AcDbLine
   6
CONTINUOUS
  62
7
  10
 2977.8643883676
  20
 4568.8607460432
  30
0.0
  11
 2901.5643883676
  21
 4568.8607460432
  31
0.0
   0
LINE
   5
2F3
 100
AcDbEntity
   8
LEVEL001
 370
13
 100
AcDbLine
   6
CONTINUOUS
  62
7
  10
 2901.5643883676
  20
 4568.8607460432
  30
0.0
  11
 2901.5643883676
  21
 4643.8607460432
  31
0.0
   0
LINE
   5
2F4
 100
AcDbEntity
   8
LEVEL001
 370
13
 100
AcDbLine
   6
CONTINUOUS
  62
7
  10
 2901.5643883676
  20
 4753.8607460432
  30
0.0
  11
 2901.5643883676
  21
 4768.8607460432
  31
0.0
   0
LINE
   5
2F5
 100
AcDbEntity
   8
LEVEL001
 370
13
 100
AcDbLine
   6
CONTINUOUS
  62
7
  10
 2901.5643883676
  20
 4768.8607460432
  30
0.0
  11
 2977.8643883676
  21
 4768.8607460432
  31
0.0
   0
LINE
   5
2F6
 100
AcDbEntity
   8
LEVEL001
 370
13
 100
AcDbLine
   6
CONTINUOUS
  62
7
  10
 2977.8643883676
  20
 4768.8607460432
  30
0.0
  11
 2977.8643883676
  21
 4753.8607460432
  31
0.0
   0
LINE
   5
2F7
 100
AcDbEntity
   8
LEVEL001
 370
13
 100
AcDbLine
   6
CONTINUOUS
  62
6
  10
 2976.3257950240
  20
 4748.8607460432
  30
0.0
  11
 2976.3257950240
  21
 4648.8607460432
  31
0.0
   0
LINE
   5
2F8
 100
AcDbEntity
   8
LEVEL001
 370
13
 100
AcDbLine
   6
DASHDOT
  62
6
  10
 2980.8977854702
  20
 4728.8607460432
  30
0.0
  11
 3010.8977854702
  21
 4728.8607460432
  31
0.0
   0
LINE
   5
2F9
 100
AcDbEntity
   8
LEVEL001
 370
13
 100
AcDbLine
   6
DASHDOT
  62
6
  10
 2995.8977854702
  20
 4743.8607460432
  30
0.0
  11
 2995.8977854702
  21
 4713.8607460432
  31
0.0
   0
LINE
   5
2FA
 100
AcDbEntity
   8
LEVEL001
 370
13
 100
AcDbLine
   6
DASHDOT
  62
6
  10
 2980.8977854702
  20
 4668.8607460432
  30
0.0
  11
 3010.8977854702
  21
 4668.8607460432
  31
0.0
   0
LINE
   5
2FB
 100
AcDbEntity
   8
LEVEL001
 370
13
 100
AcDbLine
   6
DASHDOT
  62
6
  10
 2995.8977854702
  20
 4683.8607460432
  30
0.0
  11
 2995.8977854702
  21
 4653.8607460432
  31
0.0
   0
LINE
   5
2FC
 100
AcDbEntity
   8
LEVEL001
 370
13
 100
AcDbLine
   6
DASHDOT
  62
6
  10
 3255.0398314310
  20
 4763.8607460432
  30
0.0
  11
 3285.0398314310
  21
 4763.8607460432
  31
0.0
   0
LINE
   5
2FD
 100
AcDbEntity
   8
LEVEL001
 370
13
 100
AcDbLine
   6
DASHDOT
  62
6
  10
 3270.0398314310
  20
 4778.8607460432
  30
0.0
  11
 3270.0398314310
  21
 4748.8607460432
  31
0.0
   0
LINE
   5
2FE
 100
AcDbEntity
   8
LEVEL001
 370
13
 100
AcDbLine
   6
DASHDOT
  62
6
  10
 3255.0398314310
  20
 4703.8607460432
  30
0.0
  11
 3285.0398314310
  21
 4703.8607460432
  31
0.0
   0
LINE
   5
2FF
 100
AcDbEntity
   8
LEVEL001
 370
13
 100
AcDbLine
   6
DASHDOT
  62
6
  10
 3270.0398314310
  20
 4718.8607460432
  30
0.0
  11
 3270.0398314310
  21
 4688.8607460432
  31
0.0
   0
LINE
   5
300
 100
AcDbEntity
   8
LEVEL001
 370
13
 100
AcDbLine
   6
DASHDOT
  62
6
  10
 3145.0398469790
  20
 4653.8607460432
  30
0.0
  11
 3175.0398469790
  21
 4653.8607460432
  31
0.0
   0
LINE
   5
301
 100
AcDbEntity
   8
LEVEL001
 370
13
 100
AcDbLine
   6
DASHDOT
  62
6
  10
 3160.0398469790
  20
 4668.8607460432
  30
0.0
  11
 3160.0398469790
  21
 4638.8607460432
  31
0.0
   0
LINE
   5
302
 100
AcDbEntity
   8
LEVEL001
 370
13
 100
AcDbLine
   6
DASHDOT
  62
6
  10
 3145.0398469790
  20
 4593.8607460432
  30
0.0
  11
 3175.0398469790
  21
 4593.8607460432
  31
0.0
   0
LINE
   5
303
 100
AcDbEntity
   8
LEVEL001
 370
13
 100
AcDbLine
   6
DASHDOT
  62
6
  10
 3160.0398469790
  20
 4608.8607460432
  30
0.0
  11
 3160.0398469790
  21
 4578.8607460432
  31
0.0
   0
LINE
   5
304
 100
AcDbEntity
   8
LEVEL001
 370
13
 100
AcDbLine
   6
CONTINUOUS
  62
7
  10
 2901.9310256268
  20
 4643.8607460432
  30
0.0
  11
 3015.8977854702
  21
 4643.8607460432
  31
0.0
   0
LINE
   5
305
 100
AcDbEntity
   8
LEVEL001
 370
13
 100
AcDbLine
   6
CONTINUOUS
  62
7
  10
 3015.8977854702
  20
 4643.8607460432
  30
0.0
  11
 3015.8977854702
  21
 4753.8607460432
  31
0.0
   0
LINE
   5
306
 100
AcDbEntity
   8
LEVEL001
 370
13
 100
AcDbLine
   6
CONTINUOUS
  62
7
  10
 3015.8977854702
  20
 4753.8607460432
  30
0.0
  11
 2901.9310256268
  21
 4753.8607460432
  31
0.0
   0
LINE
   5
307
 100
AcDbEntity
   8
LEVEL001
 370
13
 100
AcDbLine
   6
DASHDOT
  62
6
  10
 3040.8977854702
  20
 4698.8607460432
  30
0.0
  11
 2639.1589574694
  21
 4698.8607460432
  31
0.0
   0
LINE
   5
308
 100
AcDbEntity
   8
LEVEL001
 370
13
 100
AcDbLine
   6
DASHDOT
  62
6
  10
 2806.9310256268
  20
 4728.8607460432
  30
0.0
  11
 2836.9310256268
  21
 4728.8607460432
  31
0.0
   0
LINE
   5
309
 100
AcDbEntity
   8
LEVEL001
 370
13
 100
AcDbLine
   6
DASHDOT
  62
6
  10
 2821.9310256268
  20
 4743.8607460432
  30
0.0
  11
 2821.9310256268
  21
 4713.8607460432
  31
0.0
   0
LINE
   5
30A
 100
AcDbEntity
   8
LEVEL001
 370
13
 100
AcDbLine
   6
DASHDOT
  62
6
  10
 2806.9310256268
  20
 4668.8607460432
  30
0.0
  11
 2836.9310256268
  21
 4668.8607460432
  31
0.0
   0
LINE
   5
30B
 100
AcDbEntity
   8
LEVEL001
 370
13
 100
AcDbLine
   6
DASHDOT
  62
6
  10
 2821.9310256268
  20
 4683.8607460432
  30
0.0
  11
 2821.9310256268
  21
 4653.8607460432
  31
0.0
   0
LINE
   5
30C
 100
AcDbEntity
   8
LEVEL001
 370
13
 100
AcDbLine
   6
CONTINUOUS
  62
7
  10
 2846.9310256268
  20
 4753.8607460432
  30
0.0
  11
 2901.9310256268
  21
 4753.8607460432
  31
0.0
   0
LINE
   5
30D
 100
AcDbEntity
   8
LEVEL001
 370
13
 100
AcDbLine
   6
CONTINUOUS
  62
7
  10
 2901.9310256268
  20
 4753.8607460432
  30
0.0
  11
 2901.9310256268
  21
 4643.8607460432
  31
0.0
   0
LINE
   5
30E
 100
AcDbEntity
   8
LEVEL001
 370
13
 100
AcDbLine
   6
CONTINUOUS
  62
7
  10
 2901.9310256268
  20
 4643.8607460432
  30
0.0
  11
 2846.9310256268
  21
 4643.8607460432
  31
0.0
   0
LINE
   5
30F
 100
AcDbEntity
   8
LEVEL001
 370
13
 100
AcDbLine
   6
CONTINUOUS
  62
3
  10
 2814.9310256268
  20
 4721.8607460432
  30
0.0
  11
 2828.9310256268
  21
 4721.8607460432
  31
0.0
   0
LINE
   5
310
 100
AcDbEntity
   8
LEVEL001
 370
13
 100
AcDbLine
   6
CONTINUOUS
  62
3
  10
 2828.9310256268
  20
 4721.8607460432
  30
0.0
  11
 2828.9310256268
  21
 4735.8607460432
  31
0.0
   0
LINE
   5
311
 100
AcDbEntity
   8
LEVEL001
 370
13
 100
AcDbLine
   6
CONTINUOUS
  62
3
  10
 2828.9310256268
  20
 4735.8607460432
  30
0.0
  11
 2814.9310256268
  21
 4735.8607460432
  31
0.0
   0
LINE
   5
312
 100
AcDbEntity
   8
LEVEL001
 370
13
 100
AcDbLine
   6
CONTINUOUS
  62
3
  10
 2814.9310256268
  20
 4735.8607460432
  30
0.0
  11
 2814.9310256268
  21
 4721.8607460432
  31
0.0
   0
LINE
   5
313
 100
AcDbEntity
   8
LEVEL001
 370
13
 100
AcDbLine
   6
CONTINUOUS
  62
3
  10
 2814.9310256268
  20
 4661.8607460432
  30
0.0
  11
 2828.9310256268
  21
 4661.8607460432
  31
0.0
   0
LINE
   5
314
 100
AcDbEntity
   8
LEVEL001
 370
13
 100
AcDbLine
   6
CONTINUOUS
  62
3
  10
 2828.9310256268
  20
 4661.8607460432
  30
0.0
  11
 2828.9310256268
  21
 4675.8607460432
  31
0.0
   0
LINE
   5
315
 100
AcDbEntity
   8
LEVEL001
 370
13
 100
AcDbLine
   6
CONTINUOUS
  62
3
  10
 2828.9310256268
  20
 4675.8607460432
  30
0.0
  11
 2814.9310256268
  21
 4675.8607460432
  31
0.0
   0
LINE
   5
316
 100
AcDbEntity
   8
LEVEL001
 370
13
 100
AcDbLine
   6
CONTINUOUS
  62
3
  10
 2814.9310256268
  20
 4675.8607460432
  30
0.0
  11
 2814.9310256268
  21
 4661.8607460432
  31
0.0
   0
LINE
   5
317
 100
AcDbEntity
   8
LEVEL001
 370
13
 100
AcDbLine
   6
CONTINUOUS
  62
3
  10
 2988.8977854702
  20
 4721.8607460432
  30
0.0
  11
 3002.8977854702
  21
 4721.8607460432
  31
0.0
   0
LINE
   5
318
 100
AcDbEntity
   8
LEVEL001
 370
13
 100
AcDbLine
   6
CONTINUOUS
  62
3
  10
 3002.8977854702
  20
 4721.8607460432
  30
0.0
  11
 3002.8977854702
  21
 4735.8607460432
  31
0.0
   0
LINE
   5
319
 100
AcDbEntity
   8
LEVEL001
 370
13
 100
AcDbLine
   6
CONTINUOUS
  62
3
  10
 3002.8977854702
  20
 4735.8607460432
  30
0.0
  11
 2988.8977854702
  21
 4735.8607460432
  31
0.0
   0
LINE
   5
31A
 100
AcDbEntity
   8
LEVEL001
 370
13
 100
AcDbLine
   6
CONTINUOUS
  62
3
  10
 2988.8977854702
  20
 4735.8607460432
  30
0.0
  11
 2988.8977854702
  21
 4721.8607460432
  31
0.0
   0
LINE
   5
31B
 100
AcDbEntity
   8
LEVEL001
 370
13
 100
AcDbLine
   6
CONTINUOUS
  62
3
  10
 2988.8977854702
  20
 4661.8607460432
  30
0.0
  11
 3002.8977854702
  21
 4661.8607460432
  31
0.0
   0
LINE
   5
31C
 100
AcDbEntity
   8
LEVEL001
 370
13
 100
AcDbLine
   6
CONTINUOUS
  62
3
  10
 3002.8977854702
  20
 4661.8607460432
  30
0.0
  11
 3002.8977854702
  21
 4675.8607460432
  31
0.0
   0
LINE
   5
31D
 100
AcDbEntity
   8
LEVEL001
 370
13
 100
AcDbLine
   6
CONTINUOUS
  62
3
  10
 3002.8977854702
  20
 4675.8607460432
  30
0.0
  11
 2988.8977854702
  21
 4675.8607460432
  31
0.0
   0
LINE
   5
31E
 100
AcDbEntity
   8
LEVEL001
 370
13
 100
AcDbLine
   6
CONTINUOUS
  62
3
  10
 2988.8977854702
  20
 4675.8607460432
  30
0.0
  11
 2988.8977854702
  21
 4661.8607460432
  31
0.0
   0
LINE
   5
31F
 100
AcDbEntity
   8
LEVEL001
 370
13
 100
AcDbLine
   6
CONTINUOUS
  62
3
  10
 3263.0398314310
  20
 4756.8607460432
  30
0.0
  11
 3277.0398314310
  21
 4756.8607460432
  31
0.0
   0
LINE
   5
320
 100
AcDbEntity
   8
LEVEL001
 370
13
 100
AcDbLine
   6
CONTINUOUS
  62
3
  10
 3277.0398314310
  20
 4756.8607460432
  30
0.0
  11
 3277.0398314310
  21
 4770.8607460432
  31
0.0
   0
LINE
   5
321
 100
AcDbEntity
   8
LEVEL001
 370
13
 100
AcDbLine
   6
CONTINUOUS
  62
3
  10
 3277.0398314310
  20
 4770.8607460432
  30
0.0
  11
 3263.0398314310
  21
 4770.8607460432
  31
0.0
   0
LINE
   5
322
 100
AcDbEntity
   8
LEVEL001
 370
13
 100
AcDbLine
   6
CONTINUOUS
  62
3
  10
 3263.0398314310
  20
 4770.8607460432
  30
0.0
  11
 3263.0398314310
  21
 4756.8607460432
  31
0.0
   0
LINE
   5
323
 100
AcDbEntity
   8
LEVEL001
 370
13
 100
AcDbLine
   6
CONTINUOUS
  62
3
  10
 3263.0398314310
  20
 4696.8607460432
  30
0.0
  11
 3277.0398314310
  21
 4696.8607460432
  31
0.0
   0
LINE
   5
324
 100
AcDbEntity
   8
LEVEL001
 370
13
 100
AcDbLine
   6
CONTINUOUS
  62
3
  10
 3277.0398314310
  20
 4696.8607460432
  30
0.0
  11
 3277.0398314310
  21
 4710.8607460432
  31
0.0
   0
LINE
   5
325
 100
AcDbEntity
   8
LEVEL001
 370
13
 100
AcDbLine
   6
CONTINUOUS
  62
3
  10
 3277.0398314310
  20
 4710.8607460432
  30
0.0
  11
 3263.0398314310
  21
 4710.8607460432
  31
0.0
   0
LINE
   5
326
 100
AcDbEntity
   8
LEVEL001
 370
13
 100
AcDbLine
   6
CONTINUOUS
  62
3
  10
 3263.0398314310
  20
 4710.8607460432
  30
0.0
  11
 3263.0398314310
  21
 4696.8607460432
  31
0.0
   0
LINE
   5
327
 100
AcDbEntity
   8
LEVEL001
 370
13
 100
AcDbLine
   6
CONTINUOUS
  62
3
  10
 3167.0398469790
  20
 4646.8607460432
  30
0.0
  11
 3153.0398469790
  21
 4646.8607460432
  31
0.0
   0
LINE
   5
328
 100
AcDbEntity
   8
LEVEL001
 370
13
 100
AcDbLine
   6
CONTINUOUS
  62
3
  10
 3153.0398469790
  20
 4646.8607460432
  30
0.0
  11
 3153.0398469790
  21
 4660.8607460432
  31
0.0
   0
LINE
   5
329
 100
AcDbEntity
   8
LEVEL001
 370
13
 100
AcDbLine
   6
CONTINUOUS
  62
3
  10
 3153.0398469790
  20
 4660.8607460432
  30
0.0
  11
 3167.0398469790
  21
 4660.8607460432
  31
0.0
   0
LINE
   5
32A
 100
AcDbEntity
   8
LEVEL001
 370
13
 100
AcDbLine
   6
CONTINUOUS
  62
3
  10
 3167.0398469790
  20
 4660.8607460432
  30
0.0
  11
 3167.0398469790
  21
 4646.8607460432
  31
0.0
   0
LINE
   5
32B
 100
AcDbEntity
   8
LEVEL001
 370
13
 100
AcDbLine
   6
CONTINUOUS
  62
3
  10
 3167.0398469790
  20
 4586.8607460432
  30
0.0
  11
 3153.0398469790
  21
 4586.8607460432
  31
0.0
   0
LINE
   5
32C
 100
AcDbEntity
   8
LEVEL001
 370
13
 100
AcDbLine
   6
CONTINUOUS
  62
3
  10
 3153.0398469790
  20
 4586.8607460432
  30
0.0
  11
 3153.0398469790
  21
 4600.8607460432
  31
0.0
   0
LINE
   5
32D
 100
AcDbEntity
   8
LEVEL001
 370
13
 100
AcDbLine
   6
CONTINUOUS
  62
3
  10
 3153.0398469790
  20
 4600.8607460432
  30
0.0
  11
 3167.0398469790
  21
 4600.8607460432
  31
0.0
   0
LINE
   5
32E
 100
AcDbEntity
   8
LEVEL001
 370
13
 100
AcDbLine
   6
CONTINUOUS
  62
3
  10
 3167.0398469790
  20
 4600.8607460432
  30
0.0
  11
 3167.0398469790
  21
 4586.8607460432
  31
0.0
   0
LINE
   5
32F
 100
AcDbEntity
   8
LEVEL001
 370
13
 100
AcDbLine
   6
CONTINUOUS
  62
6
  10
 3453.7538833860
  20
 4748.8607460432
  30
0.0
  11
 3453.7538833860
  21
 4648.8607460432
  31
0.0
   0
LINE
   5
330
 100
AcDbEntity
   8
LEVEL001
 370
13
 100
AcDbLine
   6
DASHDOT
  62
6
  10
 3449.1818929398
  20
 4728.8607460432
  30
0.0
  11
 3419.1818929398
  21
 4728.8607460432
  31
0.0
   0
LINE
   5
331
 100
AcDbEntity
   8
LEVEL001
 370
13
 100
AcDbLine
   6
DASHDOT
  62
6
  10
 3434.1818929398
  20
 4743.8607460432
  30
0.0
  11
 3434.1818929398
  21
 4713.8607460432
  31
0.0
   0
LINE
   5
332
 100
AcDbEntity
   8
LEVEL001
 370
13
 100
AcDbLine
   6
DASHDOT
  62
6
  10
 3449.1818929398
  20
 4668.8607460432
  30
0.0
  11
 3419.1818929398
  21
 4668.8607460432
  31
0.0
   0
LINE
   5
333
 100
AcDbEntity
   8
LEVEL001
 370
13
 100
AcDbLine
   6
DASHDOT
  62
6
  10
 3434.1818929398
  20
 4683.8607460432
  30
0.0
  11
 3434.1818929398
  21
 4653.8607460432
  31
0.0
   0
LINE
   5
334
 100
AcDbEntity
   8
LEVEL001
 370
13
 100
AcDbLine
   6
DASHDOT
  62
6
  10
 3389.1818929398
  20
 4698.8607460432
  30
0.0
  11
 3790.9207209406
  21
 4698.8607460432
  31
0.0
   0
LINE
   5
335
 100
AcDbEntity
   8
LEVEL001
 370
13
 100
AcDbLine
   6
DASHDOT
  62
6
  10
 3623.1486527832
  20
 4728.8607460432
  30
0.0
  11
 3593.1486527832
  21
 4728.8607460432
  31
0.0
   0
LINE
   5
336
 100
AcDbEntity
   8
LEVEL001
 370
13
 100
AcDbLine
   6
DASHDOT
  62
6
  10
 3608.1486527832
  20
 4743.8607460432
  30
0.0
  11
 3608.1486527832
  21
 4713.8607460432
  31
0.0
   0
LINE
   5
337
 100
AcDbEntity
   8
LEVEL001
 370
13
 100
AcDbLine
   6
DASHDOT
  62
6
  10
 3623.1486527832
  20
 4668.8607460432
  30
0.0
  11
 3593.1486527832
  21
 4668.8607460432
  31
0.0
   0
LINE
   5
338
 100
AcDbEntity
   8
LEVEL001
 370
13
 100
AcDbLine
   6
DASHDOT
  62
6
  10
 3608.1486527832
  20
 4683.8607460432
  30
0.0
  11
 3608.1486527832
  21
 4653.8607460432
  31
0.0
   0
LINE
   5
339
 100
AcDbEntity
   8
LEVEL001
 370
13
 100
AcDbLine
   6
CONTINUOUS
  62
7
  10
 3583.1486527832
  20
 4753.8607460432
  30
0.0
  11
 3528.1486527832
  21
 4753.8607460432
  31
0.0
   0
LINE
   5
33A
 100
AcDbEntity
   8
LEVEL001
 370
13
 100
AcDbLine
   6
CONTINUOUS
  62
7
  10
 3528.1486527832
  20
 4753.8607460432
  30
0.0
  11
 3528.1486527832
  21
 4643.8607460432
  31
0.0
   0
LINE
   5
33B
 100
AcDbEntity
   8
LEVEL001
 370
13
 100
AcDbLine
   6
CONTINUOUS
  62
7
  10
 3528.1486527832
  20
 4643.8607460432
  30
0.0
  11
 3583.1486527832
  21
 4643.8607460432
  31
0.0
   0
LINE
   5
33C
 100
AcDbEntity
   8
LEVEL001
 370
13
 100
AcDbLine
   6
CONTINUOUS
  62
3
  10
 3615.1486527832
  20
 4721.8607460432
  30
0.0
  11
 3601.1486527832
  21
 4721.8607460432
  31
0.0
   0
LINE
   5
33D
 100
AcDbEntity
   8
LEVEL001
 370
13
 100
AcDbLine
   6
CONTINUOUS
  62
3
  10
 3601.1486527832
  20
 4721.8607460432
  30
0.0
  11
 3601.1486527832
  21
 4735.8607460432
  31
0.0
   0
LINE
   5
33E
 100
AcDbEntity
   8
LEVEL001
 370
13
 100
AcDbLine
   6
CONTINUOUS
  62
3
  10
 3601.1486527832
  20
 4735.8607460432
  30
0.0
  11
 3615.1486527832
  21
 4735.8607460432
  31
0.0
   0
LINE
   5
33F
 100
AcDbEntity
   8
LEVEL001
 370
13
 100
AcDbLine
   6
CONTINUOUS
  62
3
  10
 3615.1486527832
  20
 4735.8607460432
  30
0.0
  11
 3615.1486527832
  21
 4721.8607460432
  31
0.0
   0
LINE
   5
340
 100
AcDbEntity
   8
LEVEL001
 370
13
 100
AcDbLine
   6
CONTINUOUS
  62
3
  10
 3615.1486527832
  20
 4661.8607460432
  30
0.0
  11
 3601.1486527832
  21
 4661.8607460432
  31
0.0
   0
LINE
   5
341
 100
AcDbEntity
   8
LEVEL001
 370
13
 100
AcDbLine
   6
CONTINUOUS
  62
3
  10
 3601.1486527832
  20
 4661.8607460432
  30
0.0
  11
 3601.1486527832
  21
 4675.8607460432
  31
0.0
   0
LINE
   5
342
 100
AcDbEntity
   8
LEVEL001
 370
13
 100
AcDbLine
   6
CONTINUOUS
  62
3
  10
 3601.1486527832
  20
 4675.8607460432
  30
0.0
  11
 3615.1486527832
  21
 4675.8607460432
  31
0.0
   0
LINE
   5
343
 100
AcDbEntity
   8
LEVEL001
 370
13
 100
AcDbLine
   6
CONTINUOUS
  62
3
  10
 3615.1486527832
  20
 4675.8607460432
  30
0.0
  11
 3615.1486527832
  21
 4661.8607460432
  31
0.0
   0
LINE
   5
344
 100
AcDbEntity
   8
LEVEL001
 370
13
 100
AcDbLine
   6
CONTINUOUS
  62
3
  10
 3441.1818929398
  20
 4721.8607460432
  30
0.0
  11
 3427.1818929398
  21
 4721.8607460432
  31
0.0
   0
LINE
   5
345
 100
AcDbEntity
   8
LEVEL001
 370
13
 100
AcDbLine
   6
CONTINUOUS
  62
3
  10
 3427.1818929398
  20
 4721.8607460432
  30
0.0
  11
 3427.1818929398
  21
 4735.8607460432
  31
0.0
   0
LINE
   5
346
 100
AcDbEntity
   8
LEVEL001
 370
13
 100
AcDbLine
   6
CONTINUOUS
  62
3
  10
 3427.1818929398
  20
 4735.8607460432
  30
0.0
  11
 3441.1818929398
  21
 4735.8607460432
  31
0.0
   0
LINE
   5
347
 100
AcDbEntity
   8
LEVEL001
 370
13
 100
AcDbLine
   6
CONTINUOUS
  62
3
  10
 3441.1818929398
  20
 4735.8607460432
  30
0.0
  11
 3441.1818929398
  21
 4721.8607460432
  31
0.0
   0
LINE
   5
348
 100
AcDbEntity
   8
LEVEL001
 370
13
 100
AcDbLine
   6
CONTINUOUS
  62
3
  10
 3441.1818929398
  20
 4661.8607460432
  30
0.0
  11
 3427.1818929398
  21
 4661.8607460432
  31
0.0
   0
LINE
   5
349
 100
AcDbEntity
   8
LEVEL001
 370
13
 100
AcDbLine
   6
CONTINUOUS
  62
3
  10
 3427.1818929398
  20
 4661.8607460432
  30
0.0
  11
 3427.1818929398
  21
 4675.8607460432
  31
0.0
   0
LINE
   5
34A
 100
AcDbEntity
   8
LEVEL001
 370
13
 100
AcDbLine
   6
CONTINUOUS
  62
3
  10
 3427.1818929398
  20
 4675.8607460432
  30
0.0
  11
 3441.1818929398
  21
 4675.8607460432
  31
0.0
   0
LINE
   5
34B
 100
AcDbEntity
   8
LEVEL001
 370
13
 100
AcDbLine
   6
CONTINUOUS
  62
3
  10
 3441.1818929398
  20
 4675.8607460432
  30
0.0
  11
 3441.1818929398
  21
 4661.8607460432
  31
0.0
   0
LINE
   5
34C
 100
AcDbEntity
   8
LEVEL001
 370
13
 100
AcDbLine
   6
CONTINUOUS
  62
7
  10
 3528.1486527832
  20
 4643.8607460432
  30
0.0
  11
 3414.1818929398
  21
 4643.8607460432
  31
0.0
   0
LINE
   5
34D
 100
AcDbEntity
   8
LEVEL001
 370
13
 100
AcDbLine
   6
CONTINUOUS
  62
7
  10
 3414.1818929398
  20
 4643.8607460432
  30
0.0
  11
 3414.1818929398
  21
 4753.8607460432
  31
0.0
   0
LINE
   5
34E
 100
AcDbEntity
   8
LEVEL001
 370
13
 100
AcDbLine
   6
CONTINUOUS
  62
7
  10
 3414.1818929398
  20
 4753.8607460432
  30
0.0
  11
 3528.1486527832
  21
 4753.8607460432
  31
0.0
   0
ARC
   5
34F
 100
AcDbEntity
   8
LEVEL001
 370
13
   6
CONTINUOUS
  62
3
 100
AcDbCircle
  10
 2821.9310256268
  20
 4728.8607460432
  30
0.0
  40
 52.000000000010
 100
AcDbArc
  50
 298.73565374490
  51
 324.99999999998
   0
ARC
   5
350
 100
AcDbEntity
   8
LEVEL001
 370
13
   6
CONTINUOUS
  62
3
 100
AcDbCircle
  10
 2821.9310256268
  20
 4728.8607460432
  30
0.0
  40
 68.000000000070
 100
AcDbArc
  50
 291.57057830161
  51
 324.99999999996
   0
ARC
   5
351
 100
AcDbEntity
   8
LEVEL001
 370
13
   6
CONTINUOUS
  62
3
 100
AcDbCircle
  10
 2871.0801482842
  20
 4694.4461598620
  30
0.0
  40
 8.0000000000000
 100
AcDbArc
  50
 325.00000000009
  51
 146.50781277481
   0
LINE
   5
352
 100
AcDbEntity
   8
LEVEL001
 370
13
 100
AcDbLine
   6
DASHDOT
  62
6
  10
 2856.0801482842
  20
 4694.4461598620
  30
0.0
  11
 2886.0801482842
  21
 4694.4461598620
  31
0.0
   0
LINE
   5
353
 100
AcDbEntity
   8
LEVEL001
 370
13
 100
AcDbLine
   6
DASHDOT
  62
6
  10
 2871.0801482842
  20
 4709.4461598620
  30
0.0
  11
 2871.0801482842
  21
 4679.4461598620
  31
0.0
   0
ARC
   5
354
 100
AcDbEntity
   8
LEVEL001
 370
13
   6
CONTINUOUS
  62
3
 100
AcDbCircle
  10
 3608.1486527832
  20
 4728.8607460432
  30
0.0
  40
 52.000000000010
 100
AcDbArc
  50
 215.00000000002
  51
 241.26434625510
   0
ARC
   5
355
 100
AcDbEntity
   8
LEVEL001
 370
13
   6
CONTINUOUS
  62
3
 100
AcDbCircle
  10
 3608.1486527832
  20
 4728.8607460432
  30
0.0
  40
 68.000000000070
 100
AcDbArc
  50
 215.00000000002
  51
 248.42942169839
   0
ARC
   5
356
 100
AcDbEntity
   8
LEVEL001
 370
13
   6
CONTINUOUS
  62
3
 100
AcDbCircle
  10
 3558.9995301258
  20
 4694.4461598620
  30
0.0
  40
 8.0000000000000
 100
AcDbArc
  50
 33.492187225106
  51
 214.99999999999
   0
LINE
   5
357
 100
AcDbEntity
   8
LEVEL001
 370
13
 100
AcDbLine
   6
DASHDOT
  62
6
  10
 3573.9995301258
  20
 4694.4461598620
  30
0.0
  11
 3543.9995301258
  21
 4694.4461598620
  31
0.0
   0
LINE
   5
358
 100
AcDbEntity
   8
LEVEL001
 370
13
 100
AcDbLine
   6
DASHDOT
  62
6
  10
 3558.9995301258
  20
 4709.4461598620
  30
0.0
  11
 3558.9995301258
  21
 4679.4461598620
  31
0.0
   0
LINE
   5
359
 100
AcDbEntity
   8
LEVEL001
 370
13
 100
AcDbLine
   6
CONTINUOUS
  62
6
  10
 3250.3947405266
  20
 4783.8607460432
  30
0.0
  11
 3250.3947405266
  21
 4683.8607460432
  31
0.0
   0
LINE
   5
35A
 100
AcDbEntity
   8
LEVEL001
 370
13
 100
AcDbLine
   6
CONTINUOUS
  62
6
  10
 3179.6849378834
  20
 4673.8607460432
  30
0.0
  11
 3179.6849378834
  21
 4573.8607460432
  31
0.0
   0
CIRCLE
   5
35B
 100
AcDbEntity
   8
LEVEL001
 370
13
 100
AcDbCircle
   6
CONTINUOUS
  62
1
  10
 3415.0398392050
  20
 4332.9607460432
  30
0.0
  40
 69.999997913838
   0
CIRCLE
   5
35C
 100
AcDbEntity
   8
LEVEL001
 370
13
 100
AcDbCircle
   6
CONTINUOUS
  62
1
  10
 3555.0398371188
  20
 4332.9607460432
  30
0.0
  40
 70.000000000000
   0
MTEXT
   5
35D
 100
AcDbEntity
   8
LEVEL001
 370
13
  62
1
 100
AcDbMText
  10
 3555.0398371188
  20
 4332.9607460432
  30
0.0
  40
 57.142857142858
  41
0.0
  71
5
  72
1
   1
\T1.000000;10
   7
GMM001
  44
 0.79999984000003
   0
MTEXT
   5
35E
 100
AcDbEntity
   8
LEVEL001
 370
13
  62
1
 100
AcDbMText
  10
 3415.0398392050
  20
 4332.9607460432
  30
0.0
  40
 57.142857142858
  41
0.0
  71
5
  72
1
   1
\T1.000000;9
   7
GMM001
  44
 0.79999984000003
   0
LEADER
   5
35F
 100
AcDbEntity
   8
LEVEL001
 370
13
   6
CONTINUOUS
  62
1
 100
AcDbLeader
   3
GMM002
  73
3
  74
1
  75
0
  40
 60.000000000000
  41
0.0
  76
2
  10
 3336.0505277844
  20
 4583.8607460432
  30
0.0
  10
 3394.4405546480
  20
 4399.8611883712
  30
0.0
  77
1
   0
LINE
   5
360
 100
AcDbEntity
   8
LEVEL001
 370
13
 100
AcDbLine
   6
CONTINUOUS
  62
3
  10
 3678.1486527832
  20
 4945.4607460432
  30
0.0
  11
 3678.1486527832
  21
 4452.2607460432
  31
0.0
   0
ARC
   5
361
 100
AcDbEntity
   8
LEVEL001
 370
13
   6
CONTINUOUS
  62
3
 100
AcDbCircle
  10
 3676.3486527832
  20
 4945.4607460432
  30
0.0
  40
 1.8000000000002
 100
AcDbArc
  50
0.0
  51
 90.000000000000
   0
LINE
   5
362
 100
AcDbEntity
   8
LEVEL001
 370
13
 100
AcDbLine
   6
CONTINUOUS
  62
3
  10
 3674.5486527832
  20
 4452.2607460432
  30
0.0
  11
 3674.5486527832
  21
 4945.4607460432
  31
0.0
   0
ARC
   5
363
 100
AcDbEntity
   8
LEVEL001
 370
13
   6
CONTINUOUS
  62
3
 100
AcDbCircle
  10
 3676.3486527832
  20
 4945.4607460432
  30
0.0
  40
 1.8000000000002
 100
AcDbArc
  50
 90.000000000000
  51
 180.00000000000
   0
LINE
   5
364
 100
AcDbEntity
   8
LEVEL001
 370
13
 100
AcDbLine
   6
CONTINUOUS
  62
1
  10
 3678.1486527832
  20
 4927.2607460432
  30
0.0
  11
 3753.1486527832
  21
 4927.2607460432
  31
0.0
   0
LINE
   5
365
 100
AcDbEntity
   8
LEVEL001
 370
13
 100
AcDbLine
   6
CONTINUOUS
  62
1
  10
 3753.1486527832
  20
 4927.2607460432
  30
0.0
  11
 3753.1486527832
  21
 4826.8559837382
  31
0.0
   0
ARC
   5
366
 100
AcDbEntity
   8
LEVEL001
 370
13
   6
CONTINUOUS
  62
1
 100
AcDbCircle
  10
 3697.4595062972
  20
 4762.2607460432
  30
0.0
  40
 5.0000000000000
 100
AcDbArc
  50
 269.99999999967
  51
 285.97235980398
   0
LINE
   5
367
 100
AcDbEntity
   8
LEVEL001
 370
13
 100
AcDbLine
   6
CONTINUOUS
  62
1
  10
 3696.7447715856
  20
 4757.2607460432
  30
0.0
  11
 3678.1486527832
  21
 4757.2607460432
  31
0.0
   0
ARC
   5
368
 100
AcDbEntity
   8
LEVEL001
 370
13
   6
CONTINUOUS
  62
1
 100
AcDbCircle
  10
 3696.7447715856
  20
 4767.2607460432
  30
0.0
  40
 10.000000000000
 100
AcDbArc
  50
 270.00000000000
  51
 286.57946484724
   0
ARC
   5
369
 100
AcDbEntity
   8
LEVEL001
 370
13
   6
CONTINUOUS
  62
1
 100
AcDbCircle
  10
 3678.1973543548
  20
 4829.5583648908
  30
0.0
  40
 75.000000000000
 100
AcDbArc
  50
 286.57946484704
  51
 2.0649141019353
   0
ARC
   5
36A
 100
AcDbEntity
   8
LEVEL001
 370
13
   6
CONTINUOUS
  62
7
 100
AcDbCircle
  10
 1519.9430522969
  20
 4698.8607460432
  30
0.0
  40
 2200.0000000000
 100
AcDbArc
  50
 354.30026954860
  51
 1.7635269426123
   0
LINE
   5
36B
 100
AcDbEntity
   8
LEVEL001
 370
13
 100
AcDbLine
   6
CONTINUOUS
  62
6
  10
 3699.1157737670
  20
 4757.5458940806
  30
0.0
  11
 3699.1157737670
  21
 4471.3607460432
  31
0.0
   0
LINE
   5
36C
 100
AcDbEntity
   8
LEVEL001
 370
13
 100
AcDbLine
   6
CONTINUOUS
  62
7
  10
 3674.5486527832
  20
 4643.8607460432
  30
0.0
  11
 3583.1486527832
  21
 4643.8607460432
  31
0.0
   0
LINE
   5
36D
 100
AcDbEntity
   8
LEVEL001
 370
13
 100
AcDbLine
   6
CONTINUOUS
  62
7
  10
 3583.1486527832
  20
 4643.8607460432
  30
0.0
  11
 3583.1486527832
  21
 4753.8607460432
  31
0.0
   0
LINE
   5
36E
 100
AcDbEntity
   8
LEVEL001
 370
13
 100
AcDbLine
   6
CONTINUOUS
  62
7
  10
 3583.1486527832
  20
 4753.8607460432
  30
0.0
  11
 3674.5486527832
  21
 4753.8607460432
  31
0.0
   0
LINE
   5
36F
 100
AcDbEntity
   8
LEVEL001
 370
13
 100
AcDbLine
   6
DOT
  62
6
  10
 3699.1157737670
  20
 4926.3607460432
  30
0.0
  11
 3678.1486527832
  21
 4926.3607460432
  31
0.0
   0
ARC
   5
370
 100
AcDbEntity
   8
LEVEL001
 370
13
   6
DOT
  62
6
 100
AcDbCircle
  10
 3699.1157737670
  20
 4916.3607460432
  30
0.0
  40
 10.000000000000
 100
AcDbArc
  50
 5.6997304514493
  51
 90.000000000000
   0
ARC
   5
371
 100
AcDbEntity
   8
LEVEL001
 370
13
   6
DOT
  62
6
 100
AcDbCircle
  10
 1519.9430522969
  20
 4698.8607460432
  30
0.0
  40
 2200.0000000000
 100
AcDbArc
  50
 1.7635269426123
  51
 5.6997304514032
   0
ARC
   5
372
 100
AcDbEntity
   8
LEVEL001
 370
13
   6
CONTINUOUS
  62
3
 100
AcDbCircle
  10
 3676.3486527832
  20
 4452.2607460432
  30
0.0
  40
 1.8000000000002
 100
AcDbArc
  50
 270.00000000000
  51
0.0
   0
ARC
   5
373
 100
AcDbEntity
   8
LEVEL001
 370
13
   6
CONTINUOUS
  62
3
 100
AcDbCircle
  10
 3676.3486527832
  20
 4452.2607460432
  30
0.0
  40
 1.8000000000002
 100
AcDbArc
  50
 180.00000000000
  51
 270.00000000000
   0
LINE
   5
374
 100
AcDbEntity
   8
LEVEL001
 370
13
 100
AcDbLine
   6
CONTINUOUS
  62
7
  10
 3699.1157737670
  20
 4471.3607460432
  30
0.0
  11
 3678.1486527832
  21
 4471.3607460432
  31
0.0
   0
ARC
   5
375
 100
AcDbEntity
   8
LEVEL001
 370
13
   6
CONTINUOUS
  62
7
 100
AcDbCircle
  10
 3699.1157737670
  20
 4481.3607460432
  30
0.0
  40
 10.000000000000
 100
AcDbArc
  50
 270.00000000000
  51
 354.30026954855
   0
CIRCLE
   5
376
 100
AcDbEntity
   8
LEVEL001
 370
13
 100
AcDbCircle
   6
CONTINUOUS
  62
1
  10
 3574.5336573326
  20
 5148.8607460432
  30
0.0
  40
 69.999997913838
   0
CIRCLE
   5
377
 100
AcDbEntity
   8
LEVEL001
 370
13
 100
AcDbCircle
   6
CONTINUOUS
  62
1
  10
 3714.5336531604
  20
 5148.8607460432
  30
0.0
  40
 69.999997913838
   0
MTEXT
   5
378
 100
AcDbEntity
   8
LEVEL001
 370
13
  62
1
 100
AcDbMText
  10
 3574.5336573326
  20
 5148.8607460432
  30
0.0
  40
 57.142857142858
  41
0.0
  71
5
  72
1
   1
\T1.000000;6
   7
GMM001
  44
 0.79999984000003
   0
MTEXT
   5
379
 100
AcDbEntity
   8
LEVEL001
 370
13
  62
1
 100
AcDbMText
  10
 3714.5336531604
  20
 5148.8607460432
  30
0.0
  40
 57.142857142858
  41
0.0
  71
5
  72
1
   1
\T1.000000;8
   7
GMM001
  44
 0.79999984000003
   0
LEADER
   5
37A
 100
AcDbEntity
   8
LEVEL001
 370
13
   6
CONTINUOUS
  62
1
 100
AcDbLeader
   3
GMM002
  73
3
  74
1
  75
0
  40
 60.000000000000
  41
0.0
  76
2
  10
 3414.1818929398
  20
 4753.8607460432
  30
0.0
  10
 3548.5971307130
  20
 5083.8430846360
  30
0.0
  77
1
   0
MTEXT
   5
37B
 100
AcDbEntity
   8
LEVEL001
 370
13
  62
1
 100
AcDbMText
  10
 3415.0398392050
  20
 5148.8607460432
  30
0.0
  40
 57.142857142858
  41
0.0
  71
5
  72
1
   1
\T1.000000;13
   7
GMM001
  44
 0.79999984000003
   0
CIRCLE
   5
37C
 100
AcDbEntity
   8
LEVEL001
 370
13
 100
AcDbCircle
   6
CONTINUOUS
  62
1
  10
 3415.0398392050
  20
 5148.8607460432
  30
0.0
  40
 70.000000000000
   0
LEADER
   5
37D
 100
AcDbEntity
   8
LEVEL001
 370
13
   6
CONTINUOUS
  62
1
 100
AcDbLeader
   3
GMM002
  73
3
  74
1
  75
0
  40
 60.000000000000
  41
0.0
  76
2
  10
 3215.0398392050
  20
 5054.4607460432
  30
0.0
  10
 3351.8306269456
  20
 5118.7842521394
  30
0.0
  77
1
   0
CIRCLE
   5
37E
 100
AcDbEntity
   8
LEVEL001
 370
13
 100
AcDbCircle
   6
CONTINUOUS
  62
1
  10
 2875.0398433774
  20
 5148.8607460432
  30
0.0
  40
 69.999997913838
   0
CIRCLE
   5
37F
 100
AcDbEntity
   8
LEVEL001
 370
13
 100
AcDbCircle
   6
CONTINUOUS
  62
1
  10
 3015.0398392050
  20
 5148.8607460432
  30
0.0
  40
 69.999997913838
   0
MTEXT
   5
380
 100
AcDbEntity
   8
LEVEL001
 370
13
  62
1
 100
AcDbMText
  10
 3015.0398392050
  20
 5148.8607460432
  30
0.0
  40
 57.142857142858
  41
0.0
  71
5
  72
1
   1
\T1.000000;7
   7
GMM001
  44
 0.79999984000003
   0
MTEXT
   5
381
 100
AcDbEntity
   8
LEVEL001
 370
13
  62
1
 100
AcDbMText
  10
 2875.0398433774
  20
 5148.8607460432
  30
0.0
  40
 57.142857142858
  41
0.0
  71
5
  72
1
   1
\T1.000000;5
   7
GMM001
  44
 0.79999984000003
   0
LEADER
   5
382
 100
AcDbEntity
   8
LEVEL001
 370
13
   6
CONTINUOUS
  62
1
 100
AcDbLeader
   3
GMM002
  73
3
  74
1
  75
0
  40
 60.000000000000
  41
0.0
  76
2
  10
 2815.8205315218
  20
 4753.8607460434
  30
0.0
  10
 2863.6542791254
  20
 5079.7928907514
  30
0.0
  77
1
   0
LINE
   5
383
 100
AcDbEntity
   8
LEVEL001
 370
13
 100
AcDbLine
   6
CONTINUOUS
  62
7
  10
 2755.5310256268
  20
 4643.8607460432
  30
0.0
  11
 2846.9310256268
  21
 4643.8607460432
  31
0.0
   0
LINE
   5
384
 100
AcDbEntity
   8
LEVEL001
 370
13
 100
AcDbLine
   6
CONTINUOUS
  62
7
  10
 2846.9310256268
  20
 4643.8607460432
  30
0.0
  11
 2846.9310256268
  21
 4753.8607460432
  31
0.0
   0
LINE
   5
385
 100
AcDbEntity
   8
LEVEL001
 370
13
 100
AcDbLine
   6
CONTINUOUS
  62
7
  10
 2846.9310256268
  20
 4753.8607460432
  30
0.0
  11
 2755.5310256268
  21
 4753.8607460432
  31
0.0
   0
LINE
   5
386
 100
AcDbEntity
   8
LEVEL001
 370
13
 100
AcDbLine
   6
CONTINUOUS
  62
3
  10
 2751.9310256268
  20
 4945.4607460432
  30
0.0
  11
 2751.9310256268
  21
 4452.2607460432
  31
0.0
   0
ARC
   5
387
 100
AcDbEntity
   8
LEVEL001
 370
13
   6
CONTINUOUS
  62
3
 100
AcDbCircle
  10
 2753.7310256268
  20
 4945.4607460432
  30
0.0
  40
 1.8000000000002
 100
AcDbArc
  50
 90.000000000000
  51
 180.00000000000
   0
LINE
   5
388
 100
AcDbEntity
   8
LEVEL001
 370
13
 100
AcDbLine
   6
CONTINUOUS
  62
3
  10
 2755.5310256268
  20
 4452.2607460432
  30
0.0
  11
 2755.5310256268
  21
 4945.4607460432
  31
0.0
   0
ARC
   5
389
 100
AcDbEntity
   8
LEVEL001
 370
13
   6
CONTINUOUS
  62
3
 100
AcDbCircle
  10
 2753.7310256268
  20
 4945.4607460432
  30
0.0
  40
 1.8000000000002
 100
AcDbArc
  50
0.0
  51
 90.000000000000
   0
LINE
   5
38A
 100
AcDbEntity
   8
LEVEL001
 370
13
 100
AcDbLine
   6
CONTINUOUS
  62
1
  10
 2751.9310256268
  20
 4927.2607460432
  30
0.0
  11
 2676.9310256268
  21
 4927.2607460432
  31
0.0
   0
LINE
   5
38B
 100
AcDbEntity
   8
LEVEL001
 370
13
 100
AcDbLine
   6
CONTINUOUS
  62
1
  10
 2676.9310256268
  20
 4927.2607460432
  30
0.0
  11
 2676.9310256268
  21
 4826.8559837382
  31
0.0
   0
ARC
   5
38C
 100
AcDbEntity
   8
LEVEL001
 370
13
   6
CONTINUOUS
  62
1
 100
AcDbCircle
  10
 2732.6201721128
  20
 4762.2607460432
  30
0.0
  40
 5.0000000000000
 100
AcDbArc
  50
 254.02764019602
  51
 270.00000000067
   0
LINE
   5
38D
 100
AcDbEntity
   8
LEVEL001
 370
13
 100
AcDbLine
   6
CONTINUOUS
  62
1
  10
 2733.3349068244
  20
 4757.2607460432
  30
0.0
  11
 2751.9310256268
  21
 4757.2607460432
  31
0.0
   0
ARC
   5
38E
 100
AcDbEntity
   8
LEVEL001
 370
13
   6
CONTINUOUS
  62
1
 100
AcDbCircle
  10
 2733.3349068244
  20
 4767.2607460432
  30
0.0
  40
 10.000000000000
 100
AcDbArc
  50
 253.42053515292
  51
 270.00000000000
   0
ARC
   5
38F
 100
AcDbEntity
   8
LEVEL001
 370
13
   6
CONTINUOUS
  62
1
 100
AcDbCircle
  10
 2751.8823240552
  20
 4829.5583648908
  30
0.0
  40
 75.000000000000
 100
AcDbArc
  50
 177.93508589807
  51
 253.42053515294
   0
ARC
   5
390
 100
AcDbEntity
   8
LEVEL001
 370
13
   6
CONTINUOUS
  62
7
 100
AcDbCircle
  10
 4910.1366261132
  20
 4698.8607460432
  30
0.0
  40
 2200.0000000000
 100
AcDbArc
  50
 178.23647305739
  51
 185.69973045140
   0
LINE
   5
391
 100
AcDbEntity
   8
LEVEL001
 370
13
 100
AcDbLine
   6
CONTINUOUS
  62
6
  10
 2730.9639046430
  20
 4757.5458940806
  30
0.0
  11
 2730.9639046430
  21
 4471.3607460432
  31
0.0
   0
LINE
   5
392
 100
AcDbEntity
   8
LEVEL001
 370
13
 100
AcDbLine
   6
DOT
  62
6
  10
 2730.9639046430
  20
 4926.3607460432
  30
0.0
  11
 2751.9310256268
  21
 4926.3607460432
  31
0.0
   0
ARC
   5
393
 100
AcDbEntity
   8
LEVEL001
 370
13
   6
DOT
  62
6
 100
AcDbCircle
  10
 2730.9639046430
  20
 4916.3607460432
  30
0.0
  40
 10.000000000000
 100
AcDbArc
  50
 90.000000000000
  51
 174.30026954857
   0
ARC
   5
394
 100
AcDbEntity
   8
LEVEL001
 370
13
   6
DOT
  62
6
 100
AcDbCircle
  10
 4910.1366261132
  20
 4698.8607460432
  30
0.0
  40
 2200.0000000000
 100
AcDbArc
  50
 174.30026954860
  51
 178.23647305739
   0
LINE
   5
395
 100
AcDbEntity
   8
LEVEL001
 370
13
 100
AcDbLine
   6
CONTINUOUS
  62
7
  10
 2730.9639046430
  20
 4471.3607460432
  30
0.0
  11
 2751.9310256268
  21
 4471.3607460432
  31
0.0
   0
ARC
   5
396
 100
AcDbEntity
   8
LEVEL001
 370
13
   6
CONTINUOUS
  62
7
 100
AcDbCircle
  10
 2730.9639046430
  20
 4481.3607460432
  30
0.0
  40
 10.000000000000
 100
AcDbArc
  50
 185.69973045143
  51
 270.00000000000
   0
ARC
   5
397
 100
AcDbEntity
   8
LEVEL001
 370
13
   6
CONTINUOUS
  62
3
 100
AcDbCircle
  10
 2753.7310256268
  20
 4452.2607460432
  30
0.0
  40
 1.8000000000002
 100
AcDbArc
  50
 180.00000000000
  51
 270.00000000000
   0
ARC
   5
398
 100
AcDbEntity
   8
LEVEL001
 370
13
   6
CONTINUOUS
  62
3
 100
AcDbCircle
  10
 2753.7310256268
  20
 4452.2607460432
  30
0.0
  40
 1.8000000000002
 100
AcDbArc
  50
 270.00000000000
  51
0.0
   0
LINE
   5
399
 100
AcDbEntity
   8
LEVEL001
 370
13
 100
AcDbLine
   6
CONTINUOUS
  62
6
  10
 3251.9449306364
  20
 4260.9607463234
  30
0.0
  11
 3251.9449306364
  21
 4251.9607463234
  31
0.0
   0
LINE
   5
39A
 100
AcDbEntity
   8
LEVEL001
 370
13
 100
AcDbLine
   6
CONTINUOUS
  62
6
  10
 3251.9449306364
  20
 4236.9607463234
  30
0.0
  11
 3251.9449306364
  21
 4227.9607463234
  31
0.0
   0
LINE
   5
39B
 100
AcDbEntity
   8
LEVEL001
 370
13
 100
AcDbLine
   6
CONTINUOUS
  62
7
  10
 3268.1169296368
  20
 4239.4607463234
  30
0.0
  11
 3258.1169296368
  21
 4239.4607463234
  31
0.0
   0
LINE
   5
39C
 100
AcDbEntity
   8
LEVEL001
 370
13
 100
AcDbLine
   6
CONTINUOUS
  62
7
  10
 3258.1169296368
  20
 4239.4607463234
  30
0.0
  11
 3258.1169296368
  21
 4249.4607463234
  31
0.0
   0
LINE
   5
39D
 100
AcDbEntity
   8
LEVEL001
 370
13
 100
AcDbLine
   6
CONTINUOUS
  62
7
  10
 3258.1169296368
  20
 4249.4607463234
  30
0.0
  11
 3268.1169296368
  21
 4249.4607463234
  31
0.0
   0
LINE
   5
39E
 100
AcDbEntity
   8
LEVEL001
 370
13
 100
AcDbLine
   6
CONTINUOUS
  62
7
  10
 3268.1169296368
  20
 4249.4607463234
  30
0.0
  11
 3268.1169296368
  21
 4239.4607463234
  31
0.0
   0
LINE
   5
39F
 100
AcDbEntity
   8
LEVEL001
 370
13
 100
AcDbLine
   6
CONTINUOUS
  62
6
  10
 3254.2634556776
  20
 4250.9607463234
  30
0.0
  11
 3254.2634556776
  21
 4237.9607463234
  31
0.0
   0
LINE
   5
3A0
 100
AcDbEntity
   8
LEVEL001
 370
13
 100
AcDbLine
   6
CONTINUOUS
  62
6
  10
 3178.5648642410
  20
 4249.9607463234
  30
0.0
  11
 3178.5648642410
  21
 4238.9607463234
  31
0.0
   0
LINE
   5
3A1
 100
AcDbEntity
   8
LEVEL001
 370
13
 100
AcDbLine
   6
CONTINUOUS
  62
6
  10
 3178.5648642410
  20
 4236.9607463234
  30
0.0
  11
 3178.5648642410
  21
 4227.9607463234
  31
0.0
   0
LINE
   5
3A2
 100
AcDbEntity
   8
LEVEL001
 370
13
 100
AcDbLine
   6
CONTINUOUS
  62
6
  10
 3178.5648642410
  20
 4260.9607463234
  30
0.0
  11
 3178.5648642410
  21
 4251.9607463234
  31
0.0
   0
LINE
   5
3A3
 100
AcDbEntity
   8
LEVEL001
 370
13
 100
AcDbLine
   6
CONTINUOUS
  62
6
  10
 3251.9449306364
  20
 4237.9607463234
  30
0.0
  11
 3179.8257588106
  21
 4237.9607463234
  31
0.0
   0
LINE
   5
3A4
 100
AcDbEntity
   8
LEVEL001
 370
13
 100
AcDbLine
   6
CONTINUOUS
  62
6
  10
 3179.8257588106
  20
 4250.9607463234
  30
0.0
  11
 3251.9449306364
  21
 4250.9607463234
  31
0.0
   0
LINE
   5
3A5
 100
AcDbEntity
   8
LEVEL001
 370
13
 100
AcDbLine
   6
CONTINUOUS
  62
7
  10
 3163.1884529458
  20
 4350.4607460432
  30
0.0
  11
 3160.4745461824
  21
 4343.6759791344
  31
0.0
   0
ARC
   5
3A6
 100
AcDbEntity
   8
LEVEL001
 370
13
   6
CONTINUOUS
  62
7
 100
AcDbCircle
  10
 3165.1169296368
  20
 4341.8190257526
  30
0.0
  40
 5.0000000000000
 100
AcDbArc
  50
 158.19859051371
  51
 180.00000000000
   0
LINE
   5
3A7
 100
AcDbEntity
   8
LEVEL001
 370
13
 100
AcDbLine
   6
CONTINUOUS
  62
7
  10
 3160.1169296368
  20
 4341.8190257526
  30
0.0
  11
 3160.1169296368
  21
 3759.1024663322
  31
0.0
   0
LINE
   5
3A8
 100
AcDbEntity
   8
LEVEL001
 370
13
 100
AcDbLine
   6
CONTINUOUS
  62
6
  10
 3167.1169296368
  20
 4279.4608070814
  30
0.0
  11
 3167.1169296368
  21
 4280.4607460424
  31
0.0
   0
ARC
   5
3A9
 100
AcDbEntity
   8
LEVEL001
 370
13
   6
CONTINUOUS
  62
7
 100
AcDbCircle
  10
 3159.1169296368
  20
 4334.6130995842
  30
0.0
  40
 5.0000000000000
 100
AcDbArc
  50
 0.33350533056703E-9
  51
 21.801409486445
   0
LINE
   5
3AA
 100
AcDbEntity
   8
LEVEL001
 370
13
 100
AcDbLine
   6
CONTINUOUS
  62
7
  10
 3161.9570422364
  20
 4340.9757301026
  30
0.0
  11
 3163.7593130912
  21
 4336.4700529658
  31
0.0
   0
ARC
   5
3AB
 100
AcDbEntity
   8
LEVEL001
 370
13
   6
CONTINUOUS
  62
7
 100
AcDbCircle
  10
 3166.5994256908
  20
 4342.8326834844
  30
0.0
  40
 5.0000000000000
 100
AcDbArc
  50
 158.19859051343
  51
 201.80140948641
   0
LINE
   5
3AC
 100
AcDbEntity
   8
LEVEL001
 370
13
 100
AcDbLine
   6
CONTINUOUS
  62
7
  10
 3163.1884529458
  20
 4350.4607460432
  30
0.0
  11
 3164.1169296368
  21
 4350.0893553668
  31
0.0
   0
LINE
   5
3AD
 100
AcDbEntity
   8
LEVEL001
 370
13
 100
AcDbLine
   6
CONTINUOUS
  62
7
  10
 3164.1169296368
  20
 4350.0893553668
  30
0.0
  11
 3161.9570422364
  21
 4344.6896368662
  31
0.0
   0
LINE
   5
3AE
 100
AcDbEntity
   8
LEVEL001
 370
13
 100
AcDbLine
   6
CONTINUOUS
  62
7
  10
 3164.1169296368
  20
 4334.6130995842
  30
0.0
  11
 3164.1169296368
  21
 3766.3083925006
  31
0.0
   0
LINE
   5
3AF
 100
AcDbEntity
   8
LEVEL001
 370
13
 100
AcDbLine
   6
CONTINUOUS
  62
7
  10
 3167.1169296368
  20
 4280.4607460424
  30
0.0
  11
 3164.1169296368
  21
 4280.4607460424
  31
0.0
   0
LINE
   5
3B0
 100
AcDbEntity
   8
LEVEL001
 370
13
 100
AcDbLine
   6
CONTINUOUS
  62
6
  10
 3164.1169296368
  20
 4279.4608070814
  30
0.0
  11
 3167.1169296368
  21
 4279.4608070814
  31
0.0
   0
LINE
   5
3B1
 100
AcDbEntity
   8
LEVEL001
 370
13
 100
AcDbLine
   6
CONTINUOUS
  62
7
  10
 3167.5724084158
  20
 4265.4603798900
  30
0.0
  11
 3167.5728661798
  21
 4223.4604716066
  31
0.0
   0
ELLIPSE
   5
3B2
 100
AcDbEntity
   8
LEVEL001
 370
13
   6
CONTINUOUS
  62
7
 100
AcDbEllipse
  10
 3163.5724058660
  20
 4265.4605018412
  30
0.0
  11
-4.0000025516047
  21
0.0
  31
0.0
  40
 0.99999938800000
  41
 3.1415621657893
  42
-1.7073511820388
   0
LINE
   5
3B3
 100
AcDbEntity
   8
LEVEL001
 370
13
 100
AcDbLine
   6
CONTINUOUS
  62
7
  10
 3167.5724356598
  20
 4262.9607463234
  30
0.0
  11
 3273.1169296368
  21
 4262.9607463234
  31
0.0
   0
LINE
   5
3B4
 100
AcDbEntity
   8
LEVEL001
 370
13
 100
AcDbLine
   6
CONTINUOUS
  62
7
  10
 3273.1169296368
  20
 4262.9607463234
  30
0.0
  11
 3273.1169296368
  21
 4225.9607463234
  31
0.0
   0
LINE
   5
3B5
 100
AcDbEntity
   8
LEVEL001
 370
13
 100
AcDbLine
   6
CONTINUOUS
  62
7
  10
 3273.1169296368
  20
 4225.9607463234
  30
0.0
  11
 3167.5728389288
  21
 4225.9607463234
  31
0.0
   0
LINE
   5
3B6
 100
AcDbEntity
   8
LEVEL001
 370
13
 100
AcDbLine
   6
CONTINUOUS
  62
7
  10
 3164.1169296368
  20
 4225.9607463234
  30
0.0
  11
 3164.1169296368
  21
 4262.9607463234
  31
0.0
   0
LINE
   5
3B7
 100
AcDbEntity
   8
LEVEL001
 370
13
 100
AcDbLine
   6
CONTINUOUS
  62
7
  10
 3176.8898392050
  20
 4225.9607463234
  30
0.0
  11
 3176.8898392050
  21
 3874.9607460424
  31
0.0
   0
LINE
   5
3B8
 100
AcDbEntity
   8
LEVEL001
 370
13
 100
AcDbLine
   6
CONTINUOUS
  62
7
  10
 3253.1898392050
  20
 3874.9607460424
  30
0.0
  11
 3253.1898392050
  21
 4225.9607463234
  31
0.0
   0
LINE
   5
3B9
 100
AcDbEntity
   8
LEVEL001
 370
13
 100
AcDbLine
   6
CONTINUOUS
  62
7
  10
 3176.8898392050
  20
 4568.8607460432
  30
0.0
  11
 3176.8898392050
  21
 4262.9607463234
  31
0.0
   0
LINE
   5
3BA
 100
AcDbEntity
   8
LEVEL001
 370
13
 100
AcDbLine
   6
CONTINUOUS
  62
7
  10
 3253.1898392050
  20
 4262.9607463234
  30
0.0
  11
 3253.1898392050
  21
 4568.8607460432
  31
0.0
   0
LINE
   5
3BB
 100
AcDbEntity
   8
LEVEL001
 370
13
 100
AcDbLine
   6
CONTINUOUS
  62
6
  10
 3167.1169296368
  20
 4208.4607463234
  30
0.0
  11
 3167.1169296368
  21
 4209.4607768370
  31
0.0
   0
LINE
   5
3BC
 100
AcDbEntity
   8
LEVEL001
 370
13
 100
AcDbLine
   6
CONTINUOUS
  62
6
  10
 3167.1169296368
  20
 4209.4607768370
  30
0.0
  11
 3164.1169296368
  21
 4209.4607768370
  31
0.0
   0
ELLIPSE
   5
3BD
 100
AcDbEntity
   8
LEVEL001
 370
13
   6
CONTINUOUS
  62
7
 100
AcDbEllipse
  10
 3163.5728636286
  20
 4223.4605327590
  30
0.0
  11
-4.0000025516047
  21
0.0
  31
0.0
  40
 0.99999938800000
  41
 1.7072356670409
  42
 3.1415773654645
   0
LINE
   5
3BE
 100
AcDbEntity
   8
LEVEL001
 370
13
 100
AcDbLine
   6
CONTINUOUS
  62
7
  10
 3164.1169296368
  20
 4208.4607463234
  30
0.0
  11
 3167.1169296368
  21
 4208.4607463234
  31
0.0
   0
LINE
   5
3BF
 100
AcDbEntity
   8
LEVEL001
 370
13
 100
AcDbLine
   6
CONTINUOUS
  62
7
  10
 3164.1169296368
  20
 3892.4607457614
  30
0.0
  11
 3167.1169296368
  21
 3892.4607457614
  31
0.0
   0
LINE
   5
3C0
 100
AcDbEntity
   8
LEVEL001
 370
13
 100
AcDbLine
   6
CONTINUOUS
  62
6
  10
 3167.1169296368
  20
 3892.4607457614
  30
0.0
  11
 3167.1169296368
  21
 3891.4607152478
  31
0.0
   0
LINE
   5
3C1
 100
AcDbEntity
   8
LEVEL001
 370
13
 100
AcDbLine
   6
CONTINUOUS
  62
6
  10
 3167.1169296368
  20
 3891.4607152478
  30
0.0
  11
 3164.1169296368
  21
 3891.4607152478
  31
0.0
   0
LINE
   5
3C2
 100
AcDbEntity
   8
LEVEL001
 370
13
 100
AcDbLine
   6
CONTINUOUS
  62
7
  10
 3167.5724084158
  20
 3835.4611121948
  30
0.0
  11
 3167.5728661798
  21
 3877.4610204782
  31
0.0
   0
ELLIPSE
   5
3C3
 100
AcDbEntity
   8
LEVEL001
 370
13
   6
CONTINUOUS
  62
7
 100
AcDbEllipse
  10
 3163.5728636286
  20
 3877.4609593258
  30
0.0
  11
-4.0000025516047
  21
0.0
  31
0.0
  40
 0.99999938800000
  41
-3.1415773654681
  42
-1.7072356670414
   0
LINE
   5
3C4
 100
AcDbEntity
   8
LEVEL001
 370
13
 100
AcDbLine
   6
CONTINUOUS
  62
6
  10
 3167.1169296368
  20
 3821.4606850034
  30
0.0
  11
 3167.1169296368
  21
 3820.4607460424
  31
0.0
   0
LINE
   5
3C5
 100
AcDbEntity
   8
LEVEL001
 370
13
 100
AcDbLine
   6
CONTINUOUS
  62
6
  10
 3164.1169296368
  20
 3821.4606850034
  30
0.0
  11
 3167.1169296368
  21
 3821.4606850034
  31
0.0
   0
ELLIPSE
   5
3C6
 100
AcDbEntity
   8
LEVEL001
 370
13
   6
CONTINUOUS
  62
7
 100
AcDbEllipse
  10
 3163.5724058660
  20
 3835.4609902436
  30
0.0
  11
-4.0000025516047
  21
0.0
  31
0.0
  40
 0.99999938800000
  41
 1.7073511820393
  42
-3.1415621657857
   0
LINE
   5
3C7
 100
AcDbEntity
   8
LEVEL001
 370
13
 100
AcDbLine
   6
CONTINUOUS
  62
7
  10
 3167.1169296368
  20
 3820.4607460424
  30
0.0
  11
 3164.1169296368
  21
 3820.4607460424
  31
0.0
   0
ARC
   5
3C8
 100
AcDbEntity
   8
LEVEL001
 370
13
   6
CONTINUOUS
  62
7
 100
AcDbCircle
  10
 3165.1169296368
  20
 3759.1024663322
  30
0.0
  40
 5.0000000000000
 100
AcDbArc
  50
 180.00000000000
  51
 201.80140948644
   0
LINE
   5
3C9
 100
AcDbEntity
   8
LEVEL001
 370
13
 100
AcDbLine
   6
CONTINUOUS
  62
7
  10
 3163.1884529458
  20
 3750.4607460416
  30
0.0
  11
 3160.4745461824
  21
 3757.2455129504
  31
0.0
   0
ARC
   5
3CA
 100
AcDbEntity
   8
LEVEL001
 370
13
   6
CONTINUOUS
  62
7
 100
AcDbCircle
  10
 3159.1169296368
  20
 3766.3083925006
  30
0.0
  40
 5.0000000000000
 100
AcDbArc
  50
 338.19859051371
  51
0.0
   0
LINE
   5
3CB
 100
AcDbEntity
   8
LEVEL001
 370
13
 100
AcDbLine
   6
CONTINUOUS
  62
7
  10
 3161.9570422364
  20
 3759.9457619822
  30
0.0
  11
 3163.7593130912
  21
 3764.4514391188
  31
0.0
   0
ARC
   5
3CC
 100
AcDbEntity
   8
LEVEL001
 370
13
   6
CONTINUOUS
  62
7
 100
AcDbCircle
  10
 3166.5994256908
  20
 3758.0888086004
  30
0.0
  40
 5.0000000000000
 100
AcDbArc
  50
 158.19859051343
  51
 201.80140948626
   0
LINE
   5
3CD
 100
AcDbEntity
   8
LEVEL001
 370
13
 100
AcDbLine
   6
CONTINUOUS
  62
7
  10
 3163.1884529458
  20
 3750.4607460416
  30
0.0
  11
 3164.1169296368
  21
 3750.8321367180
  31
0.0
   0
LINE
   5
3CE
 100
AcDbEntity
   8
LEVEL001
 370
13
 100
AcDbLine
   6
CONTINUOUS
  62
7
  10
 3164.1169296368
  20
 3750.8321367180
  30
0.0
  11
 3161.9570422364
  21
 3756.2318552186
  31
0.0
   0
LINE
   5
3CF
 100
AcDbEntity
   8
LEVEL001
 370
13
 100
AcDbLine
   6
CONTINUOUS
  62
6
  10
 3251.9449356086
  20
 3849.9607460424
  30
0.0
  11
 3179.8257637830
  21
 3849.9607460424
  31
0.0
   0
LINE
   5
3D0
 100
AcDbEntity
   8
LEVEL001
 370
13
 100
AcDbLine
   6
CONTINUOUS
  62
6
  10
 3179.8257637830
  20
 3862.9607460424
  30
0.0
  11
 3251.9449356086
  21
 3862.9607460424
  31
0.0
   0
LINE
   5
3D1
 100
AcDbEntity
   8
LEVEL001
 370
13
 100
AcDbLine
   6
CONTINUOUS
  62
6
  10
 3251.9449356086
  20
 3872.9607460424
  30
0.0
  11
 3251.9449356086
  21
 3863.9607460424
  31
0.0
   0
LINE
   5
3D2
 100
AcDbEntity
   8
LEVEL001
 370
13
 100
AcDbLine
   6
CONTINUOUS
  62
6
  10
 3251.9449356086
  20
 3848.9607460424
  30
0.0
  11
 3251.9449356086
  21
 3839.9607460424
  31
0.0
   0
LINE
   5
3D3
 100
AcDbEntity
   8
LEVEL001
 370
13
 100
AcDbLine
   6
CONTINUOUS
  62
7
  10
 3268.1169346090
  20
 3851.4607460424
  30
0.0
  11
 3258.1169346090
  21
 3851.4607460424
  31
0.0
   0
LINE
   5
3D4
 100
AcDbEntity
   8
LEVEL001
 370
13
 100
AcDbLine
   6
CONTINUOUS
  62
7
  10
 3258.1169346090
  20
 3851.4607460424
  30
0.0
  11
 3258.1169346090
  21
 3861.4607460424
  31
0.0
   0
LINE
   5
3D5
 100
AcDbEntity
   8
LEVEL001
 370
13
 100
AcDbLine
   6
CONTINUOUS
  62
7
  10
 3258.1169346090
  20
 3861.4607460424
  30
0.0
  11
 3268.1169346090
  21
 3861.4607460424
  31
0.0
   0
LINE
   5
3D6
 100
AcDbEntity
   8
LEVEL001
 370
13
 100
AcDbLine
   6
CONTINUOUS
  62
7
  10
 3268.1169346090
  20
 3861.4607460424
  30
0.0
  11
 3268.1169346090
  21
 3851.4607460424
  31
0.0
   0
LINE
   5
3D7
 100
AcDbEntity
   8
LEVEL001
 370
13
 100
AcDbLine
   6
CONTINUOUS
  62
6
  10
 3254.2634606500
  20
 3862.9607460424
  30
0.0
  11
 3254.2634606500
  21
 3849.9607460424
  31
0.0
   0
LINE
   5
3D8
 100
AcDbEntity
   8
LEVEL001
 370
13
 100
AcDbLine
   6
CONTINUOUS
  62
6
  10
 3178.5648692134
  20
 3861.9607460424
  30
0.0
  11
 3178.5648692134
  21
 3850.9607460424
  31
0.0
   0
LINE
   5
3D9
 100
AcDbEntity
   8
LEVEL001
 370
13
 100
AcDbLine
   6
CONTINUOUS
  62
6
  10
 3178.5648692134
  20
 3872.9607460424
  30
0.0
  11
 3178.5648692134
  21
 3863.9607460424
  31
0.0
   0
LINE
   5
3DA
 100
AcDbEntity
   8
LEVEL001
 370
13
 100
AcDbLine
   6
CONTINUOUS
  62
6
  10
 3178.5648692134
  20
 3848.9607460424
  30
0.0
  11
 3178.5648692134
  21
 3839.9607460424
  31
0.0
   0
LINE
   5
3DB
 100
AcDbEntity
   8
LEVEL001
 370
13
 100
AcDbLine
   6
CONTINUOUS
  62
7
  10
 3167.5728389288
  20
 3874.9607460424
  30
0.0
  11
 3273.1169346090
  21
 3874.9607460424
  31
0.0
   0
LINE
   5
3DC
 100
AcDbEntity
   8
LEVEL001
 370
13
 100
AcDbLine
   6
CONTINUOUS
  62
7
  10
 3273.1169346090
  20
 3874.9607460424
  30
0.0
  11
 3273.1169346090
  21
 3837.9607460424
  31
0.0
   0
LINE
   5
3DD
 100
AcDbEntity
   8
LEVEL001
 370
13
 100
AcDbLine
   6
CONTINUOUS
  62
7
  10
 3273.1169346090
  20
 3837.9607460424
  30
0.0
  11
 3167.5724356598
  21
 3837.9607460424
  31
0.0
   0
LEADER
   5
3DE
 100
AcDbEntity
   8
LEVEL001
 370
13
   6
CONTINUOUS
  62
1
 100
AcDbLeader
   3
GMM002
  73
3
  74
1
  75
0
  40
 60.000000000000
  41
0.0
  76
2
  10
 3273.1169346090
  20
 3874.9607460424
  30
0.0
  10
 3353.6824488930
  20
 3916.7669683668
  30
0.0
  77
1
   0
CIRCLE
   5
3DF
 100
AcDbEntity
   8
LEVEL001
 370
13
 100
AcDbCircle
   6
CONTINUOUS
  62
1
  10
 3415.0398392050
  20
 3950.4607460432
  30
0.0
  40
 70.000000000000
   0
CIRCLE
   5
3E0
 100
AcDbEntity
   8
LEVEL001
 370
13
 100
AcDbCircle
   6
CONTINUOUS
  62
1
  10
 3555.0398392050
  20
 3950.4607460432
  30
0.0
  40
 70.000000000000
   0
MTEXT
   5
3E1
 100
AcDbEntity
   8
LEVEL001
 370
13
  62
1
 100
AcDbMText
  10
 3415.0398392050
  20
 3950.4607460432
  30
0.0
  40
 57.142857142858
  41
0.0
  71
5
  72
1
   1
\T1.000000;15
   7
GMM001
  44
 0.79999984000003
   0
MTEXT
   5
3E2
 100
AcDbEntity
   8
LEVEL001
 370
13
  62
1
 100
AcDbMText
  10
 3555.0398392050
  20
 3950.4607460432
  30
0.0
  40
 57.142857142858
  41
0.0
  71
5
  72
1
   1
\T1.000000;16
   7
GMM001
  44
 0.79999984000003
   0
LINE
   5
3E3
 100
AcDbEntity
   8
LEVEL001
 370
13
 100
AcDbLine
   6
CONTINUOUS
  62
7
  10
 3253.1898392050
  20
 5054.4607460432
  30
0.0
  11
 3176.8898392050
  21
 5054.4607460432
  31
0.0
   0
LINE
   5
3E4
 100
AcDbEntity
   8
LEVEL001
 370
13
 100
AcDbLine
   6
CONTINUOUS
  62
7
  10
 3176.8898392050
  20
 5054.4607460432
  30
0.0
  11
 3176.8898392050
  21
 5051.4607460432
  31
0.0
   0
LINE
   5
3E5
 100
AcDbEntity
   8
LEVEL001
 370
13
 100
AcDbLine
   6
CONTINUOUS
  62
7
  10
 3176.8898392050
  20
 5051.4607460432
  30
0.0
  11
 3253.1898392050
  21
 5051.4607460432
  31
0.0
   0
LINE
   5
3E6
 100
AcDbEntity
   8
LEVEL001
 370
13
 100
AcDbLine
   6
CONTINUOUS
  62
7
  10
 3253.1898392050
  20
 5051.4607460432
  30
0.0
  11
 3253.1898392050
  21
 5054.4607460432
  31
0.0
   0
LINE
   5
3E7
 100
AcDbEntity
   8
LEVEL001
 370
13
 100
AcDbLine
   6
DOT
  62
1
  10
 3248.1898392050
  20
 5051.4607460432
  30
0.0
  11
 3248.1898392050
  21
 5024.4607460432
  31
0.0
   0
LINE
   5
3E8
 100
AcDbEntity
   8
LEVEL001
 370
13
 100
AcDbLine
   6
DOT
  62
1
  10
 3248.1898392050
  20
 5024.4607460432
  30
0.0
  11
 3181.8898392050
  21
 5024.4607460432
  31
0.0
   0
LINE
   5
3E9
 100
AcDbEntity
   8
LEVEL001
 370
13
 100
AcDbLine
   6
DOT
  62
1
  10
 3181.8898392050
  20
 5024.4607460432
  30
0.0
  11
 3181.8898392050
  21
 5051.4607460432
  31
0.0
   0
LINE
   5
3EA
 100
AcDbEntity
   8
LEVEL001
 370
13
 100
AcDbLine
   6
CONTINUOUS
  62
7
  10
 3253.1898392050
  20
 4788.8607460432
  30
0.0
  11
 3253.1898392050
  21
 5050.4607460432
  31
0.0
   0
LINE
   5
3EB
 100
AcDbEntity
   8
LEVEL001
 370
13
 100
AcDbLine
   6
CONTINUOUS
  62
7
  10
 3253.1898392050
  20
 5050.4607460432
  30
0.0
  11
 3176.8898392050
  21
 5050.4607460432
  31
0.0
   0
LINE
   5
3EC
 100
AcDbEntity
   8
LEVEL001
 370
13
 100
AcDbLine
   6
CONTINUOUS
  62
7
  10
 3176.8898392050
  20
 5050.4607460432
  30
0.0
  11
 3176.8898392050
  21
 4788.8607460432
  31
0.0
   0
LINE
   5
3ED
 100
AcDbEntity
   8
LEVEL001
 370
13
 100
AcDbLine
   6
DASHDOT
  62
6
  10
 3215.0398392050
  20
 5106.6567903456
  30
0.0
  11
 3215.0398392050
  21
 2416.4826317536
  31
0.0
   0
LINE
   5
3EE
 100
AcDbEntity
   8
LEVEL001
 370
13
 100
AcDbLine
   6
CONTINUOUS
  62
7
  10
 3253.1898392050
  20
 2416.4826317536
  30
0.0
  11
 3253.1898392050
  21
 3837.9607460424
  31
0.0
   0
LINE
   5
3EF
 100
AcDbEntity
   8
LEVEL001
 370
13
 100
AcDbLine
   6
CONTINUOUS
  62
7
  10
 3176.8898392050
  20
 3837.9607460424
  30
0.0
  11
 3176.8898392050
  21
 2416.4826317536
  31
0.0
   0
MTEXT
   5
3F0
 100
AcDbEntity
   8
LEVEL001
 370
13
  62
1
 100
AcDbMText
  10
 3215.0398392050
  20
 5498.8607460432
  30
0.0
  40
 57.142857142858
  41
0.0
  71
5
  72
1
   1
\T1.000000;側　面　図
   7
GMM001
  44
 0.79999984000003
   0
CIRCLE
   5
3F1
 100
AcDbEntity
   8
LEVEL001
 370
13
 100
AcDbCircle
   6
CONTINUOUS
  62
7
  10
 2865.0398054030
  20
 1450.4607460432
  30
0.0
  40
 7.5000000000000
   0
LINE
   5
3F2
 100
AcDbEntity
   8
LEVEL001
 370
13
 100
AcDbLine
   6
DASHDOT
  62
6
  10
 2835.0398054030
  20
 1450.4607460432
  30
0.0
  11
 2895.0398054030
  21
 1450.4607460432
  31
0.0
   0
LINE
   5
3F3
 100
AcDbEntity
   8
LEVEL001
 370
13
 100
AcDbLine
   6
DASHDOT
  62
6
  10
 2805.0398211194
  20
 1350.4607460432
  30
0.0
  11
 2925.0398211194
  21
 1350.4607460432
  31
0.0
   0
LINE
   5
3F4
 100
AcDbEntity
   8
LEVEL001
 370
13
 100
AcDbLine
   6
CONTINUOUS
  62
7
  10
 2826.8898392050
  20
 1357.9607460432
  30
0.0
  11
 2755.0398211194
  21
 1357.9607460432
  31
0.0
   0
LINE
   5
3F5
 100
AcDbEntity
   8
LEVEL001
 370
13
 100
AcDbLine
   6
CONTINUOUS
  62
7
  10
 2755.0398211194
  20
 1357.9607460432
  30
0.0
  11
 2755.0398211194
  21
 1342.9607460432
  31
0.0
   0
LINE
   5
3F6
 100
AcDbEntity
   8
LEVEL001
 370
13
 100
AcDbLine
   6
CONTINUOUS
  62
7
  10
 2755.0398211194
  20
 1342.9607460432
  30
0.0
  11
 2826.8898392050
  21
 1342.9607460432
  31
0.0
   0
LINE
   5
3F7
 100
AcDbEntity
   8
LEVEL001
 370
13
 100
AcDbLine
   6
CONTINUOUS
  62
7
  10
 2903.1898392050
  20
 1357.9607460432
  30
0.0
  11
 2975.0398211194
  21
 1357.9607460432
  31
0.0
   0
LINE
   5
3F8
 100
AcDbEntity
   8
LEVEL001
 370
13
 100
AcDbLine
   6
CONTINUOUS
  62
7
  10
 2975.0398211194
  20
 1357.9607460432
  30
0.0
  11
 2975.0398211194
  21
 1342.9607460432
  31
0.0
   0
LINE
   5
3F9
 100
AcDbEntity
   8
LEVEL001
 370
13
 100
AcDbLine
   6
CONTINUOUS
  62
7
  10
 2975.0398211194
  20
 1342.9607460432
  30
0.0
  11
 2903.1898392050
  21
 1342.9607460432
  31
0.0
   0
LINE
   5
3FA
 100
AcDbEntity
   8
LEVEL001
 370
13
 100
AcDbLine
   6
DOT
  62
1
  10
 2903.1898392050
  20
 1342.9607460432
  30
0.0
  11
 2826.8898392050
  21
 1342.9607460432
  31
0.0
   0
LINE
   5
3FB
 100
AcDbEntity
   8
LEVEL001
 370
13
 100
AcDbLine
   6
DOT
  62
1
  10
 2826.8898392050
  20
 1357.9607460432
  30
0.0
  11
 2903.1898392050
  21
 1357.9607460432
  31
0.0
   0
ARC
   5
3FC
 100
AcDbEntity
   8
LEVEL001
 370
13
   6
CONTINUOUS
  62
7
 100
AcDbCircle
  10
 3203.1898392050
  20
 1734.4388603328
  30
0.0
  40
 300.00000000000
 100
AcDbArc
  50
 142.12501634890
  51
 180.00000000000
   0
ARC
   5
3FD
 100
AcDbEntity
   8
LEVEL001
 370
13
   6
DASHDOT
  62
6
 100
AcDbCircle
  10
 3203.1898392050
  20
 1734.4388603328
  30
0.0
  40
 338.15000000000
 100
AcDbArc
  50
 142.12501634890
  51
 180.00000000000
   0
ARC
   5
3FE
 100
AcDbEntity
   8
LEVEL001
 370
13
   6
CONTINUOUS
  62
7
 100
AcDbCircle
  10
 3203.1898392050
  20
 1734.4388603328
  30
0.0
  40
 376.30000000000
 100
AcDbArc
  50
 142.12501634890
  51
 180.00000000000
   0
LINE
   5
3FF
 100
AcDbEntity
   8
LEVEL001
 370
13
 100
AcDbLine
   6
CONTINUOUS
  62
7
  10
 2966.3841739922
  20
 1918.6210443872
  30
0.0
  11
 3173.9230786038
  21
 2185.4567788878
  31
0.0
   0
LINE
   5
400
 100
AcDbEntity
   8
LEVEL001
 370
13
 100
AcDbLine
   6
CONTINUOUS
  62
7
  10
 2826.8898392050
  20
 1734.4388603328
  30
0.0
  11
 2826.8898392050
  21
 1050.4607460432
  31
0.0
   0
LINE
   5
401
 100
AcDbEntity
   8
LEVEL001
 370
13
 100
AcDbLine
   6
CONTINUOUS
  62
7
  10
 2826.8898392050
  20
 1050.4607460432
  30
0.0
  11
 2903.1898392050
  21
 1050.4607460432
  31
0.0
   0
LINE
   5
402
 100
AcDbEntity
   8
LEVEL001
 370
13
 100
AcDbLine
   6
CONTINUOUS
  62
7
  10
 2903.1898392050
  20
 1050.4607460432
  30
0.0
  11
 2903.1898392050
  21
 1734.4388603328
  31
0.0
   0
LINE
   5
403
 100
AcDbEntity
   8
LEVEL001
 370
13
 100
AcDbLine
   6
DASHDOT
  62
6
  10
 2865.0398392050
  20
 1734.4388603328
  30
0.0
  11
 2865.0398392050
  21
 950.46074604317
  31
0.0
   0
ARC
   5
404
 100
AcDbEntity
   8
LEVEL001
 370
13
   6
CONTINUOUS
  62
7
 100
AcDbCircle
  10
 2876.8898392050
  20
 2416.4826317536
  30
0.0
  40
 300.00000000000
 100
AcDbArc
  50
 322.12501634890
  51
0.0
   0
ARC
   5
405
 100
AcDbEntity
   8
LEVEL001
 370
13
   6
DASHDOT
  62
6
 100
AcDbCircle
  10
 2876.8898392050
  20
 2416.4826317536
  30
0.0
  40
 338.15000000000
 100
AcDbArc
  50
 322.12501634890
  51
0.0
   0
LINE
   5
406
 100
AcDbEntity
   8
LEVEL001
 370
13
 100
AcDbLine
   6
CONTINUOUS
  62
7
  10
 3113.6955044178
  20
 2232.3004476992
  30
0.0
  11
 2906.1565998062
  21
 1965.4647131984
  31
0.0
   0
ARC
   5
407
 100
AcDbEntity
   8
LEVEL001
 370
13
   6
CONTINUOUS
  62
7
 100
AcDbCircle
  10
 2876.8898392050
  20
 2416.4826317536
  30
0.0
  40
 376.30000000000
 100
AcDbArc
  50
 322.12501634890
  51
0.0
   0
POINT
   5
408
 100
AcDbEntity
   8
LEVEL001
 100
AcDbPoint
  62
2
  10
 2865.0398392050
  20
 1850.4607460432
  30
0.0
   0
POINT
   5
409
 100
AcDbEntity
   8
LEVEL001
 100
AcDbPoint
  62
2
  10
 3215.0398392050
  20
 2300.4607460432
  30
0.0
   0
LINE
   5
40A
 100
AcDbEntity
   8
LEVEL001
 370
13
 100
AcDbLine
   6
DASHDOT
  62
6
  10
 2936.2703868992
  20
 1942.0428787929
  30
0.0
  11
 3143.8092915108
  21
 2208.8786132936
  31
0.0
   0
MTEXT
   5
40C
 100
AcDbEntity
   8
LEVEL001
 370
13
  62
1
 100
AcDbMText
  10
 2485.6884444144
  20
 1959.1906830835
  30
0.0
  40
 40.000000000000
  41
0.0
  71
7
  72
1
   1
\T1.000000;ＧＬ
   7
GMM003
  44
 0.79999984000003
   0
LINE
   5
40D
 100
AcDbEntity
   8
LEVEL001
 370
13
 100
AcDbLine
   6
CONTINUOUS
  62
1
  10
 2457.5397739696
  20
 1950.4607460432
  30
0.0
  11
 2432.5397739696
  21
 2000.4607460432
  31
0.0
   0
LINE
   5
40E
 100
AcDbEntity
   8
LEVEL001
 370
13
 100
AcDbLine
   6
CONTINUOUS
  62
1
  10
 2432.5397739696
  20
 2000.4607460432
  30
0.0
  11
 2482.5397739696
  21
 2000.4607460432
  31
0.0
   0
LINE
   5
40F
 100
AcDbEntity
   8
LEVEL001
 370
13
 100
AcDbLine
   6
CONTINUOUS
  62
1
  10
 2482.5397739696
  20
 2000.4607460432
  30
0.0
  11
 2457.5397739696
  21
 1950.4607460432
  31
0.0
   0
CIRCLE
   5
410
 100
AcDbEntity
   8
LEVEL001
 370
13
 100
AcDbCircle
   6
CONTINUOUS
  62
1
  10
 2490.0398392050
  20
 1200.4607460432
  30
0.0
  40
 70.000000000000
   0
MTEXT
   5
411
 100
AcDbEntity
   8
LEVEL001
 370
13
  62
1
 100
AcDbMText
  10
 2490.0398392050
  20
 1200.4607460432
  30
0.0
  40
 57.142857142858
  41
0.0
  71
5
  72
1
   1
\T1.000000;12
   7
GMM001
  44
 0.79999984000003
   0
LEADER
   5
412
 100
AcDbEntity
   8
LEVEL001
 370
13
   6
CONTINUOUS
  62
1
 100
AcDbLeader
   3
GMM002
  73
3
  74
1
  75
0
  40
 60.000000000000
  41
0.0
  76
2
  10
 2755.0398211194
  20
 1342.9607460432
  30
0.0
  10
 2551.6914813450
  20
 1233.6130464376
  30
0.0
  77
1
   0
LEADER
   5
413
 100
AcDbEntity
   8
LEVEL001
 370
13
   6
CONTINUOUS
  62
1
 100
AcDbLeader
   3
GMM002
  73
3
  74
1
  75
0
  40
 60.000000000000
  41
0.0
  76
2
  10
 2676.9310256268
  20
 4927.2607460432
  30
0.0
  10
 2375.2269604208
  20
 5113.1184720852
  30
0.0
  77
1
   0
LEADER
   5
414
 100
AcDbEntity
   8
LEVEL001
 370
13
   6
CONTINUOUS
  62
1
 100
AcDbLeader
   3
GMM002
  73
3
  74
1
  75
0
  40
 60.000000000000
  41
0.0
  76
2
  10
 2715.2562193484
  20
 4548.8607460432
  30
0.0
  10
 2376.6280759962
  20
 4366.2306843792
  30
0.0
  77
1
   0
LEADER
   5
415
 100
AcDbEntity
   8
LEVEL001
 370
13
   6
CONTINUOUS
  62
1
 100
AcDbLeader
   3
GMM002
  73
3
  74
1
  75
0
  40
 60.000000000000
  41
0.0
  76
2
  10
 2115.0398392050
  20
 4548.8607460432
  30
0.0
  10
 2267.9027968204
  20
 4384.7110981498
  30
0.0
  77
1
   0
LINE
   5
416
 100
AcDbEntity
   8
LEVEL001
 370
13
 100
AcDbLine
   6
CONTINUOUS
  62
5
  10
 3175.7200340516
  20
 1950.4607460432
  30
0.0
  11
 3123.2200340516
  21
 1897.9607460432
  31
0.0
   0
LINE
   5
417
 100
AcDbEntity
   8
LEVEL001
 370
13
 100
AcDbLine
   6
CONTINUOUS
  62
5
  10
 3139.1299366278
  20
 1897.9607460432
  30
0.0
  11
 3191.6299366278
  21
 1950.4607460432
  31
0.0
   0
LINE
   5
418
 100
AcDbEntity
   8
LEVEL001
 370
13
 100
AcDbLine
   6
CONTINUOUS
  62
5
  10
 3207.5398392054
  20
 1950.4607460432
  30
0.0
  11
 3155.0398392054
  21
 1897.9607460432
  31
0.0
   0
LINE
   5
419
 100
AcDbEntity
   8
LEVEL001
 370
13
 100
AcDbLine
   6
CONTINUOUS
  62
5
  10
 3170.9497417814
  20
 1897.9607460432
  30
0.0
  11
 3223.4497417814
  21
 1950.4607460432
  31
0.0
   0
LINE
   5
41A
 100
AcDbEntity
   8
LEVEL001
 370
13
 100
AcDbLine
   6
CONTINUOUS
  62
5
  10
 3228.2200340520
  20
 1897.9607460432
  30
0.0
  11
 3199.5848879166
  21
 1926.5958921785
  31
0.0
   0
LINE
   5
41B
 100
AcDbEntity
   8
LEVEL001
 370
13
 100
AcDbLine
   6
CONTINUOUS
  62
5
  10
 3207.5398392048
  20
 1934.5508434667
  30
0.0
  11
 3244.1299366284
  21
 1897.9607460432
  31
0.0
   0
LINE
   5
41C
 100
AcDbEntity
   8
LEVEL001
 370
13
 100
AcDbLine
   6
CONTINUOUS
  62
5
  10
 3260.0398392048
  20
 1897.9607460432
  30
0.0
  11
 3215.4947904930
  21
 1942.5057947549
  31
0.0
   0
LINE
   5
41D
 100
AcDbEntity
   8
LEVEL001
 370
13
 100
AcDbLine
   6
CONTINUOUS
  62
5
  10
 3223.4497417814
  20
 1950.4607460432
  30
0.0
  11
 3275.9497417816
  21
 1897.9607460432
  31
0.0
   0
LINE
   5
41E
 100
AcDbEntity
   8
LEVEL001
 370
13
 100
AcDbLine
   6
CONTINUOUS
  62
5
  10
 3275.9497417816
  20
 1897.9607460432
  30
0.0
  11
 3328.4497417816
  21
 1950.4607460432
  31
0.0
   0
LINE
   5
41F
 100
AcDbEntity
   8
LEVEL001
 370
13
 100
AcDbLine
   6
CONTINUOUS
  62
5
  10
 3280.7200340518
  20
 1950.4607460432
  30
0.0
  11
 3252.0848879166
  21
 1921.8255999080
  31
0.0
   0
LINE
   5
420
 100
AcDbEntity
   8
LEVEL001
 370
13
 100
AcDbLine
   6
CONTINUOUS
  62
5
  10
 3260.0398392048
  20
 1913.8706486200
  30
0.0
  11
 3296.6299366280
  21
 1950.4607460432
  31
0.0
   0
LINE
   5
421
 100
AcDbEntity
   8
LEVEL001
 370
13
 100
AcDbLine
   6
CONTINUOUS
  62
5
  10
 3312.5398392056
  20
 1950.4607460432
  30
0.0
  11
 3267.9947904936
  21
 1905.9156973312
  31
0.0
   0
LINE
   5
422
 100
AcDbEntity
   8
LEVEL001
 370
13
 100
AcDbLine
   6
CONTINUOUS
  62
5
  10
 3333.2200340522
  20
 1897.9607460432
  30
0.0
  11
 3304.5848879168
  21
 1926.5958921785
  31
0.0
   0
LINE
   5
423
 100
AcDbEntity
   8
LEVEL001
 370
13
 100
AcDbLine
   6
CONTINUOUS
  62
5
  10
 3312.5398392050
  20
 1934.5508434667
  30
0.0
  11
 3349.1299366286
  21
 1897.9607460432
  31
0.0
   0
LINE
   5
424
 100
AcDbEntity
   8
LEVEL001
 370
13
 100
AcDbLine
   6
CONTINUOUS
  62
5
  10
 3365.0398392050
  20
 1897.9607460432
  30
0.0
  11
 3320.4947904932
  21
 1942.5057947549
  31
0.0
   0
LINE
   5
425
 100
AcDbEntity
   8
LEVEL001
 370
13
 100
AcDbLine
   6
CONTINUOUS
  62
5
  10
 3328.4497417816
  20
 1950.4607460432
  30
0.0
  11
 3365.0398392050
  21
 1913.8706486199
  31
0.0
   0
LINE
   5
426
 100
AcDbEntity
   8
LEVEL001
 370
13
 100
AcDbLine
   6
CONTINUOUS
  62
5
  10
 3115.0398392050
  20
 1050.4607460432
  30
0.0
  11
 3115.0398392050
  21
 1950.4607460432
  31
0.0
   0
LINE
   5
427
 100
AcDbEntity
   8
LEVEL001
 370
13
 100
AcDbLine
   6
CONTINUOUS
  62
5
  10
 3115.0398392050
  20
 1788.6714422475
  30
0.0
  11
 2903.1898392050
  21
 1576.8214422475
  31
0.0
   0
LINE
   5
428
 100
AcDbEntity
   8
LEVEL001
 370
13
 100
AcDbLine
   6
CONTINUOUS
  62
5
  10
 2903.1898392050
  20
 1541.4661031882
  30
0.0
  11
 3115.0398392050
  21
 1753.3161031882
  31
0.0
   0
LINE
   5
429
 100
AcDbEntity
   8
LEVEL001
 370
13
 100
AcDbLine
   6
CONTINUOUS
  62
5
  10
 3115.0398392050
  20
 1717.9607641288
  30
0.0
  11
 2903.1898392050
  21
 1506.1107641288
  31
0.0
   0
LINE
   5
42A
 100
AcDbEntity
   8
LEVEL001
 370
13
 100
AcDbLine
   6
CONTINUOUS
  62
5
  10
 2991.1483863912
  20
 1950.4607460432
  30
0.0
  11
 3365.0398392050
  21
 1950.4607460432
  31
0.0
   0
LINE
   5
42B
 100
AcDbEntity
   8
LEVEL001
 370
13
 100
AcDbLine
   6
CONTINUOUS
  62
5
  10
 3115.0398392050
  20
 1050.4607460432
  30
0.0
  11
 3065.0398392050
  21
 950.46074604320
  31
0.0
   0
LINE
   5
42C
 100
AcDbEntity
   8
LEVEL001
 370
13
 100
AcDbLine
   6
CONTINUOUS
  62
5
  10
 3065.0398392050
  20
 1050.4607460432
  30
0.0
  11
 3105.0398392050
  21
 1030.4607460432
  31
0.0
   0
LINE
   5
42D
 100
AcDbEntity
   8
LEVEL001
 370
13
 100
AcDbLine
   6
CONTINUOUS
  62
5
  10
 3065.0398392050
  20
 1050.4607460432
  30
0.0
  11
 3015.0398392050
  21
 950.46074604320
  31
0.0
   0
LINE
   5
42E
 100
AcDbEntity
   8
LEVEL001
 370
13
 100
AcDbLine
   6
CONTINUOUS
  62
5
  10
 3015.0398392050
  20
 1050.4607460432
  30
0.0
  11
 3055.0398392050
  21
 1030.4607460432
  31
0.0
   0
LINE
   5
42F
 100
AcDbEntity
   8
LEVEL001
 370
13
 100
AcDbLine
   6
CONTINUOUS
  62
5
  10
 3015.0398392050
  20
 1050.4607460432
  30
0.0
  11
 2965.0398392050
  21
 950.46074604320
  31
0.0
   0
LINE
   5
430
 100
AcDbEntity
   8
LEVEL001
 370
13
 100
AcDbLine
   6
CONTINUOUS
  62
5
  10
 2965.0398392050
  20
 1050.4607460432
  30
0.0
  11
 3005.0398392050
  21
 1030.4607460432
  31
0.0
   0
LINE
   5
431
 100
AcDbEntity
   8
LEVEL001
 370
13
 100
AcDbLine
   6
CONTINUOUS
  62
5
  10
 3115.0398392050
  20
 950.46074604320
  30
0.0
  11
 3075.0398392050
  21
 970.46074604320
  31
0.0
   0
LINE
   5
432
 100
AcDbEntity
   8
LEVEL001
 370
13
 100
AcDbLine
   6
CONTINUOUS
  62
5
  10
 3065.0398392050
  20
 950.46074604320
  30
0.0
  11
 3025.0398392050
  21
 970.46074604320
  31
0.0
   0
LINE
   5
433
 100
AcDbEntity
   8
LEVEL001
 370
13
 100
AcDbLine
   6
CONTINUOUS
  62
5
  10
 3015.0398392050
  20
 950.46074604320
  30
0.0
  11
 2975.0398392050
  21
 970.46074604320
  31
0.0
   0
LINE
   5
434
 100
AcDbEntity
   8
LEVEL001
 370
13
 100
AcDbLine
   6
CONTINUOUS
  62
5
  10
 3115.0398392050
  20
 1050.4607460432
  30
0.0
  11
 2615.0398392050
  21
 1050.4607460432
  31
0.0
   0
LINE
   5
435
 100
AcDbEntity
   8
LEVEL001
 370
13
 100
AcDbLine
   6
CONTINUOUS
  62
5
  10
 2615.0398392050
  20
 950.46074604320
  30
0.0
  11
 3115.0398392050
  21
 950.46074604320
  31
0.0
   0
LINE
   5
436
 100
AcDbEntity
   8
LEVEL001
 370
13
 100
AcDbLine
   6
CONTINUOUS
  62
5
  10
 3115.0398392050
  20
 950.46074604320
  30
0.0
  11
 3115.0398392050
  21
 1050.4607460432
  31
0.0
   0
LINE
   5
437
 100
AcDbEntity
   8
LEVEL001
 370
13
 100
AcDbLine
   6
CONTINUOUS
  62
5
  10
 2615.0398392050
  20
 1050.4607460432
  30
0.0
  11
 3115.0398392050
  21
 1050.4607460432
  31
0.0
   0
LINE
   5
438
 100
AcDbEntity
   8
LEVEL001
 370
13
 100
AcDbLine
   6
CONTINUOUS
  62
5
  10
 2615.0398392050
  20
 1050.4607460432
  30
0.0
  11
 2615.0398392050
  21
 950.46074604320
  31
0.0
   0
LINE
   5
439
 100
AcDbEntity
   8
LEVEL001
 370
13
 100
AcDbLine
   6
CONTINUOUS
  62
5
  10
 2615.0398392050
  20
 1950.4607460432
  30
0.0
  11
 2615.0398392050
  21
 1050.4607460432
  31
0.0
   0
LINE
   5
43A
 100
AcDbEntity
   8
LEVEL001
 370
13
 100
AcDbLine
   6
CONTINUOUS
  62
5
  10
 2765.0398392050
  20
 1050.4607460432
  30
0.0
  11
 2715.0398392050
  21
 950.46074604320
  31
0.0
   0
LINE
   5
43B
 100
AcDbEntity
   8
LEVEL001
 370
13
 100
AcDbLine
   6
CONTINUOUS
  62
5
  10
 2715.0398392050
  20
 1050.4607460432
  30
0.0
  11
 2755.0398392050
  21
 1030.4607460432
  31
0.0
   0
LINE
   5
43C
 100
AcDbEntity
   8
LEVEL001
 370
13
 100
AcDbLine
   6
CONTINUOUS
  62
5
  10
 2715.0398392050
  20
 1050.4607460432
  30
0.0
  11
 2665.0398392050
  21
 950.46074604320
  31
0.0
   0
LINE
   5
43D
 100
AcDbEntity
   8
LEVEL001
 370
13
 100
AcDbLine
   6
CONTINUOUS
  62
5
  10
 2665.0398392050
  20
 1050.4607460432
  30
0.0
  11
 2705.0398392050
  21
 1030.4607460432
  31
0.0
   0
LINE
   5
43E
 100
AcDbEntity
   8
LEVEL001
 370
13
 100
AcDbLine
   6
CONTINUOUS
  62
5
  10
 2665.0398392050
  20
 1050.4607460432
  30
0.0
  11
 2615.0398392050
  21
 950.46074604320
  31
0.0
   0
LINE
   5
43F
 100
AcDbEntity
   8
LEVEL001
 370
13
 100
AcDbLine
   6
CONTINUOUS
  62
5
  10
 2615.0398392050
  20
 1050.4607460432
  30
0.0
  11
 2655.0398392050
  21
 1030.4607460432
  31
0.0
   0
LINE
   5
440
 100
AcDbEntity
   8
LEVEL001
 370
13
 100
AcDbLine
   6
CONTINUOUS
  62
5
  10
 2765.0398392050
  20
 950.46074604320
  30
0.0
  11
 2725.0398392050
  21
 970.46074604320
  31
0.0
   0
LINE
   5
441
 100
AcDbEntity
   8
LEVEL001
 370
13
 100
AcDbLine
   6
CONTINUOUS
  62
5
  10
 2715.0398392050
  20
 950.46074604320
  30
0.0
  11
 2675.0398392050
  21
 970.46074604320
  31
0.0
   0
LINE
   5
442
 100
AcDbEntity
   8
LEVEL001
 370
13
 100
AcDbLine
   6
CONTINUOUS
  62
5
  10
 2665.0398392050
  20
 950.46074604320
  30
0.0
  11
 2625.0398392050
  21
 970.46074604320
  31
0.0
   0
LINE
   5
443
 100
AcDbEntity
   8
LEVEL001
 370
13
 100
AcDbLine
   6
CONTINUOUS
  62
5
  10
 2615.0398392050
  20
 1253.3161031882
  30
0.0
  11
 2826.8898392050
  21
 1465.1661031882
  31
0.0
   0
LINE
   5
444
 100
AcDbEntity
   8
LEVEL001
 370
13
 100
AcDbLine
   6
CONTINUOUS
  62
5
  10
 2826.8898392050
  20
 1429.8107641288
  30
0.0
  11
 2615.0398392050
  21
 1217.9607641288
  31
0.0
   0
LINE
   5
445
 100
AcDbEntity
   8
LEVEL001
 370
13
 100
AcDbLine
   6
CONTINUOUS
  62
5
  10
 2826.8898392050
  20
 1500.5214422475
  30
0.0
  11
 2615.0398392050
  21
 1288.6714422475
  31
0.0
   0
LINE
   5
446
 100
AcDbEntity
   8
LEVEL001
 370
13
 100
AcDbLine
   6
CONTINUOUS
  62
5
  10
 2525.9497417816
  20
 1897.9607460432
  30
0.0
  11
 2578.4497417816
  21
 1950.4607460432
  31
0.0
   0
LINE
   5
447
 100
AcDbEntity
   8
LEVEL001
 370
13
 100
AcDbLine
   6
CONTINUOUS
  62
5
  10
 2510.0398392048
  20
 1913.8706486200
  30
0.0
  11
 2546.6299366280
  21
 1950.4607460432
  31
0.0
   0
LINE
   5
448
 100
AcDbEntity
   8
LEVEL001
 370
13
 100
AcDbLine
   6
CONTINUOUS
  62
5
  10
 2562.5398392056
  20
 1950.4607460432
  30
0.0
  11
 2517.9947904936
  21
 1905.9156973312
  31
0.0
   0
LINE
   5
449
 100
AcDbEntity
   8
LEVEL001
 370
13
 100
AcDbLine
   6
CONTINUOUS
  62
5
  10
 2583.2200340522
  20
 1897.9607460432
  30
0.0
  11
 2554.5848879168
  21
 1926.5958921785
  31
0.0
   0
LINE
   5
44A
 100
AcDbEntity
   8
LEVEL001
 370
13
 100
AcDbLine
   6
CONTINUOUS
  62
5
  10
 2562.5398392050
  20
 1934.5508434667
  30
0.0
  11
 2599.1299366286
  21
 1897.9607460432
  31
0.0
   0
LINE
   5
44B
 100
AcDbEntity
   8
LEVEL001
 370
13
 100
AcDbLine
   6
CONTINUOUS
  62
5
  10
 2615.0398392050
  20
 1897.9607460432
  30
0.0
  11
 2570.4947904932
  21
 1942.5057947549
  31
0.0
   0
LINE
   5
44C
 100
AcDbEntity
   8
LEVEL001
 370
13
 100
AcDbLine
   6
CONTINUOUS
  62
5
  10
 2425.7200340516
  20
 1950.4607460432
  30
0.0
  11
 2373.2200340516
  21
 1897.9607460432
  31
0.0
   0
LINE
   5
44D
 100
AcDbEntity
   8
LEVEL001
 370
13
 100
AcDbLine
   6
CONTINUOUS
  62
5
  10
 2389.1299366278
  20
 1897.9607460432
  30
0.0
  11
 2441.6299366278
  21
 1950.4607460432
  31
0.0
   0
LINE
   5
44E
 100
AcDbEntity
   8
LEVEL001
 370
13
 100
AcDbLine
   6
CONTINUOUS
  62
5
  10
 2457.5398392054
  20
 1950.4607460432
  30
0.0
  11
 2405.0398392054
  21
 1897.9607460432
  31
0.0
   0
LINE
   5
44F
 100
AcDbEntity
   8
LEVEL001
 370
13
 100
AcDbLine
   6
CONTINUOUS
  62
5
  10
 2420.9497417814
  20
 1897.9607460432
  30
0.0
  11
 2473.4497417814
  21
 1950.4607460432
  31
0.0
   0
LINE
   5
450
 100
AcDbEntity
   8
LEVEL001
 370
13
 100
AcDbLine
   6
CONTINUOUS
  62
5
  10
 2478.2200340520
  20
 1897.9607460432
  30
0.0
  11
 2449.5848879166
  21
 1926.5958921785
  31
0.0
   0
LINE
   5
451
 100
AcDbEntity
   8
LEVEL001
 370
13
 100
AcDbLine
   6
CONTINUOUS
  62
5
  10
 2457.5398392048
  20
 1934.5508434667
  30
0.0
  11
 2494.1299366284
  21
 1897.9607460432
  31
0.0
   0
LINE
   5
452
 100
AcDbEntity
   8
LEVEL001
 370
13
 100
AcDbLine
   6
CONTINUOUS
  62
5
  10
 2510.0398392048
  20
 1897.9607460432
  30
0.0
  11
 2465.4947904930
  21
 1942.5057947549
  31
0.0
   0
LINE
   5
453
 100
AcDbEntity
   8
LEVEL001
 370
13
 100
AcDbLine
   6
CONTINUOUS
  62
5
  10
 2473.4497417814
  20
 1950.4607460432
  30
0.0
  11
 2525.9497417816
  21
 1897.9607460432
  31
0.0
   0
LINE
   5
454
 100
AcDbEntity
   8
LEVEL001
 370
13
 100
AcDbLine
   6
CONTINUOUS
  62
5
  10
 2530.7200340518
  20
 1950.4607460432
  30
0.0
  11
 2502.0848879166
  21
 1921.8255999080
  31
0.0
   0
LINE
   5
455
 100
AcDbEntity
   8
LEVEL001
 370
13
 100
AcDbLine
   6
CONTINUOUS
  62
5
  10
 2578.4497417816
  20
 1950.4607460432
  30
0.0
  11
 2615.0398392050
  21
 1913.8706486199
  31
0.0
   0
LINE
   5
456
 100
AcDbEntity
   8
LEVEL001
 370
13
 100
AcDbLine
   6
CONTINUOUS
  62
5
  10
 2895.0725970810
  20
 1950.4607460432
  30
0.0
  11
 2365.0398392050
  21
 1950.4607460432
  31
0.0
   0
LINE
   5
457
 100
AcDbEntity
   8
LEVEL001
 370
13
 100
AcDbLine
   6
CONTINUOUS
  62
5
  10
 1825.7200340517
  20
 1950.4607460432
  30
0.0
  11
 1773.2200340517
  21
 1897.9607460432
  31
0.0
   0
LINE
   5
458
 100
AcDbEntity
   8
LEVEL001
 370
13
 100
AcDbLine
   6
CONTINUOUS
  62
5
  10
 1789.1299366277
  20
 1897.9607460432
  30
0.0
  11
 1841.6299366277
  21
 1950.4607460432
  31
0.0
   0
LINE
   5
459
 100
AcDbEntity
   8
LEVEL001
 370
13
 100
AcDbLine
   6
CONTINUOUS
  62
5
  10
 1857.5398392053
  20
 1950.4607460432
  30
0.0
  11
 1805.0398392053
  21
 1897.9607460432
  31
0.0
   0
LINE
   5
45A
 100
AcDbEntity
   8
LEVEL001
 370
13
 100
AcDbLine
   6
CONTINUOUS
  62
5
  10
 1820.9497417813
  20
 1897.9607460432
  30
0.0
  11
 1873.4497417813
  21
 1950.4607460432
  31
0.0
   0
LINE
   5
45B
 100
AcDbEntity
   8
LEVEL001
 370
13
 100
AcDbLine
   6
CONTINUOUS
  62
5
  10
 1878.2200340520
  20
 1897.9607460432
  30
0.0
  11
 1849.5848879166
  21
 1926.5958921785
  31
0.0
   0
LINE
   5
45C
 100
AcDbEntity
   8
LEVEL001
 370
13
 100
AcDbLine
   6
CONTINUOUS
  62
5
  10
 1857.5398392049
  20
 1934.5508434667
  30
0.0
  11
 1894.1299366284
  21
 1897.9607460432
  31
0.0
   0
LINE
   5
45D
 100
AcDbEntity
   8
LEVEL001
 370
13
 100
AcDbLine
   6
CONTINUOUS
  62
5
  10
 1910.0398392048
  20
 1897.9607460432
  30
0.0
  11
 1865.4947904931
  21
 1942.5057947549
  31
0.0
   0
LINE
   5
45E
 100
AcDbEntity
   8
LEVEL001
 370
13
 100
AcDbLine
   6
CONTINUOUS
  62
5
  10
 1873.4497417813
  20
 1950.4607460432
  30
0.0
  11
 1925.9497417816
  21
 1897.9607460432
  31
0.0
   0
LINE
   5
45F
 100
AcDbEntity
   8
LEVEL001
 370
13
 100
AcDbLine
   6
CONTINUOUS
  62
5
  10
 1925.9497417816
  20
 1897.9607460432
  30
0.0
  11
 1978.4497417816
  21
 1950.4607460432
  31
0.0
   0
LINE
   5
460
 100
AcDbEntity
   8
LEVEL001
 370
13
 100
AcDbLine
   6
CONTINUOUS
  62
5
  10
 1930.7200340519
  20
 1950.4607460432
  30
0.0
  11
 1902.0848879166
  21
 1921.8255999080
  31
0.0
   0
LINE
   5
461
 100
AcDbEntity
   8
LEVEL001
 370
13
 100
AcDbLine
   6
CONTINUOUS
  62
5
  10
 1910.0398392047
  20
 1913.8706486200
  30
0.0
  11
 1946.6299366280
  21
 1950.4607460432
  31
0.0
   0
LINE
   5
462
 100
AcDbEntity
   8
LEVEL001
 370
13
 100
AcDbLine
   6
CONTINUOUS
  62
5
  10
 1962.5398392056
  20
 1950.4607460432
  30
0.0
  11
 1917.9947904935
  21
 1905.9156973312
  31
0.0
   0
LINE
   5
463
 100
AcDbEntity
   8
LEVEL001
 370
13
 100
AcDbLine
   6
CONTINUOUS
  62
5
  10
 1983.2200340522
  20
 1897.9607460432
  30
0.0
  11
 1954.5848879168
  21
 1926.5958921785
  31
0.0
   0
LINE
   5
464
 100
AcDbEntity
   8
LEVEL001
 370
13
 100
AcDbLine
   6
CONTINUOUS
  62
5
  10
 1962.5398392050
  20
 1934.5508434667
  30
0.0
  11
 1999.1299366286
  21
 1897.9607460432
  31
0.0
   0
LINE
   5
465
 100
AcDbEntity
   8
LEVEL001
 370
13
 100
AcDbLine
   6
CONTINUOUS
  62
5
  10
 2015.0398392050
  20
 1897.9607460432
  30
0.0
  11
 1970.4947904932
  21
 1942.5057947549
  31
0.0
   0
LINE
   5
466
 100
AcDbEntity
   8
LEVEL001
 370
13
 100
AcDbLine
   6
CONTINUOUS
  62
5
  10
 1978.4497417816
  20
 1950.4607460432
  30
0.0
  11
 2015.0398392050
  21
 1913.8706486199
  31
0.0
   0
LINE
   5
467
 100
AcDbEntity
   8
LEVEL001
 370
13
 100
AcDbLine
   6
CONTINUOUS
  62
5
  10
 1553.1898392050
  20
 1950.4607460432
  30
0.0
  11
 2015.0398392050
  21
 1950.4607460432
  31
0.0
   0
LINE
   5
468
 100
AcDbEntity
   8
LEVEL001
 370
13
 100
AcDbLine
   6
CONTINUOUS
  62
5
  10
 1765.0398392050
  20
 1050.4607460432
  30
0.0
  11
 1715.0398392050
  21
 950.46074604320
  31
0.0
   0
LINE
   5
469
 100
AcDbEntity
   8
LEVEL001
 370
13
 100
AcDbLine
   6
CONTINUOUS
  62
5
  10
 1715.0398392050
  20
 1050.4607460432
  30
0.0
  11
 1755.0398392050
  21
 1030.4607460432
  31
0.0
   0
LINE
   5
46A
 100
AcDbEntity
   8
LEVEL001
 370
13
 100
AcDbLine
   6
CONTINUOUS
  62
5
  10
 1765.0398392050
  20
 950.46074604320
  30
0.0
  11
 1725.0398392050
  21
 970.46074604320
  31
0.0
   0
LINE
   5
46B
 100
AcDbEntity
   8
LEVEL001
 370
13
 100
AcDbLine
   6
CONTINUOUS
  62
5
  10
 1765.0398392050
  20
 1050.4607460432
  30
0.0
  11
 1265.0398392050
  21
 1050.4607460432
  31
0.0
   0
LINE
   5
46C
 100
AcDbEntity
   8
LEVEL001
 370
13
 100
AcDbLine
   6
CONTINUOUS
  62
5
  10
 1765.0398392050
  20
 950.46074604320
  30
0.0
  11
 1765.0398392050
  21
 1050.4607460432
  31
0.0
   0
LINE
   5
46D
 100
AcDbEntity
   8
LEVEL001
 370
13
 100
AcDbLine
   6
CONTINUOUS
  62
5
  10
 1265.0398392050
  20
 1050.4607460432
  30
0.0
  11
 1765.0398392050
  21
 1050.4607460432
  31
0.0
   0
LINE
   5
46E
 100
AcDbEntity
   8
LEVEL001
 370
13
 100
AcDbLine
   6
CONTINUOUS
  62
5
  10
 1765.0398392050
  20
 1050.4607460432
  30
0.0
  11
 1765.0398392050
  21
 1950.4607460432
  31
0.0
   0
LINE
   5
46F
 100
AcDbEntity
   8
LEVEL001
 370
13
 100
AcDbLine
   6
CONTINUOUS
  62
5
  10
 1765.0398392050
  20
 1788.6714422475
  30
0.0
  11
 1553.1898392050
  21
 1576.8214422475
  31
0.0
   0
LINE
   5
470
 100
AcDbEntity
   8
LEVEL001
 370
13
 100
AcDbLine
   6
CONTINUOUS
  62
5
  10
 1553.1898392050
  20
 1541.4661031882
  30
0.0
  11
 1765.0398392050
  21
 1753.3161031882
  31
0.0
   0
LINE
   5
471
 100
AcDbEntity
   8
LEVEL001
 370
13
 100
AcDbLine
   6
CONTINUOUS
  62
5
  10
 1765.0398392050
  20
 1717.9607641288
  30
0.0
  11
 1553.1898392050
  21
 1506.1107641288
  31
0.0
   0
LINE
   5
472
 100
AcDbEntity
   8
LEVEL001
 370
13
 100
AcDbLine
   6
CONTINUOUS
  62
5
  10
 1715.0398392050
  20
 1050.4607460432
  30
0.0
  11
 1665.0398392050
  21
 950.46074604320
  31
0.0
   0
LINE
   5
473
 100
AcDbEntity
   8
LEVEL001
 370
13
 100
AcDbLine
   6
CONTINUOUS
  62
5
  10
 1665.0398392050
  20
 1050.4607460432
  30
0.0
  11
 1705.0398392050
  21
 1030.4607460432
  31
0.0
   0
LINE
   5
474
 100
AcDbEntity
   8
LEVEL001
 370
13
 100
AcDbLine
   6
CONTINUOUS
  62
5
  10
 1665.0398392050
  20
 1050.4607460432
  30
0.0
  11
 1615.0398392050
  21
 950.46074604320
  31
0.0
   0
LINE
   5
475
 100
AcDbEntity
   8
LEVEL001
 370
13
 100
AcDbLine
   6
CONTINUOUS
  62
5
  10
 1615.0398392050
  20
 1050.4607460432
  30
0.0
  11
 1655.0398392050
  21
 1030.4607460432
  31
0.0
   0
LINE
   5
476
 100
AcDbEntity
   8
LEVEL001
 370
13
 100
AcDbLine
   6
CONTINUOUS
  62
5
  10
 1715.0398392050
  20
 950.46074604320
  30
0.0
  11
 1675.0398392050
  21
 970.46074604320
  31
0.0
   0
LINE
   5
477
 100
AcDbEntity
   8
LEVEL001
 370
13
 100
AcDbLine
   6
CONTINUOUS
  62
5
  10
 1665.0398392050
  20
 950.46074604320
  30
0.0
  11
 1625.0398392050
  21
 970.46074604320
  31
0.0
   0
LINE
   5
478
 100
AcDbEntity
   8
LEVEL001
 370
13
 100
AcDbLine
   6
CONTINUOUS
  62
5
  10
 1265.0398392050
  20
 950.46074604320
  30
0.0
  11
 1765.0398392050
  21
 950.46074604320
  31
0.0
   0
LINE
   5
479
 100
AcDbEntity
   8
LEVEL001
 370
13
 100
AcDbLine
   6
CONTINUOUS
  62
5
  10
 1415.0398392050
  20
 1050.4607460432
  30
0.0
  11
 1365.0398392050
  21
 950.46074604320
  31
0.0
   0
LINE
   5
47A
 100
AcDbEntity
   8
LEVEL001
 370
13
 100
AcDbLine
   6
CONTINUOUS
  62
5
  10
 1365.0398392050
  20
 1050.4607460432
  30
0.0
  11
 1405.0398392050
  21
 1030.4607460432
  31
0.0
   0
LINE
   5
47B
 100
AcDbEntity
   8
LEVEL001
 370
13
 100
AcDbLine
   6
CONTINUOUS
  62
5
  10
 1365.0398392050
  20
 1050.4607460432
  30
0.0
  11
 1315.0398392050
  21
 950.46074604320
  31
0.0
   0
LINE
   5
47C
 100
AcDbEntity
   8
LEVEL001
 370
13
 100
AcDbLine
   6
CONTINUOUS
  62
5
  10
 1315.0398392050
  20
 1050.4607460432
  30
0.0
  11
 1355.0398392050
  21
 1030.4607460432
  31
0.0
   0
LINE
   5
47D
 100
AcDbEntity
   8
LEVEL001
 370
13
 100
AcDbLine
   6
CONTINUOUS
  62
5
  10
 1315.0398392050
  20
 1050.4607460432
  30
0.0
  11
 1265.0398392050
  21
 950.46074604320
  31
0.0
   0
LINE
   5
47E
 100
AcDbEntity
   8
LEVEL001
 370
13
 100
AcDbLine
   6
CONTINUOUS
  62
5
  10
 1265.0398392050
  20
 1050.4607460432
  30
0.0
  11
 1305.0398392050
  21
 1030.4607460432
  31
0.0
   0
LINE
   5
47F
 100
AcDbEntity
   8
LEVEL001
 370
13
 100
AcDbLine
   6
CONTINUOUS
  62
5
  10
 1415.0398392050
  20
 950.46074604320
  30
0.0
  11
 1375.0398392050
  21
 970.46074604320
  31
0.0
   0
LINE
   5
480
 100
AcDbEntity
   8
LEVEL001
 370
13
 100
AcDbLine
   6
CONTINUOUS
  62
5
  10
 1365.0398392050
  20
 950.46074604320
  30
0.0
  11
 1325.0398392050
  21
 970.46074604320
  31
0.0
   0
LINE
   5
481
 100
AcDbEntity
   8
LEVEL001
 370
13
 100
AcDbLine
   6
CONTINUOUS
  62
5
  10
 1315.0398392050
  20
 950.46074604320
  30
0.0
  11
 1275.0398392050
  21
 970.46074604320
  31
0.0
   0
LINE
   5
482
 100
AcDbEntity
   8
LEVEL001
 370
13
 100
AcDbLine
   6
CONTINUOUS
  62
5
  10
 1265.0398392050
  20
 1050.4607460432
  30
0.0
  11
 1265.0398392050
  21
 950.46074604320
  31
0.0
   0
LINE
   5
483
 100
AcDbEntity
   8
LEVEL001
 370
13
 100
AcDbLine
   6
CONTINUOUS
  62
5
  10
 1265.0398392050
  20
 1950.4607460432
  30
0.0
  11
 1265.0398392050
  21
 1050.4607460432
  31
0.0
   0
LINE
   5
484
 100
AcDbEntity
   8
LEVEL001
 370
13
 100
AcDbLine
   6
CONTINUOUS
  62
5
  10
 1476.8898392050
  20
 1950.4607460432
  30
0.0
  11
 1015.0398392050
  21
 1950.4607460432
  31
0.0
   0
LINE
   5
485
 100
AcDbEntity
   8
LEVEL001
 370
13
 100
AcDbLine
   6
CONTINUOUS
  62
5
  10
 1476.8898392050
  20
 1500.5214422475
  30
0.0
  11
 1260.6048898280
  21
 1284.2364928705
  31
0.0
   0
LINE
   5
486
 100
AcDbEntity
   8
LEVEL001
 370
13
 100
AcDbLine
   6
CONTINUOUS
  62
5
  10
 1265.0398392050
  20
 1253.3161031882
  30
0.0
  11
 1476.8898392050
  21
 1465.1661031882
  31
0.0
   0
LINE
   5
487
 100
AcDbEntity
   8
LEVEL001
 370
13
 100
AcDbLine
   6
CONTINUOUS
  62
5
  10
 1476.8898392050
  20
 1429.8107641288
  30
0.0
  11
 1265.0398392050
  21
 1217.9607641288
  31
0.0
   0
LINE
   5
488
 100
AcDbEntity
   8
LEVEL001
 370
13
 100
AcDbLine
   6
CONTINUOUS
  62
5
  10
 1175.9497417816
  20
 1897.9607460432
  30
0.0
  11
 1228.4497417816
  21
 1950.4607460432
  31
0.0
   0
LINE
   5
489
 100
AcDbEntity
   8
LEVEL001
 370
13
 100
AcDbLine
   6
CONTINUOUS
  62
5
  10
 1160.0398392047
  20
 1913.8706486200
  30
0.0
  11
 1196.6299366279
  21
 1950.4607460432
  31
0.0
   0
LINE
   5
48A
 100
AcDbEntity
   8
LEVEL001
 370
13
 100
AcDbLine
   6
CONTINUOUS
  62
5
  10
 1212.5398392055
  20
 1950.4607460432
  30
0.0
  11
 1167.9947904935
  21
 1905.9156973312
  31
0.0
   0
LINE
   5
48B
 100
AcDbEntity
   8
LEVEL001
 370
13
 100
AcDbLine
   6
CONTINUOUS
  62
5
  10
 1233.2200340521
  20
 1897.9607460432
  30
0.0
  11
 1204.5848879169
  21
 1926.5958921785
  31
0.0
   0
LINE
   5
48C
 100
AcDbEntity
   8
LEVEL001
 370
13
 100
AcDbLine
   6
CONTINUOUS
  62
5
  10
 1212.5398392051
  20
 1934.5508434667
  30
0.0
  11
 1249.1299366286
  21
 1897.9607460432
  31
0.0
   0
LINE
   5
48D
 100
AcDbEntity
   8
LEVEL001
 370
13
 100
AcDbLine
   6
CONTINUOUS
  62
5
  10
 1265.0398392050
  20
 1897.9607460432
  30
0.0
  11
 1220.4947904933
  21
 1942.5057947549
  31
0.0
   0
LINE
   5
48E
 100
AcDbEntity
   8
LEVEL001
 370
13
 100
AcDbLine
   6
CONTINUOUS
  62
5
  10
 1075.7200340517
  20
 1950.4607460432
  30
0.0
  11
 1023.2200340517
  21
 1897.9607460432
  31
0.0
   0
LINE
   5
48F
 100
AcDbEntity
   8
LEVEL001
 370
13
 100
AcDbLine
   6
CONTINUOUS
  62
5
  10
 1039.1299366277
  20
 1897.9607460432
  30
0.0
  11
 1091.6299366277
  21
 1950.4607460432
  31
0.0
   0
LINE
   5
490
 100
AcDbEntity
   8
LEVEL001
 370
13
 100
AcDbLine
   6
CONTINUOUS
  62
5
  10
 1107.5398392053
  20
 1950.4607460432
  30
0.0
  11
 1055.0398392053
  21
 1897.9607460432
  31
0.0
   0
LINE
   5
491
 100
AcDbEntity
   8
LEVEL001
 370
13
 100
AcDbLine
   6
CONTINUOUS
  62
5
  10
 1070.9497417813
  20
 1897.9607460432
  30
0.0
  11
 1123.4497417813
  21
 1950.4607460432
  31
0.0
   0
LINE
   5
492
 100
AcDbEntity
   8
LEVEL001
 370
13
 100
AcDbLine
   6
CONTINUOUS
  62
5
  10
 1128.2200340520
  20
 1897.9607460432
  30
0.0
  11
 1099.5848879166
  21
 1926.5958921785
  31
0.0
   0
LINE
   5
493
 100
AcDbEntity
   8
LEVEL001
 370
13
 100
AcDbLine
   6
CONTINUOUS
  62
5
  10
 1107.5398392049
  20
 1934.5508434667
  30
0.0
  11
 1144.1299366284
  21
 1897.9607460432
  31
0.0
   0
LINE
   5
494
 100
AcDbEntity
   8
LEVEL001
 370
13
 100
AcDbLine
   6
CONTINUOUS
  62
5
  10
 1160.0398392048
  20
 1897.9607460432
  30
0.0
  11
 1115.4947904931
  21
 1942.5057947549
  31
0.0
   0
LINE
   5
495
 100
AcDbEntity
   8
LEVEL001
 370
13
 100
AcDbLine
   6
CONTINUOUS
  62
5
  10
 1123.4497417813
  20
 1950.4607460432
  30
0.0
  11
 1175.9497417816
  21
 1897.9607460432
  31
0.0
   0
LINE
   5
496
 100
AcDbEntity
   8
LEVEL001
 370
13
 100
AcDbLine
   6
CONTINUOUS
  62
5
  10
 1180.7200340519
  20
 1950.4607460432
  30
0.0
  11
 1152.0848879166
  21
 1921.8255999080
  31
0.0
   0
LINE
   5
497
 100
AcDbEntity
   8
LEVEL001
 370
13
 100
AcDbLine
   6
CONTINUOUS
  62
5
  10
 1228.4497417816
  20
 1950.4607460432
  30
0.0
  11
 1265.0398392050
  21
 1913.8706486199
  31
0.0
   0
DIMENSION
   5
498
 100
AcDbEntity
   8
0
 370
13
   6
CONTINUOUS
  62
1
 100
AcDbDimension
   2
*D15
  10
 765.03983920500
  20
 1050.4607460432
  30
0.0
  11
 765.03983920500
  21
 1500.4607460432
  31
0.0
  70
0
   3
GMM003
 100
AcDbAlignedDimension
  13
 1015.0398392050
  23
 1950.4607460432
  33
0.0
  14
 1265.0398392050
  24
 1050.4607460432
  34
0.0
  50
 270.00000000000
 100
AcDbRotatedDimension
   0
DIMENSION
   5
499
 100
AcDbEntity
   8
0
 370
13
   6
CONTINUOUS
  62
1
 100
AcDbDimension
   2
*D16
  10
 765.03983920500
  20
 950.46074604320
  30
0.0
  11
 765.03983920500
  21
 1000.4607460432
  31
0.0
  70
0
   3
GMM003
 100
AcDbAlignedDimension
  13
 1265.0398392050
  23
 1050.4607460432
  33
0.0
  14
 1265.0398392050
  24
 950.46074604320
  34
0.0
  50
 270.00000000000
 100
AcDbRotatedDimension
   0
DIMENSION
   5
49A
 100
AcDbEntity
   8
0
 370
13
   6
CONTINUOUS
  62
1
 100
AcDbDimension
   2
*D17
  10
 3215.0398392050
  20
 2750.4607460432
  30
0.0
  11
 3040.0398392050
  21
 2750.4607460432
  31
0.0
  70
0
   3
GMM003
 100
AcDbAlignedDimension
  13
 2865.0398392050
  23
 1850.4607460432
  33
0.0
  14
 3215.0398392050
  24
 2750.4607460432
  34
0.0
 100
AcDbRotatedDimension
   0
DIMENSION
   5
49B
 100
AcDbEntity
   8
0
 370
13
   6
CONTINUOUS
  62
1
 100
AcDbDimension
   2
*D18
  10
 765.03983920500
  20
 1950.4607460432
  30
0.0
  11
 765.03983920500
  21
 3200.4607460432
  31
0.0
  70
0
   1
\A1;2500(標準設置高さ)
   3
GMM004
 100
AcDbAlignedDimension
  13
 882.53983920500
  23
 4450.4607460432
  33
0.0
  14
 1015.0398392050
  24
 1950.4607460432
  34
0.0
  50
 270.00000000000
 100
AcDbRotatedDimension
   0
MTEXT
   5
49C
 100
AcDbEntity
   8
LEVEL001
 370
13
  62
1
 100
AcDbMText
  10
 1865.0398392050
  20
 2771.8893174718
  30
0.0
  40
 42.857142857142
  41
0.0
  71
1
  72
1
   1
{\T1.000000;支柱}\P%%c{\T1.000000;７６}{\T1.000000;.}{\T1.000000;３×３}{\T1.000000;.}{\T1.000000;２ｔ}\P{\T1.000000;×４０００Ｌ}
   7
GMM001
  44
 0.79999984000003
   0
INSERT
   5
49D
 100
AcDbEntity
   8
0
 100
AcDbBlockReference
   2
BLOCK001
  10
0.0
  20
0.0
  30
0.0
   0
INSERT
   5
49E
 100
AcDbEntity
   8
0
 100
AcDbBlockReference
   2
BLOCK002
  10
0.0
  20
0.0
  30
0.0
   0
LINE
   5
49F
 100
AcDbEntity
   8
LEVEL001
 370
13
 100
AcDbLine
   6
CONTINUOUS
  62
6
  10
 5475.0398392050
  20
 2578.8607460432
  30
0.0
  11
 8115.0398392050
  21
 2578.8607460432
  31
0.0
   0
MTEXT
   5
4A0
 100
AcDbEntity
   8
LEVEL001
 370
13
  62
1
 100
AcDbMText
  10
 7355.0398392050
  20
 1678.8607460432
  30
0.0
  40
 51.428571428572
  41
0.0
  71
4
  72
1
   1
\T1.000000;静電粉体塗装
   7
GMM001
  44
 0.79999984000003
   0
MTEXT
   5
4A1
 100
AcDbEntity
   8
LEVEL001
 370
13
  62
1
 100
AcDbMText
  10
 6795.0398392050
  20
 1678.8607460432
  30
0.0
  40
 51.428571428572
  41
0.0
  71
4
  72
1
   1
\T1.000000;ＳＴＫ４００
   7
GMM001
  44
 0.79999984000003
   0
MTEXT
   5
4A2
 100
AcDbEntity
   8
LEVEL001
 370
13
  62
1
 100
AcDbMText
  10
 6727.0398392050
  20
 1678.8607460432
  30
0.0
  40
 51.428571428572
  41
0.0
  71
6
  72
1
   1
\T1.000000;１
   7
GMM001
  44
 0.79999984000003
   0
MTEXT
   5
4A3
 100
AcDbEntity
   8
LEVEL001
 370
13
  62
1
 100
AcDbMText
  10
 7355.0398392050
  20
 1798.8607460432
  30
0.0
  40
 51.428571428572
  41
0.0
  71
4
  72
1
   1
\T1.000000;溶融亜鉛メッキ
   7
GMM001
  44
 0.79999984000003
   0
MTEXT
   5
4A4
 100
AcDbEntity
   8
LEVEL001
 370
13
  62
1
 100
AcDbMText
  10
 6795.0398392050
  20
 1798.8607460432
  30
0.0
  40
 51.428571428572
  41
0.0
  71
4
  72
1
   1
\T1.000000;ＳＳ４００
   7
GMM001
  44
 0.79999984000003
   0
MTEXT
   5
4A5
 100
AcDbEntity
   8
LEVEL001
 370
13
  62
1
 100
AcDbMText
  10
 6727.0398392050
  20
 1798.8607460432
  30
0.0
  40
 51.428571428572
  41
0.0
  71
6
  72
1
   1
\T1.000000;４
   7
GMM001
  44
 0.79999984000003
   0
MTEXT
   5
4A6
 100
AcDbEntity
   8
LEVEL001
 370
13
  62
1
 100
AcDbMText
  10
 7355.0398392050
  20
 1918.8607460432
  30
0.0
  40
 51.428571428572
  41
0.0
  71
4
  72
1
   1
\T1.000000;溶融亜鉛メッキ
   7
GMM001
  44
 0.79999984000003
   0
MTEXT
   5
4A7
 100
AcDbEntity
   8
LEVEL001
 370
13
  62
1
 100
AcDbMText
  10
 7355.0398392050
  20
 2038.8607460432
  30
0.0
  40
 51.428571428572
  41
0.0
  71
4
  72
1
   1
\T1.000000;溶融亜鉛メッキ
   7
GMM001
  44
 0.79999984000003
   0
MTEXT
   5
4A8
 100
AcDbEntity
   8
LEVEL001
 370
13
  62
1
 100
AcDbMText
  10
 7355.0398392050
  20
 2158.8607460432
  30
0.0
  40
 51.428571428572
  41
0.0
  71
4
  72
1
   1
\T1.000000;溶融亜鉛メッキ
   7
GMM001
  44
 0.79999984000003
   0
MTEXT
   5
4A9
 100
AcDbEntity
   8
LEVEL001
 370
13
  62
1
 100
AcDbMText
  10
 6795.0398392050
  20
 1918.8607460432
  30
0.0
  40
 51.428571428572
  41
0.0
  71
4
  72
1
   1
\T1.000000;ＳＳ４００
   7
GMM001
  44
 0.79999984000003
   0
MTEXT
   5
4AA
 100
AcDbEntity
   8
LEVEL001
 370
13
  62
1
 100
AcDbMText
  10
 6795.0398392050
  20
 2038.8607460432
  30
0.0
  40
 51.428571428572
  41
0.0
  71
4
  72
1
   1
\T1.000000;ＳＳ４００
   7
GMM001
  44
 0.79999984000003
   0
MTEXT
   5
4AB
 100
AcDbEntity
   8
LEVEL001
 370
13
  62
1
 100
AcDbMText
  10
 6795.0398392050
  20
 2158.8607460432
  30
0.0
  40
 51.428571428572
  41
0.0
  71
4
  72
1
   1
\T1.000000;ＳＳ４００
   7
GMM001
  44
 0.79999984000003
   0
MTEXT
   5
4AC
 100
AcDbEntity
   8
LEVEL001
 370
13
  62
1
 100
AcDbMText
  10
 6727.0398392050
  20
 1918.8607460432
  30
0.0
  40
 51.428571428572
  41
0.0
  71
6
  72
1
   1
\T1.000000;１
   7
GMM001
  44
 0.79999984000003
   0
MTEXT
   5
4AD
 100
AcDbEntity
   8
LEVEL001
 370
13
  62
1
 100
AcDbMText
  10
 6727.0398392050
  20
 2038.8607460432
  30
0.0
  40
 51.428571428572
  41
0.0
  71
6
  72
1
   1
\T1.000000;８
   7
GMM001
  44
 0.79999984000003
   0
MTEXT
   5
4AE
 100
AcDbEntity
   8
LEVEL001
 370
13
  62
1
 100
AcDbMText
  10
 6727.0398392050
  20
 2158.8607460432
  30
0.0
  40
 51.428571428572
  41
0.0
  71
6
  72
1
   1
\T1.000000;８
   7
GMM001
  44
 0.79999984000003
   0
MTEXT
   5
4AF
 100
AcDbEntity
   8
LEVEL001
 370
13
  62
1
 100
AcDbMText
  10
 5647.0398392050
  20
 1678.8607460432
  30
0.0
  40
 51.428571428572
  41
0.0
  71
6
  72
1
   1
\T1.000000;１１
   7
GMM001
  44
 0.79999984000003
   0
MTEXT
   5
4B0
 100
AcDbEntity
   8
LEVEL001
 370
13
  62
1
 100
AcDbMText
  10
 5715.0398392050
  20
 1678.8607460432
  30
0.0
  40
 51.428571428572
  41
0.0
  71
4
  72
1
   1
\T1.000000;支柱
   7
GMM001
  44
 0.79999984000003
   0
MTEXT
   5
4B1
 100
AcDbEntity
   8
LEVEL001
 370
13
  62
1
 100
AcDbMText
  10
 5715.0398392050
  20
 1798.8607460432
  30
0.0
  40
 51.428571428572
  41
0.0
  71
4
  72
1
   1
\T1.000000;同上ボルトナット
   7
GMM001
  44
 0.79999984000003
   0
MTEXT
   5
4B2
 100
AcDbEntity
   8
LEVEL001
 370
13
  62
1
 100
AcDbMText
  10
 5647.0398392050
  20
 1798.8607460432
  30
0.0
  40
 51.428571428572
  41
0.0
  71
6
  72
1
   1
\T1.000000;１０
   7
GMM001
  44
 0.79999984000003
   0
MTEXT
   5
4B3
 100
AcDbEntity
   8
LEVEL001
 370
13
  62
1
 100
AcDbMText
  10
 5647.0398392050
  20
 1918.8607460432
  30
0.0
  40
 51.428571428572
  41
0.0
  71
6
  72
1
   1
\T1.000000;９
   7
GMM001
  44
 0.79999984000003
   0
MTEXT
   5
4B4
 100
AcDbEntity
   8
LEVEL001
 370
13
  62
1
 100
AcDbMText
  10
 5715.0398392050
  20
 1918.8607460432
  30
0.0
  40
 51.428571428572
  41
0.0
  71
4
  72
1
   1
\T1.000000;二面鏡用取付腕木
   7
GMM001
  44
 0.79999984000003
   0
MTEXT
   5
4B5
 100
AcDbEntity
   8
LEVEL001
 370
13
  62
1
 100
AcDbMText
  10
 5647.0398392050
  20
 2038.8607460432
  30
0.0
  40
 51.428571428572
  41
0.0
  71
6
  72
1
   1
\T1.000000;８
   7
GMM001
  44
 0.79999984000003
   0
MTEXT
   5
4B6
 100
AcDbEntity
   8
LEVEL001
 370
13
  62
1
 100
AcDbMText
  10
 5715.0398392050
  20
 2038.8607460432
  30
0.0
  40
 51.428571428572
  41
0.0
  71
4
  72
1
   1
\T1.000000;金具締付ボルトナット
   7
GMM001
  44
 0.79999984000003
   0
MTEXT
   5
4B7
 100
AcDbEntity
   8
LEVEL001
 370
13
  62
1
 100
AcDbMText
  10
 5647.0398392050
  20
 2158.8607460432
  30
0.0
  40
 51.428571428572
  41
0.0
  71
6
  72
1
   1
\T1.000000;７
   7
GMM001
  44
 0.79999984000003
   0
MTEXT
   5
4B8
 100
AcDbEntity
   8
LEVEL001
 370
13
  62
1
 100
AcDbMText
  10
 5715.0398392050
  20
 2158.8607460432
  30
0.0
  40
 51.428571428572
  41
0.0
  71
4
  72
1
   1
\T1.000000;裏板金具取付ボルト
   7
GMM001
  44
 0.79999984000003
   0
LINE
   5
4B9
 100
AcDbEntity
   8
LEVEL001
 370
13
 100
AcDbLine
   6
CONTINUOUS
  62
6
  10
 5475.0398392050
  20
 1738.8607460432
  30
0.0
  11
 8115.0398392050
  21
 1738.8607460432
  31
0.0
   0
LINE
   5
4BA
 100
AcDbEntity
   8
LEVEL001
 370
13
 100
AcDbLine
   6
CONTINUOUS
  62
6
  10
 5475.0398392050
  20
 1858.8607460432
  30
0.0
  11
 8115.0398392050
  21
 1858.8607460432
  31
0.0
   0
LINE
   5
4BB
 100
AcDbEntity
   8
LEVEL001
 370
13
 100
AcDbLine
   6
CONTINUOUS
  62
6
  10
 5475.0398392050
  20
 1978.8607460432
  30
0.0
  11
 8115.0398392050
  21
 1978.8607460432
  31
0.0
   0
LINE
   5
4BC
 100
AcDbEntity
   8
LEVEL001
 370
13
 100
AcDbLine
   6
CONTINUOUS
  62
6
  10
 5475.0398392050
  20
 2098.8607460432
  30
0.0
  11
 8115.0398392050
  21
 2098.8607460432
  31
0.0
   0
MTEXT
   5
4BD
 100
AcDbEntity
   8
LEVEL001
 370
13
  62
1
 100
AcDbMText
  10
 5715.0398392050
  20
 2278.8607460432
  30
0.0
  40
 51.428571428572
  41
0.0
  71
4
  72
1
   1
\T1.000000;支柱取付金具
   7
GMM001
  44
 0.79999984000003
   0
MTEXT
   5
4BE
 100
AcDbEntity
   8
LEVEL001
 370
13
  62
1
 100
AcDbMText
  10
 5647.0398392050
  20
 2278.8607460432
  30
0.0
  40
 51.428571428572
  41
0.0
  71
6
  72
1
   1
\T1.000000;６
   7
GMM001
  44
 0.79999984000003
   0
MTEXT
   5
4BF
 100
AcDbEntity
   8
LEVEL001
 370
13
  62
1
 100
AcDbMText
  10
 6727.0398392050
  20
 2278.8607460432
  30
0.0
  40
 51.428571428572
  41
0.0
  71
6
  72
1
   1
\T1.000000;２
   7
GMM001
  44
 0.79999984000003
   0
MTEXT
   5
4C0
 100
AcDbEntity
   8
LEVEL001
 370
13
  62
1
 100
AcDbMText
  10
 6795.0398392050
  20
 2278.8607460432
  30
0.0
  40
 51.428571428572
  41
0.0
  71
4
  72
1
   1
\T1.000000;ＳＳ４００
   7
GMM001
  44
 0.79999984000003
   0
MTEXT
   5
4C1
 100
AcDbEntity
   8
LEVEL001
 370
13
  62
1
 100
AcDbMText
  10
 5647.0398392050
  20
 2398.8607460432
  30
0.0
  40
 51.428571428572
  41
0.0
  71
6
  72
1
   1
\T1.000000;５
   7
GMM001
  44
 0.79999984000003
   0
MTEXT
   5
4C2
 100
AcDbEntity
   8
LEVEL001
 370
13
  62
1
 100
AcDbMText
  10
 5715.0398392050
  20
 2398.8607460432
  30
0.0
  40
 51.428571428572
  41
0.0
  71
4
  72
1
   1
\T1.000000;裏板取付金具
   7
GMM001
  44
 0.79999984000003
   0
MTEXT
   5
4C3
 100
AcDbEntity
   8
LEVEL001
 370
13
  62
1
 100
AcDbMText
  10
 5647.0398392050
  20
 2518.8607460432
  30
0.0
  40
 51.428571428572
  41
0.0
  71
6
  72
1
   1
\T1.000000;４
   7
GMM001
  44
 0.79999984000003
   0
MTEXT
   5
4C4
 100
AcDbEntity
   8
LEVEL001
 370
13
  62
1
 100
AcDbMText
  10
 5715.0398392050
  20
 2518.8607460432
  30
0.0
  40
 51.428571428572
  41
0.0
  71
4
  72
1
   1
\T1.000000;リング
   7
GMM001
  44
 0.79999984000003
   0
MTEXT
   5
4C5
 100
AcDbEntity
   8
LEVEL001
 370
13
  62
1
 100
AcDbMText
  10
 5647.0398392050
  20
 2638.8607460432
  30
0.0
  40
 51.428571428572
  41
0.0
  71
6
  72
1
   1
\T1.000000;３
   7
GMM001
  44
 0.79999984000003
   0
MTEXT
   5
4C6
 100
AcDbEntity
   8
LEVEL001
 370
13
  62
1
 100
AcDbMText
  10
 5715.0398392050
  20
 2638.8607460432
  30
0.0
  40
 51.428571428572
  41
0.0
  71
4
  72
1
   1
\T1.000000;フード
   7
GMM001
  44
 0.79999984000003
   0
MTEXT
   5
4C7
 100
AcDbEntity
   8
LEVEL001
 370
13
  62
1
 100
AcDbMText
  10
 5647.0398392050
  20
 2758.8607460432
  30
0.0
  40
 51.428571428572
  41
0.0
  71
6
  72
1
   1
\T1.000000;２
   7
GMM001
  44
 0.79999984000003
   0
MTEXT
   5
4C8
 100
AcDbEntity
   8
LEVEL001
 370
13
  62
1
 100
AcDbMText
  10
 5647.0398392050
  20
 2878.8607460432
  30
0.0
  40
 51.428571428572
  41
0.0
  71
6
  72
1
   1
\T1.000000;１
   7
GMM001
  44
 0.79999984000003
   0
MTEXT
   5
4C9
 100
AcDbEntity
   8
LEVEL001
 370
13
  62
1
 100
AcDbMText
  10
 5715.0398392050
  20
 2758.8607460432
  30
0.0
  40
 51.428571428572
  41
0.0
  71
4
  72
1
   1
\T1.000000;バックプレート
   7
GMM001
  44
 0.79999984000003
   0
MTEXT
   5
4CA
 100
AcDbEntity
   8
LEVEL001
 370
13
  62
1
 100
AcDbMText
  10
 5715.0398392050
  20
 2878.8607460432
  30
0.0
  40
 51.428571428572
  41
0.0
  71
4
  72
1
   1
\T1.000000;鏡面　Ｒ＝２２００
   7
GMM001
  44
 0.79999984000003
   0
MTEXT
   5
4CB
 100
AcDbEntity
   8
LEVEL001
 370
13
  62
1
 100
AcDbMText
  10
 6727.0398392050
  20
 2398.8607460432
  30
0.0
  40
 51.428571428572
  41
0.0
  71
6
  72
1
   1
\T1.000000;２
   7
GMM001
  44
 0.79999984000003
   0
MTEXT
   5
4CC
 100
AcDbEntity
   8
LEVEL001
 370
13
  62
1
 100
AcDbMText
  10
 6727.0398392050
  20
 2518.8607460432
  30
0.0
  40
 51.428571428572
  41
0.0
  71
6
  72
1
   1
\T1.000000;２
   7
GMM001
  44
 0.79999984000003
   0
MTEXT
   5
4CD
 100
AcDbEntity
   8
LEVEL001
 370
13
  62
1
 100
AcDbMText
  10
 6727.0398392050
  20
 2638.8607460432
  30
0.0
  40
 51.428571428572
  41
0.0
  71
6
  72
1
   1
\T1.000000;２
   7
GMM001
  44
 0.79999984000003
   0
MTEXT
   5
4CE
 100
AcDbEntity
   8
LEVEL001
 370
13
  62
1
 100
AcDbMText
  10
 6727.0398392050
  20
 2758.8607460432
  30
0.0
  40
 51.428571428572
  41
0.0
  71
6
  72
1
   1
\T1.000000;２
   7
GMM001
  44
 0.79999984000003
   0
MTEXT
   5
4CF
 100
AcDbEntity
   8
LEVEL001
 370
13
  62
1
 100
AcDbMText
  10
 6727.0398392050
  20
 2878.8607460432
  30
0.0
  40
 51.428571428572
  41
0.0
  71
6
  72
1
   1
\T1.000000;２
   7
GMM001
  44
 0.79999984000003
   0
MTEXT
   5
4D0
 100
AcDbEntity
   8
LEVEL001
 370
13
  62
1
 100
AcDbMText
  10
 6795.0398392050
  20
 2398.8607460432
  30
0.0
  40
 51.428571428572
  41
0.0
  71
4
  72
1
   1
\T1.000000;ＳＳ４００
   7
GMM001
  44
 0.79999984000003
   0
MTEXT
   5
4D1
 100
AcDbEntity
   8
LEVEL001
 370
13
  62
1
 100
AcDbMText
  10
 6795.0398392050
  20
 2518.8607460432
  30
0.0
  40
 51.428571428572
  41
0.0
  71
4
  72
1
   1
\T1.000000;軟質ＰＶＣ
   7
GMM001
  44
 0.79999984000003
   0
MTEXT
   5
4D2
 100
AcDbEntity
   8
LEVEL001
 370
13
  62
1
 100
AcDbMText
  10
 6795.0398392050
  20
 2878.8607460432
  30
0.0
  40
 51.428571428572
  41
0.0
  71
4
  72
1
   1
\T1.000000;ＳＵＳ３０４
   7
GMM001
  44
 0.79999984000003
   0
MTEXT
   5
4D3
 100
AcDbEntity
   8
LEVEL001
 370
13
  62
1
 100
AcDbMText
  10
 7355.0398392050
  20
 2278.8607460432
  30
0.0
  40
 51.428571428572
  41
0.0
  71
4
  72
1
   1
\T1.000000;溶融亜鉛メッキ
   7
GMM001
  44
 0.79999984000003
   0
MTEXT
   5
4D4
 100
AcDbEntity
   8
LEVEL001
 370
13
  62
1
 100
AcDbMText
  10
 7355.0398392050
  20
 2398.8607460432
  30
0.0
  40
 51.428571428572
  41
0.0
  71
4
  72
1
   1
\T1.000000;溶融亜鉛メッキ
   7
GMM001
  44
 0.79999984000003
   0
MTEXT
   5
4D5
 100
AcDbEntity
   8
LEVEL001
 370
13
  62
1
 100
AcDbMText
  10
 7355.0398392050
  20
 2878.8607460432
  30
0.0
  40
 51.428571428572
  41
0.0
  71
4
  72
1
   1
\T1.000000;t=0.9mm\T1.000000;・表面研磨
   7
GMM001
  44
 0.79999984000003
   0
LINE
   5
4D6
 100
AcDbEntity
   8
LEVEL001
 370
13
 100
AcDbLine
   6
CONTINUOUS
  62
6
  10
 5475.0398392050
  20
 2218.8607460432
  30
0.0
  11
 8115.0398392050
  21
 2218.8607460432
  31
0.0
   0
LINE
   5
4D7
 100
AcDbEntity
   8
LEVEL001
 370
13
 100
AcDbLine
   6
CONTINUOUS
  62
6
  10
 5475.0398392050
  20
 2338.8607460432
  30
0.0
  11
 8115.0398392050
  21
 2338.8607460432
  31
0.0
   0
LINE
   5
4D8
 100
AcDbEntity
   8
LEVEL001
 370
13
 100
AcDbLine
   6
CONTINUOUS
  62
6
  10
 5475.0398392050
  20
 2698.8607460432
  30
0.0
  11
 8115.0398392050
  21
 2698.8607460432
  31
0.0
   0
LINE
   5
4D9
 100
AcDbEntity
   8
LEVEL001
 370
13
 100
AcDbLine
   6
CONTINUOUS
  62
6
  10
 5475.0398392050
  20
 2458.8607460432
  30
0.0
  11
 8115.0398392050
  21
 2458.8607460432
  31
0.0
   0
LINE
   5
4DA
 100
AcDbEntity
   8
LEVEL001
 370
13
 100
AcDbLine
   6
CONTINUOUS
  62
6
  10
 5475.0398392050
  20
 2818.8607460432
  30
0.0
  11
 8115.0398392050
  21
 2818.8607460432
  31
0.0
   0
MTEXT
   5
4DB
 100
AcDbEntity
   8
LEVEL001
 370
13
  62
1
 100
AcDbMText
  10
 6115.0398392050
  20
 3018.8607460432
  30
0.0
  40
 51.428571428572
  41
0.0
  71
5
  72
1
   1
\T1.000000;名　　称
   7
GMM001
  44
 0.79999984000003
   0
MTEXT
   5
4DC
 100
AcDbEntity
   8
LEVEL001
 370
13
  62
1
 100
AcDbMText
  10
 6655.0398392050
  20
 3018.8607460432
  30
0.0
  40
 51.428571428572
  41
0.0
  71
5
  72
1
   1
\T1.000000;個数
   7
GMM001
  44
 0.79999984000003
   0
MTEXT
   5
4DD
 100
AcDbEntity
   8
LEVEL001
 370
13
  62
1
 100
AcDbMText
  10
 7035.0398392050
  20
 3018.8607460432
  30
0.0
  40
 51.428571428572
  41
0.0
  71
5
  72
1
   1
\T1.000000;材　　質
   7
GMM001
  44
 0.79999984000003
   0
MTEXT
   5
4DE
 100
AcDbEntity
   8
LEVEL001
 370
13
  62
1
 100
AcDbMText
  10
 7715.0398392050
  20
 3018.8607460432
  30
0.0
  40
 51.428571428572
  41
0.0
  71
5
  72
1
   1
\T1.000000;規格仕様
   7
GMM001
  44
 0.79999984000003
   0
LINE
   5
4DF
 100
AcDbEntity
   8
LEVEL001
 370
13
 100
AcDbLine
   6
CONTINUOUS
  62
2
  10
 5475.0398392050
  20
 3098.8607460432
  30
0.0
  11
 8115.0398392050
  21
 3098.8607460432
  31
0.0
   0
LINE
   5
4E0
 100
AcDbEntity
   8
LEVEL001
 370
13
 100
AcDbLine
   6
CONTINUOUS
  62
2
  10
 5475.0398392050
  20
 2938.8607460432
  30
0.0
  11
 8115.0398392050
  21
 2938.8607460432
  31
0.0
   0
MTEXT
   5
4E1
 100
AcDbEntity
   8
LEVEL001
 370
13
  62
1
 100
AcDbMText
  10
 5575.0398392050
  20
 3178.8607460432
  30
0.0
  40
 57.142857142858
  41
0.0
  71
4
  72
1
   1
\T1.000000;□４５０×６００（ダブル）
   7
GMM001
  44
 0.79999984000003
   0
MTEXT
   5
4E2
 100
AcDbEntity
   8
LEVEL001
 370
13
  62
1
 100
AcDbMText
  10
 6795.0398392050
  20
 2638.8607460432
  30
0.0
  40
 51.428571428572
  41
0.0
  71
4
  72
1
   1
\T1.000000;ＳＵＳ４３０
   7
GMM001
  44
 0.79999984000003
   0
MTEXT
   5
4E3
 100
AcDbEntity
   8
LEVEL001
 370
13
  62
1
 100
AcDbMText
  10
 5575.0398392050
  20
 3338.8607460432
  30
0.0
  40
 57.142857142858
  41
0.0
  71
4
  72
1
   1
\T1.000000;ステンレスミラー　＜Ｚタイプ＞
   7
GMM001
  44
 0.79999984000003
   0
MTEXT
   5
4E4
 100
AcDbEntity
   8
LEVEL001
 370
13
  62
1
 100
AcDbMText
  10
 6795.0398392050
  20
 2758.8607460432
  30
0.0
  40
 51.428571428572
  41
0.0
  71
4
  72
1
   1
\T1.000000;高耐食溶融めっき鋼板
   7
GMM004
  44
 0.79999984000003
   0
LWPOLYLINE
   5
4E5
 100
AcDbEntity
   8
0
 370
13
   6
CONTINUOUS
  62
6
 100
AcDbPolyline
  90
4
  70
1
  10
 5475.0398392050
  20
 3418.8607460432
  10
 5475.0398392050
  20
 898.86074604318
  10
 8115.0398392050
  20
 898.86074604318
  10
 8115.0398392050
  20
 3418.8607460432
   0
LINE
   5
4E6
 100
AcDbEntity
   8
LEVEL001
 370
13
 100
AcDbLine
   6
CONTINUOUS
  62
2
  10
 5475.0398392050
  20
 678.86074604318
  30
0.0
  11
 7155.0398392050
  21
 678.86074604318
  31
0.0
   0
MTEXT
   5
4E7
 100
AcDbEntity
   8
LEVEL001
 370
13
  62
2
 100
AcDbMText
  10
 5485.0398392050
  20
 868.86074604318
  30
0.0
  40
 38.571428571428
  41
0.0
  71
4
  72
1
   1
\T1.370378;図面番号
   7
GMM001
  44
 0.79999984000003
   0
LINE
   5
4E8
 100
AcDbEntity
   8
0
 370
13
 100
AcDbLine
   6
CONTINUOUS
  62
6
  10
 5675.0398392050
  20
 3098.8607460432
  30
0.0
  11
 5675.0398392050
  21
 898.86074604318
  31
0.0
   0
LINE
   5
4E9
 100
AcDbEntity
   8
0
 370
13
 100
AcDbLine
   6
CONTINUOUS
  62
6
  10
 6555.0398392050
  20
 3098.8607460432
  30
0.0
  11
 6555.0398392050
  21
 898.86074604318
  31
0.0
   0
LINE
   5
4EA
 100
AcDbEntity
   8
0
 370
13
 100
AcDbLine
   6
CONTINUOUS
  62
6
  10
 6755.0398392050
  20
 3098.8607460432
  30
0.0
  11
 6755.0398392050
  21
 898.86074604318
  31
0.0
   0
LINE
   5
4EB
 100
AcDbEntity
   8
0
 370
13
 100
AcDbLine
   6
CONTINUOUS
  62
6
  10
 7315.0398392050
  20
 3098.8607460432
  30
0.0
  11
 7315.0398392050
  21
 898.86074604318
  31
0.0
   0
MTEXT
   5
4EC
 100
AcDbEntity
   8
LEVEL001
 370
13
  62
1
 100
AcDbMText
  10
 6727.0398392050
  20
 1078.8607460432
  30
0.0
  40
 51.428571428572
  41
0.0
  71
6
  72
1
   1
\T1.000000;１式
   7
GMM001
  44
 0.79999984000003
   0
MTEXT
   5
4ED
 100
AcDbEntity
   8
LEVEL001
 370
13
  62
1
 100
AcDbMText
  10
 6727.0398392050
  20
 958.86074604318
  30
0.0
  40
 51.428571428572
  41
0.0
  71
6
  72
1
   1
\T1.000000;１式
   7
GMM001
  44
 0.79999984000003
   0
MTEXT
   5
4EE
 100
AcDbEntity
   8
LEVEL001
 370
13
  62
1
 100
AcDbMText
  10
 6795.0398392050
  20
 958.86074604318
  30
0.0
  40
 51.428571428572
  41
0.0
  71
4
  72
1
   1
\T1.000000;―
   7
GMM001
  44
 0.79999984000003
   0
MTEXT
   5
4EF
 100
AcDbEntity
   8
LEVEL001
 370
13
  62
1
 100
AcDbMText
  10
 6795.0398392050
  20
 1078.8607460432
  30
0.0
  40
 51.428571428572
  41
0.0
  71
4
  72
1
   1
\T1.000000;―
   7
GMM001
  44
 0.79999984000003
   0
MTEXT
   5
4F0
 100
AcDbEntity
   8
LEVEL001
 370
13
  62
1
 100
AcDbMText
  10
 6795.0398392050
  20
 1198.8607460432
  30
0.0
  40
 51.428571428572
  41
0.0
  71
4
  72
1
   1
\T1.000000;―
   7
GMM001
  44
 0.79999984000003
   0
MTEXT
   5
4F1
 100
AcDbEntity
   8
LEVEL001
 370
13
  62
1
 100
AcDbMText
  10
 7355.0398392050
  20
 1078.8607460432
  30
0.0
  40
 51.428571428572
  41
0.0
  71
4
  72
1
   1
\T1.000000;―
   7
GMM001
  44
 0.79999984000003
   0
MTEXT
   5
4F2
 100
AcDbEntity
   8
LEVEL001
 370
13
  62
1
 100
AcDbMText
  10
 7355.0398392050
  20
 958.86074604318
  30
0.0
  40
 51.428571428572
  41
0.0
  71
4
  72
1
   1
\T1.000000;―
   7
GMM001
  44
 0.79999984000003
   0
MTEXT
   5
4F3
 100
AcDbEntity
   8
0
 370
13
  62
1
 100
AcDbMText
  10
 7356.4213684550
  20
 1564.7208170141
  30
0.0
  40
 34.285720000000
  41
0.0
  71
4
  72
1
   1
{\T1.000000;下地亜鉛メッキ}\P{\T1.000000;＋静電粉体塗装}
   7
GMM005
  44
 0.79999984000003
   0
MTEXT
   5
4F4
 100
AcDbEntity
   8
0
 370
13
  62
1
 100
AcDbMText
  10
 6726.0188129590
  20
 1525.1295957976
  30
0.0
  40
 51.428571428571
  41
0.0
  71
9
  72
1
   1
\T1.000000;１
   7
GMM001
  44
 0.79999984000003
   0
MTEXT
   5
4F5
 100
AcDbEntity
   8
0
 370
13
  62
1
 100
AcDbMText
  10
 6794.6232303365
  20
 1525.1295957976
  30
0.0
  40
 51.428571428571
  41
0.0
  71
7
  72
1
   1
\T1.000000;ＳＴＫ４００
   7
GMM001
  44
 0.79999984000003
   0
LINE
   5
4F6
 100
AcDbEntity
   8
0
 370
13
 100
AcDbLine
   6
CONTINUOUS
  62
6
  10
 6555.0398392050
  20
 1618.8607460432
  30
0.0
  11
 8115.0398392050
  21
 1618.8607460432
  31
0.0
   0
MTEXT
   5
4F7
 100
AcDbEntity
   8
LEVEL001
 370
13
  62
1
 100
AcDbMText
  10
 5715.0398392050
  20
 3598.8607460432
  30
0.0
  40
 51.428580000000
  41
0.0
  71
1
  72
1
   1
{\T1.000000;※構成部材は改良のため、変更する場合があります。}\P{\T1.000000;※本図は道路反射鏡ハンドブックに基づいています。}
   7
GMM001
  44
 0.79999984000003
   0
MTEXT
   5
4F8
 100
AcDbEntity
   8
LEVEL001
 370
13
  62
1
 100
AcDbMText
  10
 5715.0398392050
  20
 1198.8607460432
  30
0.0
  40
 51.428571428572
  41
0.0
  71
4
  72
1
   1
\T1.000000;注意板
   7
GMM001
  44
 0.79999984000003
   0
MTEXT
   5
4F9
 100
AcDbEntity
   8
LEVEL001
 370
13
  62
1
 100
AcDbMText
  10
 7358.8892962368
  20
 2811.7083941093
  30
0.0
  40
 34.285714285714
  41
0.0
  71
1
  72
1
   1
{\T1.000000;ＺＡＭ処理鋼板}\P{\T1.000000;プレス成型}
   7
GMM005
  44
 1.0099997980000
   0
DIMENSION
   5
4FA
 100
AcDbEntity
   8
0
 370
13
   6
CONTINUOUS
  62
1
 100
AcDbDimension
   2
*D19
  10
 3115.0398392050
  20
 750.46074604320
  30
0.0
  11
 2865.0398392050
  21
 750.46074604320
  31
0.0
  70
0
   3
GMM005
 100
AcDbAlignedDimension
  13
 2615.0398392050
  23
 950.46074604320
  33
0.0
  14
 3115.0398392050
  24
 950.46074604320
  34
0.0
 100
AcDbRotatedDimension
   0
DIMENSION
   5
4FB
 100
AcDbEntity
   8
0
 370
13
   6
CONTINUOUS
  62
1
 100
AcDbDimension
   2
*D20
  10
 1765.0398392050
  20
 750.46074604320
  30
0.0
  11
 1515.0398392050
  21
 750.46074604320
  31
0.0
  70
0
   3
GMM005
 100
AcDbAlignedDimension
  13
 1265.0398392050
  23
 950.46074604320
  33
0.0
  14
 1765.0398392050
  24
 950.46074604320
  34
0.0
 100
AcDbRotatedDimension
   0
DIMENSION
   5
4FC
 100
AcDbEntity
   8
0
 370
13
   6
CONTINUOUS
  62
1
 100
AcDbDimension
   2
*D21
  10
 2217.5398392050
  20
 4798.8607460432
  30
0.0
  11
 1915.0398392050
  21
 4798.8607460432
  31
0.0
  70
0
   1
\A1;600
   3
GMM003
 100
AcDbAlignedDimension
  13
 1612.5398392050
  23
 4798.8607460432
  33
0.0
  14
 2217.5398392050
  24
 4798.8607460432
  34
0.0
 100
AcDbRotatedDimension
   0
DIMENSION
   5
4FD
 100
AcDbEntity
   8
0
 370
13
   6
CONTINUOUS
  62
1
 100
AcDbDimension
   2
*D22
  10
 1417.5398392050
  20
 4798.8607460432
  30
0.0
  11
 1115.0398392050
  21
 4798.8607460432
  31
0.0
  70
0
   1
\A1;600
   3
GMM003
 100
AcDbAlignedDimension
  13
 812.53983920500
  23
 4798.8607460432
  33
0.0
  14
 1417.5398392050
  24
 4798.8607460432
  34
0.0
 100
AcDbRotatedDimension
   0
DIMENSION
   5
4FE
 100
AcDbEntity
   8
0
 370
13
   6
CONTINUOUS
  62
1
 100
AcDbDimension
   2
*D23
  10
 1765.0398392050
  20
 4471.3607460432
  30
0.0
  11
 1765.0398392050
  21
 4698.8607460432
  31
0.0
  70
0
   1
\A1;450
   3
GMM003
 100
AcDbAlignedDimension
  13
 1765.0398392050
  23
 4926.3607460432
  33
0.0
  14
 1765.0398392050
  24
 4471.3607460432
  34
0.0
  50
 270.00000000000
 100
AcDbRotatedDimension
   0
DIMENSION
   5
4FF
 100
AcDbEntity
   8
0
 370
13
   6
CONTINUOUS
  62
1
 100
AcDbDimension
   2
*D24
  10
 965.03983920500
  20
 4471.3607460432
  30
0.0
  11
 965.03983920500
  21
 4698.8607460432
  31
0.0
  70
0
   1
\A1;450
   3
GMM003
 100
AcDbAlignedDimension
  13
 965.03983920500
  23
 4926.3607460432
  33
0.0
  14
 965.03983920500
  24
 4471.3607460432
  34
0.0
  50
 270.00000000000
 100
AcDbRotatedDimension
   0
MTEXT
   5
500
 100
AcDbEntity
   8
LEVEL001
 370
13
  62
1
 100
AcDbMText
  10
 6315.0398392050
  20
 743.07949604318
  30
0.0
  40
 42.857142857142
  41
0.0
  71
5
  72
1
   1
\T1.000000;ＭＺＨ４５６ＷＣＰ
   7
GMM001
  44
 0.79999984000003
   0
ENDSEC
  0
SECTION
  2
OBJECTS
  0
DICTIONARY
  5
C
100
AcDbDictionary
  3
ACAD_GROUP
350
D
  3
ACAD_MLINESTYLE
350
1B
  3
DWGPROPS
350
1C
  0
DICTIONARY
  5
D
102
{ACAD_REACTORS
330
C
102
}
100
AcDbDictionary
  0
DICTIONARY
  5
1B
102
{ACAD_REACTORS
330
C
102
}
100
AcDbDictionary
  3
STANDARD
350
1D
  0
MLINESTYLE
  5
1D
102
{ACAD_REACTORS
330
1B
102
}
100
AcDbMlineStyle
  2
STANDARD
 70
     0
  3

 62
   256
 51
90.0
 52
90.0
 71
     2
 49
0.5
 62
   256
  6
BYLAYER
 49
-0.5
 62
   256
  6
BYLAYER
   0
XRECORD
   5
1C
 102
{ACAD_REACTORS
 330
C
 102
}
 330
C
 100
AcDbXrecord
 280
1
   1
DWGPROPS COOKIE
   2
 
   3
 
   4
 
   6
 
   7
MZH456WCP
   8
 
   9

 300
 = 
 301
 = 
 302
 = 
 303
 = 
 304
 = 
 305
 = 
 306
 = 
 307
 = 
 308
 = 
 309
 = 
  40
0.0
  41
 2460340.5000000
  42
 2460340.5000000
   1

  90
10
   0
ENDSEC
   0
EOF
