   0
SECTION
   2
HEADER
   9
$ACADVER
   1
AC1015
   9
$DWGCODEPAGE
   3
ANSI_932
   9
$LIMMIN
  10
0.0
  20
0.0
   9
$LIMMAX
  10
 8400.0000000000
  20
 5940.0000000000
   9
$EXTMIN
  10
0.0
  20
0.0
  30
0.0
   9
$EXTMAX
  10
 8400.0000000000
  20
 5940.0000000000
  30
0.0
   9
$LTSCALE
  40
 168.00000000000
   9
$HANDSEED
   5
4F1
   0
ENDSEC
   0
SECTION
   2
TABLES
  0
TABLE
  2
VPORT
  5
8
100
AcDbSymbolTable
 70
     1
  0
VPORT
  5
4F0
100
AcDbSymbolTableRecord
100
AcDbViewportTableRecord
  2
*ACTIVE
 70
     0
 10
0.0
 20
0.0
 11
1.0
 21
1.0
  12
 4200.0000000000
  22
 2970.0000000000
 13
0.0
 23
0.0
 14
1.0
 24
1.0
 15
0.0
 25
0.0
 16
0.0
 26
0.0
 36
1.0
 17
0.0
 27
0.0
 37
0.0
  40
 8400.0000000000
  41
 1.4787878787879
 42
50.0
 43
0.0
 44
0.0
 50
0.0
 51
0.0
 71
     0
 72
   100
 73
     1
 74
     1
 75
     0
 76
     0
 77
     0
 78
     0
  0
ENDTAB
  0
TABLE
  2
LTYPE
  5
5
100
AcDbSymbolTable
 70
    25
  0
LTYPE
  5
12
100
AcDbSymbolTableRecord
100
AcDbLinetypeTableRecord
  2
BYBLOCK
 70
     0
  3

 72
    65
 73
     0
 40
0.0
  0
LTYPE
  5
13
100
AcDbSymbolTableRecord
100
AcDbLinetypeTableRecord
  2
BYLAYER
 70
     0
  3

 72
    65
 73
     0
 40
0.0
  0
LTYPE
  5
14
100
AcDbSymbolTableRecord
100
AcDbLinetypeTableRecord
  2
CONTINUOUS
 70
     0
  3
Solid line
 72
    65
 73
     0
 40
0.0
  0
LTYPE
  5
20
100
AcDbSymbolTableRecord
100
AcDbLinetypeTableRecord
  2
BORDER
 70
     0
  3
__ __ . __ __ . __ __ . __ __ . __ __ . __ __ .
 72
    65
 73
     6
 40
1.75
 49
0.5
 74
     0
 49
-0.25
 74
     0
 49
0.5
 74
     0
 49
-0.25
 74
     0
 49
0.0
 74
     0
 49
-0.25
 74
     0
  0
LTYPE
  5
21
100
AcDbSymbolTableRecord
100
AcDbLinetypeTableRecord
  2
BORDER2
 70
     0
  3
__.__.__.__.__.__.__.__.__.__.__.__.__.__.__.__
 72
    65
 73
     6
 40
0.875
 49
0.25
 74
     0
 49
-0.125
 74
     0
 49
0.25
 74
     0
 49
-0.125
 74
     0
 49
0.0
 74
     0
 49
-0.125
 74
     0
  0
LTYPE
  5
22
100
AcDbSymbolTableRecord
100
AcDbLinetypeTableRecord
  2
BORDERX2
 70
     0
  3
____  ____  .  ____  ____  .  ____  ____  .  __
 72
    65
 73
     6
 40
3.5
 49
1.0
 74
     0
 49
-0.5
 74
     0
 49
1.0
 74
     0
 49
-0.5
 74
     0
 49
0.0
 74
     0
 49
-0.5
 74
     0
  0
LTYPE
  5
23
100
AcDbSymbolTableRecord
100
AcDbLinetypeTableRecord
  2
CENTER
 70
     0
  3
____ _ ____ _ ____ _ ____ _ ____ _ ____ _ ____ 
 72
    65
 73
     4
 40
2.0
 49
1.25
 74
     0
 49
-0.25
 74
     0
 49
0.25
 74
     0
 49
-0.25
 74
     0
  0
LTYPE
  5
24
100
AcDbSymbolTableRecord
100
AcDbLinetypeTableRecord
  2
CENTER2
 70
     0
  3
___ _ ___ _ ___ _ ___ _ ___ _ ___ _ ___ _ ___ _
 72
    65
 73
     4
 40
1.125
 49
0.75
 74
     0
 49
-0.125
 74
     0
 49
0.125
 74
     0
 49
-0.125
 74
     0
  0
LTYPE
  5
25
100
AcDbSymbolTableRecord
100
AcDbLinetypeTableRecord
  2
CENTERX2
 70
     0
  3
________  __  ________  __  ________  __  _____
 72
    65
 73
     4
 40
4.0
 49
2.5
 74
     0
 49
-0.5
 74
     0
 49
0.5
 74
     0
 49
-0.5
 74
     0
  0
LTYPE
  5
26
100
AcDbSymbolTableRecord
100
AcDbLinetypeTableRecord
  2
DASHDOT
 70
     0
  3
__ . __ . __ . __ . __ . __ . __ . __ . __ . __
 72
    65
 73
     4
 40
1.0
 49
0.5
 74
     0
 49
-0.25
 74
     0
 49
0.0
 74
     0
 49
-0.25
 74
     0
  0
LTYPE
  5
27
100
AcDbSymbolTableRecord
100
AcDbLinetypeTableRecord
  2
DASHDOT2
 70
     0
  3
_._._._._._._._._._._._._._._._._._._._._._._._
 72
    65
 73
     4
 40
0.5
 49
0.25
 74
     0
 49
-0.125
 74
     0
 49
0.0
 74
     0
 49
-0.125
 74
     0
  0
LTYPE
  5
28
100
AcDbSymbolTableRecord
100
AcDbLinetypeTableRecord
  2
DASHDOTX2
 70
     0
  3
____  .  ____  .  ____  .  ____  .  ____  .  __
 72
    65
 73
     4
 40
2.0
 49
1.0
 74
     0
 49
-0.5
 74
     0
 49
0.0
 74
     0
 49
-0.5
 74
     0
  0
LTYPE
  5
29
100
AcDbSymbolTableRecord
100
AcDbLinetypeTableRecord
  2
DASHED
 70
     0
  3
__ __ __ __ __ __ __ __ __ __ __ __ __ __ __ __
 72
    65
 73
     2
 40
0.75
 49
0.5
 74
     0
 49
-0.25
 74
     0
  0
LTYPE
  5
2A
100
AcDbSymbolTableRecord
100
AcDbLinetypeTableRecord
  2
DASHED2
 70
     0
  3
_ _ _ _ _ _ _ _ _ _ _ _ _ _ _ _ _ _ _ _ _ _ _ _
 72
    65
 73
     2
 40
0.375
 49
0.25
 74
     0
 49
-0.125
 74
     0
  0
LTYPE
  5
2B
100
AcDbSymbolTableRecord
100
AcDbLinetypeTableRecord
  2
DASHEDX2
 70
     0
  3
____  ____  ____  ____  ____  ____  ____  ____ 
 72
    65
 73
     2
 40
1.5
 49
1.0
 74
     0
 49
-0.5
 74
     0
  0
LTYPE
  5
2C
100
AcDbSymbolTableRecord
100
AcDbLinetypeTableRecord
  2
DIVIDE
 70
     0
  3
____ . . ____ . . ____ . . ____ . . ____ . . __
 72
    65
 73
     6
 40
1.25
 49
0.5
 74
     0
 49
-0.25
 74
     0
 49
0.0
 74
     0
 49
-0.25
 74
     0
 49
0.0
 74
     0
 49
-0.25
 74
     0
  0
LTYPE
  5
2D
100
AcDbSymbolTableRecord
100
AcDbLinetypeTableRecord
  2
DIVIDE2
 70
     0
  3
__..__..__..__..__..__..__..__..__..__..__..__.
 72
    65
 73
     6
 40
0.625
 49
0.25
 74
     0
 49
-0.125
 74
     0
 49
0.0
 74
     0
 49
-0.125
 74
     0
 49
0.0
 74
     0
 49
-0.125
 74
     0
  0
LTYPE
  5
2E
100
AcDbSymbolTableRecord
100
AcDbLinetypeTableRecord
  2
DIVIDEX2
 70
     0
  3
________  .  .  ________  .  .  ________  .  . 
 72
    65
 73
     6
 40
2.5
 49
1.0
 74
     0
 49
-0.5
 74
     0
 49
0.0
 74
     0
 49
-0.5
 74
     0
 49
0.0
 74
     0
 49
-0.5
 74
     0
  0
LTYPE
  5
2F
100
AcDbSymbolTableRecord
100
AcDbLinetypeTableRecord
  2
DOT
 70
     0
  3
. . . . . . . . . . . . . . . . . . . . . . . .
 72
    65
 73
     2
 40
0.25
 49
0.0
 74
     0
 49
-0.25
 74
     0
  0
LTYPE
  5
30
100
AcDbSymbolTableRecord
100
AcDbLinetypeTableRecord
  2
DOT2
 70
     0
  3
...............................................
 72
    65
 73
     2
 40
0.125
 49
0.0
 74
     0
 49
-0.125
 74
     0
  0
LTYPE
  5
31
100
AcDbSymbolTableRecord
100
AcDbLinetypeTableRecord
  2
DOTX2
 70
     0
  3
.  .  .  .  .  .  .  .  .  .  .  .  .  .  .  . 
 72
    65
 73
     2
 40
0.5
 49
0.0
 74
     0
 49
-0.5
 74
     0
  0
LTYPE
  5
32
100
AcDbSymbolTableRecord
100
AcDbLinetypeTableRecord
  2
HIDDEN
 70
     0
  3
__ __ __ __ __ __ __ __ __ __ __ __ __ __ __ __
 72
    65
 73
     2
 40
0.375
 49
0.25
 74
     0
 49
-0.125
 74
     0
  0
LTYPE
  5
33
100
AcDbSymbolTableRecord
100
AcDbLinetypeTableRecord
  2
HIDDEN2
 70
     0
  3
_ _ _ _ _ _ _ _ _ _ _ _ _ _ _ _ _ _ _ _ _ _ _ _
 72
    65
 73
     2
 40
0.1875
 49
0.125
 74
     0
 49
-0.0625
 74
     0
  0
LTYPE
  5
34
100
AcDbSymbolTableRecord
100
AcDbLinetypeTableRecord
  2
HIDDENX2
 70
     0
  3
____ ____ ____ ____ ____ ____ ____ ____ ____ __
 72
    65
 73
     2
 40
0.75
 49
0.5
 74
     0
 49
-0.25
 74
     0
  0
LTYPE
  5
35
100
AcDbSymbolTableRecord
100
AcDbLinetypeTableRecord
  2
PHANTOM
 70
     0
  3
______  __  __  ______  __  __  ______  __  __ 
 72
    65
 73
     6
 40
2.5
 49
1.25
 74
     0
 49
-0.25
 74
     0
 49
0.25
 74
     0
 49
-0.25
 74
     0
 49
0.25
 74
     0
 49
-0.25
 74
     0
  0
LTYPE
  5
36
100
AcDbSymbolTableRecord
100
AcDbLinetypeTableRecord
  2
PHANTOM2
 70
     0
  3
___ _ _ ___ _ _ ___ _ _ ___ _ _ ___ _ _ ___ _ _
 72
    65
 73
     6
 40
1.25
 49
0.625
 74
     0
 49
-0.125
 74
     0
 49
0.125
 74
     0
 49
-0.125
 74
     0
 49
0.125
 74
     0
 49
-0.125
 74
     0
  0
LTYPE
  5
37
100
AcDbSymbolTableRecord
100
AcDbLinetypeTableRecord
  2
PHANTOMX2
 70
     0
  3
____________    ____    ____    ____________   
 72
    65
 73
     6
 40
5.0
 49
2.5
 74
     0
 49
-0.5
 74
     0
 49
0.5
 74
     0
 49
-0.5
 74
     0
 49
0.5
 74
     0
 49
-0.5
 74
     0
  0
ENDTAB
   0
TABLE
   2
LAYER
   5
2
 100
AcDbSymbolTable
  70
2
   0
LAYER
   5
E
 100
AcDbSymbolTableRecord
 100
AcDbLayerTableRecord
   2
0
  70
0
  62
7
   6
CONTINUOUS
 390
30
   0
LAYER
   5
39
 100
AcDbSymbolTableRecord
 100
AcDbLayerTableRecord
   2
LEVEL001
  70
0
  62
7
   6
CONTINUOUS
 390
30
   0
ENDTAB
  0
TABLE
  2
STYLE
  5
3
100
AcDbSymbolTable
  70
9
  0
STYLE
  5
F
100
AcDbSymbolTableRecord
100
AcDbTextStyleTableRecord
  2
STANDARD
 70
     0
 40
0.0
 41
1.0
 50
0.0
 71
     0
 42
0.2
  3
TXT
  4
BIGFONT
  0
STYLE
  5
38
100
AcDbSymbolTableRecord
100
AcDbTextStyleTableRecord
  2
STANDARD1
 70
     4
 40
0.0
 41
1.0
 50
0.0
 71
     0
 42
0.2
  3
TXT
  4
BIGFONT
   0
STYLE
   5
3A
 100
AcDbSymbolTableRecord
 100
AcDbTextStyleTableRecord
   2
GMM001
  70
0
  40
0.0
  41
 1.0000000000000
  50
0.0
  71
     0
  42
1.0
   3

   4

1001
ACAD
1000
ＭＳ ゴシック
1071
32817
   0
STYLE
   5
3B
 100
AcDbSymbolTableRecord
 100
AcDbTextStyleTableRecord
   2
GMM002
  70
0
  40
0.0
  41
 0.75000000000000
  50
0.0
  71
     0
  42
1.0
   3
txt.shx
   4
bigfont.shx
   0
STYLE
   5
3C
 100
AcDbSymbolTableRecord
 100
AcDbTextStyleTableRecord
   2
GMM003
  70
0
  40
0.0
  41
 0.66666666666667
  50
0.0
  71
     0
  42
1.0
   3

   4

1001
ACAD
1000
ＭＳ ゴシック
1071
32817
   0
STYLE
   5
3D
 100
AcDbSymbolTableRecord
 100
AcDbTextStyleTableRecord
   2
GMM004
  70
0
  40
0.0
  41
 1.5000000000000
  50
0.0
  71
     0
  42
1.0
   3

   4

1001
ACAD
1000
ＭＳ ゴシック
1071
32817
   0
STYLE
   5
3E
 100
AcDbSymbolTableRecord
 100
AcDbTextStyleTableRecord
   2
GMM005
  70
0
  40
0.0
  41
 1.0000000000000
  50
0.0
  71
     0
  42
1.0
   3
txt.shx
   4
bigfont.shx
   0
STYLE
   5
3F
 100
AcDbSymbolTableRecord
 100
AcDbTextStyleTableRecord
   2
GMM006
  70
0
  40
0.0
  41
 0.82738095238095
  50
0.0
  71
     0
  42
1.0
   3
txt.shx
   4
bigfont.shx
   0
STYLE
   5
40
 100
AcDbSymbolTableRecord
 100
AcDbTextStyleTableRecord
   2
GMM007
  70
0
  40
0.0
  41
 0.84821428571429
  50
0.0
  71
     0
  42
1.0
   3
txt.shx
   4
bigfont.shx
   0
ENDTAB
  0
TABLE
  2
VIEW
  5
6
100
AcDbSymbolTable
 70
     0
  0
ENDTAB
  0
TABLE
  2
UCS
  5
7
100
AcDbSymbolTable
 70
     0
  0
ENDTAB
  0
TABLE
  2
APPID
  5
9
100
AcDbSymbolTable
 70
     1
  0
APPID
  5
10
100
AcDbSymbolTableRecord
100
AcDbRegAppTableRecord
  2
ACAD
 70
     0
  0
ENDTAB
   0
TABLE
   2
DIMSTYLE
   5
A
 100
AcDbSymbolTable
  70
12
 100
AcDbDimStyleTable
  0
DIMSTYLE
105
1D
100
AcDbSymbolTableRecord
100
AcDbDimStyleTableRecord
  2
STANDARD
 70
     0
  3

  4

  5

  6

  7

 40
1.0
 41
0.18
 42
0.0625
 43
0.38
 44
0.18
 45
0.0
 46
0.0
 47
0.0
 48
0.0
140
0.18
141
0.09
142
0.0
143
25.4
144
1.0
145
0.0
146
1.0
147
0.09
 71
     0
 72
     0
 73
     1
 74
     1
 75
     0
 76
     0
 77
     0
 78
     0
170
     0
171
     2
172
     0
173
     0
174
     0
175
     0
176
     0
177
     0
178
     0
270
     2
271
     4
272
     4
273
     2
274
     2
340
F
275
     0
280
     0
281
     0
282
     0
283
     1
284
     0
285
     0
286
     0
287
     3
288
     0
   0
DIMSTYLE
 105
41
 100
AcDbSymbolTableRecord
 100
AcDbDimStyleTableRecord
   2
GMM001
  70
0
   3

   4

   5

   6
_OPEN
   7
_OPEN
  40
 1.0000000000000
  41
 30.000000000000
  42
 30.000000000000
  43
 160.00000000000
  44
 30.000000000000
  45
0.0
  46
0.0
  47
0.0
  48
0.0
 140
 66.000000000000
 141
 20.000000000000
 142
0.0
 143
 0.39400000000000E-1
 144
 1.0000000000000
 145
0.0
 146
 0.75757575757576
 147
0.0
  71
0
  72
0
  73
0
  74
0
  75
0
  76
0
  77
0
  78
8
 170
0
 171
2
 172
1
 173
1
 174
0
 175
0
 176
1
 177
1
 178
7
 270
2
 271
1
 272
0
 273
2
 274
2
 340
3E
 275
0
 280
0
 281
0
 282
0
 283
1
 284
0
 285
0
 286
0
 287
3
 288
1
   0
DIMSTYLE
 105
42
 100
AcDbSymbolTableRecord
 100
AcDbDimStyleTableRecord
   2
GMM002
  70
0
   3

   4

   5

   6
_OPEN
   7
_OPEN
  40
 1.0000000000000
  41
 42.000000000000
  42
 30.000000000000
  43
 160.00000000000
  44
 30.000000000000
  45
0.0
  46
0.0
  47
0.0
  48
0.0
 140
 60.000000000000
 141
 20.000000000000
 142
0.0
 143
 0.39400000000000E-1
 144
 1.0000000000000
 145
0.0
 146
 0.83333333333333
 147
0.0
  71
0
  72
0
  73
0
  74
0
  75
0
  76
0
  77
0
  78
8
 170
0
 171
2
 172
1
 173
1
 174
0
 175
0
 176
1
 177
1
 178
7
 270
2
 271
1
 272
0
 273
2
 274
2
 340
3E
 275
0
 280
0
 281
0
 282
0
 283
1
 284
0
 285
0
 286
0
 287
3
 288
1
   0
DIMSTYLE
 105
43
 100
AcDbSymbolTableRecord
 100
AcDbDimStyleTableRecord
   2
GMM003
  70
0
   3

   4

   5

   6
_OPEN
   7
_OPEN
  40
 1.0000000000000
  41
 42.000000000000
  42
 30.000000000000
  43
 160.00000000000
  44
 30.000000000000
  45
0.0
  46
0.0
  47
0.0
  48
0.0
 140
 63.000000000000
 141
 20.000000000000
 142
0.0
 143
 0.39400000000000E-1
 144
 1.0000000000000
 145
0.0
 146
 0.79365079365079
 147
 14.000000000000
  71
0
  72
0
  73
0
  74
0
  75
0
  76
0
  77
3
  78
8
 170
0
 171
2
 172
1
 173
1
 174
0
 175
0
 176
6
 177
6
 178
1
 270
2
 271
1
 272
0
 273
2
 274
2
 340
3F
 275
0
 280
0
 281
0
 282
0
 283
1
 284
0
 285
0
 286
0
 287
3
 288
1
   0
DIMSTYLE
 105
44
 100
AcDbSymbolTableRecord
 100
AcDbDimStyleTableRecord
   2
GMM004
  70
0
   3

   4

   5

   6
_OPEN
   7
_OPEN
  40
 1.0000000000000
  41
 42.000000000000
  42
 30.000000000000
  43
 160.00000000000
  44
 30.000000000000
  45
0.0
  46
0.0
  47
0.0
  48
0.0
 140
 63.000000000000
 141
 20.000000000000
 142
0.0
 143
 0.39400000000000E-1
 144
 1.0000000000000
 145
0.0
 146
 0.79365079365079
 147
 14.000000000000
  71
0
  72
0
  73
0
  74
0
  75
0
  76
0
  77
3
  78
8
 170
0
 171
2
 172
1
 173
1
 174
0
 175
0
 176
6
 177
6
 178
1
 270
2
 271
1
 272
0
 273
2
 274
2
 340
40
 275
0
 280
0
 281
0
 282
0
 283
1
 284
0
 285
0
 286
0
 287
3
 288
1
   0
DIMSTYLE
 105
45
 100
AcDbSymbolTableRecord
 100
AcDbDimStyleTableRecord
   2
GMM005
  70
0
   3

   4

   5

   6
_OPEN
   7
_OPEN
  40
 1.0000000000000
  41
 42.000000000000
  42
 30.000000000000
  43
 160.00000000000
  44
 30.000000000000
  45
0.0
  46
0.0
  47
0.0
  48
0.0
 140
 63.000000000000
 141
 20.000000000000
 142
0.0
 143
 0.39400000000000E-1
 144
 1.0000000000000
 145
0.0
 146
 0.79365079365079
 147
 14.000000000000
  71
0
  72
0
  73
0
  74
0
  75
0
  76
0
  77
3
  78
8
 170
0
 171
2
 172
1
 173
1
 174
0
 175
0
 176
6
 177
6
 178
1
 270
2
 271
1
 272
0
 273
2
 274
2
 340
3F
 275
0
 280
0
 281
0
 282
0
 283
1
 284
0
 285
0
 286
0
 287
3
 288
1
   0
DIMSTYLE
 105
46
 100
AcDbSymbolTableRecord
 100
AcDbDimStyleTableRecord
   2
GMM006
  70
0
   3

   4

   5

   6
_OPEN
   7
_OPEN
  40
 1.0000000000000
  41
 42.000000000000
  42
 30.000000000000
  43
 160.00000000000
  44
 30.000000000000
  45
0.0
  46
0.0
  47
0.0
  48
0.0
 140
 63.000000000000
 141
 20.000000000000
 142
0.0
 143
 0.39400000000000E-1
 144
 1.0000000000000
 145
0.0
 146
 0.79365079365079
 147
 14.000000000000
  71
0
  72
0
  73
0
  74
0
  75
0
  76
0
  77
3
  78
8
 170
0
 171
2
 172
1
 173
1
 174
0
 175
0
 176
6
 177
6
 178
1
 270
2
 271
1
 272
0
 273
2
 274
2
 340
40
 275
0
 280
0
 281
0
 282
0
 283
1
 284
0
 285
0
 286
0
 287
3
 288
1
   0
DIMSTYLE
 105
47
 100
AcDbSymbolTableRecord
 100
AcDbDimStyleTableRecord
   2
GMM007
  70
0
   3

   4

   5

   6
_OPEN
   7
_OPEN
  40
 1.0000000000000
  41
 42.000000000000
  42
 30.000000000000
  43
 160.00000000000
  44
 30.000000000000
  45
0.0
  46
0.0
  47
0.0
  48
0.0
 140
 60.000000000000
 141
 20.000000000000
 142
0.0
 143
 0.39400000000000E-1
 144
 1.0000000000000
 145
0.0
 146
 0.83333333333333
 147
0.0
  71
0
  72
0
  73
0
  74
0
  75
0
  76
0
  77
0
  78
8
 170
0
 171
2
 172
1
 173
1
 174
0
 175
0
 176
1
 177
1
 178
7
 270
2
 271
1
 272
0
 273
2
 274
2
 340
3E
 275
0
 280
0
 281
0
 282
0
 283
1
 284
0
 285
0
 286
0
 287
3
 288
1
   0
DIMSTYLE
 105
48
 100
AcDbSymbolTableRecord
 100
AcDbDimStyleTableRecord
   2
GMM008
  70
0
   3
□<>
   4

   5

   6
_OPEN
   7
_OPEN
  40
 1.0000000000000
  41
 42.000000000000
  42
 30.000000000000
  43
 160.00000000000
  44
 30.000000000000
  45
0.0
  46
0.0
  47
0.0
  48
0.0
 140
 60.000000000000
 141
 20.000000000000
 142
0.0
 143
 0.39400000000000E-1
 144
 1.0000000000000
 145
0.0
 146
 0.83333333333333
 147
 14.000000000000
  71
0
  72
0
  73
0
  74
0
  75
0
  76
0
  77
3
  78
8
 170
0
 171
2
 172
1
 173
1
 174
0
 175
0
 176
6
 177
6
 178
1
 270
2
 271
1
 272
0
 273
2
 274
2
 340
3E
 275
0
 280
0
 281
0
 282
0
 283
1
 284
0
 285
0
 286
0
 287
3
 288
1
   0
DIMSTYLE
 105
49
 100
AcDbSymbolTableRecord
 100
AcDbDimStyleTableRecord
   2
GMM009
  70
0
   3

   4

   5

   6
_OPEN
   7
_OPEN
  40
 1.0000000000000
  41
 42.000000000000
  42
 30.000000000000
  43
 160.00000000000
  44
 30.000000000000
  45
0.0
  46
0.0
  47
0.0
  48
0.0
 140
 60.000000000000
 141
 20.000000000000
 142
0.0
 143
 0.39400000000000E-1
 144
 1.0000000000000
 145
0.0
 146
 0.83333333333333
 147
 25.714285714286
  71
0
  72
0
  73
0
  74
0
  75
0
  76
0
  77
3
  78
8
 170
0
 171
2
 172
1
 173
1
 174
0
 175
0
 176
6
 177
6
 178
1
 270
2
 271
6
 272
0
 273
2
 274
2
 340
3E
 275
1
 280
0
 281
0
 282
0
 283
1
 284
0
 285
0
 286
0
 287
3
 288
0
   0
DIMSTYLE
 105
4A
 100
AcDbSymbolTableRecord
 100
AcDbDimStyleTableRecord
   2
GMM010
  70
0
   3

   4

   5

   6
_OPEN
   7
_OPEN
  40
 1.0000000000000
  41
 42.000000000000
  42
 30.000000000000
  43
 160.00000000000
  44
 30.000000000000
  45
0.0
  46
0.0
  47
0.0
  48
0.0
 140
 60.000000000000
 141
 20.000000000000
 142
0.0
 143
 0.39400000000000E-1
 144
 1.0000000000000
 145
0.0
 146
 0.83333333333333
 147
 25.714285714286
  71
0
  72
0
  73
0
  74
0
  75
0
  76
0
  77
3
  78
8
 170
0
 171
2
 172
1
 173
1
 174
0
 175
0
 176
6
 177
6
 178
1
 270
2
 271
6
 272
0
 273
2
 274
2
 340
3E
 275
1
 280
0
 281
0
 282
0
 283
1
 284
0
 285
0
 286
0
 287
3
 288
0
   0
ENDTAB
  0
TABLE
  2
BLOCK_RECORD
  5
1
100
AcDbSymbolTable
 70
     0
  0
BLOCK_RECORD
  5
18
100
AcDbSymbolTableRecord
100
AcDbBlockTableRecord
  2
*MODEL_SPACE
  0
BLOCK_RECORD
  5
15
100
AcDbSymbolTableRecord
100
AcDbBlockTableRecord
  2
*PAPER_SPACE
   0
BLOCK_RECORD
   5
4B
 100
AcDbSymbolTableRecord
 100
AcDbBlockTableRecord
   2
*D4
   0
BLOCK_RECORD
   5
4C
 100
AcDbSymbolTableRecord
 100
AcDbBlockTableRecord
   2
*D5
   0
BLOCK_RECORD
   5
4D
 100
AcDbSymbolTableRecord
 100
AcDbBlockTableRecord
   2
*D6
   0
BLOCK_RECORD
   5
4E
 100
AcDbSymbolTableRecord
 100
AcDbBlockTableRecord
   2
*D7
   0
BLOCK_RECORD
   5
4F
 100
AcDbSymbolTableRecord
 100
AcDbBlockTableRecord
   2
*D17
   0
BLOCK_RECORD
   5
50
 100
AcDbSymbolTableRecord
 100
AcDbBlockTableRecord
   2
*D18
   0
BLOCK_RECORD
   5
51
 100
AcDbSymbolTableRecord
 100
AcDbBlockTableRecord
   2
BLOCK001
   0
BLOCK_RECORD
   5
52
 100
AcDbSymbolTableRecord
 100
AcDbBlockTableRecord
   2
BLOCK002
   0
BLOCK_RECORD
   5
53
 100
AcDbSymbolTableRecord
 100
AcDbBlockTableRecord
   2
*D21
   0
BLOCK_RECORD
   5
54
 100
AcDbSymbolTableRecord
 100
AcDbBlockTableRecord
   2
*D22
   0
BLOCK_RECORD
   5
55
 100
AcDbSymbolTableRecord
 100
AcDbBlockTableRecord
   2
*D23
   0
BLOCK_RECORD
   5
56
 100
AcDbSymbolTableRecord
 100
AcDbBlockTableRecord
   2
_ARCHTICK
   0
BLOCK_RECORD
   5
57
 100
AcDbSymbolTableRecord
 100
AcDbBlockTableRecord
   2
_BOXBLANK
   0
BLOCK_RECORD
   5
58
 100
AcDbSymbolTableRecord
 100
AcDbBlockTableRecord
   2
_BOXFILLED
   0
BLOCK_RECORD
   5
59
 100
AcDbSymbolTableRecord
 100
AcDbBlockTableRecord
   2
_CLOSED
   0
BLOCK_RECORD
   5
5A
 100
AcDbSymbolTableRecord
 100
AcDbBlockTableRecord
   2
_CLOSEDBLANK
   0
BLOCK_RECORD
   5
5B
 100
AcDbSymbolTableRecord
 100
AcDbBlockTableRecord
   2
_DATUMBLANK
   0
BLOCK_RECORD
   5
5C
 100
AcDbSymbolTableRecord
 100
AcDbBlockTableRecord
   2
_DATUMFILLED
   0
BLOCK_RECORD
   5
5D
 100
AcDbSymbolTableRecord
 100
AcDbBlockTableRecord
   2
_DOT
   0
BLOCK_RECORD
   5
5E
 100
AcDbSymbolTableRecord
 100
AcDbBlockTableRecord
   2
_DOTBLANK
   0
BLOCK_RECORD
   5
5F
 100
AcDbSymbolTableRecord
 100
AcDbBlockTableRecord
   2
_DOTSMALL
   0
BLOCK_RECORD
   5
60
 100
AcDbSymbolTableRecord
 100
AcDbBlockTableRecord
   2
_INTEGRAL
   0
BLOCK_RECORD
   5
61
 100
AcDbSymbolTableRecord
 100
AcDbBlockTableRecord
   2
_NONE
   0
BLOCK_RECORD
   5
62
 100
AcDbSymbolTableRecord
 100
AcDbBlockTableRecord
   2
_OBLIQUE
   0
BLOCK_RECORD
   5
63
 100
AcDbSymbolTableRecord
 100
AcDbBlockTableRecord
   2
_OPEN
   0
BLOCK_RECORD
   5
64
 100
AcDbSymbolTableRecord
 100
AcDbBlockTableRecord
   2
_OPEN30
   0
BLOCK_RECORD
   5
65
 100
AcDbSymbolTableRecord
 100
AcDbBlockTableRecord
   2
_OPEN90
   0
BLOCK_RECORD
   5
66
 100
AcDbSymbolTableRecord
 100
AcDbBlockTableRecord
   2
_ORIGIN
   0
ENDTAB
   0
ENDSEC
  0
SECTION
  2
BLOCKS
  0
BLOCK
  5
19
100
AcDbEntity
  8
0
100
AcDbBlockBegin
  2
*MODEL_SPACE
 70
     0
 10
0.0
 20
0.0
 30
0.0
  3
*MODEL_SPACE
  1

  0
ENDBLK
  5
1A
100
AcDbEntity
  8
0
100
AcDbBlockEnd
  0
BLOCK
  5
16
100
AcDbEntity
 67
     1
  8
0
100
AcDbBlockBegin
  2
*PAPER_SPACE
 70
     0
 10
0.0
 20
0.0
 30
0.0
  3
*PAPER_SPACE
  1

  0
ENDBLK
  5
17
100
AcDbEntity
 67
     1
  8
0
100
AcDbBlockEnd
   0
BLOCK
   5
67
 100
AcDbEntity
   8
0
 100
AcDbBlockBegin
   2
_ARCHTICK
  70
0
  10
0.0
  20
0.0
  30
0.0
   3
_ARCHTICK
   0
POLYLINE
   5
68
 100
AcDbEntity
   8
0
 370
-2
   6
BYBLOCK
  62
0
 100
AcDb2dPolyline
  66
1
  10
0.0
  20
0.0
  30
0.0
  70
1
  40
 0.15000000000000
  41
 0.15000000000000
   0
VERTEX
   5
69
 100
AcDbEntity
   8
0
   6
BYBLOCK
  62
0
 100
AcDbVertex
 100
AcDb2dVertex
  10
-0.50000000000000
  20
-0.50000000000000
  30
0.0
  40
 0.15000000000000
  41
 0.15000000000000
   0
VERTEX
   5
6A
 100
AcDbEntity
   8
0
   6
BYBLOCK
  62
0
 100
AcDbVertex
 100
AcDb2dVertex
  10
 0.50000000000000
  20
 0.50000000000000
  30
0.0
  40
 0.15000000000000
  41
 0.15000000000000
   0
SEQEND
   5
6B
 100
AcDbEntity
   8
0
   6
BYBLOCK
  62
0
   0
ENDBLK
   5
6C
 100
AcDbEntity
   8
0
 100
AcDbBlockEnd
   0
BLOCK
   5
6D
 100
AcDbEntity
   8
0
 100
AcDbBlockBegin
   2
_OBLIQUE
  70
0
  10
0.0
  20
0.0
  30
0.0
   3
_OBLIQUE
   0
LINE
   5
6E
 100
AcDbEntity
   8
0
 370
-2
 100
AcDbLine
   6
BYBLOCK
  62
0
  10
-0.50000000000000
  20
-0.50000000000000
  30
0.0
  11
 0.50000000000000
  21
 0.50000000000000
  31
0.0
   0
ENDBLK
   5
6F
 100
AcDbEntity
   8
0
 100
AcDbBlockEnd
   0
BLOCK
   5
70
 100
AcDbEntity
   8
0
 100
AcDbBlockBegin
   2
_BOXBLANK
  70
0
  10
0.0
  20
0.0
  30
0.0
   3
_BOXBLANK
   0
LINE
   5
71
 100
AcDbEntity
   8
0
 370
-2
 100
AcDbLine
   6
BYBLOCK
  62
0
  10
-0.50000000000000
  20
-0.50000000000000
  30
0.0
  11
 0.50000000000000
  21
-0.50000000000000
  31
0.0
   0
LINE
   5
72
 100
AcDbEntity
   8
0
 370
-2
 100
AcDbLine
   6
BYBLOCK
  62
0
  10
 0.50000000000000
  20
-0.50000000000000
  30
0.0
  11
 0.50000000000000
  21
 0.50000000000000
  31
0.0
   0
LINE
   5
73
 100
AcDbEntity
   8
0
 370
-2
 100
AcDbLine
   6
BYBLOCK
  62
0
  10
 0.50000000000000
  20
 0.50000000000000
  30
0.0
  11
-0.50000000000000
  21
 0.50000000000000
  31
0.0
   0
LINE
   5
74
 100
AcDbEntity
   8
0
 370
-2
 100
AcDbLine
   6
BYBLOCK
  62
0
  10
-0.50000000000000
  20
 0.50000000000000
  30
0.0
  11
-0.50000000000000
  21
-0.50000000000000
  31
0.0
   0
LINE
   5
75
 100
AcDbEntity
   8
0
 370
-2
 100
AcDbLine
   6
BYBLOCK
  62
0
  10
-0.50000000000000
  20
0.0
  30
0.0
  11
-1.0000000000000
  21
0.0
  31
0.0
   0
ENDBLK
   5
76
 100
AcDbEntity
   8
0
 100
AcDbBlockEnd
   0
BLOCK
   5
77
 100
AcDbEntity
   8
0
 100
AcDbBlockBegin
   2
_BOXFILLED
  70
0
  10
0.0
  20
0.0
  30
0.0
   3
_BOXFILLED
   0
SOLID
   5
78
 100
AcDbEntity
   8
0
 100
AcDbTrace
   6
BYBLOCK
  62
0
  10
-0.50000000000000
  20
 0.50000000000000
  30
0.0
  11
 0.50000000000000
  21
 0.50000000000000
  31
0.0
  12
-0.50000000000000
  22
-0.50000000000000
  32
0.0
  13
 0.50000000000000
  23
-0.50000000000000
  33
0.0
   0
LINE
   5
79
 100
AcDbEntity
   8
0
 370
-2
 100
AcDbLine
   6
BYBLOCK
  62
0
  10
-0.50000000000000
  20
0.0
  30
0.0
  11
-1.0000000000000
  21
0.0
  31
0.0
   0
ENDBLK
   5
7A
 100
AcDbEntity
   8
0
 100
AcDbBlockEnd
   0
BLOCK
   5
7B
 100
AcDbEntity
   8
0
 100
AcDbBlockBegin
   2
_CLOSED
  70
0
  10
0.0
  20
0.0
  30
0.0
   3
_CLOSED
   0
LINE
   5
7C
 100
AcDbEntity
   8
0
 370
-2
 100
AcDbLine
   6
BYBLOCK
  62
0
  10
-1.0000000000000
  20
 0.16666666666667
  30
0.0
  11
0.0
  21
0.0
  31
0.0
   0
LINE
   5
7D
 100
AcDbEntity
   8
0
 370
-2
 100
AcDbLine
   6
BYBLOCK
  62
0
  10
0.0
  20
0.0
  30
0.0
  11
-1.0000000000000
  21
-0.16666666666667
  31
0.0
   0
LINE
   5
7E
 100
AcDbEntity
   8
0
 370
-2
 100
AcDbLine
   6
BYBLOCK
  62
0
  10
-1.0000000000000
  20
 0.16666666666667
  30
0.0
  11
-1.0000000000000
  21
-0.16666666666667
  31
0.0
   0
LINE
   5
7F
 100
AcDbEntity
   8
0
 370
-2
 100
AcDbLine
   6
BYBLOCK
  62
0
  10
0.0
  20
0.0
  30
0.0
  11
-1.0000000000000
  21
0.0
  31
0.0
   0
ENDBLK
   5
80
 100
AcDbEntity
   8
0
 100
AcDbBlockEnd
   0
BLOCK
   5
81
 100
AcDbEntity
   8
0
 100
AcDbBlockBegin
   2
_OPEN
  70
0
  10
0.0
  20
0.0
  30
0.0
   3
_OPEN
   0
LINE
   5
82
 100
AcDbEntity
   8
0
 370
-2
 100
AcDbLine
   6
BYBLOCK
  62
0
  10
-1.0000000000000
  20
 0.16666666666667
  30
0.0
  11
0.0
  21
0.0
  31
0.0
   0
LINE
   5
83
 100
AcDbEntity
   8
0
 370
-2
 100
AcDbLine
   6
BYBLOCK
  62
0
  10
0.0
  20
0.0
  30
0.0
  11
-1.0000000000000
  21
-0.16666666666667
  31
0.0
   0
LINE
   5
84
 100
AcDbEntity
   8
0
 370
-2
 100
AcDbLine
   6
BYBLOCK
  62
0
  10
0.0
  20
0.0
  30
0.0
  11
-1.0000000000000
  21
0.0
  31
0.0
   0
ENDBLK
   5
85
 100
AcDbEntity
   8
0
 100
AcDbBlockEnd
   0
BLOCK
   5
86
 100
AcDbEntity
   8
0
 100
AcDbBlockBegin
   2
_OPEN30
  70
0
  10
0.0
  20
0.0
  30
0.0
   3
_OPEN30
   0
LINE
   5
87
 100
AcDbEntity
   8
0
 370
-2
 100
AcDbLine
   6
BYBLOCK
  62
0
  10
-1.0000000000000
  20
 0.26794919243110
  30
0.0
  11
0.0
  21
0.0
  31
0.0
   0
LINE
   5
88
 100
AcDbEntity
   8
0
 370
-2
 100
AcDbLine
   6
BYBLOCK
  62
0
  10
0.0
  20
0.0
  30
0.0
  11
-1.0000000000000
  21
-0.26794919243110
  31
0.0
   0
LINE
   5
89
 100
AcDbEntity
   8
0
 370
-2
 100
AcDbLine
   6
BYBLOCK
  62
0
  10
0.0
  20
0.0
  30
0.0
  11
-1.0000000000000
  21
0.0
  31
0.0
   0
ENDBLK
   5
8A
 100
AcDbEntity
   8
0
 100
AcDbBlockEnd
   0
BLOCK
   5
8B
 100
AcDbEntity
   8
0
 100
AcDbBlockBegin
   2
_OPEN90
  70
0
  10
0.0
  20
0.0
  30
0.0
   3
_OPEN90
   0
LINE
   5
8C
 100
AcDbEntity
   8
0
 370
-2
 100
AcDbLine
   6
BYBLOCK
  62
0
  10
-0.50000000000000
  20
 0.50000000000000
  30
0.0
  11
0.0
  21
0.0
  31
0.0
   0
LINE
   5
8D
 100
AcDbEntity
   8
0
 370
-2
 100
AcDbLine
   6
BYBLOCK
  62
0
  10
0.0
  20
0.0
  30
0.0
  11
-0.50000000000000
  21
-0.50000000000000
  31
0.0
   0
LINE
   5
8E
 100
AcDbEntity
   8
0
 370
-2
 100
AcDbLine
   6
BYBLOCK
  62
0
  10
0.0
  20
0.0
  30
0.0
  11
-1.0000000000000
  21
0.0
  31
0.0
   0
ENDBLK
   5
8F
 100
AcDbEntity
   8
0
 100
AcDbBlockEnd
   0
BLOCK
   5
90
 100
AcDbEntity
   8
0
 100
AcDbBlockBegin
   2
_CLOSEDBLANK
  70
0
  10
0.0
  20
0.0
  30
0.0
   3
_CLOSEDBLANK
   0
LINE
   5
91
 100
AcDbEntity
   8
0
 370
-2
 100
AcDbLine
   6
BYBLOCK
  62
0
  10
-1.0000000000000
  20
 0.16666666666667
  30
0.0
  11
0.0
  21
0.0
  31
0.0
   0
LINE
   5
92
 100
AcDbEntity
   8
0
 370
-2
 100
AcDbLine
   6
BYBLOCK
  62
0
  10
0.0
  20
0.0
  30
0.0
  11
-1.0000000000000
  21
-0.16666666666667
  31
0.0
   0
LINE
   5
93
 100
AcDbEntity
   8
0
 370
-2
 100
AcDbLine
   6
BYBLOCK
  62
0
  10
-1.0000000000000
  20
 0.16666666666667
  30
0.0
  11
-1.0000000000000
  21
-0.16666666666667
  31
0.0
   0
ENDBLK
   5
94
 100
AcDbEntity
   8
0
 100
AcDbBlockEnd
   0
BLOCK
   5
95
 100
AcDbEntity
   8
0
 100
AcDbBlockBegin
   2
_DOT
  70
0
  10
0.0
  20
0.0
  30
0.0
   3
_DOT
   0
POLYLINE
   5
96
 100
AcDbEntity
   8
0
 370
-2
   6
BYBLOCK
  62
0
 100
AcDb2dPolyline
  66
1
  10
0.0
  20
0.0
  30
0.0
  70
1
  40
 0.50000000000000
  41
 0.50000000000000
   0
VERTEX
   5
97
 100
AcDbEntity
   8
0
   6
BYBLOCK
  62
0
 100
AcDbVertex
 100
AcDb2dVertex
  10
-0.25000000000000
  20
0.0
  30
0.0
  42
 1.0000000000000
  40
 0.50000000000000
  41
 0.50000000000000
   0
VERTEX
   5
98
 100
AcDbEntity
   8
0
   6
BYBLOCK
  62
0
 100
AcDbVertex
 100
AcDb2dVertex
  10
 0.25000000000000
  20
0.0
  30
0.0
  42
 1.0000000000000
  40
 0.50000000000000
  41
 0.50000000000000
   0
SEQEND
   5
99
 100
AcDbEntity
   8
0
   6
BYBLOCK
  62
0
   0
LINE
   5
9A
 100
AcDbEntity
   8
0
 370
-2
 100
AcDbLine
   6
BYBLOCK
  62
0
  10
-0.50000000000000
  20
0.0
  30
0.0
  11
-1.0000000000000
  21
0.0
  31
0.0
   0
ENDBLK
   5
9B
 100
AcDbEntity
   8
0
 100
AcDbBlockEnd
   0
BLOCK
   5
9C
 100
AcDbEntity
   8
0
 100
AcDbBlockBegin
   2
_DOTSMALL
  70
0
  10
0.0
  20
0.0
  30
0.0
   3
_DOTSMALL
   0
POLYLINE
   5
9D
 100
AcDbEntity
   8
0
 370
-2
   6
BYBLOCK
  62
0
 100
AcDb2dPolyline
  66
1
  10
0.0
  20
0.0
  30
0.0
  70
1
  40
 0.50000000000000
  41
 0.50000000000000
   0
VERTEX
   5
9E
 100
AcDbEntity
   8
0
   6
BYBLOCK
  62
0
 100
AcDbVertex
 100
AcDb2dVertex
  10
-0.62500000000000E-1
  20
0.0
  30
0.0
  42
 1.0000000000000
  40
 0.50000000000000
  41
 0.50000000000000
   0
VERTEX
   5
9F
 100
AcDbEntity
   8
0
   6
BYBLOCK
  62
0
 100
AcDbVertex
 100
AcDb2dVertex
  10
 0.62500000000000E-1
  20
0.0
  30
0.0
  42
 1.0000000000000
  40
 0.50000000000000
  41
 0.50000000000000
   0
SEQEND
   5
A0
 100
AcDbEntity
   8
0
   6
BYBLOCK
  62
0
   0
ENDBLK
   5
A1
 100
AcDbEntity
   8
0
 100
AcDbBlockEnd
   0
BLOCK
   5
A2
 100
AcDbEntity
   8
0
 100
AcDbBlockBegin
   2
_DATUMBLANK
  70
0
  10
0.0
  20
0.0
  30
0.0
   3
_DATUMBLANK
   0
LINE
   5
A3
 100
AcDbEntity
   8
0
 370
-2
 100
AcDbLine
   6
BYBLOCK
  62
0
  10
0.0
  20
 0.57735027000000
  30
0.0
  11
-1.0000000000000
  21
0.0
  31
0.0
   0
LINE
   5
A4
 100
AcDbEntity
   8
0
 370
-2
 100
AcDbLine
   6
BYBLOCK
  62
0
  10
-1.0000000000000
  20
0.0
  30
0.0
  11
0.0
  21
-0.57735027000000
  31
0.0
   0
LINE
   5
A5
 100
AcDbEntity
   8
0
 370
-2
 100
AcDbLine
   6
BYBLOCK
  62
0
  10
0.0
  20
-0.57735027000000
  30
0.0
  11
0.0
  21
 0.57735027000000
  31
0.0
   0
ENDBLK
   5
A6
 100
AcDbEntity
   8
0
 100
AcDbBlockEnd
   0
BLOCK
   5
A7
 100
AcDbEntity
   8
0
 100
AcDbBlockBegin
   2
_DATUMFILLED
  70
0
  10
0.0
  20
0.0
  30
0.0
   3
_DATUMFILLED
   0
SOLID
   5
A8
 100
AcDbEntity
   8
0
 100
AcDbTrace
   6
BYBLOCK
  62
0
  10
0.0
  20
 0.57735027000000
  30
0.0
  11
-1.0000000000000
  21
0.0
  31
0.0
  12
0.0
  22
-0.57735027000000
  32
0.0
  13
0.0
  23
-0.57735027000000
  33
0.0
   0
ENDBLK
   5
A9
 100
AcDbEntity
   8
0
 100
AcDbBlockEnd
   0
BLOCK
   5
AA
 100
AcDbEntity
   8
0
 100
AcDbBlockBegin
   2
_ORIGIN
  70
0
  10
0.0
  20
0.0
  30
0.0
   3
_ORIGIN
   0
CIRCLE
   5
AB
 100
AcDbEntity
   8
0
 370
-2
 100
AcDbCircle
   6
BYBLOCK
  62
0
  10
0.0
  20
0.0
  30
0.0
  40
 0.50000000000000
   0
LINE
   5
AC
 100
AcDbEntity
   8
0
 370
-2
 100
AcDbLine
   6
BYBLOCK
  62
0
  10
0.0
  20
0.0
  30
0.0
  11
-1.0000000000000
  21
0.0
  31
0.0
   0
ENDBLK
   5
AD
 100
AcDbEntity
   8
0
 100
AcDbBlockEnd
   0
BLOCK
   5
AE
 100
AcDbEntity
   8
0
 100
AcDbBlockBegin
   2
_NONE
  70
0
  10
0.0
  20
0.0
  30
0.0
   3
_NONE
   0
CIRCLE
   5
AF
 100
AcDbEntity
   8
0
 370
-2
 100
AcDbCircle
   6
BYBLOCK
  62
0
  10
0.0
  20
0.0
  30
0.0
  40
 0.25000000000000
   0
ENDBLK
   5
B0
 100
AcDbEntity
   8
0
 100
AcDbBlockEnd
   0
BLOCK
   5
B1
 100
AcDbEntity
   8
0
 100
AcDbBlockBegin
   2
_DOTBLANK
  70
0
  10
0.0
  20
0.0
  30
0.0
   3
_DOTBLANK
   0
CIRCLE
   5
B2
 100
AcDbEntity
   8
0
 370
-2
 100
AcDbCircle
   6
BYBLOCK
  62
0
  10
0.0
  20
0.0
  30
0.0
  40
 0.50000000000000
   0
LINE
   5
B3
 100
AcDbEntity
   8
0
 370
-2
 100
AcDbLine
   6
BYBLOCK
  62
0
  10
-0.50000000000000
  20
0.0
  30
0.0
  11
-1.0000000000000
  21
0.0
  31
0.0
   0
ENDBLK
   5
B4
 100
AcDbEntity
   8
0
 100
AcDbBlockEnd
   0
BLOCK
   5
B5
 100
AcDbEntity
   8
0
 100
AcDbBlockBegin
   2
_INTEGRAL
  70
0
  10
0.0
  20
0.0
  30
0.0
   3
_INTEGRAL
   0
ARC
   5
B6
 100
AcDbEntity
   8
0
 370
-2
   6
BYBLOCK
  62
0
 100
AcDbCircle
  10
 0.44488800000000
  20
-0.91335000000000E-1
  30
0.0
  40
 0.45416700000000
 100
AcDbArc
  50
 102.00000000000
  51
 168.00000000000
   0
ARC
   5
B7
 100
AcDbEntity
   8
0
 370
-2
   6
BYBLOCK
  62
0
 100
AcDbCircle
  10
-0.44488800000000
  20
 0.91335000000000E-1
  30
0.0
  40
 0.45416700000000
 100
AcDbArc
  50
 282.00000000000
  51
 348.00000000000
   0
ENDBLK
   5
B8
 100
AcDbEntity
   8
0
 100
AcDbBlockEnd
   0
BLOCK
   5
B9
 100
AcDbEntity
   8
0
 100
AcDbBlockBegin
   2
*D4
  70
65
  10
0.0
  20
0.0
  30
0.0
   3
*D4
   0
LINE
   5
BA
 100
AcDbEntity
   8
LEVEL001
 370
13
 100
AcDbLine
   6
CONTINUOUS
  62
6
  10
 2196.9382022472
  20
 4810.7303370787
  30
0.0
  11
 1894.4382022472
  21
 4810.7303370787
  31
0.0
   0
LINE
   5
BB
 100
AcDbEntity
   8
LEVEL001
 370
13
 100
AcDbLine
   6
CONTINUOUS
  62
6
  10
 1591.9382022472
  20
 4810.7303370787
  30
0.0
  11
 1894.4382022472
  21
 4810.7303370787
  31
0.0
   0
INSERT
   5
BC
 100
AcDbEntity
   8
LEVEL001
   6
CONTINUOUS
  62
6
 100
AcDbBlockReference
   2
_OPEN
  10
 2196.9382022472
  20
 4810.7303370787
  30
0.0
  41
 42.000000000000
  42
 42.000000000000
  43
 42.000000000000
  50
0.0
   0
INSERT
   5
BD
 100
AcDbEntity
   8
LEVEL001
   6
CONTINUOUS
  62
6
 100
AcDbBlockReference
   2
_OPEN
  10
 1591.9382022472
  20
 4810.7303370787
  30
0.0
  41
 42.000000000000
  42
 42.000000000000
  43
 42.000000000000
  50
 180.00000000000
   0
MTEXT
   5
BE
 100
AcDbEntity
   8
LEVEL001
 370
13
  62
1
 100
AcDbMText
  10
 1925.1874108664
  20
 4824.7303370787
  30
0.0
  40
 63.000000000000
  41
0.0
  71
8
  72
1
   1
\A1;600
   7
GMM006
   0
ENDBLK
   5
BF
 100
AcDbEntity
   8
0
 100
AcDbBlockEnd
   0
BLOCK
   5
C0
 100
AcDbEntity
   8
0
 100
AcDbBlockBegin
   2
*D5
  70
65
  10
0.0
  20
0.0
  30
0.0
   3
*D5
   0
LINE
   5
C1
 100
AcDbEntity
   8
LEVEL001
 370
13
 100
AcDbLine
   6
CONTINUOUS
  62
6
  10
 1744.4382022472
  20
 4483.2303370787
  30
0.0
  11
 1744.4382022472
  21
 4710.7303370787
  31
0.0
   0
LINE
   5
C2
 100
AcDbEntity
   8
LEVEL001
 370
13
 100
AcDbLine
   6
CONTINUOUS
  62
6
  10
 1744.4382022472
  20
 4938.2303370787
  30
0.0
  11
 1744.4382022472
  21
 4710.7303370787
  31
0.0
   0
INSERT
   5
C3
 100
AcDbEntity
   8
LEVEL001
   6
CONTINUOUS
  62
6
 100
AcDbBlockReference
   2
_OPEN
  10
 1744.4382022472
  20
 4483.2303370787
  30
0.0
  41
 42.000000000000
  42
 42.000000000000
  43
 42.000000000000
  50
 270.00000000000
   0
INSERT
   5
C4
 100
AcDbEntity
   8
LEVEL001
   6
CONTINUOUS
  62
6
 100
AcDbBlockReference
   2
_OPEN
  10
 1744.4382022472
  20
 4938.2303370787
  30
0.0
  41
 42.000000000000
  42
 42.000000000000
  43
 42.000000000000
  50
 90.000000000000
   0
MTEXT
   5
C5
 100
AcDbEntity
   8
LEVEL001
 370
13
  62
1
 100
AcDbMText
  10
 1730.4382022472
  20
 4677.9170966229
  30
0.0
  40
 63.000000000000
  41
0.0
  71
8
  72
1
   1
\A1;450
   7
GMM007
  11
0.0
  21
 1.0000000000000
  31
0.0
   0
ENDBLK
   5
C6
 100
AcDbEntity
   8
0
 100
AcDbBlockEnd
   0
BLOCK
   5
C7
 100
AcDbEntity
   8
0
 100
AcDbBlockBegin
   2
*D6
  70
65
  10
0.0
  20
0.0
  30
0.0
   3
*D6
   0
LINE
   5
C8
 100
AcDbEntity
   8
LEVEL001
 370
13
 100
AcDbLine
   6
CONTINUOUS
  62
6
  10
 1396.9382022472
  20
 4810.7303370787
  30
0.0
  11
 1094.4382022472
  21
 4810.7303370787
  31
0.0
   0
LINE
   5
C9
 100
AcDbEntity
   8
LEVEL001
 370
13
 100
AcDbLine
   6
CONTINUOUS
  62
6
  10
 791.93820224719
  20
 4810.7303370787
  30
0.0
  11
 1094.4382022472
  21
 4810.7303370787
  31
0.0
   0
INSERT
   5
CA
 100
AcDbEntity
   8
LEVEL001
   6
CONTINUOUS
  62
6
 100
AcDbBlockReference
   2
_OPEN
  10
 1396.9382022472
  20
 4810.7303370787
  30
0.0
  41
 42.000000000000
  42
 42.000000000000
  43
 42.000000000000
  50
0.0
   0
INSERT
   5
CB
 100
AcDbEntity
   8
LEVEL001
   6
CONTINUOUS
  62
6
 100
AcDbBlockReference
   2
_OPEN
  10
 791.93820224719
  20
 4810.7303370787
  30
0.0
  41
 42.000000000000
  42
 42.000000000000
  43
 42.000000000000
  50
 180.00000000000
   0
MTEXT
   5
CC
 100
AcDbEntity
   8
LEVEL001
 370
13
  62
1
 100
AcDbMText
  10
 1125.1874108664
  20
 4824.7303370787
  30
0.0
  40
 63.000000000000
  41
0.0
  71
8
  72
1
   1
\A1;600
   7
GMM006
   0
ENDBLK
   5
CD
 100
AcDbEntity
   8
0
 100
AcDbBlockEnd
   0
BLOCK
   5
CE
 100
AcDbEntity
   8
0
 100
AcDbBlockBegin
   2
*D7
  70
65
  10
0.0
  20
0.0
  30
0.0
   3
*D7
   0
LINE
   5
CF
 100
AcDbEntity
   8
LEVEL001
 370
13
 100
AcDbLine
   6
CONTINUOUS
  62
6
  10
 944.43820224719
  20
 4483.2303370787
  30
0.0
  11
 944.43820224719
  21
 4710.7303370787
  31
0.0
   0
LINE
   5
D0
 100
AcDbEntity
   8
LEVEL001
 370
13
 100
AcDbLine
   6
CONTINUOUS
  62
6
  10
 944.43820224719
  20
 4938.2303370787
  30
0.0
  11
 944.43820224719
  21
 4710.7303370787
  31
0.0
   0
INSERT
   5
D1
 100
AcDbEntity
   8
LEVEL001
   6
CONTINUOUS
  62
6
 100
AcDbBlockReference
   2
_OPEN
  10
 944.43820224719
  20
 4483.2303370787
  30
0.0
  41
 42.000000000000
  42
 42.000000000000
  43
 42.000000000000
  50
 270.00000000000
   0
INSERT
   5
D2
 100
AcDbEntity
   8
LEVEL001
   6
CONTINUOUS
  62
6
 100
AcDbBlockReference
   2
_OPEN
  10
 944.43820224719
  20
 4938.2303370787
  30
0.0
  41
 42.000000000000
  42
 42.000000000000
  43
 42.000000000000
  50
 90.000000000000
   0
MTEXT
   5
D3
 100
AcDbEntity
   8
LEVEL001
 370
13
  62
1
 100
AcDbMText
  10
 930.43820224719
  20
 4677.9170966229
  30
0.0
  40
 63.000000000000
  41
0.0
  71
8
  72
1
   1
\A1;450
   7
GMM007
  11
0.0
  21
 1.0000000000000
  31
0.0
   0
ENDBLK
   5
D4
 100
AcDbEntity
   8
0
 100
AcDbBlockEnd
   0
BLOCK
   5
D5
 100
AcDbEntity
   8
0
 100
AcDbBlockBegin
   2
*D17
  70
65
  10
0.0
  20
0.0
  30
0.0
   3
*D17
   0
LINE
   5
D6
 100
AcDbEntity
   8
LEVEL001
 370
13
 100
AcDbLine
   6
CONTINUOUS
  62
6
  10
 2944.4382022472
  20
 932.33033707865
  30
0.0
  11
 2944.4382022472
  21
 732.33033707865
  31
0.0
   0
LINE
   5
D7
 100
AcDbEntity
   8
LEVEL001
 370
13
 100
AcDbLine
   6
CONTINUOUS
  62
6
  10
 3444.4382022472
  20
 932.33033707865
  30
0.0
  11
 3444.4382022472
  21
 732.33033707865
  31
0.0
   0
LINE
   5
D8
 100
AcDbEntity
   8
LEVEL001
 370
13
 100
AcDbLine
   6
CONTINUOUS
  62
6
  10
 2944.4382022472
  20
 762.33033707865
  30
0.0
  11
 3194.4382022472
  21
 762.33033707865
  31
0.0
   0
LINE
   5
D9
 100
AcDbEntity
   8
LEVEL001
 370
13
 100
AcDbLine
   6
CONTINUOUS
  62
6
  10
 3444.4382022472
  20
 762.33033707865
  30
0.0
  11
 3194.4382022472
  21
 762.33033707865
  31
0.0
   0
INSERT
   5
DA
 100
AcDbEntity
   8
LEVEL001
   6
CONTINUOUS
  62
6
 100
AcDbBlockReference
   2
_OPEN
  10
 2944.4382022472
  20
 762.33033707865
  30
0.0
  41
 42.000000000000
  42
 42.000000000000
  43
 42.000000000000
  50
 180.00000000000
   0
INSERT
   5
DB
 100
AcDbEntity
   8
LEVEL001
   6
CONTINUOUS
  62
6
 100
AcDbBlockReference
   2
_OPEN
  10
 3444.4382022472
  20
 762.33033707865
  30
0.0
  41
 42.000000000000
  42
 42.000000000000
  43
 42.000000000000
  50
0.0
   0
MTEXT
   5
DC
 100
AcDbEntity
   8
LEVEL001
 370
13
  62
1
 100
AcDbMText
  10
 3194.4382022472
  20
 776.33033707865
  30
0.0
  40
 60.000000000000
  41
0.0
  71
8
  72
1
   1
\A1;□500
   7
GMM005
   0
ENDBLK
   5
DD
 100
AcDbEntity
   8
0
 100
AcDbBlockEnd
   0
BLOCK
   5
DE
 100
AcDbEntity
   8
0
 100
AcDbBlockBegin
   2
*D18
  70
65
  10
0.0
  20
0.0
  30
0.0
   3
*D18
   0
LINE
   5
DF
 100
AcDbEntity
   8
LEVEL001
 370
13
 100
AcDbLine
   6
CONTINUOUS
  62
6
  10
 1244.4382022472
  20
 932.33033707865
  30
0.0
  11
 1244.4382022472
  21
 732.33033707865
  31
0.0
   0
LINE
   5
E0
 100
AcDbEntity
   8
LEVEL001
 370
13
 100
AcDbLine
   6
CONTINUOUS
  62
6
  10
 1744.4382022472
  20
 932.33033707865
  30
0.0
  11
 1744.4382022472
  21
 732.33033707865
  31
0.0
   0
LINE
   5
E1
 100
AcDbEntity
   8
LEVEL001
 370
13
 100
AcDbLine
   6
CONTINUOUS
  62
6
  10
 1244.4382022472
  20
 762.33033707865
  30
0.0
  11
 1494.4382022472
  21
 762.33033707865
  31
0.0
   0
LINE
   5
E2
 100
AcDbEntity
   8
LEVEL001
 370
13
 100
AcDbLine
   6
CONTINUOUS
  62
6
  10
 1744.4382022472
  20
 762.33033707865
  30
0.0
  11
 1494.4382022472
  21
 762.33033707865
  31
0.0
   0
INSERT
   5
E3
 100
AcDbEntity
   8
LEVEL001
   6
CONTINUOUS
  62
6
 100
AcDbBlockReference
   2
_OPEN
  10
 1244.4382022472
  20
 762.33033707865
  30
0.0
  41
 42.000000000000
  42
 42.000000000000
  43
 42.000000000000
  50
 180.00000000000
   0
INSERT
   5
E4
 100
AcDbEntity
   8
LEVEL001
   6
CONTINUOUS
  62
6
 100
AcDbBlockReference
   2
_OPEN
  10
 1744.4382022472
  20
 762.33033707865
  30
0.0
  41
 42.000000000000
  42
 42.000000000000
  43
 42.000000000000
  50
0.0
   0
MTEXT
   5
E5
 100
AcDbEntity
   8
LEVEL001
 370
13
  62
1
 100
AcDbMText
  10
 1494.4382022472
  20
 776.33033707865
  30
0.0
  40
 60.000000000000
  41
0.0
  71
8
  72
1
   1
\A1;□500
   7
GMM005
   0
ENDBLK
   5
E6
 100
AcDbEntity
   8
0
 100
AcDbBlockEnd
   0
BLOCK
   5
E7
 100
AcDbEntity
   8
0
 100
AcDbBlockBegin
   2
BLOCK001
  70
64
  10
0.0
  20
0.0
  30
0.0
   3
BLOCK001
   0
ARC
   5
E8
 100
AcDbEntity
   8
LEVEL001
 370
13
   6
CONTINUOUS
  62
7
 100
AcDbCircle
  10
 1564.4368943273
  20
 4342.3303370786
  30
0.0
  40
 20.000000000000
 100
AcDbArc
  50
0.0
  51
 90.000000000000
   0
LINE
   5
E9
 100
AcDbEntity
   8
LEVEL001
 370
13
 100
AcDbLine
   6
CONTINUOUS
  62
7
  10
 1564.4368943273
  20
 4362.3303370786
  30
0.0
  11
 1424.4395101671
  21
 4362.3303370786
  31
0.0
   0
LINE
   5
EA
 100
AcDbEntity
   8
LEVEL001
 370
13
 100
AcDbLine
   6
CONTINUOUS
  62
7
  10
 1584.4368943273
  20
 3782.3295523330
  30
0.0
  11
 1584.4368943273
  21
 4342.3303370786
  31
0.0
   0
ARC
   5
EB
 100
AcDbEntity
   8
LEVEL001
 370
13
   6
CONTINUOUS
  62
7
 100
AcDbCircle
  10
 1424.4395101671
  20
 4342.3303370786
  30
0.0
  40
 20.000000000000
 100
AcDbArc
  50
 90.000000000000
  51
 180.00000000000
   0
LINE
   5
EC
 100
AcDbEntity
   8
LEVEL001
 370
13
 100
AcDbLine
   6
CONTINUOUS
  62
7
  10
 1404.4395101671
  20
 4342.3303370786
  30
0.0
  11
 1404.4395101671
  21
 3782.3295523330
  31
0.0
   0
ARC
   5
ED
 100
AcDbEntity
   8
LEVEL001
 370
13
   6
CONTINUOUS
  62
7
 100
AcDbCircle
  10
 1424.4395101671
  20
 3782.3295523330
  30
0.0
  40
 20.000000000000
 100
AcDbArc
  50
 180.00000000000
  51
 270.00000000000
   0
LINE
   5
EE
 100
AcDbEntity
   8
LEVEL001
 370
13
 100
AcDbLine
   6
CONTINUOUS
  62
7
  10
 1424.4395101671
  20
 3762.3295523330
  30
0.0
  11
 1564.4368943273
  21
 3762.3295523330
  31
0.0
   0
ARC
   5
EF
 100
AcDbEntity
   8
LEVEL001
 370
13
   6
CONTINUOUS
  62
7
 100
AcDbCircle
  10
 1564.4368943273
  20
 3782.3295523330
  30
0.0
  40
 20.000000000000
 100
AcDbArc
  50
 270.00000000000
  51
0.0
   0
ENDBLK
   5
F0
 100
AcDbEntity
   8
0
 100
AcDbBlockEnd
   0
BLOCK
   5
F1
 100
AcDbEntity
   8
0
 100
AcDbBlockBegin
   2
BLOCK002
  70
64
  10
0.0
  20
0.0
  30
0.0
   3
BLOCK002
   0
LINE
   5
F2
 100
AcDbEntity
   8
LEVEL001
 370
13
 100
AcDbLine
   6
CONTINUOUS
  62
5
  10
 1494.4372014271
  20
 4312.3329343961
  30
0.0
  11
 1439.4372030662
  21
 4242.3329364824
  31
0.0
   0
LINE
   5
F3
 100
AcDbEntity
   8
LEVEL001
 370
13
 100
AcDbLine
   6
CONTINUOUS
  62
5
  10
 1439.4372030662
  20
 4242.3329364824
  30
0.0
  11
 1469.4372021722
  21
 4242.3329364824
  31
0.0
   0
LINE
   5
F4
 100
AcDbEntity
   8
LEVEL001
 370
13
 100
AcDbLine
   6
CONTINUOUS
  62
5
  10
 1469.4372021722
  20
 4242.3329364824
  30
0.0
  11
 1469.4372021722
  21
 4212.3329373764
  31
0.0
   0
LINE
   5
F5
 100
AcDbEntity
   8
LEVEL001
 370
13
 100
AcDbLine
   6
CONTINUOUS
  62
5
  10
 1469.4372021722
  20
 4212.3329373764
  30
0.0
  11
 1519.4372006821
  21
 4212.3329373764
  31
0.0
   0
LINE
   5
F6
 100
AcDbEntity
   8
LEVEL001
 370
13
 100
AcDbLine
   6
CONTINUOUS
  62
5
  10
 1519.4372006821
  20
 4212.3329373764
  30
0.0
  11
 1519.4372006821
  21
 4242.3329364824
  31
0.0
   0
LINE
   5
F7
 100
AcDbEntity
   8
LEVEL001
 370
13
 100
AcDbLine
   6
CONTINUOUS
  62
5
  10
 1519.4372006821
  20
 4242.3329364824
  30
0.0
  11
 1549.4371997880
  21
 4242.3329364824
  31
0.0
   0
LINE
   5
F8
 100
AcDbEntity
   8
LEVEL001
 370
13
 100
AcDbLine
   6
CONTINUOUS
  62
5
  10
 1549.4371997880
  20
 4242.3329364824
  30
0.0
  11
 1494.4372014271
  21
 4312.3329343961
  31
0.0
   0
LINE
   5
F9
 100
AcDbEntity
   8
LEVEL001
 370
13
 100
AcDbLine
   6
CONTINUOUS
  62
5
  10
 1424.7942591667
  20
 4146.3240282108
  30
0.0
  11
 1440.0634237507
  21
 4144.0693896062
  31
0.0
   0
ARC
   5
FA
 100
AcDbEntity
   8
LEVEL001
 370
13
   6
CONTINUOUS
  62
5
 100
AcDbCircle
  10
 1438.6807119145
  20
 4123.5361836534
  30
0.0
  40
 20.579709393390
 100
AcDbArc
  50
 10.432218603597
  51
 86.147502468922
   0
ARC
   5
FB
 100
AcDbEntity
   8
LEVEL001
 370
13
   6
CONTINUOUS
  62
5
 100
AcDbCircle
  10
 1445.0363738191
  20
 4126.9605389676
  30
0.0
  40
 13.887146297480
 100
AcDbArc
  50
 284.73811645770
  51
 1.2463330419203
   0
LINE
   5
FC
 100
AcDbEntity
   8
LEVEL001
 370
13
 100
AcDbLine
   6
CONTINUOUS
  62
5
  10
 1448.5692828722
  20
 4113.5302974988
  30
0.0
  11
 1424.7942591667
  21
 4146.3240282108
  31
0.0
   0
ARC
   5
FD
 100
AcDbEntity
   8
LEVEL001
 370
13
   6
CONTINUOUS
  62
5
 100
AcDbCircle
  10
 1432.3414691534
  20
 4086.7190297670
  30
0.0
  40
 20.228108756896
 100
AcDbArc
  50
 1.0517504589814
  51
 78.795792274262
   0
ARC
   5
FE
 100
AcDbEntity
   8
LEVEL001
 370
13
   6
CONTINUOUS
  62
5
 100
AcDbCircle
  10
 1437.5978996589
  20
 4088.8688156668
  30
0.0
  40
 15.073557642890
 100
AcDbArc
  50
 288.65956808371
  51
 353.22403827739
   0
LINE
   5
FF
 100
AcDbEntity
   8
LEVEL001
 370
13
 100
AcDbLine
   6
CONTINUOUS
  62
5
  10
 1427.1511316551
  20
 4060.5478161676
  30
0.0
  11
 1434.1198204122
  21
 4021.7076378818
  31
0.0
   0
LINE
   5
100
 100
AcDbEntity
   8
LEVEL001
 370
13
 100
AcDbLine
   6
CONTINUOUS
  62
5
  10
 1454.7185746811
  20
 4025.7043723818
  30
0.0
  11
 1451.5413897172
  21
 4042.8186296842
  31
0.0
   0
LINE
   5
101
 100
AcDbEntity
   8
LEVEL001
 370
13
 100
AcDbLine
   6
CONTINUOUS
  62
5
  10
 1451.5413897172
  20
 4042.8186296842
  30
0.0
  11
 1463.8390578077
  21
 4102.2574096510
  31
0.0
   0
LINE
   5
102
 100
AcDbEntity
   8
LEVEL001
 370
13
 100
AcDbLine
   6
CONTINUOUS
  62
5
  10
 1463.8390578077
  20
 4102.2574096510
  30
0.0
  11
 1440.9859701099
  21
 4052.3494216364
  31
0.0
   0
LINE
   5
103
 100
AcDbEntity
   8
LEVEL001
 370
13
 100
AcDbLine
   6
CONTINUOUS
  62
5
  10
 1440.9859701099
  20
 4052.3494216364
  30
0.0
  11
 1427.1511316551
  21
 4060.5478161676
  31
0.0
   0
ARC
   5
104
 100
AcDbEntity
   8
LEVEL001
 370
13
   6
CONTINUOUS
  62
5
 100
AcDbCircle
  10
 1549.1982403927
  20
 4080.9659379813
  30
0.0
  40
 5.0631766002424
 100
AcDbArc
  50
 274.72626205444
  51
 43.105625043010
   0
ARC
   5
105
 100
AcDbEntity
   8
LEVEL001
 370
13
   6
CONTINUOUS
  62
5
 100
AcDbCircle
  10
 1552.8378741000
  20
 4124.1148944444
  30
0.0
  40
 5.5826340442110
 100
AcDbArc
  50
 274.79665758014
  51
 36.910963374408
   0
LINE
   5
106
 100
AcDbEntity
   8
LEVEL001
 370
13
 100
AcDbLine
   6
CONTINUOUS
  62
5
  10
 1552.8948412865
  20
 4084.4258366962
  30
0.0
  11
 1536.4977470486
  21
 4097.4408204392
  31
0.0
   0
LINE
   5
107
 100
AcDbEntity
   8
LEVEL001
 370
13
 100
AcDbLine
   6
CONTINUOUS
  62
5
  10
 1536.4977470486
  20
 4097.4408204392
  30
0.0
  11
 1528.9141291105
  21
 4088.0125675464
  31
0.0
   0
LINE
   5
108
 100
AcDbEntity
   8
LEVEL001
 370
13
 100
AcDbLine
   6
CONTINUOUS
  62
5
  10
 1528.9141291105
  20
 4088.0125675464
  30
0.0
  11
 1516.1040708985
  21
 4088.0125675464
  31
0.0
   0
LINE
   5
109
 100
AcDbEntity
   8
LEVEL001
 370
13
 100
AcDbLine
   6
CONTINUOUS
  62
5
  10
 1516.1040708985
  20
 4088.0125675464
  30
0.0
  11
 1516.1040708985
  21
 4118.5518122416
  31
0.0
   0
LINE
   5
10A
 100
AcDbEntity
   8
LEVEL001
 370
13
 100
AcDbLine
   6
CONTINUOUS
  62
5
  10
 1516.1040708985
  20
 4118.5518122416
  30
0.0
  11
 1553.3046923485
  21
 4118.5518122416
  31
0.0
   0
LINE
   5
10B
 100
AcDbEntity
   8
LEVEL001
 370
13
 100
AcDbLine
   6
CONTINUOUS
  62
5
  10
 1557.3015794364
  20
 4127.4676750130
  30
0.0
  11
 1543.4664358058
  21
 4139.5602649846
  31
0.0
   0
LINE
   5
10C
 100
AcDbEntity
   8
LEVEL001
 370
13
 100
AcDbLine
   6
CONTINUOUS
  62
5
  10
 1543.4664358058
  20
 4139.5602649846
  30
0.0
  11
 1531.5789239530
  21
 4129.5172354988
  31
0.0
   0
LINE
   5
10D
 100
AcDbEntity
   8
LEVEL001
 370
13
 100
AcDbLine
   6
CONTINUOUS
  62
5
  10
 1531.5789239530
  20
 4129.5172354988
  30
0.0
  11
 1516.1040708985
  21
 4129.5172354988
  31
0.0
   0
LINE
   5
10E
 100
AcDbEntity
   8
LEVEL001
 370
13
 100
AcDbLine
   6
CONTINUOUS
  62
5
  10
 1516.1040708985
  20
 4129.5172354988
  30
0.0
  11
 1516.1040708985
  21
 4144.9917833774
  31
0.0
   0
LINE
   5
10F
 100
AcDbEntity
   8
LEVEL001
 370
13
 100
AcDbLine
   6
CONTINUOUS
  62
5
  10
 1516.1040708985
  20
 4144.9917833774
  30
0.0
  11
 1519.6911069245
  21
 4146.8364183322
  31
0.0
   0
LINE
   5
110
 100
AcDbEntity
   8
LEVEL001
 370
13
 100
AcDbLine
   6
CONTINUOUS
  62
5
  10
 1519.6911069245
  20
 4146.8364183322
  30
0.0
  11
 1519.9984189270
  21
 4149.5009079990
  31
0.0
   0
LINE
   5
111
 100
AcDbEntity
   8
LEVEL001
 370
13
 100
AcDbLine
   6
CONTINUOUS
  62
5
  10
 1519.9984189270
  20
 4149.5009079990
  30
0.0
  11
 1491.0988836555
  21
 4154.0100326204
  31
0.0
   0
LINE
   5
112
 100
AcDbEntity
   8
LEVEL001
 370
13
 100
AcDbLine
   6
CONTINUOUS
  62
5
  10
 1491.0988836555
  20
 4154.0100326204
  30
0.0
  11
 1491.0988836555
  21
 4129.5172354988
  31
0.0
   0
LINE
   5
113
 100
AcDbEntity
   8
LEVEL001
 370
13
 100
AcDbLine
   6
CONTINUOUS
  62
5
  10
 1491.0988836555
  20
 4129.5172354988
  30
0.0
  11
 1461.6869582625
  21
 4129.5172354988
  31
0.0
   0
LINE
   5
114
 100
AcDbEntity
   8
LEVEL001
 370
13
 100
AcDbLine
   6
CONTINUOUS
  62
5
  10
 1461.6869582625
  20
 4129.5172354988
  30
0.0
  11
 1466.0936964124
  21
 4118.5518122416
  31
0.0
   0
LINE
   5
115
 100
AcDbEntity
   8
LEVEL001
 370
13
 100
AcDbLine
   6
CONTINUOUS
  62
5
  10
 1466.0936964124
  20
 4118.5518122416
  30
0.0
  11
 1491.0988836555
  21
 4118.5518122416
  31
0.0
   0
LINE
   5
116
 100
AcDbEntity
   8
LEVEL001
 370
13
 100
AcDbLine
   6
CONTINUOUS
  62
5
  10
 1491.0988836555
  20
 4118.5518122416
  30
0.0
  11
 1491.0988836555
  21
 4088.0125675464
  31
0.0
   0
LINE
   5
117
 100
AcDbEntity
   8
LEVEL001
 370
13
 100
AcDbLine
   6
CONTINUOUS
  62
5
  10
 1491.0988836555
  20
 4088.0125675464
  30
0.0
  11
 1463.3266676863
  21
 4088.0125675464
  31
0.0
   0
LINE
   5
118
 100
AcDbEntity
   8
LEVEL001
 370
13
 100
AcDbLine
   6
CONTINUOUS
  62
5
  10
 1463.3266676863
  20
 4088.0125675464
  30
0.0
  11
 1468.2457959577
  21
 4075.9199775745
  31
0.0
   0
LINE
   5
119
 100
AcDbEntity
   8
LEVEL001
 370
13
 100
AcDbLine
   6
CONTINUOUS
  62
5
  10
 1468.2457959577
  20
 4075.9199775745
  30
0.0
  11
 1491.0988836555
  21
 4075.9199775745
  31
0.0
   0
LINE
   5
11A
 100
AcDbEntity
   8
LEVEL001
 370
13
 100
AcDbLine
   6
CONTINUOUS
  62
5
  10
 1491.0988836555
  20
 4075.9199775745
  30
0.0
  11
 1491.0988836555
  21
 4031.0335043029
  31
0.0
   0
LINE
   5
11B
 100
AcDbEntity
   8
LEVEL001
 370
13
 100
AcDbLine
   6
CONTINUOUS
  62
5
  10
 1491.0988836555
  20
 4031.0335043029
  30
0.0
  11
 1458.6126175338
  21
 4031.0335043029
  31
0.0
   0
LINE
   5
11C
 100
AcDbEntity
   8
LEVEL001
 370
13
 100
AcDbLine
   6
CONTINUOUS
  62
5
  10
 1458.6126175338
  20
 4031.0335043029
  30
0.0
  11
 1464.0441359266
  21
 4018.9406091556
  31
0.0
   0
LINE
   5
11D
 100
AcDbEntity
   8
LEVEL001
 370
13
 100
AcDbLine
   6
CONTINUOUS
  62
5
  10
 1464.0441359266
  20
 4018.9406091556
  30
0.0
  11
 1554.4219408504
  21
 4018.9406091556
  31
0.0
   0
LINE
   5
11E
 100
AcDbEntity
   8
LEVEL001
 370
13
 100
AcDbLine
   6
CONTINUOUS
  62
5
  10
 1557.8765305912
  20
 4030.4634359606
  30
0.0
  11
 1542.5441946223
  21
 4040.5641436674
  31
0.0
   0
LINE
   5
11F
 100
AcDbEntity
   8
LEVEL001
 370
13
 100
AcDbLine
   6
CONTINUOUS
  62
5
  10
 1542.5441946223
  20
 4040.5641436674
  30
0.0
  11
 1534.6532646817
  21
 4031.0335043029
  31
0.0
   0
LINE
   5
120
 100
AcDbEntity
   8
LEVEL001
 370
13
 100
AcDbLine
   6
CONTINUOUS
  62
5
  10
 1534.6532646817
  20
 4031.0335043029
  30
0.0
  11
 1516.1040708985
  21
 4031.0335043029
  31
0.0
   0
LINE
   5
121
 100
AcDbEntity
   8
LEVEL001
 370
13
 100
AcDbLine
   6
CONTINUOUS
  62
5
  10
 1516.1040708985
  20
 4031.0335043029
  30
0.0
  11
 1516.1040708985
  21
 4075.9199775745
  31
0.0
   0
LINE
   5
122
 100
AcDbEntity
   8
LEVEL001
 370
13
 100
AcDbLine
   6
CONTINUOUS
  62
5
  10
 1516.1040708985
  20
 4075.9199775745
  30
0.0
  11
 1549.6154224389
  21
 4075.9199775745
  31
0.0
   0
LINE
   5
123
 100
AcDbEntity
   8
LEVEL001
 370
13
 100
AcDbLine
   6
CONTINUOUS
  62
5
  10
 1421.3648117392
  20
 4108.8907576992
  30
0.0
  11
 1436.2719199574
  21
 4106.5616087416
  31
0.0
   0
LINE
   5
124
 100
AcDbEntity
   8
LEVEL001
 370
13
 100
AcDbLine
   6
CONTINUOUS
  62
5
  10
 1442.4206014148
  20
 4074.5875801534
  30
0.0
  11
 1421.3648117392
  21
 4106.8411749734
  31
0.0
   0
ARC
   5
125
 100
AcDbEntity
   8
LEVEL001
 370
13
   6
CONTINUOUS
  62
5
 100
AcDbCircle
  10
 1444.1022377338
  20
 4025.3395830682
  30
0.0
  40
 10.622602384609
 100
AcDbArc
  50
 199.99311911374
  51
 1.9679733406258
   0
ARC
   5
126
 100
AcDbEntity
   8
LEVEL001
 370
13
   6
CONTINUOUS
  62
5
 100
AcDbCircle
  10
 1554.4224201503
  20
 4025.2197287993
  30
0.0
  40
 6.2791196620726
 100
AcDbArc
  50
 269.99562647866
  51
 56.626490037599
   0
ARC
   5
127
 100
AcDbEntity
   8
LEVEL001
 370
13
   6
CONTINUOUS
  62
5
 100
AcDbCircle
  10
 1558.1948665023
  20
 3918.7512111630
  30
0.0
  40
 4.7515310421130
 100
AcDbArc
  50
 274.70409570306
  51
 59.112293256299
   0
ARC
   5
128
 100
AcDbEntity
   8
LEVEL001
 370
13
   6
CONTINUOUS
  62
5
 100
AcDbCircle
  10
 1465.0355433048
  20
 3918.3941525120
  30
0.0
  40
 22.293228438698
 100
AcDbArc
  50
 35.161132790361
  51
 78.641284698047
   0
ARC
   5
129
 100
AcDbEntity
   8
LEVEL001
 370
13
   6
CONTINUOUS
  62
5
 100
AcDbCircle
  10
 1476.9155843001
  20
 3929.4508644472
  30
0.0
  40
 6.5907971086860
 100
AcDbArc
  50
 312.23536417692
  51
 15.681870099083
   0
LINE
   5
12A
 100
AcDbEntity
   8
LEVEL001
 370
13
 100
AcDbLine
   6
CONTINUOUS
  62
5
  10
 1481.3457711532
  20
 3924.5711051319
  30
0.0
  11
 1500.2727725423
  21
 3924.5711051319
  31
0.0
   0
LINE
   5
12B
 100
AcDbEntity
   8
LEVEL001
 370
13
 100
AcDbLine
   6
CONTINUOUS
  62
5
  10
 1500.2727725423
  20
 3924.5711051319
  30
0.0
  11
 1510.7259582659
  21
 3940.2507311296
  31
0.0
   0
LINE
   5
12C
 100
AcDbEntity
   8
LEVEL001
 370
13
 100
AcDbLine
   6
CONTINUOUS
  62
5
  10
 1510.7259582659
  20
 3940.2507311296
  30
0.0
  11
 1469.4262158444
  21
 3940.2507311296
  31
0.0
   0
ARC
   5
12D
 100
AcDbEntity
   8
LEVEL001
 370
13
   6
CONTINUOUS
  62
5
 100
AcDbCircle
  10
 1548.7536691330
  20
 3945.4069047546
  30
0.0
  40
 5.1561789168066
 100
AcDbArc
  50
 269.91791191287
  51
 52.070025543566
   0
LINE
   5
12E
 100
AcDbEntity
   8
LEVEL001
 370
13
 100
AcDbLine
   6
CONTINUOUS
  62
5
  10
 1560.6340988683
  20
 3922.8288566487
  30
0.0
  11
 1542.7001394419
  21
 3933.2820423723
  31
0.0
   0
LINE
   5
12F
 100
AcDbEntity
   8
LEVEL001
 370
13
 100
AcDbLine
   6
CONTINUOUS
  62
5
  10
 1542.7001394419
  20
 3933.2820423723
  30
0.0
  11
 1536.1413017467
  21
 3924.5711051319
  31
0.0
   0
LINE
   5
130
 100
AcDbEntity
   8
LEVEL001
 370
13
 100
AcDbLine
   6
CONTINUOUS
  62
5
  10
 1536.1413017467
  20
 3924.5711051319
  30
0.0
  11
 1520.3924008489
  21
 3924.5711051319
  31
0.0
   0
LINE
   5
131
 100
AcDbEntity
   8
LEVEL001
 370
13
 100
AcDbLine
   6
CONTINUOUS
  62
5
  10
 1520.3924008489
  20
 3924.5711051319
  30
0.0
  11
 1529.4799249921
  21
 3932.7696522510
  31
0.0
   0
LINE
   5
132
 100
AcDbEntity
   8
LEVEL001
 370
13
 100
AcDbLine
   6
CONTINUOUS
  62
5
  10
 1529.4799249921
  20
 3932.7696522510
  30
0.0
  11
 1533.2717339611
  21
 3933.2820423723
  31
0.0
   0
LINE
   5
133
 100
AcDbEntity
   8
LEVEL001
 370
13
 100
AcDbLine
   6
CONTINUOUS
  62
5
  10
 1533.2717339611
  20
 3933.2820423723
  30
0.0
  11
 1534.9114433849
  21
 3935.6389148608
  31
0.0
   0
LINE
   5
134
 100
AcDbEntity
   8
LEVEL001
 370
13
 100
AcDbLine
   6
CONTINUOUS
  62
5
  10
 1534.9114433849
  20
 3935.6389148608
  30
0.0
  11
 1532.2469537182
  21
 3940.2507311296
  31
0.0
   0
LINE
   5
135
 100
AcDbEntity
   8
LEVEL001
 370
13
 100
AcDbLine
   6
CONTINUOUS
  62
5
  10
 1532.2469537182
  20
 3940.2507311296
  30
0.0
  11
 1548.7462818398
  21
 3940.2507311296
  31
0.0
   0
LINE
   5
136
 100
AcDbEntity
   8
LEVEL001
 370
13
 100
AcDbLine
   6
CONTINUOUS
  62
5
  10
 1551.9231616280
  20
 3949.4739059036
  30
0.0
  11
 1533.2717339611
  21
 3959.7218609204
  31
0.0
   0
LINE
   5
137
 100
AcDbEntity
   8
LEVEL001
 370
13
 100
AcDbLine
   6
CONTINUOUS
  62
5
  10
 1533.2717339611
  20
 3959.7218609204
  30
0.0
  11
 1527.1227473280
  21
 3950.1912215560
  31
0.0
   0
LINE
   5
138
 100
AcDbEntity
   8
LEVEL001
 370
13
 100
AcDbLine
   6
CONTINUOUS
  62
5
  10
 1527.1227473280
  20
 3950.1912215560
  30
0.0
  11
 1505.7042909351
  21
 3950.1912215560
  31
0.0
   0
LINE
   5
139
 100
AcDbEntity
   8
LEVEL001
 370
13
 100
AcDbLine
   6
CONTINUOUS
  62
5
  10
 1505.7042909351
  20
 3950.1912215560
  30
0.0
  11
 1505.7042909351
  21
 3956.5449811324
  31
0.0
   0
LINE
   5
13A
 100
AcDbEntity
   8
LEVEL001
 370
13
 100
AcDbLine
   6
CONTINUOUS
  62
5
  10
 1505.7042909351
  20
 3956.5449811324
  30
0.0
  11
 1507.8289246608
  21
 3960.2429485514
  31
0.0
   0
LINE
   5
13B
 100
AcDbEntity
   8
LEVEL001
 370
13
 100
AcDbLine
   6
CONTINUOUS
  62
5
  10
 1507.8289246608
  20
 3960.2429485514
  30
0.0
  11
 1507.0089173610
  21
 3961.9850444468
  31
0.0
   0
LINE
   5
13C
 100
AcDbEntity
   8
LEVEL001
 370
13
 100
AcDbLine
   6
CONTINUOUS
  62
5
  10
 1507.0089173610
  20
 3961.9850444468
  30
0.0
  11
 1482.2362740564
  21
 3962.5914287060
  31
0.0
   0
LINE
   5
13D
 100
AcDbEntity
   8
LEVEL001
 370
13
 100
AcDbLine
   6
CONTINUOUS
  62
5
  10
 1482.2362740564
  20
 3962.5914287060
  30
0.0
  11
 1482.2362740564
  21
 3950.1912215560
  31
0.0
   0
LINE
   5
13E
 100
AcDbEntity
   8
LEVEL001
 370
13
 100
AcDbLine
   6
CONTINUOUS
  62
5
  10
 1482.2362740564
  20
 3950.1912215560
  30
0.0
  11
 1432.7739952570
  21
 3950.1912215560
  31
0.0
   0
LINE
   5
13F
 100
AcDbEntity
   8
LEVEL001
 370
13
 100
AcDbLine
   6
CONTINUOUS
  62
5
  10
 1432.7739952570
  20
 3950.1912215560
  30
0.0
  11
 1437.2472617252
  21
 3940.2507311296
  31
0.0
   0
LINE
   5
140
 100
AcDbEntity
   8
LEVEL001
 370
13
 100
AcDbLine
   6
CONTINUOUS
  62
5
  10
 1437.2472617252
  20
 3940.2507311296
  30
0.0
  11
 1454.8742143249
  21
 3940.2507311296
  31
0.0
   0
LINE
   5
141
 100
AcDbEntity
   8
LEVEL001
 370
13
 100
AcDbLine
   6
CONTINUOUS
  62
5
  10
 1454.8742143249
  20
 3940.2507311296
  30
0.0
  11
 1464.8147047513
  21
 3924.5711051319
  31
0.0
   0
LINE
   5
142
 100
AcDbEntity
   8
LEVEL001
 370
13
 100
AcDbLine
   6
CONTINUOUS
  62
5
  10
 1464.8147047513
  20
 3924.5711051319
  30
0.0
  11
 1430.0994347898
  21
 3924.5711051319
  31
0.0
   0
LINE
   5
143
 100
AcDbEntity
   8
LEVEL001
 370
13
 100
AcDbLine
   6
CONTINUOUS
  62
5
  10
 1430.0994347898
  20
 3924.5711051319
  30
0.0
  11
 1434.9999473391
  21
 3914.0156855248
  31
0.0
   0
LINE
   5
144
 100
AcDbEntity
   8
LEVEL001
 370
13
 100
AcDbLine
   6
CONTINUOUS
  62
5
  10
 1434.9999473391
  20
 3914.0156855248
  30
0.0
  11
 1558.5845383825
  21
 3914.0156855248
  31
0.0
   0
ARC
   5
145
 100
AcDbEntity
   8
LEVEL001
 370
13
   6
CONTINUOUS
  62
5
 100
AcDbCircle
  10
 1454.3739361927
  20
 3889.9851688040
  30
0.0
  40
 31.206602120202
 100
AcDbArc
  50
 246.86700487442
  51
 289.54634462667
   0
LINE
   5
146
 100
AcDbEntity
   8
LEVEL001
 370
13
 100
AcDbLine
   6
CONTINUOUS
  62
5
  10
 1464.8147047513
  20
 3889.9327394652
  30
0.0
  11
 1464.8147047513
  21
 3896.3888855130
  31
0.0
   0
LINE
   5
147
 100
AcDbEntity
   8
LEVEL001
 370
13
 100
AcDbLine
   6
CONTINUOUS
  62
5
  10
 1464.8147047513
  20
 3896.3888855130
  30
0.0
  11
 1521.3839169326
  21
 3896.3888855130
  31
0.0
   0
LINE
   5
148
 100
AcDbEntity
   8
LEVEL001
 370
13
 100
AcDbLine
   6
CONTINUOUS
  62
5
  10
 1521.3839169326
  20
 3896.3888855130
  30
0.0
  11
 1521.3839169326
  21
 3889.9327394652
  31
0.0
   0
LINE
   5
149
 100
AcDbEntity
   8
LEVEL001
 370
13
 100
AcDbLine
   6
CONTINUOUS
  62
5
  10
 1521.3839169326
  20
 3889.9327394652
  30
0.0
  11
 1464.8147047513
  21
 3889.9327394652
  31
0.0
   0
LINE
   5
14A
 100
AcDbEntity
   8
LEVEL001
 370
13
 100
AcDbLine
   6
CONTINUOUS
  62
5
  10
 1547.9265797158
  20
 3903.3575742702
  30
0.0
  11
 1527.9427546278
  21
 3912.3759761010
  31
0.0
   0
LINE
   5
14B
 100
AcDbEntity
   8
LEVEL001
 370
13
 100
AcDbLine
   6
CONTINUOUS
  62
5
  10
 1527.9427546278
  20
 3912.3759761010
  30
0.0
  11
 1521.3839169326
  21
 3904.6898191036
  31
0.0
   0
LINE
   5
14C
 100
AcDbEntity
   8
LEVEL001
 370
13
 100
AcDbLine
   6
CONTINUOUS
  62
5
  10
 1521.3839169326
  20
 3904.6898191036
  30
0.0
  11
 1464.8147047513
  21
 3904.6898191036
  31
0.0
   0
LINE
   5
14D
 100
AcDbEntity
   8
LEVEL001
 370
13
 100
AcDbLine
   6
CONTINUOUS
  62
5
  10
 1464.8147047513
  20
 3904.6898191036
  30
0.0
  11
 1464.8147047513
  21
 3906.4320675868
  31
0.0
   0
LINE
   5
14E
 100
AcDbEntity
   8
LEVEL001
 370
13
 100
AcDbLine
   6
CONTINUOUS
  62
5
  10
 1464.8147047513
  20
 3906.4320675868
  30
0.0
  11
 1442.1666951724
  21
 3911.0435786798
  31
0.0
   0
LINE
   5
14F
 100
AcDbEntity
   8
LEVEL001
 370
13
 100
AcDbLine
   6
CONTINUOUS
  62
5
  10
 1442.1666951724
  20
 3911.0435786798
  30
0.0
  11
 1442.1138997638
  21
 3861.2877207876
  31
0.0
   0
LINE
   5
150
 100
AcDbEntity
   8
LEVEL001
 370
13
 100
AcDbLine
   6
CONTINUOUS
  62
5
  10
 1464.8147047513
  20
 3873.9456488772
  30
0.0
  11
 1464.8147047513
  21
 3880.8082890536
  31
0.0
   0
LINE
   5
151
 100
AcDbEntity
   8
LEVEL001
 370
13
 100
AcDbLine
   6
CONTINUOUS
  62
5
  10
 1464.8147047513
  20
 3880.8082890536
  30
0.0
  11
 1521.3839169326
  21
 3880.8082890536
  31
0.0
   0
LINE
   5
152
 100
AcDbEntity
   8
LEVEL001
 370
13
 100
AcDbLine
   6
CONTINUOUS
  62
5
  10
 1521.3839169326
  20
 3880.8082890536
  30
0.0
  11
 1521.3839169326
  21
 3873.9456488772
  31
0.0
   0
LINE
   5
153
 100
AcDbEntity
   8
LEVEL001
 370
13
 100
AcDbLine
   6
CONTINUOUS
  62
5
  10
 1521.3839169326
  20
 3873.9456488772
  30
0.0
  11
 1464.8147047513
  21
 3873.9456488772
  31
0.0
   0
ARC
   5
154
 100
AcDbEntity
   8
LEVEL001
 370
13
   6
CONTINUOUS
  62
5
 100
AcDbCircle
  10
 1544.4276041913
  20
 3900.7454814654
  30
0.0
  40
 4.3664469013676
 100
AcDbArc
  50
 266.15058922045
  51
 36.742470507716
   0
LINE
   5
155
 100
AcDbEntity
   8
LEVEL001
 370
13
 100
AcDbLine
   6
CONTINUOUS
  62
5
  10
 1464.8147047513
  20
 3860.5769664142
  30
0.0
  11
 1464.8147047513
  21
 3865.3374032842
  31
0.0
   0
LINE
   5
156
 100
AcDbEntity
   8
LEVEL001
 370
13
 100
AcDbLine
   6
CONTINUOUS
  62
5
  10
 1464.8147047513
  20
 3865.3374032842
  30
0.0
  11
 1521.3839169326
  21
 3865.3374032842
  31
0.0
   0
LINE
   5
157
 100
AcDbEntity
   8
LEVEL001
 370
13
 100
AcDbLine
   6
CONTINUOUS
  62
5
  10
 1521.3839169326
  20
 3865.3374032842
  30
0.0
  11
 1521.3839169326
  21
 3860.4182750128
  31
0.0
   0
LINE
   5
158
 100
AcDbEntity
   8
LEVEL001
 370
13
 100
AcDbLine
   6
CONTINUOUS
  62
5
  10
 1521.3839169326
  20
 3860.4182750128
  30
0.0
  11
 1538.2934012920
  21
 3860.4182750128
  31
0.0
   0
LINE
   5
159
 100
AcDbEntity
   8
LEVEL001
 370
13
 100
AcDbLine
   6
CONTINUOUS
  62
5
  10
 1538.2934012920
  20
 3860.4182750128
  30
0.0
  11
 1541.9823660258
  21
 3862.4678354986
  31
0.0
   0
LINE
   5
15A
 100
AcDbEntity
   8
LEVEL001
 370
13
 100
AcDbLine
   6
CONTINUOUS
  62
5
  10
 1541.9823660258
  20
 3862.4678354986
  30
0.0
  11
 1544.1344655710
  21
 3866.8745736484
  31
0.0
   0
LINE
   5
15B
 100
AcDbEntity
   8
LEVEL001
 370
13
 100
AcDbLine
   6
CONTINUOUS
  62
5
  10
 1544.1344655710
  20
 3866.8745736484
  30
0.0
  11
 1544.1277517040
  21
 3896.3890381008
  31
0.0
   0
LINE
   5
15C
 100
AcDbEntity
   8
LEVEL001
 370
13
 100
AcDbLine
   6
CONTINUOUS
  62
5
  10
 1448.3471149101
  20
 3854.9867566200
  30
0.0
  11
 1447.8347247886
  21
 3849.8628554054
  31
0.0
   0
LINE
   5
15D
 100
AcDbEntity
   8
LEVEL001
 370
13
 100
AcDbLine
   6
CONTINUOUS
  62
5
  10
 1447.8347247886
  20
 3849.8628554054
  30
0.0
  11
 1445.8873981865
  21
 3846.2759719674
  31
0.0
   0
LINE
   5
15E
 100
AcDbEntity
   8
LEVEL001
 370
13
 100
AcDbLine
   6
CONTINUOUS
  62
5
  10
 1445.8873981865
  20
 3846.2759719674
  30
0.0
  11
 1434.8195884578
  21
 3832.5435199840
  31
0.0
   0
ARC
   5
15F
 100
AcDbEntity
   8
LEVEL001
 370
13
   6
CONTINUOUS
  62
5
 100
AcDbCircle
  10
 1443.3518509724
  20
 3826.9317665157
  30
0.0
  40
 10.212310248246
 100
AcDbArc
  50
 146.66668479785
  51
 331.70163256436
   0
ARC
   5
160
 100
AcDbEntity
   8
LEVEL001
 370
13
   6
CONTINUOUS
  62
5
 100
AcDbCircle
  10
 1429.3637667922
  20
 3835.9895534113
  30
0.0
  40
 26.856307183018
 100
AcDbArc
  50
 328.83298190805
  51
 45.020901175904
   0
LINE
   5
161
 100
AcDbEntity
   8
LEVEL001
 370
13
 100
AcDbLine
   6
CONTINUOUS
  62
5
  10
 1531.9713799960
  20
 3857.7537853460
  30
0.0
  11
 1545.3960622131
  21
 3835.4130877696
  31
0.0
   0
ARC
   5
162
 100
AcDbEntity
   8
LEVEL001
 370
13
   6
CONTINUOUS
  62
5
 100
AcDbCircle
  10
 1537.7026993506
  20
 3825.2374170486
  30
0.0
  40
 8.7884995702356
 100
AcDbArc
  50
 268.04310640353
  51
 95.976315925198
   0
ARC
   5
163
 100
AcDbEntity
   8
LEVEL001
 370
13
   6
CONTINUOUS
  62
5
 100
AcDbCircle
  10
 1470.5017583812
  20
 3823.0636341160
  30
0.0
  40
 6.6095999893666
 100
AcDbArc
  50
 179.99949488507
  51
 269.90651577907
   0
LINE
   5
164
 100
AcDbEntity
   8
LEVEL001
 370
13
 100
AcDbLine
   6
CONTINUOUS
  62
5
  10
 1470.4909741134
  20
 3816.4540429245
  30
0.0
  11
 1537.4025932131
  21
 3816.4540429245
  31
0.0
   0
LINE
   5
165
 100
AcDbEntity
   8
LEVEL001
 370
13
 100
AcDbLine
   6
CONTINUOUS
  62
5
  10
 1536.7876640321
  20
 3833.9781512890
  30
0.0
  11
 1529.4091242130
  21
 3852.4248060126
  31
0.0
   0
LINE
   5
166
 100
AcDbEntity
   8
LEVEL001
 370
13
 100
AcDbLine
   6
CONTINUOUS
  62
5
  10
 1529.4091242130
  20
 3852.4248060126
  30
0.0
  11
 1529.2040460941
  21
 3842.1766984080
  31
0.0
   0
LINE
   5
167
 100
AcDbEntity
   8
LEVEL001
 370
13
 100
AcDbLine
   6
CONTINUOUS
  62
5
  10
 1529.2040460941
  20
 3842.1766984080
  30
0.0
  11
 1526.5026301590
  21
 3833.9781512890
  31
0.0
   0
LINE
   5
168
 100
AcDbEntity
   8
LEVEL001
 370
13
 100
AcDbLine
   6
CONTINUOUS
  62
5
  10
 1526.5026301590
  20
 3833.9781512890
  30
0.0
  11
 1486.6430122063
  21
 3833.9781512890
  31
0.0
   0
LINE
   5
169
 100
AcDbEntity
   8
LEVEL001
 370
13
 100
AcDbLine
   6
CONTINUOUS
  62
5
  10
 1486.6430122063
  20
 3833.9781512890
  30
0.0
  11
 1486.6430122063
  21
 3849.8628554054
  31
0.0
   0
LINE
   5
16A
 100
AcDbEntity
   8
LEVEL001
 370
13
 100
AcDbLine
   6
CONTINUOUS
  62
5
  10
 1486.6430122063
  20
 3849.8628554054
  30
0.0
  11
 1488.6925726921
  21
 3852.8346570746
  31
0.0
   0
LINE
   5
16B
 100
AcDbEntity
   8
LEVEL001
 370
13
 100
AcDbLine
   6
CONTINUOUS
  62
5
  10
 1488.6925726921
  20
 3852.8346570746
  30
0.0
  11
 1486.8480903252
  21
 3854.9867566200
  31
0.0
   0
LINE
   5
16C
 100
AcDbEntity
   8
LEVEL001
 370
13
 100
AcDbLine
   6
CONTINUOUS
  62
5
  10
 1486.8480903252
  20
 3854.9867566200
  30
0.0
  11
 1463.8921583921
  21
 3858.0610973486
  31
0.0
   0
LINE
   5
16D
 100
AcDbEntity
   8
LEVEL001
 370
13
 100
AcDbLine
   6
CONTINUOUS
  62
5
  10
 1463.8921583921
  20
 3858.0610973486
  30
0.0
  11
 1463.8921583921
  21
 3823.0636923858
  31
0.0
   0
LINE
   5
16E
 100
AcDbEntity
   8
LEVEL001
 370
13
 100
AcDbLine
   6
CONTINUOUS
  62
5
  10
 1506.7482972516
  20
 3838.2823503793
  30
0.0
  11
 1492.6061467942
  21
 3859.5984203008
  31
0.0
   0
ARC
   5
16F
 100
AcDbEntity
   8
LEVEL001
 370
13
   6
CONTINUOUS
  62
5
 100
AcDbCircle
  10
 1511.6286482084
  20
 3846.0018352582
  30
0.0
  40
 9.1328129430768
 100
AcDbArc
  50
 237.69843463492
  51
 18.768732377634
   0
ARC
   5
170
 100
AcDbEntity
   8
LEVEL001
 370
13
   6
CONTINUOUS
  62
5
 100
AcDbCircle
  10
 1494.0933729439
  20
 3821.6985822928
  30
0.0
  40
 37.929006876678
 100
AcDbArc
  50
 46.131549416345
  51
 92.247188603530
   0
ARC
   5
171
 100
AcDbEntity
   8
LEVEL001
 370
13
   6
CONTINUOUS
  62
5
 100
AcDbCircle
  10
 1551.1886822504
  20
 3842.2212954273
  30
0.0
  40
 8.9390233475260
 100
AcDbArc
  50
 229.60790187534
  51
 6.7933956222345
   0
ARC
   5
172
 100
AcDbEntity
   8
LEVEL001
 370
13
   6
CONTINUOUS
  62
5
 100
AcDbCircle
  10
 1535.8799407445
  20
 3831.1899598380
  30
0.0
  40
 27.037970213950
 100
AcDbArc
  50
 26.557897354805
  51
 98.092162593017
   0
ENDBLK
   5
173
 100
AcDbEntity
   8
0
 100
AcDbBlockEnd
   0
BLOCK
   5
174
 100
AcDbEntity
   8
0
 100
AcDbBlockBegin
   2
*D21
  70
65
  10
0.0
  20
0.0
  30
0.0
   3
*D21
   0
LINE
   5
175
 100
AcDbEntity
   8
0
 370
13
 100
AcDbLine
   6
CONTINUOUS
  62
6
  10
 1214.4382022472
  20
 1062.3303370787
  30
0.0
  11
 714.43820224719
  21
 1062.3303370787
  31
0.0
   0
LINE
   5
176
 100
AcDbEntity
   8
0
 370
13
 100
AcDbLine
   6
CONTINUOUS
  62
6
  10
 1214.4382022472
  20
 962.33033707865
  30
0.0
  11
 714.43820224719
  21
 962.33033707865
  31
0.0
   0
LINE
   5
177
 100
AcDbEntity
   8
0
 370
13
 100
AcDbLine
   6
CONTINUOUS
  62
6
  10
 744.43820224719
  20
 1062.3303370787
  30
0.0
  11
 744.43820224719
  21
 1012.3303370787
  31
0.0
   0
LINE
   5
178
 100
AcDbEntity
   8
0
 370
13
 100
AcDbLine
   6
CONTINUOUS
  62
6
  10
 744.43820224719
  20
 962.33033707865
  30
0.0
  11
 744.43820224719
  21
 1012.3303370787
  31
0.0
   0
INSERT
   5
179
 100
AcDbEntity
   8
0
   6
CONTINUOUS
  62
6
 100
AcDbBlockReference
   2
_OPEN
  10
 744.43820224719
  20
 1062.3303370787
  30
0.0
  41
 42.000000000000
  42
 42.000000000000
  43
 42.000000000000
  50
 90.000000000000
   0
INSERT
   5
17A
 100
AcDbEntity
   8
0
   6
CONTINUOUS
  62
6
 100
AcDbBlockReference
   2
_OPEN
  10
 744.43820224719
  20
 962.33033707865
  30
0.0
  41
 42.000000000000
  42
 42.000000000000
  43
 42.000000000000
  50
 270.00000000000
   0
MTEXT
   5
17B
 100
AcDbEntity
   8
0
 370
13
  62
1
 100
AcDbMText
  10
 718.72391653291
  20
 1012.3303370787
  30
0.0
  40
 60.000000000000
  41
0.0
  71
8
  72
1
   1
\A1;100
   7
GMM005
  11
0.0
  21
 1.0000000000000
  31
0.0
   0
ENDBLK
   5
17C
 100
AcDbEntity
   8
0
 100
AcDbBlockEnd
   0
BLOCK
   5
17D
 100
AcDbEntity
   8
0
 100
AcDbBlockBegin
   2
*D22
  70
65
  10
0.0
  20
0.0
  30
0.0
   3
*D22
   0
LINE
   5
17E
 100
AcDbEntity
   8
0
 370
13
 100
AcDbLine
   6
CONTINUOUS
  62
6
  10
 1214.4382022472
  20
 1062.3303370787
  30
0.0
  11
 714.43820224719
  21
 1062.3303370787
  31
0.0
   0
LINE
   5
17F
 100
AcDbEntity
   8
0
 370
13
 100
AcDbLine
   6
CONTINUOUS
  62
6
  10
 964.43820224719
  20
 1962.3303370787
  30
0.0
  11
 714.43820224719
  21
 1962.3303370787
  31
0.0
   0
LINE
   5
180
 100
AcDbEntity
   8
0
 370
13
 100
AcDbLine
   6
CONTINUOUS
  62
6
  10
 744.43820224719
  20
 1062.3303370787
  30
0.0
  11
 744.43820224719
  21
 1512.3303370787
  31
0.0
   0
LINE
   5
181
 100
AcDbEntity
   8
0
 370
13
 100
AcDbLine
   6
CONTINUOUS
  62
6
  10
 744.43820224719
  20
 1962.3303370787
  30
0.0
  11
 744.43820224719
  21
 1512.3303370787
  31
0.0
   0
INSERT
   5
182
 100
AcDbEntity
   8
0
   6
CONTINUOUS
  62
6
 100
AcDbBlockReference
   2
_OPEN
  10
 744.43820224719
  20
 1062.3303370787
  30
0.0
  41
 42.000000000000
  42
 42.000000000000
  43
 42.000000000000
  50
 270.00000000000
   0
INSERT
   5
183
 100
AcDbEntity
   8
0
   6
CONTINUOUS
  62
6
 100
AcDbBlockReference
   2
_OPEN
  10
 744.43820224719
  20
 1962.3303370787
  30
0.0
  41
 42.000000000000
  42
 42.000000000000
  43
 42.000000000000
  50
 90.000000000000
   0
MTEXT
   5
184
 100
AcDbEntity
   8
0
 370
13
  62
1
 100
AcDbMText
  10
 718.72391653291
  20
 1512.3303370787
  30
0.0
  40
 60.000000000000
  41
0.0
  71
8
  72
1
   1
\A1;900
   7
GMM005
  11
0.0
  21
 1.0000000000000
  31
0.0
   0
ENDBLK
   5
185
 100
AcDbEntity
   8
0
 100
AcDbBlockEnd
   0
BLOCK
   5
186
 100
AcDbEntity
   8
0
 100
AcDbBlockBegin
   2
*D23
  70
65
  10
0.0
  20
0.0
  30
0.0
   3
*D23
   0
LINE
   5
187
 100
AcDbEntity
   8
0
 370
13
 100
AcDbLine
   6
CONTINUOUS
  62
6
  10
 964.43820224719
  20
 1962.3303370787
  30
0.0
  11
 714.43820224719
  21
 1962.3303370787
  31
0.0
   0
LINE
   5
188
 100
AcDbEntity
   8
0
 370
13
 100
AcDbLine
   6
CONTINUOUS
  62
6
  10
 831.93820224719
  20
 4462.3303370787
  30
0.0
  11
 714.43820224719
  21
 4462.3303370787
  31
0.0
   0
LINE
   5
189
 100
AcDbEntity
   8
0
 370
13
 100
AcDbLine
   6
CONTINUOUS
  62
6
  10
 744.43820224719
  20
 1962.3303370787
  30
0.0
  11
 744.43820224719
  21
 3212.3303370787
  31
0.0
   0
LINE
   5
18A
 100
AcDbEntity
   8
0
 370
13
 100
AcDbLine
   6
CONTINUOUS
  62
6
  10
 744.43820224719
  20
 4462.3303370787
  30
0.0
  11
 744.43820224719
  21
 3212.3303370787
  31
0.0
   0
INSERT
   5
18B
 100
AcDbEntity
   8
0
   6
CONTINUOUS
  62
6
 100
AcDbBlockReference
   2
_OPEN
  10
 744.43820224719
  20
 1962.3303370787
  30
0.0
  41
 42.000000000000
  42
 42.000000000000
  43
 42.000000000000
  50
 270.00000000000
   0
INSERT
   5
18C
 100
AcDbEntity
   8
0
   6
CONTINUOUS
  62
6
 100
AcDbBlockReference
   2
_OPEN
  10
 744.43820224719
  20
 4462.3303370787
  30
0.0
  41
 42.000000000000
  42
 42.000000000000
  43
 42.000000000000
  50
 90.000000000000
   0
MTEXT
   5
18D
 100
AcDbEntity
   8
0
 370
13
  62
1
 100
AcDbMText
  10
 718.72391653291
  20
 3212.3303370787
  30
0.0
  40
 60.000000000000
  41
0.0
  71
8
  72
1
   1
\A1;2500(標準設置高さ)
   7
GMM005
  11
0.0
  21
 1.0000000000000
  31
0.0
   0
ENDBLK
   5
18E
 100
AcDbEntity
   8
0
 100
AcDbBlockEnd
   0
ENDSEC
   0
SECTION
   2
ENTITIES
   0
LINE
   5
18F
 100
AcDbEntity
   8
LEVEL001
 370
13
 100
AcDbLine
   6
CONTINUOUS
  62
7
  10
 8094.4382022472
  20
 5710.7303370787
  30
0.0
  11
 294.43820224719
  21
 5710.7303370787
  31
0.0
   0
LINE
   5
190
 100
AcDbEntity
   8
LEVEL001
 370
13
 100
AcDbLine
   6
CONTINUOUS
  62
7
  10
 294.43820224719
  20
 5710.7303370787
  30
0.0
  11
 294.43820224719
  21
 210.73033707865
  31
0.0
   0
LINE
   5
191
 100
AcDbEntity
   8
LEVEL001
 370
13
 100
AcDbLine
   6
CONTINUOUS
  62
7
  10
 294.43820224719
  20
 210.73033707865
  30
0.0
  11
 8094.4382022472
  21
 210.73033707865
  31
0.0
   0
LINE
   5
192
 100
AcDbEntity
   8
LEVEL001
 370
13
 100
AcDbLine
   6
CONTINUOUS
  62
7
  10
 8094.4382022472
  20
 210.73033707865
  30
0.0
  11
 8094.4382022472
  21
 5710.7303370787
  31
0.0
   0
POINT
   5
193
 100
AcDbEntity
   8
LEVEL001
 100
AcDbPoint
  62
3
  10
 7334.4382022472
  20
 840.73033707865
  30
0.0
   0
MTEXT
   5
194
 100
AcDbEntity
   8
LEVEL001
 370
13
  62
1
 100
AcDbMText
  10
 5626.4382022472
  20
 970.73033707865
  30
0.0
  40
 51.428571428572
  41
0.0
  71
6
  72
1
   1
\T1.000000;１６
   7
GMM001
  44
 0.79999984000003
   0
MTEXT
   5
195
 100
AcDbEntity
   8
LEVEL001
 370
13
  62
1
 100
AcDbMText
  10
 6784.4382022472
  20
 1327.8775524704
  30
0.0
  40
 51.428571428572
  41
0.0
  71
4
  72
1
   1
\T1.000000;ＰＥ
   7
GMM001
  44
 0.79999984000003
   0
MTEXT
   5
196
 100
AcDbEntity
   8
LEVEL001
 370
13
  62
1
 100
AcDbMText
  10
 5694.4382022472
  20
 970.73033707865
  30
0.0
  40
 51.428571428572
  41
0.0
  71
4
  72
1
   1
\T1.000000;同上ボルトナット
   7
GMM001
  44
 0.79999984000003
   0
MTEXT
   5
197
 100
AcDbEntity
   8
LEVEL001
 370
13
  62
1
 100
AcDbMText
  10
 5626.4382022472
  20
 1090.7303370787
  30
0.0
  40
 51.428571428572
  41
0.0
  71
6
  72
1
   1
\T1.000000;１５
   7
GMM001
  44
 0.79999984000003
   0
MTEXT
   5
198
 100
AcDbEntity
   8
LEVEL001
 370
13
  62
1
 100
AcDbMText
  10
 5694.4382022472
  20
 1090.7303370787
  30
0.0
  40
 51.428571428572
  41
0.0
  71
4
  72
1
   1
\T1.000000;注意板取付バンド
   7
GMM001
  44
 0.79999984000003
   0
LINE
   5
199
 100
AcDbEntity
   8
LEVEL001
 370
13
 100
AcDbLine
   6
CONTINUOUS
  62
6
  10
 5454.4382022472
  20
 1030.7303370787
  30
0.0
  11
 8094.4382022472
  21
 1030.7303370787
  31
0.0
   0
MTEXT
   5
19A
 100
AcDbEntity
   8
LEVEL001
 370
13
  62
1
 100
AcDbMText
  10
 5626.4382022472
  20
 1210.7303370787
  30
0.0
  40
 51.428571428572
  41
0.0
  71
6
  72
1
   1
\T1.000000;１４
   7
GMM001
  44
 0.79999984000003
   0
MTEXT
   5
19B
 100
AcDbEntity
   8
LEVEL001
 370
13
  62
1
 100
AcDbMText
  10
 6706.4382022472
  20
 1210.7303370787
  30
0.0
  40
 51.428571428572
  41
0.0
  71
6
  72
1
   1
\T1.000000;１
   7
GMM001
  44
 0.79999984000003
   0
LINE
   5
19C
 100
AcDbEntity
   8
LEVEL001
 370
13
 100
AcDbLine
   6
CONTINUOUS
  62
6
  10
 5454.4382022472
  20
 1150.7303370787
  30
0.0
  11
 8094.4382022472
  21
 1150.7303370787
  31
0.0
   0
LINE
   5
19D
 100
AcDbEntity
   8
LEVEL001
 370
13
 100
AcDbLine
   6
CONTINUOUS
  62
6
  10
 5454.4382022472
  20
 1270.7303370787
  30
0.0
  11
 8094.4382022472
  21
 1270.7303370787
  31
0.0
   0
MTEXT
   5
19E
 100
AcDbEntity
   8
LEVEL001
 370
13
  62
1
 100
AcDbMText
  10
 5626.4382022472
  20
 1330.7303370787
  30
0.0
  40
 51.428571428572
  41
0.0
  71
6
  72
1
   1
\T1.000000;１３
   7
GMM001
  44
 0.79999984000003
   0
MTEXT
   5
19F
 100
AcDbEntity
   8
LEVEL001
 370
13
  62
1
 100
AcDbMText
  10
 5694.4382022472
  20
 1330.7303370787
  30
0.0
  40
 51.428571428572
  41
0.0
  71
4
  72
1
   1
\T1.000000;キャップ
   7
GMM001
  44
 0.79999984000003
   0
MTEXT
   5
1A0
 100
AcDbEntity
   8
LEVEL001
 370
13
  62
1
 100
AcDbMText
  10
 6706.4382022472
  20
 1330.7303370787
  30
0.0
  40
 51.428571428572
  41
0.0
  71
6
  72
1
   1
\T1.000000;１
   7
GMM001
  44
 0.79999984000003
   0
MTEXT
   5
1A1
 100
AcDbEntity
   8
LEVEL001
 370
13
  62
1
 100
AcDbMText
  10
 5626.4382022472
  20
 1450.7303370787
  30
0.0
  40
 51.428571428572
  41
0.0
  71
6
  72
1
   1
\T1.000000;１２
   7
GMM001
  44
 0.79999984000003
   0
MTEXT
   5
1A2
 100
AcDbEntity
   8
LEVEL001
 370
13
  62
1
 100
AcDbMText
  10
 5694.4382022472
  20
 1450.7303370787
  30
0.0
  40
 51.428571428572
  41
0.0
  71
4
  72
1
   1
\T1.000000;根入れ鉄筋
   7
GMM001
  44
 0.79999984000003
   0
MTEXT
   5
1A3
 100
AcDbEntity
   8
LEVEL001
 370
13
  62
1
 100
AcDbMText
  10
 6706.4382022472
  20
 1450.7303370787
  30
0.0
  40
 51.428571428572
  41
0.0
  71
6
  72
1
   1
\T1.000000;１
   7
GMM001
  44
 0.79999984000003
   0
MTEXT
   5
1A4
 100
AcDbEntity
   8
LEVEL001
 370
13
  62
1
 100
AcDbMText
  10
 6774.4382022472
  20
 1450.7303370787
  30
0.0
  40
 51.428571428572
  41
0.0
  71
4
  72
1
   1
\T1.000000;ＳＤ２９５Ａ
   7
GMM001
  44
 0.79999984000003
   0
LINE
   5
1A5
 100
AcDbEntity
   8
LEVEL001
 370
13
 100
AcDbLine
   6
CONTINUOUS
  62
6
  10
 5454.4382022472
  20
 1390.7303370787
  30
0.0
  11
 8094.4382022472
  21
 1390.7303370787
  31
0.0
   0
LINE
   5
1A6
 100
AcDbEntity
   8
LEVEL001
 370
13
 100
AcDbLine
   6
CONTINUOUS
  62
6
  10
 5454.4382022472
  20
 1510.7303370787
  30
0.0
  11
 8094.4382022472
  21
 1510.7303370787
  31
0.0
   0
LINE
   5
1A7
 100
AcDbEntity
   8
LEVEL001
 370
13
 100
AcDbLine
   6
DASHDOT
  62
6
  10
 4444.4382022472
  20
 4775.7303370787
  30
0.0
  11
 4444.4382022472
  21
 4745.7303370787
  31
0.0
   0
LINE
   5
1A8
 100
AcDbEntity
   8
LEVEL001
 370
13
 100
AcDbLine
   6
DASHDOT
  62
6
  10
 4429.4382022472
  20
 4760.7303370787
  30
0.0
  11
 4459.4382022472
  21
 4760.7303370787
  31
0.0
   0
LINE
   5
1A9
 100
AcDbEntity
   8
LEVEL001
 370
13
 100
AcDbLine
   6
DASHDOT
  62
6
  10
 4544.4382022472
  20
 4775.7303370787
  30
0.0
  11
 4544.4382022472
  21
 4745.7303370787
  31
0.0
   0
LINE
   5
1AA
 100
AcDbEntity
   8
LEVEL001
 370
13
 100
AcDbLine
   6
DASHDOT
  62
6
  10
 4529.4382022472
  20
 4760.7303370787
  30
0.0
  11
 4559.4382022472
  21
 4760.7303370787
  31
0.0
   0
LINE
   5
1AB
 100
AcDbEntity
   8
LEVEL001
 370
13
 100
AcDbLine
   6
DASHDOT
  62
6
  10
 4544.4382022472
  20
 4675.7303370787
  30
0.0
  11
 4544.4382022472
  21
 4645.7303370787
  31
0.0
   0
LINE
   5
1AC
 100
AcDbEntity
   8
LEVEL001
 370
13
 100
AcDbLine
   6
DASHDOT
  62
6
  10
 4529.4382022472
  20
 4660.7303370787
  30
0.0
  11
 4559.4382022472
  21
 4660.7303370787
  31
0.0
   0
LINE
   5
1AD
 100
AcDbEntity
   8
LEVEL001
 370
13
 100
AcDbLine
   6
DASHDOT
  62
6
  10
 4444.4382022472
  20
 4675.7303370787
  30
0.0
  11
 4444.4382022472
  21
 4645.7303370787
  31
0.0
   0
LINE
   5
1AE
 100
AcDbEntity
   8
LEVEL001
 370
13
 100
AcDbLine
   6
DASHDOT
  62
6
  10
 4429.4382022472
  20
 4660.7303370787
  30
0.0
  11
 4459.4382022472
  21
 4660.7303370787
  31
0.0
   0
LINE
   5
1AF
 100
AcDbEntity
   8
LEVEL001
 370
13
 100
AcDbLine
   6
DASHDOT
  62
6
  10
 4544.4382022472
  20
 4675.7303370787
  30
0.0
  11
 4544.4382022472
  21
 4645.7303370787
  31
0.0
   0
LINE
   5
1B0
 100
AcDbEntity
   8
LEVEL001
 370
13
 100
AcDbLine
   6
DASHDOT
  62
6
  10
 4529.4382022472
  20
 4660.7303370787
  30
0.0
  11
 4559.4382022472
  21
 4660.7303370787
  31
0.0
   0
LINE
   5
1B1
 100
AcDbEntity
   8
LEVEL001
 370
13
 100
AcDbLine
   6
DASHDOT
  62
6
  10
 4444.4382022472
  20
 4675.7303370787
  30
0.0
  11
 4444.4382022472
  21
 4645.7303370787
  31
0.0
   0
LINE
   5
1B2
 100
AcDbEntity
   8
LEVEL001
 370
13
 100
AcDbLine
   6
DASHDOT
  62
6
  10
 4429.4382022472
  20
 4660.7303370787
  30
0.0
  11
 4459.4382022472
  21
 4660.7303370787
  31
0.0
   0
CIRCLE
   5
1B3
 100
AcDbEntity
   8
LEVEL001
 370
13
 100
AcDbCircle
   6
CONTINUOUS
  62
3
  10
 4544.4382022472
  20
 4760.7303370787
  30
0.0
  40
 7.0000000000000
   0
CIRCLE
   5
1B4
 100
AcDbEntity
   8
LEVEL001
 370
13
 100
AcDbCircle
   6
CONTINUOUS
  62
3
  10
 4544.4382022472
  20
 4660.7303370787
  30
0.0
  40
 7.0000000000000
   0
CIRCLE
   5
1B5
 100
AcDbEntity
   8
LEVEL001
 370
13
 100
AcDbCircle
   6
CONTINUOUS
  62
3
  10
 4444.4382022472
  20
 4660.7303370787
  30
0.0
  40
 7.0000000000000
   0
CIRCLE
   5
1B6
 100
AcDbEntity
   8
LEVEL001
 370
13
 100
AcDbCircle
   6
CONTINUOUS
  62
3
  10
 4444.4382022472
  20
 4760.7303370787
  30
0.0
  40
 7.0000000000000
   0
ARC
   5
1B7
 100
AcDbEntity
   8
LEVEL001
 370
13
   6
CONTINUOUS
  62
6
 100
AcDbCircle
  10
 4720.5772350496
  20
 4884.1838981353
  30
0.0
  40
 20.000000000000
 100
AcDbArc
  50
 37.488991427307
  51
 127.48899142730
   0
LINE
   5
1B8
 100
AcDbEntity
   8
LEVEL001
 370
13
 100
AcDbLine
   6
CONTINUOUS
  62
6
  10
 4617.1559719150
  20
 4830.0632705373
  30
0.0
  11
 4708.4050553264
  21
 4900.0533039459
  31
0.0
   0
ARC
   5
1B9
 100
AcDbEntity
   8
LEVEL001
 370
13
   6
CONTINUOUS
  62
6
 100
AcDbCircle
  10
 4720.5772350496
  20
 4884.1838981351
  30
0.0
  40
 20.000000000000
 100
AcDbArc
  50
 307.48899142730
  51
 37.488991427300
   0
LINE
   5
1BA
 100
AcDbEntity
   8
LEVEL001
 370
13
 100
AcDbLine
   6
CONTINUOUS
  62
6
  10
 4732.7494147730
  20
 4868.3144923245
  30
0.0
  11
 4641.5003313616
  21
 4798.3244589156
  31
0.0
   0
ARC
   5
1BB
 100
AcDbEntity
   8
LEVEL001
 370
13
   6
CONTINUOUS
  62
6
 100
AcDbCircle
  10
 4629.3281516382
  20
 4814.1938647265
  30
0.0
  40
 20.000000000000
 100
AcDbArc
  50
 217.48899142730
  51
 307.48899142730
   0
ARC
   5
1BC
 100
AcDbEntity
   8
LEVEL001
 370
13
   6
CONTINUOUS
  62
6
 100
AcDbCircle
  10
 4629.3281516382
  20
 4814.1938647265
  30
0.0
  40
 20.000000000000
 100
AcDbArc
  50
 127.48899142730
  51
 217.48899142730
   0
LINE
   5
1BD
 100
AcDbEntity
   8
LEVEL001
 370
13
 100
AcDbLine
   6
CONTINUOUS
  62
6
  10
 4626.7257678004
  20
 4738.2303370787
  30
0.0
  11
 4736.9382022472
  21
 4738.2303370787
  31
0.0
   0
ARC
   5
1BE
 100
AcDbEntity
   8
LEVEL001
 370
13
   6
CONTINUOUS
  62
6
 100
AcDbCircle
  10
 4736.9382022472
  20
 4710.7303370787
  30
0.0
  40
 27.500000000000
 100
AcDbArc
  50
0.0
  51
 90.000000000000
   0
ARC
   5
1BF
 100
AcDbEntity
   8
LEVEL001
 370
13
   6
CONTINUOUS
  62
6
 100
AcDbCircle
  10
 4736.9382022472
  20
 4710.7303370787
  30
0.0
  40
 27.500000000000
 100
AcDbArc
  50
 270.00000000000
  51
0.0
   0
LINE
   5
1C0
 100
AcDbEntity
   8
LEVEL001
 370
13
 100
AcDbLine
   6
CONTINUOUS
  62
6
  10
 4736.9382022472
  20
 4683.2303370787
  30
0.0
  11
 4626.7257678004
  21
 4683.2303370787
  31
0.0
   0
ARC
   5
1C1
 100
AcDbEntity
   8
LEVEL001
 370
13
   6
CONTINUOUS
  62
6
 100
AcDbCircle
  10
 4626.7257678004
  20
 4673.2303370787
  30
0.0
  40
 10.000000000000
 100
AcDbArc
  50
 90.000000000005
  51
 164.17337986813
   0
ARC
   5
1C2
 100
AcDbEntity
   8
LEVEL001
 370
13
   6
CONTINUOUS
  62
6
 100
AcDbCircle
  10
 4494.4382022472
  20
 4710.7303370787
  30
0.0
  40
 127.50000000000
 100
AcDbArc
  50
 285.82662013187
  51
 344.17337986813
   0
ARC
   5
1C3
 100
AcDbEntity
   8
LEVEL001
 370
13
   6
CONTINUOUS
  62
6
 100
AcDbCircle
  10
 4629.3281516382
  20
 4607.2668094309
  30
0.0
  40
 20.000000000000
 100
AcDbArc
  50
 52.511008572700
  51
 142.51100857270
   0
LINE
   5
1C4
 100
AcDbEntity
   8
LEVEL001
 370
13
 100
AcDbLine
   6
CONTINUOUS
  62
6
  10
 4732.7494147730
  20
 4553.1461818329
  30
0.0
  11
 4641.5003313616
  21
 4623.1362152417
  31
0.0
   0
ARC
   5
1C5
 100
AcDbEntity
   8
LEVEL001
 370
13
   6
CONTINUOUS
  62
6
 100
AcDbCircle
  10
 4629.3281516382
  20
 4607.2668094309
  30
0.0
  40
 20.000000000000
 100
AcDbArc
  50
 142.51100857270
  51
 232.51100857270
   0
LINE
   5
1C6
 100
AcDbEntity
   8
LEVEL001
 370
13
 100
AcDbLine
   6
CONTINUOUS
  62
6
  10
 4617.1559719150
  20
 4591.3974036201
  30
0.0
  11
 4708.4050553264
  21
 4521.4073702115
  31
0.0
   0
ARC
   5
1C7
 100
AcDbEntity
   8
LEVEL001
 370
13
   6
CONTINUOUS
  62
6
 100
AcDbCircle
  10
 4720.5772350496
  20
 4537.2767760223
  30
0.0
  40
 20.000000000000
 100
AcDbArc
  50
 322.51100857270
  51
 52.511008572700
   0
ARC
   5
1C8
 100
AcDbEntity
   8
LEVEL001
 370
13
   6
CONTINUOUS
  62
6
 100
AcDbCircle
  10
 4720.5772350496
  20
 4537.2767760221
  30
0.0
  40
 20.000000000000
 100
AcDbArc
  50
 232.51100857270
  51
 322.51100857270
   0
ARC
   5
1C9
 100
AcDbEntity
   8
LEVEL001
 370
13
   6
CONTINUOUS
  62
6
 100
AcDbCircle
  10
 4494.4382022472
  20
 4543.2303370787
  30
0.0
  40
 27.500000000000
 100
AcDbArc
  50
 270.00000000000
  51
0.0
   0
LINE
   5
1CA
 100
AcDbEntity
   8
LEVEL001
 370
13
 100
AcDbLine
   6
CONTINUOUS
  62
6
  10
 4521.9382022472
  20
 4543.2303370787
  30
0.0
  11
 4521.9382022472
  21
 4578.4427715255
  31
0.0
   0
ARC
   5
1CB
 100
AcDbEntity
   8
LEVEL001
 370
13
   6
CONTINUOUS
  62
6
 100
AcDbCircle
  10
 4531.9382022472
  20
 4578.4427715255
  30
0.0
  40
 10.000000000000
 100
AcDbArc
  50
 105.82662013188
  51
 180.00000000001
   0
ARC
   5
1CC
 100
AcDbEntity
   8
LEVEL001
 370
13
   6
CONTINUOUS
  62
6
 100
AcDbCircle
  10
 4494.4382022472
  20
 4710.7303370787
  30
0.0
  40
 127.50000000000
 100
AcDbArc
  50
 195.82662013187
  51
 254.17337986813
   0
ARC
   5
1CD
 100
AcDbEntity
   8
LEVEL001
 370
13
   6
CONTINUOUS
  62
6
 100
AcDbCircle
  10
 4494.4382022472
  20
 4543.2303370787
  30
0.0
  40
 27.500000000000
 100
AcDbArc
  50
 180.00000000000
  51
 270.00000000000
   0
LINE
   5
1CE
 100
AcDbEntity
   8
LEVEL001
 370
13
 100
AcDbLine
   6
CONTINUOUS
  62
6
  10
 4466.9382022472
  20
 4578.4427715255
  30
0.0
  11
 4466.9382022472
  21
 4543.2303370787
  31
0.0
   0
ARC
   5
1CF
 100
AcDbEntity
   8
LEVEL001
 370
13
   6
CONTINUOUS
  62
6
 100
AcDbCircle
  10
 4456.9382022472
  20
 4578.4427715255
  30
0.0
  40
 10.000000000000
 100
AcDbArc
  50
 0.52110207901098E-11
  51
 74.173379868132
   0
ARC
   5
1D0
 100
AcDbEntity
   8
LEVEL001
 370
13
   6
CONTINUOUS
  62
6
 100
AcDbCircle
  10
 4251.9382022472
  20
 4710.7303370787
  30
0.0
  40
 27.500000000000
 100
AcDbArc
  50
 180.00000000000
  51
 270.00000000000
   0
LINE
   5
1D1
 100
AcDbEntity
   8
LEVEL001
 370
13
 100
AcDbLine
   6
CONTINUOUS
  62
6
  10
 4251.9382022472
  20
 4683.2303370787
  30
0.0
  11
 4362.1506366940
  21
 4683.2303370787
  31
0.0
   0
ARC
   5
1D2
 100
AcDbEntity
   8
LEVEL001
 370
13
   6
CONTINUOUS
  62
6
 100
AcDbCircle
  10
 4362.1506366940
  20
 4673.2303370787
  30
0.0
  40
 10.000000000000
 100
AcDbArc
  50
 15.826620131868
  51
 89.999999999995
   0
ARC
   5
1D3
 100
AcDbEntity
   8
LEVEL001
 370
13
   6
CONTINUOUS
  62
6
 100
AcDbCircle
  10
 4251.9382022472
  20
 4710.7303370787
  30
0.0
  40
 27.500000000000
 100
AcDbArc
  50
 90.000000000000
  51
 180.00000000000
   0
LINE
   5
1D4
 100
AcDbEntity
   8
LEVEL001
 370
13
 100
AcDbLine
   6
CONTINUOUS
  62
6
  10
 4362.1506366940
  20
 4738.2303370787
  30
0.0
  11
 4251.9382022472
  21
 4738.2303370787
  31
0.0
   0
ARC
   5
1D5
 100
AcDbEntity
   8
LEVEL001
 370
13
   6
CONTINUOUS
  62
6
 100
AcDbCircle
  10
 4362.1506366940
  20
 4748.2303370787
  30
0.0
  40
 10.000000000000
 100
AcDbArc
  50
 270.00000000000
  51
 344.17337986812
   0
ARC
   5
1D6
 100
AcDbEntity
   8
LEVEL001
 370
13
   6
CONTINUOUS
  62
6
 100
AcDbCircle
  10
 4494.4382022472
  20
 4710.7303370787
  30
0.0
  40
 127.50000000000
 100
AcDbArc
  50
 105.82662013187
  51
 164.17337986813
   0
ARC
   5
1D7
 100
AcDbEntity
   8
LEVEL001
 370
13
   6
CONTINUOUS
  62
6
 100
AcDbCircle
  10
 4494.4382022472
  20
 4878.2303370787
  30
0.0
  40
 27.500000000000
 100
AcDbArc
  50
 90.000000000000
  51
 180.00000000000
   0
LINE
   5
1D8
 100
AcDbEntity
   8
LEVEL001
 370
13
 100
AcDbLine
   6
CONTINUOUS
  62
6
  10
 4466.9382022472
  20
 4843.0179026319
  30
0.0
  11
 4466.9382022472
  21
 4878.2303370787
  31
0.0
   0
ARC
   5
1D9
 100
AcDbEntity
   8
LEVEL001
 370
13
   6
CONTINUOUS
  62
6
 100
AcDbCircle
  10
 4456.9382022472
  20
 4843.0179026319
  30
0.0
  40
 10.000000000000
 100
AcDbArc
  50
 285.82662013187
  51
 359.99999999999
   0
ARC
   5
1DA
 100
AcDbEntity
   8
LEVEL001
 370
13
   6
CONTINUOUS
  62
6
 100
AcDbCircle
  10
 4494.4382022472
  20
 4878.2303370787
  30
0.0
  40
 27.500000000000
 100
AcDbArc
  50
0.0
  51
 90.000000000000
   0
LINE
   5
1DB
 100
AcDbEntity
   8
LEVEL001
 370
13
 100
AcDbLine
   6
CONTINUOUS
  62
6
  10
 4521.9382022472
  20
 4878.2303370787
  30
0.0
  11
 4521.9382022472
  21
 4843.0179026319
  31
0.0
   0
ARC
   5
1DC
 100
AcDbEntity
   8
LEVEL001
 370
13
   6
CONTINUOUS
  62
6
 100
AcDbCircle
  10
 4531.9382022472
  20
 4843.0179026319
  30
0.0
  40
 10.000000000000
 100
AcDbArc
  50
 180.00000000000
  51
 254.17337986812
   0
ARC
   5
1DD
 100
AcDbEntity
   8
LEVEL001
 370
13
   6
CONTINUOUS
  62
6
 100
AcDbCircle
  10
 4626.7257678004
  20
 4748.2303370787
  30
0.0
  40
 10.000000000000
 100
AcDbArc
  50
 195.82662013188
  51
 270.00000000000
   0
ARC
   5
1DE
 100
AcDbEntity
   8
LEVEL001
 370
13
   6
CONTINUOUS
  62
6
 100
AcDbCircle
  10
 4494.4382022472
  20
 4710.7303370787
  30
0.0
  40
 127.50000000000
 100
AcDbArc
  50
 15.826620131871
  51
 74.173379868127
   0
ARC
   5
1DF
 100
AcDbEntity
   8
LEVEL001
 370
13
   6
CONTINUOUS
  62
6
 100
AcDbCircle
  10
 4359.5482528562
  20
 4814.1938647265
  30
0.0
  40
 20.000000000000
 100
AcDbArc
  50
 322.51100857270
  51
 52.511008572696
   0
LINE
   5
1E0
 100
AcDbEntity
   8
LEVEL001
 370
13
 100
AcDbLine
   6
CONTINUOUS
  62
6
  10
 4256.1269897214
  20
 4868.3144923245
  30
0.0
  11
 4347.3760731328
  21
 4798.3244589156
  31
0.0
   0
ARC
   5
1E1
 100
AcDbEntity
   8
LEVEL001
 370
13
   6
CONTINUOUS
  62
6
 100
AcDbCircle
  10
 4359.5482528562
  20
 4814.1938647265
  30
0.0
  40
 20.000000000000
 100
AcDbArc
  50
 232.51100857270
  51
 322.51100857270
   0
LINE
   5
1E2
 100
AcDbEntity
   8
LEVEL001
 370
13
 100
AcDbLine
   6
CONTINUOUS
  62
6
  10
 4371.7204325794
  20
 4830.0632705373
  30
0.0
  11
 4280.4713491680
  21
 4900.0533039459
  31
0.0
   0
ARC
   5
1E3
 100
AcDbEntity
   8
LEVEL001
 370
13
   6
CONTINUOUS
  62
6
 100
AcDbCircle
  10
 4268.2991694448
  20
 4884.1838981353
  30
0.0
  40
 20.000000000000
 100
AcDbArc
  50
 52.511008572693
  51
 142.51100857270
   0
ARC
   5
1E4
 100
AcDbEntity
   8
LEVEL001
 370
13
   6
CONTINUOUS
  62
6
 100
AcDbCircle
  10
 4268.2991694448
  20
 4884.1838981351
  30
0.0
  40
 20.000000000000
 100
AcDbArc
  50
 142.51100857270
  51
 232.51100857270
   0
ARC
   5
1E5
 100
AcDbEntity
   8
LEVEL001
 370
13
   6
CONTINUOUS
  62
6
 100
AcDbCircle
  10
 4359.5482528562
  20
 4607.2668094309
  30
0.0
  40
 20.000000000000
 100
AcDbArc
  50
 37.488991427300
  51
 127.48899142730
   0
ARC
   5
1E6
 100
AcDbEntity
   8
LEVEL001
 370
13
   6
CONTINUOUS
  62
6
 100
AcDbCircle
  10
 4359.5482528562
  20
 4607.2668094309
  30
0.0
  40
 20.000000000000
 100
AcDbArc
  50
 307.48899142730
  51
 37.488991427307
   0
LINE
   5
1E7
 100
AcDbEntity
   8
LEVEL001
 370
13
 100
AcDbLine
   6
CONTINUOUS
  62
6
  10
 4256.1269897214
  20
 4553.1461818329
  30
0.0
  11
 4347.3760731328
  21
 4623.1362152417
  31
0.0
   0
LINE
   5
1E8
 100
AcDbEntity
   8
LEVEL001
 370
13
 100
AcDbLine
   6
CONTINUOUS
  62
6
  10
 4371.7204325794
  20
 4591.3974036201
  30
0.0
  11
 4280.4713491680
  21
 4521.4073702115
  31
0.0
   0
ARC
   5
1E9
 100
AcDbEntity
   8
LEVEL001
 370
13
   6
CONTINUOUS
  62
6
 100
AcDbCircle
  10
 4268.2991694448
  20
 4537.2767760221
  30
0.0
  40
 20.000000000000
 100
AcDbArc
  50
 217.48899142730
  51
 307.48899142730
   0
ARC
   5
1EA
 100
AcDbEntity
   8
LEVEL001
 370
13
   6
CONTINUOUS
  62
6
 100
AcDbCircle
  10
 4268.2991694448
  20
 4537.2767760223
  30
0.0
  40
 20.000000000000
 100
AcDbArc
  50
 127.48899142731
  51
 217.48899142729
   0
ARC
   5
1EB
 100
AcDbEntity
   8
LEVEL001
 370
13
   6
CONTINUOUS
  62
7
 100
AcDbCircle
  10
 4372.5776261776
  20
 4748.2303370787
  30
0.0
  40
 25.000000000000
 100
AcDbArc
  50
 270.00000000000
  51
 342.89536482335
   0
ARC
   5
1EC
 100
AcDbEntity
   8
LEVEL001
 370
13
   6
CONTINUOUS
  62
7
 100
AcDbCircle
  10
 4372.5776261776
  20
 4673.2303370787
  30
0.0
  40
 25.000000000000
 100
AcDbArc
  50
 17.104635176643
  51
 89.999999999996
   0
ARC
   5
1ED
 100
AcDbEntity
   8
LEVEL001
 370
13
   6
CONTINUOUS
  62
7
 100
AcDbCircle
  10
 4494.4382022472
  20
 4710.7303370787
  30
0.0
  40
 102.50000000000
 100
AcDbArc
  50
 197.10463517664
  51
 252.89536482336
   0
ARC
   5
1EE
 100
AcDbEntity
   8
LEVEL001
 370
13
   6
CONTINUOUS
  62
7
 100
AcDbCircle
  10
 4616.2987783168
  20
 4673.2303370787
  30
0.0
  40
 25.000000000000
 100
AcDbArc
  50
 90.000000000000
  51
 162.89536482336
   0
ARC
   5
1EF
 100
AcDbEntity
   8
LEVEL001
 370
13
   6
CONTINUOUS
  62
7
 100
AcDbCircle
  10
 4494.4382022472
  20
 4710.7303370787
  30
0.0
  40
 102.50000000000
 100
AcDbArc
  50
 287.10463517664
  51
 342.89536482336
   0
ARC
   5
1F0
 100
AcDbEntity
   8
LEVEL001
 370
13
   6
CONTINUOUS
  62
7
 100
AcDbCircle
  10
 4616.2987783168
  20
 4748.2303370787
  30
0.0
  40
 25.000000000000
 100
AcDbArc
  50
 197.10463517665
  51
 270.00000000000
   0
ARC
   5
1F1
 100
AcDbEntity
   8
LEVEL001
 370
13
   6
CONTINUOUS
  62
7
 100
AcDbCircle
  10
 4531.9382022472
  20
 4832.5909131483
  30
0.0
  40
 25.000000000000
 100
AcDbArc
  50
 180.00000000000
  51
 252.89536482336
   0
ARC
   5
1F2
 100
AcDbEntity
   8
LEVEL001
 370
13
   6
CONTINUOUS
  62
7
 100
AcDbCircle
  10
 4494.4382022472
  20
 4710.7303370787
  30
0.0
  40
 102.50000000000
 100
AcDbArc
  50
 17.104635176643
  51
 72.895364823355
   0
ARC
   5
1F3
 100
AcDbEntity
   8
LEVEL001
 370
13
   6
CONTINUOUS
  62
7
 100
AcDbCircle
  10
 4456.9382022472
  20
 4832.5909131483
  30
0.0
  40
 25.000000000000
 100
AcDbArc
  50
 287.10463517664
  51
0.0
   0
ARC
   5
1F4
 100
AcDbEntity
   8
LEVEL001
 370
13
   6
CONTINUOUS
  62
7
 100
AcDbCircle
  10
 4494.4382022472
  20
 4710.7303370787
  30
0.0
  40
 102.50000000000
 100
AcDbArc
  50
 107.10463517664
  51
 162.89536482336
   0
LINE
   5
1F5
 100
AcDbEntity
   8
LEVEL001
 370
13
 100
AcDbLine
   6
CONTINUOUS
  62
7
  10
 4372.5776261776
  20
 4723.2303370787
  30
0.0
  11
 4254.4382022472
  21
 4723.2303370787
  31
0.0
   0
ARC
   5
1F6
 100
AcDbEntity
   8
LEVEL001
 370
13
   6
CONTINUOUS
  62
7
 100
AcDbCircle
  10
 4254.4382022472
  20
 4710.7303370787
  30
0.0
  40
 12.500000000000
 100
AcDbArc
  50
 90.000000000000
  51
 180.00000000000
   0
LINE
   5
1F7
 100
AcDbEntity
   8
LEVEL001
 370
13
 100
AcDbLine
   6
CONTINUOUS
  62
7
  10
 4254.4382022472
  20
 4698.2303370787
  30
0.0
  11
 4372.5776261776
  21
 4698.2303370787
  31
0.0
   0
ARC
   5
1F8
 100
AcDbEntity
   8
LEVEL001
 370
13
   6
CONTINUOUS
  62
7
 100
AcDbCircle
  10
 4254.4382022472
  20
 4710.7303370787
  30
0.0
  40
 12.500000000000
 100
AcDbArc
  50
 180.00000000000
  51
 270.00000000000
   0
LINE
   5
1F9
 100
AcDbEntity
   8
LEVEL001
 370
13
 100
AcDbLine
   6
CONTINUOUS
  62
7
  10
 4481.9382022472
  20
 4832.5909131483
  30
0.0
  11
 4481.9382022472
  21
 4875.7303370787
  31
0.0
   0
ARC
   5
1FA
 100
AcDbEntity
   8
LEVEL001
 370
13
   6
CONTINUOUS
  62
7
 100
AcDbCircle
  10
 4494.4382022472
  20
 4875.7303370787
  30
0.0
  40
 12.500000000000
 100
AcDbArc
  50
 90.000000000000
  51
 180.00000000000
   0
LINE
   5
1FB
 100
AcDbEntity
   8
LEVEL001
 370
13
 100
AcDbLine
   6
CONTINUOUS
  62
7
  10
 4506.9382022472
  20
 4875.7303370787
  30
0.0
  11
 4506.9382022472
  21
 4832.5909131483
  31
0.0
   0
ARC
   5
1FC
 100
AcDbEntity
   8
LEVEL001
 370
13
   6
CONTINUOUS
  62
7
 100
AcDbCircle
  10
 4494.4382022472
  20
 4875.7303370787
  30
0.0
  40
 12.500000000000
 100
AcDbArc
  50
0.0
  51
 90.000000000000
   0
LINE
   5
1FD
 100
AcDbEntity
   8
LEVEL001
 370
13
 100
AcDbLine
   6
CONTINUOUS
  62
7
  10
 4616.2987783168
  20
 4723.2303370787
  30
0.0
  11
 4734.4382022472
  21
 4723.2303370787
  31
0.0
   0
LINE
   5
1FE
 100
AcDbEntity
   8
LEVEL001
 370
13
 100
AcDbLine
   6
CONTINUOUS
  62
7
  10
 4734.4382022472
  20
 4698.2303370787
  30
0.0
  11
 4616.2987783168
  21
 4698.2303370787
  31
0.0
   0
ARC
   5
1FF
 100
AcDbEntity
   8
LEVEL001
 370
13
   6
CONTINUOUS
  62
7
 100
AcDbCircle
  10
 4631.3118273646
  20
 4815.7153871921
  30
0.0
  40
 7.4999999999998
 100
AcDbArc
  50
 127.48899142731
  51
 217.48899142732
   0
ARC
   5
200
 100
AcDbEntity
   8
LEVEL001
 370
13
   6
CONTINUOUS
  62
7
 100
AcDbCircle
  10
 4631.3118273648
  20
 4815.7153871921
  30
0.0
  40
 7.4999999999998
 100
AcDbArc
  50
 217.48899142729
  51
 307.48899142727
   0
LINE
   5
201
 100
AcDbEntity
   8
LEVEL001
 370
13
 100
AcDbLine
   6
CONTINUOUS
  62
7
  10
 4353.0000097334
  20
 4809.7643600129
  30
0.0
  11
 4265.7182777746
  21
 4876.7113484909
  31
0.0
   0
ARC
   5
202
 100
AcDbEntity
   8
LEVEL001
 370
13
   6
CONTINUOUS
  62
7
 100
AcDbCircle
  10
 4270.2828451708
  20
 4882.6623756699
  30
0.0
  40
 7.4999999999998
 100
AcDbArc
  50
 142.51100857270
  51
 232.51100857269
   0
LINE
   5
203
 100
AcDbEntity
   8
LEVEL001
 370
13
 100
AcDbLine
   6
CONTINUOUS
  62
7
  10
 4274.8474125672
  20
 4888.6134028489
  30
0.0
  11
 4362.1291445260
  21
 4821.6664143711
  31
0.0
   0
ARC
   5
204
 100
AcDbEntity
   8
LEVEL001
 370
13
   6
CONTINUOUS
  62
7
 100
AcDbCircle
  10
 4270.2828451710
  20
 4882.6623756699
  30
0.0
  40
 7.4999999999998
 100
AcDbArc
  50
 52.511008572698
  51
 142.51100857269
   0
ARC
   5
205
 100
AcDbEntity
   8
LEVEL001
 370
13
   6
CONTINUOUS
  62
7
 100
AcDbCircle
  10
 4357.5645771296
  20
 4815.7153871921
  30
0.0
  40
 7.4999999999998
 100
AcDbArc
  50
 322.51100857268
  51
 52.511008572688
   0
ARC
   5
206
 100
AcDbEntity
   8
LEVEL001
 370
13
   6
CONTINUOUS
  62
7
 100
AcDbCircle
  10
 4357.5645771296
  20
 4815.7153871921
  30
0.0
  40
 7.4999999999998
 100
AcDbArc
  50
 232.51100857271
  51
 322.51100857271
   0
ARC
   5
207
 100
AcDbEntity
   8
LEVEL001
 370
13
   6
CONTINUOUS
  62
7
 100
AcDbCircle
  10
 4734.4382022472
  20
 4710.7303370787
  30
0.0
  40
 12.500000000000
 100
AcDbArc
  50
0.0
  51
 90.000000000000
   0
ARC
   5
208
 100
AcDbEntity
   8
LEVEL001
 370
13
   6
CONTINUOUS
  62
7
 100
AcDbCircle
  10
 4734.4382022472
  20
 4710.7303370787
  30
0.0
  40
 12.500000000000
 100
AcDbArc
  50
 270.00000000000
  51
0.0
   0
LINE
   5
209
 100
AcDbEntity
   8
LEVEL001
 370
13
 100
AcDbLine
   6
CONTINUOUS
  62
7
  10
 4635.8763947610
  20
 4809.7643600129
  30
0.0
  11
 4723.1581267198
  21
 4876.7113484909
  31
0.0
   0
ARC
   5
20A
 100
AcDbEntity
   8
LEVEL001
 370
13
   6
CONTINUOUS
  62
7
 100
AcDbCircle
  10
 4718.5935593236
  20
 4882.6623756699
  30
0.0
  40
 7.4999999999998
 100
AcDbArc
  50
 307.48899142729
  51
 37.488991427306
   0
LINE
   5
20B
 100
AcDbEntity
   8
LEVEL001
 370
13
 100
AcDbLine
   6
CONTINUOUS
  62
7
  10
 4714.0289919272
  20
 4888.6134028489
  30
0.0
  11
 4626.7472599684
  21
 4821.6664143711
  31
0.0
   0
ARC
   5
20C
 100
AcDbEntity
   8
LEVEL001
 370
13
   6
CONTINUOUS
  62
7
 100
AcDbCircle
  10
 4718.5935593234
  20
 4882.6623756699
  30
0.0
  40
 7.4999999999998
 100
AcDbArc
  50
 37.488991427287
  51
 127.48899142731
   0
ARC
   5
20D
 100
AcDbEntity
   8
LEVEL001
 370
13
   6
CONTINUOUS
  62
7
 100
AcDbCircle
  10
 4456.9382022472
  20
 4588.8697610091
  30
0.0
  40
 25.000000000000
 100
AcDbArc
  50
 0.41688166320879E-11
  51
 72.895364823357
   0
ARC
   5
20E
 100
AcDbEntity
   8
LEVEL001
 370
13
   6
CONTINUOUS
  62
7
 100
AcDbCircle
  10
 4531.9382022472
  20
 4588.8697610091
  30
0.0
  40
 25.000000000000
 100
AcDbArc
  50
 107.10463517664
  51
 179.99999999999
   0
LINE
   5
20F
 100
AcDbEntity
   8
LEVEL001
 370
13
 100
AcDbLine
   6
CONTINUOUS
  62
7
  10
 4506.9382022472
  20
 4545.7303370787
  30
0.0
  11
 4506.9382022472
  21
 4588.8697610091
  31
0.0
   0
ARC
   5
210
 100
AcDbEntity
   8
LEVEL001
 370
13
   6
CONTINUOUS
  62
7
 100
AcDbCircle
  10
 4494.4382022472
  20
 4545.7303370787
  30
0.0
  40
 12.500000000000
 100
AcDbArc
  50
 270.00000000000
  51
0.0
   0
LINE
   5
211
 100
AcDbEntity
   8
LEVEL001
 370
13
 100
AcDbLine
   6
CONTINUOUS
  62
7
  10
 4481.9382022472
  20
 4588.8697610091
  30
0.0
  11
 4481.9382022472
  21
 4545.7303370787
  31
0.0
   0
ARC
   5
212
 100
AcDbEntity
   8
LEVEL001
 370
13
   6
CONTINUOUS
  62
7
 100
AcDbCircle
  10
 4494.4382022472
  20
 4545.7303370787
  30
0.0
  40
 12.500000000000
 100
AcDbArc
  50
 180.00000000000
  51
 270.00000000000
   0
LINE
   5
213
 100
AcDbEntity
   8
LEVEL001
 370
13
 100
AcDbLine
   6
CONTINUOUS
  62
7
  10
 4353.0000097334
  20
 4611.6963141443
  30
0.0
  11
 4265.7182777746
  21
 4544.7493256665
  31
0.0
   0
LINE
   5
214
 100
AcDbEntity
   8
LEVEL001
 370
13
 100
AcDbLine
   6
CONTINUOUS
  62
7
  10
 4274.8474125672
  20
 4532.8472713085
  30
0.0
  11
 4362.1291445260
  21
 4599.7942597863
  31
0.0
   0
ARC
   5
215
 100
AcDbEntity
   8
LEVEL001
 370
13
   6
CONTINUOUS
  62
7
 100
AcDbCircle
  10
 4357.5645771296
  20
 4605.7452869653
  30
0.0
  40
 7.4999999999998
 100
AcDbArc
  50
 307.48899142732
  51
 37.488991427292
   0
ARC
   5
216
 100
AcDbEntity
   8
LEVEL001
 370
13
   6
CONTINUOUS
  62
7
 100
AcDbCircle
  10
 4357.5645771296
  20
 4605.7452869653
  30
0.0
  40
 7.4999999999998
 100
AcDbArc
  50
 37.488991427312
  51
 127.48899142730
   0
LINE
   5
217
 100
AcDbEntity
   8
LEVEL001
 370
13
 100
AcDbLine
   6
CONTINUOUS
  62
7
  10
 4635.8763947610
  20
 4611.6963141443
  30
0.0
  11
 4723.1581267198
  21
 4544.7493256665
  31
0.0
   0
ARC
   5
218
 100
AcDbEntity
   8
LEVEL001
 370
13
   6
CONTINUOUS
  62
7
 100
AcDbCircle
  10
 4718.5935593236
  20
 4538.7982984875
  30
0.0
  40
 7.4999999999998
 100
AcDbArc
  50
 322.51100857270
  51
 52.511008572703
   0
LINE
   5
219
 100
AcDbEntity
   8
LEVEL001
 370
13
 100
AcDbLine
   6
CONTINUOUS
  62
7
  10
 4714.0289919272
  20
 4532.8472713085
  30
0.0
  11
 4626.7472599684
  21
 4599.7942597863
  31
0.0
   0
ARC
   5
21A
 100
AcDbEntity
   8
LEVEL001
 370
13
   6
CONTINUOUS
  62
7
 100
AcDbCircle
  10
 4718.5935593234
  20
 4538.7982984875
  30
0.0
  40
 7.4999999999998
 100
AcDbArc
  50
 232.51100857269
  51
 322.51100857270
   0
ARC
   5
21B
 100
AcDbEntity
   8
LEVEL001
 370
13
   6
CONTINUOUS
  62
7
 100
AcDbCircle
  10
 4631.3118273646
  20
 4605.7452869653
  30
0.0
  40
 7.4999999999998
 100
AcDbArc
  50
 142.51100857271
  51
 232.51100857268
   0
ARC
   5
21C
 100
AcDbEntity
   8
LEVEL001
 370
13
   6
CONTINUOUS
  62
7
 100
AcDbCircle
  10
 4631.3118273648
  20
 4605.7452869653
  30
0.0
  40
 7.4999999999998
 100
AcDbArc
  50
 52.511008572698
  51
 142.51100857269
   0
ARC
   5
21D
 100
AcDbEntity
   8
LEVEL001
 370
13
   6
CONTINUOUS
  62
7
 100
AcDbCircle
  10
 4270.2828451708
  20
 4538.7982984875
  30
0.0
  40
 7.4999999999998
 100
AcDbArc
  50
 127.48899142731
  51
 217.48899142730
   0
ARC
   5
21E
 100
AcDbEntity
   8
LEVEL001
 370
13
   6
CONTINUOUS
  62
7
 100
AcDbCircle
  10
 4270.2828451710
  20
 4538.7982984875
  30
0.0
  40
 7.4999999999998
 100
AcDbArc
  50
 217.48899142731
  51
 307.48899142729
   0
CIRCLE
   5
21F
 100
AcDbEntity
   8
LEVEL001
 370
13
 100
AcDbCircle
   6
CONTINUOUS
  62
1
  10
 4094.4382022472
  20
 4360.7303370787
  30
0.0
  40
 69.999997913838
   0
MTEXT
   5
220
 100
AcDbEntity
   8
LEVEL001
 370
13
  62
1
 100
AcDbMText
  10
 4094.4382022472
  20
 4360.7303370787
  30
0.0
  40
 57.142857142858
  41
0.0
  71
5
  72
1
   1
\T1.000000;2
   7
GMM001
  44
 0.79999984000003
   0
CIRCLE
   5
221
 100
AcDbEntity
   8
LEVEL001
 370
13
 100
AcDbCircle
   6
CONTINUOUS
  62
1
  10
 2294.4382022472
  20
 4344.8303370787
  30
0.0
  40
 69.999997913838
   0
MTEXT
   5
222
 100
AcDbEntity
   8
LEVEL001
 370
13
  62
1
 100
AcDbMText
  10
 2294.4382022472
  20
 4344.8303370787
  30
0.0
  40
 57.142857142858
  41
0.0
  71
5
  72
1
   1
\T1.000000;1
   7
GMM001
  44
 0.79999984000003
   0
CIRCLE
   5
223
 100
AcDbEntity
   8
LEVEL001
 370
13
 100
AcDbCircle
   6
CONTINUOUS
  62
1
  10
 2094.4382022472
  20
 4344.8303370787
  30
0.0
  40
 69.999997913838
   0
MTEXT
   5
224
 100
AcDbEntity
   8
LEVEL001
 370
13
  62
1
 100
AcDbMText
  10
 2094.4382022472
  20
 4344.8303370787
  30
0.0
  40
 57.142857142858
  41
0.0
  71
5
  72
1
   1
\T1.000000;4
   7
GMM001
  44
 0.79999984000003
   0
MTEXT
   5
226
 100
AcDbEntity
   8
LEVEL001
 370
13
  62
1
 100
AcDbMText
  10
 1115.0868074567
  20
 1971.0602741190
  30
0.0
  40
 40.000000000000
  41
0.0
  71
7
  72
1
   1
\T1.000000;ＧＬ
   7
GMM002
  44
 0.79999984000003
   0
LINE
   5
227
 100
AcDbEntity
   8
LEVEL001
 370
13
 100
AcDbLine
   6
CONTINUOUS
  62
1
  10
 1086.9381370119
  20
 1962.3303370787
  30
0.0
  11
 1061.9381370119
  21
 2012.3303370787
  31
0.0
   0
LINE
   5
228
 100
AcDbEntity
   8
LEVEL001
 370
13
 100
AcDbLine
   6
CONTINUOUS
  62
1
  10
 1061.9381370119
  20
 2012.3303370787
  30
0.0
  11
 1111.9381370119
  21
 2012.3303370787
  31
0.0
   0
LINE
   5
229
 100
AcDbEntity
   8
LEVEL001
 370
13
 100
AcDbLine
   6
CONTINUOUS
  62
1
  10
 1111.9381370119
  20
 2012.3303370787
  30
0.0
  11
 1086.9381370119
  21
 1962.3303370787
  31
0.0
   0
LINE
   5
22A
 100
AcDbEntity
   8
LEVEL001
 370
13
 100
AcDbLine
   6
DASHDOT
  62
6
  10
 1534.4381944733
  20
 4773.2302955505
  30
0.0
  11
 1564.4381944733
  21
 4773.2302955505
  31
0.0
   0
LINE
   5
22B
 100
AcDbEntity
   8
LEVEL001
 370
13
 100
AcDbLine
   6
DASHDOT
  62
6
  10
 1549.4381944733
  20
 4788.2302955505
  30
0.0
  11
 1549.4381944733
  21
 4758.2302955505
  31
0.0
   0
LINE
   5
22C
 100
AcDbEntity
   8
LEVEL001
 370
13
 100
AcDbLine
   6
DASHDOT
  62
6
  10
 1534.4381944733
  20
 4713.2302955505
  30
0.0
  11
 1564.4381944733
  21
 4713.2302955505
  31
0.0
   0
LINE
   5
22D
 100
AcDbEntity
   8
LEVEL001
 370
13
 100
AcDbLine
   6
DASHDOT
  62
6
  10
 1549.4381944733
  20
 4728.2302955505
  30
0.0
  11
 1549.4381944733
  21
 4698.2302955505
  31
0.0
   0
LINE
   5
22E
 100
AcDbEntity
   8
LEVEL001
 370
13
 100
AcDbLine
   6
CONTINUOUS
  62
3
  10
 1542.4381944733
  20
 4766.2302955505
  30
0.0
  11
 1556.4381944733
  21
 4766.2302955505
  31
0.0
   0
LINE
   5
22F
 100
AcDbEntity
   8
LEVEL001
 370
13
 100
AcDbLine
   6
CONTINUOUS
  62
3
  10
 1556.4381944733
  20
 4766.2302955505
  30
0.0
  11
 1556.4381944733
  21
 4780.2302955505
  31
0.0
   0
LINE
   5
230
 100
AcDbEntity
   8
LEVEL001
 370
13
 100
AcDbLine
   6
CONTINUOUS
  62
3
  10
 1556.4381944733
  20
 4780.2302955505
  30
0.0
  11
 1542.4381944733
  21
 4780.2302955505
  31
0.0
   0
LINE
   5
231
 100
AcDbEntity
   8
LEVEL001
 370
13
 100
AcDbLine
   6
CONTINUOUS
  62
3
  10
 1542.4381944733
  20
 4780.2302955505
  30
0.0
  11
 1542.4381944733
  21
 4766.2302955505
  31
0.0
   0
LINE
   5
232
 100
AcDbEntity
   8
LEVEL001
 370
13
 100
AcDbLine
   6
CONTINUOUS
  62
3
  10
 1542.4381944733
  20
 4706.2302955505
  30
0.0
  11
 1556.4381944733
  21
 4706.2302955505
  31
0.0
   0
LINE
   5
233
 100
AcDbEntity
   8
LEVEL001
 370
13
 100
AcDbLine
   6
CONTINUOUS
  62
3
  10
 1556.4381944733
  20
 4706.2302955505
  30
0.0
  11
 1556.4381944733
  21
 4720.2302955505
  31
0.0
   0
LINE
   5
234
 100
AcDbEntity
   8
LEVEL001
 370
13
 100
AcDbLine
   6
CONTINUOUS
  62
3
  10
 1556.4381944733
  20
 4720.2302955505
  30
0.0
  11
 1542.4381944733
  21
 4720.2302955505
  31
0.0
   0
LINE
   5
235
 100
AcDbEntity
   8
LEVEL001
 370
13
 100
AcDbLine
   6
CONTINUOUS
  62
3
  10
 1542.4381944733
  20
 4720.2302955505
  30
0.0
  11
 1542.4381944733
  21
 4706.2302955505
  31
0.0
   0
CIRCLE
   5
236
 100
AcDbEntity
   8
LEVEL001
 370
13
 100
AcDbCircle
   6
CONTINUOUS
  62
1
  10
 2294.4382022472
  20
 5160.7303370787
  30
0.0
  40
 69.999997913838
   0
MTEXT
   5
237
 100
AcDbEntity
   8
LEVEL001
 370
13
  62
1
 100
AcDbMText
  10
 2294.4382022472
  20
 5160.7303370787
  30
0.0
  40
 57.142857142858
  41
0.0
  71
5
  72
1
   1
\T1.000000;3
   7
GMM001
  44
 0.79999984000003
   0
LINE
   5
238
 100
AcDbEntity
   8
LEVEL001
 370
13
 100
AcDbLine
   6
DASHDOT
  62
6
  10
 1424.4382100211
  20
 4663.2302955505
  30
0.0
  11
 1454.4382100211
  21
 4663.2302955505
  31
0.0
   0
LINE
   5
239
 100
AcDbEntity
   8
LEVEL001
 370
13
 100
AcDbLine
   6
DASHDOT
  62
6
  10
 1439.4382100211
  20
 4678.2302955505
  30
0.0
  11
 1439.4382100211
  21
 4648.2302955505
  31
0.0
   0
LINE
   5
23A
 100
AcDbEntity
   8
LEVEL001
 370
13
 100
AcDbLine
   6
DASHDOT
  62
6
  10
 1424.4382100211
  20
 4603.2302955505
  30
0.0
  11
 1454.4382100211
  21
 4603.2302955505
  31
0.0
   0
LINE
   5
23B
 100
AcDbEntity
   8
LEVEL001
 370
13
 100
AcDbLine
   6
DASHDOT
  62
6
  10
 1439.4382100211
  20
 4618.2302955505
  30
0.0
  11
 1439.4382100211
  21
 4588.2302955505
  31
0.0
   0
LINE
   5
23C
 100
AcDbEntity
   8
LEVEL001
 370
13
 100
AcDbLine
   6
CONTINUOUS
  62
3
  10
 1446.4382100211
  20
 4656.2302955505
  30
0.0
  11
 1432.4382100211
  21
 4656.2302955505
  31
0.0
   0
LINE
   5
23D
 100
AcDbEntity
   8
LEVEL001
 370
13
 100
AcDbLine
   6
CONTINUOUS
  62
3
  10
 1432.4382100211
  20
 4656.2302955505
  30
0.0
  11
 1432.4382100211
  21
 4670.2302955505
  31
0.0
   0
LINE
   5
23E
 100
AcDbEntity
   8
LEVEL001
 370
13
 100
AcDbLine
   6
CONTINUOUS
  62
3
  10
 1432.4382100211
  20
 4670.2302955505
  30
0.0
  11
 1446.4382100211
  21
 4670.2302955505
  31
0.0
   0
LINE
   5
23F
 100
AcDbEntity
   8
LEVEL001
 370
13
 100
AcDbLine
   6
CONTINUOUS
  62
3
  10
 1446.4382100211
  20
 4670.2302955505
  30
0.0
  11
 1446.4382100211
  21
 4656.2302955505
  31
0.0
   0
LINE
   5
240
 100
AcDbEntity
   8
LEVEL001
 370
13
 100
AcDbLine
   6
CONTINUOUS
  62
3
  10
 1446.4382100211
  20
 4596.2302955505
  30
0.0
  11
 1432.4382100211
  21
 4596.2302955505
  31
0.0
   0
LINE
   5
241
 100
AcDbEntity
   8
LEVEL001
 370
13
 100
AcDbLine
   6
CONTINUOUS
  62
3
  10
 1432.4382100211
  20
 4596.2302955505
  30
0.0
  11
 1432.4382100211
  21
 4610.2302955505
  31
0.0
   0
LINE
   5
242
 100
AcDbEntity
   8
LEVEL001
 370
13
 100
AcDbLine
   6
CONTINUOUS
  62
3
  10
 1432.4382100211
  20
 4610.2302955505
  30
0.0
  11
 1446.4382100211
  21
 4610.2302955505
  31
0.0
   0
LINE
   5
243
 100
AcDbEntity
   8
LEVEL001
 370
13
 100
AcDbLine
   6
CONTINUOUS
  62
3
  10
 1446.4382100211
  20
 4610.2302955505
  30
0.0
  11
 1446.4382100211
  21
 4596.2302955505
  31
0.0
   0
LINE
   5
244
 100
AcDbEntity
   8
LEVEL001
 370
13
 100
AcDbLine
   6
CONTINUOUS
  62
6
  10
 1529.7931035688
  20
 4793.2302955505
  30
0.0
  11
 1529.7931035688
  21
 4693.2302955505
  31
0.0
   0
LINE
   5
245
 100
AcDbEntity
   8
LEVEL001
 370
13
 100
AcDbLine
   6
CONTINUOUS
  62
6
  10
 1459.0833009256
  20
 4683.2302955505
  30
0.0
  11
 1459.0833009256
  21
 4583.2302955505
  31
0.0
   0
LINE
   5
246
 100
AcDbEntity
   8
LEVEL001
 370
13
 100
AcDbLine
   6
CONTINUOUS
  62
7
  10
 1419.4382100211
  20
 4688.2302955505
  30
0.0
  11
 1535.7882022472
  21
 4688.2302955505
  31
0.0
   0
LINE
   5
247
 100
AcDbEntity
   8
LEVEL001
 370
13
 100
AcDbLine
   6
CONTINUOUS
  62
7
  10
 1535.7882022472
  20
 4688.2302955505
  30
0.0
  11
 1535.7882022472
  21
 4653.2302955505
  31
0.0
   0
LINE
   5
248
 100
AcDbEntity
   8
LEVEL001
 370
13
 100
AcDbLine
   6
CONTINUOUS
  62
7
  10
 1535.7882022472
  20
 4593.2302955505
  30
0.0
  11
 1535.7882022472
  21
 4578.2302955505
  31
0.0
   0
LINE
   5
249
 100
AcDbEntity
   8
LEVEL001
 370
13
 100
AcDbLine
   6
CONTINUOUS
  62
7
  10
 1535.7882022472
  20
 4578.2302955505
  30
0.0
  11
 1419.4382100211
  21
 4578.2302955505
  31
0.0
   0
LINE
   5
24A
 100
AcDbEntity
   8
LEVEL001
 370
13
 100
AcDbLine
   6
CONTINUOUS
  62
7
  10
 1419.4382100211
  20
 4578.2302955505
  30
0.0
  11
 1419.4382100211
  21
 4688.2302955505
  31
0.0
   0
LINE
   5
24B
 100
AcDbEntity
   8
LEVEL001
 370
13
 100
AcDbLine
   6
CONTINUOUS
  62
7
  10
 1453.0882022472
  20
 4706.9553006009
  30
0.0
  11
 1453.0882022472
  21
 4688.2302955505
  31
0.0
   0
LINE
   5
24C
 100
AcDbEntity
   8
LEVEL001
 370
13
 100
AcDbLine
   6
CONTINUOUS
  62
7
  10
 1453.0882022472
  20
 4688.2302955505
  30
0.0
  11
 1569.4381944733
  21
 4688.2302955505
  31
0.0
   0
LINE
   5
24D
 100
AcDbEntity
   8
LEVEL001
 370
13
 100
AcDbLine
   6
CONTINUOUS
  62
7
  10
 1569.4381944733
  20
 4688.2302955505
  30
0.0
  11
 1569.4381944733
  21
 4798.2302955505
  31
0.0
   0
LINE
   5
24E
 100
AcDbEntity
   8
LEVEL001
 370
13
 100
AcDbLine
   6
CONTINUOUS
  62
7
  10
 1569.4381944733
  20
 4798.2302955505
  30
0.0
  11
 1453.0882022472
  21
 4798.2302955505
  31
0.0
   0
LINE
   5
24F
 100
AcDbEntity
   8
LEVEL001
 370
13
 100
AcDbLine
   6
CONTINUOUS
  62
7
  10
 1453.0882022472
  20
 4798.2302955505
  30
0.0
  11
 1453.0882022472
  21
 4777.7060048025
  31
0.0
   0
LINE
   5
250
 100
AcDbEntity
   8
LEVEL001
 370
13
 100
AcDbLine
   6
CONTINUOUS
  62
7
  10
 1532.5882022472
  20
 5066.3303370787
  30
0.0
  11
 1456.2882022472
  21
 5066.3303370787
  31
0.0
   0
LINE
   5
251
 100
AcDbEntity
   8
LEVEL001
 370
13
 100
AcDbLine
   6
CONTINUOUS
  62
7
  10
 1456.2882022472
  20
 5066.3303370787
  30
0.0
  11
 1456.2882022472
  21
 5063.3303370787
  31
0.0
   0
LINE
   5
252
 100
AcDbEntity
   8
LEVEL001
 370
13
 100
AcDbLine
   6
CONTINUOUS
  62
7
  10
 1456.2882022472
  20
 5063.3303370787
  30
0.0
  11
 1532.5882022472
  21
 5063.3303370787
  31
0.0
   0
LINE
   5
253
 100
AcDbEntity
   8
LEVEL001
 370
13
 100
AcDbLine
   6
CONTINUOUS
  62
7
  10
 1532.5882022472
  20
 5063.3303370787
  30
0.0
  11
 1532.5882022472
  21
 5066.3303370787
  31
0.0
   0
LINE
   5
254
 100
AcDbEntity
   8
LEVEL001
 370
13
 100
AcDbLine
   6
DOT
  62
1
  10
 1527.5882022472
  20
 5063.3303370787
  30
0.0
  11
 1527.5882022472
  21
 5036.3303370787
  31
0.0
   0
LINE
   5
255
 100
AcDbEntity
   8
LEVEL001
 370
13
 100
AcDbLine
   6
DOT
  62
1
  10
 1527.5882022472
  20
 5036.3303370787
  30
0.0
  11
 1461.2882022472
  21
 5036.3303370787
  31
0.0
   0
LINE
   5
256
 100
AcDbEntity
   8
LEVEL001
 370
13
 100
AcDbLine
   6
DOT
  62
1
  10
 1461.2882022472
  20
 5036.3303370787
  30
0.0
  11
 1461.2882022472
  21
 5063.3303370787
  31
0.0
   0
LINE
   5
257
 100
AcDbEntity
   8
LEVEL001
 370
13
 100
AcDbLine
   6
DASHDOT
  62
6
  10
 1494.4382022472
  20
 5112.3303370787
  30
0.0
  11
 1494.4382022472
  21
 962.33033707865
  31
0.0
   0
LINE
   5
258
 100
AcDbEntity
   8
LEVEL001
 370
13
 100
AcDbLine
   6
DASHDOT
  62
6
  10
 1434.4381841616
  20
 1462.3303370787
  30
0.0
  11
 1554.4381841616
  21
 1462.3303370787
  31
0.0
   0
CIRCLE
   5
259
 100
AcDbEntity
   8
LEVEL001
 370
13
 100
AcDbCircle
   6
CONTINUOUS
  62
7
  10
 1494.4381684451
  20
 1362.3303370787
  30
0.0
  40
 7.5000000000000
   0
LINE
   5
25A
 100
AcDbEntity
   8
LEVEL001
 370
13
 100
AcDbLine
   6
DASHDOT
  62
6
  10
 1464.4381684451
  20
 1362.3303370787
  30
0.0
  11
 1524.4381684451
  21
 1362.3303370787
  31
0.0
   0
LINE
   5
25B
 100
AcDbEntity
   8
LEVEL001
 370
13
 100
AcDbLine
   6
CONTINUOUS
  62
7
  10
 1532.5882022472
  20
 4798.2302955505
  30
0.0
  11
 1532.5882022472
  21
 5062.3303370787
  31
0.0
   0
LINE
   5
25C
 100
AcDbEntity
   8
LEVEL001
 370
13
 100
AcDbLine
   6
CONTINUOUS
  62
7
  10
 1532.5882022472
  20
 5062.3303370787
  30
0.0
  11
 1456.2882022472
  21
 5062.3303370787
  31
0.0
   0
LINE
   5
25D
 100
AcDbEntity
   8
LEVEL001
 370
13
 100
AcDbLine
   6
CONTINUOUS
  62
7
  10
 1456.2882022472
  20
 5062.3303370787
  30
0.0
  11
 1456.2882022472
  21
 4798.2302955505
  31
0.0
   0
CIRCLE
   5
25E
 100
AcDbEntity
   8
LEVEL001
 370
13
 100
AcDbCircle
   6
CONTINUOUS
  62
1
  10
 1744.4382022472
  20
 2762.3303370787
  30
0.0
  40
 70.000000000000
   0
MTEXT
   5
25F
 100
AcDbEntity
   8
LEVEL001
 370
13
  62
1
 100
AcDbMText
  10
 1744.4382022472
  20
 2762.3303370787
  30
0.0
  40
 57.142857142858
  41
0.0
  71
5
  72
1
   1
\T1.000000;11
   7
GMM001
  44
 0.79999984000003
   0
MTEXT
   5
260
 100
AcDbEntity
   8
LEVEL001
 370
13
  62
1
 100
AcDbMText
  10
 4494.4382022472
  20
 5510.7303370787
  30
0.0
  40
 57.142857142858
  41
0.0
  71
5
  72
1
   1
\T1.000000;背　面　図
   7
GMM001
  44
 0.79999984000003
   0
MTEXT
   5
261
 100
AcDbEntity
   8
LEVEL001
 370
13
  62
1
 100
AcDbMText
  10
 1494.4382022472
  20
 5510.7303370787
  30
0.0
  40
 57.142857142858
  41
0.0
  71
5
  72
1
   1
\T1.000000;正　面　図
   7
GMM001
  44
 0.79999984000003
   0
LINE
   5
262
 100
AcDbEntity
   8
LEVEL001
 370
13
 100
AcDbLine
   6
CONTINUOUS
  62
7
  10
 2126.9382022472
  20
 4938.2303370787
  30
0.0
  11
 1661.9382022472
  21
 4938.2303370787
  31
0.0
   0
LINE
   5
263
 100
AcDbEntity
   8
LEVEL001
 370
13
 100
AcDbLine
   6
CONTINUOUS
  62
3
  10
 2126.9382022472
  20
 4943.2303370787
  30
0.0
  11
 1661.9382022472
  21
 4943.2303370787
  31
0.0
   0
LINE
   5
264
 100
AcDbEntity
   8
LEVEL001
 370
13
 100
AcDbLine
   6
CONTINUOUS
  62
3
  10
 2126.9382022472
  20
 4959.1303370787
  30
0.0
  11
 1661.9382022472
  21
 4959.1303370787
  31
0.0
   0
LINE
   5
265
 100
AcDbEntity
   8
LEVEL001
 370
13
 100
AcDbLine
   6
CONTINUOUS
  62
1
  10
 2126.9382022472
  20
 4939.1303370787
  30
0.0
  11
 1661.9382022472
  21
 4939.1303370787
  31
0.0
   0
ARC
   5
266
 100
AcDbEntity
   8
LEVEL001
 370
13
   6
CONTINUOUS
  62
1
 100
AcDbCircle
  10
 1661.9382022472
  20
 4868.2303370787
  30
0.0
  40
 70.900000000000
 100
AcDbArc
  50
 90.000000000001
  51
 180.00000000000
   0
ARC
   5
267
 100
AcDbEntity
   8
LEVEL001
 370
13
   6
CONTINUOUS
  62
1
 100
AcDbCircle
  10
 2126.9382022472
  20
 4868.2303370787
  30
0.0
  40
 70.900000000000
 100
AcDbArc
  50
0.0
  51
 90.000000000000
   0
LINE
   5
268
 100
AcDbEntity
   8
LEVEL001
 370
13
 100
AcDbLine
   6
CONTINUOUS
  62
1
  10
 2197.8382022472
  20
 4769.1303370787
  30
0.0
  11
 2197.8382022472
  21
 4868.2303370787
  31
0.0
   0
LINE
   5
269
 100
AcDbEntity
   8
LEVEL001
 370
13
 100
AcDbLine
   6
CONTINUOUS
  62
1
  10
 1591.0382022472
  20
 4868.2303370787
  30
0.0
  11
 1591.0382022472
  21
 4769.1303370787
  31
0.0
   0
LINE
   5
26A
 100
AcDbEntity
   8
LEVEL001
 370
13
 100
AcDbLine
   6
CONTINUOUS
  62
1
  10
 1591.9382022472
  20
 4769.1303370787
  30
0.0
  11
 1591.0382022472
  21
 4769.1303370787
  31
0.0
   0
LINE
   5
26B
 100
AcDbEntity
   8
LEVEL001
 370
13
 100
AcDbLine
   6
CONTINUOUS
  62
1
  10
 2196.9382022472
  20
 4769.1303370787
  30
0.0
  11
 2197.8382022472
  21
 4769.1303370787
  31
0.0
   0
ARC
   5
26C
 100
AcDbEntity
   8
LEVEL001
 370
13
   6
CONTINUOUS
  62
7
 100
AcDbCircle
  10
 1661.9382022472
  20
 4868.2303370787
  30
0.0
  40
 70.000000000000
 100
AcDbArc
  50
 90.000000000000
  51
 180.00000000000
   0
ARC
   5
26D
 100
AcDbEntity
   8
LEVEL001
 370
13
   6
CONTINUOUS
  62
3
 100
AcDbCircle
  10
 1661.9382022472
  20
 4868.2303370787
  30
0.0
  40
 75.000000000000
 100
AcDbArc
  50
 90.000000000000
  51
 180.00000000000
   0
ARC
   5
26E
 100
AcDbEntity
   8
LEVEL001
 370
13
   6
CONTINUOUS
  62
3
 100
AcDbCircle
  10
 1661.9382022472
  20
 4868.2303370787
  30
0.0
  40
 90.900000000000
 100
AcDbArc
  50
 90.000000000001
  51
 180.00000000000
   0
LINE
   5
26F
 100
AcDbEntity
   8
LEVEL001
 370
13
 100
AcDbLine
   6
CONTINUOUS
  62
7
  10
 1661.9382022472
  20
 4483.2303370787
  30
0.0
  11
 2126.9382022472
  21
 4483.2303370787
  31
0.0
   0
LINE
   5
270
 100
AcDbEntity
   8
LEVEL001
 370
13
 100
AcDbLine
   6
CONTINUOUS
  62
3
  10
 1661.9382022472
  20
 4478.2303370787
  30
0.0
  11
 2126.9382022472
  21
 4478.2303370787
  31
0.0
   0
LINE
   5
271
 100
AcDbEntity
   8
LEVEL001
 370
13
 100
AcDbLine
   6
CONTINUOUS
  62
3
  10
 1661.9382022472
  20
 4462.3303370787
  30
0.0
  11
 2126.9382022472
  21
 4462.3303370787
  31
0.0
   0
ARC
   5
272
 100
AcDbEntity
   8
LEVEL001
 370
13
   6
CONTINUOUS
  62
7
 100
AcDbCircle
  10
 1661.9382022472
  20
 4553.2303370787
  30
0.0
  40
 70.000000000000
 100
AcDbArc
  50
 180.00000000000
  51
 270.00000000000
   0
ARC
   5
273
 100
AcDbEntity
   8
LEVEL001
 370
13
   6
CONTINUOUS
  62
3
 100
AcDbCircle
  10
 1661.9382022472
  20
 4553.2303370787
  30
0.0
  40
 75.000000000000
 100
AcDbArc
  50
 180.00000000000
  51
 270.00000000000
   0
ARC
   5
274
 100
AcDbEntity
   8
LEVEL001
 370
13
   6
CONTINUOUS
  62
3
 100
AcDbCircle
  10
 1661.9382022472
  20
 4553.2303370787
  30
0.0
  40
 90.900000000000
 100
AcDbArc
  50
 180.00000000000
  51
 270.00000000000
   0
LINE
   5
275
 100
AcDbEntity
   8
LEVEL001
 370
13
 100
AcDbLine
   6
DASHDOT
  62
6
  10
 1894.4382022472
  20
 4410.7303370787
  30
0.0
  11
 1894.4382022472
  21
 5010.7303370787
  31
0.0
   0
LINE
   5
276
 100
AcDbEntity
   8
LEVEL001
 370
13
 100
AcDbLine
   6
CONTINUOUS
  62
7
  10
 1591.9382022472
  20
 4868.2303370787
  30
0.0
  11
 1591.9382022472
  21
 4553.2303370787
  31
0.0
   0
LINE
   5
277
 100
AcDbEntity
   8
LEVEL001
 370
13
 100
AcDbLine
   6
CONTINUOUS
  62
3
  10
 1586.9382022472
  20
 4868.2303370787
  30
0.0
  11
 1586.9382022472
  21
 4553.2303370787
  31
0.0
   0
LINE
   5
278
 100
AcDbEntity
   8
LEVEL001
 370
13
 100
AcDbLine
   6
CONTINUOUS
  62
3
  10
 1571.0382022472
  20
 4868.2303370787
  30
0.0
  11
 1571.0382022472
  21
 4553.2303370787
  31
0.0
   0
ARC
   5
279
 100
AcDbEntity
   8
LEVEL001
 370
13
   6
CONTINUOUS
  62
7
 100
AcDbCircle
  10
 2126.9382022472
  20
 4553.2303370787
  30
0.0
  40
 70.000000000000
 100
AcDbArc
  50
 270.00000000000
  51
0.0
   0
ARC
   5
27A
 100
AcDbEntity
   8
LEVEL001
 370
13
   6
CONTINUOUS
  62
3
 100
AcDbCircle
  10
 2126.9382022472
  20
 4553.2303370787
  30
0.0
  40
 75.000000000000
 100
AcDbArc
  50
 270.00000000000
  51
0.0
   0
ARC
   5
27B
 100
AcDbEntity
   8
LEVEL001
 370
13
   6
CONTINUOUS
  62
3
 100
AcDbCircle
  10
 2126.9382022472
  20
 4553.2303370787
  30
0.0
  40
 90.900000000000
 100
AcDbArc
  50
 270.00000000000
  51
 0.11465392277469E-11
   0
ARC
   5
27C
 100
AcDbEntity
   8
LEVEL001
 370
13
   6
CONTINUOUS
  62
7
 100
AcDbCircle
  10
 2126.9382022472
  20
 4868.2303370787
  30
0.0
  40
 70.000000000000
 100
AcDbArc
  50
0.0
  51
 90.000000000000
   0
ARC
   5
27D
 100
AcDbEntity
   8
LEVEL001
 370
13
   6
CONTINUOUS
  62
3
 100
AcDbCircle
  10
 2126.9382022472
  20
 4868.2303370787
  30
0.0
  40
 75.000000000000
 100
AcDbArc
  50
0.0
  51
 90.000000000000
   0
ARC
   5
27E
 100
AcDbEntity
   8
LEVEL001
 370
13
   6
CONTINUOUS
  62
3
 100
AcDbCircle
  10
 2126.9382022472
  20
 4868.2303370787
  30
0.0
  40
 90.900000000000
 100
AcDbArc
  50
0.0
  51
 90.000000000000
   0
LINE
   5
27F
 100
AcDbEntity
   8
LEVEL001
 370
13
 100
AcDbLine
   6
CONTINUOUS
  62
7
  10
 2196.9382022472
  20
 4553.2303370787
  30
0.0
  11
 2196.9382022472
  21
 4868.2303370787
  31
0.0
   0
LINE
   5
280
 100
AcDbEntity
   8
LEVEL001
 370
13
 100
AcDbLine
   6
CONTINUOUS
  62
3
  10
 2201.9382022472
  20
 4553.2303370787
  30
0.0
  11
 2201.9382022472
  21
 4868.2303370787
  31
0.0
   0
LINE
   5
281
 100
AcDbEntity
   8
LEVEL001
 370
13
 100
AcDbLine
   6
CONTINUOUS
  62
3
  10
 2217.8382022472
  20
 4553.2303370787
  30
0.0
  11
 2217.8382022472
  21
 4868.2303370787
  31
0.0
   0
LINE
   5
282
 100
AcDbEntity
   8
LEVEL001
 370
13
 100
AcDbLine
   6
CONTINUOUS
  62
7
  10
 1326.9382022472
  20
 4938.2303370787
  30
0.0
  11
 861.93820224719
  21
 4938.2303370787
  31
0.0
   0
LINE
   5
283
 100
AcDbEntity
   8
LEVEL001
 370
13
 100
AcDbLine
   6
CONTINUOUS
  62
3
  10
 1326.9382022472
  20
 4943.2303370787
  30
0.0
  11
 861.93820224719
  21
 4943.2303370787
  31
0.0
   0
LINE
   5
284
 100
AcDbEntity
   8
LEVEL001
 370
13
 100
AcDbLine
   6
CONTINUOUS
  62
3
  10
 1326.9382022472
  20
 4959.1303370787
  30
0.0
  11
 861.93820224719
  21
 4959.1303370787
  31
0.0
   0
LINE
   5
285
 100
AcDbEntity
   8
LEVEL001
 370
13
 100
AcDbLine
   6
CONTINUOUS
  62
1
  10
 1326.9382022472
  20
 4939.1303370787
  30
0.0
  11
 861.93820224719
  21
 4939.1303370787
  31
0.0
   0
ARC
   5
286
 100
AcDbEntity
   8
LEVEL001
 370
13
   6
CONTINUOUS
  62
1
 100
AcDbCircle
  10
 861.93820224719
  20
 4868.2303370787
  30
0.0
  40
 70.900000000000
 100
AcDbArc
  50
 90.000000000001
  51
 180.00000000000
   0
ARC
   5
287
 100
AcDbEntity
   8
LEVEL001
 370
13
   6
CONTINUOUS
  62
1
 100
AcDbCircle
  10
 1326.9382022472
  20
 4868.2303370787
  30
0.0
  40
 70.900000000000
 100
AcDbArc
  50
0.0
  51
 90.000000000000
   0
LINE
   5
288
 100
AcDbEntity
   8
LEVEL001
 370
13
 100
AcDbLine
   6
CONTINUOUS
  62
1
  10
 1397.8382022472
  20
 4769.1303370787
  30
0.0
  11
 1397.8382022472
  21
 4868.2303370787
  31
0.0
   0
LINE
   5
289
 100
AcDbEntity
   8
LEVEL001
 370
13
 100
AcDbLine
   6
CONTINUOUS
  62
1
  10
 791.03820224719
  20
 4868.2303370787
  30
0.0
  11
 791.03820224719
  21
 4769.1303370787
  31
0.0
   0
LINE
   5
28A
 100
AcDbEntity
   8
LEVEL001
 370
13
 100
AcDbLine
   6
CONTINUOUS
  62
1
  10
 791.93820224719
  20
 4769.1303370787
  30
0.0
  11
 791.03820224719
  21
 4769.1303370787
  31
0.0
   0
LINE
   5
28B
 100
AcDbEntity
   8
LEVEL001
 370
13
 100
AcDbLine
   6
CONTINUOUS
  62
1
  10
 1396.9382022472
  20
 4769.1303370787
  30
0.0
  11
 1397.8382022472
  21
 4769.1303370787
  31
0.0
   0
LINE
   5
28C
 100
AcDbEntity
   8
LEVEL001
 370
13
 100
AcDbLine
   6
CONTINUOUS
  62
7
  10
 861.93820224719
  20
 4483.2303370787
  30
0.0
  11
 1326.9382022472
  21
 4483.2303370787
  31
0.0
   0
LINE
   5
28D
 100
AcDbEntity
   8
LEVEL001
 370
13
 100
AcDbLine
   6
CONTINUOUS
  62
3
  10
 861.93820224719
  20
 4478.2303370787
  30
0.0
  11
 1326.9382022472
  21
 4478.2303370787
  31
0.0
   0
LINE
   5
28E
 100
AcDbEntity
   8
LEVEL001
 370
13
 100
AcDbLine
   6
CONTINUOUS
  62
3
  10
 861.93820224719
  20
 4462.3303370787
  30
0.0
  11
 1326.9382022472
  21
 4462.3303370787
  31
0.0
   0
LINE
   5
28F
 100
AcDbEntity
   8
LEVEL001
 370
13
 100
AcDbLine
   6
DASHDOT
  62
6
  10
 1094.4382022472
  20
 4410.7303370787
  30
0.0
  11
 1094.4382022472
  21
 5010.7303370787
  31
0.0
   0
ARC
   5
290
 100
AcDbEntity
   8
LEVEL001
 370
13
   6
CONTINUOUS
  62
7
 100
AcDbCircle
  10
 1326.9382022472
  20
 4868.2303370787
  30
0.0
  40
 70.000000000000
 100
AcDbArc
  50
0.0
  51
 90.000000000000
   0
ARC
   5
291
 100
AcDbEntity
   8
LEVEL001
 370
13
   6
CONTINUOUS
  62
3
 100
AcDbCircle
  10
 1326.9382022472
  20
 4868.2303370787
  30
0.0
  40
 75.000000000000
 100
AcDbArc
  50
0.0
  51
 90.000000000000
   0
ARC
   5
292
 100
AcDbEntity
   8
LEVEL001
 370
13
   6
CONTINUOUS
  62
3
 100
AcDbCircle
  10
 1326.9382022472
  20
 4868.2303370787
  30
0.0
  40
 90.900000000000
 100
AcDbArc
  50
0.0
  51
 90.000000000000
   0
LINE
   5
293
 100
AcDbEntity
   8
LEVEL001
 370
13
 100
AcDbLine
   6
CONTINUOUS
  62
7
  10
 1396.9382022472
  20
 4553.2303370787
  30
0.0
  11
 1396.9382022472
  21
 4868.2303370787
  31
0.0
   0
LINE
   5
294
 100
AcDbEntity
   8
LEVEL001
 370
13
 100
AcDbLine
   6
CONTINUOUS
  62
3
  10
 1401.9382022472
  20
 4553.2303370787
  30
0.0
  11
 1401.9382022472
  21
 4868.2303370787
  31
0.0
   0
ARC
   5
295
 100
AcDbEntity
   8
LEVEL001
 370
13
   6
CONTINUOUS
  62
7
 100
AcDbCircle
  10
 1326.9382022472
  20
 4553.2303370787
  30
0.0
  40
 70.000000000000
 100
AcDbArc
  50
 270.00000000000
  51
0.0
   0
ARC
   5
296
 100
AcDbEntity
   8
LEVEL001
 370
13
   6
CONTINUOUS
  62
3
 100
AcDbCircle
  10
 1326.9382022472
  20
 4553.2303370787
  30
0.0
  40
 75.000000000000
 100
AcDbArc
  50
 270.00000000000
  51
0.0
   0
ARC
   5
297
 100
AcDbEntity
   8
LEVEL001
 370
13
   6
CONTINUOUS
  62
3
 100
AcDbCircle
  10
 1326.9382022472
  20
 4553.2303370787
  30
0.0
  40
 90.900000000000
 100
AcDbArc
  50
 270.00000000000
  51
 0.11465392277469E-11
   0
LINE
   5
298
 100
AcDbEntity
   8
LEVEL001
 370
13
 100
AcDbLine
   6
CONTINUOUS
  62
3
  10
 1417.8382022472
  20
 4553.2303370787
  30
0.0
  11
 1417.8382022472
  21
 4868.2303370787
  31
0.0
   0
LINE
   5
299
 100
AcDbEntity
   8
LEVEL001
 370
13
 100
AcDbLine
   6
CONTINUOUS
  62
7
  10
 791.93820224719
  20
 4868.2303370787
  30
0.0
  11
 791.93820224719
  21
 4553.2303370787
  31
0.0
   0
ARC
   5
29A
 100
AcDbEntity
   8
LEVEL001
 370
13
   6
CONTINUOUS
  62
7
 100
AcDbCircle
  10
 861.93820224719
  20
 4868.2303370787
  30
0.0
  40
 70.000000000000
 100
AcDbArc
  50
 90.000000000000
  51
 180.00000000000
   0
LINE
   5
29B
 100
AcDbEntity
   8
LEVEL001
 370
13
 100
AcDbLine
   6
CONTINUOUS
  62
3
  10
 786.93820224719
  20
 4868.2303370787
  30
0.0
  11
 786.93820224719
  21
 4553.2303370787
  31
0.0
   0
ARC
   5
29C
 100
AcDbEntity
   8
LEVEL001
 370
13
   6
CONTINUOUS
  62
3
 100
AcDbCircle
  10
 861.93820224719
  20
 4868.2303370787
  30
0.0
  40
 75.000000000000
 100
AcDbArc
  50
 90.000000000000
  51
 180.00000000000
   0
ARC
   5
29D
 100
AcDbEntity
   8
LEVEL001
 370
13
   6
CONTINUOUS
  62
3
 100
AcDbCircle
  10
 861.93820224719
  20
 4868.2303370787
  30
0.0
  40
 90.900000000000
 100
AcDbArc
  50
 90.000000000000
  51
 180.00000000000
   0
LINE
   5
29E
 100
AcDbEntity
   8
LEVEL001
 370
13
 100
AcDbLine
   6
CONTINUOUS
  62
3
  10
 771.03820224719
  20
 4868.2303370787
  30
0.0
  11
 771.03820224719
  21
 4553.2303370787
  31
0.0
   0
ARC
   5
29F
 100
AcDbEntity
   8
LEVEL001
 370
13
   6
CONTINUOUS
  62
7
 100
AcDbCircle
  10
 861.93820224719
  20
 4553.2303370787
  30
0.0
  40
 70.000000000000
 100
AcDbArc
  50
 180.00000000000
  51
 270.00000000000
   0
ARC
   5
2A0
 100
AcDbEntity
   8
LEVEL001
 370
13
   6
CONTINUOUS
  62
3
 100
AcDbCircle
  10
 861.93820224719
  20
 4553.2303370787
  30
0.0
  40
 75.000000000000
 100
AcDbArc
  50
 180.00000000000
  51
 270.00000000000
   0
ARC
   5
2A1
 100
AcDbEntity
   8
LEVEL001
 370
13
   6
CONTINUOUS
  62
3
 100
AcDbCircle
  10
 861.93820224719
  20
 4553.2303370787
  30
0.0
  40
 90.900000000000
 100
AcDbArc
  50
 180.00000000000
  51
 270.00000000000
   0
LINE
   5
2A2
 100
AcDbEntity
   8
LEVEL001
 370
13
 100
AcDbLine
   6
CONTINUOUS
  62
7
  10
 1417.8382022472
  20
 4755.6793601477
  30
0.0
  11
 1455.0868045592
  21
 4778.9548701339
  31
0.0
   0
LINE
   5
2A3
 100
AcDbEntity
   8
LEVEL001
 370
13
 100
AcDbLine
   6
CONTINUOUS
  62
7
  10
 1455.0868045592
  20
 4778.9548701339
  30
0.0
  11
 1455.0868045592
  21
 4708.2041659323
  31
0.0
   0
LINE
   5
2A4
 100
AcDbEntity
   8
LEVEL001
 370
13
 100
AcDbLine
   6
CONTINUOUS
  62
7
  10
 1455.0868045592
  20
 4708.2041659323
  30
0.0
  11
 1423.1219301085
  21
 4688.2302955505
  31
0.0
   0
LINE
   5
2A5
 100
AcDbEntity
   8
LEVEL001
 370
13
 100
AcDbLine
   6
CONTINUOUS
  62
7
  10
 1571.0382022472
  20
 4653.2302955505
  30
0.0
  11
 1533.7895999352
  21
 4653.2302955505
  31
0.0
   0
LINE
   5
2A6
 100
AcDbEntity
   8
LEVEL001
 370
13
 100
AcDbLine
   6
CONTINUOUS
  62
7
  10
 1533.7895999352
  20
 4653.2302955505
  30
0.0
  11
 1533.7895999352
  21
 4593.2302955505
  31
0.0
   0
LINE
   5
2A7
 100
AcDbEntity
   8
LEVEL001
 370
13
 100
AcDbLine
   6
CONTINUOUS
  62
7
  10
 1533.7895999352
  20
 4593.2302955505
  30
0.0
  11
 1571.0382022472
  21
 4593.2302955505
  31
0.0
   0
LINE
   5
2A8
 100
AcDbEntity
   8
LEVEL001
 370
13
 100
AcDbLine
   6
DASHDOT
  62
6
  10
 719.43820224719
  20
 4710.7303370787
  30
0.0
  11
 1494.4382022472
  21
 4710.7303370787
  31
0.0
   0
LINE
   5
2A9
 100
AcDbEntity
   8
LEVEL001
 370
13
 100
AcDbLine
   6
DASHDOT
  62
6
  10
 2269.4382022472
  20
 4710.7303370787
  30
0.0
  11
 1494.4382022472
  21
 4710.7303370787
  31
0.0
   0
ARC
   5
2AA
 100
AcDbEntity
   8
LEVEL001
 370
13
   6
CONTINUOUS
  62
7
 100
AcDbCircle
  10
 4726.9382022472
  20
 4868.2303370787
  30
0.0
  40
 65.000000000000
 100
AcDbArc
  50
0.0
  51
 90.000000000000
   0
LINE
   5
2AB
 100
AcDbEntity
   8
LEVEL001
 370
13
 100
AcDbLine
   6
CONTINUOUS
  62
7
  10
 4791.9382022472
  20
 4553.2303370787
  30
0.0
  11
 4791.9382022472
  21
 4868.2303370787
  31
0.0
   0
ARC
   5
2AC
 100
AcDbEntity
   8
LEVEL001
 370
13
   6
CONTINUOUS
  62
7
 100
AcDbCircle
  10
 4726.9382022472
  20
 4553.2303370787
  30
0.0
  40
 65.000000000000
 100
AcDbArc
  50
 270.00000000000
  51
0.0
   0
ARC
   5
2AD
 100
AcDbEntity
   8
LEVEL001
 370
13
   6
CONTINUOUS
  62
7
 100
AcDbCircle
  10
 4726.9382022472
  20
 4868.2303370787
  30
0.0
  40
 90.900000000000
 100
AcDbArc
  50
0.0
  51
 90.000000000000
   0
ARC
   5
2AE
 100
AcDbEntity
   8
LEVEL001
 370
13
   6
CONTINUOUS
  62
7
 100
AcDbCircle
  10
 4726.9382022472
  20
 4868.2303370787
  30
0.0
  40
 75.000000000000
 100
AcDbArc
  50
0.0
  51
 90.000000000000
   0
LINE
   5
2AF
 100
AcDbEntity
   8
LEVEL001
 370
13
 100
AcDbLine
   6
CONTINUOUS
  62
7
  10
 4817.8382022472
  20
 4553.2303370787
  30
0.0
  11
 4817.8382022472
  21
 4868.2303370787
  31
0.0
   0
LINE
   5
2B0
 100
AcDbEntity
   8
LEVEL001
 370
13
 100
AcDbLine
   6
CONTINUOUS
  62
7
  10
 4801.9382022472
  20
 4868.2303370787
  30
0.0
  11
 4801.9382022472
  21
 4553.2303370787
  31
0.0
   0
ARC
   5
2B1
 100
AcDbEntity
   8
LEVEL001
 370
13
   6
CONTINUOUS
  62
7
 100
AcDbCircle
  10
 4726.9382022472
  20
 4553.2303370787
  30
0.0
  40
 90.900000000000
 100
AcDbArc
  50
 270.00000000000
  51
 0.11465392277469E-11
   0
ARC
   5
2B2
 100
AcDbEntity
   8
LEVEL001
 370
13
   6
CONTINUOUS
  62
7
 100
AcDbCircle
  10
 4726.9382022472
  20
 4553.2303370787
  30
0.0
  40
 75.000000000000
 100
AcDbArc
  50
 270.00000000000
  51
0.0
   0
LINE
   5
2B3
 100
AcDbEntity
   8
LEVEL001
 370
13
 100
AcDbLine
   6
CONTINUOUS
  62
7
  10
 4261.9382022472
  20
 4488.2303370787
  30
0.0
  11
 4726.9382022472
  21
 4488.2303370787
  31
0.0
   0
ARC
   5
2B4
 100
AcDbEntity
   8
LEVEL001
 370
13
   6
CONTINUOUS
  62
7
 100
AcDbCircle
  10
 4261.9382022472
  20
 4553.2303370787
  30
0.0
  40
 65.000000000000
 100
AcDbArc
  50
 180.00000000000
  51
 270.00000000000
   0
LINE
   5
2B5
 100
AcDbEntity
   8
LEVEL001
 370
13
 100
AcDbLine
   6
CONTINUOUS
  62
7
  10
 4261.9382022472
  20
 4462.3303370787
  30
0.0
  11
 4726.9382022472
  21
 4462.3303370787
  31
0.0
   0
LINE
   5
2B6
 100
AcDbEntity
   8
LEVEL001
 370
13
 100
AcDbLine
   6
CONTINUOUS
  62
7
  10
 4261.9382022472
  20
 4478.2303370787
  30
0.0
  11
 4726.9382022472
  21
 4478.2303370787
  31
0.0
   0
ARC
   5
2B7
 100
AcDbEntity
   8
LEVEL001
 370
13
   6
CONTINUOUS
  62
7
 100
AcDbCircle
  10
 4261.9382022472
  20
 4553.2303370787
  30
0.0
  40
 90.900000000000
 100
AcDbArc
  50
 180.00000000000
  51
 270.00000000000
   0
ARC
   5
2B8
 100
AcDbEntity
   8
LEVEL001
 370
13
   6
CONTINUOUS
  62
7
 100
AcDbCircle
  10
 4261.9382022472
  20
 4553.2303370787
  30
0.0
  40
 75.000000000000
 100
AcDbArc
  50
 180.00000000000
  51
 270.00000000000
   0
ARC
   5
2B9
 100
AcDbEntity
   8
LEVEL001
 370
13
   6
CONTINUOUS
  62
7
 100
AcDbCircle
  10
 4261.9382022472
  20
 4868.2303370787
  30
0.0
  40
 65.000000000000
 100
AcDbArc
  50
 90.000000000000
  51
 180.00000000000
   0
LINE
   5
2BA
 100
AcDbEntity
   8
LEVEL001
 370
13
 100
AcDbLine
   6
CONTINUOUS
  62
7
  10
 4196.9382022472
  20
 4868.2303370787
  30
0.0
  11
 4196.9382022472
  21
 4553.2303370787
  31
0.0
   0
ARC
   5
2BB
 100
AcDbEntity
   8
LEVEL001
 370
13
   6
CONTINUOUS
  62
7
 100
AcDbCircle
  10
 4261.9382022472
  20
 4868.2303370787
  30
0.0
  40
 90.900000000000
 100
AcDbArc
  50
 90.000000000000
  51
 180.00000000000
   0
ARC
   5
2BC
 100
AcDbEntity
   8
LEVEL001
 370
13
   6
CONTINUOUS
  62
7
 100
AcDbCircle
  10
 4261.9382022472
  20
 4868.2303370787
  30
0.0
  40
 75.000000000000
 100
AcDbArc
  50
 90.000000000000
  51
 180.00000000000
   0
LINE
   5
2BD
 100
AcDbEntity
   8
LEVEL001
 370
13
 100
AcDbLine
   6
CONTINUOUS
  62
7
  10
 4171.0382022472
  20
 4868.2303370787
  30
0.0
  11
 4171.0382022472
  21
 4553.2303370787
  31
0.0
   0
LINE
   5
2BE
 100
AcDbEntity
   8
LEVEL001
 370
13
 100
AcDbLine
   6
CONTINUOUS
  62
7
  10
 4186.9382022472
  20
 4868.2303370787
  30
0.0
  11
 4186.9382022472
  21
 4553.2303370787
  31
0.0
   0
LINE
   5
2BF
 100
AcDbEntity
   8
LEVEL001
 370
13
 100
AcDbLine
   6
CONTINUOUS
  62
7
  10
 4726.9382022472
  20
 4933.2303370787
  30
0.0
  11
 4261.9382022472
  21
 4933.2303370787
  31
0.0
   0
LINE
   5
2C0
 100
AcDbEntity
   8
LEVEL001
 370
13
 100
AcDbLine
   6
CONTINUOUS
  62
7
  10
 4726.9382022472
  20
 4959.1303370787
  30
0.0
  11
 4261.9382022472
  21
 4959.1303370787
  31
0.0
   0
LINE
   5
2C1
 100
AcDbEntity
   8
LEVEL001
 370
13
 100
AcDbLine
   6
CONTINUOUS
  62
7
  10
 4726.9382022472
  20
 4943.2303370787
  30
0.0
  11
 4261.9382022472
  21
 4943.2303370787
  31
0.0
   0
LINE
   5
2C2
 100
AcDbEntity
   8
LEVEL001
 370
13
 100
AcDbLine
   6
DASHDOT
  62
6
  10
 4144.4382022472
  20
 4710.7303370787
  30
0.0
  11
 4844.4382022472
  21
 4710.7303370787
  31
0.0
   0
LINE
   5
2C3
 100
AcDbEntity
   8
LEVEL001
 370
13
 100
AcDbLine
   6
DASHDOT
  62
6
  10
 4494.4382022472
  20
 4985.7303370787
  30
0.0
  11
 4494.4382022472
  21
 4435.7303370787
  31
0.0
   0
CIRCLE
   5
2C4
 100
AcDbEntity
   8
LEVEL001
 370
13
 100
AcDbCircle
   6
CONTINUOUS
  62
1
  10
 3394.4382022472
  20
 4344.8303370787
  30
0.0
  40
 69.999997913838
   0
CIRCLE
   5
2C5
 100
AcDbEntity
   8
LEVEL001
 370
13
 100
AcDbCircle
   6
CONTINUOUS
  62
1
  10
 3534.4382001610
  20
 4344.8303370787
  30
0.0
  40
 70.000000000000
   0
MTEXT
   5
2C6
 100
AcDbEntity
   8
LEVEL001
 370
13
  62
1
 100
AcDbMText
  10
 3534.4382001610
  20
 4344.8303370787
  30
0.0
  40
 57.142857142858
  41
0.0
  71
5
  72
1
   1
\T1.000000;10
   7
GMM001
  44
 0.79999984000003
   0
MTEXT
   5
2C7
 100
AcDbEntity
   8
LEVEL001
 370
13
  62
1
 100
AcDbMText
  10
 3394.4382022472
  20
 4344.8303370787
  30
0.0
  40
 57.142857142858
  41
0.0
  71
5
  72
1
   1
\T1.000000;9
   7
GMM001
  44
 0.79999984000003
   0
LINE
   5
2C8
 100
AcDbEntity
   8
LEVEL001
 370
13
 100
AcDbLine
   6
CONTINUOUS
  62
7
  10
 3431.6136530846
  20
 4595.7303370787
  30
0.0
  11
 3431.6136530846
  21
 4580.7303370787
  31
0.0
   0
LINE
   5
2C9
 100
AcDbEntity
   8
LEVEL001
 370
13
 100
AcDbLine
   6
CONTINUOUS
  62
7
  10
 3431.6136530846
  20
 4580.7303370787
  30
0.0
  11
 3507.9136530846
  21
 4580.7303370787
  31
0.0
   0
LINE
   5
2CA
 100
AcDbEntity
   8
LEVEL001
 370
13
 100
AcDbLine
   6
CONTINUOUS
  62
7
  10
 3507.9136530846
  20
 4580.7303370787
  30
0.0
  11
 3507.9136530846
  21
 4655.7303370787
  31
0.0
   0
LINE
   5
2CB
 100
AcDbEntity
   8
LEVEL001
 370
13
 100
AcDbLine
   6
CONTINUOUS
  62
7
  10
 3507.9136530846
  20
 4765.7303370787
  30
0.0
  11
 3507.9136530846
  21
 4780.7303370787
  31
0.0
   0
LINE
   5
2CC
 100
AcDbEntity
   8
LEVEL001
 370
13
 100
AcDbLine
   6
CONTINUOUS
  62
7
  10
 3507.9136530846
  20
 4780.7303370787
  30
0.0
  11
 3431.6136530846
  21
 4780.7303370787
  31
0.0
   0
LINE
   5
2CD
 100
AcDbEntity
   8
LEVEL001
 370
13
 100
AcDbLine
   6
CONTINUOUS
  62
7
  10
 3431.6136530846
  20
 4780.7303370787
  30
0.0
  11
 3431.6136530846
  21
 4765.7303370787
  31
0.0
   0
LINE
   5
2CE
 100
AcDbEntity
   8
LEVEL001
 370
13
 100
AcDbLine
   6
DASHDOT
  62
6
  10
 3368.5802559820
  20
 4710.7303370787
  30
0.0
  11
 3770.3190839828
  21
 4710.7303370787
  31
0.0
   0
LINE
   5
2CF
 100
AcDbEntity
   8
LEVEL001
 370
13
 100
AcDbLine
   6
DASHDOT
  62
6
  10
 3602.5470158254
  20
 4740.7303370787
  30
0.0
  11
 3572.5470158254
  21
 4740.7303370787
  31
0.0
   0
LINE
   5
2D0
 100
AcDbEntity
   8
LEVEL001
 370
13
 100
AcDbLine
   6
DASHDOT
  62
6
  10
 3587.5470158254
  20
 4755.7303370787
  30
0.0
  11
 3587.5470158254
  21
 4725.7303370787
  31
0.0
   0
LINE
   5
2D1
 100
AcDbEntity
   8
LEVEL001
 370
13
 100
AcDbLine
   6
DASHDOT
  62
6
  10
 3602.5470158254
  20
 4680.7303370787
  30
0.0
  11
 3572.5470158254
  21
 4680.7303370787
  31
0.0
   0
LINE
   5
2D2
 100
AcDbEntity
   8
LEVEL001
 370
13
 100
AcDbLine
   6
DASHDOT
  62
6
  10
 3587.5470158254
  20
 4695.7303370787
  30
0.0
  11
 3587.5470158254
  21
 4665.7303370787
  31
0.0
   0
LINE
   5
2D3
 100
AcDbEntity
   8
LEVEL001
 370
13
 100
AcDbLine
   6
CONTINUOUS
  62
7
  10
 3562.5470158254
  20
 4765.7303370787
  30
0.0
  11
 3507.5470158254
  21
 4765.7303370787
  31
0.0
   0
LINE
   5
2D4
 100
AcDbEntity
   8
LEVEL001
 370
13
 100
AcDbLine
   6
CONTINUOUS
  62
7
  10
 3507.5470158254
  20
 4765.7303370787
  30
0.0
  11
 3507.5470158254
  21
 4655.7303370787
  31
0.0
   0
LINE
   5
2D5
 100
AcDbEntity
   8
LEVEL001
 370
13
 100
AcDbLine
   6
CONTINUOUS
  62
7
  10
 3507.5470158254
  20
 4655.7303370787
  30
0.0
  11
 3562.5470158254
  21
 4655.7303370787
  31
0.0
   0
LINE
   5
2D6
 100
AcDbEntity
   8
LEVEL001
 370
13
 100
AcDbLine
   6
CONTINUOUS
  62
3
  10
 3594.5470158254
  20
 4733.7303370787
  30
0.0
  11
 3580.5470158254
  21
 4733.7303370787
  31
0.0
   0
LINE
   5
2D7
 100
AcDbEntity
   8
LEVEL001
 370
13
 100
AcDbLine
   6
CONTINUOUS
  62
3
  10
 3580.5470158254
  20
 4733.7303370787
  30
0.0
  11
 3580.5470158254
  21
 4747.7303370787
  31
0.0
   0
LINE
   5
2D8
 100
AcDbEntity
   8
LEVEL001
 370
13
 100
AcDbLine
   6
CONTINUOUS
  62
3
  10
 3580.5470158254
  20
 4747.7303370787
  30
0.0
  11
 3594.5470158254
  21
 4747.7303370787
  31
0.0
   0
LINE
   5
2D9
 100
AcDbEntity
   8
LEVEL001
 370
13
 100
AcDbLine
   6
CONTINUOUS
  62
3
  10
 3594.5470158254
  20
 4747.7303370787
  30
0.0
  11
 3594.5470158254
  21
 4733.7303370787
  31
0.0
   0
LINE
   5
2DA
 100
AcDbEntity
   8
LEVEL001
 370
13
 100
AcDbLine
   6
CONTINUOUS
  62
3
  10
 3594.5470158254
  20
 4673.7303370787
  30
0.0
  11
 3580.5470158254
  21
 4673.7303370787
  31
0.0
   0
LINE
   5
2DB
 100
AcDbEntity
   8
LEVEL001
 370
13
 100
AcDbLine
   6
CONTINUOUS
  62
3
  10
 3580.5470158254
  20
 4673.7303370787
  30
0.0
  11
 3580.5470158254
  21
 4687.7303370787
  31
0.0
   0
LINE
   5
2DC
 100
AcDbEntity
   8
LEVEL001
 370
13
 100
AcDbLine
   6
CONTINUOUS
  62
3
  10
 3580.5470158254
  20
 4687.7303370787
  30
0.0
  11
 3594.5470158254
  21
 4687.7303370787
  31
0.0
   0
LINE
   5
2DD
 100
AcDbEntity
   8
LEVEL001
 370
13
 100
AcDbLine
   6
CONTINUOUS
  62
3
  10
 3594.5470158254
  20
 4687.7303370787
  30
0.0
  11
 3594.5470158254
  21
 4673.7303370787
  31
0.0
   0
LINE
   5
2DE
 100
AcDbEntity
   8
LEVEL001
 370
13
 100
AcDbLine
   6
CONTINUOUS
  62
7
  10
 3507.5470158254
  20
 4655.7303370787
  30
0.0
  11
 3393.5802559820
  21
 4655.7303370787
  31
0.0
   0
LINE
   5
2DF
 100
AcDbEntity
   8
LEVEL001
 370
13
 100
AcDbLine
   6
CONTINUOUS
  62
7
  10
 3393.5802559820
  20
 4655.7303370787
  30
0.0
  11
 3393.5802559820
  21
 4765.7303370787
  31
0.0
   0
LINE
   5
2E0
 100
AcDbEntity
   8
LEVEL001
 370
13
 100
AcDbLine
   6
CONTINUOUS
  62
7
  10
 3393.5802559820
  20
 4765.7303370787
  30
0.0
  11
 3507.5470158254
  21
 4765.7303370787
  31
0.0
   0
ARC
   5
2E1
 100
AcDbEntity
   8
LEVEL001
 370
13
   6
CONTINUOUS
  62
3
 100
AcDbCircle
  10
 3587.5470158254
  20
 4740.7303370787
  30
0.0
  40
 52.000000000010
 100
AcDbArc
  50
 215.00000000000
  51
 241.26434625509
   0
ARC
   5
2E2
 100
AcDbEntity
   8
LEVEL001
 370
13
   6
CONTINUOUS
  62
3
 100
AcDbCircle
  10
 3587.5470158254
  20
 4740.7303370787
  30
0.0
  40
 68.000000000070
 100
AcDbArc
  50
 215.00000000002
  51
 248.42942169837
   0
ARC
   5
2E3
 100
AcDbEntity
   8
LEVEL001
 370
13
   6
CONTINUOUS
  62
3
 100
AcDbCircle
  10
 3538.3978931680
  20
 4706.3157508974
  30
0.0
  40
 8.0000000000000
 100
AcDbArc
  50
 33.492187225440
  51
 214.99999999979
   0
LINE
   5
2E4
 100
AcDbEntity
   8
LEVEL001
 370
13
 100
AcDbLine
   6
DASHDOT
  62
6
  10
 3553.3978931680
  20
 4706.3157508974
  30
0.0
  11
 3523.3978931680
  21
 4706.3157508974
  31
0.0
   0
LINE
   5
2E5
 100
AcDbEntity
   8
LEVEL001
 370
13
 100
AcDbLine
   6
DASHDOT
  62
6
  10
 3538.3978931680
  20
 4721.3157508975
  30
0.0
  11
 3538.3978931680
  21
 4691.3157508975
  31
0.0
   0
CIRCLE
   5
2E6
 100
AcDbEntity
   8
LEVEL001
 370
13
 100
AcDbCircle
   6
CONTINUOUS
  62
1
  10
 3553.9320203748
  20
 5160.7303370787
  30
0.0
  40
 69.999997913838
   0
CIRCLE
   5
2E7
 100
AcDbEntity
   8
LEVEL001
 370
13
 100
AcDbCircle
   6
CONTINUOUS
  62
1
  10
 3693.9320162026
  20
 5160.7303370787
  30
0.0
  40
 69.999997913838
   0
MTEXT
   5
2E8
 100
AcDbEntity
   8
LEVEL001
 370
13
  62
1
 100
AcDbMText
  10
 3553.9320203748
  20
 5160.7303370787
  30
0.0
  40
 57.142857142858
  41
0.0
  71
5
  72
1
   1
\T1.000000;6
   7
GMM001
  44
 0.79999984000003
   0
MTEXT
   5
2E9
 100
AcDbEntity
   8
LEVEL001
 370
13
  62
1
 100
AcDbMText
  10
 3693.9320162026
  20
 5160.7303370787
  30
0.0
  40
 57.142857142858
  41
0.0
  71
5
  72
1
   1
\T1.000000;8
   7
GMM001
  44
 0.79999984000003
   0
LINE
   5
2EA
 100
AcDbEntity
   8
LEVEL001
 370
13
 100
AcDbLine
   6
CONTINUOUS
  62
3
  10
 3657.5470158254
  20
 4957.3303370787
  30
0.0
  11
 3657.5470158254
  21
 4464.1303370787
  31
0.0
   0
ARC
   5
2EB
 100
AcDbEntity
   8
LEVEL001
 370
13
   6
CONTINUOUS
  62
3
 100
AcDbCircle
  10
 3655.7470158254
  20
 4957.3303370787
  30
0.0
  40
 1.8000000000002
 100
AcDbArc
  50
 359.99999999997
  51
 89.999999999957
   0
LINE
   5
2EC
 100
AcDbEntity
   8
LEVEL001
 370
13
 100
AcDbLine
   6
CONTINUOUS
  62
3
  10
 3653.9470158254
  20
 4464.1303370787
  30
0.0
  11
 3653.9470158254
  21
 4957.3303370787
  31
0.0
   0
ARC
   5
2ED
 100
AcDbEntity
   8
LEVEL001
 370
13
   6
CONTINUOUS
  62
3
 100
AcDbCircle
  10
 3655.7470158254
  20
 4957.3303370787
  30
0.0
  40
 1.8000000000002
 100
AcDbArc
  50
 90.000000000000
  51
 180.00000000009
   0
LINE
   5
2EE
 100
AcDbEntity
   8
LEVEL001
 370
13
 100
AcDbLine
   6
CONTINUOUS
  62
1
  10
 3657.5470158254
  20
 4939.1303370787
  30
0.0
  11
 3732.5470158254
  21
 4939.1303370787
  31
0.0
   0
LINE
   5
2EF
 100
AcDbEntity
   8
LEVEL001
 370
13
 100
AcDbLine
   6
CONTINUOUS
  62
1
  10
 3732.5470158254
  20
 4939.1303370787
  30
0.0
  11
 3732.5470158254
  21
 4838.7255747737
  31
0.0
   0
ARC
   5
2F0
 100
AcDbEntity
   8
LEVEL001
 370
13
   6
CONTINUOUS
  62
1
 100
AcDbCircle
  10
 3676.8578693394
  20
 4774.1303370787
  30
0.0
  40
 5.0000000000000
 100
AcDbArc
  50
 269.99999999997
  51
 285.97235980420
   0
LINE
   5
2F1
 100
AcDbEntity
   8
LEVEL001
 370
13
 100
AcDbLine
   6
CONTINUOUS
  62
1
  10
 3676.1431346278
  20
 4769.1303370787
  30
0.0
  11
 3657.5470158254
  21
 4769.1303370787
  31
0.0
   0
ARC
   5
2F2
 100
AcDbEntity
   8
LEVEL001
 370
13
   6
CONTINUOUS
  62
1
 100
AcDbCircle
  10
 3676.1431346278
  20
 4779.1303370787
  30
0.0
  40
 10.000000000000
 100
AcDbArc
  50
 270.00000000000
  51
 286.57946484705
   0
ARC
   5
2F3
 100
AcDbEntity
   8
LEVEL001
 370
13
   6
CONTINUOUS
  62
1
 100
AcDbCircle
  10
 3657.5957173970
  20
 4841.4279559263
  30
0.0
  40
 75.000000000000
 100
AcDbArc
  50
 286.57946484705
  51
 2.0649141019391
   0
ARC
   5
2F4
 100
AcDbEntity
   8
LEVEL001
 370
13
   6
CONTINUOUS
  62
7
 100
AcDbCircle
  10
 1499.3414153390
  20
 4710.7303370787
  30
0.0
  40
 2200.0000000000
 100
AcDbArc
  50
 354.30026954860
  51
 1.7635269426121
   0
LINE
   5
2F5
 100
AcDbEntity
   8
LEVEL001
 370
13
 100
AcDbLine
   6
CONTINUOUS
  62
6
  10
 3678.5141368092
  20
 4769.4154851161
  30
0.0
  11
 3678.5141368092
  21
 4483.2303370787
  31
0.0
   0
LINE
   5
2F6
 100
AcDbEntity
   8
LEVEL001
 370
13
 100
AcDbLine
   6
CONTINUOUS
  62
7
  10
 3653.9470158254
  20
 4655.7303370787
  30
0.0
  11
 3562.5470158254
  21
 4655.7303370787
  31
0.0
   0
LINE
   5
2F7
 100
AcDbEntity
   8
LEVEL001
 370
13
 100
AcDbLine
   6
CONTINUOUS
  62
7
  10
 3562.5470158254
  20
 4655.7303370787
  30
0.0
  11
 3562.5470158254
  21
 4765.7303370787
  31
0.0
   0
LINE
   5
2F8
 100
AcDbEntity
   8
LEVEL001
 370
13
 100
AcDbLine
   6
CONTINUOUS
  62
7
  10
 3562.5470158254
  20
 4765.7303370787
  30
0.0
  11
 3653.9470158254
  21
 4765.7303370787
  31
0.0
   0
LINE
   5
2F9
 100
AcDbEntity
   8
LEVEL001
 370
13
 100
AcDbLine
   6
DOT
  62
6
  10
 3678.5141368092
  20
 4938.2303370787
  30
0.0
  11
 3657.5470158254
  21
 4938.2303370787
  31
0.0
   0
ARC
   5
2FA
 100
AcDbEntity
   8
LEVEL001
 370
13
   6
DOT
  62
6
 100
AcDbCircle
  10
 3678.5141368092
  20
 4928.2303370787
  30
0.0
  40
 10.000000000000
 100
AcDbArc
  50
 5.6997304514034
  51
 90.000000000000
   0
ARC
   5
2FB
 100
AcDbEntity
   8
LEVEL001
 370
13
   6
DOT
  62
6
 100
AcDbCircle
  10
 1499.3414153390
  20
 4710.7303370787
  30
0.0
  40
 2200.0000000000
 100
AcDbArc
  50
 1.7635269426122
  51
 5.6997304514029
   0
ARC
   5
2FC
 100
AcDbEntity
   8
LEVEL001
 370
13
   6
CONTINUOUS
  62
3
 100
AcDbCircle
  10
 3655.7470158254
  20
 4464.1303370787
  30
0.0
  40
 1.8000000000002
 100
AcDbArc
  50
 270.00000000004
  51
 0.28950115500607E-10
   0
ARC
   5
2FD
 100
AcDbEntity
   8
LEVEL001
 370
13
   6
CONTINUOUS
  62
3
 100
AcDbCircle
  10
 3655.7470158254
  20
 4464.1303370787
  30
0.0
  40
 1.8000000000002
 100
AcDbArc
  50
 179.99999999997
  51
 270.00000000000
   0
LINE
   5
2FE
 100
AcDbEntity
   8
LEVEL001
 370
13
 100
AcDbLine
   6
CONTINUOUS
  62
7
  10
 3678.5141368092
  20
 4483.2303370787
  30
0.0
  11
 3657.5470158254
  21
 4483.2303370787
  31
0.0
   0
ARC
   5
2FF
 100
AcDbEntity
   8
LEVEL001
 370
13
   6
CONTINUOUS
  62
7
 100
AcDbCircle
  10
 3678.5141368092
  20
 4493.2303370787
  30
0.0
  40
 10.000000000000
 100
AcDbArc
  50
 270.00000000000
  51
 354.30026954860
   0
LINE
   5
300
 100
AcDbEntity
   8
LEVEL001
 370
13
 100
AcDbLine
   6
CONTINUOUS
  62
7
  10
 3433.7895999352
  20
 4655.7303370787
  30
0.0
  11
 3233.7895999352
  21
 4655.7303370787
  31
0.0
   0
LINE
   5
301
 100
AcDbEntity
   8
LEVEL001
 370
13
 100
AcDbLine
   6
CONTINUOUS
  62
7
  10
 3233.7895999352
  20
 4655.7303370787
  30
0.0
  11
 3233.7895999352
  21
 4595.7303370787
  31
0.0
   0
LINE
   5
302
 100
AcDbEntity
   8
LEVEL001
 370
13
 100
AcDbLine
   6
CONTINUOUS
  62
7
  10
 3233.7895999352
  20
 4595.7303370787
  30
0.0
  11
 3433.7895999352
  21
 4595.7303370787
  31
0.0
   0
LINE
   5
303
 100
AcDbEntity
   8
LEVEL001
 370
13
 100
AcDbLine
   6
CONTINUOUS
  62
7
  10
 3433.7895999352
  20
 4595.7303370787
  30
0.0
  11
 3433.7895999352
  21
 4655.7303370787
  31
0.0
   0
LINE
   5
304
 100
AcDbEntity
   8
LEVEL001
 370
13
 100
AcDbLine
   6
DASHDOT
  62
6
  10
 3469.7636530846
  20
 4800.7303370787
  30
0.0
  11
 3469.7636530846
  21
 4560.7303370787
  31
0.0
   0
LINE
   5
305
 100
AcDbEntity
   8
LEVEL001
 370
13
 100
AcDbLine
   6
CONTINUOUS
  62
6
  10
 3433.1522464282
  20
 4760.7303370787
  30
0.0
  11
 3433.1522464282
  21
 4660.7303370787
  31
0.0
   0
LINE
   5
306
 100
AcDbEntity
   8
LEVEL001
 370
13
 100
AcDbLine
   6
DASHDOT
  62
6
  10
 3428.5802559820
  20
 4740.7303370787
  30
0.0
  11
 3398.5802559820
  21
 4740.7303370787
  31
0.0
   0
LINE
   5
307
 100
AcDbEntity
   8
LEVEL001
 370
13
 100
AcDbLine
   6
DASHDOT
  62
6
  10
 3413.5802559820
  20
 4755.7303370787
  30
0.0
  11
 3413.5802559820
  21
 4725.7303370787
  31
0.0
   0
LINE
   5
308
 100
AcDbEntity
   8
LEVEL001
 370
13
 100
AcDbLine
   6
DASHDOT
  62
6
  10
 3428.5802559820
  20
 4680.7303370787
  30
0.0
  11
 3398.5802559820
  21
 4680.7303370787
  31
0.0
   0
LINE
   5
309
 100
AcDbEntity
   8
LEVEL001
 370
13
 100
AcDbLine
   6
DASHDOT
  62
6
  10
 3413.5802559820
  20
 4695.7303370787
  30
0.0
  11
 3413.5802559820
  21
 4665.7303370787
  31
0.0
   0
LINE
   5
30A
 100
AcDbEntity
   8
LEVEL001
 370
13
 100
AcDbLine
   6
CONTINUOUS
  62
3
  10
 3420.5802559820
  20
 4733.7303370787
  30
0.0
  11
 3406.5802559820
  21
 4733.7303370787
  31
0.0
   0
LINE
   5
30B
 100
AcDbEntity
   8
LEVEL001
 370
13
 100
AcDbLine
   6
CONTINUOUS
  62
3
  10
 3406.5802559820
  20
 4733.7303370787
  30
0.0
  11
 3406.5802559820
  21
 4747.7303370787
  31
0.0
   0
LINE
   5
30C
 100
AcDbEntity
   8
LEVEL001
 370
13
 100
AcDbLine
   6
CONTINUOUS
  62
3
  10
 3406.5802559820
  20
 4747.7303370787
  30
0.0
  11
 3420.5802559820
  21
 4747.7303370787
  31
0.0
   0
LINE
   5
30D
 100
AcDbEntity
   8
LEVEL001
 370
13
 100
AcDbLine
   6
CONTINUOUS
  62
3
  10
 3420.5802559820
  20
 4747.7303370787
  30
0.0
  11
 3420.5802559820
  21
 4733.7303370787
  31
0.0
   0
LINE
   5
30E
 100
AcDbEntity
   8
LEVEL001
 370
13
 100
AcDbLine
   6
CONTINUOUS
  62
3
  10
 3420.5802559820
  20
 4673.7303370787
  30
0.0
  11
 3406.5802559820
  21
 4673.7303370787
  31
0.0
   0
LINE
   5
30F
 100
AcDbEntity
   8
LEVEL001
 370
13
 100
AcDbLine
   6
CONTINUOUS
  62
3
  10
 3406.5802559820
  20
 4673.7303370787
  30
0.0
  11
 3406.5802559820
  21
 4687.7303370787
  31
0.0
   0
LINE
   5
310
 100
AcDbEntity
   8
LEVEL001
 370
13
 100
AcDbLine
   6
CONTINUOUS
  62
3
  10
 3406.5802559820
  20
 4687.7303370787
  30
0.0
  11
 3420.5802559820
  21
 4687.7303370787
  31
0.0
   0
LINE
   5
311
 100
AcDbEntity
   8
LEVEL001
 370
13
 100
AcDbLine
   6
CONTINUOUS
  62
3
  10
 3420.5802559820
  20
 4687.7303370787
  30
0.0
  11
 3420.5802559820
  21
 4673.7303370787
  31
0.0
   0
LINE
   5
312
 100
AcDbEntity
   8
LEVEL001
 370
13
 100
AcDbLine
   6
CONTINUOUS
  62
6
  10
 3229.7931035688
  20
 4753.1680743995
  30
0.0
  11
 3229.7931035688
  21
 4795.7303370787
  31
0.0
   0
LINE
   5
313
 100
AcDbEntity
   8
LEVEL001
 370
13
 100
AcDbLine
   6
CONTINUOUS
  62
6
  10
 3229.7931035688
  20
 4695.7303370787
  30
0.0
  11
 3229.7931035688
  21
 4738.2925997579
  31
0.0
   0
LINE
   5
314
 100
AcDbEntity
   8
LEVEL001
 370
13
 100
AcDbLine
   6
CONTINUOUS
  62
7
  10
 3153.0882022472
  20
 4709.4553421291
  30
0.0
  11
 3153.0882022472
  21
 4690.7303370787
  31
0.0
   0
LINE
   5
315
 100
AcDbEntity
   8
LEVEL001
 370
13
 100
AcDbLine
   6
CONTINUOUS
  62
7
  10
 3153.0882022472
  20
 4690.7303370787
  30
0.0
  11
 3269.4381944732
  21
 4690.7303370787
  31
0.0
   0
LINE
   5
316
 100
AcDbEntity
   8
LEVEL001
 370
13
 100
AcDbLine
   6
CONTINUOUS
  62
7
  10
 3269.4381944732
  20
 4690.7303370787
  30
0.0
  11
 3269.4381944732
  21
 4800.7303370787
  31
0.0
   0
LINE
   5
317
 100
AcDbEntity
   8
LEVEL001
 370
13
 100
AcDbLine
   6
CONTINUOUS
  62
7
  10
 3269.4381944732
  20
 4800.7303370787
  30
0.0
  11
 3153.0882022472
  21
 4800.7303370787
  31
0.0
   0
LINE
   5
318
 100
AcDbEntity
   8
LEVEL001
 370
13
 100
AcDbLine
   6
CONTINUOUS
  62
7
  10
 3153.0882022472
  20
 4800.7303370787
  30
0.0
  11
 3153.0882022472
  21
 4780.2060463308
  31
0.0
   0
LINE
   5
319
 100
AcDbEntity
   8
LEVEL001
 370
13
 100
AcDbLine
   6
CONTINUOUS
  62
7
  10
 3235.7882022472
  20
 4595.7303370787
  30
0.0
  11
 3235.7882022472
  21
 4580.7303370787
  31
0.0
   0
LINE
   5
31A
 100
AcDbEntity
   8
LEVEL001
 370
13
 100
AcDbLine
   6
CONTINUOUS
  62
7
  10
 3235.7882022472
  20
 4580.7303370787
  30
0.0
  11
 3119.4382100212
  21
 4580.7303370787
  31
0.0
   0
LINE
   5
31B
 100
AcDbEntity
   8
LEVEL001
 370
13
 100
AcDbLine
   6
CONTINUOUS
  62
7
  10
 3119.4382100212
  20
 4580.7303370787
  30
0.0
  11
 3119.4382100212
  21
 4690.7303370787
  31
0.0
   0
LINE
   5
31C
 100
AcDbEntity
   8
LEVEL001
 370
13
 100
AcDbLine
   6
CONTINUOUS
  62
7
  10
 3119.4382100212
  20
 4690.7303370787
  30
0.0
  11
 3235.7882022472
  21
 4690.7303370787
  31
0.0
   0
LINE
   5
31D
 100
AcDbEntity
   8
LEVEL001
 370
13
 100
AcDbLine
   6
CONTINUOUS
  62
7
  10
 3235.7882022472
  20
 4690.7303370787
  30
0.0
  11
 3235.7882022472
  21
 4655.7303370787
  31
0.0
   0
LINE
   5
31E
 100
AcDbEntity
   8
LEVEL001
 370
13
 100
AcDbLine
   6
DASHDOT
  62
6
  10
 3234.4381944732
  20
 4775.7303370787
  30
0.0
  11
 3264.4381944732
  21
 4775.7303370787
  31
0.0
   0
LINE
   5
31F
 100
AcDbEntity
   8
LEVEL001
 370
13
 100
AcDbLine
   6
DASHDOT
  62
6
  10
 3249.4381944732
  20
 4790.7303370787
  30
0.0
  11
 3249.4381944732
  21
 4760.7303370787
  31
0.0
   0
LINE
   5
320
 100
AcDbEntity
   8
LEVEL001
 370
13
 100
AcDbLine
   6
DASHDOT
  62
6
  10
 3234.4381944732
  20
 4715.7303370787
  30
0.0
  11
 3264.4381944732
  21
 4715.7303370787
  31
0.0
   0
LINE
   5
321
 100
AcDbEntity
   8
LEVEL001
 370
13
 100
AcDbLine
   6
DASHDOT
  62
6
  10
 3249.4381944732
  20
 4730.7303370787
  30
0.0
  11
 3249.4381944732
  21
 4700.7303370787
  31
0.0
   0
LINE
   5
322
 100
AcDbEntity
   8
LEVEL001
 370
13
 100
AcDbLine
   6
CONTINUOUS
  62
3
  10
 3242.4381944732
  20
 4768.7303370787
  30
0.0
  11
 3256.4381944732
  21
 4768.7303370787
  31
0.0
   0
LINE
   5
323
 100
AcDbEntity
   8
LEVEL001
 370
13
 100
AcDbLine
   6
CONTINUOUS
  62
3
  10
 3256.4381944732
  20
 4768.7303370787
  30
0.0
  11
 3256.4381944732
  21
 4782.7303370787
  31
0.0
   0
LINE
   5
324
 100
AcDbEntity
   8
LEVEL001
 370
13
 100
AcDbLine
   6
CONTINUOUS
  62
3
  10
 3256.4381944732
  20
 4782.7303370787
  30
0.0
  11
 3242.4381944732
  21
 4782.7303370787
  31
0.0
   0
LINE
   5
325
 100
AcDbEntity
   8
LEVEL001
 370
13
 100
AcDbLine
   6
CONTINUOUS
  62
3
  10
 3242.4381944732
  20
 4782.7303370787
  30
0.0
  11
 3242.4381944732
  21
 4768.7303370787
  31
0.0
   0
LINE
   5
326
 100
AcDbEntity
   8
LEVEL001
 370
13
 100
AcDbLine
   6
CONTINUOUS
  62
3
  10
 3242.4381944732
  20
 4708.7303370787
  30
0.0
  11
 3256.4381944732
  21
 4708.7303370787
  31
0.0
   0
LINE
   5
327
 100
AcDbEntity
   8
LEVEL001
 370
13
 100
AcDbLine
   6
CONTINUOUS
  62
3
  10
 3256.4381944732
  20
 4708.7303370787
  30
0.0
  11
 3256.4381944732
  21
 4722.7303370787
  31
0.0
   0
LINE
   5
328
 100
AcDbEntity
   8
LEVEL001
 370
13
 100
AcDbLine
   6
CONTINUOUS
  62
3
  10
 3256.4381944732
  20
 4722.7303370787
  30
0.0
  11
 3242.4381944732
  21
 4722.7303370787
  31
0.0
   0
LINE
   5
329
 100
AcDbEntity
   8
LEVEL001
 370
13
 100
AcDbLine
   6
CONTINUOUS
  62
3
  10
 3242.4381944732
  20
 4722.7303370787
  30
0.0
  11
 3242.4381944732
  21
 4708.7303370787
  31
0.0
   0
LINE
   5
32A
 100
AcDbEntity
   8
LEVEL001
 370
13
 100
AcDbLine
   6
CONTINUOUS
  62
6
  10
 3229.7931035688
  20
 4795.7303370787
  30
0.0
  11
 3229.7931035688
  21
 4695.7303370787
  31
0.0
   0
LINE
   5
32B
 100
AcDbEntity
   8
LEVEL001
 370
13
 100
AcDbLine
   6
CONTINUOUS
  62
6
  10
 3159.0833009256
  20
 4643.1680743995
  30
0.0
  11
 3159.0833009256
  21
 4685.7303370787
  31
0.0
   0
LINE
   5
32C
 100
AcDbEntity
   8
LEVEL001
 370
13
 100
AcDbLine
   6
CONTINUOUS
  62
6
  10
 3159.0833009256
  20
 4585.7303370787
  30
0.0
  11
 3159.0833009256
  21
 4628.2925997579
  31
0.0
   0
LINE
   5
32D
 100
AcDbEntity
   8
LEVEL001
 370
13
 100
AcDbLine
   6
CONTINUOUS
  62
7
  10
 3155.0868045592
  20
 4781.4549116623
  30
0.0
  11
 3155.0868045592
  21
 4710.7042074605
  31
0.0
   0
LINE
   5
32E
 100
AcDbEntity
   8
LEVEL001
 370
13
 100
AcDbLine
   6
CONTINUOUS
  62
7
  10
 3155.0868045592
  20
 4710.7042074605
  30
0.0
  11
 2955.0868045592
  21
 4585.7303370787
  31
0.0
   0
LINE
   5
32F
 100
AcDbEntity
   8
LEVEL001
 370
13
 100
AcDbLine
   6
CONTINUOUS
  62
7
  10
 2955.0868045592
  20
 4585.7303370787
  30
0.0
  11
 2955.0868045592
  21
 4656.4810412805
  31
0.0
   0
LINE
   5
330
 100
AcDbEntity
   8
LEVEL001
 370
13
 100
AcDbLine
   6
CONTINUOUS
  62
7
  10
 2955.0868045592
  20
 4656.4810412805
  30
0.0
  11
 3155.0868045592
  21
 4781.4549116623
  31
0.0
   0
LINE
   5
331
 100
AcDbEntity
   8
LEVEL001
 370
13
 100
AcDbLine
   6
DASHDOT
  62
6
  10
 3124.4382100212
  20
 4665.7303370787
  30
0.0
  11
 3154.4382100212
  21
 4665.7303370787
  31
0.0
   0
LINE
   5
332
 100
AcDbEntity
   8
LEVEL001
 370
13
 100
AcDbLine
   6
DASHDOT
  62
6
  10
 3139.4382100212
  20
 4680.7303370787
  30
0.0
  11
 3139.4382100212
  21
 4650.7303370787
  31
0.0
   0
LINE
   5
333
 100
AcDbEntity
   8
LEVEL001
 370
13
 100
AcDbLine
   6
DASHDOT
  62
6
  10
 3124.4382100212
  20
 4605.7303370787
  30
0.0
  11
 3154.4382100212
  21
 4605.7303370787
  31
0.0
   0
LINE
   5
334
 100
AcDbEntity
   8
LEVEL001
 370
13
 100
AcDbLine
   6
DASHDOT
  62
6
  10
 3139.4382100212
  20
 4620.7303370787
  30
0.0
  11
 3139.4382100212
  21
 4590.7303370787
  31
0.0
   0
LINE
   5
335
 100
AcDbEntity
   8
LEVEL001
 370
13
 100
AcDbLine
   6
CONTINUOUS
  62
3
  10
 3146.4382100212
  20
 4658.7303370787
  30
0.0
  11
 3132.4382100212
  21
 4658.7303370787
  31
0.0
   0
LINE
   5
336
 100
AcDbEntity
   8
LEVEL001
 370
13
 100
AcDbLine
   6
CONTINUOUS
  62
3
  10
 3132.4382100212
  20
 4658.7303370787
  30
0.0
  11
 3132.4382100212
  21
 4672.7303370787
  31
0.0
   0
LINE
   5
337
 100
AcDbEntity
   8
LEVEL001
 370
13
 100
AcDbLine
   6
CONTINUOUS
  62
3
  10
 3132.4382100212
  20
 4672.7303370787
  30
0.0
  11
 3146.4382100212
  21
 4672.7303370787
  31
0.0
   0
LINE
   5
338
 100
AcDbEntity
   8
LEVEL001
 370
13
 100
AcDbLine
   6
CONTINUOUS
  62
3
  10
 3146.4382100212
  20
 4672.7303370787
  30
0.0
  11
 3146.4382100212
  21
 4658.7303370787
  31
0.0
   0
LINE
   5
339
 100
AcDbEntity
   8
LEVEL001
 370
13
 100
AcDbLine
   6
CONTINUOUS
  62
3
  10
 3146.4382100212
  20
 4598.7303370787
  30
0.0
  11
 3132.4382100212
  21
 4598.7303370787
  31
0.0
   0
LINE
   5
33A
 100
AcDbEntity
   8
LEVEL001
 370
13
 100
AcDbLine
   6
CONTINUOUS
  62
3
  10
 3132.4382100212
  20
 4598.7303370787
  30
0.0
  11
 3132.4382100212
  21
 4612.7303370787
  31
0.0
   0
LINE
   5
33B
 100
AcDbEntity
   8
LEVEL001
 370
13
 100
AcDbLine
   6
CONTINUOUS
  62
3
  10
 3132.4382100212
  20
 4612.7303370787
  30
0.0
  11
 3146.4382100212
  21
 4612.7303370787
  31
0.0
   0
LINE
   5
33C
 100
AcDbEntity
   8
LEVEL001
 370
13
 100
AcDbLine
   6
CONTINUOUS
  62
3
  10
 3146.4382100212
  20
 4612.7303370787
  30
0.0
  11
 3146.4382100212
  21
 4598.7303370787
  31
0.0
   0
LINE
   5
33D
 100
AcDbEntity
   8
LEVEL001
 370
13
 100
AcDbLine
   6
CONTINUOUS
  62
6
  10
 3159.0833009256
  20
 4685.7303370787
  30
0.0
  11
 3159.0833009256
  21
 4585.7303370787
  31
0.0
   0
LINE
   5
33E
 100
AcDbEntity
   8
LEVEL001
 370
13
 100
AcDbLine
   6
DASHDOT
  62
6
  10
 2919.1127514098
  20
 4800.7303370787
  30
0.0
  11
 2919.1127514098
  21
 4560.7303370787
  31
0.0
   0
LINE
   5
33F
 100
AcDbEntity
   8
LEVEL001
 370
13
 100
AcDbLine
   6
CONTINUOUS
  62
7
  10
 2957.2627514098
  20
 4657.8407237787
  30
0.0
  11
 2957.2627514098
  21
 4657.7299066119
  31
0.0
   0
LINE
   5
340
 100
AcDbEntity
   8
LEVEL001
 370
13
 100
AcDbLine
   6
CONTINUOUS
  62
7
  10
 2957.2627514098
  20
 4586.9792024101
  30
0.0
  11
 2957.2627514098
  21
 4580.7303370787
  31
0.0
   0
LINE
   5
341
 100
AcDbEntity
   8
LEVEL001
 370
13
 100
AcDbLine
   6
CONTINUOUS
  62
7
  10
 2957.2627514098
  20
 4580.7303370787
  30
0.0
  11
 2880.9627514098
  21
 4580.7303370787
  31
0.0
   0
LINE
   5
342
 100
AcDbEntity
   8
LEVEL001
 370
13
 100
AcDbLine
   6
CONTINUOUS
  62
7
  10
 2880.9627514098
  20
 4580.7303370787
  30
0.0
  11
 2880.9627514098
  21
 4655.7303370787
  31
0.0
   0
LINE
   5
343
 100
AcDbEntity
   8
LEVEL001
 370
13
 100
AcDbLine
   6
CONTINUOUS
  62
7
  10
 2880.9627514098
  20
 4765.7303370787
  30
0.0
  11
 2880.9627514098
  21
 4780.7303370787
  31
0.0
   0
LINE
   5
344
 100
AcDbEntity
   8
LEVEL001
 370
13
 100
AcDbLine
   6
CONTINUOUS
  62
7
  10
 2880.9627514098
  20
 4780.7303370787
  30
0.0
  11
 2957.2627514098
  21
 4780.7303370787
  31
0.0
   0
LINE
   5
345
 100
AcDbEntity
   8
LEVEL001
 370
13
 100
AcDbLine
   6
CONTINUOUS
  62
7
  10
 2957.2627514098
  20
 4780.7303370787
  30
0.0
  11
 2957.2627514098
  21
 4765.7303370787
  31
0.0
   0
LINE
   5
346
 100
AcDbEntity
   8
LEVEL001
 370
13
 100
AcDbLine
   6
CONTINUOUS
  62
6
  10
 2955.7241580662
  20
 4760.7303370787
  30
0.0
  11
 2955.7241580662
  21
 4660.7303370787
  31
0.0
   0
LINE
   5
347
 100
AcDbEntity
   8
LEVEL001
 370
13
 100
AcDbLine
   6
DASHDOT
  62
6
  10
 2960.2961485124
  20
 4740.7303370787
  30
0.0
  11
 2990.2961485124
  21
 4740.7303370787
  31
0.0
   0
LINE
   5
348
 100
AcDbEntity
   8
LEVEL001
 370
13
 100
AcDbLine
   6
DASHDOT
  62
6
  10
 2975.2961485124
  20
 4755.7303370787
  30
0.0
  11
 2975.2961485124
  21
 4725.7303370787
  31
0.0
   0
LINE
   5
349
 100
AcDbEntity
   8
LEVEL001
 370
13
 100
AcDbLine
   6
DASHDOT
  62
6
  10
 2960.2961485124
  20
 4680.7303370787
  30
0.0
  11
 2990.2961485124
  21
 4680.7303370787
  31
0.0
   0
LINE
   5
34A
 100
AcDbEntity
   8
LEVEL001
 370
13
 100
AcDbLine
   6
DASHDOT
  62
6
  10
 2975.2961485124
  20
 4695.7303370787
  30
0.0
  11
 2975.2961485124
  21
 4665.7303370787
  31
0.0
   0
LINE
   5
34B
 100
AcDbEntity
   8
LEVEL001
 370
13
 100
AcDbLine
   6
CONTINUOUS
  62
7
  10
 2881.3293886690
  20
 4655.7303370787
  30
0.0
  11
 2995.2961485124
  21
 4655.7303370787
  31
0.0
   0
LINE
   5
34C
 100
AcDbEntity
   8
LEVEL001
 370
13
 100
AcDbLine
   6
CONTINUOUS
  62
7
  10
 2995.2961485124
  20
 4655.7303370787
  30
0.0
  11
 2995.2961485124
  21
 4765.7303370787
  31
0.0
   0
LINE
   5
34D
 100
AcDbEntity
   8
LEVEL001
 370
13
 100
AcDbLine
   6
CONTINUOUS
  62
7
  10
 2995.2961485124
  20
 4765.7303370787
  30
0.0
  11
 2881.3293886690
  21
 4765.7303370787
  31
0.0
   0
LINE
   5
34E
 100
AcDbEntity
   8
LEVEL001
 370
13
 100
AcDbLine
   6
DASHDOT
  62
6
  10
 3020.2961485124
  20
 4710.7303370787
  30
0.0
  11
 2618.5573205116
  21
 4710.7303370787
  31
0.0
   0
LINE
   5
34F
 100
AcDbEntity
   8
LEVEL001
 370
13
 100
AcDbLine
   6
DASHDOT
  62
6
  10
 2786.3293886690
  20
 4740.7303370787
  30
0.0
  11
 2816.3293886690
  21
 4740.7303370787
  31
0.0
   0
LINE
   5
350
 100
AcDbEntity
   8
LEVEL001
 370
13
 100
AcDbLine
   6
DASHDOT
  62
6
  10
 2801.3293886690
  20
 4755.7303370787
  30
0.0
  11
 2801.3293886690
  21
 4725.7303370787
  31
0.0
   0
LINE
   5
351
 100
AcDbEntity
   8
LEVEL001
 370
13
 100
AcDbLine
   6
DASHDOT
  62
6
  10
 2786.3293886690
  20
 4680.7303370787
  30
0.0
  11
 2816.3293886690
  21
 4680.7303370787
  31
0.0
   0
LINE
   5
352
 100
AcDbEntity
   8
LEVEL001
 370
13
 100
AcDbLine
   6
DASHDOT
  62
6
  10
 2801.3293886690
  20
 4695.7303370787
  30
0.0
  11
 2801.3293886690
  21
 4665.7303370787
  31
0.0
   0
LINE
   5
353
 100
AcDbEntity
   8
LEVEL001
 370
13
 100
AcDbLine
   6
CONTINUOUS
  62
7
  10
 2826.3293886690
  20
 4765.7303370787
  30
0.0
  11
 2881.3293886690
  21
 4765.7303370787
  31
0.0
   0
LINE
   5
354
 100
AcDbEntity
   8
LEVEL001
 370
13
 100
AcDbLine
   6
CONTINUOUS
  62
7
  10
 2881.3293886690
  20
 4765.7303370787
  30
0.0
  11
 2881.3293886690
  21
 4655.7303370787
  31
0.0
   0
LINE
   5
355
 100
AcDbEntity
   8
LEVEL001
 370
13
 100
AcDbLine
   6
CONTINUOUS
  62
7
  10
 2881.3293886690
  20
 4655.7303370787
  30
0.0
  11
 2826.3293886690
  21
 4655.7303370787
  31
0.0
   0
LINE
   5
356
 100
AcDbEntity
   8
LEVEL001
 370
13
 100
AcDbLine
   6
CONTINUOUS
  62
3
  10
 2794.3293886690
  20
 4733.7303370787
  30
0.0
  11
 2808.3293886690
  21
 4733.7303370787
  31
0.0
   0
LINE
   5
357
 100
AcDbEntity
   8
LEVEL001
 370
13
 100
AcDbLine
   6
CONTINUOUS
  62
3
  10
 2808.3293886690
  20
 4733.7303370787
  30
0.0
  11
 2808.3293886690
  21
 4747.7303370787
  31
0.0
   0
LINE
   5
358
 100
AcDbEntity
   8
LEVEL001
 370
13
 100
AcDbLine
   6
CONTINUOUS
  62
3
  10
 2808.3293886690
  20
 4747.7303370787
  30
0.0
  11
 2794.3293886690
  21
 4747.7303370787
  31
0.0
   0
LINE
   5
359
 100
AcDbEntity
   8
LEVEL001
 370
13
 100
AcDbLine
   6
CONTINUOUS
  62
3
  10
 2794.3293886690
  20
 4747.7303370787
  30
0.0
  11
 2794.3293886690
  21
 4733.7303370787
  31
0.0
   0
LINE
   5
35A
 100
AcDbEntity
   8
LEVEL001
 370
13
 100
AcDbLine
   6
CONTINUOUS
  62
3
  10
 2794.3293886690
  20
 4673.7303370787
  30
0.0
  11
 2808.3293886690
  21
 4673.7303370787
  31
0.0
   0
LINE
   5
35B
 100
AcDbEntity
   8
LEVEL001
 370
13
 100
AcDbLine
   6
CONTINUOUS
  62
3
  10
 2808.3293886690
  20
 4673.7303370787
  30
0.0
  11
 2808.3293886690
  21
 4687.7303370787
  31
0.0
   0
LINE
   5
35C
 100
AcDbEntity
   8
LEVEL001
 370
13
 100
AcDbLine
   6
CONTINUOUS
  62
3
  10
 2808.3293886690
  20
 4687.7303370787
  30
0.0
  11
 2794.3293886690
  21
 4687.7303370787
  31
0.0
   0
LINE
   5
35D
 100
AcDbEntity
   8
LEVEL001
 370
13
 100
AcDbLine
   6
CONTINUOUS
  62
3
  10
 2794.3293886690
  20
 4687.7303370787
  30
0.0
  11
 2794.3293886690
  21
 4673.7303370787
  31
0.0
   0
LINE
   5
35E
 100
AcDbEntity
   8
LEVEL001
 370
13
 100
AcDbLine
   6
CONTINUOUS
  62
3
  10
 2968.2961485124
  20
 4733.7303370787
  30
0.0
  11
 2982.2961485124
  21
 4733.7303370787
  31
0.0
   0
LINE
   5
35F
 100
AcDbEntity
   8
LEVEL001
 370
13
 100
AcDbLine
   6
CONTINUOUS
  62
3
  10
 2982.2961485124
  20
 4733.7303370787
  30
0.0
  11
 2982.2961485124
  21
 4747.7303370787
  31
0.0
   0
LINE
   5
360
 100
AcDbEntity
   8
LEVEL001
 370
13
 100
AcDbLine
   6
CONTINUOUS
  62
3
  10
 2982.2961485124
  20
 4747.7303370787
  30
0.0
  11
 2968.2961485124
  21
 4747.7303370787
  31
0.0
   0
LINE
   5
361
 100
AcDbEntity
   8
LEVEL001
 370
13
 100
AcDbLine
   6
CONTINUOUS
  62
3
  10
 2968.2961485124
  20
 4747.7303370787
  30
0.0
  11
 2968.2961485124
  21
 4733.7303370787
  31
0.0
   0
LINE
   5
362
 100
AcDbEntity
   8
LEVEL001
 370
13
 100
AcDbLine
   6
CONTINUOUS
  62
3
  10
 2968.2961485124
  20
 4673.7303370787
  30
0.0
  11
 2982.2961485124
  21
 4673.7303370787
  31
0.0
   0
LINE
   5
363
 100
AcDbEntity
   8
LEVEL001
 370
13
 100
AcDbLine
   6
CONTINUOUS
  62
3
  10
 2982.2961485124
  20
 4673.7303370787
  30
0.0
  11
 2982.2961485124
  21
 4687.7303370787
  31
0.0
   0
LINE
   5
364
 100
AcDbEntity
   8
LEVEL001
 370
13
 100
AcDbLine
   6
CONTINUOUS
  62
3
  10
 2982.2961485124
  20
 4687.7303370787
  30
0.0
  11
 2968.2961485124
  21
 4687.7303370787
  31
0.0
   0
LINE
   5
365
 100
AcDbEntity
   8
LEVEL001
 370
13
 100
AcDbLine
   6
CONTINUOUS
  62
3
  10
 2968.2961485124
  20
 4687.7303370787
  30
0.0
  11
 2968.2961485124
  21
 4673.7303370787
  31
0.0
   0
ARC
   5
366
 100
AcDbEntity
   8
LEVEL001
 370
13
   6
CONTINUOUS
  62
3
 100
AcDbCircle
  10
 2801.3293886690
  20
 4740.7303370787
  30
0.0
  40
 52.000000000010
 100
AcDbArc
  50
 298.73565374491
  51
 325.00000000000
   0
ARC
   5
367
 100
AcDbEntity
   8
LEVEL001
 370
13
   6
CONTINUOUS
  62
3
 100
AcDbCircle
  10
 2801.3293886690
  20
 4740.7303370787
  30
0.0
  40
 68.000000000070
 100
AcDbArc
  50
 291.57057830163
  51
 324.99999999998
   0
ARC
   5
368
 100
AcDbEntity
   8
LEVEL001
 370
13
   6
CONTINUOUS
  62
3
 100
AcDbCircle
  10
 2850.4785113264
  20
 4706.3157508974
  30
0.0
  40
 8.0000000000000
 100
AcDbArc
  50
 325.00000000004
  51
 146.50781277474
   0
LINE
   5
369
 100
AcDbEntity
   8
LEVEL001
 370
13
 100
AcDbLine
   6
DASHDOT
  62
6
  10
 2835.4785113264
  20
 4706.3157508974
  30
0.0
  11
 2865.4785113264
  21
 4706.3157508974
  31
0.0
   0
LINE
   5
36A
 100
AcDbEntity
   8
LEVEL001
 370
13
 100
AcDbLine
   6
DASHDOT
  62
6
  10
 2850.4785113264
  20
 4721.3157508975
  30
0.0
  11
 2850.4785113264
  21
 4691.3157508975
  31
0.0
   0
LINE
   5
36B
 100
AcDbEntity
   8
LEVEL001
 370
13
 100
AcDbLine
   6
CONTINUOUS
  62
7
  10
 2734.9293886690
  20
 4655.7303370787
  30
0.0
  11
 2826.3293886690
  21
 4655.7303370787
  31
0.0
   0
LINE
   5
36C
 100
AcDbEntity
   8
LEVEL001
 370
13
 100
AcDbLine
   6
CONTINUOUS
  62
7
  10
 2826.3293886690
  20
 4655.7303370787
  30
0.0
  11
 2826.3293886690
  21
 4765.7303370787
  31
0.0
   0
LINE
   5
36D
 100
AcDbEntity
   8
LEVEL001
 370
13
 100
AcDbLine
   6
CONTINUOUS
  62
7
  10
 2826.3293886690
  20
 4765.7303370787
  30
0.0
  11
 2734.9293886690
  21
 4765.7303370787
  31
0.0
   0
LINE
   5
36E
 100
AcDbEntity
   8
LEVEL001
 370
13
 100
AcDbLine
   6
CONTINUOUS
  62
3
  10
 2731.3293886690
  20
 4957.3303370787
  30
0.0
  11
 2731.3293886690
  21
 4464.1303370787
  31
0.0
   0
ARC
   5
36F
 100
AcDbEntity
   8
LEVEL001
 370
13
   6
CONTINUOUS
  62
3
 100
AcDbCircle
  10
 2733.1293886690
  20
 4957.3303370787
  30
0.0
  40
 1.8000000000002
 100
AcDbArc
  50
 90.000000000000
  51
 180.00000000009
   0
LINE
   5
370
 100
AcDbEntity
   8
LEVEL001
 370
13
 100
AcDbLine
   6
CONTINUOUS
  62
3
  10
 2734.9293886690
  20
 4464.1303370787
  30
0.0
  11
 2734.9293886690
  21
 4957.3303370787
  31
0.0
   0
ARC
   5
371
 100
AcDbEntity
   8
LEVEL001
 370
13
   6
CONTINUOUS
  62
3
 100
AcDbCircle
  10
 2733.1293886690
  20
 4957.3303370787
  30
0.0
  40
 1.8000000000002
 100
AcDbArc
  50
 359.99999999997
  51
 90.000000000014
   0
LINE
   5
372
 100
AcDbEntity
   8
LEVEL001
 370
13
 100
AcDbLine
   6
CONTINUOUS
  62
1
  10
 2731.3293886690
  20
 4939.1303370787
  30
0.0
  11
 2656.3293886690
  21
 4939.1303370787
  31
0.0
   0
LINE
   5
373
 100
AcDbEntity
   8
LEVEL001
 370
13
 100
AcDbLine
   6
CONTINUOUS
  62
1
  10
 2656.3293886690
  20
 4939.1303370787
  30
0.0
  11
 2656.3293886690
  21
 4838.7255747737
  31
0.0
   0
ARC
   5
374
 100
AcDbEntity
   8
LEVEL001
 370
13
   6
CONTINUOUS
  62
1
 100
AcDbCircle
  10
 2712.0185351550
  20
 4774.1303370787
  30
0.0
  40
 5.0000000000000
 100
AcDbArc
  50
 254.02764019580
  51
 270.00000000001
   0
LINE
   5
375
 100
AcDbEntity
   8
LEVEL001
 370
13
 100
AcDbLine
   6
CONTINUOUS
  62
1
  10
 2712.7332698666
  20
 4769.1303370787
  30
0.0
  11
 2731.3293886690
  21
 4769.1303370787
  31
0.0
   0
ARC
   5
376
 100
AcDbEntity
   8
LEVEL001
 370
13
   6
CONTINUOUS
  62
1
 100
AcDbCircle
  10
 2712.7332698666
  20
 4779.1303370787
  30
0.0
  40
 10.000000000000
 100
AcDbArc
  50
 253.42053515295
  51
 270.00000000000
   0
ARC
   5
377
 100
AcDbEntity
   8
LEVEL001
 370
13
   6
CONTINUOUS
  62
1
 100
AcDbCircle
  10
 2731.2806870974
  20
 4841.4279559263
  30
0.0
  40
 75.000000000000
 100
AcDbArc
  50
 177.93508589806
  51
 253.42053515295
   0
ARC
   5
378
 100
AcDbEntity
   8
LEVEL001
 370
13
   6
CONTINUOUS
  62
7
 100
AcDbCircle
  10
 4889.5349891554
  20
 4710.7303370787
  30
0.0
  40
 2200.0000000000
 100
AcDbArc
  50
 178.23647305739
  51
 185.69973045140
   0
LINE
   5
379
 100
AcDbEntity
   8
LEVEL001
 370
13
 100
AcDbLine
   6
CONTINUOUS
  62
6
  10
 2710.3622676852
  20
 4769.4154851161
  30
0.0
  11
 2710.3622676852
  21
 4483.2303370787
  31
0.0
   0
LINE
   5
37A
 100
AcDbEntity
   8
LEVEL001
 370
13
 100
AcDbLine
   6
DOT
  62
6
  10
 2710.3622676852
  20
 4938.2303370787
  30
0.0
  11
 2731.3293886690
  21
 4938.2303370787
  31
0.0
   0
ARC
   5
37B
 100
AcDbEntity
   8
LEVEL001
 370
13
   6
DOT
  62
6
 100
AcDbCircle
  10
 2710.3622676852
  20
 4928.2303370787
  30
0.0
  40
 10.000000000000
 100
AcDbArc
  50
 90.000000000003
  51
 174.30026954860
   0
ARC
   5
37C
 100
AcDbEntity
   8
LEVEL001
 370
13
   6
DOT
  62
6
 100
AcDbCircle
  10
 4889.5349891554
  20
 4710.7303370786
  30
0.0
  40
 2200.0000000000
 100
AcDbArc
  50
 174.30026954860
  51
 178.23647305739
   0
LINE
   5
37D
 100
AcDbEntity
   8
LEVEL001
 370
13
 100
AcDbLine
   6
CONTINUOUS
  62
7
  10
 2710.3622676852
  20
 4483.2303370787
  30
0.0
  11
 2731.3293886690
  21
 4483.2303370787
  31
0.0
   0
ARC
   5
37E
 100
AcDbEntity
   8
LEVEL001
 370
13
   6
CONTINUOUS
  62
7
 100
AcDbCircle
  10
 2710.3622676852
  20
 4493.2303370787
  30
0.0
  40
 10.000000000000
 100
AcDbArc
  50
 185.69973045140
  51
 269.99999999999
   0
ARC
   5
37F
 100
AcDbEntity
   8
LEVEL001
 370
13
   6
CONTINUOUS
  62
3
 100
AcDbCircle
  10
 2733.1293886690
  20
 4464.1303370787
  30
0.0
  40
 1.8000000000002
 100
AcDbArc
  50
 179.99999999997
  51
 270.00000000000
   0
ARC
   5
380
 100
AcDbEntity
   8
LEVEL001
 370
13
   6
CONTINUOUS
  62
3
 100
AcDbCircle
  10
 2733.1293886690
  20
 4464.1303370787
  30
0.0
  40
 1.8000000000002
 100
AcDbArc
  50
 269.99999999999
  51
 0.28950115500607E-10
   0
CIRCLE
   5
381
 100
AcDbEntity
   8
LEVEL001
 370
13
 100
AcDbCircle
   6
CONTINUOUS
  62
1
  10
 2854.4382064196
  20
 5160.7303370787
  30
0.0
  40
 69.999997913838
   0
CIRCLE
   5
382
 100
AcDbEntity
   8
LEVEL001
 370
13
 100
AcDbCircle
   6
CONTINUOUS
  62
1
  10
 2994.4382022472
  20
 5160.7303370787
  30
0.0
  40
 69.999997913838
   0
MTEXT
   5
383
 100
AcDbEntity
   8
LEVEL001
 370
13
  62
1
 100
AcDbMText
  10
 2994.4382022472
  20
 5160.7303370787
  30
0.0
  40
 57.142857142858
  41
0.0
  71
5
  72
1
   1
\T1.000000;7
   7
GMM001
  44
 0.79999984000003
   0
MTEXT
   5
384
 100
AcDbEntity
   8
LEVEL001
 370
13
  62
1
 100
AcDbMText
  10
 2854.4382064196
  20
 5160.7303370787
  30
0.0
  40
 57.142857142858
  41
0.0
  71
5
  72
1
   1
\T1.000000;5
   7
GMM001
  44
 0.79999984000003
   0
LINE
   5
385
 100
AcDbEntity
   8
LEVEL001
 370
13
 100
AcDbLine
   6
CONTINUOUS
  62
7
  10
 3232.5882022472
  20
 5066.3303370787
  30
0.0
  11
 3156.2882022472
  21
 5066.3303370787
  31
0.0
   0
LINE
   5
386
 100
AcDbEntity
   8
LEVEL001
 370
13
 100
AcDbLine
   6
CONTINUOUS
  62
7
  10
 3156.2882022472
  20
 5066.3303370787
  30
0.0
  11
 3156.2882022472
  21
 5063.3303370787
  31
0.0
   0
LINE
   5
387
 100
AcDbEntity
   8
LEVEL001
 370
13
 100
AcDbLine
   6
CONTINUOUS
  62
7
  10
 3156.2882022472
  20
 5063.3303370787
  30
0.0
  11
 3232.5882022472
  21
 5063.3303370787
  31
0.0
   0
LINE
   5
388
 100
AcDbEntity
   8
LEVEL001
 370
13
 100
AcDbLine
   6
CONTINUOUS
  62
7
  10
 3232.5882022472
  20
 5063.3303370787
  30
0.0
  11
 3232.5882022472
  21
 5066.3303370787
  31
0.0
   0
LINE
   5
389
 100
AcDbEntity
   8
LEVEL001
 370
13
 100
AcDbLine
   6
DOT
  62
1
  10
 3227.5882022472
  20
 5063.3303370787
  30
0.0
  11
 3227.5882022472
  21
 5036.3303370787
  31
0.0
   0
LINE
   5
38A
 100
AcDbEntity
   8
LEVEL001
 370
13
 100
AcDbLine
   6
DOT
  62
1
  10
 3227.5882022472
  20
 5036.3303370787
  30
0.0
  11
 3161.2882022472
  21
 5036.3303370787
  31
0.0
   0
LINE
   5
38B
 100
AcDbEntity
   8
LEVEL001
 370
13
 100
AcDbLine
   6
DOT
  62
1
  10
 3161.2882022472
  20
 5036.3303370787
  30
0.0
  11
 3161.2882022472
  21
 5063.3303370787
  31
0.0
   0
LINE
   5
38C
 100
AcDbEntity
   8
LEVEL001
 370
13
 100
AcDbLine
   6
DASHDOT
  62
6
  10
 3194.4382022472
  20
 5118.5263813811
  30
0.0
  11
 3194.4382022472
  21
 962.33033707865
  31
0.0
   0
LINE
   5
38D
 100
AcDbEntity
   8
LEVEL001
 370
13
 100
AcDbLine
   6
CONTINUOUS
  62
7
  10
 3232.5882022472
  20
 4800.7303370787
  30
0.0
  11
 3232.5882022472
  21
 5062.3303370787
  31
0.0
   0
LINE
   5
38E
 100
AcDbEntity
   8
LEVEL001
 370
13
 100
AcDbLine
   6
CONTINUOUS
  62
7
  10
 3232.5882022472
  20
 5062.3303370787
  30
0.0
  11
 3156.2882022472
  21
 5062.3303370787
  31
0.0
   0
LINE
   5
38F
 100
AcDbEntity
   8
LEVEL001
 370
13
 100
AcDbLine
   6
CONTINUOUS
  62
7
  10
 3156.2882022472
  20
 5062.3303370787
  30
0.0
  11
 3156.2882022472
  21
 4800.7303370787
  31
0.0
   0
MTEXT
   5
390
 100
AcDbEntity
   8
LEVEL001
 370
13
  62
1
 100
AcDbMText
  10
 3394.4382022472
  20
 5160.7303370787
  30
0.0
  40
 57.142857142858
  41
0.0
  71
5
  72
1
   1
\T1.000000;13
   7
GMM001
  44
 0.79999984000003
   0
CIRCLE
   5
391
 100
AcDbEntity
   8
LEVEL001
 370
13
 100
AcDbCircle
   6
CONTINUOUS
  62
1
  10
 3394.4382022472
  20
 5160.7303370787
  30
0.0
  40
 70.000000000000
   0
MTEXT
   5
392
 100
AcDbEntity
   8
LEVEL001
 370
13
  62
1
 100
AcDbMText
  10
 3194.4382022472
  20
 5510.7303370787
  30
0.0
  40
 57.142857142858
  41
0.0
  71
5
  72
1
   1
\T1.000000;側　面　図
   7
GMM001
  44
 0.79999984000003
   0
MTEXT
   5
394
 100
AcDbEntity
   8
LEVEL001
 370
13
  62
1
 100
AcDbMText
  10
 2815.0868074566
  20
 1971.0602741190
  30
0.0
  40
 40.000000000000
  41
0.0
  71
7
  72
1
   1
\T1.000000;ＧＬ
   7
GMM002
  44
 0.79999984000003
   0
LINE
   5
395
 100
AcDbEntity
   8
LEVEL001
 370
13
 100
AcDbLine
   6
CONTINUOUS
  62
1
  10
 2786.9381370118
  20
 1962.3303370787
  30
0.0
  11
 2761.9381370118
  21
 2012.3303370787
  31
0.0
   0
LINE
   5
396
 100
AcDbEntity
   8
LEVEL001
 370
13
 100
AcDbLine
   6
CONTINUOUS
  62
1
  10
 2761.9381370118
  20
 2012.3303370787
  30
0.0
  11
 2811.9381370118
  21
 2012.3303370787
  31
0.0
   0
LINE
   5
397
 100
AcDbEntity
   8
LEVEL001
 370
13
 100
AcDbLine
   6
CONTINUOUS
  62
1
  10
 2811.9381370118
  20
 2012.3303370787
  30
0.0
  11
 2786.9381370118
  21
 1962.3303370787
  31
0.0
   0
CIRCLE
   5
398
 100
AcDbEntity
   8
LEVEL001
 370
13
 100
AcDbCircle
   6
CONTINUOUS
  62
7
  10
 3194.4381684452
  20
 1462.3303370787
  30
0.0
  40
 7.5000000000000
   0
LINE
   5
399
 100
AcDbEntity
   8
LEVEL001
 370
13
 100
AcDbLine
   6
DASHDOT
  62
6
  10
 3164.4381684452
  20
 1462.3303370787
  30
0.0
  11
 3224.4381684452
  21
 1462.3303370787
  31
0.0
   0
LINE
   5
39A
 100
AcDbEntity
   8
LEVEL001
 370
13
 100
AcDbLine
   6
DASHDOT
  62
6
  10
 3134.4381841616
  20
 1362.3303370787
  30
0.0
  11
 3254.4381841616
  21
 1362.3303370787
  31
0.0
   0
LINE
   5
39B
 100
AcDbEntity
   8
LEVEL001
 370
13
 100
AcDbLine
   6
CONTINUOUS
  62
7
  10
 3156.2882022472
  20
 1369.8303370787
  30
0.0
  11
 3084.4381841616
  21
 1369.8303370787
  31
0.0
   0
LINE
   5
39C
 100
AcDbEntity
   8
LEVEL001
 370
13
 100
AcDbLine
   6
CONTINUOUS
  62
7
  10
 3084.4381841616
  20
 1369.8303370787
  30
0.0
  11
 3084.4381841616
  21
 1354.8303370787
  31
0.0
   0
LINE
   5
39D
 100
AcDbEntity
   8
LEVEL001
 370
13
 100
AcDbLine
   6
CONTINUOUS
  62
7
  10
 3084.4381841616
  20
 1354.8303370787
  30
0.0
  11
 3156.2882022472
  21
 1354.8303370787
  31
0.0
   0
LINE
   5
39E
 100
AcDbEntity
   8
LEVEL001
 370
13
 100
AcDbLine
   6
CONTINUOUS
  62
7
  10
 3232.5882022472
  20
 1369.8303370787
  30
0.0
  11
 3304.4381841616
  21
 1369.8303370787
  31
0.0
   0
LINE
   5
39F
 100
AcDbEntity
   8
LEVEL001
 370
13
 100
AcDbLine
   6
CONTINUOUS
  62
7
  10
 3304.4381841616
  20
 1369.8303370787
  30
0.0
  11
 3304.4381841616
  21
 1354.8303370787
  31
0.0
   0
LINE
   5
3A0
 100
AcDbEntity
   8
LEVEL001
 370
13
 100
AcDbLine
   6
CONTINUOUS
  62
7
  10
 3304.4381841616
  20
 1354.8303370787
  30
0.0
  11
 3232.5882022472
  21
 1354.8303370787
  31
0.0
   0
CIRCLE
   5
3A1
 100
AcDbEntity
   8
LEVEL001
 370
13
 100
AcDbCircle
   6
CONTINUOUS
  62
1
  10
 2819.4382022472
  20
 1212.3303370787
  30
0.0
  40
 70.000000000000
   0
LINE
   5
3A2
 100
AcDbEntity
   8
LEVEL001
 370
13
 100
AcDbLine
   6
DOT
  62
1
  10
 3232.5882022472
  20
 1354.8303370787
  30
0.0
  11
 3156.2882022472
  21
 1354.8303370787
  31
0.0
   0
LINE
   5
3A3
 100
AcDbEntity
   8
LEVEL001
 370
13
 100
AcDbLine
   6
DOT
  62
1
  10
 3156.2882022472
  20
 1369.8303370787
  30
0.0
  11
 3232.5882022472
  21
 1369.8303370787
  31
0.0
   0
MTEXT
   5
3A4
 100
AcDbEntity
   8
LEVEL001
 370
13
  62
1
 100
AcDbMText
  10
 2819.4382022472
  20
 1212.3303370787
  30
0.0
  40
 57.142857142858
  41
0.0
  71
5
  72
1
   1
\T1.000000;12
   7
GMM001
  44
 0.79999984000003
   0
LINE
   5
3A5
 100
AcDbEntity
   8
LEVEL001
 370
13
 100
AcDbLine
   6
CONTINUOUS
  62
6
  10
 5454.4382022472
  20
 2590.7303370787
  30
0.0
  11
 8094.4382022472
  21
 2590.7303370787
  31
0.0
   0
MTEXT
   5
3A6
 100
AcDbEntity
   8
LEVEL001
 370
13
  62
1
 100
AcDbMText
  10
 7334.4382022472
  20
 1690.7303370787
  30
0.0
  40
 51.428571428572
  41
0.0
  71
4
  72
1
   1
\T1.000000;静電粉体塗装
   7
GMM001
  44
 0.79999984000003
   0
MTEXT
   5
3A7
 100
AcDbEntity
   8
LEVEL001
 370
13
  62
1
 100
AcDbMText
  10
 6774.4382022472
  20
 1690.7303370787
  30
0.0
  40
 51.428571428572
  41
0.0
  71
4
  72
1
   1
\T1.000000;ＳＴＫ４００
   7
GMM001
  44
 0.79999984000003
   0
MTEXT
   5
3A8
 100
AcDbEntity
   8
LEVEL001
 370
13
  62
1
 100
AcDbMText
  10
 6706.4382022472
  20
 1690.7303370787
  30
0.0
  40
 51.428571428572
  41
0.0
  71
6
  72
1
   1
\T1.000000;１
   7
GMM001
  44
 0.79999984000003
   0
MTEXT
   5
3A9
 100
AcDbEntity
   8
LEVEL001
 370
13
  62
1
 100
AcDbMText
  10
 7334.4382022472
  20
 1810.7303370787
  30
0.0
  40
 51.428571428572
  41
0.0
  71
4
  72
1
   1
\T1.000000;溶融亜鉛メッキ
   7
GMM001
  44
 0.79999984000003
   0
MTEXT
   5
3AA
 100
AcDbEntity
   8
LEVEL001
 370
13
  62
1
 100
AcDbMText
  10
 6774.4382022472
  20
 1810.7303370787
  30
0.0
  40
 51.428571428572
  41
0.0
  71
4
  72
1
   1
\T1.000000;ＳＳ４００
   7
GMM001
  44
 0.79999984000003
   0
MTEXT
   5
3AB
 100
AcDbEntity
   8
LEVEL001
 370
13
  62
1
 100
AcDbMText
  10
 6706.4382022472
  20
 1810.7303370787
  30
0.0
  40
 51.428571428572
  41
0.0
  71
6
  72
1
   1
\T1.000000;４
   7
GMM001
  44
 0.79999984000003
   0
MTEXT
   5
3AC
 100
AcDbEntity
   8
LEVEL001
 370
13
  62
1
 100
AcDbMText
  10
 7334.4382022472
  20
 1930.7303370787
  30
0.0
  40
 51.428571428572
  41
0.0
  71
4
  72
1
   1
\T1.000000;溶融亜鉛メッキ
   7
GMM001
  44
 0.79999984000003
   0
MTEXT
   5
3AD
 100
AcDbEntity
   8
LEVEL001
 370
13
  62
1
 100
AcDbMText
  10
 7334.4382022472
  20
 2050.7303370787
  30
0.0
  40
 51.428571428572
  41
0.0
  71
4
  72
1
   1
\T1.000000;溶融亜鉛メッキ
   7
GMM001
  44
 0.79999984000003
   0
MTEXT
   5
3AE
 100
AcDbEntity
   8
LEVEL001
 370
13
  62
1
 100
AcDbMText
  10
 7334.4382022472
  20
 2170.7303370787
  30
0.0
  40
 51.428571428572
  41
0.0
  71
4
  72
1
   1
\T1.000000;溶融亜鉛メッキ
   7
GMM001
  44
 0.79999984000003
   0
MTEXT
   5
3AF
 100
AcDbEntity
   8
LEVEL001
 370
13
  62
1
 100
AcDbMText
  10
 6774.4382022472
  20
 1930.7303370787
  30
0.0
  40
 51.428571428572
  41
0.0
  71
4
  72
1
   1
\T1.000000;ＳＳ４００
   7
GMM001
  44
 0.79999984000003
   0
MTEXT
   5
3B0
 100
AcDbEntity
   8
LEVEL001
 370
13
  62
1
 100
AcDbMText
  10
 6774.4382022472
  20
 2050.7303370787
  30
0.0
  40
 51.428571428572
  41
0.0
  71
4
  72
1
   1
\T1.000000;ＳＳ４００
   7
GMM001
  44
 0.79999984000003
   0
MTEXT
   5
3B1
 100
AcDbEntity
   8
LEVEL001
 370
13
  62
1
 100
AcDbMText
  10
 6774.4382022472
  20
 2170.7303370787
  30
0.0
  40
 51.428571428572
  41
0.0
  71
4
  72
1
   1
\T1.000000;ＳＳ４００
   7
GMM001
  44
 0.79999984000003
   0
MTEXT
   5
3B2
 100
AcDbEntity
   8
LEVEL001
 370
13
  62
1
 100
AcDbMText
  10
 6706.4382022472
  20
 1930.7303370787
  30
0.0
  40
 51.428571428572
  41
0.0
  71
6
  72
1
   1
\T1.000000;１
   7
GMM001
  44
 0.79999984000003
   0
MTEXT
   5
3B3
 100
AcDbEntity
   8
LEVEL001
 370
13
  62
1
 100
AcDbMText
  10
 6706.4382022472
  20
 2050.7303370787
  30
0.0
  40
 51.428571428572
  41
0.0
  71
6
  72
1
   1
\T1.000000;８
   7
GMM001
  44
 0.79999984000003
   0
MTEXT
   5
3B4
 100
AcDbEntity
   8
LEVEL001
 370
13
  62
1
 100
AcDbMText
  10
 6706.4382022472
  20
 2170.7303370787
  30
0.0
  40
 51.428571428572
  41
0.0
  71
6
  72
1
   1
\T1.000000;８
   7
GMM001
  44
 0.79999984000003
   0
MTEXT
   5
3B5
 100
AcDbEntity
   8
LEVEL001
 370
13
  62
1
 100
AcDbMText
  10
 5626.4382022472
  20
 1690.7303370787
  30
0.0
  40
 51.428571428572
  41
0.0
  71
6
  72
1
   1
\T1.000000;１１
   7
GMM001
  44
 0.79999984000003
   0
MTEXT
   5
3B6
 100
AcDbEntity
   8
LEVEL001
 370
13
  62
1
 100
AcDbMText
  10
 5694.4382022472
  20
 1690.7303370787
  30
0.0
  40
 51.428571428572
  41
0.0
  71
4
  72
1
   1
\T1.000000;支柱
   7
GMM001
  44
 0.79999984000003
   0
MTEXT
   5
3B7
 100
AcDbEntity
   8
LEVEL001
 370
13
  62
1
 100
AcDbMText
  10
 5694.4382022472
  20
 1810.7303370787
  30
0.0
  40
 51.428571428572
  41
0.0
  71
4
  72
1
   1
\T1.000000;同上ボルトナット
   7
GMM001
  44
 0.79999984000003
   0
MTEXT
   5
3B8
 100
AcDbEntity
   8
LEVEL001
 370
13
  62
1
 100
AcDbMText
  10
 5626.4382022472
  20
 1810.7303370787
  30
0.0
  40
 51.428571428572
  41
0.0
  71
6
  72
1
   1
\T1.000000;１０
   7
GMM001
  44
 0.79999984000003
   0
MTEXT
   5
3B9
 100
AcDbEntity
   8
LEVEL001
 370
13
  62
1
 100
AcDbMText
  10
 5626.4382022472
  20
 1930.7303370787
  30
0.0
  40
 51.428571428572
  41
0.0
  71
6
  72
1
   1
\T1.000000;９
   7
GMM001
  44
 0.79999984000003
   0
MTEXT
   5
3BA
 100
AcDbEntity
   8
LEVEL001
 370
13
  62
1
 100
AcDbMText
  10
 5694.4382022472
  20
 1930.7303370787
  30
0.0
  40
 51.428571428572
  41
0.0
  71
4
  72
1
   1
\T1.000000;二面鏡用取付腕木
   7
GMM001
  44
 0.79999984000003
   0
MTEXT
   5
3BB
 100
AcDbEntity
   8
LEVEL001
 370
13
  62
1
 100
AcDbMText
  10
 5626.4382022472
  20
 2050.7303370787
  30
0.0
  40
 51.428571428572
  41
0.0
  71
6
  72
1
   1
\T1.000000;８
   7
GMM001
  44
 0.79999984000003
   0
MTEXT
   5
3BC
 100
AcDbEntity
   8
LEVEL001
 370
13
  62
1
 100
AcDbMText
  10
 5694.4382022472
  20
 2050.7303370787
  30
0.0
  40
 51.428571428572
  41
0.0
  71
4
  72
1
   1
\T1.000000;金具締付ボルトナット
   7
GMM001
  44
 0.79999984000003
   0
MTEXT
   5
3BD
 100
AcDbEntity
   8
LEVEL001
 370
13
  62
1
 100
AcDbMText
  10
 5626.4382022472
  20
 2170.7303370787
  30
0.0
  40
 51.428571428572
  41
0.0
  71
6
  72
1
   1
\T1.000000;７
   7
GMM001
  44
 0.79999984000003
   0
MTEXT
   5
3BE
 100
AcDbEntity
   8
LEVEL001
 370
13
  62
1
 100
AcDbMText
  10
 5694.4382022472
  20
 2170.7303370787
  30
0.0
  40
 51.428571428572
  41
0.0
  71
4
  72
1
   1
\T1.000000;裏板金具取付ボルト
   7
GMM001
  44
 0.79999984000003
   0
LINE
   5
3BF
 100
AcDbEntity
   8
LEVEL001
 370
13
 100
AcDbLine
   6
CONTINUOUS
  62
6
  10
 5454.4382022472
  20
 1750.7303370787
  30
0.0
  11
 8094.4382022472
  21
 1750.7303370787
  31
0.0
   0
LINE
   5
3C0
 100
AcDbEntity
   8
LEVEL001
 370
13
 100
AcDbLine
   6
CONTINUOUS
  62
6
  10
 5454.4382022472
  20
 1870.7303370787
  30
0.0
  11
 8094.4382022472
  21
 1870.7303370787
  31
0.0
   0
LINE
   5
3C1
 100
AcDbEntity
   8
LEVEL001
 370
13
 100
AcDbLine
   6
CONTINUOUS
  62
6
  10
 5454.4382022472
  20
 1990.7303370787
  30
0.0
  11
 8094.4382022472
  21
 1990.7303370787
  31
0.0
   0
LINE
   5
3C2
 100
AcDbEntity
   8
LEVEL001
 370
13
 100
AcDbLine
   6
CONTINUOUS
  62
6
  10
 5454.4382022472
  20
 2110.7303370787
  30
0.0
  11
 8094.4382022472
  21
 2110.7303370787
  31
0.0
   0
MTEXT
   5
3C3
 100
AcDbEntity
   8
LEVEL001
 370
13
  62
1
 100
AcDbMText
  10
 5694.4382022472
  20
 2290.7303370787
  30
0.0
  40
 51.428571428572
  41
0.0
  71
4
  72
1
   1
\T1.000000;支柱取付金具
   7
GMM001
  44
 0.79999984000003
   0
MTEXT
   5
3C4
 100
AcDbEntity
   8
LEVEL001
 370
13
  62
1
 100
AcDbMText
  10
 5626.4382022472
  20
 2290.7303370787
  30
0.0
  40
 51.428571428572
  41
0.0
  71
6
  72
1
   1
\T1.000000;６
   7
GMM001
  44
 0.79999984000003
   0
MTEXT
   5
3C5
 100
AcDbEntity
   8
LEVEL001
 370
13
  62
1
 100
AcDbMText
  10
 6706.4382022472
  20
 2290.7303370787
  30
0.0
  40
 51.428571428572
  41
0.0
  71
6
  72
1
   1
\T1.000000;２
   7
GMM001
  44
 0.79999984000003
   0
MTEXT
   5
3C6
 100
AcDbEntity
   8
LEVEL001
 370
13
  62
1
 100
AcDbMText
  10
 6774.4382022472
  20
 2290.7303370787
  30
0.0
  40
 51.428571428572
  41
0.0
  71
4
  72
1
   1
\T1.000000;ＳＳ４００
   7
GMM001
  44
 0.79999984000003
   0
MTEXT
   5
3C7
 100
AcDbEntity
   8
LEVEL001
 370
13
  62
1
 100
AcDbMText
  10
 5626.4382022472
  20
 2410.7303370787
  30
0.0
  40
 51.428571428572
  41
0.0
  71
6
  72
1
   1
\T1.000000;５
   7
GMM001
  44
 0.79999984000003
   0
MTEXT
   5
3C8
 100
AcDbEntity
   8
LEVEL001
 370
13
  62
1
 100
AcDbMText
  10
 5694.4382022472
  20
 2410.7303370787
  30
0.0
  40
 51.428571428572
  41
0.0
  71
4
  72
1
   1
\T1.000000;裏板取付金具
   7
GMM001
  44
 0.79999984000003
   0
MTEXT
   5
3C9
 100
AcDbEntity
   8
LEVEL001
 370
13
  62
1
 100
AcDbMText
  10
 5626.4382022472
  20
 2530.7303370787
  30
0.0
  40
 51.428571428572
  41
0.0
  71
6
  72
1
   1
\T1.000000;４
   7
GMM001
  44
 0.79999984000003
   0
MTEXT
   5
3CA
 100
AcDbEntity
   8
LEVEL001
 370
13
  62
1
 100
AcDbMText
  10
 5694.4382022472
  20
 2530.7303370787
  30
0.0
  40
 51.428571428572
  41
0.0
  71
4
  72
1
   1
\T1.000000;リング
   7
GMM001
  44
 0.79999984000003
   0
MTEXT
   5
3CB
 100
AcDbEntity
   8
LEVEL001
 370
13
  62
1
 100
AcDbMText
  10
 5626.4382022472
  20
 2650.7303370787
  30
0.0
  40
 51.428571428572
  41
0.0
  71
6
  72
1
   1
\T1.000000;３
   7
GMM001
  44
 0.79999984000003
   0
MTEXT
   5
3CC
 100
AcDbEntity
   8
LEVEL001
 370
13
  62
1
 100
AcDbMText
  10
 5694.4382022472
  20
 2650.7303370787
  30
0.0
  40
 51.428571428572
  41
0.0
  71
4
  72
1
   1
\T1.000000;フード
   7
GMM001
  44
 0.79999984000003
   0
MTEXT
   5
3CD
 100
AcDbEntity
   8
LEVEL001
 370
13
  62
1
 100
AcDbMText
  10
 5626.4382022472
  20
 2770.7303370787
  30
0.0
  40
 51.428571428572
  41
0.0
  71
6
  72
1
   1
\T1.000000;２
   7
GMM001
  44
 0.79999984000003
   0
MTEXT
   5
3CE
 100
AcDbEntity
   8
LEVEL001
 370
13
  62
1
 100
AcDbMText
  10
 5626.4382022472
  20
 2890.7303370787
  30
0.0
  40
 51.428571428572
  41
0.0
  71
6
  72
1
   1
\T1.000000;１
   7
GMM001
  44
 0.79999984000003
   0
MTEXT
   5
3CF
 100
AcDbEntity
   8
LEVEL001
 370
13
  62
1
 100
AcDbMText
  10
 5694.4382022472
  20
 2770.7303370787
  30
0.0
  40
 51.428571428572
  41
0.0
  71
4
  72
1
   1
\T1.000000;バックプレート
   7
GMM001
  44
 0.79999984000003
   0
MTEXT
   5
3D0
 100
AcDbEntity
   8
LEVEL001
 370
13
  62
1
 100
AcDbMText
  10
 5694.4382022472
  20
 2890.7303370787
  30
0.0
  40
 51.428571428572
  41
0.0
  71
4
  72
1
   1
\T1.000000;鏡面　Ｒ＝２２００
   7
GMM001
  44
 0.79999984000003
   0
MTEXT
   5
3D1
 100
AcDbEntity
   8
LEVEL001
 370
13
  62
1
 100
AcDbMText
  10
 6706.4382022472
  20
 2410.7303370787
  30
0.0
  40
 51.428571428572
  41
0.0
  71
6
  72
1
   1
\T1.000000;２
   7
GMM001
  44
 0.79999984000003
   0
MTEXT
   5
3D2
 100
AcDbEntity
   8
LEVEL001
 370
13
  62
1
 100
AcDbMText
  10
 6706.4382022472
  20
 2530.7303370787
  30
0.0
  40
 51.428571428572
  41
0.0
  71
6
  72
1
   1
\T1.000000;２
   7
GMM001
  44
 0.79999984000003
   0
MTEXT
   5
3D3
 100
AcDbEntity
   8
LEVEL001
 370
13
  62
1
 100
AcDbMText
  10
 6706.4382022472
  20
 2650.7303370787
  30
0.0
  40
 51.428571428572
  41
0.0
  71
6
  72
1
   1
\T1.000000;２
   7
GMM001
  44
 0.79999984000003
   0
MTEXT
   5
3D4
 100
AcDbEntity
   8
LEVEL001
 370
13
  62
1
 100
AcDbMText
  10
 6706.4382022472
  20
 2770.7303370787
  30
0.0
  40
 51.428571428572
  41
0.0
  71
6
  72
1
   1
\T1.000000;２
   7
GMM001
  44
 0.79999984000003
   0
MTEXT
   5
3D5
 100
AcDbEntity
   8
LEVEL001
 370
13
  62
1
 100
AcDbMText
  10
 6706.4382022472
  20
 2890.7303370787
  30
0.0
  40
 51.428571428572
  41
0.0
  71
6
  72
1
   1
\T1.000000;２
   7
GMM001
  44
 0.79999984000003
   0
MTEXT
   5
3D6
 100
AcDbEntity
   8
LEVEL001
 370
13
  62
1
 100
AcDbMText
  10
 6774.4382022472
  20
 2410.7303370787
  30
0.0
  40
 51.428571428572
  41
0.0
  71
4
  72
1
   1
\T1.000000;ＳＳ４００
   7
GMM001
  44
 0.79999984000003
   0
MTEXT
   5
3D7
 100
AcDbEntity
   8
LEVEL001
 370
13
  62
1
 100
AcDbMText
  10
 6774.4382022472
  20
 2530.7303370787
  30
0.0
  40
 51.428571428572
  41
0.0
  71
4
  72
1
   1
\T1.000000;軟質ＰＶＣ
   7
GMM001
  44
 0.79999984000003
   0
MTEXT
   5
3D8
 100
AcDbEntity
   8
LEVEL001
 370
13
  62
1
 100
AcDbMText
  10
 6774.4382022472
  20
 2890.7303370787
  30
0.0
  40
 51.428571428572
  41
0.0
  71
4
  72
1
   1
\T1.000000;ＳＵＳ３０４
   7
GMM001
  44
 0.79999984000003
   0
MTEXT
   5
3D9
 100
AcDbEntity
   8
LEVEL001
 370
13
  62
1
 100
AcDbMText
  10
 7334.4382022472
  20
 2290.7303370787
  30
0.0
  40
 51.428571428572
  41
0.0
  71
4
  72
1
   1
\T1.000000;溶融亜鉛メッキ
   7
GMM001
  44
 0.79999984000003
   0
MTEXT
   5
3DA
 100
AcDbEntity
   8
LEVEL001
 370
13
  62
1
 100
AcDbMText
  10
 7334.4382022472
  20
 2410.7303370787
  30
0.0
  40
 51.428571428572
  41
0.0
  71
4
  72
1
   1
\T1.000000;溶融亜鉛メッキ
   7
GMM001
  44
 0.79999984000003
   0
MTEXT
   5
3DB
 100
AcDbEntity
   8
LEVEL001
 370
13
  62
1
 100
AcDbMText
  10
 7334.4382022472
  20
 2890.7303370787
  30
0.0
  40
 51.428571428572
  41
0.0
  71
4
  72
1
   1
\T1.000000;t=0.9mm\T1.000000;・表面研磨
   7
GMM001
  44
 0.79999984000003
   0
LINE
   5
3DC
 100
AcDbEntity
   8
LEVEL001
 370
13
 100
AcDbLine
   6
CONTINUOUS
  62
6
  10
 5454.4382022472
  20
 2230.7303370787
  30
0.0
  11
 8094.4382022472
  21
 2230.7303370787
  31
0.0
   0
LINE
   5
3DD
 100
AcDbEntity
   8
LEVEL001
 370
13
 100
AcDbLine
   6
CONTINUOUS
  62
6
  10
 5454.4382022472
  20
 2350.7303370787
  30
0.0
  11
 8094.4382022472
  21
 2350.7303370787
  31
0.0
   0
LINE
   5
3DE
 100
AcDbEntity
   8
LEVEL001
 370
13
 100
AcDbLine
   6
CONTINUOUS
  62
6
  10
 5454.4382022472
  20
 2710.7303370787
  30
0.0
  11
 8094.4382022472
  21
 2710.7303370787
  31
0.0
   0
LINE
   5
3DF
 100
AcDbEntity
   8
LEVEL001
 370
13
 100
AcDbLine
   6
CONTINUOUS
  62
6
  10
 5454.4382022472
  20
 2470.7303370787
  30
0.0
  11
 8094.4382022472
  21
 2470.7303370787
  31
0.0
   0
LINE
   5
3E0
 100
AcDbEntity
   8
LEVEL001
 370
13
 100
AcDbLine
   6
CONTINUOUS
  62
6
  10
 5454.4382022472
  20
 2830.7303370787
  30
0.0
  11
 8094.4382022472
  21
 2830.7303370787
  31
0.0
   0
MTEXT
   5
3E1
 100
AcDbEntity
   8
LEVEL001
 370
13
  62
1
 100
AcDbMText
  10
 6094.4382022472
  20
 3030.7303370787
  30
0.0
  40
 51.428571428572
  41
0.0
  71
5
  72
1
   1
\T1.000000;名　　称
   7
GMM001
  44
 0.79999984000003
   0
MTEXT
   5
3E2
 100
AcDbEntity
   8
LEVEL001
 370
13
  62
1
 100
AcDbMText
  10
 6634.4382022472
  20
 3030.7303370787
  30
0.0
  40
 51.428571428572
  41
0.0
  71
5
  72
1
   1
\T1.000000;個数
   7
GMM001
  44
 0.79999984000003
   0
MTEXT
   5
3E3
 100
AcDbEntity
   8
LEVEL001
 370
13
  62
1
 100
AcDbMText
  10
 7014.4382022472
  20
 3030.7303370787
  30
0.0
  40
 51.428571428572
  41
0.0
  71
5
  72
1
   1
\T1.000000;材　　質
   7
GMM001
  44
 0.79999984000003
   0
MTEXT
   5
3E4
 100
AcDbEntity
   8
LEVEL001
 370
13
  62
1
 100
AcDbMText
  10
 7694.4382022472
  20
 3030.7303370787
  30
0.0
  40
 51.428571428572
  41
0.0
  71
5
  72
1
   1
\T1.000000;規格仕様
   7
GMM001
  44
 0.79999984000003
   0
LINE
   5
3E5
 100
AcDbEntity
   8
LEVEL001
 370
13
 100
AcDbLine
   6
CONTINUOUS
  62
2
  10
 5454.4382022472
  20
 3110.7303370787
  30
0.0
  11
 8094.4382022472
  21
 3110.7303370787
  31
0.0
   0
LINE
   5
3E6
 100
AcDbEntity
   8
LEVEL001
 370
13
 100
AcDbLine
   6
CONTINUOUS
  62
2
  10
 5454.4382022472
  20
 2950.7303370787
  30
0.0
  11
 8094.4382022472
  21
 2950.7303370787
  31
0.0
   0
MTEXT
   5
3E7
 100
AcDbEntity
   8
LEVEL001
 370
13
  62
1
 100
AcDbMText
  10
 5554.4382022472
  20
 3190.7303370787
  30
0.0
  40
 57.142857142858
  41
0.0
  71
4
  72
1
   1
\T1.000000;□４５０×６００（ダブル）
   7
GMM001
  44
 0.79999984000003
   0
MTEXT
   5
3E8
 100
AcDbEntity
   8
LEVEL001
 370
13
  62
1
 100
AcDbMText
  10
 6774.4382022472
  20
 2650.7303370787
  30
0.0
  40
 51.428571428572
  41
0.0
  71
4
  72
1
   1
\T1.000000;ＳＵＳ４３０
   7
GMM001
  44
 0.79999984000003
   0
MTEXT
   5
3E9
 100
AcDbEntity
   8
LEVEL001
 370
13
  62
1
 100
AcDbMText
  10
 5554.4382022472
  20
 3350.7303370787
  30
0.0
  40
 57.142857142858
  41
0.0
  71
4
  72
1
   1
\T1.000000;ステンレスミラー　＜Ｚタイプ＞
   7
GMM001
  44
 0.79999984000003
   0
MTEXT
   5
3EA
 100
AcDbEntity
   8
LEVEL001
 370
13
  62
1
 100
AcDbMText
  10
 6774.4382022472
  20
 2770.7303370787
  30
0.0
  40
 51.428571428572
  41
0.0
  71
4
  72
1
   1
\T1.000000;高耐食溶融めっき鋼板
   7
GMM003
  44
 0.79999984000003
   0
LINE
   5
3EB
 100
AcDbEntity
   8
LEVEL001
 370
13
 100
AcDbLine
   6
CONTINUOUS
  62
2
  10
 5454.4382022472
  20
 3430.7303370787
  30
0.0
  11
 8094.4382022472
  21
 3430.7303370787
  31
0.0
   0
POINT
   5
3EC
 100
AcDbEntity
   8
LEVEL001
 100
AcDbPoint
  62
3
  10
 6394.4382022472
  20
 750.73033707865
  30
0.0
   0
POINT
   5
3ED
 100
AcDbEntity
   8
LEVEL001
 100
AcDbPoint
  62
3
  10
 6294.4382022472
  20
 750.73033707865
  30
0.0
   0
POINT
   5
3EE
 100
AcDbEntity
   8
LEVEL001
 100
AcDbPoint
  62
3
  10
 6394.4382022472
  20
 850.73033707865
  30
0.0
   0
LINE
   5
3EF
 100
AcDbEntity
   8
LEVEL001
 370
13
 100
AcDbLine
   6
CONTINUOUS
  62
2
  10
 5454.4382022472
  20
 690.73033707865
  30
0.0
  11
 7134.4382022472
  21
 690.73033707865
  31
0.0
   0
MTEXT
   5
3F0
 100
AcDbEntity
   8
LEVEL001
 370
13
  62
2
 100
AcDbMText
  10
 5464.4382022472
  20
 880.73033707865
  30
0.0
  40
 38.571428571428
  41
0.0
  71
4
  72
1
   1
\T1.370378;図面番号
   7
GMM001
  44
 0.79999984000003
   0
LWPOLYLINE
   5
3F1
 100
AcDbEntity
   8
0
 370
13
   6
CONTINUOUS
  62
6
 100
AcDbPolyline
  90
4
  70
1
  10
 5454.4382022472
  20
 3430.7303370787
  10
 5454.4382022472
  20
 910.73033707865
  10
 8094.4382022472
  20
 910.73033707865
  10
 8094.4382022472
  20
 3430.7303370787
   0
MTEXT
   5
3F2
 100
AcDbEntity
   8
LEVEL001
 370
13
  62
1
 100
AcDbMText
  10
 5694.4382022472
  20
 1210.7303370787
  30
0.0
  40
 51.428571428572
  41
0.0
  71
4
  72
1
   1
\T1.000000;注意板
   7
GMM001
  44
 0.79999984000003
   0
MTEXT
   5
3F3
 100
AcDbEntity
   8
LEVEL001
 370
13
  62
1
 100
AcDbMText
  10
 6294.4382022472
  20
 754.94908707865
  30
0.0
  40
 42.857142857142
  41
0.0
  71
5
  72
1
   1
\T1.000000;ＭＺＨ４５６Ｗ
   7
GMM001
  44
 0.79999984000003
   0
MTEXT
   5
3F4
 100
AcDbEntity
   8
LEVEL001
 370
13
  62
1
 100
AcDbMText
  10
 7337.8501626242
  20
 2824.8540144513
  30
0.0
  40
 34.285714285714
  41
0.0
  71
1
  72
1
   1
{\T1.000000;ＺＡＭ処理鋼板}\P{\T1.000000;プレス成型}
   7
GMM004
  44
 1.0099997980000
   0
LINE
   5
3F5
 100
AcDbEntity
   8
0
 370
13
 100
AcDbLine
   6
CONTINUOUS
  62
6
  10
 7294.4382022472
  20
 3110.7303370787
  30
0.0
  11
 7294.4382022472
  21
 910.73033707865
  31
0.0
   0
LINE
   5
3F6
 100
AcDbEntity
   8
0
 370
13
 100
AcDbLine
   6
CONTINUOUS
  62
6
  10
 6734.4382022472
  20
 3110.7303370787
  30
0.0
  11
 6734.4382022472
  21
 910.73033707865
  31
0.0
   0
MTEXT
   5
3F7
 100
AcDbEntity
   8
0
 370
13
  62
1
 100
AcDbMText
  10
 7335.8197314972
  20
 1576.5904080495
  30
0.0
  40
 34.285720000000
  41
0.0
  71
4
  72
1
   1
{\T1.000000;下地亜鉛メッキ}\P{\T1.000000;＋静電粉体塗装}
   7
GMM004
  44
 0.79999984000003
   0
MTEXT
   5
3F8
 100
AcDbEntity
   8
0
 370
13
  62
1
 100
AcDbMText
  10
 6774.0215933786
  20
 1536.9991868331
  30
0.0
  40
 51.428571428571
  41
0.0
  71
7
  72
1
   1
\T1.000000;ＳＴＫ４００
   7
GMM001
  44
 0.79999984000003
   0
MTEXT
   5
3F9
 100
AcDbEntity
   8
0
 370
13
  62
1
 100
AcDbMText
  10
 6705.4171760012
  20
 1536.9991868331
  30
0.0
  40
 51.428571428571
  41
0.0
  71
9
  72
1
   1
\T1.000000;１
   7
GMM001
  44
 0.79999984000003
   0
LINE
   5
3FA
 100
AcDbEntity
   8
0
 370
13
 100
AcDbLine
   6
CONTINUOUS
  62
6
  10
 6534.4382022472
  20
 3110.7303370787
  30
0.0
  11
 6534.4382022472
  21
 910.73033707865
  31
0.0
   0
LINE
   5
3FB
 100
AcDbEntity
   8
0
 370
13
 100
AcDbLine
   6
CONTINUOUS
  62
6
  10
 5654.4382022472
  20
 3110.7303370787
  30
0.0
  11
 5654.4382022472
  21
 910.73033707865
  31
0.0
   0
LINE
   5
3FC
 100
AcDbEntity
   8
0
 370
13
 100
AcDbLine
   6
CONTINUOUS
  62
6
  10
 6534.4382022472
  20
 1630.7303370787
  30
0.0
  11
 8094.4382022472
  21
 1630.7303370787
  31
0.0
   0
MTEXT
   5
3FD
 100
AcDbEntity
   8
LEVEL001
 370
13
  62
1
 100
AcDbMText
  10
 6706.4382022472
  20
 1090.7303370787
  30
0.0
  40
 51.428571428572
  41
0.0
  71
6
  72
1
   1
\T1.000000;１式
   7
GMM001
  44
 0.79999984000003
   0
MTEXT
   5
3FE
 100
AcDbEntity
   8
LEVEL001
 370
13
  62
1
 100
AcDbMText
  10
 6774.4382022472
  20
 1090.7303370787
  30
0.0
  40
 51.428571428572
  41
0.0
  71
4
  72
1
   1
\T1.000000;―
   7
GMM001
  44
 0.79999984000003
   0
MTEXT
   5
3FF
 100
AcDbEntity
   8
LEVEL001
 370
13
  62
1
 100
AcDbMText
  10
 7334.4382022472
  20
 1090.7303370787
  30
0.0
  40
 51.428571428572
  41
0.0
  71
4
  72
1
   1
\T1.000000;―
   7
GMM001
  44
 0.79999984000003
   0
MTEXT
   5
400
 100
AcDbEntity
   8
LEVEL001
 370
13
  62
1
 100
AcDbMText
  10
 6706.4382022472
  20
 970.73033707865
  30
0.0
  40
 51.428571428572
  41
0.0
  71
6
  72
1
   1
\T1.000000;１式
   7
GMM001
  44
 0.79999984000003
   0
MTEXT
   5
401
 100
AcDbEntity
   8
LEVEL001
 370
13
  62
1
 100
AcDbMText
  10
 6774.4382022472
  20
 970.73033707865
  30
0.0
  40
 51.428571428572
  41
0.0
  71
4
  72
1
   1
\T1.000000;―
   7
GMM001
  44
 0.79999984000003
   0
MTEXT
   5
402
 100
AcDbEntity
   8
LEVEL001
 370
13
  62
1
 100
AcDbMText
  10
 7334.4382022472
  20
 970.73033707865
  30
0.0
  40
 51.428571428572
  41
0.0
  71
4
  72
1
   1
\T1.000000;―
   7
GMM001
  44
 0.79999984000003
   0
MTEXT
   5
403
 100
AcDbEntity
   8
LEVEL001
 370
13
  62
1
 100
AcDbMText
  10
 6774.4382022472
  20
 1210.7303370787
  30
0.0
  40
 51.428571428572
  41
0.0
  71
4
  72
1
   1
\T1.000000;―
   7
GMM001
  44
 0.79999984000003
   0
MTEXT
   5
404
 100
AcDbEntity
   8
LEVEL001
 370
13
  62
1
 100
AcDbMText
  10
 5694.4382022472
  20
 3610.7303370787
  30
0.0
  40
 51.428580000000
  41
0.0
  71
1
  72
1
   1
{\T1.000000;※構成部材は改良のため、変更する場合があります。}\P{\T1.000000;※本図は道路反射鏡ハンドブックに基づいています。}
   7
GMM001
  44
 0.79999984000003
   0
MTEXT
   5
405
 100
AcDbEntity
   8
LEVEL001
 370
13
  62
1
 100
AcDbMText
  10
 1844.4382022472
  20
 2783.7589085073
  30
0.0
  40
 42.857142857142
  41
0.0
  71
1
  72
1
   1
{\T1.000000;支柱}\P%%c{\T1.000000;７６}{\T1.000000;.}{\T1.000000;３×３}{\T1.000000;.}{\T1.000000;２ｔ}\P{\T1.000000;×４０００Ｌ}
   7
GMM001
  44
 0.79999984000003
   0
LINE
   5
406
 100
AcDbEntity
   8
LEVEL001
 370
13
 100
AcDbLine
   6
CONTINUOUS
  62
5
  10
 3505.1183970938
  20
 1962.3303370787
  30
0.0
  11
 3452.6183970938
  21
 1909.8303370787
  31
0.0
   0
LINE
   5
407
 100
AcDbEntity
   8
LEVEL001
 370
13
 100
AcDbLine
   6
CONTINUOUS
  62
5
  10
 3468.5282996700
  20
 1909.8303370787
  30
0.0
  11
 3521.0282996700
  21
 1962.3303370787
  31
0.0
   0
LINE
   5
408
 100
AcDbEntity
   8
LEVEL001
 370
13
 100
AcDbLine
   6
CONTINUOUS
  62
5
  10
 3536.9382022476
  20
 1962.3303370787
  30
0.0
  11
 3484.4382022476
  21
 1909.8303370787
  31
0.0
   0
LINE
   5
409
 100
AcDbEntity
   8
LEVEL001
 370
13
 100
AcDbLine
   6
CONTINUOUS
  62
5
  10
 3500.3481048236
  20
 1909.8303370787
  30
0.0
  11
 3552.8481048236
  21
 1962.3303370787
  31
0.0
   0
LINE
   5
40A
 100
AcDbEntity
   8
LEVEL001
 370
13
 100
AcDbLine
   6
CONTINUOUS
  62
5
  10
 3557.6183970942
  20
 1909.8303370787
  30
0.0
  11
 3528.9832509588
  21
 1938.4654832140
  31
0.0
   0
LINE
   5
40B
 100
AcDbEntity
   8
LEVEL001
 370
13
 100
AcDbLine
   6
CONTINUOUS
  62
5
  10
 3536.9382022470
  20
 1946.4204345022
  30
0.0
  11
 3573.5282996706
  21
 1909.8303370787
  31
0.0
   0
LINE
   5
40C
 100
AcDbEntity
   8
LEVEL001
 370
13
 100
AcDbLine
   6
CONTINUOUS
  62
5
  10
 3589.4382022470
  20
 1909.8303370787
  30
0.0
  11
 3544.8931535352
  21
 1954.3753857904
  31
0.0
   0
LINE
   5
40D
 100
AcDbEntity
   8
LEVEL001
 370
13
 100
AcDbLine
   6
CONTINUOUS
  62
5
  10
 3552.8481048236
  20
 1962.3303370787
  30
0.0
  11
 3605.3481048238
  21
 1909.8303370787
  31
0.0
   0
LINE
   5
40E
 100
AcDbEntity
   8
LEVEL001
 370
13
 100
AcDbLine
   6
CONTINUOUS
  62
5
  10
 3605.3481048238
  20
 1909.8303370787
  30
0.0
  11
 3657.8481048238
  21
 1962.3303370787
  31
0.0
   0
LINE
   5
40F
 100
AcDbEntity
   8
LEVEL001
 370
13
 100
AcDbLine
   6
CONTINUOUS
  62
5
  10
 3610.1183970940
  20
 1962.3303370787
  30
0.0
  11
 3581.4832509588
  21
 1933.6951909435
  31
0.0
   0
LINE
   5
410
 100
AcDbEntity
   8
LEVEL001
 370
13
 100
AcDbLine
   6
CONTINUOUS
  62
5
  10
 3589.4382022470
  20
 1925.7402396555
  30
0.0
  11
 3626.0282996702
  21
 1962.3303370787
  31
0.0
   0
LINE
   5
411
 100
AcDbEntity
   8
LEVEL001
 370
13
 100
AcDbLine
   6
CONTINUOUS
  62
5
  10
 3641.9382022478
  20
 1962.3303370787
  30
0.0
  11
 3597.3931535358
  21
 1917.7852883667
  31
0.0
   0
LINE
   5
412
 100
AcDbEntity
   8
LEVEL001
 370
13
 100
AcDbLine
   6
CONTINUOUS
  62
5
  10
 3662.6183970944
  20
 1909.8303370787
  30
0.0
  11
 3633.9832509590
  21
 1938.4654832140
  31
0.0
   0
LINE
   5
413
 100
AcDbEntity
   8
LEVEL001
 370
13
 100
AcDbLine
   6
CONTINUOUS
  62
5
  10
 3641.9382022472
  20
 1946.4204345022
  30
0.0
  11
 3678.5282996708
  21
 1909.8303370787
  31
0.0
   0
LINE
   5
414
 100
AcDbEntity
   8
LEVEL001
 370
13
 100
AcDbLine
   6
CONTINUOUS
  62
5
  10
 3694.4382022472
  20
 1909.8303370787
  30
0.0
  11
 3649.8931535354
  21
 1954.3753857904
  31
0.0
   0
LINE
   5
415
 100
AcDbEntity
   8
LEVEL001
 370
13
 100
AcDbLine
   6
CONTINUOUS
  62
5
  10
 3657.8481048238
  20
 1962.3303370787
  30
0.0
  11
 3694.4382022472
  21
 1925.7402396553
  31
0.0
   0
LINE
   5
416
 100
AcDbEntity
   8
LEVEL001
 370
13
 100
AcDbLine
   6
CONTINUOUS
  62
5
  10
 3232.5882022472
  20
 1962.3303370787
  30
0.0
  11
 3694.4382022472
  21
 1962.3303370787
  31
0.0
   0
LINE
   5
417
 100
AcDbEntity
   8
LEVEL001
 370
13
 100
AcDbLine
   6
CONTINUOUS
  62
5
  10
 3444.4382022472
  20
 1062.3303370787
  30
0.0
  11
 3444.4382022472
  21
 1962.3303370787
  31
0.0
   0
LINE
   5
418
 100
AcDbEntity
   8
LEVEL001
 370
13
 100
AcDbLine
   6
CONTINUOUS
  62
5
  10
 3444.4382022472
  20
 1785.8356761380
  30
0.0
  11
 3232.5882022472
  21
 1573.9856761380
  31
0.0
   0
LINE
   5
419
 100
AcDbEntity
   8
LEVEL001
 370
13
 100
AcDbLine
   6
CONTINUOUS
  62
5
  10
 3232.5882022472
  20
 1538.6303370787
  30
0.0
  11
 3444.4382022472
  21
 1750.4803370787
  31
0.0
   0
LINE
   5
41A
 100
AcDbEntity
   8
LEVEL001
 370
13
 100
AcDbLine
   6
CONTINUOUS
  62
5
  10
 3444.4382022472
  20
 1715.1249980193
  30
0.0
  11
 3232.5882022472
  21
 1503.2749980193
  31
0.0
   0
LINE
   5
41B
 100
AcDbEntity
   8
LEVEL001
 370
13
 100
AcDbLine
   6
CONTINUOUS
  62
5
  10
 3444.4382022472
  20
 1062.3303370787
  30
0.0
  11
 3394.4382022472
  21
 962.33033707865
  31
0.0
   0
LINE
   5
41C
 100
AcDbEntity
   8
LEVEL001
 370
13
 100
AcDbLine
   6
CONTINUOUS
  62
5
  10
 3394.4382022472
  20
 1062.3303370787
  30
0.0
  11
 3434.4382022472
  21
 1042.3303370787
  31
0.0
   0
LINE
   5
41D
 100
AcDbEntity
   8
LEVEL001
 370
13
 100
AcDbLine
   6
CONTINUOUS
  62
5
  10
 3394.4382022472
  20
 1062.3303370787
  30
0.0
  11
 3344.4382022472
  21
 962.33033707865
  31
0.0
   0
LINE
   5
41E
 100
AcDbEntity
   8
LEVEL001
 370
13
 100
AcDbLine
   6
CONTINUOUS
  62
5
  10
 3344.4382022472
  20
 1062.3303370787
  30
0.0
  11
 3384.4382022472
  21
 1042.3303370787
  31
0.0
   0
LINE
   5
41F
 100
AcDbEntity
   8
LEVEL001
 370
13
 100
AcDbLine
   6
CONTINUOUS
  62
5
  10
 3344.4382022472
  20
 1062.3303370787
  30
0.0
  11
 3294.4382022472
  21
 962.33033707865
  31
0.0
   0
LINE
   5
420
 100
AcDbEntity
   8
LEVEL001
 370
13
 100
AcDbLine
   6
CONTINUOUS
  62
5
  10
 3294.4382022472
  20
 1062.3303370787
  30
0.0
  11
 3334.4382022472
  21
 1042.3303370787
  31
0.0
   0
LINE
   5
421
 100
AcDbEntity
   8
LEVEL001
 370
13
 100
AcDbLine
   6
CONTINUOUS
  62
5
  10
 3444.4382022472
  20
 962.33033707865
  30
0.0
  11
 3404.4382022472
  21
 982.33033707865
  31
0.0
   0
LINE
   5
422
 100
AcDbEntity
   8
LEVEL001
 370
13
 100
AcDbLine
   6
CONTINUOUS
  62
5
  10
 3394.4382022472
  20
 962.33033707865
  30
0.0
  11
 3354.4382022472
  21
 982.33033707865
  31
0.0
   0
LINE
   5
423
 100
AcDbEntity
   8
LEVEL001
 370
13
 100
AcDbLine
   6
CONTINUOUS
  62
5
  10
 3344.4382022472
  20
 962.33033707865
  30
0.0
  11
 3304.4382022472
  21
 982.33033707865
  31
0.0
   0
LINE
   5
424
 100
AcDbEntity
   8
LEVEL001
 370
13
 100
AcDbLine
   6
CONTINUOUS
  62
5
  10
 3444.4382022472
  20
 1062.3303370787
  30
0.0
  11
 2944.4382022472
  21
 1062.3303370787
  31
0.0
   0
LINE
   5
425
 100
AcDbEntity
   8
LEVEL001
 370
13
 100
AcDbLine
   6
CONTINUOUS
  62
5
  10
 2944.4382022472
  20
 962.33033707865
  30
0.0
  11
 3444.4382022472
  21
 962.33033707865
  31
0.0
   0
LINE
   5
426
 100
AcDbEntity
   8
LEVEL001
 370
13
 100
AcDbLine
   6
CONTINUOUS
  62
5
  10
 3444.4382022472
  20
 962.33033707865
  30
0.0
  11
 3444.4382022472
  21
 1062.3303370787
  31
0.0
   0
LINE
   5
427
 100
AcDbEntity
   8
LEVEL001
 370
13
 100
AcDbLine
   6
CONTINUOUS
  62
5
  10
 2944.4382022472
  20
 1062.3303370787
  30
0.0
  11
 3444.4382022472
  21
 1062.3303370787
  31
0.0
   0
LINE
   5
428
 100
AcDbEntity
   8
LEVEL001
 370
13
 100
AcDbLine
   6
CONTINUOUS
  62
5
  10
 3094.4382022472
  20
 1062.3303370787
  30
0.0
  11
 3044.4382022472
  21
 962.33033707865
  31
0.0
   0
LINE
   5
429
 100
AcDbEntity
   8
LEVEL001
 370
13
 100
AcDbLine
   6
CONTINUOUS
  62
5
  10
 3044.4382022472
  20
 1062.3303370787
  30
0.0
  11
 3084.4382022472
  21
 1042.3303370787
  31
0.0
   0
LINE
   5
42A
 100
AcDbEntity
   8
LEVEL001
 370
13
 100
AcDbLine
   6
CONTINUOUS
  62
5
  10
 3044.4382022472
  20
 1062.3303370787
  30
0.0
  11
 2994.4382022472
  21
 962.33033707865
  31
0.0
   0
LINE
   5
42B
 100
AcDbEntity
   8
LEVEL001
 370
13
 100
AcDbLine
   6
CONTINUOUS
  62
5
  10
 2994.4382022472
  20
 1062.3303370787
  30
0.0
  11
 3034.4382022472
  21
 1042.3303370787
  31
0.0
   0
LINE
   5
42C
 100
AcDbEntity
   8
LEVEL001
 370
13
 100
AcDbLine
   6
CONTINUOUS
  62
5
  10
 2994.4382022472
  20
 1062.3303370787
  30
0.0
  11
 2944.4382022472
  21
 962.33033707865
  31
0.0
   0
LINE
   5
42D
 100
AcDbEntity
   8
LEVEL001
 370
13
 100
AcDbLine
   6
CONTINUOUS
  62
5
  10
 2944.4382022472
  20
 1062.3303370787
  30
0.0
  11
 2984.4382022472
  21
 1042.3303370787
  31
0.0
   0
LINE
   5
42E
 100
AcDbEntity
   8
LEVEL001
 370
13
 100
AcDbLine
   6
CONTINUOUS
  62
5
  10
 3094.4382022472
  20
 962.33033707865
  30
0.0
  11
 3054.4382022472
  21
 982.33033707865
  31
0.0
   0
LINE
   5
42F
 100
AcDbEntity
   8
LEVEL001
 370
13
 100
AcDbLine
   6
CONTINUOUS
  62
5
  10
 3044.4382022472
  20
 962.33033707865
  30
0.0
  11
 3004.4382022472
  21
 982.33033707865
  31
0.0
   0
LINE
   5
430
 100
AcDbEntity
   8
LEVEL001
 370
13
 100
AcDbLine
   6
CONTINUOUS
  62
5
  10
 2994.4382022472
  20
 962.33033707865
  30
0.0
  11
 2954.4382022472
  21
 982.33033707865
  31
0.0
   0
LINE
   5
431
 100
AcDbEntity
   8
LEVEL001
 370
13
 100
AcDbLine
   6
CONTINUOUS
  62
5
  10
 2944.4382022472
  20
 1062.3303370787
  30
0.0
  11
 2944.4382022472
  21
 962.33033707865
  31
0.0
   0
LINE
   5
432
 100
AcDbEntity
   8
LEVEL001
 370
13
 100
AcDbLine
   6
CONTINUOUS
  62
5
  10
 2944.4382022472
  20
 1962.3303370787
  30
0.0
  11
 2944.4382022472
  21
 1062.3303370787
  31
0.0
   0
LINE
   5
433
 100
AcDbEntity
   8
LEVEL001
 370
13
 100
AcDbLine
   6
CONTINUOUS
  62
5
  10
 2944.4382022472
  20
 1250.4803370787
  30
0.0
  11
 3156.2882022472
  21
 1462.3303370787
  31
0.0
   0
LINE
   5
434
 100
AcDbEntity
   8
LEVEL001
 370
13
 100
AcDbLine
   6
CONTINUOUS
  62
5
  10
 3156.2882022472
  20
 1426.9749980193
  30
0.0
  11
 2944.4382022472
  21
 1215.1249980193
  31
0.0
   0
LINE
   5
435
 100
AcDbEntity
   8
LEVEL001
 370
13
 100
AcDbLine
   6
CONTINUOUS
  62
5
  10
 3156.2882022472
  20
 1497.6856761380
  30
0.0
  11
 2944.4382022472
  21
 1285.8356761380
  31
0.0
   0
LINE
   5
436
 100
AcDbEntity
   8
LEVEL001
 370
13
 100
AcDbLine
   6
CONTINUOUS
  62
5
  10
 2855.3481048238
  20
 1909.8303370787
  30
0.0
  11
 2907.8481048238
  21
 1962.3303370787
  31
0.0
   0
LINE
   5
437
 100
AcDbEntity
   8
LEVEL001
 370
13
 100
AcDbLine
   6
CONTINUOUS
  62
5
  10
 2839.4382022470
  20
 1925.7402396555
  30
0.0
  11
 2876.0282996702
  21
 1962.3303370787
  31
0.0
   0
LINE
   5
438
 100
AcDbEntity
   8
LEVEL001
 370
13
 100
AcDbLine
   6
CONTINUOUS
  62
5
  10
 2891.9382022478
  20
 1962.3303370787
  30
0.0
  11
 2847.3931535358
  21
 1917.7852883667
  31
0.0
   0
LINE
   5
439
 100
AcDbEntity
   8
LEVEL001
 370
13
 100
AcDbLine
   6
CONTINUOUS
  62
5
  10
 2912.6183970944
  20
 1909.8303370787
  30
0.0
  11
 2883.9832509590
  21
 1938.4654832140
  31
0.0
   0
LINE
   5
43A
 100
AcDbEntity
   8
LEVEL001
 370
13
 100
AcDbLine
   6
CONTINUOUS
  62
5
  10
 2891.9382022472
  20
 1946.4204345022
  30
0.0
  11
 2928.5282996708
  21
 1909.8303370787
  31
0.0
   0
LINE
   5
43B
 100
AcDbEntity
   8
LEVEL001
 370
13
 100
AcDbLine
   6
CONTINUOUS
  62
5
  10
 2944.4382022472
  20
 1909.8303370787
  30
0.0
  11
 2899.8931535354
  21
 1954.3753857904
  31
0.0
   0
LINE
   5
43C
 100
AcDbEntity
   8
LEVEL001
 370
13
 100
AcDbLine
   6
CONTINUOUS
  62
5
  10
 2755.1183970938
  20
 1962.3303370787
  30
0.0
  11
 2702.6183970938
  21
 1909.8303370787
  31
0.0
   0
LINE
   5
43D
 100
AcDbEntity
   8
LEVEL001
 370
13
 100
AcDbLine
   6
CONTINUOUS
  62
5
  10
 2718.5282996700
  20
 1909.8303370787
  30
0.0
  11
 2771.0282996700
  21
 1962.3303370787
  31
0.0
   0
LINE
   5
43E
 100
AcDbEntity
   8
LEVEL001
 370
13
 100
AcDbLine
   6
CONTINUOUS
  62
5
  10
 2786.9382022476
  20
 1962.3303370787
  30
0.0
  11
 2734.4382022476
  21
 1909.8303370787
  31
0.0
   0
LINE
   5
43F
 100
AcDbEntity
   8
LEVEL001
 370
13
 100
AcDbLine
   6
CONTINUOUS
  62
5
  10
 2750.3481048236
  20
 1909.8303370787
  30
0.0
  11
 2802.8481048236
  21
 1962.3303370787
  31
0.0
   0
LINE
   5
440
 100
AcDbEntity
   8
LEVEL001
 370
13
 100
AcDbLine
   6
CONTINUOUS
  62
5
  10
 2807.6183970942
  20
 1909.8303370787
  30
0.0
  11
 2778.9832509588
  21
 1938.4654832140
  31
0.0
   0
LINE
   5
441
 100
AcDbEntity
   8
LEVEL001
 370
13
 100
AcDbLine
   6
CONTINUOUS
  62
5
  10
 2786.9382022470
  20
 1946.4204345022
  30
0.0
  11
 2823.5282996706
  21
 1909.8303370787
  31
0.0
   0
LINE
   5
442
 100
AcDbEntity
   8
LEVEL001
 370
13
 100
AcDbLine
   6
CONTINUOUS
  62
5
  10
 2839.4382022470
  20
 1909.8303370787
  30
0.0
  11
 2794.8931535352
  21
 1954.3753857904
  31
0.0
   0
LINE
   5
443
 100
AcDbEntity
   8
LEVEL001
 370
13
 100
AcDbLine
   6
CONTINUOUS
  62
5
  10
 2802.8481048236
  20
 1962.3303370787
  30
0.0
  11
 2855.3481048238
  21
 1909.8303370787
  31
0.0
   0
LINE
   5
444
 100
AcDbEntity
   8
LEVEL001
 370
13
 100
AcDbLine
   6
CONTINUOUS
  62
5
  10
 2860.1183970940
  20
 1962.3303370787
  30
0.0
  11
 2831.4832509588
  21
 1933.6951909435
  31
0.0
   0
LINE
   5
445
 100
AcDbEntity
   8
LEVEL001
 370
13
 100
AcDbLine
   6
CONTINUOUS
  62
5
  10
 2907.8481048238
  20
 1962.3303370787
  30
0.0
  11
 2944.4382022472
  21
 1925.7402396553
  31
0.0
   0
LINE
   5
446
 100
AcDbEntity
   8
LEVEL001
 370
13
 100
AcDbLine
   6
CONTINUOUS
  62
5
  10
 3156.2882022472
  20
 1962.3303370787
  30
0.0
  11
 2694.4382022472
  21
 1962.3303370787
  31
0.0
   0
LINE
   5
447
 100
AcDbEntity
   8
LEVEL001
 370
13
 100
AcDbLine
   6
CONTINUOUS
  62
5
  10
 1805.1183970939
  20
 1962.3303370787
  30
0.0
  11
 1752.6183970939
  21
 1909.8303370787
  31
0.0
   0
LINE
   5
448
 100
AcDbEntity
   8
LEVEL001
 370
13
 100
AcDbLine
   6
CONTINUOUS
  62
5
  10
 1768.5282996699
  20
 1909.8303370787
  30
0.0
  11
 1821.0282996699
  21
 1962.3303370787
  31
0.0
   0
LINE
   5
449
 100
AcDbEntity
   8
LEVEL001
 370
13
 100
AcDbLine
   6
CONTINUOUS
  62
5
  10
 1836.9382022475
  20
 1962.3303370787
  30
0.0
  11
 1784.4382022475
  21
 1909.8303370787
  31
0.0
   0
LINE
   5
44A
 100
AcDbEntity
   8
LEVEL001
 370
13
 100
AcDbLine
   6
CONTINUOUS
  62
5
  10
 1800.3481048236
  20
 1909.8303370787
  30
0.0
  11
 1852.8481048236
  21
 1962.3303370787
  31
0.0
   0
LINE
   5
44B
 100
AcDbEntity
   8
LEVEL001
 370
13
 100
AcDbLine
   6
CONTINUOUS
  62
5
  10
 1857.6183970942
  20
 1909.8303370787
  30
0.0
  11
 1828.9832509589
  21
 1938.4654832140
  31
0.0
   0
LINE
   5
44C
 100
AcDbEntity
   8
LEVEL001
 370
13
 100
AcDbLine
   6
CONTINUOUS
  62
5
  10
 1836.9382022471
  20
 1946.4204345022
  30
0.0
  11
 1873.5282996706
  21
 1909.8303370787
  31
0.0
   0
LINE
   5
44D
 100
AcDbEntity
   8
LEVEL001
 370
13
 100
AcDbLine
   6
CONTINUOUS
  62
5
  10
 1889.4382022470
  20
 1909.8303370787
  30
0.0
  11
 1844.8931535353
  21
 1954.3753857904
  31
0.0
   0
LINE
   5
44E
 100
AcDbEntity
   8
LEVEL001
 370
13
 100
AcDbLine
   6
CONTINUOUS
  62
5
  10
 1852.8481048236
  20
 1962.3303370787
  30
0.0
  11
 1905.3481048238
  21
 1909.8303370787
  31
0.0
   0
LINE
   5
44F
 100
AcDbEntity
   8
LEVEL001
 370
13
 100
AcDbLine
   6
CONTINUOUS
  62
5
  10
 1905.3481048238
  20
 1909.8303370787
  30
0.0
  11
 1957.8481048238
  21
 1962.3303370787
  31
0.0
   0
LINE
   5
450
 100
AcDbEntity
   8
LEVEL001
 370
13
 100
AcDbLine
   6
CONTINUOUS
  62
5
  10
 1910.1183970941
  20
 1962.3303370787
  30
0.0
  11
 1881.4832509589
  21
 1933.6951909435
  31
0.0
   0
LINE
   5
451
 100
AcDbEntity
   8
LEVEL001
 370
13
 100
AcDbLine
   6
CONTINUOUS
  62
5
  10
 1889.4382022469
  20
 1925.7402396555
  30
0.0
  11
 1926.0282996702
  21
 1962.3303370787
  31
0.0
   0
LINE
   5
452
 100
AcDbEntity
   8
LEVEL001
 370
13
 100
AcDbLine
   6
CONTINUOUS
  62
5
  10
 1941.9382022478
  20
 1962.3303370787
  30
0.0
  11
 1897.3931535357
  21
 1917.7852883667
  31
0.0
   0
LINE
   5
453
 100
AcDbEntity
   8
LEVEL001
 370
13
 100
AcDbLine
   6
CONTINUOUS
  62
5
  10
 1962.6183970944
  20
 1909.8303370787
  30
0.0
  11
 1933.9832509590
  21
 1938.4654832140
  31
0.0
   0
LINE
   5
454
 100
AcDbEntity
   8
LEVEL001
 370
13
 100
AcDbLine
   6
CONTINUOUS
  62
5
  10
 1941.9382022472
  20
 1946.4204345022
  30
0.0
  11
 1978.5282996708
  21
 1909.8303370787
  31
0.0
   0
LINE
   5
455
 100
AcDbEntity
   8
LEVEL001
 370
13
 100
AcDbLine
   6
CONTINUOUS
  62
5
  10
 1994.4382022472
  20
 1909.8303370787
  30
0.0
  11
 1949.8931535354
  21
 1954.3753857904
  31
0.0
   0
LINE
   5
456
 100
AcDbEntity
   8
LEVEL001
 370
13
 100
AcDbLine
   6
CONTINUOUS
  62
5
  10
 1957.8481048238
  20
 1962.3303370787
  30
0.0
  11
 1994.4382022472
  21
 1925.7402396553
  31
0.0
   0
LINE
   5
457
 100
AcDbEntity
   8
LEVEL001
 370
13
 100
AcDbLine
   6
CONTINUOUS
  62
5
  10
 1532.5882022472
  20
 1962.3303370787
  30
0.0
  11
 1994.4382022472
  21
 1962.3303370787
  31
0.0
   0
LINE
   5
458
 100
AcDbEntity
   8
LEVEL001
 370
13
 100
AcDbLine
   6
CONTINUOUS
  62
5
  10
 1744.4382022472
  20
 1062.3303370787
  30
0.0
  11
 1744.4382022472
  21
 1962.3303370787
  31
0.0
   0
LINE
   5
459
 100
AcDbEntity
   8
LEVEL001
 370
13
 100
AcDbLine
   6
CONTINUOUS
  62
5
  10
 1744.4382022472
  20
 1785.8356761380
  30
0.0
  11
 1532.5882022472
  21
 1573.9856761380
  31
0.0
   0
LINE
   5
45A
 100
AcDbEntity
   8
LEVEL001
 370
13
 100
AcDbLine
   6
CONTINUOUS
  62
5
  10
 1532.5882022472
  20
 1538.6303370787
  30
0.0
  11
 1744.4382022472
  21
 1750.4803370787
  31
0.0
   0
LINE
   5
45B
 100
AcDbEntity
   8
LEVEL001
 370
13
 100
AcDbLine
   6
CONTINUOUS
  62
5
  10
 1744.4382022472
  20
 1715.1249980193
  30
0.0
  11
 1532.5882022472
  21
 1503.2749980193
  31
0.0
   0
LINE
   5
45C
 100
AcDbEntity
   8
LEVEL001
 370
13
 100
AcDbLine
   6
CONTINUOUS
  62
5
  10
 1744.4382022472
  20
 1062.3303370787
  30
0.0
  11
 1694.4382022472
  21
 962.33033707865
  31
0.0
   0
LINE
   5
45D
 100
AcDbEntity
   8
LEVEL001
 370
13
 100
AcDbLine
   6
CONTINUOUS
  62
5
  10
 1694.4382022472
  20
 1062.3303370787
  30
0.0
  11
 1734.4382022472
  21
 1042.3303370787
  31
0.0
   0
LINE
   5
45E
 100
AcDbEntity
   8
LEVEL001
 370
13
 100
AcDbLine
   6
CONTINUOUS
  62
5
  10
 1694.4382022472
  20
 1062.3303370787
  30
0.0
  11
 1644.4382022472
  21
 962.33033707865
  31
0.0
   0
LINE
   5
45F
 100
AcDbEntity
   8
LEVEL001
 370
13
 100
AcDbLine
   6
CONTINUOUS
  62
5
  10
 1644.4382022472
  20
 1062.3303370787
  30
0.0
  11
 1684.4382022472
  21
 1042.3303370787
  31
0.0
   0
LINE
   5
460
 100
AcDbEntity
   8
LEVEL001
 370
13
 100
AcDbLine
   6
CONTINUOUS
  62
5
  10
 1644.4382022472
  20
 1062.3303370787
  30
0.0
  11
 1594.4382022472
  21
 962.33033707865
  31
0.0
   0
LINE
   5
461
 100
AcDbEntity
   8
LEVEL001
 370
13
 100
AcDbLine
   6
CONTINUOUS
  62
5
  10
 1594.4382022472
  20
 1062.3303370787
  30
0.0
  11
 1634.4382022472
  21
 1042.3303370787
  31
0.0
   0
LINE
   5
462
 100
AcDbEntity
   8
LEVEL001
 370
13
 100
AcDbLine
   6
CONTINUOUS
  62
5
  10
 1744.4382022472
  20
 962.33033707865
  30
0.0
  11
 1704.4382022472
  21
 982.33033707865
  31
0.0
   0
LINE
   5
463
 100
AcDbEntity
   8
LEVEL001
 370
13
 100
AcDbLine
   6
CONTINUOUS
  62
5
  10
 1694.4382022472
  20
 962.33033707865
  30
0.0
  11
 1654.4382022472
  21
 982.33033707865
  31
0.0
   0
LINE
   5
464
 100
AcDbEntity
   8
LEVEL001
 370
13
 100
AcDbLine
   6
CONTINUOUS
  62
5
  10
 1644.4382022472
  20
 962.33033707865
  30
0.0
  11
 1604.4382022472
  21
 982.33033707865
  31
0.0
   0
LINE
   5
465
 100
AcDbEntity
   8
LEVEL001
 370
13
 100
AcDbLine
   6
CONTINUOUS
  62
5
  10
 1744.4382022472
  20
 1062.3303370787
  30
0.0
  11
 1244.4382022472
  21
 1062.3303370787
  31
0.0
   0
LINE
   5
466
 100
AcDbEntity
   8
LEVEL001
 370
13
 100
AcDbLine
   6
CONTINUOUS
  62
5
  10
 1244.4382022472
  20
 962.33033707865
  30
0.0
  11
 1744.4382022472
  21
 962.33033707865
  31
0.0
   0
LINE
   5
467
 100
AcDbEntity
   8
LEVEL001
 370
13
 100
AcDbLine
   6
CONTINUOUS
  62
5
  10
 1744.4382022472
  20
 962.33033707865
  30
0.0
  11
 1744.4382022472
  21
 1062.3303370787
  31
0.0
   0
LINE
   5
468
 100
AcDbEntity
   8
LEVEL001
 370
13
 100
AcDbLine
   6
CONTINUOUS
  62
5
  10
 1244.4382022472
  20
 1062.3303370787
  30
0.0
  11
 1744.4382022472
  21
 1062.3303370787
  31
0.0
   0
LINE
   5
469
 100
AcDbEntity
   8
LEVEL001
 370
13
 100
AcDbLine
   6
CONTINUOUS
  62
5
  10
 1394.4382022472
  20
 1062.3303370787
  30
0.0
  11
 1344.4382022472
  21
 962.33033707865
  31
0.0
   0
LINE
   5
46A
 100
AcDbEntity
   8
LEVEL001
 370
13
 100
AcDbLine
   6
CONTINUOUS
  62
5
  10
 1344.4382022472
  20
 1062.3303370787
  30
0.0
  11
 1384.4382022472
  21
 1042.3303370787
  31
0.0
   0
LINE
   5
46B
 100
AcDbEntity
   8
LEVEL001
 370
13
 100
AcDbLine
   6
CONTINUOUS
  62
5
  10
 1344.4382022472
  20
 1062.3303370787
  30
0.0
  11
 1294.4382022472
  21
 962.33033707865
  31
0.0
   0
LINE
   5
46C
 100
AcDbEntity
   8
LEVEL001
 370
13
 100
AcDbLine
   6
CONTINUOUS
  62
5
  10
 1294.4382022472
  20
 1062.3303370787
  30
0.0
  11
 1334.4382022472
  21
 1042.3303370787
  31
0.0
   0
LINE
   5
46D
 100
AcDbEntity
   8
LEVEL001
 370
13
 100
AcDbLine
   6
CONTINUOUS
  62
5
  10
 1294.4382022472
  20
 1062.3303370787
  30
0.0
  11
 1244.4382022472
  21
 962.33033707865
  31
0.0
   0
LINE
   5
46E
 100
AcDbEntity
   8
LEVEL001
 370
13
 100
AcDbLine
   6
CONTINUOUS
  62
5
  10
 1244.4382022472
  20
 1062.3303370787
  30
0.0
  11
 1284.4382022472
  21
 1042.3303370787
  31
0.0
   0
LINE
   5
46F
 100
AcDbEntity
   8
LEVEL001
 370
13
 100
AcDbLine
   6
CONTINUOUS
  62
5
  10
 1394.4382022472
  20
 962.33033707865
  30
0.0
  11
 1354.4382022472
  21
 982.33033707865
  31
0.0
   0
LINE
   5
470
 100
AcDbEntity
   8
LEVEL001
 370
13
 100
AcDbLine
   6
CONTINUOUS
  62
5
  10
 1344.4382022472
  20
 962.33033707865
  30
0.0
  11
 1304.4382022472
  21
 982.33033707865
  31
0.0
   0
LINE
   5
471
 100
AcDbEntity
   8
LEVEL001
 370
13
 100
AcDbLine
   6
CONTINUOUS
  62
5
  10
 1294.4382022472
  20
 962.33033707865
  30
0.0
  11
 1254.4382022472
  21
 982.33033707865
  31
0.0
   0
LINE
   5
472
 100
AcDbEntity
   8
LEVEL001
 370
13
 100
AcDbLine
   6
CONTINUOUS
  62
5
  10
 1244.4382022472
  20
 1062.3303370787
  30
0.0
  11
 1244.4382022472
  21
 962.33033707865
  31
0.0
   0
LINE
   5
473
 100
AcDbEntity
   8
LEVEL001
 370
13
 100
AcDbLine
   6
CONTINUOUS
  62
5
  10
 1244.4382022472
  20
 1962.3303370787
  30
0.0
  11
 1244.4382022472
  21
 1062.3303370787
  31
0.0
   0
LINE
   5
474
 100
AcDbEntity
   8
LEVEL001
 370
13
 100
AcDbLine
   6
CONTINUOUS
  62
5
  10
 1155.3481048238
  20
 1909.8303370787
  30
0.0
  11
 1207.8481048238
  21
 1962.3303370787
  31
0.0
   0
LINE
   5
475
 100
AcDbEntity
   8
LEVEL001
 370
13
 100
AcDbLine
   6
CONTINUOUS
  62
5
  10
 1139.4382022469
  20
 1925.7402396555
  30
0.0
  11
 1176.0282996701
  21
 1962.3303370787
  31
0.0
   0
LINE
   5
476
 100
AcDbEntity
   8
LEVEL001
 370
13
 100
AcDbLine
   6
CONTINUOUS
  62
5
  10
 1191.9382022477
  20
 1962.3303370787
  30
0.0
  11
 1147.3931535357
  21
 1917.7852883667
  31
0.0
   0
LINE
   5
477
 100
AcDbEntity
   8
LEVEL001
 370
13
 100
AcDbLine
   6
CONTINUOUS
  62
5
  10
 1212.6183970943
  20
 1909.8303370787
  30
0.0
  11
 1183.9832509590
  21
 1938.4654832140
  31
0.0
   0
LINE
   5
478
 100
AcDbEntity
   8
LEVEL001
 370
13
 100
AcDbLine
   6
CONTINUOUS
  62
5
  10
 1191.9382022473
  20
 1946.4204345022
  30
0.0
  11
 1228.5282996708
  21
 1909.8303370787
  31
0.0
   0
LINE
   5
479
 100
AcDbEntity
   8
LEVEL001
 370
13
 100
AcDbLine
   6
CONTINUOUS
  62
5
  10
 1244.4382022472
  20
 1909.8303370787
  30
0.0
  11
 1199.8931535355
  21
 1954.3753857904
  31
0.0
   0
LINE
   5
47A
 100
AcDbEntity
   8
LEVEL001
 370
13
 100
AcDbLine
   6
CONTINUOUS
  62
5
  10
 1055.1183970939
  20
 1962.3303370787
  30
0.0
  11
 1002.6183970939
  21
 1909.8303370787
  31
0.0
   0
LINE
   5
47B
 100
AcDbEntity
   8
LEVEL001
 370
13
 100
AcDbLine
   6
CONTINUOUS
  62
5
  10
 1018.5282996699
  20
 1909.8303370787
  30
0.0
  11
 1071.0282996699
  21
 1962.3303370787
  31
0.0
   0
LINE
   5
47C
 100
AcDbEntity
   8
LEVEL001
 370
13
 100
AcDbLine
   6
CONTINUOUS
  62
5
  10
 1086.9382022475
  20
 1962.3303370787
  30
0.0
  11
 1034.4382022475
  21
 1909.8303370787
  31
0.0
   0
LINE
   5
47D
 100
AcDbEntity
   8
LEVEL001
 370
13
 100
AcDbLine
   6
CONTINUOUS
  62
5
  10
 1050.3481048236
  20
 1909.8303370787
  30
0.0
  11
 1102.8481048236
  21
 1962.3303370787
  31
0.0
   0
LINE
   5
47E
 100
AcDbEntity
   8
LEVEL001
 370
13
 100
AcDbLine
   6
CONTINUOUS
  62
5
  10
 1107.6183970942
  20
 1909.8303370787
  30
0.0
  11
 1078.9832509589
  21
 1938.4654832140
  31
0.0
   0
LINE
   5
47F
 100
AcDbEntity
   8
LEVEL001
 370
13
 100
AcDbLine
   6
CONTINUOUS
  62
5
  10
 1086.9382022471
  20
 1946.4204345022
  30
0.0
  11
 1123.5282996706
  21
 1909.8303370787
  31
0.0
   0
LINE
   5
480
 100
AcDbEntity
   8
LEVEL001
 370
13
 100
AcDbLine
   6
CONTINUOUS
  62
5
  10
 1139.4382022470
  20
 1909.8303370787
  30
0.0
  11
 1094.8931535353
  21
 1954.3753857904
  31
0.0
   0
LINE
   5
481
 100
AcDbEntity
   8
LEVEL001
 370
13
 100
AcDbLine
   6
CONTINUOUS
  62
5
  10
 1102.8481048236
  20
 1962.3303370787
  30
0.0
  11
 1155.3481048238
  21
 1909.8303370787
  31
0.0
   0
LINE
   5
482
 100
AcDbEntity
   8
LEVEL001
 370
13
 100
AcDbLine
   6
CONTINUOUS
  62
5
  10
 1160.1183970941
  20
 1962.3303370787
  30
0.0
  11
 1131.4832509589
  21
 1933.6951909435
  31
0.0
   0
LINE
   5
483
 100
AcDbEntity
   8
LEVEL001
 370
13
 100
AcDbLine
   6
CONTINUOUS
  62
5
  10
 1207.8481048238
  20
 1962.3303370787
  30
0.0
  11
 1244.4382022472
  21
 1925.7402396553
  31
0.0
   0
LINE
   5
484
 100
AcDbEntity
   8
LEVEL001
 370
13
 100
AcDbLine
   6
CONTINUOUS
  62
5
  10
 1244.4382022472
  20
 1250.4803370787
  30
0.0
  11
 1456.2882022472
  21
 1462.3303370787
  31
0.0
   0
LINE
   5
485
 100
AcDbEntity
   8
LEVEL001
 370
13
 100
AcDbLine
   6
CONTINUOUS
  62
5
  10
 1456.2882022472
  20
 1426.9749980193
  30
0.0
  11
 1244.4382022472
  21
 1215.1249980193
  31
0.0
   0
LINE
   5
486
 100
AcDbEntity
   8
LEVEL001
 370
13
 100
AcDbLine
   6
CONTINUOUS
  62
5
  10
 1456.2882022472
  20
 1497.6856761380
  30
0.0
  11
 1244.4382022472
  21
 1285.8356761380
  31
0.0
   0
LINE
   5
487
 100
AcDbEntity
   8
LEVEL001
 370
13
 100
AcDbLine
   6
CONTINUOUS
  62
5
  10
 1456.2882022472
  20
 1962.3303370787
  30
0.0
  11
 994.43820224719
  21
 1962.3303370787
  31
0.0
   0
LEADER
   5
488
 100
AcDbEntity
   8
LEVEL001
 370
13
   6
CONTINUOUS
  62
1
 100
AcDbLeader
   3
GMM001
  73
3
  74
1
  75
0
  40
 66.000000000000
  41
0.0
  76
2
  10
 4235.6555956852
  20
 4577.8153334233
  30
0.0
  10
 4132.6456697254
  20
 4419.3834626291
  30
0.0
  77
1
   0
LEADER
   5
489
 100
AcDbEntity
   8
LEVEL001
 370
13
   6
CONTINUOUS
  62
1
 100
AcDbLeader
   3
GMM002
  73
3
  74
1
  75
0
  40
 60.000000000000
  41
0.0
  76
2
  10
 1976.8778409436
  20
 4462.3303370787
  30
0.0
  10
 2045.0165278346
  20
 4394.4034931835
  30
0.0
  77
1
   0
LEADER
   5
48A
 100
AcDbEntity
   8
LEVEL001
 370
13
   6
CONTINUOUS
  62
1
 100
AcDbLeader
   3
GMM002
  73
3
  74
1
  75
0
  40
 60.000000000000
  41
0.0
  76
2
  10
 1532.5882022472
  20
 2637.3303370787
  30
0.0
  10
 1684.1504128860
  20
 2726.7581224451
  30
0.0
  77
1
   0
DIMENSION
   5
48B
 100
AcDbEntity
   8
LEVEL001
 370
13
   6
CONTINUOUS
  62
1
 100
AcDbDimension
   2
*D4
  10
 1591.9382022472
  20
 4810.7303370787
  30
0.0
  11
 1925.1874108664
  21
 4810.7303370787
  31
0.0
  70
128
   1
\A1;600
   3
GMM003
 100
AcDbAlignedDimension
  13
 2196.9382022472
  23
 4810.7303370787
  33
0.0
  14
 1591.9382022472
  24
 4810.7303370787
  34
0.0
  50
 180.00000000000
 100
AcDbRotatedDimension
   0
DIMENSION
   5
48C
 100
AcDbEntity
   8
LEVEL001
 370
13
   6
CONTINUOUS
  62
1
 100
AcDbDimension
   2
*D5
  10
 1744.4382022472
  20
 4938.2303370787
  30
0.0
  11
 1744.4382022472
  21
 4677.9170966229
  31
0.0
  70
128
   1
\A1;450
   3
GMM004
 100
AcDbAlignedDimension
  13
 1744.4382022472
  23
 4483.2303370787
  33
0.0
  14
 1744.4382022472
  24
 4938.2303370787
  34
0.0
  50
 90.000000000000
 100
AcDbRotatedDimension
   0
DIMENSION
   5
48D
 100
AcDbEntity
   8
LEVEL001
 370
13
   6
CONTINUOUS
  62
1
 100
AcDbDimension
   2
*D6
  10
 791.93820224719
  20
 4810.7303370787
  30
0.0
  11
 1125.1874108664
  21
 4810.7303370787
  31
0.0
  70
128
   1
\A1;600
   3
GMM005
 100
AcDbAlignedDimension
  13
 1396.9382022472
  23
 4810.7303370787
  33
0.0
  14
 791.93820224719
  24
 4810.7303370787
  34
0.0
  50
 180.00000000000
 100
AcDbRotatedDimension
   0
DIMENSION
   5
48E
 100
AcDbEntity
   8
LEVEL001
 370
13
   6
CONTINUOUS
  62
1
 100
AcDbDimension
   2
*D7
  10
 944.43820224719
  20
 4938.2303370787
  30
0.0
  11
 944.43820224719
  21
 4677.9170966229
  31
0.0
  70
128
   1
\A1;450
   3
GMM006
 100
AcDbAlignedDimension
  13
 944.43820224719
  23
 4483.2303370787
  33
0.0
  14
 944.43820224719
  24
 4938.2303370787
  34
0.0
  50
 90.000000000000
 100
AcDbRotatedDimension
   0
LEADER
   5
48F
 100
AcDbEntity
   8
LEVEL001
 370
13
   6
CONTINUOUS
  62
1
 100
AcDbLeader
   3
GMM007
  73
3
  74
1
  75
0
  40
 60.000000000000
  41
0.0
  76
2
  10
 2126.9382022472
  20
 4939.1303370787
  30
0.0
  10
 2252.3907604738
  20
 5104.7659524377
  30
0.0
  77
1
   0
LEADER
   5
490
 100
AcDbEntity
   8
LEVEL001
 370
13
   6
CONTINUOUS
  62
1
 100
AcDbLeader
   3
GMM002
  73
3
  74
1
  75
0
  40
 60.000000000000
  41
0.0
  76
2
  10
 3393.5802559820
  20
 4765.7303370787
  30
0.0
  10
 3527.9954937552
  20
 5095.7126756714
  30
0.0
  77
1
   0
LEADER
   5
491
 100
AcDbEntity
   8
LEVEL001
 370
13
   6
CONTINUOUS
  62
1
 100
AcDbLeader
   3
GMM002
  73
3
  74
1
  75
0
  40
 60.000000000000
  41
0.0
  76
2
  10
 2795.2188945640
  20
 4765.7303370789
  30
0.0
  10
 2843.0526421676
  20
 5091.6624817869
  30
0.0
  77
1
   0
LEADER
   5
492
 100
AcDbEntity
   8
LEVEL001
 370
13
   6
CONTINUOUS
  62
1
 100
AcDbLeader
   3
GMM002
  73
3
  74
1
  75
0
  40
 60.000000000000
  41
0.0
  76
2
  10
 3315.4488908266
  20
 4595.7303370787
  30
0.0
  10
 3373.8389176902
  20
 4411.7307794067
  30
0.0
  77
1
   0
LEADER
   5
493
 100
AcDbEntity
   8
LEVEL001
 370
13
   6
CONTINUOUS
  62
1
 100
AcDbLeader
   3
GMM002
  73
3
  74
1
  75
0
  40
 60.000000000000
  41
0.0
  76
2
  10
 3194.4382022472
  20
 5066.3303370787
  30
0.0
  10
 3331.2289899878
  20
 5130.6538431748
  30
0.0
  77
1
   0
LEADER
   5
494
 100
AcDbEntity
   8
LEVEL001
 370
13
   6
CONTINUOUS
  62
1
 100
AcDbLeader
   3
GMM002
  73
3
  74
1
  75
0
  40
 60.000000000000
  41
0.0
  76
2
  10
 3084.4381841616
  20
 1354.8303370787
  30
0.0
  10
 2881.0898443872
  20
 1245.4826374731
  30
0.0
  77
1
   0
LEADER
   5
495
 100
AcDbEntity
   8
LEVEL001
 370
13
   6
CONTINUOUS
  62
1
 100
AcDbLeader
   3
GMM002
  73
3
  74
1
  75
0
  40
 60.000000000000
  41
0.0
  76
2
  10
 2656.3293886690
  20
 4939.1303370787
  30
0.0
  10
 2354.6253234630
  20
 5124.9880631207
  30
0.0
  77
1
   0
LEADER
   5
496
 100
AcDbEntity
   8
LEVEL001
 370
13
   6
CONTINUOUS
  62
1
 100
AcDbLeader
   3
GMM002
  73
3
  74
1
  75
0
  40
 60.000000000000
  41
0.0
  76
2
  10
 2094.4382022472
  20
 4560.7303370787
  30
0.0
  10
 2247.3011598626
  20
 4396.5806891853
  30
0.0
  77
1
   0
LEADER
   5
497
 100
AcDbEntity
   8
LEVEL001
 370
13
   6
CONTINUOUS
  62
1
 100
AcDbLeader
   3
GMM002
  73
3
  74
1
  75
0
  40
 60.000000000000
  41
0.0
  76
2
  10
 2694.6545823906
  20
 4560.7303370787
  30
0.0
  10
 2356.0264390384
  20
 4378.1002754147
  30
0.0
  77
1
   0
DIMENSION
   5
498
 100
AcDbEntity
   8
LEVEL001
 370
13
   6
CONTINUOUS
  62
1
 100
AcDbDimension
   2
*D17
  10
 3444.4382022472
  20
 762.33033707865
  30
0.0
  11
 3194.4382022472
  21
 762.33033707865
  31
0.0
  70
128
   1
\A1;□500
   3
GMM008
 100
AcDbAlignedDimension
  13
 2944.4382022472
  23
 962.33033707865
  33
0.0
  14
 3444.4382022472
  24
 962.33033707865
  34
0.0
 100
AcDbRotatedDimension
   0
DIMENSION
   5
499
 100
AcDbEntity
   8
LEVEL001
 370
13
   6
CONTINUOUS
  62
1
 100
AcDbDimension
   2
*D18
  10
 1744.4382022472
  20
 762.33033707865
  30
0.0
  11
 1494.4382022472
  21
 762.33033707865
  31
0.0
  70
128
   1
\A1;□500
   3
GMM008
 100
AcDbAlignedDimension
  13
 1244.4382022472
  23
 962.33033707865
  33
0.0
  14
 1744.4382022472
  24
 962.33033707865
  34
0.0
 100
AcDbRotatedDimension
   0
INSERT
   5
49A
 100
AcDbEntity
   8
0
 100
AcDbBlockReference
   2
BLOCK001
  10
0.0
  20
0.0
  30
0.0
   0
INSERT
   5
49B
 100
AcDbEntity
   8
0
 100
AcDbBlockReference
   2
BLOCK002
  10
0.0
  20
0.0
  30
0.0
   0
LINE
   5
49C
 100
AcDbEntity
   8
LEVEL001
 370
13
 100
AcDbLine
   6
CONTINUOUS
  62
7
  10
 3142.5868159880
  20
 4362.3303370786
  30
0.0
  11
 3139.8729092246
  21
 4355.5455701698
  31
0.0
   0
ARC
   5
49D
 100
AcDbEntity
   8
LEVEL001
 370
13
   6
CONTINUOUS
  62
7
 100
AcDbCircle
  10
 3144.5152926790
  20
 4353.6886167880
  30
0.0
  40
 5.0000000000000
 100
AcDbArc
  50
 158.19859051363
  51
 179.99999999992
   0
LINE
   5
49E
 100
AcDbEntity
   8
LEVEL001
 370
13
 100
AcDbLine
   6
CONTINUOUS
  62
7
  10
 3139.5152926790
  20
 4353.6886167880
  30
0.0
  11
 3139.5152926790
  21
 3770.9720573676
  31
0.0
   0
LINE
   5
49F
 100
AcDbEntity
   8
LEVEL001
 370
13
 100
AcDbLine
   6
CONTINUOUS
  62
6
  10
 3146.5152926790
  20
 4291.3303981168
  30
0.0
  11
 3146.5152926790
  21
 4292.3303370778
  31
0.0
   0
ARC
   5
4A0
 100
AcDbEntity
   8
LEVEL001
 370
13
   6
CONTINUOUS
  62
7
 100
AcDbCircle
  10
 3138.5152926790
  20
 4346.4826906196
  30
0.0
  40
 5.0000000000000
 100
AcDbArc
  50
 0.25012899792527E-9
  51
 21.801409486367
   0
LINE
   5
4A1
 100
AcDbEntity
   8
LEVEL001
 370
13
 100
AcDbLine
   6
CONTINUOUS
  62
7
  10
 3141.3554052786
  20
 4352.8453211380
  30
0.0
  11
 3143.1576761334
  21
 4348.3396440012
  31
0.0
   0
ARC
   5
4A2
 100
AcDbEntity
   8
LEVEL001
 370
13
   6
CONTINUOUS
  62
7
 100
AcDbCircle
  10
 3145.9977887330
  20
 4354.7022745198
  30
0.0
  40
 5.0000000000000
 100
AcDbArc
  50
 158.19859051363
  51
 201.80140948637
   0
LINE
   5
4A3
 100
AcDbEntity
   8
LEVEL001
 370
13
 100
AcDbLine
   6
CONTINUOUS
  62
7
  10
 3142.5868159880
  20
 4362.3303370786
  30
0.0
  11
 3143.5152926790
  21
 4361.9589464022
  31
0.0
   0
LINE
   5
4A4
 100
AcDbEntity
   8
LEVEL001
 370
13
 100
AcDbLine
   6
CONTINUOUS
  62
7
  10
 3143.5152926790
  20
 4361.9589464022
  30
0.0
  11
 3141.3554052786
  21
 4356.5592279016
  31
0.0
   0
LINE
   5
4A5
 100
AcDbEntity
   8
LEVEL001
 370
13
 100
AcDbLine
   6
CONTINUOUS
  62
7
  10
 3143.5152926790
  20
 4346.4826906195
  30
0.0
  11
 3143.5152926790
  21
 3778.1779835360
  31
0.0
   0
LINE
   5
4A6
 100
AcDbEntity
   8
LEVEL001
 370
13
 100
AcDbLine
   6
CONTINUOUS
  62
7
  10
 3146.5152926790
  20
 4292.3303370778
  30
0.0
  11
 3143.5152926790
  21
 4292.3303370778
  31
0.0
   0
LINE
   5
4A7
 100
AcDbEntity
   8
LEVEL001
 370
13
 100
AcDbLine
   6
CONTINUOUS
  62
6
  10
 3143.5152926790
  20
 4291.3303981168
  30
0.0
  11
 3146.5152926790
  21
 4291.3303981168
  31
0.0
   0
LINE
   5
4A8
 100
AcDbEntity
   8
LEVEL001
 370
13
 100
AcDbLine
   6
CONTINUOUS
  62
7
  10
 3146.9707714580
  20
 4277.3299709254
  30
0.0
  11
 3146.9712292220
  21
 4235.3300626420
  31
0.0
   0
ELLIPSE
   5
4A9
 100
AcDbEntity
   8
LEVEL001
 370
13
   6
CONTINUOUS
  62
7
 100
AcDbEllipse
  10
 3142.9707689082
  20
 4277.3300928765
  30
0.0
  11
-4.0000025516047
  21
0.0
  31
0.0
  40
 0.99999938800000
  41
 3.1415621657893
  42
-1.7073511820388
   0
LINE
   5
4AA
 100
AcDbEntity
   8
LEVEL001
 370
13
 100
AcDbLine
   6
CONTINUOUS
  62
7
  10
 3146.9707987020
  20
 4274.8303373588
  30
0.0
  11
 3252.5152926790
  21
 4274.8303373588
  31
0.0
   0
LINE
   5
4AB
 100
AcDbEntity
   8
LEVEL001
 370
13
 100
AcDbLine
   6
CONTINUOUS
  62
7
  10
 3252.5152926790
  20
 4237.8303373588
  30
0.0
  11
 3146.9712019710
  21
 4237.8303373588
  31
0.0
   0
LINE
   5
4AC
 100
AcDbEntity
   8
LEVEL001
 370
13
 100
AcDbLine
   6
CONTINUOUS
  62
7
  10
 3143.5152926790
  20
 4237.8303373588
  30
0.0
  11
 3143.5152926790
  21
 4274.8303373588
  31
0.0
   0
LINE
   5
4AD
 100
AcDbEntity
   8
LEVEL001
 370
13
 100
AcDbLine
   6
CONTINUOUS
  62
6
  10
 3146.5152926790
  20
 4220.3303373588
  30
0.0
  11
 3146.5152926790
  21
 4221.3303678724
  31
0.0
   0
LINE
   5
4AE
 100
AcDbEntity
   8
LEVEL001
 370
13
 100
AcDbLine
   6
CONTINUOUS
  62
6
  10
 3146.5152926790
  20
 4221.3303678724
  30
0.0
  11
 3143.5152926790
  21
 4221.3303678724
  31
0.0
   0
ELLIPSE
   5
4AF
 100
AcDbEntity
   8
LEVEL001
 370
13
   6
CONTINUOUS
  62
7
 100
AcDbEllipse
  10
 3142.9712266708
  20
 4235.3301237944
  30
0.0
  11
-4.0000025516047
  21
0.0
  31
0.0
  40
 0.99999938800000
  41
 1.7072356670409
  42
 3.1415773654645
   0
LINE
   5
4B0
 100
AcDbEntity
   8
LEVEL001
 370
13
 100
AcDbLine
   6
CONTINUOUS
  62
7
  10
 3143.5152926790
  20
 4220.3303373588
  30
0.0
  11
 3146.5152926790
  21
 4220.3303373588
  31
0.0
   0
LINE
   5
4B1
 100
AcDbEntity
   8
LEVEL001
 370
13
 100
AcDbLine
   6
CONTINUOUS
  62
7
  10
 3143.5152926790
  20
 3904.3303367968
  30
0.0
  11
 3146.5152926790
  21
 3904.3303367968
  31
0.0
   0
LINE
   5
4B2
 100
AcDbEntity
   8
LEVEL001
 370
13
 100
AcDbLine
   6
CONTINUOUS
  62
6
  10
 3146.5152926790
  20
 3904.3303367968
  30
0.0
  11
 3146.5152926790
  21
 3903.3303062832
  31
0.0
   0
LINE
   5
4B3
 100
AcDbEntity
   8
LEVEL001
 370
13
 100
AcDbLine
   6
CONTINUOUS
  62
6
  10
 3146.5152926790
  20
 3903.3303062832
  30
0.0
  11
 3143.5152926790
  21
 3903.3303062832
  31
0.0
   0
LINE
   5
4B4
 100
AcDbEntity
   8
LEVEL001
 370
13
 100
AcDbLine
   6
CONTINUOUS
  62
7
  10
 3146.9707714580
  20
 3847.3307032301
  30
0.0
  11
 3146.9712292220
  21
 3889.3306115136
  31
0.0
   0
ELLIPSE
   5
4B5
 100
AcDbEntity
   8
LEVEL001
 370
13
   6
CONTINUOUS
  62
7
 100
AcDbEllipse
  10
 3142.9712266708
  20
 3889.3305503612
  30
0.0
  11
-4.0000025516047
  21
0.0
  31
0.0
  40
 0.99999938800000
  41
-3.1415773654681
  42
-1.7072356670414
   0
LINE
   5
4B6
 100
AcDbEntity
   8
LEVEL001
 370
13
 100
AcDbLine
   6
CONTINUOUS
  62
6
  10
 3146.5152926790
  20
 3833.3302760388
  30
0.0
  11
 3146.5152926790
  21
 3832.3303370778
  31
0.0
   0
LINE
   5
4B7
 100
AcDbEntity
   8
LEVEL001
 370
13
 100
AcDbLine
   6
CONTINUOUS
  62
6
  10
 3143.5152926790
  20
 3833.3302760388
  30
0.0
  11
 3146.5152926790
  21
 3833.3302760388
  31
0.0
   0
ELLIPSE
   5
4B8
 100
AcDbEntity
   8
LEVEL001
 370
13
   6
CONTINUOUS
  62
7
 100
AcDbEllipse
  10
 3142.9707689082
  20
 3847.3305812790
  30
0.0
  11
-4.0000025516047
  21
0.0
  31
0.0
  40
 0.99999938800000
  41
 1.7073511820393
  42
-3.1415621657857
   0
LINE
   5
4B9
 100
AcDbEntity
   8
LEVEL001
 370
13
 100
AcDbLine
   6
CONTINUOUS
  62
7
  10
 3146.5152926790
  20
 3832.3303370778
  30
0.0
  11
 3143.5152926790
  21
 3832.3303370778
  31
0.0
   0
ARC
   5
4BA
 100
AcDbEntity
   8
LEVEL001
 370
13
   6
CONTINUOUS
  62
7
 100
AcDbCircle
  10
 3144.5152926790
  20
 3770.9720573675
  30
0.0
  40
 5.0000000000000
 100
AcDbArc
  50
 179.99999999992
  51
 201.80140948637
   0
LINE
   5
4BB
 100
AcDbEntity
   8
LEVEL001
 370
13
 100
AcDbLine
   6
CONTINUOUS
  62
7
  10
 3142.5868159880
  20
 3762.3303370770
  30
0.0
  11
 3139.8729092246
  21
 3769.1151039858
  31
0.0
   0
ARC
   5
4BC
 100
AcDbEntity
   8
LEVEL001
 370
13
   6
CONTINUOUS
  62
7
 100
AcDbCircle
  10
 3138.5152926790
  20
 3778.1779835360
  30
0.0
  40
 5.0000000000000
 100
AcDbArc
  50
 338.19859051363
  51
 359.99999999992
   0
LINE
   5
4BD
 100
AcDbEntity
   8
LEVEL001
 370
13
 100
AcDbLine
   6
CONTINUOUS
  62
7
  10
 3141.3554052786
  20
 3771.8153530176
  30
0.0
  11
 3143.1576761334
  21
 3776.3210301542
  31
0.0
   0
ARC
   5
4BE
 100
AcDbEntity
   8
LEVEL001
 370
13
   6
CONTINUOUS
  62
7
 100
AcDbCircle
  10
 3145.9977887330
  20
 3769.9583996358
  30
0.0
  40
 5.0000000000000
 100
AcDbArc
  50
 158.19859051372
  51
 201.80140948628
   0
LINE
   5
4BF
 100
AcDbEntity
   8
LEVEL001
 370
13
 100
AcDbLine
   6
CONTINUOUS
  62
7
  10
 3142.5868159880
  20
 3762.3303370770
  30
0.0
  11
 3143.5152926790
  21
 3762.7017277534
  31
0.0
   0
LINE
   5
4C0
 100
AcDbEntity
   8
LEVEL001
 370
13
 100
AcDbLine
   6
CONTINUOUS
  62
7
  10
 3143.5152926790
  20
 3762.7017277534
  30
0.0
  11
 3141.3554052786
  21
 3768.1014462540
  31
0.0
   0
LINE
   5
4C1
 100
AcDbEntity
   8
LEVEL001
 370
13
 100
AcDbLine
   6
CONTINUOUS
  62
7
  10
 3146.9712019710
  20
 3886.8303370778
  30
0.0
  11
 3252.5152976512
  21
 3886.8303370778
  31
0.0
   0
LINE
   5
4C2
 100
AcDbEntity
   8
LEVEL001
 370
13
 100
AcDbLine
   6
CONTINUOUS
  62
7
  10
 3252.5152976512
  20
 3849.8303370778
  30
0.0
  11
 3146.9707987020
  21
 3849.8303370778
  31
0.0
   0
LINE
   5
4C3
 100
AcDbEntity
   8
LEVEL001
 370
13
 100
AcDbLine
   6
CONTINUOUS
  62
6
  10
 3231.3432986508
  20
 3861.8303370778
  30
0.0
  11
 3159.2241268252
  21
 3861.8303370778
  31
0.0
   0
LINE
   5
4C4
 100
AcDbEntity
   8
LEVEL001
 370
13
 100
AcDbLine
   6
CONTINUOUS
  62
6
  10
 3159.2241268252
  20
 3874.8303370778
  30
0.0
  11
 3231.3432986508
  21
 3874.8303370778
  31
0.0
   0
LINE
   5
4C5
 100
AcDbEntity
   8
LEVEL001
 370
13
 100
AcDbLine
   6
CONTINUOUS
  62
6
  10
 3157.9632322556
  20
 3873.8303370778
  30
0.0
  11
 3157.9632322556
  21
 3862.8303370778
  31
0.0
   0
LINE
   5
4C6
 100
AcDbEntity
   8
LEVEL001
 370
13
 100
AcDbLine
   6
CONTINUOUS
  62
6
  10
 3157.9632322556
  20
 3884.8303370778
  30
0.0
  11
 3157.9632322556
  21
 3875.8303370778
  31
0.0
   0
LINE
   5
4C7
 100
AcDbEntity
   8
LEVEL001
 370
13
 100
AcDbLine
   6
CONTINUOUS
  62
6
  10
 3157.9632322556
  20
 3860.8303370778
  30
0.0
  11
 3157.9632322556
  21
 3851.8303370778
  31
0.0
   0
LINE
   5
4C8
 100
AcDbEntity
   8
LEVEL001
 370
13
 100
AcDbLine
   6
CONTINUOUS
  62
6
  10
 3231.3432986508
  20
 3884.8303370778
  30
0.0
  11
 3231.3432986508
  21
 3875.8303370778
  31
0.0
   0
LINE
   5
4C9
 100
AcDbEntity
   8
LEVEL001
 370
13
 100
AcDbLine
   6
CONTINUOUS
  62
6
  10
 3231.3432986508
  20
 3860.8303370778
  30
0.0
  11
 3231.3432986508
  21
 3851.8303370778
  31
0.0
   0
LINE
   5
4CA
 100
AcDbEntity
   8
LEVEL001
 370
13
 100
AcDbLine
   6
CONTINUOUS
  62
7
  10
 3247.5152976512
  20
 3863.3303370778
  30
0.0
  11
 3237.5152976512
  21
 3863.3303370778
  31
0.0
   0
LINE
   5
4CB
 100
AcDbEntity
   8
LEVEL001
 370
13
 100
AcDbLine
   6
CONTINUOUS
  62
7
  10
 3237.5152976512
  20
 3863.3303370778
  30
0.0
  11
 3237.5152976512
  21
 3873.3303370778
  31
0.0
   0
LINE
   5
4CC
 100
AcDbEntity
   8
LEVEL001
 370
13
 100
AcDbLine
   6
CONTINUOUS
  62
7
  10
 3237.5152976512
  20
 3873.3303370778
  30
0.0
  11
 3247.5152976512
  21
 3873.3303370778
  31
0.0
   0
LINE
   5
4CD
 100
AcDbEntity
   8
LEVEL001
 370
13
 100
AcDbLine
   6
CONTINUOUS
  62
7
  10
 3247.5152976512
  20
 3873.3303370778
  30
0.0
  11
 3247.5152976512
  21
 3863.3303370778
  31
0.0
   0
LINE
   5
4CE
 100
AcDbEntity
   8
LEVEL001
 370
13
 100
AcDbLine
   6
CONTINUOUS
  62
6
  10
 3233.6618236922
  20
 3874.8303370778
  30
0.0
  11
 3233.6618236922
  21
 3861.8303370778
  31
0.0
   0
LINE
   5
4CF
 100
AcDbEntity
   8
LEVEL001
 370
13
 100
AcDbLine
   6
CONTINUOUS
  62
7
  10
 3252.5152976512
  20
 3886.8303370778
  30
0.0
  11
 3252.5152976512
  21
 3849.8303370778
  31
0.0
   0
LINE
   5
4D0
 100
AcDbEntity
   8
LEVEL001
 370
13
 100
AcDbLine
   6
CONTINUOUS
  62
6
  10
 3157.9632272832
  20
 4261.8303373588
  30
0.0
  11
 3157.9632272832
  21
 4250.8303373588
  31
0.0
   0
LINE
   5
4D1
 100
AcDbEntity
   8
LEVEL001
 370
13
 100
AcDbLine
   6
CONTINUOUS
  62
6
  10
 3157.9632272832
  20
 4248.8303373588
  30
0.0
  11
 3157.9632272832
  21
 4239.8303373588
  31
0.0
   0
LINE
   5
4D2
 100
AcDbEntity
   8
LEVEL001
 370
13
 100
AcDbLine
   6
CONTINUOUS
  62
6
  10
 3157.9632272832
  20
 4272.8303373588
  30
0.0
  11
 3157.9632272832
  21
 4263.8303373588
  31
0.0
   0
LINE
   5
4D3
 100
AcDbEntity
   8
LEVEL001
 370
13
 100
AcDbLine
   6
CONTINUOUS
  62
6
  10
 3231.3432936786
  20
 4249.8303373588
  30
0.0
  11
 3159.2241218528
  21
 4249.8303373588
  31
0.0
   0
LINE
   5
4D4
 100
AcDbEntity
   8
LEVEL001
 370
13
 100
AcDbLine
   6
CONTINUOUS
  62
6
  10
 3159.2241218528
  20
 4262.8303373588
  30
0.0
  11
 3231.3432936786
  21
 4262.8303373588
  31
0.0
   0
LINE
   5
4D5
 100
AcDbEntity
   8
LEVEL001
 370
13
 100
AcDbLine
   6
CONTINUOUS
  62
6
  10
 3231.3432936786
  20
 4272.8303373588
  30
0.0
  11
 3231.3432936786
  21
 4263.8303373588
  31
0.0
   0
LINE
   5
4D6
 100
AcDbEntity
   8
LEVEL001
 370
13
 100
AcDbLine
   6
CONTINUOUS
  62
6
  10
 3231.3432936786
  20
 4248.8303373588
  30
0.0
  11
 3231.3432936786
  21
 4239.8303373588
  31
0.0
   0
LINE
   5
4D7
 100
AcDbEntity
   8
LEVEL001
 370
13
 100
AcDbLine
   6
CONTINUOUS
  62
7
  10
 3247.5152926790
  20
 4251.3303373588
  30
0.0
  11
 3237.5152926790
  21
 4251.3303373588
  31
0.0
   0
LINE
   5
4D8
 100
AcDbEntity
   8
LEVEL001
 370
13
 100
AcDbLine
   6
CONTINUOUS
  62
7
  10
 3237.5152926790
  20
 4251.3303373588
  30
0.0
  11
 3237.5152926790
  21
 4261.3303373588
  31
0.0
   0
LINE
   5
4D9
 100
AcDbEntity
   8
LEVEL001
 370
13
 100
AcDbLine
   6
CONTINUOUS
  62
7
  10
 3237.5152926790
  20
 4261.3303373588
  30
0.0
  11
 3247.5152926790
  21
 4261.3303373588
  31
0.0
   0
LINE
   5
4DA
 100
AcDbEntity
   8
LEVEL001
 370
13
 100
AcDbLine
   6
CONTINUOUS
  62
7
  10
 3247.5152926790
  20
 4261.3303373588
  30
0.0
  11
 3247.5152926790
  21
 4251.3303373588
  31
0.0
   0
LINE
   5
4DB
 100
AcDbEntity
   8
LEVEL001
 370
13
 100
AcDbLine
   6
CONTINUOUS
  62
6
  10
 3233.6618187198
  20
 4262.8303373588
  30
0.0
  11
 3233.6618187198
  21
 4249.8303373588
  31
0.0
   0
LINE
   5
4DC
 100
AcDbEntity
   8
LEVEL001
 370
13
 100
AcDbLine
   6
CONTINUOUS
  62
7
  10
 3252.5152926790
  20
 4274.8303373588
  30
0.0
  11
 3252.5152926790
  21
 4237.8303373588
  31
0.0
   0
LINE
   5
4DD
 100
AcDbEntity
   8
LEVEL001
 370
13
 100
AcDbLine
   6
CONTINUOUS
  62
7
  10
 3232.5882022472
  20
 4274.8303373588
  30
0.0
  11
 3232.5882022472
  21
 4580.7303370786
  31
0.0
   0
LINE
   5
4DE
 100
AcDbEntity
   8
0
 370
13
 100
AcDbLine
   6
CONTINUOUS
  62
7
  10
 3232.5882022472
  20
 4237.8303373588
  30
0.0
  11
 3232.5882022472
  21
 3886.8303370778
  31
0.0
   0
LINE
   5
4DF
 100
AcDbEntity
   8
0
 370
13
 100
AcDbLine
   6
CONTINUOUS
  62
7
  10
 3156.2882022472
  20
 3886.8303370778
  30
0.0
  11
 3156.2882022472
  21
 4237.8303373588
  31
0.0
   0
LINE
   5
4E0
 100
AcDbEntity
   8
0
 370
13
 100
AcDbLine
   6
CONTINUOUS
  62
7
  10
 3156.2882022472
  20
 4580.7303370787
  30
0.0
  11
 3156.2882022472
  21
 4274.8303373588
  31
0.0
   0
LWPOLYLINE
   5
4E1
 100
AcDbEntity
   8
0
 370
13
   6
CONTINUOUS
  62
7
 100
AcDbPolyline
  90
4
  70
0
  10
 3156.2882022472
  20
 3849.8303370778
  10
 3156.2882022472
  20
 1062.3303370787
  10
 3232.5882022472
  20
 1062.3303370787
  10
 3232.5882022472
  20
 3849.8303370778
   0
LWPOLYLINE
   5
4E2
 100
AcDbEntity
   8
0
 370
13
   6
CONTINUOUS
  62
7
 100
AcDbPolyline
  90
4
  70
0
  10
 1456.2882022472
  20
 3762.3295523330
  10
 1456.2882022472
  20
 1062.3303370787
  10
 1532.5882022472
  20
 1062.3303370787
  10
 1532.5882022472
  20
 3762.3295523330
   0
LINE
   5
4E3
 100
AcDbEntity
   8
0
 370
13
 100
AcDbLine
   6
CONTINUOUS
  62
7
  10
 1532.5882022472
  20
 4362.3303370786
  30
0.0
  11
 1532.5882022472
  21
 4578.2302955505
  31
0.0
   0
LINE
   5
4E4
 100
AcDbEntity
   8
0
 370
13
 100
AcDbLine
   6
CONTINUOUS
  62
7
  10
 1456.2882022472
  20
 4578.2302955505
  30
0.0
  11
 1456.2882022472
  21
 4362.3303370786
  31
0.0
   0
CIRCLE
   5
4E5
 100
AcDbEntity
   8
LEVEL001
 370
13
 100
AcDbCircle
   6
CONTINUOUS
  62
1
  10
 3394.4382022472
  20
 3943.8303370786
  30
0.0
  40
 70.000000000000
   0
CIRCLE
   5
4E6
 100
AcDbEntity
   8
LEVEL001
 370
13
 100
AcDbCircle
   6
CONTINUOUS
  62
1
  10
 3534.4382022472
  20
 3943.8303370786
  30
0.0
  40
 70.000000000000
   0
MTEXT
   5
4E7
 100
AcDbEntity
   8
LEVEL001
 370
13
  62
1
 100
AcDbMText
  10
 3394.4382022472
  20
 3943.8303370786
  30
0.0
  40
 57.142857142858
  41
0.0
  71
5
  72
1
   1
\T1.000000;15
   7
GMM001
  44
 0.79999984000003
   0
MTEXT
   5
4E8
 100
AcDbEntity
   8
LEVEL001
 370
13
  62
1
 100
AcDbMText
  10
 3534.4382022472
  20
 3943.8303370786
  30
0.0
  40
 57.142857142858
  41
0.0
  71
5
  72
1
   1
\T1.000000;16
   7
GMM001
  44
 0.79999984000003
   0
LEADER
   5
4E9
 100
AcDbEntity
   8
LEVEL001
 370
13
   6
CONTINUOUS
  62
1
 100
AcDbLeader
   3
GMM002
  73
3
  74
1
  75
0
  40
 60.000000000000
  41
0.0
  76
2
  10
 3252.5152976512
  20
 3868.3303370778
  30
0.0
  10
 3333.0808119352
  20
 3910.1365594022
  30
0.0
  77
1
   0
CIRCLE
   5
4EA
 100
AcDbEntity
   8
LEVEL001
 370
13
 100
AcDbCircle
   6
CONTINUOUS
  62
1
  10
 1744.4372014384
  20
 3902.3296375942
  30
0.0
  40
 70.000000000000
   0
MTEXT
   5
4EB
 100
AcDbEntity
   8
LEVEL001
 370
13
  62
1
 100
AcDbMText
  10
 1744.4372014384
  20
 3902.3296375942
  30
0.0
  40
 57.142857142858
  41
0.0
  71
5
  72
1
   1
\T1.000000;14
   7
GMM001
  44
 0.79999984000003
   0
LEADER
   5
4EC
 100
AcDbEntity
   8
LEVEL001
 370
13
   6
CONTINUOUS
  62
1
 100
AcDbLeader
   3
GMM002
  73
3
  74
1
  75
0
  40
 60.000000000000
  41
0.0
  76
2
  10
 1584.4368943273
  20
 4062.3299447058
  30
0.0
  10
 1694.9397267556
  20
 3951.8271122776
  30
0.0
  77
1
   0
DIMENSION
   5
4ED
 100
AcDbEntity
   8
0
 370
13
   6
CONTINUOUS
  62
1
 100
AcDbDimension
   2
*D21
  10
 744.43820224719
  20
 962.33033707865
  30
0.0
  11
 744.43820224719
  21
 1012.3303370787
  31
0.0
  70
0
   3
GMM009
 100
AcDbAlignedDimension
  13
 1244.4382022472
  23
 1062.3303370787
  33
0.0
  14
 1244.4382022472
  24
 962.33033707865
  34
0.0
  50
 270.00000000000
 100
AcDbRotatedDimension
   0
DIMENSION
   5
4EE
 100
AcDbEntity
   8
0
 370
13
   6
CONTINUOUS
  62
1
 100
AcDbDimension
   2
*D22
  10
 744.43820224719
  20
 1962.3303370787
  30
0.0
  11
 744.43820224719
  21
 1512.3303370787
  31
0.0
  70
0
   3
GMM009
 100
AcDbAlignedDimension
  13
 1244.4382022472
  23
 1062.3303370787
  33
0.0
  14
 994.43820224719
  24
 1962.3303370787
  34
0.0
  50
 90.000000000000
 100
AcDbRotatedDimension
   0
DIMENSION
   5
4EF
 100
AcDbEntity
   8
0
 370
13
   6
CONTINUOUS
  62
1
 100
AcDbDimension
   2
*D23
  10
 744.43820224719
  20
 4462.3303370787
  30
0.0
  11
 744.43820224719
  21
 3212.3303370787
  31
0.0
  70
0
   1
\A1;2500(標準設置高さ)
   3
GMM010
 100
AcDbAlignedDimension
  13
 994.43820224719
  23
 1962.3303370787
  33
0.0
  14
 861.93820224719
  24
 4462.3303370787
  34
0.0
  50
 90.000000000000
 100
AcDbRotatedDimension
   0
ENDSEC
  0
SECTION
  2
OBJECTS
  0
DICTIONARY
  5
C
100
AcDbDictionary
  3
ACAD_GROUP
350
D
  3
ACAD_MLINESTYLE
350
1B
  3
DWGPROPS
350
1C
  0
DICTIONARY
  5
D
102
{ACAD_REACTORS
330
C
102
}
100
AcDbDictionary
  0
DICTIONARY
  5
1B
102
{ACAD_REACTORS
330
C
102
}
100
AcDbDictionary
  3
STANDARD
350
1D
  0
MLINESTYLE
  5
1D
102
{ACAD_REACTORS
330
1B
102
}
100
AcDbMlineStyle
  2
STANDARD
 70
     0
  3

 62
   256
 51
90.0
 52
90.0
 71
     2
 49
0.5
 62
   256
  6
BYLAYER
 49
-0.5
 62
   256
  6
BYLAYER
   0
XRECORD
   5
1C
 102
{ACAD_REACTORS
 330
C
 102
}
 330
C
 100
AcDbXrecord
 280
1
   1
DWGPROPS COOKIE
   2
 
   3
 
   4
 
   6
 
   7
MZH456W
   8
 
   9

 300
 = 
 301
 = 
 302
 = 
 303
 = 
 304
 = 
 305
 = 
 306
 = 
 307
 = 
 308
 = 
 309
 = 
  40
0.0
  41
 2460339.5000000
  42
 2460342.5000000
   1

  90
10
   0
ENDSEC
   0
EOF
