   0
SECTION
   2
HEADER
   9
$ACADVER
   1
AC1015
   9
$DWGCODEPAGE
   3
ANSI_932
   9
$LIMMIN
  10
0.0
  20
0.0
   9
$LIMMAX
  10
 8400.0000000000
  20
 5940.0000000000
   9
$EXTMIN
  10
0.0
  20
0.0
  30
0.0
   9
$EXTMAX
  10
 8400.0000000000
  20
 5940.0000000000
  30
0.0
   9
$LTSCALE
  40
 168.00000000000
   9
$HANDSEED
   5
41B
   0
ENDSEC
   0
SECTION
   2
TABLES
  0
TABLE
  2
VPORT
  5
8
100
AcDbSymbolTable
 70
     1
  0
VPORT
  5
41A
100
AcDbSymbolTableRecord
100
AcDbViewportTableRecord
  2
*ACTIVE
 70
     0
 10
0.0
 20
0.0
 11
1.0
 21
1.0
  12
 4200.0000000000
  22
 2970.0000000000
 13
0.0
 23
0.0
 14
1.0
 24
1.0
 15
0.0
 25
0.0
 16
0.0
 26
0.0
 36
1.0
 17
0.0
 27
0.0
 37
0.0
  40
 8400.0000000000
  41
 1.4787878787879
 42
50.0
 43
0.0
 44
0.0
 50
0.0
 51
0.0
 71
     0
 72
   100
 73
     1
 74
     1
 75
     0
 76
     0
 77
     0
 78
     0
  0
ENDTAB
  0
TABLE
  2
LTYPE
  5
5
100
AcDbSymbolTable
 70
    25
  0
LTYPE
  5
12
100
AcDbSymbolTableRecord
100
AcDbLinetypeTableRecord
  2
BYBLOCK
 70
     0
  3

 72
    65
 73
     0
 40
0.0
  0
LTYPE
  5
13
100
AcDbSymbolTableRecord
100
AcDbLinetypeTableRecord
  2
BYLAYER
 70
     0
  3

 72
    65
 73
     0
 40
0.0
  0
LTYPE
  5
14
100
AcDbSymbolTableRecord
100
AcDbLinetypeTableRecord
  2
CONTINUOUS
 70
     0
  3
Solid line
 72
    65
 73
     0
 40
0.0
  0
LTYPE
  5
20
100
AcDbSymbolTableRecord
100
AcDbLinetypeTableRecord
  2
BORDER
 70
     0
  3
__ __ . __ __ . __ __ . __ __ . __ __ . __ __ .
 72
    65
 73
     6
 40
1.75
 49
0.5
 74
     0
 49
-0.25
 74
     0
 49
0.5
 74
     0
 49
-0.25
 74
     0
 49
0.0
 74
     0
 49
-0.25
 74
     0
  0
LTYPE
  5
21
100
AcDbSymbolTableRecord
100
AcDbLinetypeTableRecord
  2
BORDER2
 70
     0
  3
__.__.__.__.__.__.__.__.__.__.__.__.__.__.__.__
 72
    65
 73
     6
 40
0.875
 49
0.25
 74
     0
 49
-0.125
 74
     0
 49
0.25
 74
     0
 49
-0.125
 74
     0
 49
0.0
 74
     0
 49
-0.125
 74
     0
  0
LTYPE
  5
22
100
AcDbSymbolTableRecord
100
AcDbLinetypeTableRecord
  2
BORDERX2
 70
     0
  3
____  ____  .  ____  ____  .  ____  ____  .  __
 72
    65
 73
     6
 40
3.5
 49
1.0
 74
     0
 49
-0.5
 74
     0
 49
1.0
 74
     0
 49
-0.5
 74
     0
 49
0.0
 74
     0
 49
-0.5
 74
     0
  0
LTYPE
  5
23
100
AcDbSymbolTableRecord
100
AcDbLinetypeTableRecord
  2
CENTER
 70
     0
  3
____ _ ____ _ ____ _ ____ _ ____ _ ____ _ ____ 
 72
    65
 73
     4
 40
2.0
 49
1.25
 74
     0
 49
-0.25
 74
     0
 49
0.25
 74
     0
 49
-0.25
 74
     0
  0
LTYPE
  5
24
100
AcDbSymbolTableRecord
100
AcDbLinetypeTableRecord
  2
CENTER2
 70
     0
  3
___ _ ___ _ ___ _ ___ _ ___ _ ___ _ ___ _ ___ _
 72
    65
 73
     4
 40
1.125
 49
0.75
 74
     0
 49
-0.125
 74
     0
 49
0.125
 74
     0
 49
-0.125
 74
     0
  0
LTYPE
  5
25
100
AcDbSymbolTableRecord
100
AcDbLinetypeTableRecord
  2
CENTERX2
 70
     0
  3
________  __  ________  __  ________  __  _____
 72
    65
 73
     4
 40
4.0
 49
2.5
 74
     0
 49
-0.5
 74
     0
 49
0.5
 74
     0
 49
-0.5
 74
     0
  0
LTYPE
  5
26
100
AcDbSymbolTableRecord
100
AcDbLinetypeTableRecord
  2
DASHDOT
 70
     0
  3
__ . __ . __ . __ . __ . __ . __ . __ . __ . __
 72
    65
 73
     4
 40
1.0
 49
0.5
 74
     0
 49
-0.25
 74
     0
 49
0.0
 74
     0
 49
-0.25
 74
     0
  0
LTYPE
  5
27
100
AcDbSymbolTableRecord
100
AcDbLinetypeTableRecord
  2
DASHDOT2
 70
     0
  3
_._._._._._._._._._._._._._._._._._._._._._._._
 72
    65
 73
     4
 40
0.5
 49
0.25
 74
     0
 49
-0.125
 74
     0
 49
0.0
 74
     0
 49
-0.125
 74
     0
  0
LTYPE
  5
28
100
AcDbSymbolTableRecord
100
AcDbLinetypeTableRecord
  2
DASHDOTX2
 70
     0
  3
____  .  ____  .  ____  .  ____  .  ____  .  __
 72
    65
 73
     4
 40
2.0
 49
1.0
 74
     0
 49
-0.5
 74
     0
 49
0.0
 74
     0
 49
-0.5
 74
     0
  0
LTYPE
  5
29
100
AcDbSymbolTableRecord
100
AcDbLinetypeTableRecord
  2
DASHED
 70
     0
  3
__ __ __ __ __ __ __ __ __ __ __ __ __ __ __ __
 72
    65
 73
     2
 40
0.75
 49
0.5
 74
     0
 49
-0.25
 74
     0
  0
LTYPE
  5
2A
100
AcDbSymbolTableRecord
100
AcDbLinetypeTableRecord
  2
DASHED2
 70
     0
  3
_ _ _ _ _ _ _ _ _ _ _ _ _ _ _ _ _ _ _ _ _ _ _ _
 72
    65
 73
     2
 40
0.375
 49
0.25
 74
     0
 49
-0.125
 74
     0
  0
LTYPE
  5
2B
100
AcDbSymbolTableRecord
100
AcDbLinetypeTableRecord
  2
DASHEDX2
 70
     0
  3
____  ____  ____  ____  ____  ____  ____  ____ 
 72
    65
 73
     2
 40
1.5
 49
1.0
 74
     0
 49
-0.5
 74
     0
  0
LTYPE
  5
2C
100
AcDbSymbolTableRecord
100
AcDbLinetypeTableRecord
  2
DIVIDE
 70
     0
  3
____ . . ____ . . ____ . . ____ . . ____ . . __
 72
    65
 73
     6
 40
1.25
 49
0.5
 74
     0
 49
-0.25
 74
     0
 49
0.0
 74
     0
 49
-0.25
 74
     0
 49
0.0
 74
     0
 49
-0.25
 74
     0
  0
LTYPE
  5
2D
100
AcDbSymbolTableRecord
100
AcDbLinetypeTableRecord
  2
DIVIDE2
 70
     0
  3
__..__..__..__..__..__..__..__..__..__..__..__.
 72
    65
 73
     6
 40
0.625
 49
0.25
 74
     0
 49
-0.125
 74
     0
 49
0.0
 74
     0
 49
-0.125
 74
     0
 49
0.0
 74
     0
 49
-0.125
 74
     0
  0
LTYPE
  5
2E
100
AcDbSymbolTableRecord
100
AcDbLinetypeTableRecord
  2
DIVIDEX2
 70
     0
  3
________  .  .  ________  .  .  ________  .  . 
 72
    65
 73
     6
 40
2.5
 49
1.0
 74
     0
 49
-0.5
 74
     0
 49
0.0
 74
     0
 49
-0.5
 74
     0
 49
0.0
 74
     0
 49
-0.5
 74
     0
  0
LTYPE
  5
2F
100
AcDbSymbolTableRecord
100
AcDbLinetypeTableRecord
  2
DOT
 70
     0
  3
. . . . . . . . . . . . . . . . . . . . . . . .
 72
    65
 73
     2
 40
0.25
 49
0.0
 74
     0
 49
-0.25
 74
     0
  0
LTYPE
  5
30
100
AcDbSymbolTableRecord
100
AcDbLinetypeTableRecord
  2
DOT2
 70
     0
  3
...............................................
 72
    65
 73
     2
 40
0.125
 49
0.0
 74
     0
 49
-0.125
 74
     0
  0
LTYPE
  5
31
100
AcDbSymbolTableRecord
100
AcDbLinetypeTableRecord
  2
DOTX2
 70
     0
  3
.  .  .  .  .  .  .  .  .  .  .  .  .  .  .  . 
 72
    65
 73
     2
 40
0.5
 49
0.0
 74
     0
 49
-0.5
 74
     0
  0
LTYPE
  5
32
100
AcDbSymbolTableRecord
100
AcDbLinetypeTableRecord
  2
HIDDEN
 70
     0
  3
__ __ __ __ __ __ __ __ __ __ __ __ __ __ __ __
 72
    65
 73
     2
 40
0.375
 49
0.25
 74
     0
 49
-0.125
 74
     0
  0
LTYPE
  5
33
100
AcDbSymbolTableRecord
100
AcDbLinetypeTableRecord
  2
HIDDEN2
 70
     0
  3
_ _ _ _ _ _ _ _ _ _ _ _ _ _ _ _ _ _ _ _ _ _ _ _
 72
    65
 73
     2
 40
0.1875
 49
0.125
 74
     0
 49
-0.0625
 74
     0
  0
LTYPE
  5
34
100
AcDbSymbolTableRecord
100
AcDbLinetypeTableRecord
  2
HIDDENX2
 70
     0
  3
____ ____ ____ ____ ____ ____ ____ ____ ____ __
 72
    65
 73
     2
 40
0.75
 49
0.5
 74
     0
 49
-0.25
 74
     0
  0
LTYPE
  5
35
100
AcDbSymbolTableRecord
100
AcDbLinetypeTableRecord
  2
PHANTOM
 70
     0
  3
______  __  __  ______  __  __  ______  __  __ 
 72
    65
 73
     6
 40
2.5
 49
1.25
 74
     0
 49
-0.25
 74
     0
 49
0.25
 74
     0
 49
-0.25
 74
     0
 49
0.25
 74
     0
 49
-0.25
 74
     0
  0
LTYPE
  5
36
100
AcDbSymbolTableRecord
100
AcDbLinetypeTableRecord
  2
PHANTOM2
 70
     0
  3
___ _ _ ___ _ _ ___ _ _ ___ _ _ ___ _ _ ___ _ _
 72
    65
 73
     6
 40
1.25
 49
0.625
 74
     0
 49
-0.125
 74
     0
 49
0.125
 74
     0
 49
-0.125
 74
     0
 49
0.125
 74
     0
 49
-0.125
 74
     0
  0
LTYPE
  5
37
100
AcDbSymbolTableRecord
100
AcDbLinetypeTableRecord
  2
PHANTOMX2
 70
     0
  3
____________    ____    ____    ____________   
 72
    65
 73
     6
 40
5.0
 49
2.5
 74
     0
 49
-0.5
 74
     0
 49
0.5
 74
     0
 49
-0.5
 74
     0
 49
0.5
 74
     0
 49
-0.5
 74
     0
  0
ENDTAB
   0
TABLE
   2
LAYER
   5
2
 100
AcDbSymbolTable
  70
2
   0
LAYER
   5
E
 100
AcDbSymbolTableRecord
 100
AcDbLayerTableRecord
   2
0
  70
0
  62
7
   6
CONTINUOUS
 390
30
   0
LAYER
   5
39
 100
AcDbSymbolTableRecord
 100
AcDbLayerTableRecord
   2
LEVEL001
  70
0
  62
7
   6
CONTINUOUS
 390
30
   0
ENDTAB
  0
TABLE
  2
STYLE
  5
3
100
AcDbSymbolTable
  70
9
  0
STYLE
  5
F
100
AcDbSymbolTableRecord
100
AcDbTextStyleTableRecord
  2
STANDARD
 70
     0
 40
0.0
 41
1.0
 50
0.0
 71
     0
 42
0.2
  3
TXT
  4
BIGFONT
  0
STYLE
  5
38
100
AcDbSymbolTableRecord
100
AcDbTextStyleTableRecord
  2
STANDARD1
 70
     4
 40
0.0
 41
1.0
 50
0.0
 71
     0
 42
0.2
  3
TXT
  4
BIGFONT
   0
STYLE
   5
3A
 100
AcDbSymbolTableRecord
 100
AcDbTextStyleTableRecord
   2
GMM001
  70
0
  40
0.0
  41
 1.0000000000000
  50
0.0
  71
     0
  42
1.0
   3

   4

1001
ACAD
1000
ＭＳ ゴシック
1071
32817
   0
STYLE
   5
3B
 100
AcDbSymbolTableRecord
 100
AcDbTextStyleTableRecord
   2
GMM002
  70
0
  40
0.0
  41
 0.75000000000000
  50
0.0
  71
     0
  42
1.0
   3
txt.shx
   4
bigfont.shx
   0
STYLE
   5
3C
 100
AcDbSymbolTableRecord
 100
AcDbTextStyleTableRecord
   2
GMM003
  70
0
  40
0.0
  41
 0.66666666666667
  50
0.0
  71
     0
  42
1.0
   3

   4

1001
ACAD
1000
ＭＳ ゴシック
1071
32817
   0
STYLE
   5
3D
 100
AcDbSymbolTableRecord
 100
AcDbTextStyleTableRecord
   2
GMM004
  70
0
  40
0.0
  41
 1.0000000000000
  50
0.0
  71
     0
  42
1.0
   3
txt.shx
   4
bigfont.shx
   0
STYLE
   5
3E
 100
AcDbSymbolTableRecord
 100
AcDbTextStyleTableRecord
   2
GMM005
  70
0
  40
0.0
  41
 0.82738095238095
  50
0.0
  71
     0
  42
1.0
   3
txt.shx
   4
bigfont.shx
   0
STYLE
   5
3F
 100
AcDbSymbolTableRecord
 100
AcDbTextStyleTableRecord
   2
GMM006
  70
0
  40
0.0
  41
 0.84821428571429
  50
0.0
  71
     0
  42
1.0
   3
txt.shx
   4
bigfont.shx
   0
STYLE
   5
40
 100
AcDbSymbolTableRecord
 100
AcDbTextStyleTableRecord
   2
GMM007
  70
0
  40
0.0
  41
 1.5000000000000
  50
0.0
  71
     0
  42
1.0
   3

   4

1001
ACAD
1000
ＭＳ ゴシック
1071
32817
   0
ENDTAB
  0
TABLE
  2
VIEW
  5
6
100
AcDbSymbolTable
 70
     0
  0
ENDTAB
  0
TABLE
  2
UCS
  5
7
100
AcDbSymbolTable
 70
     0
  0
ENDTAB
  0
TABLE
  2
APPID
  5
9
100
AcDbSymbolTable
 70
     1
  0
APPID
  5
10
100
AcDbSymbolTableRecord
100
AcDbRegAppTableRecord
  2
ACAD
 70
     0
  0
ENDTAB
   0
TABLE
   2
DIMSTYLE
   5
A
 100
AcDbSymbolTable
  70
11
 100
AcDbDimStyleTable
  0
DIMSTYLE
105
1D
100
AcDbSymbolTableRecord
100
AcDbDimStyleTableRecord
  2
STANDARD
 70
     0
  3

  4

  5

  6

  7

 40
1.0
 41
0.18
 42
0.0625
 43
0.38
 44
0.18
 45
0.0
 46
0.0
 47
0.0
 48
0.0
140
0.18
141
0.09
142
0.0
143
25.4
144
1.0
145
0.0
146
1.0
147
0.09
 71
     0
 72
     0
 73
     1
 74
     1
 75
     0
 76
     0
 77
     0
 78
     0
170
     0
171
     2
172
     0
173
     0
174
     0
175
     0
176
     0
177
     0
178
     0
270
     2
271
     4
272
     4
273
     2
274
     2
340
F
275
     0
280
     0
281
     0
282
     0
283
     1
284
     0
285
     0
286
     0
287
     3
288
     0
   0
DIMSTYLE
 105
41
 100
AcDbSymbolTableRecord
 100
AcDbDimStyleTableRecord
   2
GMM001
  70
0
   3

   4

   5

   6
_OPEN
   7
_OPEN
  40
 1.0000000000000
  41
 42.000000000000
  42
 30.000000000000
  43
 160.00000000000
  44
 30.000000000000
  45
0.0
  46
0.0
  47
0.0
  48
0.0
 140
 60.000000000000
 141
 20.000000000000
 142
0.0
 143
 0.39400000000000E-1
 144
 1.0000000000000
 145
0.0
 146
 0.83333333333333
 147
0.0
  71
0
  72
0
  73
0
  74
0
  75
0
  76
0
  77
0
  78
8
 170
0
 171
2
 172
1
 173
1
 174
0
 175
0
 176
1
 177
1
 178
7
 270
2
 271
1
 272
0
 273
2
 274
2
 340
3D
 275
0
 280
0
 281
0
 282
0
 283
1
 284
0
 285
0
 286
0
 287
3
 288
1
   0
DIMSTYLE
 105
42
 100
AcDbSymbolTableRecord
 100
AcDbDimStyleTableRecord
   2
GMM002
  70
0
   3

   4

   5

   6
_OPEN
   7
_OPEN
  40
 1.0000000000000
  41
 30.000000000000
  42
 30.000000000000
  43
 160.00000000000
  44
 30.000000000000
  45
0.0
  46
0.0
  47
0.0
  48
0.0
 140
 66.000000000000
 141
 20.000000000000
 142
0.0
 143
 0.39400000000000E-1
 144
 1.0000000000000
 145
0.0
 146
 0.75757575757576
 147
0.0
  71
0
  72
0
  73
0
  74
0
  75
0
  76
0
  77
0
  78
8
 170
0
 171
2
 172
1
 173
1
 174
0
 175
0
 176
1
 177
1
 178
7
 270
2
 271
1
 272
0
 273
2
 274
2
 340
3D
 275
0
 280
0
 281
0
 282
0
 283
1
 284
0
 285
0
 286
0
 287
3
 288
1
   0
DIMSTYLE
 105
43
 100
AcDbSymbolTableRecord
 100
AcDbDimStyleTableRecord
   2
GMM003
  70
0
   3

   4

   5

   6
_OPEN
   7
_OPEN
  40
 1.0000000000000
  41
 42.000000000000
  42
 30.000000000000
  43
 160.00000000000
  44
 30.000000000000
  45
0.0
  46
0.0
  47
0.0
  48
0.0
 140
 63.000000000000
 141
 20.000000000000
 142
0.0
 143
 0.39400000000000E-1
 144
 1.0000000000000
 145
0.0
 146
 0.79365079365079
 147
 14.000000000000
  71
0
  72
0
  73
0
  74
0
  75
0
  76
0
  77
3
  78
8
 170
0
 171
2
 172
1
 173
1
 174
0
 175
0
 176
6
 177
6
 178
1
 270
2
 271
1
 272
0
 273
2
 274
2
 340
3E
 275
0
 280
0
 281
0
 282
0
 283
1
 284
0
 285
0
 286
0
 287
3
 288
1
   0
DIMSTYLE
 105
44
 100
AcDbSymbolTableRecord
 100
AcDbDimStyleTableRecord
   2
GMM004
  70
0
   3

   4

   5

   6
_OPEN
   7
_OPEN
  40
 1.0000000000000
  41
 42.000000000000
  42
 30.000000000000
  43
 160.00000000000
  44
 30.000000000000
  45
0.0
  46
0.0
  47
0.0
  48
0.0
 140
 63.000000000000
 141
 20.000000000000
 142
0.0
 143
 0.39400000000000E-1
 144
 1.0000000000000
 145
0.0
 146
 0.79365079365079
 147
 14.000000000000
  71
0
  72
0
  73
0
  74
0
  75
0
  76
0
  77
3
  78
8
 170
0
 171
2
 172
1
 173
1
 174
0
 175
0
 176
6
 177
6
 178
1
 270
2
 271
1
 272
0
 273
2
 274
2
 340
3F
 275
0
 280
0
 281
0
 282
0
 283
1
 284
0
 285
0
 286
0
 287
3
 288
1
   0
DIMSTYLE
 105
45
 100
AcDbSymbolTableRecord
 100
AcDbDimStyleTableRecord
   2
GMM005
  70
0
   3

   4

   5

   6
_OPEN
   7
_OPEN
  40
 1.0000000000000
  41
 42.000000000000
  42
 30.000000000000
  43
 160.00000000000
  44
 30.000000000000
  45
0.0
  46
0.0
  47
0.0
  48
0.0
 140
 60.000000000000
 141
 20.000000000000
 142
0.0
 143
 0.39400000000000E-1
 144
 1.0000000000000
 145
0.0
 146
 0.83333333333333
 147
0.0
  71
0
  72
0
  73
0
  74
0
  75
0
  76
0
  77
0
  78
8
 170
0
 171
2
 172
1
 173
1
 174
0
 175
0
 176
1
 177
1
 178
7
 270
2
 271
1
 272
0
 273
2
 274
2
 340
3D
 275
0
 280
0
 281
0
 282
0
 283
1
 284
0
 285
0
 286
0
 287
3
 288
1
   0
DIMSTYLE
 105
46
 100
AcDbSymbolTableRecord
 100
AcDbDimStyleTableRecord
   2
GMM006
  70
0
   3
□<>
   4

   5

   6
_OPEN
   7
_OPEN
  40
 1.0000000000000
  41
 42.000000000000
  42
 30.000000000000
  43
 160.00000000000
  44
 30.000000000000
  45
0.0
  46
0.0
  47
0.0
  48
0.0
 140
 60.000000000000
 141
 20.000000000000
 142
0.0
 143
 0.39400000000000E-1
 144
 1.0000000000000
 145
0.0
 146
 0.83333333333333
 147
 14.000000000000
  71
0
  72
0
  73
0
  74
0
  75
0
  76
0
  77
3
  78
8
 170
0
 171
2
 172
1
 173
1
 174
0
 175
0
 176
6
 177
6
 178
1
 270
2
 271
1
 272
0
 273
2
 274
2
 340
3D
 275
0
 280
0
 281
0
 282
0
 283
1
 284
0
 285
0
 286
0
 287
3
 288
1
   0
DIMSTYLE
 105
47
 100
AcDbSymbolTableRecord
 100
AcDbDimStyleTableRecord
   2
GMM007
  70
0
   3

   4

   5

   6
_OPEN
   7
_OPEN
  40
 1.0000000000000
  41
 42.000000000000
  42
 30.000000000000
  43
 160.00000000000
  44
 30.000000000000
  45
0.0
  46
0.0
  47
0.0
  48
0.0
 140
 60.000000000000
 141
 20.000000000000
 142
0.0
 143
 0.39400000000000E-1
 144
 1.0000000000000
 145
0.0
 146
 0.83333333333333
 147
 25.714285714286
  71
0
  72
0
  73
0
  74
0
  75
0
  76
0
  77
3
  78
8
 170
0
 171
2
 172
1
 173
1
 174
0
 175
0
 176
6
 177
6
 178
1
 270
2
 271
6
 272
0
 273
2
 274
2
 340
3D
 275
1
 280
0
 281
0
 282
0
 283
1
 284
0
 285
0
 286
0
 287
3
 288
0
   0
DIMSTYLE
 105
48
 100
AcDbSymbolTableRecord
 100
AcDbDimStyleTableRecord
   2
GMM008
  70
0
   3

   4

   5

   6
_OPEN
   7
_OPEN
  40
 1.0000000000000
  41
 42.000000000000
  42
 30.000000000000
  43
 160.00000000000
  44
 30.000000000000
  45
0.0
  46
0.0
  47
0.0
  48
0.0
 140
 60.000000000000
 141
 20.000000000000
 142
0.0
 143
 0.39400000000000E-1
 144
 1.0000000000000
 145
0.0
 146
 0.83333333333333
 147
 25.714285714286
  71
0
  72
0
  73
0
  74
0
  75
0
  76
0
  77
3
  78
8
 170
0
 171
2
 172
1
 173
1
 174
0
 175
0
 176
6
 177
6
 178
1
 270
2
 271
6
 272
0
 273
2
 274
2
 340
3D
 275
1
 280
0
 281
0
 282
0
 283
1
 284
0
 285
0
 286
0
 287
3
 288
0
   0
DIMSTYLE
 105
49
 100
AcDbSymbolTableRecord
 100
AcDbDimStyleTableRecord
   2
GMM009
  70
0
   3

   4

   5

   6
_OPEN
   7
_OPEN
  40
 1.0000000000000
  41
 42.000000000000
  42
 30.000000000000
  43
 160.00000000000
  44
 30.000000000000
  45
0.0
  46
0.0
  47
0.0
  48
0.0
 140
 60.000000000000
 141
 20.000000000000
 142
0.0
 143
 0.39400000000000E-1
 144
 1.0000000000000
 145
0.0
 146
 0.83333333333333
 147
 25.714285714286
  71
0
  72
0
  73
0
  74
0
  75
0
  76
1
  77
3
  78
8
 170
0
 171
2
 172
1
 173
1
 174
0
 175
0
 176
6
 177
6
 178
1
 270
2
 271
6
 272
0
 273
2
 274
2
 340
3D
 275
1
 280
0
 281
0
 282
0
 283
1
 284
0
 285
0
 286
0
 287
3
 288
0
   0
ENDTAB
  0
TABLE
  2
BLOCK_RECORD
  5
1
100
AcDbSymbolTable
 70
     0
  0
BLOCK_RECORD
  5
18
100
AcDbSymbolTableRecord
100
AcDbBlockTableRecord
  2
*MODEL_SPACE
  0
BLOCK_RECORD
  5
15
100
AcDbSymbolTableRecord
100
AcDbBlockTableRecord
  2
*PAPER_SPACE
   0
BLOCK_RECORD
   5
4A
 100
AcDbSymbolTableRecord
 100
AcDbBlockTableRecord
   2
*D13
   0
BLOCK_RECORD
   5
4B
 100
AcDbSymbolTableRecord
 100
AcDbBlockTableRecord
   2
*D14
   0
BLOCK_RECORD
   5
4C
 100
AcDbSymbolTableRecord
 100
AcDbBlockTableRecord
   2
*D16
   0
BLOCK_RECORD
   5
4D
 100
AcDbSymbolTableRecord
 100
AcDbBlockTableRecord
   2
*D17
   0
BLOCK_RECORD
   5
4E
 100
AcDbSymbolTableRecord
 100
AcDbBlockTableRecord
   2
BLOCK001
   0
BLOCK_RECORD
   5
4F
 100
AcDbSymbolTableRecord
 100
AcDbBlockTableRecord
   2
BLOCK002
   0
BLOCK_RECORD
   5
50
 100
AcDbSymbolTableRecord
 100
AcDbBlockTableRecord
   2
BLOCK003
   0
BLOCK_RECORD
   5
51
 100
AcDbSymbolTableRecord
 100
AcDbBlockTableRecord
   2
*D18
   0
BLOCK_RECORD
   5
52
 100
AcDbSymbolTableRecord
 100
AcDbBlockTableRecord
   2
*D19
   0
BLOCK_RECORD
   5
53
 100
AcDbSymbolTableRecord
 100
AcDbBlockTableRecord
   2
*D20
   0
BLOCK_RECORD
   5
54
 100
AcDbSymbolTableRecord
 100
AcDbBlockTableRecord
   2
*D21
   0
BLOCK_RECORD
   5
55
 100
AcDbSymbolTableRecord
 100
AcDbBlockTableRecord
   2
_ARCHTICK
   0
BLOCK_RECORD
   5
56
 100
AcDbSymbolTableRecord
 100
AcDbBlockTableRecord
   2
_BOXBLANK
   0
BLOCK_RECORD
   5
57
 100
AcDbSymbolTableRecord
 100
AcDbBlockTableRecord
   2
_BOXFILLED
   0
BLOCK_RECORD
   5
58
 100
AcDbSymbolTableRecord
 100
AcDbBlockTableRecord
   2
_CLOSED
   0
BLOCK_RECORD
   5
59
 100
AcDbSymbolTableRecord
 100
AcDbBlockTableRecord
   2
_CLOSEDBLANK
   0
BLOCK_RECORD
   5
5A
 100
AcDbSymbolTableRecord
 100
AcDbBlockTableRecord
   2
_DATUMBLANK
   0
BLOCK_RECORD
   5
5B
 100
AcDbSymbolTableRecord
 100
AcDbBlockTableRecord
   2
_DATUMFILLED
   0
BLOCK_RECORD
   5
5C
 100
AcDbSymbolTableRecord
 100
AcDbBlockTableRecord
   2
_DOT
   0
BLOCK_RECORD
   5
5D
 100
AcDbSymbolTableRecord
 100
AcDbBlockTableRecord
   2
_DOTBLANK
   0
BLOCK_RECORD
   5
5E
 100
AcDbSymbolTableRecord
 100
AcDbBlockTableRecord
   2
_DOTSMALL
   0
BLOCK_RECORD
   5
5F
 100
AcDbSymbolTableRecord
 100
AcDbBlockTableRecord
   2
_INTEGRAL
   0
BLOCK_RECORD
   5
60
 100
AcDbSymbolTableRecord
 100
AcDbBlockTableRecord
   2
_NONE
   0
BLOCK_RECORD
   5
61
 100
AcDbSymbolTableRecord
 100
AcDbBlockTableRecord
   2
_OBLIQUE
   0
BLOCK_RECORD
   5
62
 100
AcDbSymbolTableRecord
 100
AcDbBlockTableRecord
   2
_OPEN
   0
BLOCK_RECORD
   5
63
 100
AcDbSymbolTableRecord
 100
AcDbBlockTableRecord
   2
_OPEN30
   0
BLOCK_RECORD
   5
64
 100
AcDbSymbolTableRecord
 100
AcDbBlockTableRecord
   2
_OPEN90
   0
BLOCK_RECORD
   5
65
 100
AcDbSymbolTableRecord
 100
AcDbBlockTableRecord
   2
_ORIGIN
   0
ENDTAB
   0
ENDSEC
  0
SECTION
  2
BLOCKS
  0
BLOCK
  5
19
100
AcDbEntity
  8
0
100
AcDbBlockBegin
  2
*MODEL_SPACE
 70
     0
 10
0.0
 20
0.0
 30
0.0
  3
*MODEL_SPACE
  1

  0
ENDBLK
  5
1A
100
AcDbEntity
  8
0
100
AcDbBlockEnd
  0
BLOCK
  5
16
100
AcDbEntity
 67
     1
  8
0
100
AcDbBlockBegin
  2
*PAPER_SPACE
 70
     0
 10
0.0
 20
0.0
 30
0.0
  3
*PAPER_SPACE
  1

  0
ENDBLK
  5
17
100
AcDbEntity
 67
     1
  8
0
100
AcDbBlockEnd
   0
BLOCK
   5
66
 100
AcDbEntity
   8
0
 100
AcDbBlockBegin
   2
_ARCHTICK
  70
0
  10
0.0
  20
0.0
  30
0.0
   3
_ARCHTICK
   0
POLYLINE
   5
67
 100
AcDbEntity
   8
0
 370
-2
   6
BYBLOCK
  62
0
 100
AcDb2dPolyline
  66
1
  10
0.0
  20
0.0
  30
0.0
  70
1
  40
 0.15000000000000
  41
 0.15000000000000
   0
VERTEX
   5
68
 100
AcDbEntity
   8
0
   6
BYBLOCK
  62
0
 100
AcDbVertex
 100
AcDb2dVertex
  10
-0.50000000000000
  20
-0.50000000000000
  30
0.0
  40
 0.15000000000000
  41
 0.15000000000000
   0
VERTEX
   5
69
 100
AcDbEntity
   8
0
   6
BYBLOCK
  62
0
 100
AcDbVertex
 100
AcDb2dVertex
  10
 0.50000000000000
  20
 0.50000000000000
  30
0.0
  40
 0.15000000000000
  41
 0.15000000000000
   0
SEQEND
   5
6A
 100
AcDbEntity
   8
0
   6
BYBLOCK
  62
0
   0
ENDBLK
   5
6B
 100
AcDbEntity
   8
0
 100
AcDbBlockEnd
   0
BLOCK
   5
6C
 100
AcDbEntity
   8
0
 100
AcDbBlockBegin
   2
_OBLIQUE
  70
0
  10
0.0
  20
0.0
  30
0.0
   3
_OBLIQUE
   0
LINE
   5
6D
 100
AcDbEntity
   8
0
 370
-2
 100
AcDbLine
   6
BYBLOCK
  62
0
  10
-0.50000000000000
  20
-0.50000000000000
  30
0.0
  11
 0.50000000000000
  21
 0.50000000000000
  31
0.0
   0
ENDBLK
   5
6E
 100
AcDbEntity
   8
0
 100
AcDbBlockEnd
   0
BLOCK
   5
6F
 100
AcDbEntity
   8
0
 100
AcDbBlockBegin
   2
_BOXBLANK
  70
0
  10
0.0
  20
0.0
  30
0.0
   3
_BOXBLANK
   0
LINE
   5
70
 100
AcDbEntity
   8
0
 370
-2
 100
AcDbLine
   6
BYBLOCK
  62
0
  10
-0.50000000000000
  20
-0.50000000000000
  30
0.0
  11
 0.50000000000000
  21
-0.50000000000000
  31
0.0
   0
LINE
   5
71
 100
AcDbEntity
   8
0
 370
-2
 100
AcDbLine
   6
BYBLOCK
  62
0
  10
 0.50000000000000
  20
-0.50000000000000
  30
0.0
  11
 0.50000000000000
  21
 0.50000000000000
  31
0.0
   0
LINE
   5
72
 100
AcDbEntity
   8
0
 370
-2
 100
AcDbLine
   6
BYBLOCK
  62
0
  10
 0.50000000000000
  20
 0.50000000000000
  30
0.0
  11
-0.50000000000000
  21
 0.50000000000000
  31
0.0
   0
LINE
   5
73
 100
AcDbEntity
   8
0
 370
-2
 100
AcDbLine
   6
BYBLOCK
  62
0
  10
-0.50000000000000
  20
 0.50000000000000
  30
0.0
  11
-0.50000000000000
  21
-0.50000000000000
  31
0.0
   0
LINE
   5
74
 100
AcDbEntity
   8
0
 370
-2
 100
AcDbLine
   6
BYBLOCK
  62
0
  10
-0.50000000000000
  20
0.0
  30
0.0
  11
-1.0000000000000
  21
0.0
  31
0.0
   0
ENDBLK
   5
75
 100
AcDbEntity
   8
0
 100
AcDbBlockEnd
   0
BLOCK
   5
76
 100
AcDbEntity
   8
0
 100
AcDbBlockBegin
   2
_BOXFILLED
  70
0
  10
0.0
  20
0.0
  30
0.0
   3
_BOXFILLED
   0
SOLID
   5
77
 100
AcDbEntity
   8
0
 100
AcDbTrace
   6
BYBLOCK
  62
0
  10
-0.50000000000000
  20
 0.50000000000000
  30
0.0
  11
 0.50000000000000
  21
 0.50000000000000
  31
0.0
  12
-0.50000000000000
  22
-0.50000000000000
  32
0.0
  13
 0.50000000000000
  23
-0.50000000000000
  33
0.0
   0
LINE
   5
78
 100
AcDbEntity
   8
0
 370
-2
 100
AcDbLine
   6
BYBLOCK
  62
0
  10
-0.50000000000000
  20
0.0
  30
0.0
  11
-1.0000000000000
  21
0.0
  31
0.0
   0
ENDBLK
   5
79
 100
AcDbEntity
   8
0
 100
AcDbBlockEnd
   0
BLOCK
   5
7A
 100
AcDbEntity
   8
0
 100
AcDbBlockBegin
   2
_CLOSED
  70
0
  10
0.0
  20
0.0
  30
0.0
   3
_CLOSED
   0
LINE
   5
7B
 100
AcDbEntity
   8
0
 370
-2
 100
AcDbLine
   6
BYBLOCK
  62
0
  10
-1.0000000000000
  20
 0.16666666666667
  30
0.0
  11
0.0
  21
0.0
  31
0.0
   0
LINE
   5
7C
 100
AcDbEntity
   8
0
 370
-2
 100
AcDbLine
   6
BYBLOCK
  62
0
  10
0.0
  20
0.0
  30
0.0
  11
-1.0000000000000
  21
-0.16666666666667
  31
0.0
   0
LINE
   5
7D
 100
AcDbEntity
   8
0
 370
-2
 100
AcDbLine
   6
BYBLOCK
  62
0
  10
-1.0000000000000
  20
 0.16666666666667
  30
0.0
  11
-1.0000000000000
  21
-0.16666666666667
  31
0.0
   0
LINE
   5
7E
 100
AcDbEntity
   8
0
 370
-2
 100
AcDbLine
   6
BYBLOCK
  62
0
  10
0.0
  20
0.0
  30
0.0
  11
-1.0000000000000
  21
0.0
  31
0.0
   0
ENDBLK
   5
7F
 100
AcDbEntity
   8
0
 100
AcDbBlockEnd
   0
BLOCK
   5
80
 100
AcDbEntity
   8
0
 100
AcDbBlockBegin
   2
_OPEN
  70
0
  10
0.0
  20
0.0
  30
0.0
   3
_OPEN
   0
LINE
   5
81
 100
AcDbEntity
   8
0
 370
-2
 100
AcDbLine
   6
BYBLOCK
  62
0
  10
-1.0000000000000
  20
 0.16666666666667
  30
0.0
  11
0.0
  21
0.0
  31
0.0
   0
LINE
   5
82
 100
AcDbEntity
   8
0
 370
-2
 100
AcDbLine
   6
BYBLOCK
  62
0
  10
0.0
  20
0.0
  30
0.0
  11
-1.0000000000000
  21
-0.16666666666667
  31
0.0
   0
LINE
   5
83
 100
AcDbEntity
   8
0
 370
-2
 100
AcDbLine
   6
BYBLOCK
  62
0
  10
0.0
  20
0.0
  30
0.0
  11
-1.0000000000000
  21
0.0
  31
0.0
   0
ENDBLK
   5
84
 100
AcDbEntity
   8
0
 100
AcDbBlockEnd
   0
BLOCK
   5
85
 100
AcDbEntity
   8
0
 100
AcDbBlockBegin
   2
_OPEN30
  70
0
  10
0.0
  20
0.0
  30
0.0
   3
_OPEN30
   0
LINE
   5
86
 100
AcDbEntity
   8
0
 370
-2
 100
AcDbLine
   6
BYBLOCK
  62
0
  10
-1.0000000000000
  20
 0.26794919243110
  30
0.0
  11
0.0
  21
0.0
  31
0.0
   0
LINE
   5
87
 100
AcDbEntity
   8
0
 370
-2
 100
AcDbLine
   6
BYBLOCK
  62
0
  10
0.0
  20
0.0
  30
0.0
  11
-1.0000000000000
  21
-0.26794919243110
  31
0.0
   0
LINE
   5
88
 100
AcDbEntity
   8
0
 370
-2
 100
AcDbLine
   6
BYBLOCK
  62
0
  10
0.0
  20
0.0
  30
0.0
  11
-1.0000000000000
  21
0.0
  31
0.0
   0
ENDBLK
   5
89
 100
AcDbEntity
   8
0
 100
AcDbBlockEnd
   0
BLOCK
   5
8A
 100
AcDbEntity
   8
0
 100
AcDbBlockBegin
   2
_OPEN90
  70
0
  10
0.0
  20
0.0
  30
0.0
   3
_OPEN90
   0
LINE
   5
8B
 100
AcDbEntity
   8
0
 370
-2
 100
AcDbLine
   6
BYBLOCK
  62
0
  10
-0.50000000000000
  20
 0.50000000000000
  30
0.0
  11
0.0
  21
0.0
  31
0.0
   0
LINE
   5
8C
 100
AcDbEntity
   8
0
 370
-2
 100
AcDbLine
   6
BYBLOCK
  62
0
  10
0.0
  20
0.0
  30
0.0
  11
-0.50000000000000
  21
-0.50000000000000
  31
0.0
   0
LINE
   5
8D
 100
AcDbEntity
   8
0
 370
-2
 100
AcDbLine
   6
BYBLOCK
  62
0
  10
0.0
  20
0.0
  30
0.0
  11
-1.0000000000000
  21
0.0
  31
0.0
   0
ENDBLK
   5
8E
 100
AcDbEntity
   8
0
 100
AcDbBlockEnd
   0
BLOCK
   5
8F
 100
AcDbEntity
   8
0
 100
AcDbBlockBegin
   2
_CLOSEDBLANK
  70
0
  10
0.0
  20
0.0
  30
0.0
   3
_CLOSEDBLANK
   0
LINE
   5
90
 100
AcDbEntity
   8
0
 370
-2
 100
AcDbLine
   6
BYBLOCK
  62
0
  10
-1.0000000000000
  20
 0.16666666666667
  30
0.0
  11
0.0
  21
0.0
  31
0.0
   0
LINE
   5
91
 100
AcDbEntity
   8
0
 370
-2
 100
AcDbLine
   6
BYBLOCK
  62
0
  10
0.0
  20
0.0
  30
0.0
  11
-1.0000000000000
  21
-0.16666666666667
  31
0.0
   0
LINE
   5
92
 100
AcDbEntity
   8
0
 370
-2
 100
AcDbLine
   6
BYBLOCK
  62
0
  10
-1.0000000000000
  20
 0.16666666666667
  30
0.0
  11
-1.0000000000000
  21
-0.16666666666667
  31
0.0
   0
ENDBLK
   5
93
 100
AcDbEntity
   8
0
 100
AcDbBlockEnd
   0
BLOCK
   5
94
 100
AcDbEntity
   8
0
 100
AcDbBlockBegin
   2
_DOT
  70
0
  10
0.0
  20
0.0
  30
0.0
   3
_DOT
   0
POLYLINE
   5
95
 100
AcDbEntity
   8
0
 370
-2
   6
BYBLOCK
  62
0
 100
AcDb2dPolyline
  66
1
  10
0.0
  20
0.0
  30
0.0
  70
1
  40
 0.50000000000000
  41
 0.50000000000000
   0
VERTEX
   5
96
 100
AcDbEntity
   8
0
   6
BYBLOCK
  62
0
 100
AcDbVertex
 100
AcDb2dVertex
  10
-0.25000000000000
  20
0.0
  30
0.0
  42
 1.0000000000000
  40
 0.50000000000000
  41
 0.50000000000000
   0
VERTEX
   5
97
 100
AcDbEntity
   8
0
   6
BYBLOCK
  62
0
 100
AcDbVertex
 100
AcDb2dVertex
  10
 0.25000000000000
  20
0.0
  30
0.0
  42
 1.0000000000000
  40
 0.50000000000000
  41
 0.50000000000000
   0
SEQEND
   5
98
 100
AcDbEntity
   8
0
   6
BYBLOCK
  62
0
   0
LINE
   5
99
 100
AcDbEntity
   8
0
 370
-2
 100
AcDbLine
   6
BYBLOCK
  62
0
  10
-0.50000000000000
  20
0.0
  30
0.0
  11
-1.0000000000000
  21
0.0
  31
0.0
   0
ENDBLK
   5
9A
 100
AcDbEntity
   8
0
 100
AcDbBlockEnd
   0
BLOCK
   5
9B
 100
AcDbEntity
   8
0
 100
AcDbBlockBegin
   2
_DOTSMALL
  70
0
  10
0.0
  20
0.0
  30
0.0
   3
_DOTSMALL
   0
POLYLINE
   5
9C
 100
AcDbEntity
   8
0
 370
-2
   6
BYBLOCK
  62
0
 100
AcDb2dPolyline
  66
1
  10
0.0
  20
0.0
  30
0.0
  70
1
  40
 0.50000000000000
  41
 0.50000000000000
   0
VERTEX
   5
9D
 100
AcDbEntity
   8
0
   6
BYBLOCK
  62
0
 100
AcDbVertex
 100
AcDb2dVertex
  10
-0.62500000000000E-1
  20
0.0
  30
0.0
  42
 1.0000000000000
  40
 0.50000000000000
  41
 0.50000000000000
   0
VERTEX
   5
9E
 100
AcDbEntity
   8
0
   6
BYBLOCK
  62
0
 100
AcDbVertex
 100
AcDb2dVertex
  10
 0.62500000000000E-1
  20
0.0
  30
0.0
  42
 1.0000000000000
  40
 0.50000000000000
  41
 0.50000000000000
   0
SEQEND
   5
9F
 100
AcDbEntity
   8
0
   6
BYBLOCK
  62
0
   0
ENDBLK
   5
A0
 100
AcDbEntity
   8
0
 100
AcDbBlockEnd
   0
BLOCK
   5
A1
 100
AcDbEntity
   8
0
 100
AcDbBlockBegin
   2
_DATUMBLANK
  70
0
  10
0.0
  20
0.0
  30
0.0
   3
_DATUMBLANK
   0
LINE
   5
A2
 100
AcDbEntity
   8
0
 370
-2
 100
AcDbLine
   6
BYBLOCK
  62
0
  10
0.0
  20
 0.57735027000000
  30
0.0
  11
-1.0000000000000
  21
0.0
  31
0.0
   0
LINE
   5
A3
 100
AcDbEntity
   8
0
 370
-2
 100
AcDbLine
   6
BYBLOCK
  62
0
  10
-1.0000000000000
  20
0.0
  30
0.0
  11
0.0
  21
-0.57735027000000
  31
0.0
   0
LINE
   5
A4
 100
AcDbEntity
   8
0
 370
-2
 100
AcDbLine
   6
BYBLOCK
  62
0
  10
0.0
  20
-0.57735027000000
  30
0.0
  11
0.0
  21
 0.57735027000000
  31
0.0
   0
ENDBLK
   5
A5
 100
AcDbEntity
   8
0
 100
AcDbBlockEnd
   0
BLOCK
   5
A6
 100
AcDbEntity
   8
0
 100
AcDbBlockBegin
   2
_DATUMFILLED
  70
0
  10
0.0
  20
0.0
  30
0.0
   3
_DATUMFILLED
   0
SOLID
   5
A7
 100
AcDbEntity
   8
0
 100
AcDbTrace
   6
BYBLOCK
  62
0
  10
0.0
  20
 0.57735027000000
  30
0.0
  11
-1.0000000000000
  21
0.0
  31
0.0
  12
0.0
  22
-0.57735027000000
  32
0.0
  13
0.0
  23
-0.57735027000000
  33
0.0
   0
ENDBLK
   5
A8
 100
AcDbEntity
   8
0
 100
AcDbBlockEnd
   0
BLOCK
   5
A9
 100
AcDbEntity
   8
0
 100
AcDbBlockBegin
   2
_ORIGIN
  70
0
  10
0.0
  20
0.0
  30
0.0
   3
_ORIGIN
   0
CIRCLE
   5
AA
 100
AcDbEntity
   8
0
 370
-2
 100
AcDbCircle
   6
BYBLOCK
  62
0
  10
0.0
  20
0.0
  30
0.0
  40
 0.50000000000000
   0
LINE
   5
AB
 100
AcDbEntity
   8
0
 370
-2
 100
AcDbLine
   6
BYBLOCK
  62
0
  10
0.0
  20
0.0
  30
0.0
  11
-1.0000000000000
  21
0.0
  31
0.0
   0
ENDBLK
   5
AC
 100
AcDbEntity
   8
0
 100
AcDbBlockEnd
   0
BLOCK
   5
AD
 100
AcDbEntity
   8
0
 100
AcDbBlockBegin
   2
_NONE
  70
0
  10
0.0
  20
0.0
  30
0.0
   3
_NONE
   0
CIRCLE
   5
AE
 100
AcDbEntity
   8
0
 370
-2
 100
AcDbCircle
   6
BYBLOCK
  62
0
  10
0.0
  20
0.0
  30
0.0
  40
 0.25000000000000
   0
ENDBLK
   5
AF
 100
AcDbEntity
   8
0
 100
AcDbBlockEnd
   0
BLOCK
   5
B0
 100
AcDbEntity
   8
0
 100
AcDbBlockBegin
   2
_DOTBLANK
  70
0
  10
0.0
  20
0.0
  30
0.0
   3
_DOTBLANK
   0
CIRCLE
   5
B1
 100
AcDbEntity
   8
0
 370
-2
 100
AcDbCircle
   6
BYBLOCK
  62
0
  10
0.0
  20
0.0
  30
0.0
  40
 0.50000000000000
   0
LINE
   5
B2
 100
AcDbEntity
   8
0
 370
-2
 100
AcDbLine
   6
BYBLOCK
  62
0
  10
-0.50000000000000
  20
0.0
  30
0.0
  11
-1.0000000000000
  21
0.0
  31
0.0
   0
ENDBLK
   5
B3
 100
AcDbEntity
   8
0
 100
AcDbBlockEnd
   0
BLOCK
   5
B4
 100
AcDbEntity
   8
0
 100
AcDbBlockBegin
   2
_INTEGRAL
  70
0
  10
0.0
  20
0.0
  30
0.0
   3
_INTEGRAL
   0
ARC
   5
B5
 100
AcDbEntity
   8
0
 370
-2
   6
BYBLOCK
  62
0
 100
AcDbCircle
  10
 0.44488800000000
  20
-0.91335000000000E-1
  30
0.0
  40
 0.45416700000000
 100
AcDbArc
  50
 102.00000000000
  51
 168.00000000000
   0
ARC
   5
B6
 100
AcDbEntity
   8
0
 370
-2
   6
BYBLOCK
  62
0
 100
AcDbCircle
  10
-0.44488800000000
  20
 0.91335000000000E-1
  30
0.0
  40
 0.45416700000000
 100
AcDbArc
  50
 282.00000000000
  51
 348.00000000000
   0
ENDBLK
   5
B7
 100
AcDbEntity
   8
0
 100
AcDbBlockEnd
   0
BLOCK
   5
B8
 100
AcDbEntity
   8
0
 100
AcDbBlockBegin
   2
*D13
  70
65
  10
0.0
  20
0.0
  30
0.0
   3
*D13
   0
LINE
   5
B9
 100
AcDbEntity
   8
LEVEL001
 370
13
 100
AcDbLine
   6
CONTINUOUS
  62
6
  10
 1787.2050561798
  20
 4837.6123595506
  30
0.0
  11
 1484.7050561798
  21
 4837.6123595506
  31
0.0
   0
LINE
   5
BA
 100
AcDbEntity
   8
LEVEL001
 370
13
 100
AcDbLine
   6
CONTINUOUS
  62
6
  10
 1182.2050561798
  20
 4837.6123595506
  30
0.0
  11
 1484.7050561798
  21
 4837.6123595506
  31
0.0
   0
INSERT
   5
BB
 100
AcDbEntity
   8
LEVEL001
   6
CONTINUOUS
  62
6
 100
AcDbBlockReference
   2
_OPEN
  10
 1787.2050561798
  20
 4837.6123595506
  30
0.0
  41
 42.000000000000
  42
 42.000000000000
  43
 42.000000000000
  50
0.0
   0
INSERT
   5
BC
 100
AcDbEntity
   8
LEVEL001
   6
CONTINUOUS
  62
6
 100
AcDbBlockReference
   2
_OPEN
  10
 1182.2050561798
  20
 4837.6123595506
  30
0.0
  41
 42.000000000000
  42
 42.000000000000
  43
 42.000000000000
  50
 180.00000000000
   0
MTEXT
   5
BD
 100
AcDbEntity
   8
LEVEL001
 370
13
  62
1
 100
AcDbMText
  10
 1515.4542647990
  20
 4851.6123595506
  30
0.0
  40
 63.000000000000
  41
0.0
  71
8
  72
1
   1
\A1;600
   7
GMM005
   0
ENDBLK
   5
BE
 100
AcDbEntity
   8
0
 100
AcDbBlockEnd
   0
BLOCK
   5
BF
 100
AcDbEntity
   8
0
 100
AcDbBlockBegin
   2
*D14
  70
65
  10
0.0
  20
0.0
  30
0.0
   3
*D14
   0
LINE
   5
C0
 100
AcDbEntity
   8
LEVEL001
 370
13
 100
AcDbLine
   6
CONTINUOUS
  62
6
  10
 1334.7050561798
  20
 4510.1123595506
  30
0.0
  11
 1334.7050561798
  21
 4737.6123595506
  31
0.0
   0
LINE
   5
C1
 100
AcDbEntity
   8
LEVEL001
 370
13
 100
AcDbLine
   6
CONTINUOUS
  62
6
  10
 1334.7050561798
  20
 4965.1123595506
  30
0.0
  11
 1334.7050561798
  21
 4737.6123595506
  31
0.0
   0
INSERT
   5
C2
 100
AcDbEntity
   8
LEVEL001
   6
CONTINUOUS
  62
6
 100
AcDbBlockReference
   2
_OPEN
  10
 1334.7050561798
  20
 4510.1123595506
  30
0.0
  41
 42.000000000000
  42
 42.000000000000
  43
 42.000000000000
  50
 270.00000000000
   0
INSERT
   5
C3
 100
AcDbEntity
   8
LEVEL001
   6
CONTINUOUS
  62
6
 100
AcDbBlockReference
   2
_OPEN
  10
 1334.7050561798
  20
 4965.1123595506
  30
0.0
  41
 42.000000000000
  42
 42.000000000000
  43
 42.000000000000
  50
 90.000000000000
   0
MTEXT
   5
C4
 100
AcDbEntity
   8
LEVEL001
 370
13
  62
1
 100
AcDbMText
  10
 1320.7050561798
  20
 4704.7991190948
  30
0.0
  40
 63.000000000000
  41
0.0
  71
8
  72
1
   1
\A1;450
   7
GMM006
  11
0.0
  21
 1.0000000000000
  31
0.0
   0
ENDBLK
   5
C5
 100
AcDbEntity
   8
0
 100
AcDbBlockEnd
   0
BLOCK
   5
C6
 100
AcDbEntity
   8
0
 100
AcDbBlockBegin
   2
*D16
  70
65
  10
0.0
  20
0.0
  30
0.0
   3
*D16
   0
LINE
   5
C7
 100
AcDbEntity
   8
LEVEL001
 370
13
 100
AcDbLine
   6
CONTINUOUS
  62
6
  10
 1234.7050561798
  20
 1159.2123595506
  30
0.0
  11
 1234.7050561798
  21
 959.21235955056
  31
0.0
   0
LINE
   5
C8
 100
AcDbEntity
   8
LEVEL001
 370
13
 100
AcDbLine
   6
CONTINUOUS
  62
6
  10
 1734.7050561798
  20
 1159.2123595506
  30
0.0
  11
 1734.7050561798
  21
 959.21235955056
  31
0.0
   0
LINE
   5
C9
 100
AcDbEntity
   8
LEVEL001
 370
13
 100
AcDbLine
   6
CONTINUOUS
  62
6
  10
 1234.7050561798
  20
 989.21235955056
  30
0.0
  11
 1484.7050561798
  21
 989.21235955056
  31
0.0
   0
LINE
   5
CA
 100
AcDbEntity
   8
LEVEL001
 370
13
 100
AcDbLine
   6
CONTINUOUS
  62
6
  10
 1734.7050561798
  20
 989.21235955056
  30
0.0
  11
 1484.7050561798
  21
 989.21235955056
  31
0.0
   0
INSERT
   5
CB
 100
AcDbEntity
   8
LEVEL001
   6
CONTINUOUS
  62
6
 100
AcDbBlockReference
   2
_OPEN
  10
 1234.7050561798
  20
 989.21235955056
  30
0.0
  41
 42.000000000000
  42
 42.000000000000
  43
 42.000000000000
  50
 180.00000000000
   0
INSERT
   5
CC
 100
AcDbEntity
   8
LEVEL001
   6
CONTINUOUS
  62
6
 100
AcDbBlockReference
   2
_OPEN
  10
 1734.7050561798
  20
 989.21235955056
  30
0.0
  41
 42.000000000000
  42
 42.000000000000
  43
 42.000000000000
  50
0.0
   0
MTEXT
   5
CD
 100
AcDbEntity
   8
LEVEL001
 370
13
  62
1
 100
AcDbMText
  10
 1484.7050561798
  20
 1003.2123595506
  30
0.0
  40
 60.000000000000
  41
0.0
  71
8
  72
1
   1
\A1;□500
   7
GMM004
   0
ENDBLK
   5
CE
 100
AcDbEntity
   8
0
 100
AcDbBlockEnd
   0
BLOCK
   5
CF
 100
AcDbEntity
   8
0
 100
AcDbBlockBegin
   2
*D17
  70
65
  10
0.0
  20
0.0
  30
0.0
   3
*D17
   0
LINE
   5
D0
 100
AcDbEntity
   8
LEVEL001
 370
13
 100
AcDbLine
   6
CONTINUOUS
  62
6
  10
 2384.7050561798
  20
 1159.2123595506
  30
0.0
  11
 2384.7050561798
  21
 959.21235955056
  31
0.0
   0
LINE
   5
D1
 100
AcDbEntity
   8
LEVEL001
 370
13
 100
AcDbLine
   6
CONTINUOUS
  62
6
  10
 2884.7050561798
  20
 1159.2123595506
  30
0.0
  11
 2884.7050561798
  21
 959.21235955056
  31
0.0
   0
LINE
   5
D2
 100
AcDbEntity
   8
LEVEL001
 370
13
 100
AcDbLine
   6
CONTINUOUS
  62
6
  10
 2384.7050561798
  20
 989.21235955056
  30
0.0
  11
 2634.7050561798
  21
 989.21235955056
  31
0.0
   0
LINE
   5
D3
 100
AcDbEntity
   8
LEVEL001
 370
13
 100
AcDbLine
   6
CONTINUOUS
  62
6
  10
 2884.7050561798
  20
 989.21235955056
  30
0.0
  11
 2634.7050561798
  21
 989.21235955056
  31
0.0
   0
INSERT
   5
D4
 100
AcDbEntity
   8
LEVEL001
   6
CONTINUOUS
  62
6
 100
AcDbBlockReference
   2
_OPEN
  10
 2384.7050561798
  20
 989.21235955056
  30
0.0
  41
 42.000000000000
  42
 42.000000000000
  43
 42.000000000000
  50
 180.00000000000
   0
INSERT
   5
D5
 100
AcDbEntity
   8
LEVEL001
   6
CONTINUOUS
  62
6
 100
AcDbBlockReference
   2
_OPEN
  10
 2884.7050561798
  20
 989.21235955056
  30
0.0
  41
 42.000000000000
  42
 42.000000000000
  43
 42.000000000000
  50
0.0
   0
MTEXT
   5
D6
 100
AcDbEntity
   8
LEVEL001
 370
13
  62
1
 100
AcDbMText
  10
 2634.7050561798
  20
 1003.2123595506
  30
0.0
  40
 60.000000000000
  41
0.0
  71
8
  72
1
   1
\A1;□500
   7
GMM004
   0
ENDBLK
   5
D7
 100
AcDbEntity
   8
0
 100
AcDbBlockEnd
   0
BLOCK
   5
D8
 100
AcDbEntity
   8
0
 100
AcDbBlockBegin
   2
BLOCK001
  70
64
  10
0.0
  20
0.0
  30
0.0
   3
BLOCK001
   0
LINE
   5
D9
 100
AcDbEntity
   8
LEVEL001
 370
13
 100
AcDbLine
   6
CONTINUOUS
  62
5
  10
 1484.7040796173
  20
 4339.2150189354
  30
0.0
  11
 1429.7040796173
  21
 4269.2150189354
  31
0.0
   0
LINE
   5
DA
 100
AcDbEntity
   8
LEVEL001
 370
13
 100
AcDbLine
   6
CONTINUOUS
  62
5
  10
 1429.7040796173
  20
 4269.2150189354
  30
0.0
  11
 1459.7040796173
  21
 4269.2150189354
  31
0.0
   0
LINE
   5
DB
 100
AcDbEntity
   8
LEVEL001
 370
13
 100
AcDbLine
   6
CONTINUOUS
  62
5
  10
 1459.7040796173
  20
 4269.2150189354
  30
0.0
  11
 1459.7040796173
  21
 4239.2150189354
  31
0.0
   0
LINE
   5
DC
 100
AcDbEntity
   8
LEVEL001
 370
13
 100
AcDbLine
   6
CONTINUOUS
  62
5
  10
 1459.7040796173
  20
 4239.2150189354
  30
0.0
  11
 1509.7040796173
  21
 4239.2150189354
  31
0.0
   0
LINE
   5
DD
 100
AcDbEntity
   8
LEVEL001
 370
13
 100
AcDbLine
   6
CONTINUOUS
  62
5
  10
 1539.7040796173
  20
 4269.2150189354
  30
0.0
  11
 1484.7040796173
  21
 4339.2150189354
  31
0.0
   0
LINE
   5
DE
 100
AcDbEntity
   8
LEVEL001
 370
13
 100
AcDbLine
   6
CONTINUOUS
  62
5
  10
 1509.7040796173
  20
 4269.2150189354
  30
0.0
  11
 1539.7040796173
  21
 4269.2150189354
  31
0.0
   0
LINE
   5
DF
 100
AcDbEntity
   8
LEVEL001
 370
13
 100
AcDbLine
   6
CONTINUOUS
  62
5
  10
 1509.7040796173
  20
 4239.2150189354
  30
0.0
  11
 1509.7040796173
  21
 4269.2150189354
  31
0.0
   0
ENDBLK
   5
E0
 100
AcDbEntity
   8
0
 100
AcDbBlockEnd
   0
BLOCK
   5
E1
 100
AcDbEntity
   8
0
 100
AcDbBlockBegin
   2
BLOCK002
  70
64
  10
0.0
  20
0.0
  30
0.0
   3
BLOCK002
   0
LINE
   5
E2
 100
AcDbEntity
   8
LEVEL001
 370
13
 100
AcDbLine
   6
CONTINUOUS
  62
1
  10
 1415.0611352813
  20
 4173.2059857324
  30
0.0
  11
 1430.3303003204
  21
 4170.9513470604
  31
0.0
   0
ARC
   5
E3
 100
AcDbEntity
   8
LEVEL001
 370
13
   6
CONTINUOUS
  62
1
 100
AcDbCircle
  10
 1428.9476168901
  20
 4150.4181385802
  30
0.0
  40
 20.579710006714
 100
AcDbArc
  50
 10.432655985708
  51
 86.147581847720
   0
ARC
   5
E4
 100
AcDbEntity
   8
LEVEL001
 370
13
   6
CONTINUOUS
  62
1
 100
AcDbCircle
  10
 1435.3032539056
  20
 4153.8425265760
  30
0.0
  40
 13.887145996094
 100
AcDbArc
  50
 284.73810286311
  51
 1.2468362600447
   0
LINE
   5
E5
 100
AcDbEntity
   8
LEVEL001
 370
13
 100
AcDbLine
   6
CONTINUOUS
  62
1
  10
 1438.8361596954
  20
 4140.4122845604
  30
0.0
  11
 1415.0611352813
  21
 4173.2059857324
  31
0.0
   0
ARC
   5
E6
 100
AcDbEntity
   8
LEVEL001
 370
13
   6
CONTINUOUS
  62
1
 100
AcDbCircle
  10
 1422.6083471801
  20
 4113.6009546604
  30
0.0
  40
 20.228109359742
 100
AcDbArc
  50
 1.0520107710460
  51
 78.795797145824
   0
ARC
   5
E7
 100
AcDbEntity
   8
LEVEL001
 370
13
   6
CONTINUOUS
  62
1
 100
AcDbCircle
  10
 1427.8647839294
  20
 4115.7508959200
  30
0.0
  40
 15.073557853699
 100
AcDbArc
  50
 288.65953719946
  51
 353.22379545230
   0
LINE
   5
E8
 100
AcDbEntity
   8
LEVEL001
 370
13
 100
AcDbLine
   6
CONTINUOUS
  62
1
  10
 1417.4180078399
  20
 4087.4298626854
  30
0.0
  11
 1424.3866968048
  21
 4048.5895306542
  31
0.0
   0
ARC
   5
E9
 100
AcDbEntity
   8
LEVEL001
 370
13
   6
CONTINUOUS
  62
1
 100
AcDbCircle
  10
 1434.3691181883
  20
 4052.2214649052
  30
0.0
  40
 10.622602462769
 100
AcDbArc
  50
 199.99305619357
  51
 1.9685270930323
   0
LINE
   5
EA
 100
AcDbEntity
   8
LEVEL001
 370
13
 100
AcDbLine
   6
CONTINUOUS
  62
1
  10
 1444.9854516876
  20
 4052.5863568262
  30
0.0
  11
 1441.8082666290
  21
 4069.7006146386
  31
0.0
   0
LINE
   5
EB
 100
AcDbEntity
   8
LEVEL001
 370
13
 100
AcDbLine
   6
CONTINUOUS
  62
1
  10
 1441.8082666290
  20
 4069.7006146386
  30
0.0
  11
 1454.1059350860
  21
 4129.1393353418
  31
0.0
   0
LINE
   5
EC
 100
AcDbEntity
   8
LEVEL001
 370
13
 100
AcDbLine
   6
CONTINUOUS
  62
1
  10
 1454.1059350860
  20
 4129.1393353418
  30
0.0
  11
 1431.2528467071
  21
 4079.2313763574
  31
0.0
   0
LINE
   5
ED
 100
AcDbEntity
   8
LEVEL001
 370
13
 100
AcDbLine
   6
CONTINUOUS
  62
1
  10
 1431.2528467071
  20
 4079.2313763574
  30
0.0
  11
 1417.4180078399
  21
 4087.4298626854
  31
0.0
   0
LINE
   5
EE
 100
AcDbEntity
   8
LEVEL001
 370
13
 100
AcDbLine
   6
CONTINUOUS
  62
1
  10
 1481.3657617462
  20
 4156.3993451074
  30
0.0
  11
 1451.9538354766
  21
 4156.3993451074
  31
0.0
   0
LINE
   5
EF
 100
AcDbEntity
   8
LEVEL001
 370
13
 100
AcDbLine
   6
CONTINUOUS
  62
1
  10
 1451.9538354766
  20
 4156.3993451074
  30
0.0
  11
 1456.3605737579
  21
 4145.4337689354
  31
0.0
   0
LINE
   5
F0
 100
AcDbEntity
   8
LEVEL001
 370
13
 100
AcDbLine
   6
CONTINUOUS
  62
1
  10
 1456.3605737579
  20
 4145.4337689354
  30
0.0
  11
 1481.3657617462
  21
 4145.4337689354
  31
0.0
   0
LINE
   5
F1
 100
AcDbEntity
   8
LEVEL001
 370
13
 100
AcDbLine
   6
CONTINUOUS
  62
1
  10
 1481.3657617462
  20
 4114.8944622948
  30
0.0
  11
 1453.5935449493
  21
 4114.8944622948
  31
0.0
   0
LINE
   5
F2
 100
AcDbEntity
   8
LEVEL001
 370
13
 100
AcDbLine
   6
CONTINUOUS
  62
1
  10
 1453.5935449493
  20
 4114.8944622948
  30
0.0
  11
 1458.5126733673
  21
 4102.8019329980
  31
0.0
   0
LINE
   5
F3
 100
AcDbEntity
   8
LEVEL001
 370
13
 100
AcDbLine
   6
CONTINUOUS
  62
1
  10
 1458.5126733673
  20
 4102.8019329980
  30
0.0
  11
 1481.3657617462
  21
 4102.8019329980
  31
0.0
   0
LINE
   5
F4
 100
AcDbEntity
   8
LEVEL001
 370
13
 100
AcDbLine
   6
CONTINUOUS
  62
1
  10
 1481.3657617462
  20
 4057.9154583886
  30
0.0
  11
 1448.8794946563
  21
 4057.9154583886
  31
0.0
   0
LINE
   5
F5
 100
AcDbEntity
   8
LEVEL001
 370
13
 100
AcDbLine
   6
CONTINUOUS
  62
1
  10
 1448.8794946563
  20
 4057.9154583886
  30
0.0
  11
 1454.3110132110
  21
 4045.8226849512
  31
0.0
   0
LINE
   5
F6
 100
AcDbEntity
   8
LEVEL001
 370
13
 100
AcDbLine
   6
CONTINUOUS
  62
1
  10
 1454.3110132110
  20
 4045.8226849512
  30
0.0
  11
 1544.6888208282
  21
 4045.8226849512
  31
0.0
   0
ARC
   5
F7
 100
AcDbEntity
   8
LEVEL001
 370
13
   6
CONTINUOUS
  62
1
 100
AcDbCircle
  10
 1455.3024963001
  20
 3945.2761500454
  30
0.0
  40
 22.293228149414
 100
AcDbArc
  50
 35.161467069537
  51
 78.641482600079
   0
ARC
   5
F8
 100
AcDbEntity
   8
LEVEL001
 370
13
   6
CONTINUOUS
  62
1
 100
AcDbCircle
  10
 1467.1824965106
  20
 3956.3328463824
  30
0.0
  40
 6.5907969474792
 100
AcDbArc
  50
 312.23496141855
  51
 15.682969951835
   0
LINE
   5
F9
 100
AcDbEntity
   8
LEVEL001
 370
13
 100
AcDbLine
   6
CONTINUOUS
  62
1
  10
 1471.6126489532
  20
 3951.4530560448
  30
0.0
  11
 1490.5396509063
  21
 3951.4530560448
  31
0.0
   0
LINE
   5
FA
 100
AcDbEntity
   8
LEVEL001
 370
13
 100
AcDbLine
   6
CONTINUOUS
  62
1
  10
 1500.9928369415
  20
 3967.1327435448
  30
0.0
  11
 1459.6930932891
  21
 3967.1327435448
  31
0.0
   0
LINE
   5
FB
 100
AcDbEntity
   8
LEVEL001
 370
13
 100
AcDbLine
   6
CONTINUOUS
  62
1
  10
 1497.2757959259
  20
 3988.8671185448
  30
0.0
  11
 1472.5031518829
  21
 3989.4733197168
  31
0.0
   0
LINE
   5
FC
 100
AcDbEntity
   8
LEVEL001
 370
13
 100
AcDbLine
   6
CONTINUOUS
  62
1
  10
 1472.5031518829
  20
 3989.4733197168
  30
0.0
  11
 1472.5031518829
  21
 3977.0731732324
  31
0.0
   0
LINE
   5
FD
 100
AcDbEntity
   8
LEVEL001
 370
13
 100
AcDbLine
   6
CONTINUOUS
  62
1
  10
 1472.5031518829
  20
 3977.0731732324
  30
0.0
  11
 1423.0408716094
  21
 3977.0731732324
  31
0.0
   0
LINE
   5
FE
 100
AcDbEntity
   8
LEVEL001
 370
13
 100
AcDbLine
   6
CONTINUOUS
  62
1
  10
 1423.0408716094
  20
 3977.0731732324
  30
0.0
  11
 1427.5141382110
  21
 3967.1327435448
  31
0.0
   0
LINE
   5
FF
 100
AcDbEntity
   8
LEVEL001
 370
13
 100
AcDbLine
   6
CONTINUOUS
  62
1
  10
 1427.5141382110
  20
 3967.1327435448
  30
0.0
  11
 1445.1410913360
  21
 3967.1327435448
  31
0.0
   0
LINE
   5
100
 100
AcDbEntity
   8
LEVEL001
 370
13
 100
AcDbLine
   6
CONTINUOUS
  62
1
  10
 1445.1410913360
  20
 3967.1327435448
  30
0.0
  11
 1455.0815820587
  21
 3951.4530560448
  31
0.0
   0
LINE
   5
101
 100
AcDbEntity
   8
LEVEL001
 370
13
 100
AcDbLine
   6
CONTINUOUS
  62
1
  10
 1455.0815820587
  20
 3951.4530560448
  30
0.0
  11
 1420.3663110626
  21
 3951.4530560448
  31
0.0
   0
LINE
   5
102
 100
AcDbEntity
   8
LEVEL001
 370
13
 100
AcDbLine
   6
CONTINUOUS
  62
1
  10
 1420.3663110626
  20
 3951.4530560448
  30
0.0
  11
 1425.2668237579
  21
 3940.8976361230
  31
0.0
   0
LINE
   5
103
 100
AcDbEntity
   8
LEVEL001
 370
13
 100
AcDbLine
   6
CONTINUOUS
  62
1
  10
 1425.2668237579
  20
 3940.8976361230
  30
0.0
  11
 1548.8514184844
  21
 3940.8976361230
  31
0.0
   0
ARC
   5
104
 100
AcDbEntity
   8
LEVEL001
 370
13
   6
CONTINUOUS
  62
1
 100
AcDbCircle
  10
 1444.6407351313
  20
 3916.8670899612
  30
0.0
  40
 31.206602096558
 100
AcDbArc
  50
 246.86715997187
  51
 289.54649732736
   0
LINE
   5
105
 100
AcDbEntity
   8
LEVEL001
 370
13
 100
AcDbLine
   6
CONTINUOUS
  62
1
  10
 1455.0815820587
  20
 3916.8146283104
  30
0.0
  11
 1455.0815820587
  21
 3923.2709271386
  31
0.0
   0
LINE
   5
106
 100
AcDbEntity
   8
LEVEL001
 370
13
 100
AcDbLine
   6
CONTINUOUS
  62
1
  10
 1455.0815820587
  20
 3923.2709271386
  30
0.0
  11
 1511.6507348907
  21
 3923.2709271386
  31
0.0
   0
LINE
   5
107
 100
AcDbEntity
   8
LEVEL001
 370
13
 100
AcDbLine
   6
CONTINUOUS
  62
1
  10
 1511.6507348907
  20
 3916.8146283104
  30
0.0
  11
 1455.0815820587
  21
 3916.8146283104
  31
0.0
   0
LINE
   5
108
 100
AcDbEntity
   8
LEVEL001
 370
13
 100
AcDbLine
   6
CONTINUOUS
  62
1
  10
 1511.6507348907
  20
 3931.5717083886
  30
0.0
  11
 1455.0815820587
  21
 3931.5717083886
  31
0.0
   0
LINE
   5
109
 100
AcDbEntity
   8
LEVEL001
 370
13
 100
AcDbLine
   6
CONTINUOUS
  62
1
  10
 1455.0815820587
  20
 3931.5717083886
  30
0.0
  11
 1455.0815820587
  21
 3933.3141400292
  31
0.0
   0
LINE
   5
10A
 100
AcDbEntity
   8
LEVEL001
 370
13
 100
AcDbLine
   6
CONTINUOUS
  62
1
  10
 1455.0815820587
  20
 3933.3141400292
  30
0.0
  11
 1432.4335718048
  21
 3937.9254681542
  31
0.0
   0
LINE
   5
10B
 100
AcDbEntity
   8
LEVEL001
 370
13
 100
AcDbLine
   6
CONTINUOUS
  62
1
  10
 1432.4335718048
  20
 3937.9254681542
  30
0.0
  11
 1432.3807763946
  21
 3888.1696087792
  31
0.0
   0
LINE
   5
10C
 100
AcDbEntity
   8
LEVEL001
 370
13
 100
AcDbLine
   6
CONTINUOUS
  62
1
  10
 1455.0815820587
  20
 3900.8275677636
  30
0.0
  11
 1455.0815820587
  21
 3907.6903607324
  31
0.0
   0
LINE
   5
10D
 100
AcDbEntity
   8
LEVEL001
 370
13
 100
AcDbLine
   6
CONTINUOUS
  62
1
  10
 1455.0815820587
  20
 3907.6903607324
  30
0.0
  11
 1511.6507348907
  21
 3907.6903607324
  31
0.0
   0
LINE
   5
10E
 100
AcDbEntity
   8
LEVEL001
 370
13
 100
AcDbLine
   6
CONTINUOUS
  62
1
  10
 1511.6507348907
  20
 3900.8275677636
  30
0.0
  11
 1455.0815820587
  21
 3900.8275677636
  31
0.0
   0
LINE
   5
10F
 100
AcDbEntity
   8
LEVEL001
 370
13
 100
AcDbLine
   6
CONTINUOUS
  62
1
  10
 1455.0815820587
  20
 3887.4589154198
  30
0.0
  11
 1455.0815820587
  21
 3892.2194134668
  31
0.0
   0
LINE
   5
110
 100
AcDbEntity
   8
LEVEL001
 370
13
 100
AcDbLine
   6
CONTINUOUS
  62
1
  10
 1455.0815820587
  20
 3892.2194134668
  30
0.0
  11
 1511.6507348907
  21
 3892.2194134668
  31
0.0
   0
LINE
   5
111
 100
AcDbEntity
   8
LEVEL001
 370
13
 100
AcDbLine
   6
CONTINUOUS
  62
1
  10
 1438.6139917266
  20
 3881.8688275292
  30
0.0
  11
 1438.1016015899
  21
 3876.7448040918
  31
0.0
   0
LINE
   5
112
 100
AcDbEntity
   8
LEVEL001
 370
13
 100
AcDbLine
   6
CONTINUOUS
  62
1
  10
 1438.1016015899
  20
 3876.7448040918
  30
0.0
  11
 1436.1542749298
  21
 3873.1578900292
  31
0.0
   0
LINE
   5
113
 100
AcDbEntity
   8
LEVEL001
 370
13
 100
AcDbLine
   6
CONTINUOUS
  62
1
  10
 1436.1542749298
  20
 3873.1578900292
  30
0.0
  11
 1425.0864648712
  21
 3859.4254681542
  31
0.0
   0
ARC
   5
114
 100
AcDbEntity
   8
LEVEL001
 370
13
   6
CONTINUOUS
  62
1
 100
AcDbCircle
  10
 1433.6182835082
  20
 3853.8130406084
  30
0.0
  40
 10.212309837341
 100
AcDbArc
  50
 146.66215660277
  51
 331.70689669712
   0
ARC
   5
115
 100
AcDbEntity
   8
LEVEL001
 370
13
   6
CONTINUOUS
  62
1
 100
AcDbCircle
  10
 1419.6306315383
  20
 3862.8716352508
  30
0.0
  40
 26.856307983398
 100
AcDbArc
  50
 328.83302933365
  51
 45.020866477526
   0
ARC
   5
116
 100
AcDbEntity
   8
LEVEL001
 370
13
   6
CONTINUOUS
  62
1
 100
AcDbCircle
  10
 1460.7686357390
  20
 3849.9457039550
  30
0.0
  40
 6.6096000671386
 100
AcDbArc
  50
 179.99975839708
  51
 269.90651680925
   0
LINE
   5
117
 100
AcDbEntity
   8
LEVEL001
 370
13
 100
AcDbLine
   6
CONTINUOUS
  62
1
  10
 1460.7578515899
  20
 3843.3361126854
  30
0.0
  11
 1527.6694116485
  21
 3843.3361126854
  31
0.0
   0
LINE
   5
118
 100
AcDbEntity
   8
LEVEL001
 370
13
 100
AcDbLine
   6
CONTINUOUS
  62
1
  10
 1516.7695093048
  20
 3860.8600384668
  30
0.0
  11
 1476.9098901641
  21
 3860.8600384668
  31
0.0
   0
LINE
   5
119
 100
AcDbEntity
   8
LEVEL001
 370
13
 100
AcDbLine
   6
CONTINUOUS
  62
1
  10
 1476.9098901641
  20
 3860.8600384668
  30
0.0
  11
 1476.9098901641
  21
 3876.7448040918
  31
0.0
   0
LINE
   5
11A
 100
AcDbEntity
   8
LEVEL001
 370
13
 100
AcDbLine
   6
CONTINUOUS
  62
1
  10
 1476.9098901641
  20
 3876.7448040918
  30
0.0
  11
 1478.9594507110
  21
 3879.7167279198
  31
0.0
   0
LINE
   5
11B
 100
AcDbEntity
   8
LEVEL001
 370
13
 100
AcDbLine
   6
CONTINUOUS
  62
1
  10
 1477.1149682891
  20
 3881.8688275292
  30
0.0
  11
 1454.1590356719
  21
 3884.9430462792
  31
0.0
   0
LINE
   5
11C
 100
AcDbEntity
   8
LEVEL001
 370
13
 100
AcDbLine
   6
CONTINUOUS
  62
1
  10
 1454.1590356719
  20
 3884.9430462792
  30
0.0
  11
 1454.1590356719
  21
 3849.9457318262
  31
0.0
   0
LINE
   5
11D
 100
AcDbEntity
   8
LEVEL001
 370
13
 100
AcDbLine
   6
CONTINUOUS
  62
1
  10
 1411.6316919219
  20
 4135.7726361230
  30
0.0
  11
 1426.5387964141
  21
 4133.4435345604
  31
0.0
   0
LINE
   5
11E
 100
AcDbEntity
   8
LEVEL001
 370
13
 100
AcDbLine
   6
CONTINUOUS
  62
1
  10
 1432.6874780548
  20
 4101.4696576074
  30
0.0
  11
 1411.6316919219
  21
 4133.7230755762
  31
0.0
   0
LINE
   5
11F
 100
AcDbEntity
   8
LEVEL001
 370
13
 100
AcDbLine
   6
CONTINUOUS
  62
1
  10
 1510.2652368438
  20
 4176.3829876854
  30
0.0
  11
 1481.3657617462
  21
 4180.8920208886
  31
0.0
   0
LINE
   5
120
 100
AcDbEntity
   8
LEVEL001
 370
13
 100
AcDbLine
   6
CONTINUOUS
  62
1
  10
 1481.3657617462
  20
 4180.8920208886
  30
0.0
  11
 1481.3657617462
  21
 4156.3993451074
  31
0.0
   0
LINE
   5
121
 100
AcDbEntity
   8
LEVEL001
 370
13
 100
AcDbLine
   6
CONTINUOUS
  62
1
  10
 1481.3657617462
  20
 4145.4337689354
  30
0.0
  11
 1481.3657617462
  21
 4114.8944622948
  31
0.0
   0
LINE
   5
122
 100
AcDbEntity
   8
LEVEL001
 370
13
 100
AcDbLine
   6
CONTINUOUS
  62
1
  10
 1481.3657617462
  20
 4102.8019329980
  30
0.0
  11
 1481.3657617462
  21
 4057.9154583886
  31
0.0
   0
ARC
   5
123
 100
AcDbEntity
   8
LEVEL001
 370
13
   6
CONTINUOUS
  62
1
 100
AcDbCircle
  10
 1484.3601594331
  20
 3848.5805565822
  30
0.0
  40
 37.929008483886
 100
AcDbArc
  50
 46.131357984443
  51
 92.247049960184
   0
LINE
   5
124
 100
AcDbEntity
   8
LEVEL001
 370
13
 100
AcDbLine
   6
CONTINUOUS
  62
1
  10
 1478.9594507110
  20
 3879.7167279198
  30
0.0
  11
 1477.1149682891
  21
 3881.8688275292
  31
0.0
   0
LINE
   5
125
 100
AcDbEntity
   8
LEVEL001
 370
13
 100
AcDbLine
   6
CONTINUOUS
  62
1
  10
 1497.0151758087
  20
 3865.1642376854
  30
0.0
  11
 1482.8730249298
  21
 3886.4803997948
  31
0.0
   0
ARC
   5
126
 100
AcDbEntity
   8
LEVEL001
 370
13
   6
CONTINUOUS
  62
1
 100
AcDbCircle
  10
 1539.4651204703
  20
 4107.8478934566
  30
0.0
  40
 5.0631766319274
 100
AcDbArc
  50
 274.72625926493
  51
 43.105627832229
   0
ARC
   5
127
 100
AcDbEntity
   8
LEVEL001
 370
13
   6
CONTINUOUS
  62
1
 100
AcDbCircle
  10
 1543.1048586826
  20
 4150.9968649656
  30
0.0
  40
 5.5826339721680
 100
AcDbArc
  50
 274.79495132884
  51
 36.912748479785
   0
LINE
   5
128
 100
AcDbEntity
   8
LEVEL001
 370
13
 100
AcDbLine
   6
CONTINUOUS
  62
1
  10
 1543.1617212188
  20
 4111.3077923730
  30
0.0
  11
 1526.7646264923
  21
 4124.3229290918
  31
0.0
   0
LINE
   5
129
 100
AcDbEntity
   8
LEVEL001
 370
13
 100
AcDbLine
   6
CONTINUOUS
  62
1
  10
 1526.7646264923
  20
 4124.3229290918
  30
0.0
  11
 1519.1810083282
  21
 4114.8944622948
  31
0.0
   0
LINE
   5
12A
 100
AcDbEntity
   8
LEVEL001
 370
13
 100
AcDbLine
   6
CONTINUOUS
  62
1
  10
 1519.1810083282
  20
 4114.8944622948
  30
0.0
  11
 1506.3709497344
  21
 4114.8944622948
  31
0.0
   0
LINE
   5
12B
 100
AcDbEntity
   8
LEVEL001
 370
13
 100
AcDbLine
   6
CONTINUOUS
  62
1
  10
 1506.3709497344
  20
 4114.8944622948
  30
0.0
  11
 1506.3709497344
  21
 4145.4337689354
  31
0.0
   0
LINE
   5
12C
 100
AcDbEntity
   8
LEVEL001
 370
13
 100
AcDbLine
   6
CONTINUOUS
  62
1
  10
 1506.3709497344
  20
 4145.4337689354
  30
0.0
  11
 1543.5715112579
  21
 4145.4337689354
  31
0.0
   0
LINE
   5
12D
 100
AcDbEntity
   8
LEVEL001
 370
13
 100
AcDbLine
   6
CONTINUOUS
  62
1
  10
 1547.5684595001
  20
 4154.3497845604
  30
0.0
  11
 1533.7332544219
  21
 4166.4423138574
  31
0.0
   0
LINE
   5
12E
 100
AcDbEntity
   8
LEVEL001
 370
13
 100
AcDbLine
   6
CONTINUOUS
  62
1
  10
 1533.7332544219
  20
 4166.4423138574
  30
0.0
  11
 1521.8458032501
  21
 4156.3993451074
  31
0.0
   0
LINE
   5
12F
 100
AcDbEntity
   8
LEVEL001
 370
13
 100
AcDbLine
   6
CONTINUOUS
  62
1
  10
 1521.8458032501
  20
 4156.3993451074
  30
0.0
  11
 1506.3709497344
  21
 4156.3993451074
  31
0.0
   0
LINE
   5
130
 100
AcDbEntity
   8
LEVEL001
 370
13
 100
AcDbLine
   6
CONTINUOUS
  62
1
  10
 1506.3709497344
  20
 4156.3993451074
  30
0.0
  11
 1506.3709497344
  21
 4171.8737103418
  31
0.0
   0
LINE
   5
131
 100
AcDbEntity
   8
LEVEL001
 370
13
 100
AcDbLine
   6
CONTINUOUS
  62
1
  10
 1506.3709497344
  20
 4171.8737103418
  30
0.0
  11
 1509.9579858673
  21
 4173.7184369042
  31
0.0
   0
LINE
   5
132
 100
AcDbEntity
   8
LEVEL001
 370
13
 100
AcDbLine
   6
CONTINUOUS
  62
1
  10
 1509.9579858673
  20
 4173.7184369042
  30
0.0
  11
 1510.2652368438
  21
 4176.3829876854
  31
0.0
   0
LINE
   5
133
 100
AcDbEntity
   8
LEVEL001
 370
13
 100
AcDbLine
   6
CONTINUOUS
  62
1
  10
 1548.1434106719
  20
 4057.3453900292
  30
0.0
  11
 1532.8110132110
  21
 4067.4462201074
  31
0.0
   0
LINE
   5
134
 100
AcDbEntity
   8
LEVEL001
 370
13
 100
AcDbLine
   6
CONTINUOUS
  62
1
  10
 1532.8110132110
  20
 4067.4462201074
  30
0.0
  11
 1524.9201440704
  21
 4057.9154583886
  31
0.0
   0
LINE
   5
135
 100
AcDbEntity
   8
LEVEL001
 370
13
 100
AcDbLine
   6
CONTINUOUS
  62
1
  10
 1524.9201440704
  20
 4057.9154583886
  30
0.0
  11
 1506.3709497344
  21
 4057.9154583886
  31
0.0
   0
LINE
   5
136
 100
AcDbEntity
   8
LEVEL001
 370
13
 100
AcDbLine
   6
CONTINUOUS
  62
1
  10
 1506.3709497344
  20
 4057.9154583886
  30
0.0
  11
 1506.3709497344
  21
 4102.8019329980
  31
0.0
   0
LINE
   5
137
 100
AcDbEntity
   8
LEVEL001
 370
13
 100
AcDbLine
   6
CONTINUOUS
  62
1
  10
 1506.3709497344
  20
 4102.8019329980
  30
0.0
  11
 1539.8823022735
  21
 4102.8019329980
  31
0.0
   0
ARC
   5
138
 100
AcDbEntity
   8
LEVEL001
 370
13
   6
CONTINUOUS
  62
1
 100
AcDbCircle
  10
 1544.6891159953
  20
 4052.1018044358
  30
0.0
  40
 6.2791194915772
 100
AcDbArc
  50
 269.99730665617
  51
 56.624475922390
   0
ARC
   5
139
 100
AcDbEntity
   8
LEVEL001
 370
13
   6
CONTINUOUS
  62
1
 100
AcDbCircle
  10
 1548.4618364796
  20
 3945.6331692382
  30
0.0
  40
 4.7515311241150
 100
AcDbArc
  50
 274.70300820747
  51
 59.113555838224
   0
LINE
   5
13A
 100
AcDbEntity
   8
LEVEL001
 370
13
 100
AcDbLine
   6
CONTINUOUS
  62
1
  10
 1490.5396509063
  20
 3951.4530560448
  30
0.0
  11
 1500.9928369415
  21
 3967.1327435448
  31
0.0
   0
ARC
   5
13B
 100
AcDbEntity
   8
LEVEL001
 370
13
   6
CONTINUOUS
  62
1
 100
AcDbCircle
  10
 1539.0205100586
  20
 3972.2889172598
  30
0.0
  40
 5.1561789512634
 100
AcDbArc
  50
 269.91834398461
  51
 52.069476722727
   0
LINE
   5
13C
 100
AcDbEntity
   8
LEVEL001
 370
13
 100
AcDbLine
   6
CONTINUOUS
  62
1
  10
 1550.9009790313
  20
 3949.7108685448
  30
0.0
  11
 1532.9670190704
  21
 3960.1639935448
  31
0.0
   0
LINE
   5
13D
 100
AcDbEntity
   8
LEVEL001
 370
13
 100
AcDbLine
   6
CONTINUOUS
  62
1
  10
 1532.9670190704
  20
 3960.1639935448
  30
0.0
  11
 1526.4081811798
  21
 3951.4530560448
  31
0.0
   0
LINE
   5
13E
 100
AcDbEntity
   8
LEVEL001
 370
13
 100
AcDbLine
   6
CONTINUOUS
  62
1
  10
 1526.4081811798
  20
 3951.4530560448
  30
0.0
  11
 1510.6592798126
  21
 3951.4530560448
  31
0.0
   0
LINE
   5
13F
 100
AcDbEntity
   8
LEVEL001
 370
13
 100
AcDbLine
   6
CONTINUOUS
  62
1
  10
 1510.6592798126
  20
 3951.4530560448
  30
0.0
  11
 1519.7468042266
  21
 3959.6515423730
  31
0.0
   0
LINE
   5
140
 100
AcDbEntity
   8
LEVEL001
 370
13
 100
AcDbLine
   6
CONTINUOUS
  62
1
  10
 1519.7468042266
  20
 3959.6515423730
  30
0.0
  11
 1523.5385522735
  21
 3960.1639935448
  31
0.0
   0
LINE
   5
141
 100
AcDbEntity
   8
LEVEL001
 370
13
 100
AcDbLine
   6
CONTINUOUS
  62
1
  10
 1523.5385522735
  20
 3960.1639935448
  30
0.0
  11
 1525.1783227813
  21
 3962.5209271386
  31
0.0
   0
LINE
   5
142
 100
AcDbEntity
   8
LEVEL001
 370
13
 100
AcDbLine
   6
CONTINUOUS
  62
1
  10
 1525.1783227813
  20
 3962.5209271386
  30
0.0
  11
 1522.5137720001
  21
 3967.1327435448
  31
0.0
   0
LINE
   5
143
 100
AcDbEntity
   8
LEVEL001
 370
13
 100
AcDbLine
   6
CONTINUOUS
  62
1
  10
 1522.5137720001
  20
 3967.1327435448
  30
0.0
  11
 1539.0131616485
  21
 3967.1327435448
  31
0.0
   0
LINE
   5
144
 100
AcDbEntity
   8
LEVEL001
 370
13
 100
AcDbLine
   6
CONTINUOUS
  62
1
  10
 1542.1900415313
  20
 3976.3558880762
  30
0.0
  11
 1523.5385522735
  21
 3986.6039349512
  31
0.0
   0
LINE
   5
145
 100
AcDbEntity
   8
LEVEL001
 370
13
 100
AcDbLine
   6
CONTINUOUS
  62
1
  10
 1523.5385522735
  20
 3986.6039349512
  30
0.0
  11
 1517.3896264923
  21
 3977.0731732324
  31
0.0
   0
LINE
   5
146
 100
AcDbEntity
   8
LEVEL001
 370
13
 100
AcDbLine
   6
CONTINUOUS
  62
1
  10
 1517.3896264923
  20
 3977.0731732324
  30
0.0
  11
 1495.9711694610
  21
 3977.0731732324
  31
0.0
   0
LINE
   5
147
 100
AcDbEntity
   8
LEVEL001
 370
13
 100
AcDbLine
   6
CONTINUOUS
  62
1
  10
 1511.6507348907
  20
 3923.2709271386
  30
0.0
  11
 1511.6507348907
  21
 3916.8146283104
  31
0.0
   0
LINE
   5
148
 100
AcDbEntity
   8
LEVEL001
 370
13
 100
AcDbLine
   6
CONTINUOUS
  62
1
  10
 1538.1934595001
  20
 3930.2396771386
  30
0.0
  11
 1518.2095727813
  21
 3939.2579876854
  31
0.0
   0
LINE
   5
149
 100
AcDbEntity
   8
LEVEL001
 370
13
 100
AcDbLine
   6
CONTINUOUS
  62
1
  10
 1518.2095727813
  20
 3939.2579876854
  30
0.0
  11
 1511.6507348907
  21
 3931.5717083886
  31
0.0
   0
LINE
   5
14A
 100
AcDbEntity
   8
LEVEL001
 370
13
 100
AcDbLine
   6
CONTINUOUS
  62
1
  10
 1511.6507348907
  20
 3907.6903607324
  30
0.0
  11
 1511.6507348907
  21
 3900.8275677636
  31
0.0
   0
ARC
   5
14B
 100
AcDbEntity
   8
LEVEL001
 370
13
   6
CONTINUOUS
  62
1
 100
AcDbCircle
  10
 1534.6945319721
  20
 3927.6275199242
  30
0.0
  40
 4.3664469718934
 100
AcDbArc
  50
 266.14995656848
  51
 36.743524531019
   0
LINE
   5
14C
 100
AcDbEntity
   8
LEVEL001
 370
13
 100
AcDbLine
   6
CONTINUOUS
  62
1
  10
 1511.6507348907
  20
 3892.2194134668
  30
0.0
  11
 1511.6507348907
  21
 3887.3002240136
  31
0.0
   0
LINE
   5
14D
 100
AcDbEntity
   8
LEVEL001
 370
13
 100
AcDbLine
   6
CONTINUOUS
  62
1
  10
 1511.6507348907
  20
 3887.3002240136
  30
0.0
  11
 1528.5602807891
  21
 3887.3002240136
  31
0.0
   0
LINE
   5
14E
 100
AcDbEntity
   8
LEVEL001
 370
13
 100
AcDbLine
   6
CONTINUOUS
  62
1
  10
 1528.5602807891
  20
 3887.3002240136
  30
0.0
  11
 1532.2492456329
  21
 3889.3497845604
  31
0.0
   0
LINE
   5
14F
 100
AcDbEntity
   8
LEVEL001
 370
13
 100
AcDbLine
   6
CONTINUOUS
  62
1
  10
 1532.2492456329
  20
 3889.3497845604
  30
0.0
  11
 1534.4013452423
  21
 3893.7565228418
  31
0.0
   0
LINE
   5
150
 100
AcDbEntity
   8
LEVEL001
 370
13
 100
AcDbLine
   6
CONTINUOUS
  62
1
  10
 1534.4013452423
  20
 3893.7565228418
  30
0.0
  11
 1534.3946313751
  21
 3923.2709271386
  31
0.0
   0
LINE
   5
151
 100
AcDbEntity
   8
LEVEL001
 370
13
 100
AcDbLine
   6
CONTINUOUS
  62
1
  10
 1522.2382593048
  20
 3884.6356732324
  30
0.0
  11
 1535.6629419219
  21
 3862.2950970604
  31
0.0
   0
ARC
   5
152
 100
AcDbEntity
   8
LEVEL001
 370
13
   6
CONTINUOUS
  62
1
 100
AcDbCircle
  10
 1527.9708810343
  20
 3852.1194403868
  30
0.0
  40
 8.7884998321534
 100
AcDbArc
  50
 268.03421368567
  51
 95.984851979614
   0
LINE
   5
153
 100
AcDbEntity
   8
LEVEL001
 370
13
 100
AcDbLine
   6
CONTINUOUS
  62
1
  10
 1527.0545434844
  20
 3860.8600384668
  30
0.0
  11
 1519.6760034454
  21
 3879.3068158104
  31
0.0
   0
LINE
   5
154
 100
AcDbEntity
   8
LEVEL001
 370
13
 100
AcDbLine
   6
CONTINUOUS
  62
1
  10
 1519.6760034454
  20
 3879.3068158104
  30
0.0
  11
 1519.4709253204
  21
 3869.0587689354
  31
0.0
   0
LINE
   5
155
 100
AcDbEntity
   8
LEVEL001
 370
13
 100
AcDbLine
   6
CONTINUOUS
  62
1
  10
 1519.4709253204
  20
 3869.0587689354
  30
0.0
  11
 1516.7695093048
  21
 3860.8600384668
  31
0.0
   0
ARC
   5
156
 100
AcDbEntity
   8
LEVEL001
 370
13
   6
CONTINUOUS
  62
1
 100
AcDbCircle
  10
 1501.8955282393
  20
 3872.8837211082
  30
0.0
  40
 9.1328125000000
 100
AcDbArc
  50
 237.69842193839
  51
 18.768745074032
   0
ARC
   5
157
 100
AcDbEntity
   8
LEVEL001
 370
13
   6
CONTINUOUS
  62
1
 100
AcDbCircle
  10
 1541.4554788050
  20
 3869.1033750346
  30
0.0
  40
 8.9390230178834
 100
AcDbArc
  50
 229.60859987452
  51
 6.7921555436571
   0
ARC
   5
158
 100
AcDbEntity
   8
LEVEL001
 370
13
   6
CONTINUOUS
  62
1
 100
AcDbCircle
  10
 1526.1466927942
  20
 3858.0719828552
  30
0.0
  40
 27.037969589234
 100
AcDbArc
  50
 26.557576861274
  51
 98.091890389852
   0
LINE
   5
159
 100
AcDbEntity
   8
LEVEL001
 370
13
 100
AcDbLine
   6
CONTINUOUS
  62
1
  10
 1495.9711694610
  20
 3977.0731732324
  30
0.0
  11
 1495.9711694610
  21
 3983.4269329980
  31
0.0
   0
LINE
   5
15A
 100
AcDbEntity
   8
LEVEL001
 370
13
 100
AcDbLine
   6
CONTINUOUS
  62
1
  10
 1495.9711694610
  20
 3983.4269329980
  30
0.0
  11
 1498.0958032501
  21
 3987.1249310448
  31
0.0
   0
LINE
   5
15B
 100
AcDbEntity
   8
LEVEL001
 370
13
 100
AcDbLine
   6
CONTINUOUS
  62
1
  10
 1498.0958032501
  20
 3987.1249310448
  30
0.0
  11
 1497.2757959259
  21
 3988.8671185448
  31
0.0
   0
ENDBLK
   5
15C
 100
AcDbEntity
   8
0
 100
AcDbBlockEnd
   0
BLOCK
   5
15D
 100
AcDbEntity
   8
0
 100
AcDbBlockBegin
   2
BLOCK003
  70
64
  10
0.0
  20
0.0
  30
0.0
   3
BLOCK003
   0
LINE
   5
15E
 100
AcDbEntity
   8
LEVEL001
 370
13
 100
AcDbLine
   6
CONTINUOUS
  62
7
  10
 1414.7063989532
  20
 3789.2116009668
  30
0.0
  11
 1554.7037134063
  21
 3789.2116009668
  31
0.0
   0
ARC
   5
15F
 100
AcDbEntity
   8
LEVEL001
 370
13
   6
CONTINUOUS
  62
7
 100
AcDbCircle
  10
 1554.7037134063
  20
 3809.2116009668
  30
0.0
  40
 20.000000000000
 100
AcDbArc
  50
 270.00000000000
  51
0.0
   0
LINE
   5
160
 100
AcDbEntity
   8
LEVEL001
 370
13
 100
AcDbLine
   6
CONTINUOUS
  62
7
  10
 1574.7037134063
  20
 3809.2116009668
  30
0.0
  11
 1574.7037134063
  21
 4369.2123333886
  31
0.0
   0
ARC
   5
161
 100
AcDbEntity
   8
LEVEL001
 370
13
   6
CONTINUOUS
  62
7
 100
AcDbCircle
  10
 1414.7063989532
  20
 3809.2116009668
  30
0.0
  40
 20.000000000000
 100
AcDbArc
  50
 180.00000000000
  51
 270.00000000001
   0
LINE
   5
162
 100
AcDbEntity
   8
LEVEL001
 370
13
 100
AcDbLine
   6
CONTINUOUS
  62
7
  10
 1394.7063989532
  20
 4369.2123333886
  30
0.0
  11
 1394.7063989532
  21
 3809.2116009668
  31
0.0
   0
LINE
   5
163
 100
AcDbEntity
   8
LEVEL001
 370
13
 100
AcDbLine
   6
CONTINUOUS
  62
7
  10
 1554.7037134063
  20
 4389.2123333886
  30
0.0
  11
 1414.7063989532
  21
 4389.2123333886
  31
0.0
   0
ARC
   5
164
 100
AcDbEntity
   8
LEVEL001
 370
13
   6
CONTINUOUS
  62
7
 100
AcDbCircle
  10
 1414.7063989532
  20
 4369.2123333886
  30
0.0
  40
 20.000000000000
 100
AcDbArc
  50
 89.999999999995
  51
 180.00000000000
   0
ARC
   5
165
 100
AcDbEntity
   8
LEVEL001
 370
13
   6
CONTINUOUS
  62
7
 100
AcDbCircle
  10
 1554.7037134063
  20
 4369.2123333886
  30
0.0
  40
 20.000000000000
 100
AcDbArc
  50
0.0
  51
 90.000000000000
   0
ENDBLK
   5
166
 100
AcDbEntity
   8
0
 100
AcDbBlockEnd
   0
BLOCK
   5
167
 100
AcDbEntity
   8
0
 100
AcDbBlockBegin
   2
*D18
  70
65
  10
0.0
  20
0.0
  30
0.0
   3
*D18
   0
LINE
   5
168
 100
AcDbEntity
   8
0
 370
13
 100
AcDbLine
   6
CONTINUOUS
  62
6
  10
 1204.7050561798
  20
 1289.2123595506
  30
0.0
  11
 704.70505617976
  21
 1289.2123595506
  31
0.0
   0
LINE
   5
169
 100
AcDbEntity
   8
0
 370
13
 100
AcDbLine
   6
CONTINUOUS
  62
6
  10
 1204.7050561798
  20
 1189.2123595506
  30
0.0
  11
 704.70505617976
  21
 1189.2123595506
  31
0.0
   0
LINE
   5
16A
 100
AcDbEntity
   8
0
 370
13
 100
AcDbLine
   6
CONTINUOUS
  62
6
  10
 734.70505617976
  20
 1289.2123595506
  30
0.0
  11
 734.70505617976
  21
 1239.2123595506
  31
0.0
   0
LINE
   5
16B
 100
AcDbEntity
   8
0
 370
13
 100
AcDbLine
   6
CONTINUOUS
  62
6
  10
 734.70505617976
  20
 1189.2123595506
  30
0.0
  11
 734.70505617976
  21
 1239.2123595506
  31
0.0
   0
INSERT
   5
16C
 100
AcDbEntity
   8
0
   6
CONTINUOUS
  62
6
 100
AcDbBlockReference
   2
_OPEN
  10
 734.70505617976
  20
 1289.2123595506
  30
0.0
  41
 42.000000000000
  42
 42.000000000000
  43
 42.000000000000
  50
 90.000000000000
   0
INSERT
   5
16D
 100
AcDbEntity
   8
0
   6
CONTINUOUS
  62
6
 100
AcDbBlockReference
   2
_OPEN
  10
 734.70505617976
  20
 1189.2123595506
  30
0.0
  41
 42.000000000000
  42
 42.000000000000
  43
 42.000000000000
  50
 270.00000000000
   0
MTEXT
   5
16E
 100
AcDbEntity
   8
0
 370
13
  62
1
 100
AcDbMText
  10
 708.99077046548
  20
 1239.2123595506
  30
0.0
  40
 60.000000000000
  41
0.0
  71
8
  72
1
   1
\A1;100
   7
GMM004
  11
0.0
  21
 1.0000000000000
  31
0.0
   0
ENDBLK
   5
16F
 100
AcDbEntity
   8
0
 100
AcDbBlockEnd
   0
BLOCK
   5
170
 100
AcDbEntity
   8
0
 100
AcDbBlockBegin
   2
*D19
  70
65
  10
0.0
  20
0.0
  30
0.0
   3
*D19
   0
LINE
   5
171
 100
AcDbEntity
   8
0
 370
13
 100
AcDbLine
   6
CONTINUOUS
  62
6
  10
 1204.7050561798
  20
 1289.2123595506
  30
0.0
  11
 704.70505617976
  21
 1289.2123595506
  31
0.0
   0
LINE
   5
172
 100
AcDbEntity
   8
0
 370
13
 100
AcDbLine
   6
CONTINUOUS
  62
6
  10
 954.70505617976
  20
 1989.2123595506
  30
0.0
  11
 704.70505617976
  21
 1989.2123595506
  31
0.0
   0
LINE
   5
173
 100
AcDbEntity
   8
0
 370
13
 100
AcDbLine
   6
CONTINUOUS
  62
6
  10
 734.70505617976
  20
 1289.2123595506
  30
0.0
  11
 734.70505617976
  21
 1639.2123595506
  31
0.0
   0
LINE
   5
174
 100
AcDbEntity
   8
0
 370
13
 100
AcDbLine
   6
CONTINUOUS
  62
6
  10
 734.70505617976
  20
 1989.2123595506
  30
0.0
  11
 734.70505617976
  21
 1639.2123595506
  31
0.0
   0
INSERT
   5
175
 100
AcDbEntity
   8
0
   6
CONTINUOUS
  62
6
 100
AcDbBlockReference
   2
_OPEN
  10
 734.70505617976
  20
 1289.2123595506
  30
0.0
  41
 42.000000000000
  42
 42.000000000000
  43
 42.000000000000
  50
 270.00000000000
   0
INSERT
   5
176
 100
AcDbEntity
   8
0
   6
CONTINUOUS
  62
6
 100
AcDbBlockReference
   2
_OPEN
  10
 734.70505617976
  20
 1989.2123595506
  30
0.0
  41
 42.000000000000
  42
 42.000000000000
  43
 42.000000000000
  50
 90.000000000000
   0
MTEXT
   5
177
 100
AcDbEntity
   8
0
 370
13
  62
1
 100
AcDbMText
  10
 708.99077046548
  20
 1639.2123595506
  30
0.0
  40
 60.000000000000
  41
0.0
  71
8
  72
1
   1
\A1;700
   7
GMM004
  11
0.0
  21
 1.0000000000000
  31
0.0
   0
ENDBLK
   5
178
 100
AcDbEntity
   8
0
 100
AcDbBlockEnd
   0
BLOCK
   5
179
 100
AcDbEntity
   8
0
 100
AcDbBlockBegin
   2
*D20
  70
65
  10
0.0
  20
0.0
  30
0.0
   3
*D20
   0
LINE
   5
17A
 100
AcDbEntity
   8
0
 370
13
 100
AcDbLine
   6
CONTINUOUS
  62
6
  10
 954.70505617976
  20
 1989.2123595506
  30
0.0
  11
 704.70505617976
  21
 1989.2123595506
  31
0.0
   0
LINE
   5
17B
 100
AcDbEntity
   8
0
 370
13
 100
AcDbLine
   6
CONTINUOUS
  62
6
  10
 1222.2050561798
  20
 4489.2123595506
  30
0.0
  11
 704.70505617976
  21
 4489.2123595506
  31
0.0
   0
LINE
   5
17C
 100
AcDbEntity
   8
0
 370
13
 100
AcDbLine
   6
CONTINUOUS
  62
6
  10
 734.70505617976
  20
 1989.2123595506
  30
0.0
  11
 734.70505617976
  21
 3239.2123595506
  31
0.0
   0
LINE
   5
17D
 100
AcDbEntity
   8
0
 370
13
 100
AcDbLine
   6
CONTINUOUS
  62
6
  10
 734.70505617976
  20
 4489.2123595506
  30
0.0
  11
 734.70505617976
  21
 3239.2123595506
  31
0.0
   0
INSERT
   5
17E
 100
AcDbEntity
   8
0
   6
CONTINUOUS
  62
6
 100
AcDbBlockReference
   2
_OPEN
  10
 734.70505617976
  20
 1989.2123595506
  30
0.0
  41
 42.000000000000
  42
 42.000000000000
  43
 42.000000000000
  50
 270.00000000000
   0
INSERT
   5
17F
 100
AcDbEntity
   8
0
   6
CONTINUOUS
  62
6
 100
AcDbBlockReference
   2
_OPEN
  10
 734.70505617976
  20
 4489.2123595506
  30
0.0
  41
 42.000000000000
  42
 42.000000000000
  43
 42.000000000000
  50
 90.000000000000
   0
MTEXT
   5
180
 100
AcDbEntity
   8
0
 370
13
  62
1
 100
AcDbMText
  10
 708.99077046548
  20
 3239.2123595506
  30
0.0
  40
 60.000000000000
  41
0.0
  71
8
  72
1
   1
\A1;2500(標準設置高さ)
   7
GMM004
  11
0.0
  21
 1.0000000000000
  31
0.0
   0
ENDBLK
   5
181
 100
AcDbEntity
   8
0
 100
AcDbBlockEnd
   0
BLOCK
   5
182
 100
AcDbEntity
   8
0
 100
AcDbBlockBegin
   2
*D21
  70
65
  10
0.0
  20
0.0
  30
0.0
   3
*D21
   0
LINE
   5
183
 100
AcDbEntity
   8
0
 370
13
 100
AcDbLine
   6
CONTINUOUS
  62
6
  10
 2634.7050561798
  20
 1819.2123595505
  30
0.0
  11
 2634.7050561798
  21
 2819.2123595506
  31
0.0
   0
LINE
   5
184
 100
AcDbEntity
   8
0
 370
13
 100
AcDbLine
   6
CONTINUOUS
  62
6
  10
 2634.7050561798
  20
 2789.2123595506
  30
0.0
  11
 2809.7050561798
  21
 2789.2123595506
  31
0.0
   0
LINE
   5
185
 100
AcDbEntity
   8
0
 370
13
 100
AcDbLine
   6
CONTINUOUS
  62
6
  10
 2984.7050561798
  20
 2789.2123595506
  30
0.0
  11
 2809.7050561798
  21
 2789.2123595506
  31
0.0
   0
INSERT
   5
186
 100
AcDbEntity
   8
0
   6
CONTINUOUS
  62
6
 100
AcDbBlockReference
   2
_OPEN
  10
 2634.7050561798
  20
 2789.2123595506
  30
0.0
  41
 42.000000000000
  42
 42.000000000000
  43
 42.000000000000
  50
 180.00000000000
   0
INSERT
   5
187
 100
AcDbEntity
   8
0
   6
CONTINUOUS
  62
6
 100
AcDbBlockReference
   2
_OPEN
  10
 2984.7050561798
  20
 2789.2123595506
  30
0.0
  41
 42.000000000000
  42
 42.000000000000
  43
 42.000000000000
  50
0.0
   0
MTEXT
   5
188
 100
AcDbEntity
   8
0
 370
13
  62
1
 100
AcDbMText
  10
 2809.7050561798
  20
 2814.9266452648
  30
0.0
  40
 60.000000000000
  41
0.0
  71
8
  72
1
   1
\A1;350
   7
GMM004
   0
ENDBLK
   5
189
 100
AcDbEntity
   8
0
 100
AcDbBlockEnd
   0
ENDSEC
   0
SECTION
   2
ENTITIES
   0
LINE
   5
18A
 100
AcDbEntity
   8
LEVEL001
 370
13
 100
AcDbLine
   6
CONTINUOUS
  62
7
  10
 8084.7050561798
  20
 5737.6123595506
  30
0.0
  11
 284.70505617976
  21
 5737.6123595506
  31
0.0
   0
LINE
   5
18B
 100
AcDbEntity
   8
LEVEL001
 370
13
 100
AcDbLine
   6
CONTINUOUS
  62
7
  10
 284.70505617976
  20
 5737.6123595506
  30
0.0
  11
 284.70505617976
  21
 237.61235955056
  31
0.0
   0
LINE
   5
18C
 100
AcDbEntity
   8
LEVEL001
 370
13
 100
AcDbLine
   6
CONTINUOUS
  62
7
  10
 8084.7050561798
  20
 237.61235955056
  30
0.0
  11
 8084.7050561798
  21
 5737.6123595506
  31
0.0
   0
LINE
   5
18D
 100
AcDbEntity
   8
LEVEL001
 370
13
 100
AcDbLine
   6
CONTINUOUS
  62
6
  10
 5444.7050561798
  20
 2497.6123595506
  30
0.0
  11
 8084.7050561798
  21
 2497.6123595506
  31
0.0
   0
LINE
   5
18E
 100
AcDbEntity
   8
LEVEL001
 370
13
 100
AcDbLine
   6
CONTINUOUS
  62
6
  10
 5444.7050561798
  20
 1057.6123595506
  30
0.0
  11
 8084.7050561798
  21
 1057.6123595506
  31
0.0
   0
LINE
   5
18F
 100
AcDbEntity
   8
LEVEL001
 370
13
 100
AcDbLine
   6
CONTINUOUS
  62
6
  10
 5444.7050561798
  20
 1177.6123595506
  30
0.0
  11
 8084.7050561798
  21
 1177.6123595506
  31
0.0
   0
LINE
   5
190
 100
AcDbEntity
   8
LEVEL001
 370
13
 100
AcDbLine
   6
CONTINUOUS
  62
6
  10
 5444.7050561798
  20
 1297.6123595506
  30
0.0
  11
 8084.7050561798
  21
 1297.6123595506
  31
0.0
   0
LINE
   5
191
 100
AcDbEntity
   8
LEVEL001
 370
13
 100
AcDbLine
   6
CONTINUOUS
  62
6
  10
 5444.7050561798
  20
 1417.6123595506
  30
0.0
  11
 8084.7050561798
  21
 1417.6123595506
  31
0.0
   0
LINE
   5
192
 100
AcDbEntity
   8
LEVEL001
 370
13
 100
AcDbLine
   6
CONTINUOUS
  62
6
  10
 5444.7050561798
  20
 1537.6123595506
  30
0.0
  11
 8084.7050561798
  21
 1537.6123595506
  31
0.0
   0
MTEXT
   5
193
 100
AcDbEntity
   8
LEVEL001
 370
13
  62
1
 100
AcDbMText
  10
 7324.7050561798
  20
 1957.6123595506
  30
0.0
  40
 51.428571428572
  41
0.0
  71
4
  72
1
   1
\T1.000000;溶融亜鉛メッキ
   7
GMM001
  44
 0.79999984000003
   0
MTEXT
   5
194
 100
AcDbEntity
   8
LEVEL001
 370
13
  62
1
 100
AcDbMText
  10
 7324.7050561798
  20
 2077.6123595506
  30
0.0
  40
 51.428571428572
  41
0.0
  71
4
  72
1
   1
\T1.000000;溶融亜鉛メッキ
   7
GMM001
  44
 0.79999984000003
   0
MTEXT
   5
195
 100
AcDbEntity
   8
LEVEL001
 370
13
  62
1
 100
AcDbMText
  10
 6764.7050561798
  20
 1957.6123595506
  30
0.0
  40
 51.428571428572
  41
0.0
  71
4
  72
1
   1
\T1.000000;ＳＳ４００
   7
GMM001
  44
 0.79999984000003
   0
MTEXT
   5
196
 100
AcDbEntity
   8
LEVEL001
 370
13
  62
1
 100
AcDbMText
  10
 6764.7050561798
  20
 2077.6123595506
  30
0.0
  40
 51.428571428572
  41
0.0
  71
4
  72
1
   1
\T1.000000;ＳＳ４００
   7
GMM001
  44
 0.79999984000003
   0
MTEXT
   5
197
 100
AcDbEntity
   8
LEVEL001
 370
13
  62
1
 100
AcDbMText
  10
 5616.7050561798
  20
 1837.6123595506
  30
0.0
  40
 51.428571428572
  41
0.0
  71
6
  72
1
   1
\T1.000000;９
   7
GMM001
  44
 0.79999984000003
   0
MTEXT
   5
198
 100
AcDbEntity
   8
LEVEL001
 370
13
  62
1
 100
AcDbMText
  10
 5616.7050561798
  20
 1957.6123595506
  30
0.0
  40
 51.428571428572
  41
0.0
  71
6
  72
1
   1
\T1.000000;８
   7
GMM001
  44
 0.79999984000003
   0
MTEXT
   5
199
 100
AcDbEntity
   8
LEVEL001
 370
13
  62
1
 100
AcDbMText
  10
 5684.7050561798
  20
 1957.6123595506
  30
0.0
  40
 51.428571428572
  41
0.0
  71
4
  72
1
   1
\T1.000000;金具締付ボルトナット
   7
GMM001
  44
 0.79999984000003
   0
MTEXT
   5
19A
 100
AcDbEntity
   8
LEVEL001
 370
13
  62
1
 100
AcDbMText
  10
 5616.7050561798
  20
 2077.6123595506
  30
0.0
  40
 51.428571428572
  41
0.0
  71
6
  72
1
   1
\T1.000000;７
   7
GMM001
  44
 0.79999984000003
   0
MTEXT
   5
19B
 100
AcDbEntity
   8
LEVEL001
 370
13
  62
1
 100
AcDbMText
  10
 5684.7050561798
  20
 2077.6123595506
  30
0.0
  40
 51.428571428572
  41
0.0
  71
4
  72
1
   1
\T1.000000;裏板金具取付ボルト
   7
GMM001
  44
 0.79999984000003
   0
LINE
   5
19C
 100
AcDbEntity
   8
LEVEL001
 370
13
 100
AcDbLine
   6
CONTINUOUS
  62
6
  10
 5444.7050561798
  20
 1657.6123595506
  30
0.0
  11
 8084.7050561798
  21
 1657.6123595506
  31
0.0
   0
LINE
   5
19D
 100
AcDbEntity
   8
LEVEL001
 370
13
 100
AcDbLine
   6
CONTINUOUS
  62
6
  10
 5444.7050561798
  20
 1897.6123595506
  30
0.0
  11
 8084.7050561798
  21
 1897.6123595506
  31
0.0
   0
LINE
   5
19E
 100
AcDbEntity
   8
LEVEL001
 370
13
 100
AcDbLine
   6
CONTINUOUS
  62
6
  10
 5444.7050561798
  20
 2017.6123595506
  30
0.0
  11
 8084.7050561798
  21
 2017.6123595506
  31
0.0
   0
MTEXT
   5
19F
 100
AcDbEntity
   8
LEVEL001
 370
13
  62
1
 100
AcDbMText
  10
 5684.7050561798
  20
 2197.6123595506
  30
0.0
  40
 51.428571428572
  41
0.0
  71
4
  72
1
   1
\T1.000000;支柱取付金具
   7
GMM001
  44
 0.79999984000003
   0
MTEXT
   5
1A0
 100
AcDbEntity
   8
LEVEL001
 370
13
  62
1
 100
AcDbMText
  10
 5616.7050561798
  20
 2197.6123595506
  30
0.0
  40
 51.428571428572
  41
0.0
  71
6
  72
1
   1
\T1.000000;６
   7
GMM001
  44
 0.79999984000003
   0
MTEXT
   5
1A1
 100
AcDbEntity
   8
LEVEL001
 370
13
  62
1
 100
AcDbMText
  10
 6764.7050561798
  20
 2197.6123595506
  30
0.0
  40
 51.428571428572
  41
0.0
  71
4
  72
1
   1
\T1.000000;ＳＳ４００
   7
GMM001
  44
 0.79999984000003
   0
MTEXT
   5
1A2
 100
AcDbEntity
   8
LEVEL001
 370
13
  62
1
 100
AcDbMText
  10
 5616.7050561798
  20
 2317.6123595506
  30
0.0
  40
 51.428571428572
  41
0.0
  71
6
  72
1
   1
\T1.000000;５
   7
GMM001
  44
 0.79999984000003
   0
MTEXT
   5
1A3
 100
AcDbEntity
   8
LEVEL001
 370
13
  62
1
 100
AcDbMText
  10
 5684.7050561798
  20
 2317.6123595506
  30
0.0
  40
 51.428571428572
  41
0.0
  71
4
  72
1
   1
\T1.000000;裏板取付金具
   7
GMM001
  44
 0.79999984000003
   0
MTEXT
   5
1A4
 100
AcDbEntity
   8
LEVEL001
 370
13
  62
1
 100
AcDbMText
  10
 5616.7050561798
  20
 2437.6123595506
  30
0.0
  40
 51.428571428572
  41
0.0
  71
6
  72
1
   1
\T1.000000;４
   7
GMM001
  44
 0.79999984000003
   0
MTEXT
   5
1A5
 100
AcDbEntity
   8
LEVEL001
 370
13
  62
1
 100
AcDbMText
  10
 5684.7050561798
  20
 2437.6123595506
  30
0.0
  40
 51.428571428572
  41
0.0
  71
4
  72
1
   1
\T1.000000;リング
   7
GMM001
  44
 0.79999984000003
   0
MTEXT
   5
1A6
 100
AcDbEntity
   8
LEVEL001
 370
13
  62
1
 100
AcDbMText
  10
 5616.7050561798
  20
 2557.6123595506
  30
0.0
  40
 51.428571428572
  41
0.0
  71
6
  72
1
   1
\T1.000000;３
   7
GMM001
  44
 0.79999984000003
   0
MTEXT
   5
1A7
 100
AcDbEntity
   8
LEVEL001
 370
13
  62
1
 100
AcDbMText
  10
 5684.7050561798
  20
 2557.6123595506
  30
0.0
  40
 51.428571428572
  41
0.0
  71
4
  72
1
   1
\T1.000000;フード
   7
GMM001
  44
 0.79999984000003
   0
MTEXT
   5
1A8
 100
AcDbEntity
   8
LEVEL001
 370
13
  62
1
 100
AcDbMText
  10
 5616.7050561798
  20
 2677.6123595506
  30
0.0
  40
 51.428571428572
  41
0.0
  71
6
  72
1
   1
\T1.000000;２
   7
GMM001
  44
 0.79999984000003
   0
MTEXT
   5
1A9
 100
AcDbEntity
   8
LEVEL001
 370
13
  62
1
 100
AcDbMText
  10
 5616.7050561798
  20
 2797.6123595506
  30
0.0
  40
 51.428571428572
  41
0.0
  71
6
  72
1
   1
\T1.000000;１
   7
GMM001
  44
 0.79999984000003
   0
MTEXT
   5
1AA
 100
AcDbEntity
   8
LEVEL001
 370
13
  62
1
 100
AcDbMText
  10
 5684.7050561798
  20
 2677.6123595506
  30
0.0
  40
 51.428571428572
  41
0.0
  71
4
  72
1
   1
\T1.000000;バックプレート
   7
GMM001
  44
 0.79999984000003
   0
MTEXT
   5
1AB
 100
AcDbEntity
   8
LEVEL001
 370
13
  62
1
 100
AcDbMText
  10
 5684.7050561798
  20
 2797.6123595506
  30
0.0
  40
 51.428571428572
  41
0.0
  71
4
  72
1
   1
\T1.000000;鏡面　Ｒ＝２２００
   7
GMM001
  44
 0.79999984000003
   0
MTEXT
   5
1AC
 100
AcDbEntity
   8
LEVEL001
 370
13
  62
1
 100
AcDbMText
  10
 6764.7050561798
  20
 2317.6123595506
  30
0.0
  40
 51.428571428572
  41
0.0
  71
4
  72
1
   1
\T1.000000;ＳＳ４００
   7
GMM001
  44
 0.79999984000003
   0
MTEXT
   5
1AD
 100
AcDbEntity
   8
LEVEL001
 370
13
  62
1
 100
AcDbMText
  10
 6764.7050561798
  20
 2437.6123595506
  30
0.0
  40
 51.428571428572
  41
0.0
  71
4
  72
1
   1
\T1.000000;軟質ＰＶＣ
   7
GMM001
  44
 0.79999984000003
   0
MTEXT
   5
1AE
 100
AcDbEntity
   8
LEVEL001
 370
13
  62
1
 100
AcDbMText
  10
 6764.7050561798
  20
 2797.6123595506
  30
0.0
  40
 51.428571428572
  41
0.0
  71
4
  72
1
   1
\T1.000000;ＳＵＳ３０４
   7
GMM001
  44
 0.79999984000003
   0
MTEXT
   5
1AF
 100
AcDbEntity
   8
LEVEL001
 370
13
  62
1
 100
AcDbMText
  10
 7324.7050561798
  20
 2197.6123595506
  30
0.0
  40
 51.428571428572
  41
0.0
  71
4
  72
1
   1
\T1.000000;溶融亜鉛メッキ
   7
GMM001
  44
 0.79999984000003
   0
MTEXT
   5
1B0
 100
AcDbEntity
   8
LEVEL001
 370
13
  62
1
 100
AcDbMText
  10
 7324.7050561798
  20
 2317.6123595506
  30
0.0
  40
 51.428571428572
  41
0.0
  71
4
  72
1
   1
\T1.000000;溶融亜鉛メッキ
   7
GMM001
  44
 0.79999984000003
   0
MTEXT
   5
1B1
 100
AcDbEntity
   8
LEVEL001
 370
13
  62
1
 100
AcDbMText
  10
 7324.7050561798
  20
 2797.6123595506
  30
0.0
  40
 51.428571428572
  41
0.0
  71
4
  72
1
   1
\T1.000000;t=0.9mm\T1.000000;・表面研磨
   7
GMM001
  44
 0.79999984000003
   0
LINE
   5
1B2
 100
AcDbEntity
   8
LEVEL001
 370
13
 100
AcDbLine
   6
CONTINUOUS
  62
6
  10
 5444.7050561798
  20
 2137.6123595506
  30
0.0
  11
 8084.7050561798
  21
 2137.6123595506
  31
0.0
   0
LINE
   5
1B3
 100
AcDbEntity
   8
LEVEL001
 370
13
 100
AcDbLine
   6
CONTINUOUS
  62
6
  10
 5444.7050561798
  20
 2257.6123595506
  30
0.0
  11
 8084.7050561798
  21
 2257.6123595506
  31
0.0
   0
LINE
   5
1B4
 100
AcDbEntity
   8
LEVEL001
 370
13
 100
AcDbLine
   6
CONTINUOUS
  62
6
  10
 5444.7050561798
  20
 2617.6123595506
  30
0.0
  11
 8084.7050561798
  21
 2617.6123595506
  31
0.0
   0
LINE
   5
1B5
 100
AcDbEntity
   8
LEVEL001
 370
13
 100
AcDbLine
   6
CONTINUOUS
  62
6
  10
 5444.7050561798
  20
 2377.6123595506
  30
0.0
  11
 8084.7050561798
  21
 2377.6123595506
  31
0.0
   0
LINE
   5
1B6
 100
AcDbEntity
   8
LEVEL001
 370
13
 100
AcDbLine
   6
CONTINUOUS
  62
6
  10
 5444.7050561798
  20
 2737.6123595506
  30
0.0
  11
 8084.7050561798
  21
 2737.6123595506
  31
0.0
   0
MTEXT
   5
1B7
 100
AcDbEntity
   8
LEVEL001
 370
13
  62
1
 100
AcDbMText
  10
 6084.7050561798
  20
 2937.6123595506
  30
0.0
  40
 51.428571428572
  41
0.0
  71
5
  72
1
   1
\T1.000000;名　　称
   7
GMM001
  44
 0.79999984000003
   0
MTEXT
   5
1B8
 100
AcDbEntity
   8
LEVEL001
 370
13
  62
1
 100
AcDbMText
  10
 6624.7050561798
  20
 2937.6123595506
  30
0.0
  40
 51.428571428572
  41
0.0
  71
5
  72
1
   1
\T1.000000;個数
   7
GMM001
  44
 0.79999984000003
   0
MTEXT
   5
1B9
 100
AcDbEntity
   8
LEVEL001
 370
13
  62
1
 100
AcDbMText
  10
 7004.7050561798
  20
 2937.6123595506
  30
0.0
  40
 51.428571428572
  41
0.0
  71
5
  72
1
   1
\T1.000000;材　　質
   7
GMM001
  44
 0.79999984000003
   0
MTEXT
   5
1BA
 100
AcDbEntity
   8
LEVEL001
 370
13
  62
1
 100
AcDbMText
  10
 7684.7050561798
  20
 2937.6123595506
  30
0.0
  40
 51.428571428572
  41
0.0
  71
5
  72
1
   1
\T1.000000;規格仕様
   7
GMM001
  44
 0.79999984000003
   0
LINE
   5
1BB
 100
AcDbEntity
   8
LEVEL001
 370
13
 100
AcDbLine
   6
CONTINUOUS
  62
6
  10
 5644.7050561798
  20
 3017.6123595506
  30
0.0
  11
 5644.7050561798
  21
 937.61235955056
  31
0.0
   0
LINE
   5
1BC
 100
AcDbEntity
   8
LEVEL001
 370
13
 100
AcDbLine
   6
CONTINUOUS
  62
6
  10
 6524.7050561798
  20
 3017.6123595506
  30
0.0
  11
 6524.7050561798
  21
 937.61235955056
  31
0.0
   0
LINE
   5
1BD
 100
AcDbEntity
   8
LEVEL001
 370
13
 100
AcDbLine
   6
CONTINUOUS
  62
6
  10
 6724.7050561798
  20
 3017.6123595506
  30
0.0
  11
 6724.7050561798
  21
 937.61235955056
  31
0.0
   0
LINE
   5
1BE
 100
AcDbEntity
   8
LEVEL001
 370
13
 100
AcDbLine
   6
CONTINUOUS
  62
6
  10
 7284.7050561798
  20
 3017.6123595506
  30
0.0
  11
 7284.7050561798
  21
 937.61235955056
  31
0.0
   0
LINE
   5
1BF
 100
AcDbEntity
   8
LEVEL001
 370
13
 100
AcDbLine
   6
CONTINUOUS
  62
2
  10
 5444.7050561798
  20
 3017.6123595506
  30
0.0
  11
 8084.7050561798
  21
 3017.6123595506
  31
0.0
   0
LINE
   5
1C0
 100
AcDbEntity
   8
LEVEL001
 370
13
 100
AcDbLine
   6
CONTINUOUS
  62
2
  10
 5444.7050561798
  20
 2857.6123595506
  30
0.0
  11
 8084.7050561798
  21
 2857.6123595506
  31
0.0
   0
MTEXT
   5
1C1
 100
AcDbEntity
   8
LEVEL001
 370
13
  62
1
 100
AcDbMText
  10
 7324.7050561798
  20
 1837.6123595506
  30
0.0
  40
 51.428571428572
  41
0.0
  71
4
  72
1
   1
\T1.000000;静電粉体塗装
   7
GMM001
  44
 0.79999984000003
   0
MTEXT
   5
1C2
 100
AcDbEntity
   8
LEVEL001
 370
13
  62
1
 100
AcDbMText
  10
 6764.7050561798
  20
 1837.6123595506
  30
0.0
  40
 51.428571428572
  41
0.0
  71
4
  72
1
   1
\T1.000000;ＳＴＫ４００
   7
GMM001
  44
 0.79999984000003
   0
MTEXT
   5
1C3
 100
AcDbEntity
   8
LEVEL001
 370
13
  62
1
 100
AcDbMText
  10
 6696.7050561798
  20
 1837.6123595506
  30
0.0
  40
 51.428571428572
  41
0.0
  71
6
  72
1
   1
\T1.000000;１
   7
GMM001
  44
 0.79999984000003
   0
MTEXT
   5
1C4
 100
AcDbEntity
   8
LEVEL001
 370
13
  62
1
 100
AcDbMText
  10
 5684.7050561798
  20
 1837.6123595506
  30
0.0
  40
 51.428571428572
  41
0.0
  71
4
  72
1
   1
\T1.000000;支柱
   7
GMM001
  44
 0.79999984000003
   0
MTEXT
   5
1C5
 100
AcDbEntity
   8
LEVEL001
 370
13
  62
1
 100
AcDbMText
  10
 6696.7050561798
  20
 2797.6123595506
  30
0.0
  40
 51.428571428572
  41
0.0
  71
6
  72
1
   1
\T1.000000;１
   7
GMM001
  44
 0.79999984000003
   0
MTEXT
   5
1C6
 100
AcDbEntity
   8
LEVEL001
 370
13
  62
1
 100
AcDbMText
  10
 6696.7050561798
  20
 2077.6123595506
  30
0.0
  40
 51.428571428572
  41
0.0
  71
6
  72
1
   1
\T1.000000;４
   7
GMM001
  44
 0.79999984000003
   0
MTEXT
   5
1C7
 100
AcDbEntity
   8
LEVEL001
 370
13
  62
1
 100
AcDbMText
  10
 6696.7050561798
  20
 1957.6123595506
  30
0.0
  40
 51.428571428572
  41
0.0
  71
6
  72
1
   1
\T1.000000;４
   7
GMM001
  44
 0.79999984000003
   0
MTEXT
   5
1C8
 100
AcDbEntity
   8
LEVEL001
 370
13
  62
1
 100
AcDbMText
  10
 6696.7050561798
  20
 2677.6123595506
  30
0.0
  40
 51.428571428572
  41
0.0
  71
6
  72
1
   1
\T1.000000;１
   7
GMM001
  44
 0.79999984000003
   0
MTEXT
   5
1C9
 100
AcDbEntity
   8
LEVEL001
 370
13
  62
1
 100
AcDbMText
  10
 6696.7050561798
  20
 2557.6123595506
  30
0.0
  40
 51.428571428572
  41
0.0
  71
6
  72
1
   1
\T1.000000;１
   7
GMM001
  44
 0.79999984000003
   0
MTEXT
   5
1CA
 100
AcDbEntity
   8
LEVEL001
 370
13
  62
1
 100
AcDbMText
  10
 6696.7050561798
  20
 2437.6123595506
  30
0.0
  40
 51.428571428572
  41
0.0
  71
6
  72
1
   1
\T1.000000;１
   7
GMM001
  44
 0.79999984000003
   0
MTEXT
   5
1CB
 100
AcDbEntity
   8
LEVEL001
 370
13
  62
1
 100
AcDbMText
  10
 6696.7050561798
  20
 2317.6123595506
  30
0.0
  40
 51.428571428572
  41
0.0
  71
6
  72
1
   1
\T1.000000;１
   7
GMM001
  44
 0.79999984000003
   0
MTEXT
   5
1CC
 100
AcDbEntity
   8
LEVEL001
 370
13
  62
1
 100
AcDbMText
  10
 6696.7050561798
  20
 2197.6123595506
  30
0.0
  40
 51.428571428572
  41
0.0
  71
6
  72
1
   1
\T1.000000;１
   7
GMM001
  44
 0.79999984000003
   0
CIRCLE
   5
1CD
 100
AcDbEntity
   8
LEVEL001
 370
13
 100
AcDbCircle
   6
CONTINUOUS
  62
1
  10
 1734.7050561798
  20
 3989.2123595506
  30
0.0
  40
 70.000000000000
   0
CIRCLE
   5
1CE
 100
AcDbEntity
   8
LEVEL001
 370
13
 100
AcDbCircle
   6
CONTINUOUS
  62
1
  10
 3184.7050561798
  20
 3989.2123595506
  30
0.0
  40
 70.000000000000
   0
CIRCLE
   5
1CF
 100
AcDbEntity
   8
LEVEL001
 370
13
 100
AcDbCircle
   6
CONTINUOUS
  62
1
  10
 3324.7050561798
  20
 3989.2123595506
  30
0.0
  40
 70.000000000000
   0
MTEXT
   5
1D1
 100
AcDbEntity
   8
LEVEL001
 370
13
  62
1
 100
AcDbMText
  10
 1105.3536613892
  20
 1997.9422965909
  30
0.0
  40
 40.000000000000
  41
0.0
  71
7
  72
1
   1
\T1.000000;ＧＬ
   7
GMM002
  44
 0.79999984000003
   0
LINE
   5
1D2
 100
AcDbEntity
   8
LEVEL001
 370
13
 100
AcDbLine
   6
CONTINUOUS
  62
1
  10
 1077.2049909444
  20
 1989.2123595506
  30
0.0
  11
 1052.2049909444
  21
 2039.2123595506
  31
0.0
   0
LINE
   5
1D3
 100
AcDbEntity
   8
LEVEL001
 370
13
 100
AcDbLine
   6
CONTINUOUS
  62
1
  10
 1052.2049909444
  20
 2039.2123595506
  30
0.0
  11
 1102.2049909444
  21
 2039.2123595506
  31
0.0
   0
LINE
   5
1D4
 100
AcDbEntity
   8
LEVEL001
 370
13
 100
AcDbLine
   6
CONTINUOUS
  62
1
  10
 1102.2049909444
  20
 2039.2123595506
  30
0.0
  11
 1077.2049909444
  21
 1989.2123595506
  31
0.0
   0
MTEXT
   5
1D5
 100
AcDbEntity
   8
LEVEL001
 370
13
  62
1
 100
AcDbMText
  10
 1734.7050561798
  20
 3989.2123595506
  30
0.0
  40
 57.142857142858
  41
0.0
  71
5
  72
1
   1
\T1.000000;12
   7
GMM001
  44
 0.79999984000003
   0
MTEXT
   5
1D6
 100
AcDbEntity
   8
LEVEL001
 370
13
  62
1
 100
AcDbMText
  10
 3184.7050561798
  20
 3989.2123595506
  30
0.0
  40
 57.142857142858
  41
0.0
  71
5
  72
1
   1
\T1.000000;13
   7
GMM001
  44
 0.79999984000003
   0
MTEXT
   5
1D7
 100
AcDbEntity
   8
LEVEL001
 370
13
  62
1
 100
AcDbMText
  10
 3324.7050561798
  20
 3989.2123595506
  30
0.0
  40
 57.142857142858
  41
0.0
  71
5
  72
1
   1
\T1.000000;14
   7
GMM001
  44
 0.79999984000003
   0
LINE
   5
1D8
 100
AcDbEntity
   8
LEVEL001
 370
13
 100
AcDbLine
   6
CONTINUOUS
  62
7
  10
 3022.8550561798
  20
 4893.2123595506
  30
0.0
  11
 2946.5550561798
  21
 4893.2123595506
  31
0.0
   0
LINE
   5
1D9
 100
AcDbEntity
   8
LEVEL001
 370
13
 100
AcDbLine
   6
CONTINUOUS
  62
7
  10
 2946.5550561798
  20
 4893.2123595506
  30
0.0
  11
 2946.5550561798
  21
 4890.2123595506
  31
0.0
   0
LINE
   5
1DA
 100
AcDbEntity
   8
LEVEL001
 370
13
 100
AcDbLine
   6
CONTINUOUS
  62
7
  10
 2946.5550561798
  20
 4890.2123595506
  30
0.0
  11
 3022.8550561798
  21
 4890.2123595506
  31
0.0
   0
LINE
   5
1DB
 100
AcDbEntity
   8
LEVEL001
 370
13
 100
AcDbLine
   6
CONTINUOUS
  62
7
  10
 3022.8550561798
  20
 4890.2123595506
  30
0.0
  11
 3022.8550561798
  21
 4893.2123595506
  31
0.0
   0
LINE
   5
1DC
 100
AcDbEntity
   8
LEVEL001
 370
13
 100
AcDbLine
   6
DOT
  62
1
  10
 3017.8550561798
  20
 4890.2123595506
  30
0.0
  11
 3017.8550561798
  21
 4863.2123595506
  31
0.0
   0
LINE
   5
1DD
 100
AcDbEntity
   8
LEVEL001
 370
13
 100
AcDbLine
   6
DOT
  62
1
  10
 3017.8550561798
  20
 4863.2123595506
  30
0.0
  11
 2951.5550561798
  21
 4863.2123595506
  31
0.0
   0
LINE
   5
1DE
 100
AcDbEntity
   8
LEVEL001
 370
13
 100
AcDbLine
   6
DOT
  62
1
  10
 2951.5550561798
  20
 4863.2123595506
  30
0.0
  11
 2951.5550561798
  21
 4890.2123595506
  31
0.0
   0
LINE
   5
1DF
 100
AcDbEntity
   8
LEVEL001
 370
13
 100
AcDbLine
   6
CONTINUOUS
  62
7
  10
 1446.5550561798
  20
 1289.2123595506
  30
0.0
  11
 1522.8550561798
  21
 1289.2123595506
  31
0.0
   0
MTEXT
   5
1E1
 100
AcDbEntity
   8
LEVEL001
 370
13
  62
1
 100
AcDbMText
  10
 2255.3536613892
  20
 1997.9422965909
  30
0.0
  40
 40.000000000000
  41
0.0
  71
7
  72
1
   1
\T1.000000;ＧＬ
   7
GMM002
  44
 0.79999984000003
   0
LINE
   5
1E2
 100
AcDbEntity
   8
LEVEL001
 370
13
 100
AcDbLine
   6
CONTINUOUS
  62
1
  10
 2227.2049909444
  20
 1989.2123595506
  30
0.0
  11
 2202.2049909444
  21
 2039.2123595506
  31
0.0
   0
LINE
   5
1E3
 100
AcDbEntity
   8
LEVEL001
 370
13
 100
AcDbLine
   6
CONTINUOUS
  62
1
  10
 2202.2049909444
  20
 2039.2123595506
  30
0.0
  11
 2252.2049909444
  21
 2039.2123595506
  31
0.0
   0
LINE
   5
1E4
 100
AcDbEntity
   8
LEVEL001
 370
13
 100
AcDbLine
   6
CONTINUOUS
  62
1
  10
 2252.2049909444
  20
 2039.2123595506
  30
0.0
  11
 2227.2049909444
  21
 1989.2123595506
  31
0.0
   0
ARC
   5
1E5
 100
AcDbEntity
   8
LEVEL001
 370
13
   6
CONTINUOUS
  62
7
 100
AcDbCircle
  10
 2646.5550561798
  20
 2355.2342452610
  30
0.0
  40
 300.00000000000
 100
AcDbArc
  50
 322.12501634890
  51
0.0
   0
ARC
   5
1E6
 100
AcDbEntity
   8
LEVEL001
 370
13
   6
DASHDOT
  62
6
 100
AcDbCircle
  10
 2646.5550561798
  20
 2355.2342452610
  30
0.0
  40
 338.15000000000
 100
AcDbArc
  50
 322.12501634890
  51
 0.77051911727190E-13
   0
LINE
   5
1E7
 100
AcDbEntity
   8
LEVEL001
 370
13
 100
AcDbLine
   6
CONTINUOUS
  62
7
  10
 2883.3607213926
  20
 2171.0520612064
  30
0.0
  11
 2675.8218167810
  21
 1904.2163267058
  31
0.0
   0
ARC
   5
1E8
 100
AcDbEntity
   8
LEVEL001
 370
13
   6
CONTINUOUS
  62
7
 100
AcDbCircle
  10
 2646.5550561798
  20
 2355.2342452610
  30
0.0
  40
 376.30000000000
 100
AcDbArc
  50
 322.12501634890
  51
0.0
   0
LINE
   5
1E9
 100
AcDbEntity
   8
LEVEL001
 370
13
 100
AcDbLine
   6
CONTINUOUS
  62
7
  10
 2736.0493909670
  20
 1857.3726578946
  30
0.0
  11
 2943.5882955786
  21
 2124.2083923952
  31
0.0
   0
ARC
   5
1EA
 100
AcDbEntity
   8
LEVEL001
 370
13
   6
CONTINUOUS
  62
7
 100
AcDbCircle
  10
 2972.8550561798
  20
 1673.1904738401
  30
0.0
  40
 300.00000000000
 100
AcDbArc
  50
 142.12501634890
  51
 180.00000000000
   0
ARC
   5
1EB
 100
AcDbEntity
   8
LEVEL001
 370
13
   6
DASHDOT
  62
6
 100
AcDbCircle
  10
 2972.8550561798
  20
 1673.1904738402
  30
0.0
  40
 338.15000000000
 100
AcDbArc
  50
 142.12501634890
  51
 180.00000000000
   0
ARC
   5
1EC
 100
AcDbEntity
   8
LEVEL001
 370
13
   6
CONTINUOUS
  62
7
 100
AcDbCircle
  10
 2972.8550561798
  20
 1673.1904738401
  30
0.0
  40
 376.30000000000
 100
AcDbArc
  50
 142.12501634890
  51
 180.00000000000
   0
LINE
   5
1ED
 100
AcDbEntity
   8
LEVEL001
 370
13
 100
AcDbLine
   6
CONTINUOUS
  62
7
  10
 2596.5550561798
  20
 1673.1904738401
  30
0.0
  11
 2596.5550561798
  21
 1289.2123595505
  31
0.0
   0
LINE
   5
1EE
 100
AcDbEntity
   8
LEVEL001
 370
13
 100
AcDbLine
   6
CONTINUOUS
  62
7
  10
 2596.5550561798
  20
 1289.2123595505
  30
0.0
  11
 2672.8550561798
  21
 1289.2123595505
  31
0.0
   0
LINE
   5
1EF
 100
AcDbEntity
   8
LEVEL001
 370
13
 100
AcDbLine
   6
CONTINUOUS
  62
7
  10
 2672.8550561798
  20
 1289.2123595505
  30
0.0
  11
 2672.8550561798
  21
 1673.1904738401
  31
0.0
   0
LINE
   5
1F0
 100
AcDbEntity
   8
LEVEL001
 370
13
 100
AcDbLine
   6
DASHDOT
  62
6
  10
 2984.7050561798
  20
 4945.4084038530
  30
0.0
  11
 2984.7050561798
  21
 2355.2342452610
  31
0.0
   0
POINT
   5
1F1
 100
AcDbEntity
   8
LEVEL001
 100
AcDbPoint
  62
2
  10
 2984.7050561798
  20
 2239.2123595506
  30
0.0
   0
POINT
   5
1F2
 100
AcDbEntity
   8
LEVEL001
 100
AcDbPoint
  62
2
  10
 2634.7050561798
  20
 1789.2123595505
  30
0.0
   0
LINE
   5
1F3
 100
AcDbEntity
   8
LEVEL001
 370
13
 100
AcDbLine
   6
DASHDOT
  62
6
  10
 2705.9356038740
  20
 1880.7944923002
  30
0.0
  11
 2913.4745084856
  21
 2147.6302268010
  31
0.0
   0
CIRCLE
   5
1F4
 100
AcDbEntity
   8
LEVEL001
 370
13
 100
AcDbCircle
   6
CONTINUOUS
  62
1
  10
 1734.7050561798
  20
 4387.6123595506
  30
0.0
  40
 69.999997913838
   0
MTEXT
   5
1F5
 100
AcDbEntity
   8
LEVEL001
 370
13
  62
1
 100
AcDbMText
  10
 1734.7050561798
  20
 4387.6123595506
  30
0.0
  40
 57.142857142858
  41
0.0
  71
5
  72
1
   1
\T1.000000;4
   7
GMM001
  44
 0.79999984000003
   0
CIRCLE
   5
1F6
 100
AcDbEntity
   8
LEVEL001
 370
13
 100
AcDbCircle
   6
CONTINUOUS
  62
1
  10
 2284.7050561798
  20
 5187.6123595506
  30
0.0
  40
 69.999997913838
   0
MTEXT
   5
1F7
 100
AcDbEntity
   8
LEVEL001
 370
13
  62
1
 100
AcDbMText
  10
 2284.7050561798
  20
 5187.6123595506
  30
0.0
  40
 57.142857142858
  41
0.0
  71
5
  72
1
   1
\T1.000000;3
   7
GMM001
  44
 0.79999984000003
   0
CIRCLE
   5
1F8
 100
AcDbEntity
   8
LEVEL001
 370
13
 100
AcDbCircle
   6
CONTINUOUS
  62
1
  10
 2284.7050561798
  20
 4387.6123595506
  30
0.0
  40
 69.999997913838
   0
MTEXT
   5
1F9
 100
AcDbEntity
   8
LEVEL001
 370
13
  62
1
 100
AcDbMText
  10
 2284.7050561798
  20
 4387.6123595506
  30
0.0
  40
 57.142857142858
  41
0.0
  71
5
  72
1
   1
\T1.000000;1
   7
GMM001
  44
 0.79999984000003
   0
LINE
   5
1FA
 100
AcDbEntity
   8
LEVEL001
 370
13
 100
AcDbLine
   6
DASHDOT
  62
6
  10
 3109.7050732824
  20
 4737.6123595506
  30
0.0
  11
 2684.1496252816
  21
 4737.6123595506
  31
0.0
   0
LINE
   5
1FB
 100
AcDbEntity
   8
LEVEL001
 370
13
 100
AcDbLine
   6
CONTINUOUS
  62
3
  10
 2796.9216934390
  20
 4984.2123595506
  30
0.0
  11
 2796.9216934390
  21
 4491.0123595506
  31
0.0
   0
ARC
   5
1FC
 100
AcDbEntity
   8
LEVEL001
 370
13
   6
CONTINUOUS
  62
3
 100
AcDbCircle
  10
 2798.7216934390
  20
 4984.2123595506
  30
0.0
  40
 1.8000000000002
 100
AcDbArc
  50
 90.000000000043
  51
 180.00000000009
   0
LINE
   5
1FD
 100
AcDbEntity
   8
LEVEL001
 370
13
 100
AcDbLine
   6
CONTINUOUS
  62
3
  10
 2800.5216934390
  20
 4491.0123595506
  30
0.0
  11
 2800.5216934390
  21
 4984.2123595506
  31
0.0
   0
ARC
   5
1FE
 100
AcDbEntity
   8
LEVEL001
 370
13
   6
CONTINUOUS
  62
3
 100
AcDbCircle
  10
 2798.7216934390
  20
 4984.2123595506
  30
0.0
  40
 1.8000000000002
 100
AcDbArc
  50
 359.99999999991
  51
 90.000000000000
   0
LINE
   5
1FF
 100
AcDbEntity
   8
LEVEL001
 370
13
 100
AcDbLine
   6
CONTINUOUS
  62
1
  10
 2796.9216934390
  20
 4966.0123595506
  30
0.0
  11
 2721.9216934390
  21
 4966.0123595506
  31
0.0
   0
LINE
   5
200
 100
AcDbEntity
   8
LEVEL001
 370
13
 100
AcDbLine
   6
CONTINUOUS
  62
1
  10
 2721.9216934390
  20
 4966.0123595506
  30
0.0
  11
 2721.9216934390
  21
 4865.6075972456
  31
0.0
   0
ARC
   5
201
 100
AcDbEntity
   8
LEVEL001
 370
13
   6
CONTINUOUS
  62
1
 100
AcDbCircle
  10
 2777.6108399250
  20
 4801.0123595506
  30
0.0
  40
 5.0000000000000
 100
AcDbArc
  50
 254.02764019580
  51
 270.00000000003
   0
LINE
   5
202
 100
AcDbEntity
   8
LEVEL001
 370
13
 100
AcDbLine
   6
CONTINUOUS
  62
1
  10
 2778.3255746368
  20
 4796.0123595506
  30
0.0
  11
 2796.9216934390
  21
 4796.0123595506
  31
0.0
   0
ARC
   5
203
 100
AcDbEntity
   8
LEVEL001
 370
13
   6
CONTINUOUS
  62
1
 100
AcDbCircle
  10
 2778.3255746368
  20
 4806.0123595506
  30
0.0
  40
 10.000000000000
 100
AcDbArc
  50
 253.42053515292
  51
 269.99999999997
   0
ARC
   5
204
 100
AcDbEntity
   8
LEVEL001
 370
13
   6
CONTINUOUS
  62
1
 100
AcDbCircle
  10
 2796.8729918674
  20
 4868.3099783982
  30
0.0
  40
 75.000000000000
 100
AcDbArc
  50
 177.93508589806
  51
 253.42053515295
   0
ARC
   5
205
 100
AcDbEntity
   8
LEVEL001
 370
13
   6
CONTINUOUS
  62
7
 100
AcDbCircle
  10
 4955.1272939254
  20
 4737.6123595506
  30
0.0
  40
 2200.0000000000
 100
AcDbArc
  50
 178.23647305739
  51
 185.69973045140
   0
LINE
   5
206
 100
AcDbEntity
   8
LEVEL001
 370
13
 100
AcDbLine
   6
CONTINUOUS
  62
6
  10
 2775.9545724552
  20
 4796.2975075880
  30
0.0
  11
 2775.9545724552
  21
 4510.1123595506
  31
0.0
   0
ARC
   5
207
 100
AcDbEntity
   8
LEVEL001
 370
13
   6
CONTINUOUS
  62
3
 100
AcDbCircle
  10
 2798.7216934390
  20
 4491.0123595506
  30
0.0
  40
 1.8000000000002
 100
AcDbArc
  50
 179.99999999997
  51
 269.99999999996
   0
ARC
   5
208
 100
AcDbEntity
   8
LEVEL001
 370
13
   6
CONTINUOUS
  62
3
 100
AcDbCircle
  10
 2798.7216934390
  20
 4491.0123595506
  30
0.0
  40
 1.8000000000002
 100
AcDbArc
  50
 270.00000000000
  51
 0.28950115500607E-10
   0
LINE
   5
209
 100
AcDbEntity
   8
LEVEL001
 370
13
 100
AcDbLine
   6
CONTINUOUS
  62
7
  10
 2775.9545724552
  20
 4510.1123595506
  30
0.0
  11
 2796.9216934390
  21
 4510.1123595506
  31
0.0
   0
ARC
   5
20A
 100
AcDbEntity
   8
LEVEL001
 370
13
   6
CONTINUOUS
  62
7
 100
AcDbCircle
  10
 2775.9545724552
  20
 4520.1123595506
  30
0.0
  40
 10.000000000000
 100
AcDbArc
  50
 185.69973045141
  51
 270.00000000000
   0
LINE
   5
20B
 100
AcDbEntity
   8
LEVEL001
 370
13
 100
AcDbLine
   6
CONTINUOUS
  62
7
  10
 2800.5216934390
  20
 4682.6123595506
  30
0.0
  11
 2891.9216934390
  21
 4682.6123595506
  31
0.0
   0
LINE
   5
20C
 100
AcDbEntity
   8
LEVEL001
 370
13
 100
AcDbLine
   6
CONTINUOUS
  62
7
  10
 2891.9216934390
  20
 4682.6123595506
  30
0.0
  11
 2891.9216934390
  21
 4792.6123595506
  31
0.0
   0
LINE
   5
20D
 100
AcDbEntity
   8
LEVEL001
 370
13
 100
AcDbLine
   6
CONTINUOUS
  62
7
  10
 2891.9216934390
  20
 4792.6123595506
  30
0.0
  11
 2800.5216934390
  21
 4792.6123595506
  31
0.0
   0
LINE
   5
20E
 100
AcDbEntity
   8
LEVEL001
 370
13
 100
AcDbLine
   6
DOT
  62
6
  10
 2775.9545724552
  20
 4965.1123595506
  30
0.0
  11
 2796.9216934390
  21
 4965.1123595506
  31
0.0
   0
ARC
   5
20F
 100
AcDbEntity
   8
LEVEL001
 370
13
   6
DOT
  62
6
 100
AcDbCircle
  10
 2775.9545724552
  20
 4955.1123595506
  30
0.0
  40
 10.000000000000
 100
AcDbArc
  50
 90.000000000000
  51
 174.30026954860
   0
ARC
   5
210
 100
AcDbEntity
   8
LEVEL001
 370
13
   6
DOT
  62
6
 100
AcDbCircle
  10
 4955.1272939254
  20
 4737.6123595506
  30
0.0
  40
 2200.0000000000
 100
AcDbArc
  50
 174.30026954860
  51
 178.23647305739
   0
CIRCLE
   5
211
 100
AcDbEntity
   8
LEVEL001
 370
13
 100
AcDbCircle
   6
CONTINUOUS
  62
1
  10
 3344.1988743074
  20
 5187.6123595506
  30
0.0
  40
 69.999997913838
   0
CIRCLE
   5
212
 100
AcDbEntity
   8
LEVEL001
 370
13
 100
AcDbCircle
   6
CONTINUOUS
  62
1
  10
 3484.1988701352
  20
 5187.6123595506
  30
0.0
  40
 69.999997913838
   0
CIRCLE
   5
213
 100
AcDbEntity
   8
LEVEL001
 370
13
 100
AcDbCircle
   6
CONTINUOUS
  62
1
  10
 3184.7050561798
  20
 5187.6123595506
  30
0.0
  40
 70.000000000000
   0
MTEXT
   5
214
 100
AcDbEntity
   8
LEVEL001
 370
13
  62
1
 100
AcDbMText
  10
 3344.1988743074
  20
 5187.6123595506
  30
0.0
  40
 57.142857142858
  41
0.0
  71
5
  72
1
   1
\T1.000000;6
   7
GMM001
  44
 0.79999984000003
   0
MTEXT
   5
215
 100
AcDbEntity
   8
LEVEL001
 370
13
  62
1
 100
AcDbMText
  10
 3484.1988701352
  20
 5187.6123595506
  30
0.0
  40
 57.142857142858
  41
0.0
  71
5
  72
1
   1
\T1.000000;8
   7
GMM001
  44
 0.79999984000003
   0
MTEXT
   5
216
 100
AcDbEntity
   8
LEVEL001
 370
13
  62
1
 100
AcDbMText
  10
 3184.7050561798
  20
 5187.6123595506
  30
0.0
  40
 57.142857142858
  41
0.0
  71
5
  72
1
   1
\T1.000000;11
   7
GMM001
  44
 0.79999984000003
   0
CIRCLE
   5
217
 100
AcDbEntity
   8
LEVEL001
 370
13
 100
AcDbCircle
   6
CONTINUOUS
  62
1
  10
 2694.7050603522
  20
 5187.6123595506
  30
0.0
  40
 69.999997913838
   0
CIRCLE
   5
218
 100
AcDbEntity
   8
LEVEL001
 370
13
 100
AcDbCircle
   6
CONTINUOUS
  62
1
  10
 2834.7050561798
  20
 5187.6123595506
  30
0.0
  40
 69.999997913838
   0
MTEXT
   5
219
 100
AcDbEntity
   8
LEVEL001
 370
13
  62
1
 100
AcDbMText
  10
 2834.7050561798
  20
 5187.6123595506
  30
0.0
  40
 57.142857142858
  41
0.0
  71
5
  72
1
   1
\T1.000000;7
   7
GMM001
  44
 0.79999984000003
   0
MTEXT
   5
21A
 100
AcDbEntity
   8
LEVEL001
 370
13
  62
1
 100
AcDbMText
  10
 2694.7050603522
  20
 5187.6123595506
  30
0.0
  40
 57.142857142858
  41
0.0
  71
5
  72
1
   1
\T1.000000;5
   7
GMM001
  44
 0.79999984000003
   0
LINE
   5
21B
 100
AcDbEntity
   8
LEVEL001
 370
13
 100
AcDbLine
   6
DASHDOT
  62
6
  10
 3039.7050732824
  20
 4782.6123595506
  30
0.0
  11
 3039.7050732824
  21
 4752.6123595506
  31
0.0
   0
LINE
   5
21C
 100
AcDbEntity
   8
LEVEL001
 370
13
 100
AcDbLine
   6
DASHDOT
  62
6
  10
 3024.7050732824
  20
 4767.6123595506
  30
0.0
  11
 3054.7050732824
  21
 4767.6123595506
  31
0.0
   0
LINE
   5
21D
 100
AcDbEntity
   8
LEVEL001
 370
13
 100
AcDbLine
   6
DASHDOT
  62
6
  10
 3039.7050732824
  20
 4722.6123595506
  30
0.0
  11
 3039.7050732824
  21
 4692.6123595506
  31
0.0
   0
LINE
   5
21E
 100
AcDbEntity
   8
LEVEL001
 370
13
 100
AcDbLine
   6
DASHDOT
  62
6
  10
 3024.7050732824
  20
 4707.6123595506
  30
0.0
  11
 3054.7050732824
  21
 4707.6123595506
  31
0.0
   0
LINE
   5
21F
 100
AcDbEntity
   8
LEVEL001
 370
13
 100
AcDbLine
   6
CONTINUOUS
  62
7
  10
 2946.9216934390
  20
 4682.6123595506
  30
0.0
  11
 3059.7050732824
  21
 4682.6123595506
  31
0.0
   0
LINE
   5
220
 100
AcDbEntity
   8
LEVEL001
 370
13
 100
AcDbLine
   6
CONTINUOUS
  62
7
  10
 3059.7050732824
  20
 4682.6123595506
  30
0.0
  11
 3059.7050732824
  21
 4792.6123595506
  31
0.0
   0
LINE
   5
221
 100
AcDbEntity
   8
LEVEL001
 370
13
 100
AcDbLine
   6
CONTINUOUS
  62
7
  10
 3059.7050732824
  20
 4792.6123595506
  30
0.0
  11
 2946.9216934390
  21
 4792.6123595506
  31
0.0
   0
LINE
   5
222
 100
AcDbEntity
   8
LEVEL001
 370
13
 100
AcDbLine
   6
CONTINUOUS
  62
3
  10
 3032.7050732824
  20
 4700.6123595506
  30
0.0
  11
 3046.7050732824
  21
 4700.6123595506
  31
0.0
   0
LINE
   5
223
 100
AcDbEntity
   8
LEVEL001
 370
13
 100
AcDbLine
   6
CONTINUOUS
  62
3
  10
 3046.7050732824
  20
 4700.6123595506
  30
0.0
  11
 3046.7050732824
  21
 4714.6123595506
  31
0.0
   0
LINE
   5
224
 100
AcDbEntity
   8
LEVEL001
 370
13
 100
AcDbLine
   6
CONTINUOUS
  62
3
  10
 3046.7050732824
  20
 4714.6123595506
  30
0.0
  11
 3032.7050732824
  21
 4714.6123595506
  31
0.0
   0
LINE
   5
225
 100
AcDbEntity
   8
LEVEL001
 370
13
 100
AcDbLine
   6
CONTINUOUS
  62
3
  10
 3032.7050732824
  20
 4714.6123595506
  30
0.0
  11
 3032.7050732824
  21
 4700.6123595506
  31
0.0
   0
LINE
   5
226
 100
AcDbEntity
   8
LEVEL001
 370
13
 100
AcDbLine
   6
CONTINUOUS
  62
3
  10
 3032.7050732824
  20
 4760.6123595506
  30
0.0
  11
 3046.7050732824
  21
 4760.6123595506
  31
0.0
   0
LINE
   5
227
 100
AcDbEntity
   8
LEVEL001
 370
13
 100
AcDbLine
   6
CONTINUOUS
  62
3
  10
 3046.7050732824
  20
 4760.6123595506
  30
0.0
  11
 3046.7050732824
  21
 4774.6123595506
  31
0.0
   0
LINE
   5
228
 100
AcDbEntity
   8
LEVEL001
 370
13
 100
AcDbLine
   6
CONTINUOUS
  62
3
  10
 3046.7050732824
  20
 4774.6123595506
  30
0.0
  11
 3032.7050732824
  21
 4774.6123595506
  31
0.0
   0
LINE
   5
229
 100
AcDbEntity
   8
LEVEL001
 370
13
 100
AcDbLine
   6
CONTINUOUS
  62
3
  10
 3032.7050732824
  20
 4774.6123595506
  30
0.0
  11
 3032.7050732824
  21
 4760.6123595506
  31
0.0
   0
LINE
   5
22A
 100
AcDbEntity
   8
LEVEL001
 370
13
 100
AcDbLine
   6
CONTINUOUS
  62
6
  10
 3020.1330828364
  20
 4787.6123595506
  30
0.0
  11
 3020.1330828364
  21
 4687.6123595506
  31
0.0
   0
LINE
   5
22B
 100
AcDbEntity
   8
LEVEL001
 370
13
 100
AcDbLine
   6
CONTINUOUS
  62
7
  10
 2891.9216934390
  20
 4792.6123595506
  30
0.0
  11
 2946.9216934390
  21
 4792.6123595506
  31
0.0
   0
LINE
   5
22C
 100
AcDbEntity
   8
LEVEL001
 370
13
 100
AcDbLine
   6
CONTINUOUS
  62
7
  10
 2946.9216934390
  20
 4792.6123595506
  30
0.0
  11
 2946.9216934390
  21
 4682.6123595506
  31
0.0
   0
LINE
   5
22D
 100
AcDbEntity
   8
LEVEL001
 370
13
 100
AcDbLine
   6
CONTINUOUS
  62
7
  10
 2946.9216934390
  20
 4682.6123595506
  30
0.0
  11
 2891.9216934390
  21
 4682.6123595506
  31
0.0
   0
LINE
   5
22E
 100
AcDbEntity
   8
LEVEL001
 370
13
 100
AcDbLine
   6
DASHDOT
  62
6
  10
 2916.0708160964
  20
 4748.1977733694
  30
0.0
  11
 2916.0708160964
  21
 4718.1977733694
  31
0.0
   0
LINE
   5
22F
 100
AcDbEntity
   8
LEVEL001
 370
13
 100
AcDbLine
   6
DASHDOT
  62
6
  10
 2901.0708160964
  20
 4733.1977733694
  30
0.0
  11
 2931.0708160964
  21
 4733.1977733694
  31
0.0
   0
ARC
   5
230
 100
AcDbEntity
   8
LEVEL001
 370
13
   6
CONTINUOUS
  62
3
 100
AcDbCircle
  10
 2866.9216934390
  20
 4767.6123595506
  30
0.0
  40
 52.000000000000
 100
AcDbArc
  50
 298.73565374491
  51
 324.99999999986
   0
ARC
   5
231
 100
AcDbEntity
   8
LEVEL001
 370
13
   6
CONTINUOUS
  62
3
 100
AcDbCircle
  10
 2916.0708160962
  20
 4733.1977733694
  30
0.0
  40
 8.0000000000000
 100
AcDbArc
  50
 324.99999999996
  51
 146.50781277444
   0
ARC
   5
232
 100
AcDbEntity
   8
LEVEL001
 370
13
   6
CONTINUOUS
  62
3
 100
AcDbCircle
  10
 2866.9216934390
  20
 4767.6123595506
  30
0.0
  40
 68.000000000000
 100
AcDbArc
  50
 291.57057830161
  51
 324.99999999989
   0
LINE
   5
233
 100
AcDbEntity
   8
LEVEL001
 370
13
 100
AcDbLine
   6
CONTINUOUS
  62
7
  10
 3022.8550561798
  20
 4792.6123595506
  30
0.0
  11
 3022.8550561798
  21
 4889.2123595506
  31
0.0
   0
LINE
   5
234
 100
AcDbEntity
   8
LEVEL001
 370
13
 100
AcDbLine
   6
CONTINUOUS
  62
7
  10
 3022.8550561798
  20
 4889.2123595506
  30
0.0
  11
 2946.5550561798
  21
 4889.2123595506
  31
0.0
   0
LINE
   5
235
 100
AcDbEntity
   8
LEVEL001
 370
13
 100
AcDbLine
   6
CONTINUOUS
  62
7
  10
 2946.5550561798
  20
 4889.2123595506
  30
0.0
  11
 2946.5550561798
  21
 4792.6123595506
  31
0.0
   0
LINE
   5
236
 100
AcDbEntity
   8
LEVEL001
 370
13
 100
AcDbLine
   6
CONTINUOUS
  62
7
  10
 3022.8550561798
  20
 4301.7123598306
  30
0.0
  11
 3022.8550561798
  21
 4682.6123595506
  31
0.0
   0
LINE
   5
237
 100
AcDbEntity
   8
LEVEL001
 370
13
 100
AcDbLine
   6
CONTINUOUS
  62
7
  10
 2946.5550561798
  20
 4682.6123595506
  30
0.0
  11
 2946.5550561798
  21
 4301.7123598306
  31
0.0
   0
LINE
   5
238
 100
AcDbEntity
   8
LEVEL001
 370
13
 100
AcDbLine
   6
DASHDOT
  62
6
  10
 2866.9216934390
  20
 4782.6123595506
  30
0.0
  11
 2866.9216934390
  21
 4752.6123595506
  31
0.0
   0
LINE
   5
239
 100
AcDbEntity
   8
LEVEL001
 370
13
 100
AcDbLine
   6
DASHDOT
  62
6
  10
 2851.9216934390
  20
 4767.6123595506
  30
0.0
  11
 2881.9216934390
  21
 4767.6123595506
  31
0.0
   0
LINE
   5
23A
 100
AcDbEntity
   8
LEVEL001
 370
13
 100
AcDbLine
   6
CONTINUOUS
  62
3
  10
 2859.9216934390
  20
 4760.6123595506
  30
0.0
  11
 2873.9216934390
  21
 4760.6123595506
  31
0.0
   0
LINE
   5
23B
 100
AcDbEntity
   8
LEVEL001
 370
13
 100
AcDbLine
   6
CONTINUOUS
  62
3
  10
 2873.9216934390
  20
 4760.6123595506
  30
0.0
  11
 2873.9216934390
  21
 4774.6123595506
  31
0.0
   0
LINE
   5
23C
 100
AcDbEntity
   8
LEVEL001
 370
13
 100
AcDbLine
   6
CONTINUOUS
  62
3
  10
 2873.9216934390
  20
 4774.6123595506
  30
0.0
  11
 2859.9216934390
  21
 4774.6123595506
  31
0.0
   0
LINE
   5
23D
 100
AcDbEntity
   8
LEVEL001
 370
13
 100
AcDbLine
   6
CONTINUOUS
  62
3
  10
 2859.9216934390
  20
 4774.6123595506
  30
0.0
  11
 2859.9216934390
  21
 4760.6123595506
  31
0.0
   0
LINE
   5
23E
 100
AcDbEntity
   8
LEVEL001
 370
13
 100
AcDbLine
   6
DASHDOT
  62
6
  10
 2866.9216934390
  20
 4722.6123595506
  30
0.0
  11
 2866.9216934390
  21
 4692.6123595506
  31
0.0
   0
LINE
   5
23F
 100
AcDbEntity
   8
LEVEL001
 370
13
 100
AcDbLine
   6
DASHDOT
  62
6
  10
 2851.9216934390
  20
 4707.6123595506
  30
0.0
  11
 2881.9216934390
  21
 4707.6123595506
  31
0.0
   0
LINE
   5
240
 100
AcDbEntity
   8
LEVEL001
 370
13
 100
AcDbLine
   6
CONTINUOUS
  62
3
  10
 2859.9216934390
  20
 4700.6123595506
  30
0.0
  11
 2873.9216934390
  21
 4700.6123595506
  31
0.0
   0
LINE
   5
241
 100
AcDbEntity
   8
LEVEL001
 370
13
 100
AcDbLine
   6
CONTINUOUS
  62
3
  10
 2873.9216934390
  20
 4700.6123595506
  30
0.0
  11
 2873.9216934390
  21
 4714.6123595506
  31
0.0
   0
LINE
   5
242
 100
AcDbEntity
   8
LEVEL001
 370
13
 100
AcDbLine
   6
CONTINUOUS
  62
3
  10
 2873.9216934390
  20
 4714.6123595506
  30
0.0
  11
 2859.9216934390
  21
 4714.6123595506
  31
0.0
   0
LINE
   5
243
 100
AcDbEntity
   8
LEVEL001
 370
13
 100
AcDbLine
   6
CONTINUOUS
  62
3
  10
 2859.9216934390
  20
 4714.6123595506
  30
0.0
  11
 2859.9216934390
  21
 4700.6123595506
  31
0.0
   0
CIRCLE
   5
244
 100
AcDbEntity
   8
LEVEL001
 370
13
 100
AcDbCircle
   6
CONTINUOUS
  62
1
  10
 4084.7050561798
  20
 4387.6123595506
  30
0.0
  40
 69.999997913838
   0
MTEXT
   5
245
 100
AcDbEntity
   8
LEVEL001
 370
13
  62
1
 100
AcDbMText
  10
 4084.7050561798
  20
 4387.6123595506
  30
0.0
  40
 57.142857142858
  41
0.0
  71
5
  72
1
   1
\T1.000000;2
   7
GMM001
  44
 0.79999984000003
   0
MTEXT
   5
246
 100
AcDbEntity
   8
LEVEL001
 370
13
  62
1
 100
AcDbMText
  10
 5544.7050561798
  20
 3097.6123595506
  30
0.0
  40
 57.142857142858
  41
0.0
  71
4
  72
1
   1
\T1.000000;□４５０×６００（シングル）
   7
GMM001
  44
 0.79999984000003
   0
CIRCLE
   5
247
 100
AcDbEntity
   8
LEVEL001
 370
13
 100
AcDbCircle
   6
CONTINUOUS
  62
1
  10
 1734.7050561798
  20
 2789.2123595506
  30
0.0
  40
 70.000000000000
   0
MTEXT
   5
248
 100
AcDbEntity
   8
LEVEL001
 370
13
  62
1
 100
AcDbMText
  10
 1734.7050561798
  20
 2789.2123595506
  30
0.0
  40
 57.142857142858
  41
0.0
  71
5
  72
1
   1
\T1.000000;9
   7
GMM001
  44
 0.79999984000003
   0
LINE
   5
249
 100
AcDbEntity
   8
LEVEL001
 370
13
 100
AcDbLine
   6
DASHDOT
  62
6
  10
 2634.7050561798
  20
 1673.1904738402
  30
0.0
  11
 2634.7050561798
  21
 1189.2123595505
  31
0.0
   0
LINE
   5
24A
 100
AcDbEntity
   8
LEVEL001
 370
13
 100
AcDbLine
   6
DASHDOT
  62
6
  10
 1484.7050561798
  20
 5037.6123595506
  30
0.0
  11
 1484.7050561798
  21
 1189.2123595506
  31
0.0
   0
LINE
   5
24B
 100
AcDbEntity
   8
LEVEL001
 370
13
 100
AcDbLine
   6
DASHDOT
  62
6
  10
 1424.7050380941
  20
 1589.2123595505
  30
0.0
  11
 1544.7050380941
  21
 1589.2123595505
  31
0.0
   0
CIRCLE
   5
24C
 100
AcDbEntity
   8
LEVEL001
 370
13
 100
AcDbCircle
   6
CONTINUOUS
  62
7
  10
 1484.7050223777
  20
 1489.2123595505
  30
0.0
  40
 7.5000000000000
   0
LINE
   5
24D
 100
AcDbEntity
   8
LEVEL001
 370
13
 100
AcDbLine
   6
DASHDOT
  62
6
  10
 1454.7050223777
  20
 1489.2123595505
  30
0.0
  11
 1514.7050223777
  21
 1489.2123595505
  31
0.0
   0
CIRCLE
   5
24E
 100
AcDbEntity
   8
LEVEL001
 370
13
 100
AcDbCircle
   6
CONTINUOUS
  62
7
  10
 2634.7050223778
  20
 1589.2123595505
  30
0.0
  40
 7.5000000000000
   0
LINE
   5
24F
 100
AcDbEntity
   8
LEVEL001
 370
13
 100
AcDbLine
   6
DASHDOT
  62
6
  10
 2604.7050223778
  20
 1589.2123595505
  30
0.0
  11
 2664.7050223778
  21
 1589.2123595505
  31
0.0
   0
LINE
   5
250
 100
AcDbEntity
   8
LEVEL001
 370
13
 100
AcDbLine
   6
DASHDOT
  62
6
  10
 2574.7050380942
  20
 1489.2123595505
  30
0.0
  11
 2694.7050380942
  21
 1489.2123595505
  31
0.0
   0
LINE
   5
251
 100
AcDbEntity
   8
LEVEL001
 370
13
 100
AcDbLine
   6
DOT
  62
1
  10
 2672.8550561798
  20
 1481.7123595505
  30
0.0
  11
 2596.5550561798
  21
 1481.7123595505
  31
0.0
   0
LINE
   5
252
 100
AcDbEntity
   8
LEVEL001
 370
13
 100
AcDbLine
   6
DOT
  62
1
  10
 2596.5550561798
  20
 1496.7123595505
  30
0.0
  11
 2672.8550561798
  21
 1496.7123595505
  31
0.0
   0
LINE
   5
253
 100
AcDbEntity
   8
LEVEL001
 370
13
 100
AcDbLine
   6
CONTINUOUS
  62
7
  10
 2672.8550561798
  20
 1496.7123595505
  30
0.0
  11
 2744.7050380942
  21
 1496.7123595505
  31
0.0
   0
LINE
   5
254
 100
AcDbEntity
   8
LEVEL001
 370
13
 100
AcDbLine
   6
CONTINUOUS
  62
7
  10
 2744.7050380942
  20
 1496.7123595505
  30
0.0
  11
 2744.7050380942
  21
 1481.7123595505
  31
0.0
   0
LINE
   5
255
 100
AcDbEntity
   8
LEVEL001
 370
13
 100
AcDbLine
   6
CONTINUOUS
  62
7
  10
 2744.7050380942
  20
 1481.7123595505
  30
0.0
  11
 2672.8550561798
  21
 1481.7123595505
  31
0.0
   0
LINE
   5
256
 100
AcDbEntity
   8
LEVEL001
 370
13
 100
AcDbLine
   6
CONTINUOUS
  62
7
  10
 2596.5550561798
  20
 1496.7123595505
  30
0.0
  11
 2524.7050380942
  21
 1496.7123595505
  31
0.0
   0
LINE
   5
257
 100
AcDbEntity
   8
LEVEL001
 370
13
 100
AcDbLine
   6
CONTINUOUS
  62
7
  10
 2524.7050380942
  20
 1496.7123595505
  30
0.0
  11
 2524.7050380942
  21
 1481.7123595505
  31
0.0
   0
LINE
   5
258
 100
AcDbEntity
   8
LEVEL001
 370
13
 100
AcDbLine
   6
CONTINUOUS
  62
7
  10
 2524.7050380942
  20
 1481.7123595505
  30
0.0
  11
 2596.5550561798
  21
 1481.7123595505
  31
0.0
   0
CIRCLE
   5
259
 100
AcDbEntity
   8
LEVEL001
 370
13
 100
AcDbCircle
   6
CONTINUOUS
  62
1
  10
 2259.7050561798
  20
 1339.2123595505
  30
0.0
  40
 70.000000000000
   0
MTEXT
   5
25A
 100
AcDbEntity
   8
LEVEL001
 370
13
  62
1
 100
AcDbMText
  10
 2259.7050561798
  20
 1339.2123595505
  30
0.0
  40
 57.142857142858
  41
0.0
  71
5
  72
1
   1
\T1.000000;10
   7
GMM001
  44
 0.79999984000003
   0
MTEXT
   5
25B
 100
AcDbEntity
   8
LEVEL001
 370
13
  62
1
 100
AcDbMText
  10
 4484.7050561798
  20
 5537.6123595506
  30
0.0
  40
 57.142857142858
  41
0.0
  71
5
  72
1
   1
\T1.000000;背　面　図
   7
GMM001
  44
 0.79999984000003
   0
MTEXT
   5
25C
 100
AcDbEntity
   8
LEVEL001
 370
13
  62
1
 100
AcDbMText
  10
 2984.7050561798
  20
 5537.6123595506
  30
0.0
  40
 57.142857142858
  41
0.0
  71
5
  72
1
   1
\T1.000000;側　面　図
   7
GMM001
  44
 0.79999984000003
   0
MTEXT
   5
25D
 100
AcDbEntity
   8
LEVEL001
 370
13
  62
1
 100
AcDbMText
  10
 1484.7050561798
  20
 5537.6123595506
  30
0.0
  40
 57.142857142858
  41
0.0
  71
5
  72
1
   1
\T1.000000;正　面　図
   7
GMM001
  44
 0.79999984000003
   0
LINE
   5
25E
 100
AcDbEntity
   8
LEVEL001
 370
13
 100
AcDbLine
   6
DASHDOT
  62
6
  10
 4434.7050561798
  20
 4802.6123595506
  30
0.0
  11
 4434.7050561798
  21
 4772.6123595506
  31
0.0
   0
LINE
   5
25F
 100
AcDbEntity
   8
LEVEL001
 370
13
 100
AcDbLine
   6
DASHDOT
  62
6
  10
 4419.7050561798
  20
 4787.6123595506
  30
0.0
  11
 4449.7050561798
  21
 4787.6123595506
  31
0.0
   0
LINE
   5
260
 100
AcDbEntity
   8
LEVEL001
 370
13
 100
AcDbLine
   6
DASHDOT
  62
6
  10
 4534.7050561798
  20
 4802.6123595506
  30
0.0
  11
 4534.7050561798
  21
 4772.6123595506
  31
0.0
   0
LINE
   5
261
 100
AcDbEntity
   8
LEVEL001
 370
13
 100
AcDbLine
   6
DASHDOT
  62
6
  10
 4519.7050561798
  20
 4787.6123595506
  30
0.0
  11
 4549.7050561798
  21
 4787.6123595506
  31
0.0
   0
LINE
   5
262
 100
AcDbEntity
   8
LEVEL001
 370
13
 100
AcDbLine
   6
DASHDOT
  62
6
  10
 4534.7050561798
  20
 4702.6123595506
  30
0.0
  11
 4534.7050561798
  21
 4672.6123595506
  31
0.0
   0
LINE
   5
263
 100
AcDbEntity
   8
LEVEL001
 370
13
 100
AcDbLine
   6
DASHDOT
  62
6
  10
 4519.7050561798
  20
 4687.6123595506
  30
0.0
  11
 4549.7050561798
  21
 4687.6123595506
  31
0.0
   0
LINE
   5
264
 100
AcDbEntity
   8
LEVEL001
 370
13
 100
AcDbLine
   6
DASHDOT
  62
6
  10
 4434.7050561798
  20
 4702.6123595506
  30
0.0
  11
 4434.7050561798
  21
 4672.6123595506
  31
0.0
   0
LINE
   5
265
 100
AcDbEntity
   8
LEVEL001
 370
13
 100
AcDbLine
   6
DASHDOT
  62
6
  10
 4419.7050561798
  20
 4687.6123595506
  30
0.0
  11
 4449.7050561798
  21
 4687.6123595506
  31
0.0
   0
LINE
   5
266
 100
AcDbEntity
   8
LEVEL001
 370
13
 100
AcDbLine
   6
DASHDOT
  62
6
  10
 4534.7050561798
  20
 4702.6123595506
  30
0.0
  11
 4534.7050561798
  21
 4672.6123595506
  31
0.0
   0
LINE
   5
267
 100
AcDbEntity
   8
LEVEL001
 370
13
 100
AcDbLine
   6
DASHDOT
  62
6
  10
 4519.7050561798
  20
 4687.6123595506
  30
0.0
  11
 4549.7050561798
  21
 4687.6123595506
  31
0.0
   0
LINE
   5
268
 100
AcDbEntity
   8
LEVEL001
 370
13
 100
AcDbLine
   6
DASHDOT
  62
6
  10
 4434.7050561798
  20
 4702.6123595506
  30
0.0
  11
 4434.7050561798
  21
 4672.6123595506
  31
0.0
   0
LINE
   5
269
 100
AcDbEntity
   8
LEVEL001
 370
13
 100
AcDbLine
   6
DASHDOT
  62
6
  10
 4419.7050561798
  20
 4687.6123595506
  30
0.0
  11
 4449.7050561798
  21
 4687.6123595506
  31
0.0
   0
CIRCLE
   5
26A
 100
AcDbEntity
   8
LEVEL001
 370
13
 100
AcDbCircle
   6
CONTINUOUS
  62
3
  10
 4534.7050561798
  20
 4787.6123595506
  30
0.0
  40
 7.0000000000000
   0
CIRCLE
   5
26B
 100
AcDbEntity
   8
LEVEL001
 370
13
 100
AcDbCircle
   6
CONTINUOUS
  62
3
  10
 4534.7050561798
  20
 4687.6123595506
  30
0.0
  40
 7.0000000000000
   0
CIRCLE
   5
26C
 100
AcDbEntity
   8
LEVEL001
 370
13
 100
AcDbCircle
   6
CONTINUOUS
  62
3
  10
 4434.7050561798
  20
 4687.6123595506
  30
0.0
  40
 7.0000000000000
   0
CIRCLE
   5
26D
 100
AcDbEntity
   8
LEVEL001
 370
13
 100
AcDbCircle
   6
CONTINUOUS
  62
3
  10
 4434.7050561798
  20
 4787.6123595506
  30
0.0
  40
 7.0000000000000
   0
ARC
   5
26E
 100
AcDbEntity
   8
LEVEL001
 370
13
   6
CONTINUOUS
  62
6
 100
AcDbCircle
  10
 4710.8440889822
  20
 4911.0659206072
  30
0.0
  40
 20.000000000000
 100
AcDbArc
  50
 37.488991427304
  51
 127.48899142730
   0
LINE
   5
26F
 100
AcDbEntity
   8
LEVEL001
 370
13
 100
AcDbLine
   6
CONTINUOUS
  62
6
  10
 4607.4228258476
  20
 4856.9452930092
  30
0.0
  11
 4698.6719092590
  21
 4926.9353264178
  31
0.0
   0
ARC
   5
270
 100
AcDbEntity
   8
LEVEL001
 370
13
   6
CONTINUOUS
  62
6
 100
AcDbCircle
  10
 4710.8440889822
  20
 4911.0659206070
  30
0.0
  40
 20.000000000000
 100
AcDbArc
  50
 307.48899142730
  51
 37.488991427304
   0
LINE
   5
271
 100
AcDbEntity
   8
LEVEL001
 370
13
 100
AcDbLine
   6
CONTINUOUS
  62
6
  10
 4723.0162687056
  20
 4895.1965147964
  30
0.0
  11
 4631.7671852942
  21
 4825.2064813876
  31
0.0
   0
ARC
   5
272
 100
AcDbEntity
   8
LEVEL001
 370
13
   6
CONTINUOUS
  62
6
 100
AcDbCircle
  10
 4619.5950055708
  20
 4841.0758871984
  30
0.0
  40
 20.000000000000
 100
AcDbArc
  50
 217.48899142730
  51
 307.48899142730
   0
ARC
   5
273
 100
AcDbEntity
   8
LEVEL001
 370
13
   6
CONTINUOUS
  62
6
 100
AcDbCircle
  10
 4619.5950055708
  20
 4841.0758871984
  30
0.0
  40
 20.000000000000
 100
AcDbArc
  50
 127.48899142730
  51
 217.48899142731
   0
LINE
   5
274
 100
AcDbEntity
   8
LEVEL001
 370
13
 100
AcDbLine
   6
CONTINUOUS
  62
6
  10
 4616.9926217330
  20
 4765.1123595506
  30
0.0
  11
 4727.2050561798
  21
 4765.1123595506
  31
0.0
   0
ARC
   5
275
 100
AcDbEntity
   8
LEVEL001
 370
13
   6
CONTINUOUS
  62
6
 100
AcDbCircle
  10
 4727.2050561798
  20
 4737.6123595506
  30
0.0
  40
 27.500000000000
 100
AcDbArc
  50
0.0
  51
 90.000000000000
   0
ARC
   5
276
 100
AcDbEntity
   8
LEVEL001
 370
13
   6
CONTINUOUS
  62
6
 100
AcDbCircle
  10
 4727.2050561798
  20
 4737.6123595506
  30
0.0
  40
 27.500000000000
 100
AcDbArc
  50
 270.00000000000
  51
0.0
   0
LINE
   5
277
 100
AcDbEntity
   8
LEVEL001
 370
13
 100
AcDbLine
   6
CONTINUOUS
  62
6
  10
 4727.2050561798
  20
 4710.1123595506
  30
0.0
  11
 4616.9926217330
  21
 4710.1123595506
  31
0.0
   0
ARC
   5
278
 100
AcDbEntity
   8
LEVEL001
 370
13
   6
CONTINUOUS
  62
6
 100
AcDbCircle
  10
 4616.9926217330
  20
 4700.1123595506
  30
0.0
  40
 10.000000000000
 100
AcDbArc
  50
 90.000000000010
  51
 164.17337986813
   0
ARC
   5
279
 100
AcDbEntity
   8
LEVEL001
 370
13
   6
CONTINUOUS
  62
6
 100
AcDbCircle
  10
 4484.7050561798
  20
 4737.6123595506
  30
0.0
  40
 127.50000000000
 100
AcDbArc
  50
 285.82662013187
  51
 344.17337986813
   0
ARC
   5
27A
 100
AcDbEntity
   8
LEVEL001
 370
13
   6
CONTINUOUS
  62
6
 100
AcDbCircle
  10
 4619.5950055708
  20
 4634.1488319028
  30
0.0
  40
 20.000000000000
 100
AcDbArc
  50
 52.511008572696
  51
 142.51100857270
   0
LINE
   5
27B
 100
AcDbEntity
   8
LEVEL001
 370
13
 100
AcDbLine
   6
CONTINUOUS
  62
6
  10
 4723.0162687056
  20
 4580.0282043048
  30
0.0
  11
 4631.7671852942
  21
 4650.0182377136
  31
0.0
   0
ARC
   5
27C
 100
AcDbEntity
   8
LEVEL001
 370
13
   6
CONTINUOUS
  62
6
 100
AcDbCircle
  10
 4619.5950055708
  20
 4634.1488319028
  30
0.0
  40
 20.000000000000
 100
AcDbArc
  50
 142.51100857270
  51
 232.51100857270
   0
LINE
   5
27D
 100
AcDbEntity
   8
LEVEL001
 370
13
 100
AcDbLine
   6
CONTINUOUS
  62
6
  10
 4607.4228258476
  20
 4618.2794260920
  30
0.0
  11
 4698.6719092590
  21
 4548.2893926834
  31
0.0
   0
ARC
   5
27E
 100
AcDbEntity
   8
LEVEL001
 370
13
   6
CONTINUOUS
  62
6
 100
AcDbCircle
  10
 4710.8440889822
  20
 4564.1587984942
  30
0.0
  40
 20.000000000000
 100
AcDbArc
  50
 322.51100857270
  51
 52.511008572694
   0
ARC
   5
27F
 100
AcDbEntity
   8
LEVEL001
 370
13
   6
CONTINUOUS
  62
6
 100
AcDbCircle
  10
 4710.8440889822
  20
 4564.1587984940
  30
0.0
  40
 20.000000000000
 100
AcDbArc
  50
 232.51100857270
  51
 322.51100857269
   0
ARC
   5
280
 100
AcDbEntity
   8
LEVEL001
 370
13
   6
CONTINUOUS
  62
6
 100
AcDbCircle
  10
 4484.7050561798
  20
 4570.1123595506
  30
0.0
  40
 27.500000000000
 100
AcDbArc
  50
 270.00000000000
  51
0.0
   0
LINE
   5
281
 100
AcDbEntity
   8
LEVEL001
 370
13
 100
AcDbLine
   6
CONTINUOUS
  62
6
  10
 4512.2050561798
  20
 4570.1123595506
  30
0.0
  11
 4512.2050561798
  21
 4605.3247939974
  31
0.0
   0
ARC
   5
282
 100
AcDbEntity
   8
LEVEL001
 370
13
   6
CONTINUOUS
  62
6
 100
AcDbCircle
  10
 4522.2050561798
  20
 4605.3247939974
  30
0.0
  40
 10.000000000000
 100
AcDbArc
  50
 105.82662013187
  51
 180.00000000001
   0
ARC
   5
283
 100
AcDbEntity
   8
LEVEL001
 370
13
   6
CONTINUOUS
  62
6
 100
AcDbCircle
  10
 4484.7050561798
  20
 4737.6123595506
  30
0.0
  40
 127.50000000000
 100
AcDbArc
  50
 195.82662013187
  51
 254.17337986813
   0
ARC
   5
284
 100
AcDbEntity
   8
LEVEL001
 370
13
   6
CONTINUOUS
  62
6
 100
AcDbCircle
  10
 4484.7050561798
  20
 4570.1123595506
  30
0.0
  40
 27.500000000000
 100
AcDbArc
  50
 180.00000000000
  51
 270.00000000000
   0
LINE
   5
285
 100
AcDbEntity
   8
LEVEL001
 370
13
 100
AcDbLine
   6
CONTINUOUS
  62
6
  10
 4457.2050561798
  20
 4605.3247939974
  30
0.0
  11
 4457.2050561798
  21
 4570.1123595506
  31
0.0
   0
ARC
   5
286
 100
AcDbEntity
   8
LEVEL001
 370
13
   6
CONTINUOUS
  62
6
 100
AcDbCircle
  10
 4447.2050561798
  20
 4605.3247939974
  30
0.0
  40
 10.000000000000
 100
AcDbArc
  50
 359.99999999999
  51
 74.173379868132
   0
LINE
   5
287
 100
AcDbEntity
   8
LEVEL001
 370
13
 100
AcDbLine
   6
CONTINUOUS
  62
6
  10
 4242.2050561798
  20
 4710.1123595506
  30
0.0
  11
 4352.4174906266
  21
 4710.1123595506
  31
0.0
   0
ARC
   5
288
 100
AcDbEntity
   8
LEVEL001
 370
13
   6
CONTINUOUS
  62
6
 100
AcDbCircle
  10
 4352.4174906266
  20
 4700.1123595506
  30
0.0
  40
 10.000000000000
 100
AcDbArc
  50
 15.826620131868
  51
 89.999999999990
   0
LINE
   5
289
 100
AcDbEntity
   8
LEVEL001
 370
13
 100
AcDbLine
   6
CONTINUOUS
  62
6
  10
 4352.4174906266
  20
 4765.1123595506
  30
0.0
  11
 4242.2050561798
  21
 4765.1123595506
  31
0.0
   0
ARC
   5
28A
 100
AcDbEntity
   8
LEVEL001
 370
13
   6
CONTINUOUS
  62
6
 100
AcDbCircle
  10
 4352.4174906266
  20
 4775.1123595506
  30
0.0
  40
 10.000000000000
 100
AcDbArc
  50
 270.00000000001
  51
 344.17337986813
   0
ARC
   5
28B
 100
AcDbEntity
   8
LEVEL001
 370
13
   6
CONTINUOUS
  62
6
 100
AcDbCircle
  10
 4484.7050561798
  20
 4737.6123595506
  30
0.0
  40
 127.50000000000
 100
AcDbArc
  50
 105.82662013187
  51
 164.17337986813
   0
ARC
   5
28C
 100
AcDbEntity
   8
LEVEL001
 370
13
   6
CONTINUOUS
  62
6
 100
AcDbCircle
  10
 4484.7050561798
  20
 4905.1123595506
  30
0.0
  40
 27.500000000000
 100
AcDbArc
  50
 90.000000000000
  51
 180.00000000000
   0
LINE
   5
28D
 100
AcDbEntity
   8
LEVEL001
 370
13
 100
AcDbLine
   6
CONTINUOUS
  62
6
  10
 4457.2050561798
  20
 4869.8999251038
  30
0.0
  11
 4457.2050561798
  21
 4905.1123595506
  31
0.0
   0
ARC
   5
28E
 100
AcDbEntity
   8
LEVEL001
 370
13
   6
CONTINUOUS
  62
6
 100
AcDbCircle
  10
 4447.2050561798
  20
 4869.8999251038
  30
0.0
  40
 10.000000000000
 100
AcDbArc
  50
 285.82662013187
  51
 359.99999999999
   0
ARC
   5
28F
 100
AcDbEntity
   8
LEVEL001
 370
13
   6
CONTINUOUS
  62
6
 100
AcDbCircle
  10
 4484.7050561798
  20
 4905.1123595506
  30
0.0
  40
 27.500000000000
 100
AcDbArc
  50
0.0
  51
 90.000000000000
   0
LINE
   5
290
 100
AcDbEntity
   8
LEVEL001
 370
13
 100
AcDbLine
   6
CONTINUOUS
  62
6
  10
 4512.2050561798
  20
 4905.1123595506
  30
0.0
  11
 4512.2050561798
  21
 4869.8999251038
  31
0.0
   0
ARC
   5
291
 100
AcDbEntity
   8
LEVEL001
 370
13
   6
CONTINUOUS
  62
6
 100
AcDbCircle
  10
 4522.2050561798
  20
 4869.8999251038
  30
0.0
  40
 10.000000000000
 100
AcDbArc
  50
 180.00000000001
  51
 254.17337986813
   0
ARC
   5
292
 100
AcDbEntity
   8
LEVEL001
 370
13
   6
CONTINUOUS
  62
6
 100
AcDbCircle
  10
 4616.9926217330
  20
 4775.1123595506
  30
0.0
  40
 10.000000000000
 100
AcDbArc
  50
 195.82662013187
  51
 270.00000000000
   0
ARC
   5
293
 100
AcDbEntity
   8
LEVEL001
 370
13
   6
CONTINUOUS
  62
6
 100
AcDbCircle
  10
 4484.7050561798
  20
 4737.6123595506
  30
0.0
  40
 127.50000000000
 100
AcDbArc
  50
 15.826620131871
  51
 74.173379868128
   0
ARC
   5
294
 100
AcDbEntity
   8
LEVEL001
 370
13
   6
CONTINUOUS
  62
6
 100
AcDbCircle
  10
 4349.8151067888
  20
 4841.0758871984
  30
0.0
  40
 20.000000000000
 100
AcDbArc
  50
 322.51100857269
  51
 52.511008572700
   0
LINE
   5
295
 100
AcDbEntity
   8
LEVEL001
 370
13
 100
AcDbLine
   6
CONTINUOUS
  62
6
  10
 4246.3938436540
  20
 4895.1965147964
  30
0.0
  11
 4337.6429270654
  21
 4825.2064813876
  31
0.0
   0
ARC
   5
296
 100
AcDbEntity
   8
LEVEL001
 370
13
   6
CONTINUOUS
  62
6
 100
AcDbCircle
  10
 4349.8151067888
  20
 4841.0758871984
  30
0.0
  40
 20.000000000000
 100
AcDbArc
  50
 232.51100857270
  51
 322.51100857270
   0
LINE
   5
297
 100
AcDbEntity
   8
LEVEL001
 370
13
 100
AcDbLine
   6
CONTINUOUS
  62
6
  10
 4361.9872865120
  20
 4856.9452930092
  30
0.0
  11
 4270.7382031006
  21
 4926.9353264178
  31
0.0
   0
ARC
   5
298
 100
AcDbEntity
   8
LEVEL001
 370
13
   6
CONTINUOUS
  62
6
 100
AcDbCircle
  10
 4349.8151067888
  20
 4634.1488319028
  30
0.0
  40
 20.000000000000
 100
AcDbArc
  50
 37.488991427300
  51
 127.48899142730
   0
ARC
   5
299
 100
AcDbEntity
   8
LEVEL001
 370
13
   6
CONTINUOUS
  62
6
 100
AcDbCircle
  10
 4349.8151067888
  20
 4634.1488319028
  30
0.0
  40
 20.000000000000
 100
AcDbArc
  50
 307.48899142730
  51
 37.488991427307
   0
LINE
   5
29A
 100
AcDbEntity
   8
LEVEL001
 370
13
 100
AcDbLine
   6
CONTINUOUS
  62
6
  10
 4246.3938436540
  20
 4580.0282043048
  30
0.0
  11
 4337.6429270654
  21
 4650.0182377136
  31
0.0
   0
LINE
   5
29B
 100
AcDbEntity
   8
LEVEL001
 370
13
 100
AcDbLine
   6
CONTINUOUS
  62
6
  10
 4361.9872865120
  20
 4618.2794260920
  30
0.0
  11
 4270.7382031006
  21
 4548.2893926834
  31
0.0
   0
ARC
   5
29C
 100
AcDbEntity
   8
LEVEL001
 370
13
   6
CONTINUOUS
  62
7
 100
AcDbCircle
  10
 4362.8444801102
  20
 4775.1123595506
  30
0.0
  40
 25.000000000000
 100
AcDbArc
  50
 270.00000000000
  51
 342.89536482336
   0
ARC
   5
29D
 100
AcDbEntity
   8
LEVEL001
 370
13
   6
CONTINUOUS
  62
7
 100
AcDbCircle
  10
 4362.8444801102
  20
 4700.1123595506
  30
0.0
  40
 25.000000000000
 100
AcDbArc
  50
 17.104635176643
  51
 89.999999999998
   0
ARC
   5
29E
 100
AcDbEntity
   8
LEVEL001
 370
13
   6
CONTINUOUS
  62
7
 100
AcDbCircle
  10
 4484.7050561798
  20
 4737.6123595506
  30
0.0
  40
 102.50000000000
 100
AcDbArc
  50
 197.10463517664
  51
 252.89536482336
   0
ARC
   5
29F
 100
AcDbEntity
   8
LEVEL001
 370
13
   6
CONTINUOUS
  62
7
 100
AcDbCircle
  10
 4606.5656322494
  20
 4700.1123595506
  30
0.0
  40
 25.000000000000
 100
AcDbArc
  50
 90.000000000000
  51
 162.89536482336
   0
ARC
   5
2A0
 100
AcDbEntity
   8
LEVEL001
 370
13
   6
CONTINUOUS
  62
7
 100
AcDbCircle
  10
 4484.7050561798
  20
 4737.6123595506
  30
0.0
  40
 102.50000000000
 100
AcDbArc
  50
 287.10463517664
  51
 342.89536482336
   0
ARC
   5
2A1
 100
AcDbEntity
   8
LEVEL001
 370
13
   6
CONTINUOUS
  62
7
 100
AcDbCircle
  10
 4606.5656322494
  20
 4775.1123595506
  30
0.0
  40
 25.000000000000
 100
AcDbArc
  50
 197.10463517664
  51
 270.00000000000
   0
ARC
   5
2A2
 100
AcDbEntity
   8
LEVEL001
 370
13
   6
CONTINUOUS
  62
7
 100
AcDbCircle
  10
 4522.2050561798
  20
 4859.4729356202
  30
0.0
  40
 25.000000000000
 100
AcDbArc
  50
 180.00000000000
  51
 252.89536482336
   0
ARC
   5
2A3
 100
AcDbEntity
   8
LEVEL001
 370
13
   6
CONTINUOUS
  62
7
 100
AcDbCircle
  10
 4484.7050561798
  20
 4737.6123595506
  30
0.0
  40
 102.50000000000
 100
AcDbArc
  50
 17.104635176644
  51
 72.895364823356
   0
ARC
   5
2A4
 100
AcDbEntity
   8
LEVEL001
 370
13
   6
CONTINUOUS
  62
7
 100
AcDbCircle
  10
 4447.2050561798
  20
 4859.4729356202
  30
0.0
  40
 25.000000000000
 100
AcDbArc
  50
 287.10463517664
  51
 0.41688166320879E-11
   0
ARC
   5
2A5
 100
AcDbEntity
   8
LEVEL001
 370
13
   6
CONTINUOUS
  62
7
 100
AcDbCircle
  10
 4484.7050561798
  20
 4737.6123595506
  30
0.0
  40
 102.50000000000
 100
AcDbArc
  50
 107.10463517664
  51
 162.89536482336
   0
LINE
   5
2A6
 100
AcDbEntity
   8
LEVEL001
 370
13
 100
AcDbLine
   6
CONTINUOUS
  62
7
  10
 4362.8444801102
  20
 4750.1123595506
  30
0.0
  11
 4244.7050561798
  21
 4750.1123595506
  31
0.0
   0
LINE
   5
2A7
 100
AcDbEntity
   8
LEVEL001
 370
13
 100
AcDbLine
   6
CONTINUOUS
  62
7
  10
 4244.7050561798
  20
 4725.1123595506
  30
0.0
  11
 4362.8444801102
  21
 4725.1123595506
  31
0.0
   0
LINE
   5
2A8
 100
AcDbEntity
   8
LEVEL001
 370
13
 100
AcDbLine
   6
CONTINUOUS
  62
7
  10
 4472.2050561798
  20
 4859.4729356202
  30
0.0
  11
 4472.2050561798
  21
 4902.6123595506
  31
0.0
   0
ARC
   5
2A9
 100
AcDbEntity
   8
LEVEL001
 370
13
   6
CONTINUOUS
  62
7
 100
AcDbCircle
  10
 4484.7050561798
  20
 4902.6123595506
  30
0.0
  40
 12.500000000000
 100
AcDbArc
  50
 90.000000000000
  51
 180.00000000000
   0
LINE
   5
2AA
 100
AcDbEntity
   8
LEVEL001
 370
13
 100
AcDbLine
   6
CONTINUOUS
  62
7
  10
 4497.2050561798
  20
 4902.6123595506
  30
0.0
  11
 4497.2050561798
  21
 4859.4729356202
  31
0.0
   0
ARC
   5
2AB
 100
AcDbEntity
   8
LEVEL001
 370
13
   6
CONTINUOUS
  62
7
 100
AcDbCircle
  10
 4484.7050561798
  20
 4902.6123595506
  30
0.0
  40
 12.500000000000
 100
AcDbArc
  50
0.0
  51
 90.000000000000
   0
LINE
   5
2AC
 100
AcDbEntity
   8
LEVEL001
 370
13
 100
AcDbLine
   6
CONTINUOUS
  62
7
  10
 4606.5656322494
  20
 4750.1123595506
  30
0.0
  11
 4724.7050561798
  21
 4750.1123595506
  31
0.0
   0
LINE
   5
2AD
 100
AcDbEntity
   8
LEVEL001
 370
13
 100
AcDbLine
   6
CONTINUOUS
  62
7
  10
 4724.7050561798
  20
 4725.1123595506
  30
0.0
  11
 4606.5656322494
  21
 4725.1123595506
  31
0.0
   0
ARC
   5
2AE
 100
AcDbEntity
   8
LEVEL001
 370
13
   6
CONTINUOUS
  62
7
 100
AcDbCircle
  10
 4621.5786812972
  20
 4842.5974096640
  30
0.0
  40
 7.4999999999998
 100
AcDbArc
  50
 127.48899142730
  51
 217.48899142731
   0
ARC
   5
2AF
 100
AcDbEntity
   8
LEVEL001
 370
13
   6
CONTINUOUS
  62
7
 100
AcDbCircle
  10
 4621.5786812974
  20
 4842.5974096640
  30
0.0
  40
 7.4999999999998
 100
AcDbArc
  50
 217.48899142729
  51
 307.48899142729
   0
LINE
   5
2B0
 100
AcDbEntity
   8
LEVEL001
 370
13
 100
AcDbLine
   6
CONTINUOUS
  62
7
  10
 4343.2668636660
  20
 4836.6463824850
  30
0.0
  11
 4255.9851317072
  21
 4903.5933709628
  31
0.0
   0
LINE
   5
2B1
 100
AcDbEntity
   8
LEVEL001
 370
13
 100
AcDbLine
   6
CONTINUOUS
  62
7
  10
 4265.1142664998
  20
 4915.4954253208
  30
0.0
  11
 4352.3959984586
  21
 4848.5484368430
  31
0.0
   0
ARC
   5
2B2
 100
AcDbEntity
   8
LEVEL001
 370
13
   6
CONTINUOUS
  62
7
 100
AcDbCircle
  10
 4347.8314310624
  20
 4842.5974096640
  30
0.0
  40
 7.4999999999998
 100
AcDbArc
  50
 322.51100857269
  51
 52.511008572703
   0
ARC
   5
2B3
 100
AcDbEntity
   8
LEVEL001
 370
13
   6
CONTINUOUS
  62
7
 100
AcDbCircle
  10
 4347.8314310622
  20
 4842.5974096640
  30
0.0
  40
 7.4999999999998
 100
AcDbArc
  50
 232.51100857271
  51
 322.51100857271
   0
ARC
   5
2B4
 100
AcDbEntity
   8
LEVEL001
 370
13
   6
CONTINUOUS
  62
7
 100
AcDbCircle
  10
 4724.7050561798
  20
 4737.6123595506
  30
0.0
  40
 12.500000000000
 100
AcDbArc
  50
0.0
  51
 90.000000000000
   0
ARC
   5
2B5
 100
AcDbEntity
   8
LEVEL001
 370
13
   6
CONTINUOUS
  62
7
 100
AcDbCircle
  10
 4724.7050561798
  20
 4737.6123595506
  30
0.0
  40
 12.500000000000
 100
AcDbArc
  50
 270.00000000000
  51
0.0
   0
LINE
   5
2B6
 100
AcDbEntity
   8
LEVEL001
 370
13
 100
AcDbLine
   6
CONTINUOUS
  62
7
  10
 4626.1432486936
  20
 4836.6463824850
  30
0.0
  11
 4713.4249806524
  21
 4903.5933709628
  31
0.0
   0
ARC
   5
2B7
 100
AcDbEntity
   8
LEVEL001
 370
13
   6
CONTINUOUS
  62
7
 100
AcDbCircle
  10
 4708.8604132562
  20
 4909.5443981418
  30
0.0
  40
 7.4999999999998
 100
AcDbArc
  50
 307.48899142729
  51
 37.488991427287
   0
LINE
   5
2B8
 100
AcDbEntity
   8
LEVEL001
 370
13
 100
AcDbLine
   6
CONTINUOUS
  62
7
  10
 4704.2958458598
  20
 4915.4954253208
  30
0.0
  11
 4617.0141139010
  21
 4848.5484368430
  31
0.0
   0
ARC
   5
2B9
 100
AcDbEntity
   8
LEVEL001
 370
13
   6
CONTINUOUS
  62
7
 100
AcDbCircle
  10
 4708.8604132560
  20
 4909.5443981418
  30
0.0
  40
 7.4999999999998
 100
AcDbArc
  50
 37.488991427297
  51
 127.48899142730
   0
ARC
   5
2BA
 100
AcDbEntity
   8
LEVEL001
 370
13
   6
CONTINUOUS
  62
7
 100
AcDbCircle
  10
 4447.2050561798
  20
 4615.7517834810
  30
0.0
  40
 25.000000000000
 100
AcDbArc
  50
 0.41688166320879E-11
  51
 72.895364823357
   0
ARC
   5
2BB
 100
AcDbEntity
   8
LEVEL001
 370
13
   6
CONTINUOUS
  62
7
 100
AcDbCircle
  10
 4522.2050561798
  20
 4615.7517834810
  30
0.0
  40
 25.000000000000
 100
AcDbArc
  50
 107.10463517664
  51
 180.00000000000
   0
LINE
   5
2BC
 100
AcDbEntity
   8
LEVEL001
 370
13
 100
AcDbLine
   6
CONTINUOUS
  62
7
  10
 4497.2050561798
  20
 4572.6123595506
  30
0.0
  11
 4497.2050561798
  21
 4615.7517834810
  31
0.0
   0
ARC
   5
2BD
 100
AcDbEntity
   8
LEVEL001
 370
13
   6
CONTINUOUS
  62
7
 100
AcDbCircle
  10
 4484.7050561798
  20
 4572.6123595506
  30
0.0
  40
 12.500000000000
 100
AcDbArc
  50
 270.00000000000
  51
0.0
   0
LINE
   5
2BE
 100
AcDbEntity
   8
LEVEL001
 370
13
 100
AcDbLine
   6
CONTINUOUS
  62
7
  10
 4472.2050561798
  20
 4615.7517834810
  30
0.0
  11
 4472.2050561798
  21
 4572.6123595506
  31
0.0
   0
ARC
   5
2BF
 100
AcDbEntity
   8
LEVEL001
 370
13
   6
CONTINUOUS
  62
7
 100
AcDbCircle
  10
 4484.7050561798
  20
 4572.6123595506
  30
0.0
  40
 12.500000000000
 100
AcDbArc
  50
 180.00000000000
  51
 270.00000000000
   0
LINE
   5
2C0
 100
AcDbEntity
   8
LEVEL001
 370
13
 100
AcDbLine
   6
CONTINUOUS
  62
7
  10
 4343.2668636660
  20
 4638.5783366162
  30
0.0
  11
 4255.9851317072
  21
 4571.6313481384
  31
0.0
   0
LINE
   5
2C1
 100
AcDbEntity
   8
LEVEL001
 370
13
 100
AcDbLine
   6
CONTINUOUS
  62
7
  10
 4265.1142664998
  20
 4559.7292937804
  30
0.0
  11
 4352.3959984586
  21
 4626.6762822582
  31
0.0
   0
ARC
   5
2C2
 100
AcDbEntity
   8
LEVEL001
 370
13
   6
CONTINUOUS
  62
7
 100
AcDbCircle
  10
 4347.8314310624
  20
 4632.6273094372
  30
0.0
  40
 7.4999999999998
 100
AcDbArc
  50
 307.48899142731
  51
 37.488991427302
   0
ARC
   5
2C3
 100
AcDbEntity
   8
LEVEL001
 370
13
   6
CONTINUOUS
  62
7
 100
AcDbCircle
  10
 4347.8314310622
  20
 4632.6273094372
  30
0.0
  40
 7.4999999999998
 100
AcDbArc
  50
 37.488991427297
  51
 127.48899142730
   0
LINE
   5
2C4
 100
AcDbEntity
   8
LEVEL001
 370
13
 100
AcDbLine
   6
CONTINUOUS
  62
7
  10
 4626.1432486936
  20
 4638.5783366162
  30
0.0
  11
 4713.4249806524
  21
 4571.6313481384
  31
0.0
   0
ARC
   5
2C5
 100
AcDbEntity
   8
LEVEL001
 370
13
   6
CONTINUOUS
  62
7
 100
AcDbCircle
  10
 4708.8604132562
  20
 4565.6803209594
  30
0.0
  40
 7.4999999999998
 100
AcDbArc
  50
 322.51100857271
  51
 52.511008572708
   0
LINE
   5
2C6
 100
AcDbEntity
   8
LEVEL001
 370
13
 100
AcDbLine
   6
CONTINUOUS
  62
7
  10
 4704.2958458598
  20
 4559.7292937804
  30
0.0
  11
 4617.0141139010
  21
 4626.6762822582
  31
0.0
   0
ARC
   5
2C7
 100
AcDbEntity
   8
LEVEL001
 370
13
   6
CONTINUOUS
  62
7
 100
AcDbCircle
  10
 4708.8604132560
  20
 4565.6803209594
  30
0.0
  40
 7.4999999999998
 100
AcDbArc
  50
 232.51100857270
  51
 322.51100857270
   0
ARC
   5
2C8
 100
AcDbEntity
   8
LEVEL001
 370
13
   6
CONTINUOUS
  62
7
 100
AcDbCircle
  10
 4621.5786812974
  20
 4632.6273094372
  30
0.0
  40
 7.4999999999998
 100
AcDbArc
  50
 142.51100857271
  51
 232.51100857268
   0
ARC
   5
2C9
 100
AcDbEntity
   8
LEVEL001
 370
13
   6
CONTINUOUS
  62
7
 100
AcDbCircle
  10
 4621.5786812974
  20
 4632.6273094372
  30
0.0
  40
 7.4999999999998
 100
AcDbArc
  50
 52.511008572703
  51
 142.51100857270
   0
ARC
   5
2CA
 100
AcDbEntity
   8
LEVEL001
 370
13
   6
CONTINUOUS
  62
7
 100
AcDbCircle
  10
 4717.2050561798
  20
 4895.1123595506
  30
0.0
  40
 65.000000000000
 100
AcDbArc
  50
0.0
  51
 90.000000000000
   0
LINE
   5
2CB
 100
AcDbEntity
   8
LEVEL001
 370
13
 100
AcDbLine
   6
CONTINUOUS
  62
7
  10
 4782.2050561798
  20
 4580.1123595506
  30
0.0
  11
 4782.2050561798
  21
 4895.1123595506
  31
0.0
   0
ARC
   5
2CC
 100
AcDbEntity
   8
LEVEL001
 370
13
   6
CONTINUOUS
  62
7
 100
AcDbCircle
  10
 4717.2050561798
  20
 4580.1123595506
  30
0.0
  40
 65.000000000000
 100
AcDbArc
  50
 270.00000000000
  51
0.0
   0
ARC
   5
2CD
 100
AcDbEntity
   8
LEVEL001
 370
13
   6
CONTINUOUS
  62
7
 100
AcDbCircle
  10
 4717.2050561798
  20
 4895.1123595506
  30
0.0
  40
 90.900000000000
 100
AcDbArc
  50
0.0
  51
 90.000000000001
   0
ARC
   5
2CE
 100
AcDbEntity
   8
LEVEL001
 370
13
   6
CONTINUOUS
  62
7
 100
AcDbCircle
  10
 4717.2050561798
  20
 4895.1123595506
  30
0.0
  40
 75.000000000000
 100
AcDbArc
  50
0.0
  51
 90.000000000000
   0
LINE
   5
2CF
 100
AcDbEntity
   8
LEVEL001
 370
13
 100
AcDbLine
   6
CONTINUOUS
  62
7
  10
 4808.1050561798
  20
 4580.1123595506
  30
0.0
  11
 4808.1050561798
  21
 4895.1123595506
  31
0.0
   0
LINE
   5
2D0
 100
AcDbEntity
   8
LEVEL001
 370
13
 100
AcDbLine
   6
CONTINUOUS
  62
7
  10
 4792.2050561798
  20
 4895.1123595506
  30
0.0
  11
 4792.2050561798
  21
 4580.1123595506
  31
0.0
   0
ARC
   5
2D1
 100
AcDbEntity
   8
LEVEL001
 370
13
   6
CONTINUOUS
  62
7
 100
AcDbCircle
  10
 4717.2050561798
  20
 4580.1123595506
  30
0.0
  40
 90.900000000000
 100
AcDbArc
  50
 270.00000000000
  51
 0.11465392277469E-11
   0
ARC
   5
2D2
 100
AcDbEntity
   8
LEVEL001
 370
13
   6
CONTINUOUS
  62
7
 100
AcDbCircle
  10
 4717.2050561798
  20
 4580.1123595506
  30
0.0
  40
 75.000000000000
 100
AcDbArc
  50
 270.00000000000
  51
0.0
   0
LINE
   5
2D3
 100
AcDbEntity
   8
LEVEL001
 370
13
 100
AcDbLine
   6
CONTINUOUS
  62
7
  10
 4252.2050561798
  20
 4515.1123595506
  30
0.0
  11
 4717.2050561798
  21
 4515.1123595506
  31
0.0
   0
LINE
   5
2D4
 100
AcDbEntity
   8
LEVEL001
 370
13
 100
AcDbLine
   6
CONTINUOUS
  62
7
  10
 4252.2050561798
  20
 4489.2123595506
  30
0.0
  11
 4717.2050561798
  21
 4489.2123595506
  31
0.0
   0
LINE
   5
2D5
 100
AcDbEntity
   8
LEVEL001
 370
13
 100
AcDbLine
   6
CONTINUOUS
  62
7
  10
 4252.2050561798
  20
 4505.1123595506
  30
0.0
  11
 4717.2050561798
  21
 4505.1123595506
  31
0.0
   0
LINE
   5
2D6
 100
AcDbEntity
   8
LEVEL001
 370
13
 100
AcDbLine
   6
CONTINUOUS
  62
7
  10
 4717.2050561798
  20
 4960.1123595506
  30
0.0
  11
 4252.2050561798
  21
 4960.1123595506
  31
0.0
   0
LINE
   5
2D7
 100
AcDbEntity
   8
LEVEL001
 370
13
 100
AcDbLine
   6
CONTINUOUS
  62
7
  10
 4717.2050561798
  20
 4986.0123595506
  30
0.0
  11
 4252.2050561798
  21
 4986.0123595506
  31
0.0
   0
LINE
   5
2D8
 100
AcDbEntity
   8
LEVEL001
 370
13
 100
AcDbLine
   6
CONTINUOUS
  62
7
  10
 4717.2050561798
  20
 4970.1123595506
  30
0.0
  11
 4252.2050561798
  21
 4970.1123595506
  31
0.0
   0
LINE
   5
2D9
 100
AcDbEntity
   8
LEVEL001
 370
13
 100
AcDbLine
   6
DASHDOT
  62
6
  10
 4134.7050561798
  20
 4737.6123595506
  30
0.0
  11
 4834.7050561798
  21
 4737.6123595506
  31
0.0
   0
LINE
   5
2DA
 100
AcDbEntity
   8
LEVEL001
 370
13
 100
AcDbLine
   6
DASHDOT
  62
6
  10
 4484.7050561798
  20
 5012.6123595506
  30
0.0
  11
 4484.7050561798
  21
 4462.6123595506
  31
0.0
   0
ARC
   5
2DB
 100
AcDbEntity
   8
LEVEL001
 370
13
   6
CONTINUOUS
  62
6
 100
AcDbCircle
  10
 4242.2050561798
  20
 4737.6123595506
  30
0.0
  40
 27.500000000000
 100
AcDbArc
  50
 180.00000000000
  51
 270.00000000000
   0
ARC
   5
2DC
 100
AcDbEntity
   8
LEVEL001
 370
13
   6
CONTINUOUS
  62
6
 100
AcDbCircle
  10
 4242.2050561798
  20
 4737.6123595506
  30
0.0
  40
 27.500000000000
 100
AcDbArc
  50
 90.000000000000
  51
 180.00000000000
   0
ARC
   5
2DD
 100
AcDbEntity
   8
LEVEL001
 370
13
   6
CONTINUOUS
  62
6
 100
AcDbCircle
  10
 4258.5660233774
  20
 4911.0659206072
  30
0.0
  40
 20.000000000000
 100
AcDbArc
  50
 52.511008572694
  51
 142.51100857270
   0
ARC
   5
2DE
 100
AcDbEntity
   8
LEVEL001
 370
13
   6
CONTINUOUS
  62
6
 100
AcDbCircle
  10
 4258.5660233774
  20
 4911.0659206070
  30
0.0
  40
 20.000000000000
 100
AcDbArc
  50
 142.51100857270
  51
 232.51100857270
   0
ARC
   5
2DF
 100
AcDbEntity
   8
LEVEL001
 370
13
   6
CONTINUOUS
  62
6
 100
AcDbCircle
  10
 4258.5660233774
  20
 4564.1587984940
  30
0.0
  40
 20.000000000000
 100
AcDbArc
  50
 217.48899142730
  51
 307.48899142731
   0
ARC
   5
2E0
 100
AcDbEntity
   8
LEVEL001
 370
13
   6
CONTINUOUS
  62
6
 100
AcDbCircle
  10
 4258.5660233774
  20
 4564.1587984942
  30
0.0
  40
 20.000000000000
 100
AcDbArc
  50
 127.48899142730
  51
 217.48899142730
   0
ARC
   5
2E1
 100
AcDbEntity
   8
LEVEL001
 370
13
   6
CONTINUOUS
  62
7
 100
AcDbCircle
  10
 4244.7050561798
  20
 4737.6123595506
  30
0.0
  40
 12.500000000000
 100
AcDbArc
  50
 90.000000000000
  51
 180.00000000000
   0
ARC
   5
2E2
 100
AcDbEntity
   8
LEVEL001
 370
13
   6
CONTINUOUS
  62
7
 100
AcDbCircle
  10
 4244.7050561798
  20
 4737.6123595506
  30
0.0
  40
 12.500000000000
 100
AcDbArc
  50
 180.00000000000
  51
 270.00000000000
   0
ARC
   5
2E3
 100
AcDbEntity
   8
LEVEL001
 370
13
   6
CONTINUOUS
  62
7
 100
AcDbCircle
  10
 4260.5496991034
  20
 4909.5443981418
  30
0.0
  40
 7.4999999999998
 100
AcDbArc
  50
 142.51100857269
  51
 232.51100857270
   0
ARC
   5
2E4
 100
AcDbEntity
   8
LEVEL001
 370
13
   6
CONTINUOUS
  62
7
 100
AcDbCircle
  10
 4260.5496991036
  20
 4909.5443981418
  30
0.0
  40
 7.4999999999998
 100
AcDbArc
  50
 52.511008572723
  51
 142.51100857269
   0
ARC
   5
2E5
 100
AcDbEntity
   8
LEVEL001
 370
13
   6
CONTINUOUS
  62
7
 100
AcDbCircle
  10
 4260.5496991034
  20
 4565.6803209594
  30
0.0
  40
 7.4999999999998
 100
AcDbArc
  50
 127.48899142731
  51
 217.48899142730
   0
ARC
   5
2E6
 100
AcDbEntity
   8
LEVEL001
 370
13
   6
CONTINUOUS
  62
7
 100
AcDbCircle
  10
 4260.5496991036
  20
 4565.6803209594
  30
0.0
  40
 7.4999999999998
 100
AcDbArc
  50
 217.48899142732
  51
 307.48899142729
   0
ARC
   5
2E7
 100
AcDbEntity
   8
LEVEL001
 370
13
   6
CONTINUOUS
  62
7
 100
AcDbCircle
  10
 4252.2050561798
  20
 4580.1123595506
  30
0.0
  40
 65.000000000000
 100
AcDbArc
  50
 180.00000000000
  51
 270.00000000000
   0
ARC
   5
2E8
 100
AcDbEntity
   8
LEVEL001
 370
13
   6
CONTINUOUS
  62
7
 100
AcDbCircle
  10
 4252.2050561798
  20
 4580.1123595506
  30
0.0
  40
 90.900000000000
 100
AcDbArc
  50
 180.00000000000
  51
 270.00000000000
   0
ARC
   5
2E9
 100
AcDbEntity
   8
LEVEL001
 370
13
   6
CONTINUOUS
  62
7
 100
AcDbCircle
  10
 4252.2050561798
  20
 4580.1123595506
  30
0.0
  40
 75.000000000000
 100
AcDbArc
  50
 180.00000000000
  51
 270.00000000000
   0
ARC
   5
2EA
 100
AcDbEntity
   8
LEVEL001
 370
13
   6
CONTINUOUS
  62
7
 100
AcDbCircle
  10
 4252.2050561798
  20
 4895.1123595506
  30
0.0
  40
 65.000000000000
 100
AcDbArc
  50
 90.000000000000
  51
 180.00000000000
   0
LINE
   5
2EB
 100
AcDbEntity
   8
LEVEL001
 370
13
 100
AcDbLine
   6
CONTINUOUS
  62
7
  10
 4187.2050561798
  20
 4895.1123595506
  30
0.0
  11
 4187.2050561798
  21
 4580.1123595506
  31
0.0
   0
ARC
   5
2EC
 100
AcDbEntity
   8
LEVEL001
 370
13
   6
CONTINUOUS
  62
7
 100
AcDbCircle
  10
 4252.2050561798
  20
 4895.1123595506
  30
0.0
  40
 90.900000000000
 100
AcDbArc
  50
 90.000000000000
  51
 180.00000000000
   0
ARC
   5
2ED
 100
AcDbEntity
   8
LEVEL001
 370
13
   6
CONTINUOUS
  62
7
 100
AcDbCircle
  10
 4252.2050561798
  20
 4895.1123595506
  30
0.0
  40
 75.000000000000
 100
AcDbArc
  50
 90.000000000000
  51
 180.00000000000
   0
LINE
   5
2EE
 100
AcDbEntity
   8
LEVEL001
 370
13
 100
AcDbLine
   6
CONTINUOUS
  62
7
  10
 4161.3050561798
  20
 4895.1123595506
  30
0.0
  11
 4161.3050561798
  21
 4580.1123595506
  31
0.0
   0
LINE
   5
2EF
 100
AcDbEntity
   8
LEVEL001
 370
13
 100
AcDbLine
   6
CONTINUOUS
  62
7
  10
 4177.2050561798
  20
 4895.1123595506
  30
0.0
  11
 4177.2050561798
  21
 4580.1123595506
  31
0.0
   0
LINE
   5
2F0
 100
AcDbEntity
   8
LEVEL001
 370
13
 100
AcDbLine
   6
DASHDOT
  62
6
  10
 1109.7050561798
  20
 4737.6123595506
  30
0.0
  11
 1859.7050561798
  21
 4737.6123595506
  31
0.0
   0
LINE
   5
2F1
 100
AcDbEntity
   8
LEVEL001
 370
13
 100
AcDbLine
   6
CONTINUOUS
  62
7
  10
 1717.2050561798
  20
 4965.1123595506
  30
0.0
  11
 1252.2050561798
  21
 4965.1123595506
  31
0.0
   0
LINE
   5
2F2
 100
AcDbEntity
   8
LEVEL001
 370
13
 100
AcDbLine
   6
CONTINUOUS
  62
3
  10
 1717.2050561798
  20
 4970.1123595506
  30
0.0
  11
 1252.2050561798
  21
 4970.1123595506
  31
0.0
   0
LINE
   5
2F3
 100
AcDbEntity
   8
LEVEL001
 370
13
 100
AcDbLine
   6
CONTINUOUS
  62
3
  10
 1717.2050561798
  20
 4986.0123595506
  30
0.0
  11
 1252.2050561798
  21
 4986.0123595506
  31
0.0
   0
LINE
   5
2F4
 100
AcDbEntity
   8
LEVEL001
 370
13
 100
AcDbLine
   6
CONTINUOUS
  62
1
  10
 1717.2050561798
  20
 4966.0123595506
  30
0.0
  11
 1252.2050561798
  21
 4966.0123595506
  31
0.0
   0
ARC
   5
2F5
 100
AcDbEntity
   8
LEVEL001
 370
13
   6
CONTINUOUS
  62
1
 100
AcDbCircle
  10
 1252.2050561798
  20
 4895.1123595506
  30
0.0
  40
 70.900000000000
 100
AcDbArc
  50
 90.000000000000
  51
 180.00000000000
   0
ARC
   5
2F6
 100
AcDbEntity
   8
LEVEL001
 370
13
   6
CONTINUOUS
  62
1
 100
AcDbCircle
  10
 1717.2050561798
  20
 4895.1123595506
  30
0.0
  40
 70.900000000000
 100
AcDbArc
  50
0.0
  51
 89.999999999999
   0
LINE
   5
2F7
 100
AcDbEntity
   8
LEVEL001
 370
13
 100
AcDbLine
   6
CONTINUOUS
  62
1
  10
 1788.1050561798
  20
 4796.0123595506
  30
0.0
  11
 1788.1050561798
  21
 4895.1123595506
  31
0.0
   0
LINE
   5
2F8
 100
AcDbEntity
   8
LEVEL001
 370
13
 100
AcDbLine
   6
CONTINUOUS
  62
1
  10
 1181.3050561798
  20
 4895.1123595506
  30
0.0
  11
 1181.3050561798
  21
 4796.0123595506
  31
0.0
   0
LINE
   5
2F9
 100
AcDbEntity
   8
LEVEL001
 370
13
 100
AcDbLine
   6
CONTINUOUS
  62
1
  10
 1182.2050561798
  20
 4796.0123595506
  30
0.0
  11
 1181.3050561798
  21
 4796.0123595506
  31
0.0
   0
LINE
   5
2FA
 100
AcDbEntity
   8
LEVEL001
 370
13
 100
AcDbLine
   6
CONTINUOUS
  62
1
  10
 1787.2050561798
  20
 4796.0123595506
  30
0.0
  11
 1788.1050561798
  21
 4796.0123595506
  31
0.0
   0
LINE
   5
2FB
 100
AcDbEntity
   8
LEVEL001
 370
13
 100
AcDbLine
   6
CONTINUOUS
  62
7
  10
 1252.2050561798
  20
 4510.1123595506
  30
0.0
  11
 1717.2050561798
  21
 4510.1123595506
  31
0.0
   0
LINE
   5
2FC
 100
AcDbEntity
   8
LEVEL001
 370
13
 100
AcDbLine
   6
CONTINUOUS
  62
3
  10
 1252.2050561798
  20
 4505.1123595506
  30
0.0
  11
 1717.2050561798
  21
 4505.1123595506
  31
0.0
   0
LINE
   5
2FD
 100
AcDbEntity
   8
LEVEL001
 370
13
 100
AcDbLine
   6
CONTINUOUS
  62
3
  10
 1252.2050561798
  20
 4489.2123595506
  30
0.0
  11
 1717.2050561798
  21
 4489.2123595506
  31
0.0
   0
ARC
   5
2FE
 100
AcDbEntity
   8
LEVEL001
 370
13
   6
CONTINUOUS
  62
7
 100
AcDbCircle
  10
 1717.2050561798
  20
 4580.1123595506
  30
0.0
  40
 70.000000000000
 100
AcDbArc
  50
 270.00000000000
  51
0.0
   0
ARC
   5
2FF
 100
AcDbEntity
   8
LEVEL001
 370
13
   6
CONTINUOUS
  62
3
 100
AcDbCircle
  10
 1717.2050561798
  20
 4580.1123595506
  30
0.0
  40
 75.000000000000
 100
AcDbArc
  50
 270.00000000000
  51
0.0
   0
ARC
   5
300
 100
AcDbEntity
   8
LEVEL001
 370
13
   6
CONTINUOUS
  62
3
 100
AcDbCircle
  10
 1717.2050561798
  20
 4580.1123595506
  30
0.0
  40
 90.900000000000
 100
AcDbArc
  50
 270.00000000000
  51
 0.11465392277469E-11
   0
ARC
   5
301
 100
AcDbEntity
   8
LEVEL001
 370
13
   6
CONTINUOUS
  62
7
 100
AcDbCircle
  10
 1717.2050561798
  20
 4895.1123595506
  30
0.0
  40
 70.000000000000
 100
AcDbArc
  50
0.0
  51
 90.000000000000
   0
ARC
   5
302
 100
AcDbEntity
   8
LEVEL001
 370
13
   6
CONTINUOUS
  62
3
 100
AcDbCircle
  10
 1717.2050561798
  20
 4895.1123595506
  30
0.0
  40
 75.000000000000
 100
AcDbArc
  50
0.0
  51
 90.000000000000
   0
ARC
   5
303
 100
AcDbEntity
   8
LEVEL001
 370
13
   6
CONTINUOUS
  62
3
 100
AcDbCircle
  10
 1717.2050561798
  20
 4895.1123595506
  30
0.0
  40
 90.900000000000
 100
AcDbArc
  50
0.0
  51
 89.999999999999
   0
LINE
   5
304
 100
AcDbEntity
   8
LEVEL001
 370
13
 100
AcDbLine
   6
CONTINUOUS
  62
7
  10
 1787.2050561798
  20
 4580.1123595506
  30
0.0
  11
 1787.2050561798
  21
 4895.1123595506
  31
0.0
   0
LINE
   5
305
 100
AcDbEntity
   8
LEVEL001
 370
13
 100
AcDbLine
   6
CONTINUOUS
  62
3
  10
 1792.2050561798
  20
 4580.1123595506
  30
0.0
  11
 1792.2050561798
  21
 4895.1123595506
  31
0.0
   0
LINE
   5
306
 100
AcDbEntity
   8
LEVEL001
 370
13
 100
AcDbLine
   6
CONTINUOUS
  62
3
  10
 1808.1050561798
  20
 4580.1123595506
  30
0.0
  11
 1808.1050561798
  21
 4895.1123595506
  31
0.0
   0
ARC
   5
307
 100
AcDbEntity
   8
LEVEL001
 370
13
   6
CONTINUOUS
  62
7
 100
AcDbCircle
  10
 1252.2050561798
  20
 4895.1123595506
  30
0.0
  40
 70.000000000000
 100
AcDbArc
  50
 90.000000000000
  51
 180.00000000000
   0
ARC
   5
308
 100
AcDbEntity
   8
LEVEL001
 370
13
   6
CONTINUOUS
  62
3
 100
AcDbCircle
  10
 1252.2050561798
  20
 4895.1123595506
  30
0.0
  40
 75.000000000000
 100
AcDbArc
  50
 90.000000000000
  51
 180.00000000000
   0
ARC
   5
309
 100
AcDbEntity
   8
LEVEL001
 370
13
   6
CONTINUOUS
  62
3
 100
AcDbCircle
  10
 1252.2050561798
  20
 4895.1123595506
  30
0.0
  40
 90.900000000000
 100
AcDbArc
  50
 90.000000000000
  51
 180.00000000000
   0
LINE
   5
30A
 100
AcDbEntity
   8
LEVEL001
 370
13
 100
AcDbLine
   6
CONTINUOUS
  62
7
  10
 1182.2050561798
  20
 4895.1123595506
  30
0.0
  11
 1182.2050561798
  21
 4580.1123595506
  31
0.0
   0
LINE
   5
30B
 100
AcDbEntity
   8
LEVEL001
 370
13
 100
AcDbLine
   6
CONTINUOUS
  62
3
  10
 1177.2050561798
  20
 4895.1123595506
  30
0.0
  11
 1177.2050561798
  21
 4580.1123595506
  31
0.0
   0
LINE
   5
30C
 100
AcDbEntity
   8
LEVEL001
 370
13
 100
AcDbLine
   6
CONTINUOUS
  62
3
  10
 1161.3050561798
  20
 4895.1123595506
  30
0.0
  11
 1161.3050561798
  21
 4580.1123595506
  31
0.0
   0
ARC
   5
30D
 100
AcDbEntity
   8
LEVEL001
 370
13
   6
CONTINUOUS
  62
7
 100
AcDbCircle
  10
 1252.2050561798
  20
 4580.1123595506
  30
0.0
  40
 70.000000000000
 100
AcDbArc
  50
 180.00000000000
  51
 270.00000000000
   0
ARC
   5
30E
 100
AcDbEntity
   8
LEVEL001
 370
13
   6
CONTINUOUS
  62
3
 100
AcDbCircle
  10
 1252.2050561798
  20
 4580.1123595506
  30
0.0
  40
 75.000000000000
 100
AcDbArc
  50
 180.00000000000
  51
 270.00000000000
   0
ARC
   5
30F
 100
AcDbEntity
   8
LEVEL001
 370
13
   6
CONTINUOUS
  62
3
 100
AcDbCircle
  10
 1252.2050561798
  20
 4580.1123595506
  30
0.0
  40
 90.900000000000
 100
AcDbArc
  50
 180.00000000000
  51
 270.00000000000
   0
MTEXT
   5
310
 100
AcDbEntity
   8
LEVEL001
 370
13
  62
1
 100
AcDbMText
  10
 6764.7050561798
  20
 2557.6123595506
  30
0.0
  40
 51.428571428572
  41
0.0
  71
4
  72
1
   1
\T1.000000;ＳＵＳ４３０
   7
GMM001
  44
 0.79999984000003
   0
MTEXT
   5
311
 100
AcDbEntity
   8
LEVEL001
 370
13
  62
1
 100
AcDbMText
  10
 5544.7050561798
  20
 3257.6123595506
  30
0.0
  40
 57.142857142858
  41
0.0
  71
4
  72
1
   1
\T1.000000;ステンレスミラー　＜Ｚタイプ＞
   7
GMM001
  44
 0.79999984000003
   0
MTEXT
   5
312
 100
AcDbEntity
   8
LEVEL001
 370
13
  62
1
 100
AcDbMText
  10
 6764.7050561798
  20
 2677.6123595506
  30
0.0
  40
 51.428571428572
  41
0.0
  71
4
  72
1
   1
\T1.000000;高耐食溶融めっき鋼板
   7
GMM003
  44
 0.79999984000003
   0
LINE
   5
313
 100
AcDbEntity
   8
LEVEL001
 370
13
 100
AcDbLine
   6
CONTINUOUS
  62
5
  10
 1145.6149587563
  20
 1936.7123595506
  30
0.0
  11
 1198.1149587563
  21
 1989.2123595506
  31
0.0
   0
LINE
   5
314
 100
AcDbEntity
   8
LEVEL001
 370
13
 100
AcDbLine
   6
CONTINUOUS
  62
5
  10
 1129.7050561795
  20
 1952.6222621274
  30
0.0
  11
 1166.2951536027
  21
 1989.2123595506
  31
0.0
   0
LINE
   5
315
 100
AcDbEntity
   8
LEVEL001
 370
13
 100
AcDbLine
   6
CONTINUOUS
  62
5
  10
 1182.2050561803
  20
 1989.2123595506
  30
0.0
  11
 1137.6600074683
  21
 1944.6673108386
  31
0.0
   0
LINE
   5
316
 100
AcDbEntity
   8
LEVEL001
 370
13
 100
AcDbLine
   6
CONTINUOUS
  62
5
  10
 1202.8852510269
  20
 1936.7123595506
  30
0.0
  11
 1174.2501048916
  21
 1965.3475056859
  31
0.0
   0
LINE
   5
317
 100
AcDbEntity
   8
LEVEL001
 370
13
 100
AcDbLine
   6
CONTINUOUS
  62
5
  10
 1182.2050561798
  20
 1973.3024569741
  30
0.0
  11
 1218.7951536033
  21
 1936.7123595506
  31
0.0
   0
LINE
   5
318
 100
AcDbEntity
   8
LEVEL001
 370
13
 100
AcDbLine
   6
CONTINUOUS
  62
5
  10
 1234.7050561798
  20
 1936.7123595506
  30
0.0
  11
 1190.1600074680
  21
 1981.2574082623
  31
0.0
   0
LINE
   5
319
 100
AcDbEntity
   8
LEVEL001
 370
13
 100
AcDbLine
   6
CONTINUOUS
  62
5
  10
 1045.3852510264
  20
 1989.2123595506
  30
0.0
  11
 992.88525102644
  21
 1936.7123595506
  31
0.0
   0
LINE
   5
31A
 100
AcDbEntity
   8
LEVEL001
 370
13
 100
AcDbLine
   6
CONTINUOUS
  62
5
  10
 1008.7951536025
  20
 1936.7123595506
  30
0.0
  11
 1061.2951536025
  21
 1989.2123595506
  31
0.0
   0
LINE
   5
31B
 100
AcDbEntity
   8
LEVEL001
 370
13
 100
AcDbLine
   6
CONTINUOUS
  62
5
  10
 1077.2050561801
  20
 1989.2123595506
  30
0.0
  11
 1024.7050561801
  21
 1936.7123595506
  31
0.0
   0
LINE
   5
31C
 100
AcDbEntity
   8
LEVEL001
 370
13
 100
AcDbLine
   6
CONTINUOUS
  62
5
  10
 1040.6149587561
  20
 1936.7123595506
  30
0.0
  11
 1093.1149587561
  21
 1989.2123595506
  31
0.0
   0
LINE
   5
31D
 100
AcDbEntity
   8
LEVEL001
 370
13
 100
AcDbLine
   6
CONTINUOUS
  62
5
  10
 1097.8852510267
  20
 1936.7123595506
  30
0.0
  11
 1069.2501048914
  21
 1965.3475056859
  31
0.0
   0
LINE
   5
31E
 100
AcDbEntity
   8
LEVEL001
 370
13
 100
AcDbLine
   6
CONTINUOUS
  62
5
  10
 1077.2050561796
  20
 1973.3024569741
  30
0.0
  11
 1113.7951536031
  21
 1936.7123595506
  31
0.0
   0
LINE
   5
31F
 100
AcDbEntity
   8
LEVEL001
 370
13
 100
AcDbLine
   6
CONTINUOUS
  62
5
  10
 1129.7050561796
  20
 1936.7123595506
  30
0.0
  11
 1085.1600074679
  21
 1981.2574082623
  31
0.0
   0
LINE
   5
320
 100
AcDbEntity
   8
LEVEL001
 370
13
 100
AcDbLine
   6
CONTINUOUS
  62
5
  10
 1093.1149587561
  20
 1989.2123595506
  30
0.0
  11
 1145.6149587563
  21
 1936.7123595506
  31
0.0
   0
LINE
   5
321
 100
AcDbEntity
   8
LEVEL001
 370
13
 100
AcDbLine
   6
CONTINUOUS
  62
5
  10
 1150.3852510266
  20
 1989.2123595506
  30
0.0
  11
 1121.7501048914
  21
 1960.5772134154
  31
0.0
   0
LINE
   5
322
 100
AcDbEntity
   8
LEVEL001
 370
13
 100
AcDbLine
   6
CONTINUOUS
  62
5
  10
 1198.1149587563
  20
 1989.2123595506
  30
0.0
  11
 1234.7050561798
  21
 1952.6222621272
  31
0.0
   0
LINE
   5
323
 100
AcDbEntity
   8
LEVEL001
 370
13
 100
AcDbLine
   6
CONTINUOUS
  62
5
  10
 1234.7050561798
  20
 1989.2123595506
  30
0.0
  11
 1234.7050561798
  21
 1289.2123595506
  31
0.0
   0
LINE
   5
324
 100
AcDbEntity
   8
LEVEL001
 370
13
 100
AcDbLine
   6
CONTINUOUS
  62
5
  10
 1446.5550561798
  20
 1989.2123595506
  30
0.0
  11
 984.70505617976
  21
 1989.2123595506
  31
0.0
   0
LINE
   5
325
 100
AcDbEntity
   8
LEVEL001
 370
13
 100
AcDbLine
   6
CONTINUOUS
  62
5
  10
 1795.3852510264
  20
 1989.2123595506
  30
0.0
  11
 1742.8852510264
  21
 1936.7123595506
  31
0.0
   0
LINE
   5
326
 100
AcDbEntity
   8
LEVEL001
 370
13
 100
AcDbLine
   6
CONTINUOUS
  62
5
  10
 1758.7951536025
  20
 1936.7123595506
  30
0.0
  11
 1811.2951536025
  21
 1989.2123595506
  31
0.0
   0
LINE
   5
327
 100
AcDbEntity
   8
LEVEL001
 370
13
 100
AcDbLine
   6
CONTINUOUS
  62
5
  10
 1827.2050561801
  20
 1989.2123595506
  30
0.0
  11
 1774.7050561801
  21
 1936.7123595506
  31
0.0
   0
LINE
   5
328
 100
AcDbEntity
   8
LEVEL001
 370
13
 100
AcDbLine
   6
CONTINUOUS
  62
5
  10
 1790.6149587561
  20
 1936.7123595506
  30
0.0
  11
 1843.1149587561
  21
 1989.2123595506
  31
0.0
   0
LINE
   5
329
 100
AcDbEntity
   8
LEVEL001
 370
13
 100
AcDbLine
   6
CONTINUOUS
  62
5
  10
 1847.8852510267
  20
 1936.7123595506
  30
0.0
  11
 1819.2501048914
  21
 1965.3475056859
  31
0.0
   0
LINE
   5
32A
 100
AcDbEntity
   8
LEVEL001
 370
13
 100
AcDbLine
   6
CONTINUOUS
  62
5
  10
 1827.2050561796
  20
 1973.3024569741
  30
0.0
  11
 1863.7951536031
  21
 1936.7123595506
  31
0.0
   0
LINE
   5
32B
 100
AcDbEntity
   8
LEVEL001
 370
13
 100
AcDbLine
   6
CONTINUOUS
  62
5
  10
 1879.7050561796
  20
 1936.7123595506
  30
0.0
  11
 1835.1600074679
  21
 1981.2574082623
  31
0.0
   0
LINE
   5
32C
 100
AcDbEntity
   8
LEVEL001
 370
13
 100
AcDbLine
   6
CONTINUOUS
  62
5
  10
 1843.1149587561
  20
 1989.2123595506
  30
0.0
  11
 1895.6149587563
  21
 1936.7123595506
  31
0.0
   0
LINE
   5
32D
 100
AcDbEntity
   8
LEVEL001
 370
13
 100
AcDbLine
   6
CONTINUOUS
  62
5
  10
 1895.6149587563
  20
 1936.7123595506
  30
0.0
  11
 1948.1149587564
  21
 1989.2123595506
  31
0.0
   0
LINE
   5
32E
 100
AcDbEntity
   8
LEVEL001
 370
13
 100
AcDbLine
   6
CONTINUOUS
  62
5
  10
 1900.3852510266
  20
 1989.2123595506
  30
0.0
  11
 1871.7501048914
  21
 1960.5772134154
  31
0.0
   0
LINE
   5
32F
 100
AcDbEntity
   8
LEVEL001
 370
13
 100
AcDbLine
   6
CONTINUOUS
  62
5
  10
 1879.7050561795
  20
 1952.6222621274
  30
0.0
  11
 1916.2951536028
  21
 1989.2123595506
  31
0.0
   0
LINE
   5
330
 100
AcDbEntity
   8
LEVEL001
 370
13
 100
AcDbLine
   6
CONTINUOUS
  62
5
  10
 1932.2050561804
  20
 1989.2123595506
  30
0.0
  11
 1887.6600074683
  21
 1944.6673108386
  31
0.0
   0
LINE
   5
331
 100
AcDbEntity
   8
LEVEL001
 370
13
 100
AcDbLine
   6
CONTINUOUS
  62
5
  10
 1952.8852510270
  20
 1936.7123595506
  30
0.0
  11
 1924.2501048916
  21
 1965.3475056859
  31
0.0
   0
LINE
   5
332
 100
AcDbEntity
   8
LEVEL001
 370
13
 100
AcDbLine
   6
CONTINUOUS
  62
5
  10
 1932.2050561798
  20
 1973.3024569741
  30
0.0
  11
 1968.7951536034
  21
 1936.7123595506
  31
0.0
   0
LINE
   5
333
 100
AcDbEntity
   8
LEVEL001
 370
13
 100
AcDbLine
   6
CONTINUOUS
  62
5
  10
 1984.7050561798
  20
 1936.7123595506
  30
0.0
  11
 1940.1600074680
  21
 1981.2574082623
  31
0.0
   0
LINE
   5
334
 100
AcDbEntity
   8
LEVEL001
 370
13
 100
AcDbLine
   6
CONTINUOUS
  62
5
  10
 1948.1149587564
  20
 1989.2123595506
  30
0.0
  11
 1984.7050561798
  21
 1952.6222621272
  31
0.0
   0
LINE
   5
335
 100
AcDbEntity
   8
LEVEL001
 370
13
 100
AcDbLine
   6
CONTINUOUS
  62
5
  10
 1522.8550561798
  20
 1989.2123595506
  30
0.0
  11
 1984.7050561798
  21
 1989.2123595506
  31
0.0
   0
LINE
   5
336
 100
AcDbEntity
   8
LEVEL001
 370
13
 100
AcDbLine
   6
CONTINUOUS
  62
5
  10
 1734.7050561798
  20
 1289.2123595506
  30
0.0
  11
 1684.7050561798
  21
 1189.2123595506
  31
0.0
   0
LINE
   5
337
 100
AcDbEntity
   8
LEVEL001
 370
13
 100
AcDbLine
   6
CONTINUOUS
  62
5
  10
 1684.7050561798
  20
 1289.2123595506
  30
0.0
  11
 1724.7050561798
  21
 1269.2123595506
  31
0.0
   0
LINE
   5
338
 100
AcDbEntity
   8
LEVEL001
 370
13
 100
AcDbLine
   6
CONTINUOUS
  62
5
  10
 1684.7050561798
  20
 1289.2123595506
  30
0.0
  11
 1634.7050561798
  21
 1189.2123595506
  31
0.0
   0
LINE
   5
339
 100
AcDbEntity
   8
LEVEL001
 370
13
 100
AcDbLine
   6
CONTINUOUS
  62
5
  10
 1634.7050561798
  20
 1289.2123595506
  30
0.0
  11
 1674.7050561798
  21
 1269.2123595506
  31
0.0
   0
LINE
   5
33A
 100
AcDbEntity
   8
LEVEL001
 370
13
 100
AcDbLine
   6
CONTINUOUS
  62
5
  10
 1634.7050561798
  20
 1289.2123595506
  30
0.0
  11
 1584.7050561798
  21
 1189.2123595506
  31
0.0
   0
LINE
   5
33B
 100
AcDbEntity
   8
LEVEL001
 370
13
 100
AcDbLine
   6
CONTINUOUS
  62
5
  10
 1734.7050561798
  20
 1189.2123595506
  30
0.0
  11
 1694.7050561798
  21
 1209.2123595506
  31
0.0
   0
LINE
   5
33C
 100
AcDbEntity
   8
LEVEL001
 370
13
 100
AcDbLine
   6
CONTINUOUS
  62
5
  10
 1684.7050561798
  20
 1189.2123595506
  30
0.0
  11
 1644.7050561798
  21
 1209.2123595506
  31
0.0
   0
LINE
   5
33D
 100
AcDbEntity
   8
LEVEL001
 370
13
 100
AcDbLine
   6
CONTINUOUS
  62
5
  10
 1634.7050561798
  20
 1189.2123595506
  30
0.0
  11
 1594.7050561798
  21
 1209.2123595506
  31
0.0
   0
LINE
   5
33E
 100
AcDbEntity
   8
LEVEL001
 370
13
 100
AcDbLine
   6
CONTINUOUS
  62
5
  10
 1734.7050561798
  20
 1289.2123595506
  30
0.0
  11
 1234.7050561798
  21
 1289.2123595506
  31
0.0
   0
LINE
   5
33F
 100
AcDbEntity
   8
LEVEL001
 370
13
 100
AcDbLine
   6
CONTINUOUS
  62
5
  10
 1234.7050561798
  20
 1189.2123595506
  30
0.0
  11
 1734.7050561798
  21
 1189.2123595506
  31
0.0
   0
LINE
   5
340
 100
AcDbEntity
   8
LEVEL001
 370
13
 100
AcDbLine
   6
CONTINUOUS
  62
5
  10
 1734.7050561798
  20
 1189.2123595506
  30
0.0
  11
 1734.7050561798
  21
 1289.2123595506
  31
0.0
   0
LINE
   5
341
 100
AcDbEntity
   8
LEVEL001
 370
13
 100
AcDbLine
   6
CONTINUOUS
  62
5
  10
 1234.7050561798
  20
 1289.2123595506
  30
0.0
  11
 1734.7050561798
  21
 1289.2123595506
  31
0.0
   0
LINE
   5
342
 100
AcDbEntity
   8
LEVEL001
 370
13
 100
AcDbLine
   6
CONTINUOUS
  62
5
  10
 1734.7050561798
  20
 1289.2123595506
  30
0.0
  11
 1734.7050561798
  21
 1989.2123595506
  31
0.0
   0
LINE
   5
343
 100
AcDbEntity
   8
LEVEL001
 370
13
 100
AcDbLine
   6
CONTINUOUS
  62
5
  10
 1734.7050561798
  20
 1912.7176986099
  30
0.0
  11
 1522.8550561798
  21
 1700.8676986099
  31
0.0
   0
LINE
   5
344
 100
AcDbEntity
   8
LEVEL001
 370
13
 100
AcDbLine
   6
CONTINUOUS
  62
5
  10
 1522.8550561798
  20
 1665.5123595505
  30
0.0
  11
 1734.7050561798
  21
 1877.3623595505
  31
0.0
   0
LINE
   5
345
 100
AcDbEntity
   8
LEVEL001
 370
13
 100
AcDbLine
   6
CONTINUOUS
  62
5
  10
 1734.7050561798
  20
 1842.0070204912
  30
0.0
  11
 1522.8550561798
  21
 1630.1570204912
  31
0.0
   0
LINE
   5
346
 100
AcDbEntity
   8
LEVEL001
 370
13
 100
AcDbLine
   6
CONTINUOUS
  62
5
  10
 1584.7050561798
  20
 1289.2123595506
  30
0.0
  11
 1624.7050561798
  21
 1269.2123595506
  31
0.0
   0
LINE
   5
347
 100
AcDbEntity
   8
LEVEL001
 370
13
 100
AcDbLine
   6
CONTINUOUS
  62
5
  10
 1384.7050561798
  20
 1289.2123595506
  30
0.0
  11
 1334.7050561798
  21
 1189.2123595506
  31
0.0
   0
LINE
   5
348
 100
AcDbEntity
   8
LEVEL001
 370
13
 100
AcDbLine
   6
CONTINUOUS
  62
5
  10
 1334.7050561798
  20
 1289.2123595506
  30
0.0
  11
 1374.7050561798
  21
 1269.2123595506
  31
0.0
   0
LINE
   5
349
 100
AcDbEntity
   8
LEVEL001
 370
13
 100
AcDbLine
   6
CONTINUOUS
  62
5
  10
 1334.7050561798
  20
 1289.2123595506
  30
0.0
  11
 1284.7050561798
  21
 1189.2123595506
  31
0.0
   0
LINE
   5
34A
 100
AcDbEntity
   8
LEVEL001
 370
13
 100
AcDbLine
   6
CONTINUOUS
  62
5
  10
 1284.7050561798
  20
 1289.2123595506
  30
0.0
  11
 1324.7050561798
  21
 1269.2123595506
  31
0.0
   0
LINE
   5
34B
 100
AcDbEntity
   8
LEVEL001
 370
13
 100
AcDbLine
   6
CONTINUOUS
  62
5
  10
 1284.7050561798
  20
 1289.2123595506
  30
0.0
  11
 1234.7050561798
  21
 1189.2123595506
  31
0.0
   0
LINE
   5
34C
 100
AcDbEntity
   8
LEVEL001
 370
13
 100
AcDbLine
   6
CONTINUOUS
  62
5
  10
 1234.7050561798
  20
 1289.2123595506
  30
0.0
  11
 1274.7050561798
  21
 1269.2123595506
  31
0.0
   0
LINE
   5
34D
 100
AcDbEntity
   8
LEVEL001
 370
13
 100
AcDbLine
   6
CONTINUOUS
  62
5
  10
 1384.7050561798
  20
 1189.2123595506
  30
0.0
  11
 1344.7050561798
  21
 1209.2123595506
  31
0.0
   0
LINE
   5
34E
 100
AcDbEntity
   8
LEVEL001
 370
13
 100
AcDbLine
   6
CONTINUOUS
  62
5
  10
 1334.7050561798
  20
 1189.2123595506
  30
0.0
  11
 1294.7050561798
  21
 1209.2123595506
  31
0.0
   0
LINE
   5
34F
 100
AcDbEntity
   8
LEVEL001
 370
13
 100
AcDbLine
   6
CONTINUOUS
  62
5
  10
 1284.7050561798
  20
 1189.2123595506
  30
0.0
  11
 1244.7050561798
  21
 1209.2123595506
  31
0.0
   0
LINE
   5
350
 100
AcDbEntity
   8
LEVEL001
 370
13
 100
AcDbLine
   6
CONTINUOUS
  62
5
  10
 1234.7050561798
  20
 1289.2123595506
  30
0.0
  11
 1234.7050561798
  21
 1189.2123595506
  31
0.0
   0
LINE
   5
351
 100
AcDbEntity
   8
LEVEL001
 370
13
 100
AcDbLine
   6
CONTINUOUS
  62
5
  10
 1234.7050561798
  20
 1377.3623595505
  30
0.0
  11
 1446.5550561798
  21
 1589.2123595505
  31
0.0
   0
LINE
   5
352
 100
AcDbEntity
   8
LEVEL001
 370
13
 100
AcDbLine
   6
CONTINUOUS
  62
5
  10
 1446.5550561798
  20
 1553.8570204912
  30
0.0
  11
 1234.7050561798
  21
 1342.0070204912
  31
0.0
   0
LINE
   5
353
 100
AcDbEntity
   8
LEVEL001
 370
13
 100
AcDbLine
   6
CONTINUOUS
  62
5
  10
 1446.5550561798
  20
 1624.5676986099
  30
0.0
  11
 1234.7050561798
  21
 1412.7176986099
  31
0.0
   0
LINE
   5
354
 100
AcDbEntity
   8
LEVEL001
 370
13
 100
AcDbLine
   6
CONTINUOUS
  62
5
  10
 2295.6149587564
  20
 1936.7123595506
  30
0.0
  11
 2348.1149587564
  21
 1989.2123595506
  31
0.0
   0
LINE
   5
355
 100
AcDbEntity
   8
LEVEL001
 370
13
 100
AcDbLine
   6
CONTINUOUS
  62
5
  10
 2279.7050561796
  20
 1952.6222621274
  30
0.0
  11
 2316.2951536028
  21
 1989.2123595506
  31
0.0
   0
LINE
   5
356
 100
AcDbEntity
   8
LEVEL001
 370
13
 100
AcDbLine
   6
CONTINUOUS
  62
5
  10
 2332.2050561804
  20
 1989.2123595506
  30
0.0
  11
 2287.6600074684
  21
 1944.6673108386
  31
0.0
   0
LINE
   5
357
 100
AcDbEntity
   8
LEVEL001
 370
13
 100
AcDbLine
   6
CONTINUOUS
  62
5
  10
 2352.8852510270
  20
 1936.7123595506
  30
0.0
  11
 2324.2501048916
  21
 1965.3475056859
  31
0.0
   0
LINE
   5
358
 100
AcDbEntity
   8
LEVEL001
 370
13
 100
AcDbLine
   6
CONTINUOUS
  62
5
  10
 2332.2050561798
  20
 1973.3024569741
  30
0.0
  11
 2368.7951536034
  21
 1936.7123595506
  31
0.0
   0
LINE
   5
359
 100
AcDbEntity
   8
LEVEL001
 370
13
 100
AcDbLine
   6
CONTINUOUS
  62
5
  10
 2384.7050561798
  20
 1936.7123595506
  30
0.0
  11
 2340.1600074680
  21
 1981.2574082623
  31
0.0
   0
LINE
   5
35A
 100
AcDbEntity
   8
LEVEL001
 370
13
 100
AcDbLine
   6
CONTINUOUS
  62
5
  10
 2195.3852510264
  20
 1989.2123595506
  30
0.0
  11
 2142.8852510264
  21
 1936.7123595506
  31
0.0
   0
LINE
   5
35B
 100
AcDbEntity
   8
LEVEL001
 370
13
 100
AcDbLine
   6
CONTINUOUS
  62
5
  10
 2158.7951536026
  20
 1936.7123595506
  30
0.0
  11
 2211.2951536026
  21
 1989.2123595506
  31
0.0
   0
LINE
   5
35C
 100
AcDbEntity
   8
LEVEL001
 370
13
 100
AcDbLine
   6
CONTINUOUS
  62
5
  10
 2227.2050561802
  20
 1989.2123595506
  30
0.0
  11
 2174.7050561802
  21
 1936.7123595506
  31
0.0
   0
LINE
   5
35D
 100
AcDbEntity
   8
LEVEL001
 370
13
 100
AcDbLine
   6
CONTINUOUS
  62
5
  10
 2190.6149587562
  20
 1936.7123595506
  30
0.0
  11
 2243.1149587562
  21
 1989.2123595506
  31
0.0
   0
LINE
   5
35E
 100
AcDbEntity
   8
LEVEL001
 370
13
 100
AcDbLine
   6
CONTINUOUS
  62
5
  10
 2247.8852510268
  20
 1936.7123595506
  30
0.0
  11
 2219.2501048914
  21
 1965.3475056859
  31
0.0
   0
LINE
   5
35F
 100
AcDbEntity
   8
LEVEL001
 370
13
 100
AcDbLine
   6
CONTINUOUS
  62
5
  10
 2227.2050561796
  20
 1973.3024569741
  30
0.0
  11
 2263.7951536032
  21
 1936.7123595506
  31
0.0
   0
LINE
   5
360
 100
AcDbEntity
   8
LEVEL001
 370
13
 100
AcDbLine
   6
CONTINUOUS
  62
5
  10
 2279.7050561796
  20
 1936.7123595506
  30
0.0
  11
 2235.1600074678
  21
 1981.2574082623
  31
0.0
   0
LINE
   5
361
 100
AcDbEntity
   8
LEVEL001
 370
13
 100
AcDbLine
   6
CONTINUOUS
  62
5
  10
 2243.1149587562
  20
 1989.2123595506
  30
0.0
  11
 2295.6149587564
  21
 1936.7123595506
  31
0.0
   0
LINE
   5
362
 100
AcDbEntity
   8
LEVEL001
 370
13
 100
AcDbLine
   6
CONTINUOUS
  62
5
  10
 2300.3852510266
  20
 1989.2123595506
  30
0.0
  11
 2271.7501048914
  21
 1960.5772134154
  31
0.0
   0
LINE
   5
363
 100
AcDbEntity
   8
LEVEL001
 370
13
 100
AcDbLine
   6
CONTINUOUS
  62
5
  10
 2348.1149587564
  20
 1989.2123595506
  30
0.0
  11
 2384.7050561798
  21
 1952.6222621272
  31
0.0
   0
LINE
   5
364
 100
AcDbEntity
   8
LEVEL001
 370
13
 100
AcDbLine
   6
CONTINUOUS
  62
5
  10
 2384.7050561798
  20
 1989.2123595506
  30
0.0
  11
 2384.7050561798
  21
 1289.2123595506
  31
0.0
   0
LINE
   5
365
 100
AcDbEntity
   8
LEVEL001
 370
13
 100
AcDbLine
   6
CONTINUOUS
  62
5
  10
 2741.9298423270
  20
 1989.2123595506
  30
0.0
  11
 2134.7050561798
  21
 1989.2123595506
  31
0.0
   0
LINE
   5
366
 100
AcDbEntity
   8
LEVEL001
 370
13
 100
AcDbLine
   6
CONTINUOUS
  62
5
  10
 2534.7050561798
  20
 1289.2123595506
  30
0.0
  11
 2484.7050561798
  21
 1189.2123595506
  31
0.0
   0
LINE
   5
367
 100
AcDbEntity
   8
LEVEL001
 370
13
 100
AcDbLine
   6
CONTINUOUS
  62
5
  10
 2484.7050561798
  20
 1289.2123595506
  30
0.0
  11
 2524.7050561798
  21
 1269.2123595506
  31
0.0
   0
LINE
   5
368
 100
AcDbEntity
   8
LEVEL001
 370
13
 100
AcDbLine
   6
CONTINUOUS
  62
5
  10
 2534.7050561798
  20
 1189.2123595506
  30
0.0
  11
 2494.7050561798
  21
 1209.2123595506
  31
0.0
   0
LINE
   5
369
 100
AcDbEntity
   8
LEVEL001
 370
13
 100
AcDbLine
   6
CONTINUOUS
  62
5
  10
 2884.7050561798
  20
 1289.2123595506
  30
0.0
  11
 2384.7050561798
  21
 1289.2123595506
  31
0.0
   0
LINE
   5
36A
 100
AcDbEntity
   8
LEVEL001
 370
13
 100
AcDbLine
   6
CONTINUOUS
  62
5
  10
 2384.7050561798
  20
 1189.2123595506
  30
0.0
  11
 2884.7050561798
  21
 1189.2123595506
  31
0.0
   0
LINE
   5
36B
 100
AcDbEntity
   8
LEVEL001
 370
13
 100
AcDbLine
   6
CONTINUOUS
  62
5
  10
 2384.7050561798
  20
 1289.2123595506
  30
0.0
  11
 2884.7050561798
  21
 1289.2123595506
  31
0.0
   0
LINE
   5
36C
 100
AcDbEntity
   8
LEVEL001
 370
13
 100
AcDbLine
   6
CONTINUOUS
  62
5
  10
 2384.7050561798
  20
 1377.3623595505
  30
0.0
  11
 2596.5550561798
  21
 1589.2123595505
  31
0.0
   0
LINE
   5
36D
 100
AcDbEntity
   8
LEVEL001
 370
13
 100
AcDbLine
   6
CONTINUOUS
  62
5
  10
 2596.5550561798
  20
 1553.8570204912
  30
0.0
  11
 2384.7050561798
  21
 1342.0070204912
  31
0.0
   0
LINE
   5
36E
 100
AcDbEntity
   8
LEVEL001
 370
13
 100
AcDbLine
   6
CONTINUOUS
  62
5
  10
 2596.5550561798
  20
 1624.5676986099
  30
0.0
  11
 2384.7050561798
  21
 1412.7176986099
  31
0.0
   0
LINE
   5
36F
 100
AcDbEntity
   8
LEVEL001
 370
13
 100
AcDbLine
   6
CONTINUOUS
  62
5
  10
 2484.7050561798
  20
 1289.2123595506
  30
0.0
  11
 2434.7050561798
  21
 1189.2123595506
  31
0.0
   0
LINE
   5
370
 100
AcDbEntity
   8
LEVEL001
 370
13
 100
AcDbLine
   6
CONTINUOUS
  62
5
  10
 2434.7050561798
  20
 1289.2123595506
  30
0.0
  11
 2474.7050561798
  21
 1269.2123595506
  31
0.0
   0
LINE
   5
371
 100
AcDbEntity
   8
LEVEL001
 370
13
 100
AcDbLine
   6
CONTINUOUS
  62
5
  10
 2434.7050561798
  20
 1289.2123595506
  30
0.0
  11
 2384.7050561798
  21
 1189.2123595506
  31
0.0
   0
LINE
   5
372
 100
AcDbEntity
   8
LEVEL001
 370
13
 100
AcDbLine
   6
CONTINUOUS
  62
5
  10
 2384.7050561798
  20
 1289.2123595506
  30
0.0
  11
 2424.7050561798
  21
 1269.2123595506
  31
0.0
   0
LINE
   5
373
 100
AcDbEntity
   8
LEVEL001
 370
13
 100
AcDbLine
   6
CONTINUOUS
  62
5
  10
 2484.7050561798
  20
 1189.2123595506
  30
0.0
  11
 2444.7050561798
  21
 1209.2123595506
  31
0.0
   0
LINE
   5
374
 100
AcDbEntity
   8
LEVEL001
 370
13
 100
AcDbLine
   6
CONTINUOUS
  62
5
  10
 2434.7050561798
  20
 1189.2123595506
  30
0.0
  11
 2394.7050561798
  21
 1209.2123595506
  31
0.0
   0
LINE
   5
375
 100
AcDbEntity
   8
LEVEL001
 370
13
 100
AcDbLine
   6
CONTINUOUS
  62
5
  10
 2384.7050561798
  20
 1289.2123595506
  30
0.0
  11
 2384.7050561798
  21
 1189.2123595506
  31
0.0
   0
LINE
   5
376
 100
AcDbEntity
   8
LEVEL001
 370
13
 100
AcDbLine
   6
CONTINUOUS
  62
5
  10
 2884.7050561798
  20
 1289.2123595506
  30
0.0
  11
 2834.7050561798
  21
 1189.2123595506
  31
0.0
   0
LINE
   5
377
 100
AcDbEntity
   8
LEVEL001
 370
13
 100
AcDbLine
   6
CONTINUOUS
  62
5
  10
 2834.7050561798
  20
 1289.2123595506
  30
0.0
  11
 2874.7050561798
  21
 1269.2123595506
  31
0.0
   0
LINE
   5
378
 100
AcDbEntity
   8
LEVEL001
 370
13
 100
AcDbLine
   6
CONTINUOUS
  62
5
  10
 2834.7050561798
  20
 1289.2123595506
  30
0.0
  11
 2784.7050561798
  21
 1189.2123595506
  31
0.0
   0
LINE
   5
379
 100
AcDbEntity
   8
LEVEL001
 370
13
 100
AcDbLine
   6
CONTINUOUS
  62
5
  10
 2784.7050561798
  20
 1289.2123595506
  30
0.0
  11
 2824.7050561798
  21
 1269.2123595506
  31
0.0
   0
LINE
   5
37A
 100
AcDbEntity
   8
LEVEL001
 370
13
 100
AcDbLine
   6
CONTINUOUS
  62
5
  10
 2784.7050561798
  20
 1289.2123595506
  30
0.0
  11
 2734.7050561798
  21
 1189.2123595506
  31
0.0
   0
LINE
   5
37B
 100
AcDbEntity
   8
LEVEL001
 370
13
 100
AcDbLine
   6
CONTINUOUS
  62
5
  10
 2734.7050561798
  20
 1289.2123595506
  30
0.0
  11
 2774.7050561798
  21
 1269.2123595506
  31
0.0
   0
LINE
   5
37C
 100
AcDbEntity
   8
LEVEL001
 370
13
 100
AcDbLine
   6
CONTINUOUS
  62
5
  10
 2884.7050561798
  20
 1189.2123595506
  30
0.0
  11
 2844.7050561798
  21
 1209.2123595506
  31
0.0
   0
LINE
   5
37D
 100
AcDbEntity
   8
LEVEL001
 370
13
 100
AcDbLine
   6
CONTINUOUS
  62
5
  10
 2834.7050561798
  20
 1189.2123595506
  30
0.0
  11
 2794.7050561798
  21
 1209.2123595506
  31
0.0
   0
LINE
   5
37E
 100
AcDbEntity
   8
LEVEL001
 370
13
 100
AcDbLine
   6
CONTINUOUS
  62
5
  10
 2784.7050561798
  20
 1189.2123595506
  30
0.0
  11
 2744.7050561798
  21
 1209.2123595506
  31
0.0
   0
LINE
   5
37F
 100
AcDbEntity
   8
LEVEL001
 370
13
 100
AcDbLine
   6
CONTINUOUS
  62
5
  10
 2884.7050561798
  20
 1189.2123595506
  30
0.0
  11
 2884.7050561798
  21
 1289.2123595506
  31
0.0
   0
LINE
   5
380
 100
AcDbEntity
   8
LEVEL001
 370
13
 100
AcDbLine
   6
CONTINUOUS
  62
5
  10
 2884.7050561798
  20
 1289.2123595506
  30
0.0
  11
 2884.7050561798
  21
 1989.2123595506
  31
0.0
   0
LINE
   5
381
 100
AcDbEntity
   8
LEVEL001
 370
13
 100
AcDbLine
   6
CONTINUOUS
  62
5
  10
 2945.3852510264
  20
 1989.2123595506
  30
0.0
  11
 2892.8852510264
  21
 1936.7123595506
  31
0.0
   0
LINE
   5
382
 100
AcDbEntity
   8
LEVEL001
 370
13
 100
AcDbLine
   6
CONTINUOUS
  62
5
  10
 2908.7951536026
  20
 1936.7123595506
  30
0.0
  11
 2961.2951536026
  21
 1989.2123595506
  31
0.0
   0
LINE
   5
383
 100
AcDbEntity
   8
LEVEL001
 370
13
 100
AcDbLine
   6
CONTINUOUS
  62
5
  10
 2977.2050561802
  20
 1989.2123595506
  30
0.0
  11
 2924.7050561802
  21
 1936.7123595506
  31
0.0
   0
LINE
   5
384
 100
AcDbEntity
   8
LEVEL001
 370
13
 100
AcDbLine
   6
CONTINUOUS
  62
5
  10
 2940.6149587562
  20
 1936.7123595506
  30
0.0
  11
 2993.1149587562
  21
 1989.2123595506
  31
0.0
   0
LINE
   5
385
 100
AcDbEntity
   8
LEVEL001
 370
13
 100
AcDbLine
   6
CONTINUOUS
  62
5
  10
 2997.8852510268
  20
 1936.7123595506
  30
0.0
  11
 2969.2501048914
  21
 1965.3475056859
  31
0.0
   0
LINE
   5
386
 100
AcDbEntity
   8
LEVEL001
 370
13
 100
AcDbLine
   6
CONTINUOUS
  62
5
  10
 2977.2050561796
  20
 1973.3024569741
  30
0.0
  11
 3013.7951536032
  21
 1936.7123595506
  31
0.0
   0
LINE
   5
387
 100
AcDbEntity
   8
LEVEL001
 370
13
 100
AcDbLine
   6
CONTINUOUS
  62
5
  10
 3029.7050561796
  20
 1936.7123595506
  30
0.0
  11
 2985.1600074678
  21
 1981.2574082623
  31
0.0
   0
LINE
   5
388
 100
AcDbEntity
   8
LEVEL001
 370
13
 100
AcDbLine
   6
CONTINUOUS
  62
5
  10
 2993.1149587562
  20
 1989.2123595506
  30
0.0
  11
 3045.6149587564
  21
 1936.7123595506
  31
0.0
   0
LINE
   5
389
 100
AcDbEntity
   8
LEVEL001
 370
13
 100
AcDbLine
   6
CONTINUOUS
  62
5
  10
 3045.6149587564
  20
 1936.7123595506
  30
0.0
  11
 3098.1149587564
  21
 1989.2123595506
  31
0.0
   0
LINE
   5
38A
 100
AcDbEntity
   8
LEVEL001
 370
13
 100
AcDbLine
   6
CONTINUOUS
  62
5
  10
 3050.3852510266
  20
 1989.2123595506
  30
0.0
  11
 3021.7501048914
  21
 1960.5772134154
  31
0.0
   0
LINE
   5
38B
 100
AcDbEntity
   8
LEVEL001
 370
13
 100
AcDbLine
   6
CONTINUOUS
  62
5
  10
 3029.7050561796
  20
 1952.6222621274
  30
0.0
  11
 3066.2951536028
  21
 1989.2123595506
  31
0.0
   0
LINE
   5
38C
 100
AcDbEntity
   8
LEVEL001
 370
13
 100
AcDbLine
   6
CONTINUOUS
  62
5
  10
 3082.2050561804
  20
 1989.2123595506
  30
0.0
  11
 3037.6600074684
  21
 1944.6673108386
  31
0.0
   0
LINE
   5
38D
 100
AcDbEntity
   8
LEVEL001
 370
13
 100
AcDbLine
   6
CONTINUOUS
  62
5
  10
 3102.8852510270
  20
 1936.7123595506
  30
0.0
  11
 3074.2501048916
  21
 1965.3475056859
  31
0.0
   0
LINE
   5
38E
 100
AcDbEntity
   8
LEVEL001
 370
13
 100
AcDbLine
   6
CONTINUOUS
  62
5
  10
 3082.2050561798
  20
 1973.3024569741
  30
0.0
  11
 3118.7951536034
  21
 1936.7123595506
  31
0.0
   0
LINE
   5
38F
 100
AcDbEntity
   8
LEVEL001
 370
13
 100
AcDbLine
   6
CONTINUOUS
  62
5
  10
 3134.7050561798
  20
 1936.7123595506
  30
0.0
  11
 3090.1600074680
  21
 1981.2574082623
  31
0.0
   0
LINE
   5
390
 100
AcDbEntity
   8
LEVEL001
 370
13
 100
AcDbLine
   6
CONTINUOUS
  62
5
  10
 3098.1149587564
  20
 1989.2123595506
  30
0.0
  11
 3134.7050561798
  21
 1952.6222621272
  31
0.0
   0
LINE
   5
391
 100
AcDbEntity
   8
LEVEL001
 370
13
 100
AcDbLine
   6
CONTINUOUS
  62
5
  10
 2838.5913811438
  20
 1989.2123595506
  30
0.0
  11
 3134.7050561798
  21
 1989.2123595506
  31
0.0
   0
LINE
   5
392
 100
AcDbEntity
   8
LEVEL001
 370
13
 100
AcDbLine
   6
CONTINUOUS
  62
5
  10
 2884.7050561798
  20
 1912.7176986099
  30
0.0
  11
 2672.8550561798
  21
 1700.8676986099
  31
0.0
   0
LINE
   5
393
 100
AcDbEntity
   8
LEVEL001
 370
13
 100
AcDbLine
   6
CONTINUOUS
  62
5
  10
 2672.8550561798
  20
 1665.5123595505
  30
0.0
  11
 2884.7050561798
  21
 1877.3623595505
  31
0.0
   0
LINE
   5
394
 100
AcDbEntity
   8
LEVEL001
 370
13
 100
AcDbLine
   6
CONTINUOUS
  62
5
  10
 2884.7050561798
  20
 1842.0070204912
  30
0.0
  11
 2672.8550561798
  21
 1630.1570204912
  31
0.0
   0
LEADER
   5
395
 100
AcDbEntity
   8
LEVEL001
 370
13
   6
CONTINUOUS
  62
1
 100
AcDbLeader
   3
GMM001
  73
3
  74
1
  75
0
  40
 60.000000000000
  41
0.0
  76
2
  10
 1574.7047490687
  20
 4149.2126666622
  30
0.0
  10
 1685.2075814970
  20
 4038.7098342340
  30
0.0
  77
1
   0
LEADER
   5
396
 100
AcDbEntity
   8
LEVEL001
 370
13
   6
CONTINUOUS
  62
1
 100
AcDbLeader
   3
GMM001
  73
3
  74
1
  75
0
  40
 60.000000000000
  41
0.0
  76
2
  10
 3042.7821515838
  20
 3913.7123595498
  30
0.0
  10
 3123.3476658678
  20
 3955.5185818742
  30
0.0
  77
1
   0
LEADER
   5
397
 100
AcDbEntity
   8
LEVEL001
 370
13
   6
CONTINUOUS
  62
1
 100
AcDbLeader
   3
GMM001
  73
3
  74
1
  75
0
  40
 60.000000000000
  41
0.0
  76
2
  10
 1634.7050561798
  20
 4489.2123595506
  30
0.0
  10
 1685.7169228544
  20
 4437.6139845366
  30
0.0
  77
1
   0
LEADER
   5
398
 100
AcDbEntity
   8
LEVEL001
 370
13
   6
CONTINUOUS
  62
1
 100
AcDbLeader
   3
GMM001
  73
3
  74
1
  75
0
  40
 60.000000000000
  41
0.0
  76
2
  10
 1634.7050561798
  20
 4622.9548516380
  30
0.0
  10
 2218.6371428176
  20
 4410.7430865582
  30
0.0
  77
1
   0
LEADER
   5
399
 100
AcDbEntity
   8
LEVEL001
 370
13
   6
CONTINUOUS
  62
1
 100
AcDbLeader
   3
GMM001
  73
3
  74
1
  75
0
  40
 60.000000000000
  41
0.0
  76
2
  10
 2721.9216934390
  20
 4966.0123595506
  30
0.0
  10
 2347.2495903456
  20
 5156.1770139358
  30
0.0
  77
1
   0
LEADER
   5
39A
 100
AcDbEntity
   8
LEVEL001
 370
13
   6
CONTINUOUS
  62
1
 100
AcDbLeader
   3
GMM001
  73
3
  74
1
  75
0
  40
 60.000000000000
  41
0.0
  76
2
  10
 2757.3985909580
  20
 4637.6696351862
  30
0.0
  10
 2347.3499438870
  20
 4418.8472399264
  30
0.0
  77
1
   0
LEADER
   5
39B
 100
AcDbEntity
   8
LEVEL001
 370
13
   6
CONTINUOUS
  62
1
 100
AcDbLeader
   3
GMM001
  73
3
  74
1
  75
0
  40
 60.000000000000
  41
0.0
  76
2
  10
 3059.7050732824
  20
 4792.6123595506
  30
0.0
  10
 3303.7286500748
  20
 5130.4970318486
  30
0.0
  77
1
   0
LEADER
   5
39C
 100
AcDbEntity
   8
LEVEL001
 370
13
   6
CONTINUOUS
  62
1
 100
AcDbLeader
   3
GMM001
  73
3
  74
1
  75
0
  40
 60.000000000000
  41
0.0
  76
2
  10
 2876.2949618580
  20
 4792.6123595506
  30
0.0
  10
 2843.8581697218
  20
 5118.2133666154
  30
0.0
  77
1
   0
LEADER
   5
39D
 100
AcDbEntity
   8
LEVEL001
 370
13
   6
CONTINUOUS
  62
1
 100
AcDbLeader
   3
GMM001
  73
3
  74
1
  75
0
  40
 60.000000000000
  41
0.0
  76
2
  10
 2984.7050561798
  20
 4893.2123595506
  30
0.0
  10
 3145.8147938044
  20
 5129.4097179236
  30
0.0
  77
1
   0
LEADER
   5
39E
 100
AcDbEntity
   8
LEVEL001
 370
13
   6
CONTINUOUS
  62
1
 100
AcDbLeader
   3
GMM002
  73
3
  74
1
  75
0
  40
 66.000000000000
  41
0.0
  76
2
  10
 4225.9224496178
  20
 4604.6973558952
  30
0.0
  10
 4122.9125236580
  20
 4446.2654851010
  30
0.0
  77
1
   0
LEADER
   5
39F
 100
AcDbEntity
   8
LEVEL001
 370
13
   6
CONTINUOUS
  62
1
 100
AcDbLeader
   3
GMM001
  73
3
  74
1
  75
0
  40
 60.000000000000
  41
0.0
  76
2
  10
 1522.8550561798
  20
 2664.2123595506
  30
0.0
  10
 1674.4172668186
  20
 2753.6401449170
  30
0.0
  77
1
   0
LEADER
   5
3A0
 100
AcDbEntity
   8
LEVEL001
 370
13
   6
CONTINUOUS
  62
1
 100
AcDbLeader
   3
GMM001
  73
3
  74
1
  75
0
  40
 60.000000000000
  41
0.0
  76
2
  10
 2524.7050380942
  20
 1481.7123595505
  30
0.0
  10
 2321.3566983198
  20
 1372.3646599449
  30
0.0
  77
1
   0
DIMENSION
   5
3A1
 100
AcDbEntity
   8
LEVEL001
 370
13
   6
CONTINUOUS
  62
1
 100
AcDbDimension
   2
*D13
  10
 1182.2050561798
  20
 4837.6123595506
  30
0.0
  11
 1515.4542647990
  21
 4837.6123595506
  31
0.0
  70
128
   1
\A1;600
   3
GMM003
 100
AcDbAlignedDimension
  13
 1787.2050561798
  23
 4837.6123595506
  33
0.0
  14
 1182.2050561798
  24
 4837.6123595506
  34
0.0
  50
 180.00000000000
 100
AcDbRotatedDimension
   0
DIMENSION
   5
3A2
 100
AcDbEntity
   8
LEVEL001
 370
13
   6
CONTINUOUS
  62
1
 100
AcDbDimension
   2
*D14
  10
 1334.7050561798
  20
 4965.1123595506
  30
0.0
  11
 1334.7050561798
  21
 4704.7991190948
  31
0.0
  70
128
   1
\A1;450
   3
GMM004
 100
AcDbAlignedDimension
  13
 1334.7050561798
  23
 4510.1123595506
  33
0.0
  14
 1334.7050561798
  24
 4965.1123595506
  34
0.0
  50
 90.000000000000
 100
AcDbRotatedDimension
   0
LEADER
   5
3A3
 100
AcDbEntity
   8
LEVEL001
 370
13
   6
CONTINUOUS
  62
1
 100
AcDbLeader
   3
GMM005
  73
3
  74
1
  75
0
  40
 60.000000000000
  41
0.0
  76
2
  10
 1717.2050561798
  20
 4966.0123595506
  30
0.0
  10
 2219.5183689888
  20
 5162.1036253404
  30
0.0
  77
1
   0
DIMENSION
   5
3A4
 100
AcDbEntity
   8
LEVEL001
 370
13
   6
CONTINUOUS
  62
1
 100
AcDbDimension
   2
*D16
  10
 1734.7050561798
  20
 989.21235955056
  30
0.0
  11
 1484.7050561798
  21
 989.21235955056
  31
0.0
  70
128
   1
\A1;□500
   3
GMM006
 100
AcDbAlignedDimension
  13
 1234.7050561798
  23
 1189.2123595506
  33
0.0
  14
 1734.7050561798
  24
 1189.2123595506
  34
0.0
 100
AcDbRotatedDimension
   0
DIMENSION
   5
3A5
 100
AcDbEntity
   8
LEVEL001
 370
13
   6
CONTINUOUS
  62
1
 100
AcDbDimension
   2
*D17
  10
 2884.7050561798
  20
 989.21235955056
  30
0.0
  11
 2634.7050561798
  21
 989.21235955056
  31
0.0
  70
128
   1
\A1;□500
   3
GMM006
 100
AcDbAlignedDimension
  13
 2384.7050561798
  23
 1189.2123595506
  33
0.0
  14
 2884.7050561798
  24
 1189.2123595506
  34
0.0
 100
AcDbRotatedDimension
   0
MTEXT
   5
3A6
 100
AcDbEntity
   8
LEVEL001
 370
13
  62
1
 100
AcDbMText
  10
 1834.7050561798
  20
 2810.6409309792
  30
0.0
  40
 42.857142857142
  41
0.0
  71
1
  72
1
   1
{\T1.000000;支柱}\P%%c{\T1.000000;７６}{\T1.000000;.}{\T1.000000;３×３}{\T1.000000;.}{\T1.000000;２ｔ}\P{\T1.000000;×３６００Ｌ}
   7
GMM001
  44
 0.79999984000003
   0
POINT
   5
3A7
 100
AcDbEntity
   8
LEVEL001
 100
AcDbPoint
  62
3
  10
 6384.7050561798
  20
 777.61235955056
  30
0.0
   0
POINT
   5
3A8
 100
AcDbEntity
   8
LEVEL001
 100
AcDbPoint
  62
3
  10
 6284.7050561798
  20
 777.61235955056
  30
0.0
   0
POINT
   5
3A9
 100
AcDbEntity
   8
LEVEL001
 100
AcDbPoint
  62
3
  10
 6384.7050561798
  20
 877.61235955056
  30
0.0
   0
LINE
   5
3AA
 100
AcDbEntity
   8
LEVEL001
 370
13
 100
AcDbLine
   6
CONTINUOUS
  62
2
  10
 5444.7050561798
  20
 717.61235955056
  30
0.0
  11
 7124.7050561798
  21
 717.61235955056
  31
0.0
   0
MTEXT
   5
3AB
 100
AcDbEntity
   8
LEVEL001
 370
13
  62
2
 100
AcDbMText
  10
 5454.7050561798
  20
 907.61235955056
  30
0.0
  40
 38.571428571428
  41
0.0
  71
4
  72
1
   1
\T1.370378;図面番号
   7
GMM001
  44
 0.79999984000003
   0
LWPOLYLINE
   5
3AC
 100
AcDbEntity
   8
0
 370
13
   6
CONTINUOUS
  62
6
 100
AcDbPolyline
  90
4
  70
1
  10
 5444.7050561798
  20
 937.61235955056
  10
 8084.7050561798
  20
 937.61235955056
  10
 8084.7050561798
  20
 3337.6123595506
  10
 5444.7050561798
  20
 3337.6123595506
   0
MTEXT
   5
3AD
 100
AcDbEntity
   8
LEVEL001
 370
13
  62
1
 100
AcDbMText
  10
 5616.7050561798
  20
 1117.6123595506
  30
0.0
  40
 51.428571428572
  41
0.0
  71
6
  72
1
   1
\T1.000000;１４
   7
GMM001
  44
 0.79999984000003
   0
MTEXT
   5
3AE
 100
AcDbEntity
   8
LEVEL001
 370
13
  62
1
 100
AcDbMText
  10
 5616.7050561798
  20
 1237.6123595506
  30
0.0
  40
 51.428571428572
  41
0.0
  71
6
  72
1
   1
\T1.000000;１３
   7
GMM001
  44
 0.79999984000003
   0
MTEXT
   5
3AF
 100
AcDbEntity
   8
LEVEL001
 370
13
  62
1
 100
AcDbMText
  10
 5616.7050561798
  20
 1357.6123595506
  30
0.0
  40
 51.428571428572
  41
0.0
  71
6
  72
1
   1
\T1.000000;１２
   7
GMM001
  44
 0.79999984000003
   0
MTEXT
   5
3B0
 100
AcDbEntity
   8
LEVEL001
 370
13
  62
1
 100
AcDbMText
  10
 5616.7050561798
  20
 1477.6123595506
  30
0.0
  40
 51.428571428572
  41
0.0
  71
6
  72
1
   1
\T1.000000;１１
   7
GMM001
  44
 0.79999984000003
   0
MTEXT
   5
3B1
 100
AcDbEntity
   8
LEVEL001
 370
13
  62
1
 100
AcDbMText
  10
 5616.7050561798
  20
 1597.6123595506
  30
0.0
  40
 51.428571428572
  41
0.0
  71
6
  72
1
   1
\T1.000000;１０
   7
GMM001
  44
 0.79999984000003
   0
MTEXT
   5
3B2
 100
AcDbEntity
   8
LEVEL001
 370
13
  62
1
 100
AcDbMText
  10
 5684.7050561798
  20
 1117.6123595506
  30
0.0
  40
 51.428571428572
  41
0.0
  71
4
  72
1
   1
\T1.000000;同上ボルトナット
   7
GMM001
  44
 0.79999984000003
   0
MTEXT
   5
3B3
 100
AcDbEntity
   8
LEVEL001
 370
13
  62
1
 100
AcDbMText
  10
 5684.7050561798
  20
 1237.6123595506
  30
0.0
  40
 51.428571428572
  41
0.0
  71
4
  72
1
   1
\T1.000000;注意板取付バンド
   7
GMM001
  44
 0.79999984000003
   0
MTEXT
   5
3B4
 100
AcDbEntity
   8
LEVEL001
 370
13
  62
1
 100
AcDbMText
  10
 5684.7050561798
  20
 1477.6123595506
  30
0.0
  40
 51.428571428572
  41
0.0
  71
4
  72
1
   1
\T1.000000;キャップ
   7
GMM001
  44
 0.79999984000003
   0
MTEXT
   5
3B5
 100
AcDbEntity
   8
LEVEL001
 370
13
  62
1
 100
AcDbMText
  10
 5684.7050561798
  20
 1597.6123595506
  30
0.0
  40
 51.428571428572
  41
0.0
  71
4
  72
1
   1
\T1.000000;根入れ鉄筋
   7
GMM001
  44
 0.79999984000003
   0
MTEXT
   5
3B6
 100
AcDbEntity
   8
LEVEL001
 370
13
  62
1
 100
AcDbMText
  10
 6696.7050561798
  20
 1357.6123595506
  30
0.0
  40
 51.428571428572
  41
0.0
  71
6
  72
1
   1
\T1.000000;１
   7
GMM001
  44
 0.79999984000003
   0
MTEXT
   5
3B7
 100
AcDbEntity
   8
LEVEL001
 370
13
  62
1
 100
AcDbMText
  10
 6696.7050561798
  20
 1477.6123595506
  30
0.0
  40
 51.428571428572
  41
0.0
  71
6
  72
1
   1
\T1.000000;１
   7
GMM001
  44
 0.79999984000003
   0
MTEXT
   5
3B8
 100
AcDbEntity
   8
LEVEL001
 370
13
  62
1
 100
AcDbMText
  10
 6696.7050561798
  20
 1597.6123595506
  30
0.0
  40
 51.428571428572
  41
0.0
  71
6
  72
1
   1
\T1.000000;１
   7
GMM001
  44
 0.79999984000003
   0
MTEXT
   5
3B9
 100
AcDbEntity
   8
LEVEL001
 370
13
  62
1
 100
AcDbMText
  10
 6774.7050561798
  20
 1474.7595749423
  30
0.0
  40
 51.428571428572
  41
0.0
  71
4
  72
1
   1
\T1.000000;ＰＥ
   7
GMM001
  44
 0.79999984000003
   0
MTEXT
   5
3BA
 100
AcDbEntity
   8
LEVEL001
 370
13
  62
1
 100
AcDbMText
  10
 6764.7050561798
  20
 1597.6123595506
  30
0.0
  40
 51.428571428572
  41
0.0
  71
4
  72
1
   1
\T1.000000;ＳＤ２９５Ａ
   7
GMM001
  44
 0.79999984000003
   0
MTEXT
   5
3BB
 100
AcDbEntity
   8
LEVEL001
 370
13
  62
1
 100
AcDbMText
  10
 5684.7050561798
  20
 1357.6123595506
  30
0.0
  40
 51.428571428572
  41
0.0
  71
4
  72
1
   1
\T1.000000;注意板
   7
GMM001
  44
 0.79999984000003
   0
MTEXT
   5
3BC
 100
AcDbEntity
   8
LEVEL001
 370
13
  62
1
 100
AcDbMText
  10
 6696.7050561798
  20
 1237.6123595506
  30
0.0
  40
 51.428571428572
  41
0.0
  71
6
  72
1
   1
\T1.000000;１式
   7
GMM001
  44
 0.79999984000003
   0
MTEXT
   5
3BD
 100
AcDbEntity
   8
LEVEL001
 370
13
  62
1
 100
AcDbMText
  10
 6696.7050561798
  20
 1117.6123595506
  30
0.0
  40
 51.428571428572
  41
0.0
  71
6
  72
1
   1
\T1.000000;１式
   7
GMM001
  44
 0.79999984000003
   0
MTEXT
   5
3BE
 100
AcDbEntity
   8
LEVEL001
 370
13
  62
1
 100
AcDbMText
  10
 6764.7050561798
  20
 1117.6123595506
  30
0.0
  40
 51.428571428572
  41
0.0
  71
4
  72
1
   1
\T1.000000;―
   7
GMM001
  44
 0.79999984000003
   0
MTEXT
   5
3BF
 100
AcDbEntity
   8
LEVEL001
 370
13
  62
1
 100
AcDbMText
  10
 6764.7050561798
  20
 1237.6123595506
  30
0.0
  40
 51.428571428572
  41
0.0
  71
4
  72
1
   1
\T1.000000;―
   7
GMM001
  44
 0.79999984000003
   0
MTEXT
   5
3C0
 100
AcDbEntity
   8
LEVEL001
 370
13
  62
1
 100
AcDbMText
  10
 6764.7050561798
  20
 1357.6123595506
  30
0.0
  40
 51.428571428572
  41
0.0
  71
4
  72
1
   1
\T1.000000;―
   7
GMM001
  44
 0.79999984000003
   0
MTEXT
   5
3C1
 100
AcDbEntity
   8
LEVEL001
 370
13
  62
1
 100
AcDbMText
  10
 7324.7050561798
  20
 1237.6123595506
  30
0.0
  40
 51.428571428572
  41
0.0
  71
4
  72
1
   1
\T1.000000;―
   7
GMM001
  44
 0.79999984000003
   0
MTEXT
   5
3C2
 100
AcDbEntity
   8
LEVEL001
 370
13
  62
1
 100
AcDbMText
  10
 7324.7050561798
  20
 1117.6123595506
  30
0.0
  40
 51.428571428572
  41
0.0
  71
4
  72
1
   1
\T1.000000;―
   7
GMM001
  44
 0.79999984000003
   0
LINE
   5
3C3
 100
AcDbEntity
   8
0
 370
13
 100
AcDbLine
   6
CONTINUOUS
  62
6
  10
 6524.7050561798
  20
 1777.6123595506
  30
0.0
  11
 8084.7050561798
  21
 1777.6123595506
  31
0.0
   0
MTEXT
   5
3C4
 100
AcDbEntity
   8
0
 370
13
  62
1
 100
AcDbMText
  10
 6695.6840299338
  20
 1683.8812093050
  30
0.0
  40
 51.428571428571
  41
0.0
  71
9
  72
1
   1
\T1.000000;１
   7
GMM001
  44
 0.79999984000003
   0
MTEXT
   5
3C5
 100
AcDbEntity
   8
0
 370
13
  62
1
 100
AcDbMText
  10
 6764.2884473112
  20
 1683.8812093050
  30
0.0
  40
 51.428571428571
  41
0.0
  71
7
  72
1
   1
\T1.000000;ＳＴＫ４００
   7
GMM001
  44
 0.79999984000003
   0
MTEXT
   5
3C6
 100
AcDbEntity
   8
0
 370
13
  62
1
 100
AcDbMText
  10
 7326.0865854297
  20
 1723.4724305215
  30
0.0
  40
 34.285720000000
  41
0.0
  71
4
  72
1
   1
{\T1.000000;下地亜鉛メッキ}\P{\T1.000000;＋静電粉体塗装}
   7
GMM007
  44
 0.79999984000003
   0
MTEXT
   5
3C7
 100
AcDbEntity
   8
LEVEL001
 370
13
  62
1
 100
AcDbMText
  10
 5684.7050561798
  20
 3517.6123595506
  30
0.0
  40
 51.428580000000
  41
0.0
  71
1
  72
1
   1
{\T1.000000;※構成部材は改良のため、変更する場合があります。}\P{\T1.000000;※本図は道路反射鏡ハンドブックに基づいています。}
   7
GMM001
  44
 0.79999984000003
   0
MTEXT
   5
3C8
 100
AcDbEntity
   8
LEVEL001
 370
13
  62
1
 100
AcDbMText
  10
 6284.7050561798
  20
 781.83110955056
  30
0.0
  40
 42.857142857142
  41
0.0
  71
5
  72
1
   1
\T1.000000;ＭＺＨ４５６ＳＣＰ
   7
GMM001
  44
 0.79999984000003
   0
MTEXT
   5
3C9
 100
AcDbEntity
   8
LEVEL001
 370
13
  62
1
 100
AcDbMText
  10
 7324.7050561798
  20
 2730.7618390988
  30
0.0
  40
 34.285714285714
  41
0.0
  71
1
  72
1
   1
{\T1.000000;ＺＡＭ処理鋼板}\P{\T1.000000;プレス成型}
   7
GMM007
  44
 1.0099997980000
   0
LINE
   5
3CA
 100
AcDbEntity
   8
LEVEL001
 370
13
 100
AcDbLine
   6
CONTINUOUS
  62
7
  10
 284.70505617976
  20
 237.61235955056
  30
0.0
  11
 8084.7050561798
  21
 237.61235955056
  31
0.0
   0
INSERT
   5
3CB
 100
AcDbEntity
   8
0
 100
AcDbBlockReference
   2
BLOCK001
  10
0.0
  20
0.0
  30
0.0
   0
INSERT
   5
3CC
 100
AcDbEntity
   8
0
 100
AcDbBlockReference
   2
BLOCK002
  10
0.0
  20
0.0
  30
0.0
   0
INSERT
   5
3CD
 100
AcDbEntity
   8
0
 100
AcDbBlockReference
   2
BLOCK003
  10
0.0
  20
0.0
  30
0.0
   0
LINE
   5
3CE
 100
AcDbEntity
   8
LEVEL001
 370
13
 100
AcDbLine
   6
CONTINUOUS
  62
7
  10
 2932.8536649483
  20
 4389.2119671785
  30
0.0
  11
 2930.1397581850
  21
 4382.4272002697
  31
0.0
   0
ARC
   5
3CF
 100
AcDbEntity
   8
LEVEL001
 370
13
   6
CONTINUOUS
  62
7
 100
AcDbCircle
  10
 2934.7821416394
  20
 4380.5702468879
  30
0.0
  40
 5.0000000000000
 100
AcDbArc
  50
 158.19859051363
  51
 180.00000000008
   0
LINE
   5
3D0
 100
AcDbEntity
   8
LEVEL001
 370
13
 100
AcDbLine
   6
CONTINUOUS
  62
7
  10
 2929.7821416394
  20
 4380.5702468879
  30
0.0
  11
 2929.7821416394
  21
 3797.8536874675
  31
0.0
   0
LINE
   5
3D1
 100
AcDbEntity
   8
LEVEL001
 370
13
 100
AcDbLine
   6
CONTINUOUS
  62
6
  10
 2936.7821416394
  20
 4318.2120282167
  30
0.0
  11
 2936.7821416394
  21
 4319.2119671777
  31
0.0
   0
ARC
   5
3D2
 100
AcDbEntity
   8
LEVEL001
 370
13
   6
CONTINUOUS
  62
7
 100
AcDbCircle
  10
 2928.7821416394
  20
 4373.3643207195
  30
0.0
  40
 5.0000000000000
 100
AcDbArc
  50
 359.99999999992
  51
 21.801409486367
   0
LINE
   5
3D3
 100
AcDbEntity
   8
LEVEL001
 370
13
 100
AcDbLine
   6
CONTINUOUS
  62
7
  10
 2931.6222542390
  20
 4379.7269512379
  30
0.0
  11
 2933.4245250938
  21
 4375.2212741011
  31
0.0
   0
ARC
   5
3D4
 100
AcDbEntity
   8
LEVEL001
 370
13
   6
CONTINUOUS
  62
7
 100
AcDbCircle
  10
 2936.2646376934
  20
 4381.5839046197
  30
0.0
  40
 5.0000000000000
 100
AcDbArc
  50
 158.19859051363
  51
 201.80140948637
   0
LINE
   5
3D5
 100
AcDbEntity
   8
LEVEL001
 370
13
 100
AcDbLine
   6
CONTINUOUS
  62
7
  10
 2932.8536649483
  20
 4389.2119671785
  30
0.0
  11
 2933.7821416394
  21
 4388.8405765021
  31
0.0
   0
LINE
   5
3D6
 100
AcDbEntity
   8
LEVEL001
 370
13
 100
AcDbLine
   6
CONTINUOUS
  62
7
  10
 2933.7821416394
  20
 4388.8405765021
  30
0.0
  11
 2931.6222542390
  21
 4383.4408580015
  31
0.0
   0
LINE
   5
3D7
 100
AcDbEntity
   8
LEVEL001
 370
13
 100
AcDbLine
   6
CONTINUOUS
  62
7
  10
 2933.7821416394
  20
 4373.3643207195
  30
0.0
  11
 2933.7821416394
  21
 3805.0596136359
  31
0.0
   0
LINE
   5
3D8
 100
AcDbEntity
   8
LEVEL001
 370
13
 100
AcDbLine
   6
CONTINUOUS
  62
7
  10
 2936.7821416394
  20
 4319.2119671777
  30
0.0
  11
 2933.7821416394
  21
 4319.2119671777
  31
0.0
   0
LINE
   5
3D9
 100
AcDbEntity
   8
LEVEL001
 370
13
 100
AcDbLine
   6
CONTINUOUS
  62
6
  10
 2933.7821416394
  20
 4318.2120282167
  30
0.0
  11
 2936.7821416394
  21
 4318.2120282167
  31
0.0
   0
LINE
   5
3DA
 100
AcDbEntity
   8
LEVEL001
 370
13
 100
AcDbLine
   6
CONTINUOUS
  62
7
  10
 2937.2376204184
  20
 4304.2116010253
  30
0.0
  11
 2937.2380781824
  21
 4262.2116927419
  31
0.0
   0
ELLIPSE
   5
3DB
 100
AcDbEntity
   8
LEVEL001
 370
13
   6
CONTINUOUS
  62
7
 100
AcDbEllipse
  10
 2933.2376178686
  20
 4304.2117229765
  30
0.0
  11
-4.0000025516047
  21
0.0
  31
0.0
  40
 0.99999938800000
  41
 3.1415621657857
  42
-1.7073511820388
   0
LINE
   5
3DC
 100
AcDbEntity
   8
LEVEL001
 370
13
 100
AcDbLine
   6
CONTINUOUS
  62
7
  10
 2937.2376476624
  20
 4301.7119674585
  30
0.0
  11
 3042.7821416394
  21
 4301.7119674585
  31
0.0
   0
LINE
   5
3DD
 100
AcDbEntity
   8
LEVEL001
 370
13
 100
AcDbLine
   6
CONTINUOUS
  62
7
  10
 3042.7821416394
  20
 4264.7119674585
  30
0.0
  11
 2937.2380509314
  21
 4264.7119674585
  31
0.0
   0
LINE
   5
3DE
 100
AcDbEntity
   8
LEVEL001
 370
13
 100
AcDbLine
   6
CONTINUOUS
  62
7
  10
 2933.7821416394
  20
 4264.7119674585
  30
0.0
  11
 2933.7821416394
  21
 4301.7119674585
  31
0.0
   0
LINE
   5
3DF
 100
AcDbEntity
   8
LEVEL001
 370
13
 100
AcDbLine
   6
CONTINUOUS
  62
6
  10
 2936.7821416394
  20
 4247.2119674585
  30
0.0
  11
 2936.7821416394
  21
 4248.2119979723
  31
0.0
   0
LINE
   5
3E0
 100
AcDbEntity
   8
LEVEL001
 370
13
 100
AcDbLine
   6
CONTINUOUS
  62
6
  10
 2936.7821416394
  20
 4248.2119979723
  30
0.0
  11
 2933.7821416394
  21
 4248.2119979723
  31
0.0
   0
ELLIPSE
   5
3E1
 100
AcDbEntity
   8
LEVEL001
 370
13
   6
CONTINUOUS
  62
7
 100
AcDbEllipse
  10
 2933.2380756312
  20
 4262.2117538943
  30
0.0
  11
-4.0000025516047
  21
0.0
  31
0.0
  40
 0.99999938800000
  41
 1.7072356670414
  42
 3.1415773654645
   0
LINE
   5
3E2
 100
AcDbEntity
   8
LEVEL001
 370
13
 100
AcDbLine
   6
CONTINUOUS
  62
7
  10
 2933.7821416394
  20
 4247.2119674585
  30
0.0
  11
 2936.7821416394
  21
 4247.2119674585
  31
0.0
   0
LINE
   5
3E3
 100
AcDbEntity
   8
LEVEL001
 370
13
 100
AcDbLine
   6
CONTINUOUS
  62
7
  10
 2933.7821416394
  20
 3931.2119668967
  30
0.0
  11
 2936.7821416394
  21
 3931.2119668967
  31
0.0
   0
LINE
   5
3E4
 100
AcDbEntity
   8
LEVEL001
 370
13
 100
AcDbLine
   6
CONTINUOUS
  62
6
  10
 2936.7821416394
  20
 3931.2119668967
  30
0.0
  11
 2936.7821416394
  21
 3930.2119363831
  31
0.0
   0
LINE
   5
3E5
 100
AcDbEntity
   8
LEVEL001
 370
13
 100
AcDbLine
   6
CONTINUOUS
  62
6
  10
 2936.7821416394
  20
 3930.2119363831
  30
0.0
  11
 2933.7821416394
  21
 3930.2119363831
  31
0.0
   0
LINE
   5
3E6
 100
AcDbEntity
   8
LEVEL001
 370
13
 100
AcDbLine
   6
CONTINUOUS
  62
7
  10
 2937.2376204184
  20
 3874.2123333301
  30
0.0
  11
 2937.2380781824
  21
 3916.2122416135
  31
0.0
   0
ELLIPSE
   5
3E7
 100
AcDbEntity
   8
LEVEL001
 370
13
   6
CONTINUOUS
  62
7
 100
AcDbEllipse
  10
 2933.2380756312
  20
 3916.2121804609
  30
0.0
  11
-4.0000025516047
  21
0.0
  31
0.0
  40
 0.99999938800000
  41
-3.1415773654645
  42
-1.7072356670409
   0
LINE
   5
3E8
 100
AcDbEntity
   8
LEVEL001
 370
13
 100
AcDbLine
   6
CONTINUOUS
  62
6
  10
 2936.7821416394
  20
 3860.2119061387
  30
0.0
  11
 2936.7821416394
  21
 3859.2119671777
  31
0.0
   0
LINE
   5
3E9
 100
AcDbEntity
   8
LEVEL001
 370
13
 100
AcDbLine
   6
CONTINUOUS
  62
6
  10
 2933.7821416394
  20
 3860.2119061387
  30
0.0
  11
 2936.7821416394
  21
 3860.2119061387
  31
0.0
   0
ELLIPSE
   5
3EA
 100
AcDbEntity
   8
LEVEL001
 370
13
   6
CONTINUOUS
  62
7
 100
AcDbEllipse
  10
 2933.2376178686
  20
 3874.2122113789
  30
0.0
  11
-4.0000025516047
  21
0.0
  31
0.0
  40
 0.99999938800000
  41
 1.7073511820393
  42
-3.1415621657820
   0
LINE
   5
3EB
 100
AcDbEntity
   8
LEVEL001
 370
13
 100
AcDbLine
   6
CONTINUOUS
  62
7
  10
 2936.7821416394
  20
 3859.2119671777
  30
0.0
  11
 2933.7821416394
  21
 3859.2119671777
  31
0.0
   0
ARC
   5
3EC
 100
AcDbEntity
   8
LEVEL001
 370
13
   6
CONTINUOUS
  62
7
 100
AcDbCircle
  10
 2934.7821416394
  20
 3797.8536874675
  30
0.0
  40
 5.0000000000000
 100
AcDbArc
  50
 179.99999999992
  51
 201.80140948637
   0
LINE
   5
3ED
 100
AcDbEntity
   8
LEVEL001
 370
13
 100
AcDbLine
   6
CONTINUOUS
  62
7
  10
 2932.8536649483
  20
 3789.2119671769
  30
0.0
  11
 2930.1397581850
  21
 3795.9967340857
  31
0.0
   0
ARC
   5
3EE
 100
AcDbEntity
   8
LEVEL001
 370
13
   6
CONTINUOUS
  62
7
 100
AcDbCircle
  10
 2928.7821416394
  20
 3805.0596136359
  30
0.0
  40
 5.0000000000000
 100
AcDbArc
  50
 338.19859051363
  51
 0.83376332641757E-10
   0
LINE
   5
3EF
 100
AcDbEntity
   8
LEVEL001
 370
13
 100
AcDbLine
   6
CONTINUOUS
  62
7
  10
 2931.6222542390
  20
 3798.6969831175
  30
0.0
  11
 2933.4245250938
  21
 3803.2026602541
  31
0.0
   0
ARC
   5
3F0
 100
AcDbEntity
   8
LEVEL001
 370
13
   6
CONTINUOUS
  62
7
 100
AcDbCircle
  10
 2936.2646376934
  20
 3796.8400297357
  30
0.0
  40
 5.0000000000000
 100
AcDbArc
  50
 158.19859051363
  51
 201.80140948637
   0
LINE
   5
3F1
 100
AcDbEntity
   8
LEVEL001
 370
13
 100
AcDbLine
   6
CONTINUOUS
  62
7
  10
 2932.8536649483
  20
 3789.2119671769
  30
0.0
  11
 2933.7821416394
  21
 3789.5833578533
  31
0.0
   0
LINE
   5
3F2
 100
AcDbEntity
   8
LEVEL001
 370
13
 100
AcDbLine
   6
CONTINUOUS
  62
7
  10
 2933.7821416394
  20
 3789.5833578533
  30
0.0
  11
 2931.6222542390
  21
 3794.9830763539
  31
0.0
   0
LINE
   5
3F3
 100
AcDbEntity
   8
LEVEL001
 370
13
 100
AcDbLine
   6
CONTINUOUS
  62
7
  10
 2937.2380509314
  20
 3913.7119671777
  30
0.0
  11
 3042.7821466116
  21
 3913.7119671777
  31
0.0
   0
LINE
   5
3F4
 100
AcDbEntity
   8
LEVEL001
 370
13
 100
AcDbLine
   6
CONTINUOUS
  62
7
  10
 3042.7821466116
  20
 3876.7119671777
  30
0.0
  11
 2937.2376476624
  21
 3876.7119671777
  31
0.0
   0
LINE
   5
3F5
 100
AcDbEntity
   8
LEVEL001
 370
13
 100
AcDbLine
   6
CONTINUOUS
  62
6
  10
 3021.6101476112
  20
 3888.7119671777
  30
0.0
  11
 2949.4909757856
  21
 3888.7119671777
  31
0.0
   0
LINE
   5
3F6
 100
AcDbEntity
   8
LEVEL001
 370
13
 100
AcDbLine
   6
CONTINUOUS
  62
6
  10
 2949.4909757856
  20
 3901.7119671777
  30
0.0
  11
 3021.6101476112
  21
 3901.7119671777
  31
0.0
   0
LINE
   5
3F7
 100
AcDbEntity
   8
LEVEL001
 370
13
 100
AcDbLine
   6
CONTINUOUS
  62
6
  10
 2948.2300812160
  20
 3900.7119671777
  30
0.0
  11
 2948.2300812160
  21
 3889.7119671777
  31
0.0
   0
LINE
   5
3F8
 100
AcDbEntity
   8
LEVEL001
 370
13
 100
AcDbLine
   6
CONTINUOUS
  62
6
  10
 2948.2300812160
  20
 3911.7119671777
  30
0.0
  11
 2948.2300812160
  21
 3902.7119671777
  31
0.0
   0
LINE
   5
3F9
 100
AcDbEntity
   8
LEVEL001
 370
13
 100
AcDbLine
   6
CONTINUOUS
  62
6
  10
 2948.2300812160
  20
 3887.7119671777
  30
0.0
  11
 2948.2300812160
  21
 3878.7119671777
  31
0.0
   0
LINE
   5
3FA
 100
AcDbEntity
   8
LEVEL001
 370
13
 100
AcDbLine
   6
CONTINUOUS
  62
6
  10
 3021.6101476112
  20
 3911.7119671777
  30
0.0
  11
 3021.6101476112
  21
 3902.7119671777
  31
0.0
   0
LINE
   5
3FB
 100
AcDbEntity
   8
LEVEL001
 370
13
 100
AcDbLine
   6
CONTINUOUS
  62
6
  10
 3021.6101476112
  20
 3887.7119671777
  30
0.0
  11
 3021.6101476112
  21
 3878.7119671777
  31
0.0
   0
LINE
   5
3FC
 100
AcDbEntity
   8
LEVEL001
 370
13
 100
AcDbLine
   6
CONTINUOUS
  62
7
  10
 3037.7821466116
  20
 3890.2119671777
  30
0.0
  11
 3027.7821466116
  21
 3890.2119671777
  31
0.0
   0
LINE
   5
3FD
 100
AcDbEntity
   8
LEVEL001
 370
13
 100
AcDbLine
   6
CONTINUOUS
  62
7
  10
 3027.7821466116
  20
 3890.2119671777
  30
0.0
  11
 3027.7821466116
  21
 3900.2119671777
  31
0.0
   0
LINE
   5
3FE
 100
AcDbEntity
   8
LEVEL001
 370
13
 100
AcDbLine
   6
CONTINUOUS
  62
7
  10
 3027.7821466116
  20
 3900.2119671777
  30
0.0
  11
 3037.7821466116
  21
 3900.2119671777
  31
0.0
   0
LINE
   5
3FF
 100
AcDbEntity
   8
LEVEL001
 370
13
 100
AcDbLine
   6
CONTINUOUS
  62
7
  10
 3037.7821466116
  20
 3900.2119671777
  30
0.0
  11
 3037.7821466116
  21
 3890.2119671777
  31
0.0
   0
LINE
   5
400
 100
AcDbEntity
   8
LEVEL001
 370
13
 100
AcDbLine
   6
CONTINUOUS
  62
6
  10
 3023.9286726526
  20
 3901.7119671777
  30
0.0
  11
 3023.9286726526
  21
 3888.7119671777
  31
0.0
   0
LINE
   5
401
 100
AcDbEntity
   8
LEVEL001
 370
13
 100
AcDbLine
   6
CONTINUOUS
  62
7
  10
 3042.7821466116
  20
 3913.7119671777
  30
0.0
  11
 3042.7821466116
  21
 3876.7119671777
  31
0.0
   0
LINE
   5
402
 100
AcDbEntity
   8
LEVEL001
 370
13
 100
AcDbLine
   6
CONTINUOUS
  62
6
  10
 2948.2300762436
  20
 4288.7119674585
  30
0.0
  11
 2948.2300762436
  21
 4277.7119674585
  31
0.0
   0
LINE
   5
403
 100
AcDbEntity
   8
LEVEL001
 370
13
 100
AcDbLine
   6
CONTINUOUS
  62
6
  10
 2948.2300762436
  20
 4275.7119674585
  30
0.0
  11
 2948.2300762436
  21
 4266.7119674585
  31
0.0
   0
LINE
   5
404
 100
AcDbEntity
   8
LEVEL001
 370
13
 100
AcDbLine
   6
CONTINUOUS
  62
6
  10
 2948.2300762436
  20
 4299.7119674585
  30
0.0
  11
 2948.2300762436
  21
 4290.7119674585
  31
0.0
   0
LINE
   5
405
 100
AcDbEntity
   8
LEVEL001
 370
13
 100
AcDbLine
   6
CONTINUOUS
  62
6
  10
 3021.6101426390
  20
 4276.7119674585
  30
0.0
  11
 2949.4909708132
  21
 4276.7119674585
  31
0.0
   0
LINE
   5
406
 100
AcDbEntity
   8
LEVEL001
 370
13
 100
AcDbLine
   6
CONTINUOUS
  62
6
  10
 2949.4909708132
  20
 4289.7119674585
  30
0.0
  11
 3021.6101426390
  21
 4289.7119674585
  31
0.0
   0
LINE
   5
407
 100
AcDbEntity
   8
LEVEL001
 370
13
 100
AcDbLine
   6
CONTINUOUS
  62
6
  10
 3021.6101426390
  20
 4299.7119674585
  30
0.0
  11
 3021.6101426390
  21
 4290.7119674585
  31
0.0
   0
LINE
   5
408
 100
AcDbEntity
   8
LEVEL001
 370
13
 100
AcDbLine
   6
CONTINUOUS
  62
6
  10
 3021.6101426390
  20
 4275.7119674585
  30
0.0
  11
 3021.6101426390
  21
 4266.7119674585
  31
0.0
   0
LINE
   5
409
 100
AcDbEntity
   8
LEVEL001
 370
13
 100
AcDbLine
   6
CONTINUOUS
  62
7
  10
 3037.7821416394
  20
 4278.2119674585
  30
0.0
  11
 3027.7821416394
  21
 4278.2119674585
  31
0.0
   0
LINE
   5
40A
 100
AcDbEntity
   8
LEVEL001
 370
13
 100
AcDbLine
   6
CONTINUOUS
  62
7
  10
 3027.7821416394
  20
 4278.2119674585
  30
0.0
  11
 3027.7821416394
  21
 4288.2119674585
  31
0.0
   0
LINE
   5
40B
 100
AcDbEntity
   8
LEVEL001
 370
13
 100
AcDbLine
   6
CONTINUOUS
  62
7
  10
 3027.7821416394
  20
 4288.2119674585
  30
0.0
  11
 3037.7821416394
  21
 4288.2119674585
  31
0.0
   0
LINE
   5
40C
 100
AcDbEntity
   8
LEVEL001
 370
13
 100
AcDbLine
   6
CONTINUOUS
  62
7
  10
 3037.7821416394
  20
 4288.2119674585
  30
0.0
  11
 3037.7821416394
  21
 4278.2119674585
  31
0.0
   0
LINE
   5
40D
 100
AcDbEntity
   8
LEVEL001
 370
13
 100
AcDbLine
   6
CONTINUOUS
  62
6
  10
 3023.9286676802
  20
 4289.7119674585
  30
0.0
  11
 3023.9286676802
  21
 4276.7119674585
  31
0.0
   0
LINE
   5
40E
 100
AcDbEntity
   8
LEVEL001
 370
13
 100
AcDbLine
   6
CONTINUOUS
  62
7
  10
 3042.7821416394
  20
 4301.7119674585
  30
0.0
  11
 3042.7821416394
  21
 4264.7119674585
  31
0.0
   0
LINE
   5
40F
 100
AcDbEntity
   8
0
 370
13
 100
AcDbLine
   6
CONTINUOUS
  62
7
  10
 3022.8550561798
  20
 4264.7119674585
  30
0.0
  11
 3022.8550561798
  21
 3913.7119671777
  31
0.0
   0
LINE
   5
410
 100
AcDbEntity
   8
0
 370
13
 100
AcDbLine
   6
CONTINUOUS
  62
7
  10
 2946.5550561798
  20
 3913.7119671777
  30
0.0
  11
 2946.5550561798
  21
 4264.7119674585
  31
0.0
   0
LINE
   5
411
 100
AcDbEntity
   8
0
 370
13
 100
AcDbLine
   6
CONTINUOUS
  62
7
  10
 3022.8550561798
  20
 2355.2342452610
  30
0.0
  11
 3022.8550561798
  21
 3876.7119671777
  31
0.0
   0
LINE
   5
412
 100
AcDbEntity
   8
0
 370
13
 100
AcDbLine
   6
CONTINUOUS
  62
7
  10
 2946.5550561798
  20
 2355.2342452610
  30
0.0
  11
 2946.5550561798
  21
 3876.7119671777
  31
0.0
   0
LINE
   5
413
 100
AcDbEntity
   8
0
 370
13
 100
AcDbLine
   6
CONTINUOUS
  62
7
  10
 1446.5550561798
  20
 4489.2123595506
  30
0.0
  11
 1446.5550561798
  21
 4389.2123333886
  31
0.0
   0
LINE
   5
414
 100
AcDbEntity
   8
0
 370
13
 100
AcDbLine
   6
CONTINUOUS
  62
7
  10
 1522.8550561798
  20
 4389.2123333886
  30
0.0
  11
 1522.8550561798
  21
 4489.2123595506
  31
0.0
   0
LWPOLYLINE
   5
415
 100
AcDbEntity
   8
0
 370
13
   6
CONTINUOUS
  62
7
 100
AcDbPolyline
  90
4
  70
0
  10
 1446.5550561798
  20
 3789.2116009668
  10
 1446.5550561798
  20
 1289.2123595506
  10
 1522.8550561798
  20
 1289.2123595506
  10
 1522.8550561798
  20
 3789.2116009668
   0
DIMENSION
   5
416
 100
AcDbEntity
   8
0
 370
13
   6
CONTINUOUS
  62
1
 100
AcDbDimension
   2
*D18
  10
 734.70505617976
  20
 1189.2123595506
  30
0.0
  11
 734.70505617976
  21
 1239.2123595506
  31
0.0
  70
0
   3
GMM007
 100
AcDbAlignedDimension
  13
 1234.7050561798
  23
 1289.2123595506
  33
0.0
  14
 1234.7050561798
  24
 1189.2123595506
  34
0.0
  50
 270.00000000000
 100
AcDbRotatedDimension
   0
DIMENSION
   5
417
 100
AcDbEntity
   8
0
 370
13
   6
CONTINUOUS
  62
1
 100
AcDbDimension
   2
*D19
  10
 734.70505617976
  20
 1989.2123595506
  30
0.0
  11
 734.70505617976
  21
 1639.2123595506
  31
0.0
  70
0
   3
GMM007
 100
AcDbAlignedDimension
  13
 1234.7050561798
  23
 1289.2123595506
  33
0.0
  14
 984.70505617976
  24
 1989.2123595506
  34
0.0
  50
 90.000000000000
 100
AcDbRotatedDimension
   0
DIMENSION
   5
418
 100
AcDbEntity
   8
0
 370
13
   6
CONTINUOUS
  62
1
 100
AcDbDimension
   2
*D20
  10
 734.70505617976
  20
 4489.2123595506
  30
0.0
  11
 734.70505617976
  21
 3239.2123595506
  31
0.0
  70
0
   1
\A1;2500(標準設置高さ)
   3
GMM008
 100
AcDbAlignedDimension
  13
 984.70505617976
  23
 1989.2123595506
  33
0.0
  14
 1252.2050561798
  24
 4489.2123595506
  34
0.0
  50
 90.000000000000
 100
AcDbRotatedDimension
   0
DIMENSION
   5
419
 100
AcDbEntity
   8
0
 370
13
   6
CONTINUOUS
  62
1
 100
AcDbDimension
   2
*D21
  10
 2984.7050561798
  20
 2789.2123595506
  30
0.0
  11
 2809.7050561798
  21
 2789.2123595506
  31
0.0
  70
0
   3
GMM009
 100
AcDbAlignedDimension
  13
 2634.7050561798
  23
 1789.2123595505
  33
0.0
  14
 2984.7050561798
  24
 2239.2123595506
  34
0.0
 100
AcDbRotatedDimension
   0
ENDSEC
  0
SECTION
  2
OBJECTS
  0
DICTIONARY
  5
C
100
AcDbDictionary
  3
ACAD_GROUP
350
D
  3
ACAD_MLINESTYLE
350
1B
  3
DWGPROPS
350
1C
  0
DICTIONARY
  5
D
102
{ACAD_REACTORS
330
C
102
}
100
AcDbDictionary
  0
DICTIONARY
  5
1B
102
{ACAD_REACTORS
330
C
102
}
100
AcDbDictionary
  3
STANDARD
350
1D
  0
MLINESTYLE
  5
1D
102
{ACAD_REACTORS
330
1B
102
}
100
AcDbMlineStyle
  2
STANDARD
 70
     0
  3

 62
   256
 51
90.0
 52
90.0
 71
     2
 49
0.5
 62
   256
  6
BYLAYER
 49
-0.5
 62
   256
  6
BYLAYER
   0
XRECORD
   5
1C
 102
{ACAD_REACTORS
 330
C
 102
}
 330
C
 100
AcDbXrecord
 280
1
   1
DWGPROPS COOKIE
   2
 
   3
 
   4
 
   6
 
   7
MZH456SCP
   8
 
   9

 300
 = 
 301
 = 
 302
 = 
 303
 = 
 304
 = 
 305
 = 
 306
 = 
 307
 = 
 308
 = 
 309
 = 
  40
0.0
  41
 2460339.5000000
  42
 2460342.5000000
   1

  90
10
   0
ENDSEC
   0
EOF
