   0
SECTION
   2
HEADER
   9
$ACADVER
   1
AC1015
   9
$DWGCODEPAGE
   3
ANSI_932
   9
$LIMMIN
  10
0.0
  20
0.0
   9
$LIMMAX
  10
 8400.0000000000
  20
 5940.0000000000
   9
$EXTMIN
  10
0.0
  20
0.0
  30
0.0
   9
$EXTMAX
  10
 8400.0000000000
  20
 5940.0000000000
  30
0.0
   9
$LTSCALE
  40
 168.00000000000
   9
$HANDSEED
   5
3FF
   0
ENDSEC
   0
SECTION
   2
TABLES
  0
TABLE
  2
VPORT
  5
8
100
AcDbSymbolTable
 70
     1
  0
VPORT
  5
3FE
100
AcDbSymbolTableRecord
100
AcDbViewportTableRecord
  2
*ACTIVE
 70
     0
 10
0.0
 20
0.0
 11
1.0
 21
1.0
  12
 4200.0000000000
  22
 2970.0000000000
 13
0.0
 23
0.0
 14
1.0
 24
1.0
 15
0.0
 25
0.0
 16
0.0
 26
0.0
 36
1.0
 17
0.0
 27
0.0
 37
0.0
  40
 8400.0000000000
  41
 1.4787878787879
 42
50.0
 43
0.0
 44
0.0
 50
0.0
 51
0.0
 71
     0
 72
   100
 73
     1
 74
     1
 75
     0
 76
     0
 77
     0
 78
     0
  0
ENDTAB
  0
TABLE
  2
LTYPE
  5
5
100
AcDbSymbolTable
 70
    25
  0
LTYPE
  5
12
100
AcDbSymbolTableRecord
100
AcDbLinetypeTableRecord
  2
BYBLOCK
 70
     0
  3

 72
    65
 73
     0
 40
0.0
  0
LTYPE
  5
13
100
AcDbSymbolTableRecord
100
AcDbLinetypeTableRecord
  2
BYLAYER
 70
     0
  3

 72
    65
 73
     0
 40
0.0
  0
LTYPE
  5
14
100
AcDbSymbolTableRecord
100
AcDbLinetypeTableRecord
  2
CONTINUOUS
 70
     0
  3
Solid line
 72
    65
 73
     0
 40
0.0
  0
LTYPE
  5
20
100
AcDbSymbolTableRecord
100
AcDbLinetypeTableRecord
  2
BORDER
 70
     0
  3
__ __ . __ __ . __ __ . __ __ . __ __ . __ __ .
 72
    65
 73
     6
 40
1.75
 49
0.5
 74
     0
 49
-0.25
 74
     0
 49
0.5
 74
     0
 49
-0.25
 74
     0
 49
0.0
 74
     0
 49
-0.25
 74
     0
  0
LTYPE
  5
21
100
AcDbSymbolTableRecord
100
AcDbLinetypeTableRecord
  2
BORDER2
 70
     0
  3
__.__.__.__.__.__.__.__.__.__.__.__.__.__.__.__
 72
    65
 73
     6
 40
0.875
 49
0.25
 74
     0
 49
-0.125
 74
     0
 49
0.25
 74
     0
 49
-0.125
 74
     0
 49
0.0
 74
     0
 49
-0.125
 74
     0
  0
LTYPE
  5
22
100
AcDbSymbolTableRecord
100
AcDbLinetypeTableRecord
  2
BORDERX2
 70
     0
  3
____  ____  .  ____  ____  .  ____  ____  .  __
 72
    65
 73
     6
 40
3.5
 49
1.0
 74
     0
 49
-0.5
 74
     0
 49
1.0
 74
     0
 49
-0.5
 74
     0
 49
0.0
 74
     0
 49
-0.5
 74
     0
  0
LTYPE
  5
23
100
AcDbSymbolTableRecord
100
AcDbLinetypeTableRecord
  2
CENTER
 70
     0
  3
____ _ ____ _ ____ _ ____ _ ____ _ ____ _ ____ 
 72
    65
 73
     4
 40
2.0
 49
1.25
 74
     0
 49
-0.25
 74
     0
 49
0.25
 74
     0
 49
-0.25
 74
     0
  0
LTYPE
  5
24
100
AcDbSymbolTableRecord
100
AcDbLinetypeTableRecord
  2
CENTER2
 70
     0
  3
___ _ ___ _ ___ _ ___ _ ___ _ ___ _ ___ _ ___ _
 72
    65
 73
     4
 40
1.125
 49
0.75
 74
     0
 49
-0.125
 74
     0
 49
0.125
 74
     0
 49
-0.125
 74
     0
  0
LTYPE
  5
25
100
AcDbSymbolTableRecord
100
AcDbLinetypeTableRecord
  2
CENTERX2
 70
     0
  3
________  __  ________  __  ________  __  _____
 72
    65
 73
     4
 40
4.0
 49
2.5
 74
     0
 49
-0.5
 74
     0
 49
0.5
 74
     0
 49
-0.5
 74
     0
  0
LTYPE
  5
26
100
AcDbSymbolTableRecord
100
AcDbLinetypeTableRecord
  2
DASHDOT
 70
     0
  3
__ . __ . __ . __ . __ . __ . __ . __ . __ . __
 72
    65
 73
     4
 40
1.0
 49
0.5
 74
     0
 49
-0.25
 74
     0
 49
0.0
 74
     0
 49
-0.25
 74
     0
  0
LTYPE
  5
27
100
AcDbSymbolTableRecord
100
AcDbLinetypeTableRecord
  2
DASHDOT2
 70
     0
  3
_._._._._._._._._._._._._._._._._._._._._._._._
 72
    65
 73
     4
 40
0.5
 49
0.25
 74
     0
 49
-0.125
 74
     0
 49
0.0
 74
     0
 49
-0.125
 74
     0
  0
LTYPE
  5
28
100
AcDbSymbolTableRecord
100
AcDbLinetypeTableRecord
  2
DASHDOTX2
 70
     0
  3
____  .  ____  .  ____  .  ____  .  ____  .  __
 72
    65
 73
     4
 40
2.0
 49
1.0
 74
     0
 49
-0.5
 74
     0
 49
0.0
 74
     0
 49
-0.5
 74
     0
  0
LTYPE
  5
29
100
AcDbSymbolTableRecord
100
AcDbLinetypeTableRecord
  2
DASHED
 70
     0
  3
__ __ __ __ __ __ __ __ __ __ __ __ __ __ __ __
 72
    65
 73
     2
 40
0.75
 49
0.5
 74
     0
 49
-0.25
 74
     0
  0
LTYPE
  5
2A
100
AcDbSymbolTableRecord
100
AcDbLinetypeTableRecord
  2
DASHED2
 70
     0
  3
_ _ _ _ _ _ _ _ _ _ _ _ _ _ _ _ _ _ _ _ _ _ _ _
 72
    65
 73
     2
 40
0.375
 49
0.25
 74
     0
 49
-0.125
 74
     0
  0
LTYPE
  5
2B
100
AcDbSymbolTableRecord
100
AcDbLinetypeTableRecord
  2
DASHEDX2
 70
     0
  3
____  ____  ____  ____  ____  ____  ____  ____ 
 72
    65
 73
     2
 40
1.5
 49
1.0
 74
     0
 49
-0.5
 74
     0
  0
LTYPE
  5
2C
100
AcDbSymbolTableRecord
100
AcDbLinetypeTableRecord
  2
DIVIDE
 70
     0
  3
____ . . ____ . . ____ . . ____ . . ____ . . __
 72
    65
 73
     6
 40
1.25
 49
0.5
 74
     0
 49
-0.25
 74
     0
 49
0.0
 74
     0
 49
-0.25
 74
     0
 49
0.0
 74
     0
 49
-0.25
 74
     0
  0
LTYPE
  5
2D
100
AcDbSymbolTableRecord
100
AcDbLinetypeTableRecord
  2
DIVIDE2
 70
     0
  3
__..__..__..__..__..__..__..__..__..__..__..__.
 72
    65
 73
     6
 40
0.625
 49
0.25
 74
     0
 49
-0.125
 74
     0
 49
0.0
 74
     0
 49
-0.125
 74
     0
 49
0.0
 74
     0
 49
-0.125
 74
     0
  0
LTYPE
  5
2E
100
AcDbSymbolTableRecord
100
AcDbLinetypeTableRecord
  2
DIVIDEX2
 70
     0
  3
________  .  .  ________  .  .  ________  .  . 
 72
    65
 73
     6
 40
2.5
 49
1.0
 74
     0
 49
-0.5
 74
     0
 49
0.0
 74
     0
 49
-0.5
 74
     0
 49
0.0
 74
     0
 49
-0.5
 74
     0
  0
LTYPE
  5
2F
100
AcDbSymbolTableRecord
100
AcDbLinetypeTableRecord
  2
DOT
 70
     0
  3
. . . . . . . . . . . . . . . . . . . . . . . .
 72
    65
 73
     2
 40
0.25
 49
0.0
 74
     0
 49
-0.25
 74
     0
  0
LTYPE
  5
30
100
AcDbSymbolTableRecord
100
AcDbLinetypeTableRecord
  2
DOT2
 70
     0
  3
...............................................
 72
    65
 73
     2
 40
0.125
 49
0.0
 74
     0
 49
-0.125
 74
     0
  0
LTYPE
  5
31
100
AcDbSymbolTableRecord
100
AcDbLinetypeTableRecord
  2
DOTX2
 70
     0
  3
.  .  .  .  .  .  .  .  .  .  .  .  .  .  .  . 
 72
    65
 73
     2
 40
0.5
 49
0.0
 74
     0
 49
-0.5
 74
     0
  0
LTYPE
  5
32
100
AcDbSymbolTableRecord
100
AcDbLinetypeTableRecord
  2
HIDDEN
 70
     0
  3
__ __ __ __ __ __ __ __ __ __ __ __ __ __ __ __
 72
    65
 73
     2
 40
0.375
 49
0.25
 74
     0
 49
-0.125
 74
     0
  0
LTYPE
  5
33
100
AcDbSymbolTableRecord
100
AcDbLinetypeTableRecord
  2
HIDDEN2
 70
     0
  3
_ _ _ _ _ _ _ _ _ _ _ _ _ _ _ _ _ _ _ _ _ _ _ _
 72
    65
 73
     2
 40
0.1875
 49
0.125
 74
     0
 49
-0.0625
 74
     0
  0
LTYPE
  5
34
100
AcDbSymbolTableRecord
100
AcDbLinetypeTableRecord
  2
HIDDENX2
 70
     0
  3
____ ____ ____ ____ ____ ____ ____ ____ ____ __
 72
    65
 73
     2
 40
0.75
 49
0.5
 74
     0
 49
-0.25
 74
     0
  0
LTYPE
  5
35
100
AcDbSymbolTableRecord
100
AcDbLinetypeTableRecord
  2
PHANTOM
 70
     0
  3
______  __  __  ______  __  __  ______  __  __ 
 72
    65
 73
     6
 40
2.5
 49
1.25
 74
     0
 49
-0.25
 74
     0
 49
0.25
 74
     0
 49
-0.25
 74
     0
 49
0.25
 74
     0
 49
-0.25
 74
     0
  0
LTYPE
  5
36
100
AcDbSymbolTableRecord
100
AcDbLinetypeTableRecord
  2
PHANTOM2
 70
     0
  3
___ _ _ ___ _ _ ___ _ _ ___ _ _ ___ _ _ ___ _ _
 72
    65
 73
     6
 40
1.25
 49
0.625
 74
     0
 49
-0.125
 74
     0
 49
0.125
 74
     0
 49
-0.125
 74
     0
 49
0.125
 74
     0
 49
-0.125
 74
     0
  0
LTYPE
  5
37
100
AcDbSymbolTableRecord
100
AcDbLinetypeTableRecord
  2
PHANTOMX2
 70
     0
  3
____________    ____    ____    ____________   
 72
    65
 73
     6
 40
5.0
 49
2.5
 74
     0
 49
-0.5
 74
     0
 49
0.5
 74
     0
 49
-0.5
 74
     0
 49
0.5
 74
     0
 49
-0.5
 74
     0
  0
ENDTAB
   0
TABLE
   2
LAYER
   5
2
 100
AcDbSymbolTable
  70
2
   0
LAYER
   5
E
 100
AcDbSymbolTableRecord
 100
AcDbLayerTableRecord
   2
0
  70
0
  62
7
   6
CONTINUOUS
 390
30
   0
LAYER
   5
39
 100
AcDbSymbolTableRecord
 100
AcDbLayerTableRecord
   2
LEVEL001
  70
0
  62
7
   6
CONTINUOUS
 390
30
   0
ENDTAB
  0
TABLE
  2
STYLE
  5
3
100
AcDbSymbolTable
  70
10
  0
STYLE
  5
F
100
AcDbSymbolTableRecord
100
AcDbTextStyleTableRecord
  2
STANDARD
 70
     0
 40
0.0
 41
1.0
 50
0.0
 71
     0
 42
0.2
  3
TXT
  4
BIGFONT
  0
STYLE
  5
38
100
AcDbSymbolTableRecord
100
AcDbTextStyleTableRecord
  2
STANDARD1
 70
     4
 40
0.0
 41
1.0
 50
0.0
 71
     0
 42
0.2
  3
TXT
  4
BIGFONT
   0
STYLE
   5
3A
 100
AcDbSymbolTableRecord
 100
AcDbTextStyleTableRecord
   2
GMM001
  70
0
  40
0.0
  41
 1.0000000000000
  50
0.0
  71
     0
  42
1.0
   3

   4

1001
ACAD
1000
ＭＳ ゴシック
1071
32817
   0
STYLE
   5
3B
 100
AcDbSymbolTableRecord
 100
AcDbTextStyleTableRecord
   2
GMM002
  70
0
  40
0.0
  41
 0.75000000000000
  50
0.0
  71
     0
  42
1.0
   3
txt.shx
   4
bigfont.shx
   0
STYLE
   5
3C
 100
AcDbSymbolTableRecord
 100
AcDbTextStyleTableRecord
   2
GMM003
  70
0
  40
0.0
  41
 0.66666666666667
  50
0.0
  71
     0
  42
1.0
   3

   4

1001
ACAD
1000
ＭＳ ゴシック
1071
32817
   0
STYLE
   5
3D
 100
AcDbSymbolTableRecord
 100
AcDbTextStyleTableRecord
   2
GMM004
  70
0
  40
0.0
  41
 1.0000000000000
  50
0.0
  71
     0
  42
1.0
   3
txt.shx
   4
bigfont.shx
   0
STYLE
   5
3E
 100
AcDbSymbolTableRecord
 100
AcDbTextStyleTableRecord
   2
GMM005
  70
0
  40
0.0
  41
 0.84821428571429
  50
0.0
  71
     0
  42
1.0
   3
txt.shx
   4
bigfont.shx
   0
STYLE
   5
3F
 100
AcDbSymbolTableRecord
 100
AcDbTextStyleTableRecord
   2
GMM006
  70
0
  40
0.0
  41
 0.82738095238095
  50
0.0
  71
     0
  42
1.0
   3
txt.shx
   4
bigfont.shx
   0
STYLE
   5
40
 100
AcDbSymbolTableRecord
 100
AcDbTextStyleTableRecord
   2
GMM007
  70
0
  40
0.0
  41
 1.0000000000000
  50
0.0
  71
     0
  42
1.0
   3

   4

1001
ACAD
1000
ＭＳ 明朝
1071
32785
   0
STYLE
   5
41
 100
AcDbSymbolTableRecord
 100
AcDbTextStyleTableRecord
   2
GMM008
  70
0
  40
0.0
  41
 1.5000000000000
  50
0.0
  71
     0
  42
1.0
   3

   4

1001
ACAD
1000
ＭＳ ゴシック
1071
32817
   0
ENDTAB
  0
TABLE
  2
VIEW
  5
6
100
AcDbSymbolTable
 70
     0
  0
ENDTAB
  0
TABLE
  2
UCS
  5
7
100
AcDbSymbolTable
 70
     0
  0
ENDTAB
  0
TABLE
  2
APPID
  5
9
100
AcDbSymbolTable
 70
     1
  0
APPID
  5
10
100
AcDbSymbolTableRecord
100
AcDbRegAppTableRecord
  2
ACAD
 70
     0
  0
ENDTAB
   0
TABLE
   2
DIMSTYLE
   5
A
 100
AcDbSymbolTable
  70
10
 100
AcDbDimStyleTable
  0
DIMSTYLE
105
1D
100
AcDbSymbolTableRecord
100
AcDbDimStyleTableRecord
  2
STANDARD
 70
     0
  3

  4

  5

  6

  7

 40
1.0
 41
0.18
 42
0.0625
 43
0.38
 44
0.18
 45
0.0
 46
0.0
 47
0.0
 48
0.0
140
0.18
141
0.09
142
0.0
143
25.4
144
1.0
145
0.0
146
1.0
147
0.09
 71
     0
 72
     0
 73
     1
 74
     1
 75
     0
 76
     0
 77
     0
 78
     0
170
     0
171
     2
172
     0
173
     0
174
     0
175
     0
176
     0
177
     0
178
     0
270
     2
271
     4
272
     4
273
     2
274
     2
340
F
275
     0
280
     0
281
     0
282
     0
283
     1
284
     0
285
     0
286
     0
287
     3
288
     0
   0
DIMSTYLE
 105
42
 100
AcDbSymbolTableRecord
 100
AcDbDimStyleTableRecord
   2
GMM001
  70
0
   3

   4

   5

   6
_OPEN
   7
_OPEN
  40
 1.0000000000000
  41
 42.000000000000
  42
 30.000000000000
  43
 160.00000000000
  44
 30.000000000000
  45
0.0
  46
0.0
  47
0.0
  48
0.0
 140
 60.000000000000
 141
 20.000000000000
 142
0.0
 143
 0.39400000000000E-1
 144
 1.0000000000000
 145
0.0
 146
 0.83333333333333
 147
0.0
  71
0
  72
0
  73
0
  74
0
  75
0
  76
0
  77
0
  78
8
 170
0
 171
2
 172
1
 173
1
 174
0
 175
0
 176
1
 177
1
 178
7
 270
2
 271
1
 272
0
 273
2
 274
2
 340
3D
 275
0
 280
0
 281
0
 282
0
 283
1
 284
0
 285
0
 286
0
 287
3
 288
1
   0
DIMSTYLE
 105
43
 100
AcDbSymbolTableRecord
 100
AcDbDimStyleTableRecord
   2
GMM002
  70
0
   3

   4

   5

   6
_OPEN
   7
_OPEN
  40
 1.0000000000000
  41
 30.000000000000
  42
 30.000000000000
  43
 160.00000000000
  44
 30.000000000000
  45
0.0
  46
0.0
  47
0.0
  48
0.0
 140
 66.000000000000
 141
 20.000000000000
 142
0.0
 143
 0.39400000000000E-1
 144
 1.0000000000000
 145
0.0
 146
 0.75757575757576
 147
0.0
  71
0
  72
0
  73
0
  74
0
  75
0
  76
0
  77
0
  78
8
 170
0
 171
2
 172
1
 173
1
 174
0
 175
0
 176
1
 177
1
 178
7
 270
2
 271
1
 272
0
 273
2
 274
2
 340
3D
 275
0
 280
0
 281
0
 282
0
 283
1
 284
0
 285
0
 286
0
 287
3
 288
1
   0
DIMSTYLE
 105
44
 100
AcDbSymbolTableRecord
 100
AcDbDimStyleTableRecord
   2
GMM003
  70
0
   3

   4

   5

   6
_OPEN
   7
_OPEN
  40
 1.0000000000000
  41
 42.000000000000
  42
 30.000000000000
  43
 160.00000000000
  44
 30.000000000000
  45
0.0
  46
0.0
  47
0.0
  48
0.0
 140
 63.000000000000
 141
 20.000000000000
 142
0.0
 143
 0.39400000000000E-1
 144
 1.0000000000000
 145
0.0
 146
 0.79365079365079
 147
 14.000000000000
  71
0
  72
0
  73
0
  74
0
  75
0
  76
0
  77
3
  78
8
 170
0
 171
2
 172
1
 173
1
 174
0
 175
0
 176
6
 177
6
 178
1
 270
2
 271
1
 272
0
 273
2
 274
2
 340
3E
 275
0
 280
0
 281
0
 282
0
 283
1
 284
0
 285
0
 286
0
 287
3
 288
1
   0
DIMSTYLE
 105
45
 100
AcDbSymbolTableRecord
 100
AcDbDimStyleTableRecord
   2
GMM004
  70
0
   3

   4

   5

   6
_OPEN
   7
_OPEN
  40
 1.0000000000000
  41
 42.000000000000
  42
 30.000000000000
  43
 160.00000000000
  44
 30.000000000000
  45
0.0
  46
0.0
  47
0.0
  48
0.0
 140
 63.000000000000
 141
 20.000000000000
 142
0.0
 143
 0.39400000000000E-1
 144
 1.0000000000000
 145
0.0
 146
 0.79365079365079
 147
 14.000000000000
  71
0
  72
0
  73
0
  74
0
  75
0
  76
0
  77
3
  78
8
 170
0
 171
2
 172
1
 173
1
 174
0
 175
0
 176
6
 177
6
 178
1
 270
2
 271
1
 272
0
 273
2
 274
2
 340
3F
 275
0
 280
0
 281
0
 282
0
 283
1
 284
0
 285
0
 286
0
 287
3
 288
1
   0
DIMSTYLE
 105
46
 100
AcDbSymbolTableRecord
 100
AcDbDimStyleTableRecord
   2
GMM005
  70
0
   3

   4

   5

   6
_OPEN
   7
_OPEN
  40
 1.0000000000000
  41
 42.000000000000
  42
 30.000000000000
  43
 160.00000000000
  44
 30.000000000000
  45
0.0
  46
0.0
  47
0.0
  48
0.0
 140
 60.000000000000
 141
 20.000000000000
 142
0.0
 143
 0.39400000000000E-1
 144
 1.0000000000000
 145
0.0
 146
 0.83333333333333
 147
0.0
  71
0
  72
0
  73
0
  74
0
  75
0
  76
0
  77
0
  78
8
 170
0
 171
2
 172
1
 173
1
 174
0
 175
0
 176
1
 177
1
 178
7
 270
2
 271
1
 272
0
 273
2
 274
2
 340
3D
 275
0
 280
0
 281
0
 282
0
 283
1
 284
0
 285
0
 286
0
 287
3
 288
1
   0
DIMSTYLE
 105
47
 100
AcDbSymbolTableRecord
 100
AcDbDimStyleTableRecord
   2
GMM006
  70
0
   3
□<>
   4

   5

   6
_OPEN
   7
_OPEN
  40
 1.0000000000000
  41
 42.000000000000
  42
 30.000000000000
  43
 160.00000000000
  44
 30.000000000000
  45
0.0
  46
0.0
  47
0.0
  48
0.0
 140
 60.000000000000
 141
 20.000000000000
 142
0.0
 143
 0.39400000000000E-1
 144
 1.0000000000000
 145
0.0
 146
 0.83333333333333
 147
 14.000000000000
  71
0
  72
0
  73
0
  74
0
  75
0
  76
0
  77
3
  78
8
 170
0
 171
2
 172
1
 173
1
 174
0
 175
0
 176
6
 177
6
 178
1
 270
2
 271
1
 272
0
 273
2
 274
2
 340
3D
 275
0
 280
0
 281
0
 282
0
 283
1
 284
0
 285
0
 286
0
 287
3
 288
1
   0
DIMSTYLE
 105
48
 100
AcDbSymbolTableRecord
 100
AcDbDimStyleTableRecord
   2
GMM007
  70
0
   3

   4

   5

   6
_OPEN
   7
_OPEN
  40
 1.0000000000000
  41
 42.000000000000
  42
 30.000000000000
  43
 160.00000000000
  44
 30.000000000000
  45
0.0
  46
0.0
  47
0.0
  48
0.0
 140
 60.000000000000
 141
 20.000000000000
 142
0.0
 143
 0.39400000000000E-1
 144
 1.0000000000000
 145
0.0
 146
 0.83333333333333
 147
 25.714285714286
  71
0
  72
0
  73
0
  74
0
  75
0
  76
0
  77
3
  78
8
 170
0
 171
2
 172
1
 173
1
 174
0
 175
0
 176
6
 177
6
 178
1
 270
2
 271
6
 272
0
 273
2
 274
2
 340
3D
 275
1
 280
0
 281
0
 282
0
 283
1
 284
0
 285
0
 286
0
 287
3
 288
0
   0
DIMSTYLE
 105
49
 100
AcDbSymbolTableRecord
 100
AcDbDimStyleTableRecord
   2
GMM008
  70
0
   3

   4

   5

   6
_OPEN
   7
_OPEN
  40
 1.0000000000000
  41
 42.000000000000
  42
 30.000000000000
  43
 160.00000000000
  44
 30.000000000000
  45
0.0
  46
0.0
  47
0.0
  48
0.0
 140
 60.000000000000
 141
 20.000000000000
 142
0.0
 143
 0.39400000000000E-1
 144
 1.0000000000000
 145
0.0
 146
 0.83333333333333
 147
 25.714285714286
  71
0
  72
0
  73
0
  74
0
  75
0
  76
0
  77
3
  78
8
 170
0
 171
2
 172
1
 173
1
 174
0
 175
0
 176
6
 177
6
 178
1
 270
2
 271
6
 272
0
 273
2
 274
2
 340
3D
 275
1
 280
0
 281
0
 282
0
 283
1
 284
0
 285
0
 286
0
 287
3
 288
0
   0
ENDTAB
  0
TABLE
  2
BLOCK_RECORD
  5
1
100
AcDbSymbolTable
 70
     0
  0
BLOCK_RECORD
  5
18
100
AcDbSymbolTableRecord
100
AcDbBlockTableRecord
  2
*MODEL_SPACE
  0
BLOCK_RECORD
  5
15
100
AcDbSymbolTableRecord
100
AcDbBlockTableRecord
  2
*PAPER_SPACE
   0
BLOCK_RECORD
   5
4A
 100
AcDbSymbolTableRecord
 100
AcDbBlockTableRecord
   2
*D11
   0
BLOCK_RECORD
   5
4B
 100
AcDbSymbolTableRecord
 100
AcDbBlockTableRecord
   2
*D12
   0
BLOCK_RECORD
   5
4C
 100
AcDbSymbolTableRecord
 100
AcDbBlockTableRecord
   2
*D14
   0
BLOCK_RECORD
   5
4D
 100
AcDbSymbolTableRecord
 100
AcDbBlockTableRecord
   2
*D15
   0
BLOCK_RECORD
   5
4E
 100
AcDbSymbolTableRecord
 100
AcDbBlockTableRecord
   2
BLOCK001
   0
BLOCK_RECORD
   5
4F
 100
AcDbSymbolTableRecord
 100
AcDbBlockTableRecord
   2
BLOCK002
   0
BLOCK_RECORD
   5
50
 100
AcDbSymbolTableRecord
 100
AcDbBlockTableRecord
   2
BLOCK003
   0
BLOCK_RECORD
   5
51
 100
AcDbSymbolTableRecord
 100
AcDbBlockTableRecord
   2
*D18
   0
BLOCK_RECORD
   5
52
 100
AcDbSymbolTableRecord
 100
AcDbBlockTableRecord
   2
*D19
   0
BLOCK_RECORD
   5
53
 100
AcDbSymbolTableRecord
 100
AcDbBlockTableRecord
   2
*D20
   0
BLOCK_RECORD
   5
54
 100
AcDbSymbolTableRecord
 100
AcDbBlockTableRecord
   2
_ARCHTICK
   0
BLOCK_RECORD
   5
55
 100
AcDbSymbolTableRecord
 100
AcDbBlockTableRecord
   2
_BOXBLANK
   0
BLOCK_RECORD
   5
56
 100
AcDbSymbolTableRecord
 100
AcDbBlockTableRecord
   2
_BOXFILLED
   0
BLOCK_RECORD
   5
57
 100
AcDbSymbolTableRecord
 100
AcDbBlockTableRecord
   2
_CLOSED
   0
BLOCK_RECORD
   5
58
 100
AcDbSymbolTableRecord
 100
AcDbBlockTableRecord
   2
_CLOSEDBLANK
   0
BLOCK_RECORD
   5
59
 100
AcDbSymbolTableRecord
 100
AcDbBlockTableRecord
   2
_DATUMBLANK
   0
BLOCK_RECORD
   5
5A
 100
AcDbSymbolTableRecord
 100
AcDbBlockTableRecord
   2
_DATUMFILLED
   0
BLOCK_RECORD
   5
5B
 100
AcDbSymbolTableRecord
 100
AcDbBlockTableRecord
   2
_DOT
   0
BLOCK_RECORD
   5
5C
 100
AcDbSymbolTableRecord
 100
AcDbBlockTableRecord
   2
_DOTBLANK
   0
BLOCK_RECORD
   5
5D
 100
AcDbSymbolTableRecord
 100
AcDbBlockTableRecord
   2
_DOTSMALL
   0
BLOCK_RECORD
   5
5E
 100
AcDbSymbolTableRecord
 100
AcDbBlockTableRecord
   2
_INTEGRAL
   0
BLOCK_RECORD
   5
5F
 100
AcDbSymbolTableRecord
 100
AcDbBlockTableRecord
   2
_NONE
   0
BLOCK_RECORD
   5
60
 100
AcDbSymbolTableRecord
 100
AcDbBlockTableRecord
   2
_OBLIQUE
   0
BLOCK_RECORD
   5
61
 100
AcDbSymbolTableRecord
 100
AcDbBlockTableRecord
   2
_OPEN
   0
BLOCK_RECORD
   5
62
 100
AcDbSymbolTableRecord
 100
AcDbBlockTableRecord
   2
_OPEN30
   0
BLOCK_RECORD
   5
63
 100
AcDbSymbolTableRecord
 100
AcDbBlockTableRecord
   2
_OPEN90
   0
BLOCK_RECORD
   5
64
 100
AcDbSymbolTableRecord
 100
AcDbBlockTableRecord
   2
_ORIGIN
   0
ENDTAB
   0
ENDSEC
  0
SECTION
  2
BLOCKS
  0
BLOCK
  5
19
100
AcDbEntity
  8
0
100
AcDbBlockBegin
  2
*MODEL_SPACE
 70
     0
 10
0.0
 20
0.0
 30
0.0
  3
*MODEL_SPACE
  1

  0
ENDBLK
  5
1A
100
AcDbEntity
  8
0
100
AcDbBlockEnd
  0
BLOCK
  5
16
100
AcDbEntity
 67
     1
  8
0
100
AcDbBlockBegin
  2
*PAPER_SPACE
 70
     0
 10
0.0
 20
0.0
 30
0.0
  3
*PAPER_SPACE
  1

  0
ENDBLK
  5
17
100
AcDbEntity
 67
     1
  8
0
100
AcDbBlockEnd
   0
BLOCK
   5
65
 100
AcDbEntity
   8
0
 100
AcDbBlockBegin
   2
_ARCHTICK
  70
0
  10
0.0
  20
0.0
  30
0.0
   3
_ARCHTICK
   0
POLYLINE
   5
66
 100
AcDbEntity
   8
0
 370
-2
   6
BYBLOCK
  62
0
 100
AcDb2dPolyline
  66
1
  10
0.0
  20
0.0
  30
0.0
  70
1
  40
 0.15000000000000
  41
 0.15000000000000
   0
VERTEX
   5
67
 100
AcDbEntity
   8
0
   6
BYBLOCK
  62
0
 100
AcDbVertex
 100
AcDb2dVertex
  10
-0.50000000000000
  20
-0.50000000000000
  30
0.0
  40
 0.15000000000000
  41
 0.15000000000000
   0
VERTEX
   5
68
 100
AcDbEntity
   8
0
   6
BYBLOCK
  62
0
 100
AcDbVertex
 100
AcDb2dVertex
  10
 0.50000000000000
  20
 0.50000000000000
  30
0.0
  40
 0.15000000000000
  41
 0.15000000000000
   0
SEQEND
   5
69
 100
AcDbEntity
   8
0
   6
BYBLOCK
  62
0
   0
ENDBLK
   5
6A
 100
AcDbEntity
   8
0
 100
AcDbBlockEnd
   0
BLOCK
   5
6B
 100
AcDbEntity
   8
0
 100
AcDbBlockBegin
   2
_OBLIQUE
  70
0
  10
0.0
  20
0.0
  30
0.0
   3
_OBLIQUE
   0
LINE
   5
6C
 100
AcDbEntity
   8
0
 370
-2
 100
AcDbLine
   6
BYBLOCK
  62
0
  10
-0.50000000000000
  20
-0.50000000000000
  30
0.0
  11
 0.50000000000000
  21
 0.50000000000000
  31
0.0
   0
ENDBLK
   5
6D
 100
AcDbEntity
   8
0
 100
AcDbBlockEnd
   0
BLOCK
   5
6E
 100
AcDbEntity
   8
0
 100
AcDbBlockBegin
   2
_BOXBLANK
  70
0
  10
0.0
  20
0.0
  30
0.0
   3
_BOXBLANK
   0
LINE
   5
6F
 100
AcDbEntity
   8
0
 370
-2
 100
AcDbLine
   6
BYBLOCK
  62
0
  10
-0.50000000000000
  20
-0.50000000000000
  30
0.0
  11
 0.50000000000000
  21
-0.50000000000000
  31
0.0
   0
LINE
   5
70
 100
AcDbEntity
   8
0
 370
-2
 100
AcDbLine
   6
BYBLOCK
  62
0
  10
 0.50000000000000
  20
-0.50000000000000
  30
0.0
  11
 0.50000000000000
  21
 0.50000000000000
  31
0.0
   0
LINE
   5
71
 100
AcDbEntity
   8
0
 370
-2
 100
AcDbLine
   6
BYBLOCK
  62
0
  10
 0.50000000000000
  20
 0.50000000000000
  30
0.0
  11
-0.50000000000000
  21
 0.50000000000000
  31
0.0
   0
LINE
   5
72
 100
AcDbEntity
   8
0
 370
-2
 100
AcDbLine
   6
BYBLOCK
  62
0
  10
-0.50000000000000
  20
 0.50000000000000
  30
0.0
  11
-0.50000000000000
  21
-0.50000000000000
  31
0.0
   0
LINE
   5
73
 100
AcDbEntity
   8
0
 370
-2
 100
AcDbLine
   6
BYBLOCK
  62
0
  10
-0.50000000000000
  20
0.0
  30
0.0
  11
-1.0000000000000
  21
0.0
  31
0.0
   0
ENDBLK
   5
74
 100
AcDbEntity
   8
0
 100
AcDbBlockEnd
   0
BLOCK
   5
75
 100
AcDbEntity
   8
0
 100
AcDbBlockBegin
   2
_BOXFILLED
  70
0
  10
0.0
  20
0.0
  30
0.0
   3
_BOXFILLED
   0
SOLID
   5
76
 100
AcDbEntity
   8
0
 100
AcDbTrace
   6
BYBLOCK
  62
0
  10
-0.50000000000000
  20
 0.50000000000000
  30
0.0
  11
 0.50000000000000
  21
 0.50000000000000
  31
0.0
  12
-0.50000000000000
  22
-0.50000000000000
  32
0.0
  13
 0.50000000000000
  23
-0.50000000000000
  33
0.0
   0
LINE
   5
77
 100
AcDbEntity
   8
0
 370
-2
 100
AcDbLine
   6
BYBLOCK
  62
0
  10
-0.50000000000000
  20
0.0
  30
0.0
  11
-1.0000000000000
  21
0.0
  31
0.0
   0
ENDBLK
   5
78
 100
AcDbEntity
   8
0
 100
AcDbBlockEnd
   0
BLOCK
   5
79
 100
AcDbEntity
   8
0
 100
AcDbBlockBegin
   2
_CLOSED
  70
0
  10
0.0
  20
0.0
  30
0.0
   3
_CLOSED
   0
LINE
   5
7A
 100
AcDbEntity
   8
0
 370
-2
 100
AcDbLine
   6
BYBLOCK
  62
0
  10
-1.0000000000000
  20
 0.16666666666667
  30
0.0
  11
0.0
  21
0.0
  31
0.0
   0
LINE
   5
7B
 100
AcDbEntity
   8
0
 370
-2
 100
AcDbLine
   6
BYBLOCK
  62
0
  10
0.0
  20
0.0
  30
0.0
  11
-1.0000000000000
  21
-0.16666666666667
  31
0.0
   0
LINE
   5
7C
 100
AcDbEntity
   8
0
 370
-2
 100
AcDbLine
   6
BYBLOCK
  62
0
  10
-1.0000000000000
  20
 0.16666666666667
  30
0.0
  11
-1.0000000000000
  21
-0.16666666666667
  31
0.0
   0
LINE
   5
7D
 100
AcDbEntity
   8
0
 370
-2
 100
AcDbLine
   6
BYBLOCK
  62
0
  10
0.0
  20
0.0
  30
0.0
  11
-1.0000000000000
  21
0.0
  31
0.0
   0
ENDBLK
   5
7E
 100
AcDbEntity
   8
0
 100
AcDbBlockEnd
   0
BLOCK
   5
7F
 100
AcDbEntity
   8
0
 100
AcDbBlockBegin
   2
_OPEN
  70
0
  10
0.0
  20
0.0
  30
0.0
   3
_OPEN
   0
LINE
   5
80
 100
AcDbEntity
   8
0
 370
-2
 100
AcDbLine
   6
BYBLOCK
  62
0
  10
-1.0000000000000
  20
 0.16666666666667
  30
0.0
  11
0.0
  21
0.0
  31
0.0
   0
LINE
   5
81
 100
AcDbEntity
   8
0
 370
-2
 100
AcDbLine
   6
BYBLOCK
  62
0
  10
0.0
  20
0.0
  30
0.0
  11
-1.0000000000000
  21
-0.16666666666667
  31
0.0
   0
LINE
   5
82
 100
AcDbEntity
   8
0
 370
-2
 100
AcDbLine
   6
BYBLOCK
  62
0
  10
0.0
  20
0.0
  30
0.0
  11
-1.0000000000000
  21
0.0
  31
0.0
   0
ENDBLK
   5
83
 100
AcDbEntity
   8
0
 100
AcDbBlockEnd
   0
BLOCK
   5
84
 100
AcDbEntity
   8
0
 100
AcDbBlockBegin
   2
_OPEN30
  70
0
  10
0.0
  20
0.0
  30
0.0
   3
_OPEN30
   0
LINE
   5
85
 100
AcDbEntity
   8
0
 370
-2
 100
AcDbLine
   6
BYBLOCK
  62
0
  10
-1.0000000000000
  20
 0.26794919243110
  30
0.0
  11
0.0
  21
0.0
  31
0.0
   0
LINE
   5
86
 100
AcDbEntity
   8
0
 370
-2
 100
AcDbLine
   6
BYBLOCK
  62
0
  10
0.0
  20
0.0
  30
0.0
  11
-1.0000000000000
  21
-0.26794919243110
  31
0.0
   0
LINE
   5
87
 100
AcDbEntity
   8
0
 370
-2
 100
AcDbLine
   6
BYBLOCK
  62
0
  10
0.0
  20
0.0
  30
0.0
  11
-1.0000000000000
  21
0.0
  31
0.0
   0
ENDBLK
   5
88
 100
AcDbEntity
   8
0
 100
AcDbBlockEnd
   0
BLOCK
   5
89
 100
AcDbEntity
   8
0
 100
AcDbBlockBegin
   2
_OPEN90
  70
0
  10
0.0
  20
0.0
  30
0.0
   3
_OPEN90
   0
LINE
   5
8A
 100
AcDbEntity
   8
0
 370
-2
 100
AcDbLine
   6
BYBLOCK
  62
0
  10
-0.50000000000000
  20
 0.50000000000000
  30
0.0
  11
0.0
  21
0.0
  31
0.0
   0
LINE
   5
8B
 100
AcDbEntity
   8
0
 370
-2
 100
AcDbLine
   6
BYBLOCK
  62
0
  10
0.0
  20
0.0
  30
0.0
  11
-0.50000000000000
  21
-0.50000000000000
  31
0.0
   0
LINE
   5
8C
 100
AcDbEntity
   8
0
 370
-2
 100
AcDbLine
   6
BYBLOCK
  62
0
  10
0.0
  20
0.0
  30
0.0
  11
-1.0000000000000
  21
0.0
  31
0.0
   0
ENDBLK
   5
8D
 100
AcDbEntity
   8
0
 100
AcDbBlockEnd
   0
BLOCK
   5
8E
 100
AcDbEntity
   8
0
 100
AcDbBlockBegin
   2
_CLOSEDBLANK
  70
0
  10
0.0
  20
0.0
  30
0.0
   3
_CLOSEDBLANK
   0
LINE
   5
8F
 100
AcDbEntity
   8
0
 370
-2
 100
AcDbLine
   6
BYBLOCK
  62
0
  10
-1.0000000000000
  20
 0.16666666666667
  30
0.0
  11
0.0
  21
0.0
  31
0.0
   0
LINE
   5
90
 100
AcDbEntity
   8
0
 370
-2
 100
AcDbLine
   6
BYBLOCK
  62
0
  10
0.0
  20
0.0
  30
0.0
  11
-1.0000000000000
  21
-0.16666666666667
  31
0.0
   0
LINE
   5
91
 100
AcDbEntity
   8
0
 370
-2
 100
AcDbLine
   6
BYBLOCK
  62
0
  10
-1.0000000000000
  20
 0.16666666666667
  30
0.0
  11
-1.0000000000000
  21
-0.16666666666667
  31
0.0
   0
ENDBLK
   5
92
 100
AcDbEntity
   8
0
 100
AcDbBlockEnd
   0
BLOCK
   5
93
 100
AcDbEntity
   8
0
 100
AcDbBlockBegin
   2
_DOT
  70
0
  10
0.0
  20
0.0
  30
0.0
   3
_DOT
   0
POLYLINE
   5
94
 100
AcDbEntity
   8
0
 370
-2
   6
BYBLOCK
  62
0
 100
AcDb2dPolyline
  66
1
  10
0.0
  20
0.0
  30
0.0
  70
1
  40
 0.50000000000000
  41
 0.50000000000000
   0
VERTEX
   5
95
 100
AcDbEntity
   8
0
   6
BYBLOCK
  62
0
 100
AcDbVertex
 100
AcDb2dVertex
  10
-0.25000000000000
  20
0.0
  30
0.0
  42
 1.0000000000000
  40
 0.50000000000000
  41
 0.50000000000000
   0
VERTEX
   5
96
 100
AcDbEntity
   8
0
   6
BYBLOCK
  62
0
 100
AcDbVertex
 100
AcDb2dVertex
  10
 0.25000000000000
  20
0.0
  30
0.0
  42
 1.0000000000000
  40
 0.50000000000000
  41
 0.50000000000000
   0
SEQEND
   5
97
 100
AcDbEntity
   8
0
   6
BYBLOCK
  62
0
   0
LINE
   5
98
 100
AcDbEntity
   8
0
 370
-2
 100
AcDbLine
   6
BYBLOCK
  62
0
  10
-0.50000000000000
  20
0.0
  30
0.0
  11
-1.0000000000000
  21
0.0
  31
0.0
   0
ENDBLK
   5
99
 100
AcDbEntity
   8
0
 100
AcDbBlockEnd
   0
BLOCK
   5
9A
 100
AcDbEntity
   8
0
 100
AcDbBlockBegin
   2
_DOTSMALL
  70
0
  10
0.0
  20
0.0
  30
0.0
   3
_DOTSMALL
   0
POLYLINE
   5
9B
 100
AcDbEntity
   8
0
 370
-2
   6
BYBLOCK
  62
0
 100
AcDb2dPolyline
  66
1
  10
0.0
  20
0.0
  30
0.0
  70
1
  40
 0.50000000000000
  41
 0.50000000000000
   0
VERTEX
   5
9C
 100
AcDbEntity
   8
0
   6
BYBLOCK
  62
0
 100
AcDbVertex
 100
AcDb2dVertex
  10
-0.62500000000000E-1
  20
0.0
  30
0.0
  42
 1.0000000000000
  40
 0.50000000000000
  41
 0.50000000000000
   0
VERTEX
   5
9D
 100
AcDbEntity
   8
0
   6
BYBLOCK
  62
0
 100
AcDbVertex
 100
AcDb2dVertex
  10
 0.62500000000000E-1
  20
0.0
  30
0.0
  42
 1.0000000000000
  40
 0.50000000000000
  41
 0.50000000000000
   0
SEQEND
   5
9E
 100
AcDbEntity
   8
0
   6
BYBLOCK
  62
0
   0
ENDBLK
   5
9F
 100
AcDbEntity
   8
0
 100
AcDbBlockEnd
   0
BLOCK
   5
A0
 100
AcDbEntity
   8
0
 100
AcDbBlockBegin
   2
_DATUMBLANK
  70
0
  10
0.0
  20
0.0
  30
0.0
   3
_DATUMBLANK
   0
LINE
   5
A1
 100
AcDbEntity
   8
0
 370
-2
 100
AcDbLine
   6
BYBLOCK
  62
0
  10
0.0
  20
 0.57735027000000
  30
0.0
  11
-1.0000000000000
  21
0.0
  31
0.0
   0
LINE
   5
A2
 100
AcDbEntity
   8
0
 370
-2
 100
AcDbLine
   6
BYBLOCK
  62
0
  10
-1.0000000000000
  20
0.0
  30
0.0
  11
0.0
  21
-0.57735027000000
  31
0.0
   0
LINE
   5
A3
 100
AcDbEntity
   8
0
 370
-2
 100
AcDbLine
   6
BYBLOCK
  62
0
  10
0.0
  20
-0.57735027000000
  30
0.0
  11
0.0
  21
 0.57735027000000
  31
0.0
   0
ENDBLK
   5
A4
 100
AcDbEntity
   8
0
 100
AcDbBlockEnd
   0
BLOCK
   5
A5
 100
AcDbEntity
   8
0
 100
AcDbBlockBegin
   2
_DATUMFILLED
  70
0
  10
0.0
  20
0.0
  30
0.0
   3
_DATUMFILLED
   0
SOLID
   5
A6
 100
AcDbEntity
   8
0
 100
AcDbTrace
   6
BYBLOCK
  62
0
  10
0.0
  20
 0.57735027000000
  30
0.0
  11
-1.0000000000000
  21
0.0
  31
0.0
  12
0.0
  22
-0.57735027000000
  32
0.0
  13
0.0
  23
-0.57735027000000
  33
0.0
   0
ENDBLK
   5
A7
 100
AcDbEntity
   8
0
 100
AcDbBlockEnd
   0
BLOCK
   5
A8
 100
AcDbEntity
   8
0
 100
AcDbBlockBegin
   2
_ORIGIN
  70
0
  10
0.0
  20
0.0
  30
0.0
   3
_ORIGIN
   0
CIRCLE
   5
A9
 100
AcDbEntity
   8
0
 370
-2
 100
AcDbCircle
   6
BYBLOCK
  62
0
  10
0.0
  20
0.0
  30
0.0
  40
 0.50000000000000
   0
LINE
   5
AA
 100
AcDbEntity
   8
0
 370
-2
 100
AcDbLine
   6
BYBLOCK
  62
0
  10
0.0
  20
0.0
  30
0.0
  11
-1.0000000000000
  21
0.0
  31
0.0
   0
ENDBLK
   5
AB
 100
AcDbEntity
   8
0
 100
AcDbBlockEnd
   0
BLOCK
   5
AC
 100
AcDbEntity
   8
0
 100
AcDbBlockBegin
   2
_NONE
  70
0
  10
0.0
  20
0.0
  30
0.0
   3
_NONE
   0
CIRCLE
   5
AD
 100
AcDbEntity
   8
0
 370
-2
 100
AcDbCircle
   6
BYBLOCK
  62
0
  10
0.0
  20
0.0
  30
0.0
  40
 0.25000000000000
   0
ENDBLK
   5
AE
 100
AcDbEntity
   8
0
 100
AcDbBlockEnd
   0
BLOCK
   5
AF
 100
AcDbEntity
   8
0
 100
AcDbBlockBegin
   2
_DOTBLANK
  70
0
  10
0.0
  20
0.0
  30
0.0
   3
_DOTBLANK
   0
CIRCLE
   5
B0
 100
AcDbEntity
   8
0
 370
-2
 100
AcDbCircle
   6
BYBLOCK
  62
0
  10
0.0
  20
0.0
  30
0.0
  40
 0.50000000000000
   0
LINE
   5
B1
 100
AcDbEntity
   8
0
 370
-2
 100
AcDbLine
   6
BYBLOCK
  62
0
  10
-0.50000000000000
  20
0.0
  30
0.0
  11
-1.0000000000000
  21
0.0
  31
0.0
   0
ENDBLK
   5
B2
 100
AcDbEntity
   8
0
 100
AcDbBlockEnd
   0
BLOCK
   5
B3
 100
AcDbEntity
   8
0
 100
AcDbBlockBegin
   2
_INTEGRAL
  70
0
  10
0.0
  20
0.0
  30
0.0
   3
_INTEGRAL
   0
ARC
   5
B4
 100
AcDbEntity
   8
0
 370
-2
   6
BYBLOCK
  62
0
 100
AcDbCircle
  10
 0.44488800000000
  20
-0.91335000000000E-1
  30
0.0
  40
 0.45416700000000
 100
AcDbArc
  50
 102.00000000000
  51
 168.00000000000
   0
ARC
   5
B5
 100
AcDbEntity
   8
0
 370
-2
   6
BYBLOCK
  62
0
 100
AcDbCircle
  10
-0.44488800000000
  20
 0.91335000000000E-1
  30
0.0
  40
 0.45416700000000
 100
AcDbArc
  50
 282.00000000000
  51
 348.00000000000
   0
ENDBLK
   5
B6
 100
AcDbEntity
   8
0
 100
AcDbBlockEnd
   0
BLOCK
   5
B7
 100
AcDbEntity
   8
0
 100
AcDbBlockBegin
   2
*D11
  70
65
  10
0.0
  20
0.0
  30
0.0
   3
*D11
   0
LINE
   5
B8
 100
AcDbEntity
   8
LEVEL001
 370
13
 100
AcDbLine
   6
CONTINUOUS
  62
6
  10
 1341.6573033708
  20
 4495.2808988764
  30
0.0
  11
 1341.6573033708
  21
 4722.7808988764
  31
0.0
   0
LINE
   5
B9
 100
AcDbEntity
   8
LEVEL001
 370
13
 100
AcDbLine
   6
CONTINUOUS
  62
6
  10
 1341.6573033708
  20
 4950.2808988764
  30
0.0
  11
 1341.6573033708
  21
 4722.7808988764
  31
0.0
   0
INSERT
   5
BA
 100
AcDbEntity
   8
LEVEL001
   6
CONTINUOUS
  62
6
 100
AcDbBlockReference
   2
_OPEN
  10
 1341.6573033708
  20
 4495.2808988764
  30
0.0
  41
 42.000000000000
  42
 42.000000000000
  43
 42.000000000000
  50
 270.00000000000
   0
INSERT
   5
BB
 100
AcDbEntity
   8
LEVEL001
   6
CONTINUOUS
  62
6
 100
AcDbBlockReference
   2
_OPEN
  10
 1341.6573033708
  20
 4950.2808988764
  30
0.0
  41
 42.000000000000
  42
 42.000000000000
  43
 42.000000000000
  50
 90.000000000000
   0
MTEXT
   5
BC
 100
AcDbEntity
   8
LEVEL001
 370
13
  62
1
 100
AcDbMText
  10
 1327.6573033708
  20
 4689.9676584206
  30
0.0
  40
 63.000000000000
  41
0.0
  71
8
  72
1
   1
\A1;450
   7
GMM005
  11
0.0
  21
 1.0000000000000
  31
0.0
   0
ENDBLK
   5
BD
 100
AcDbEntity
   8
0
 100
AcDbBlockEnd
   0
BLOCK
   5
BE
 100
AcDbEntity
   8
0
 100
AcDbBlockBegin
   2
*D12
  70
65
  10
0.0
  20
0.0
  30
0.0
   3
*D12
   0
LINE
   5
BF
 100
AcDbEntity
   8
LEVEL001
 370
13
 100
AcDbLine
   6
CONTINUOUS
  62
6
  10
 1794.1573033708
  20
 4822.7808988764
  30
0.0
  11
 1491.6573033708
  21
 4822.7808988764
  31
0.0
   0
LINE
   5
C0
 100
AcDbEntity
   8
LEVEL001
 370
13
 100
AcDbLine
   6
CONTINUOUS
  62
6
  10
 1189.1573033708
  20
 4822.7808988764
  30
0.0
  11
 1491.6573033708
  21
 4822.7808988764
  31
0.0
   0
INSERT
   5
C1
 100
AcDbEntity
   8
LEVEL001
   6
CONTINUOUS
  62
6
 100
AcDbBlockReference
   2
_OPEN
  10
 1794.1573033708
  20
 4822.7808988764
  30
0.0
  41
 42.000000000000
  42
 42.000000000000
  43
 42.000000000000
  50
0.0
   0
INSERT
   5
C2
 100
AcDbEntity
   8
LEVEL001
   6
CONTINUOUS
  62
6
 100
AcDbBlockReference
   2
_OPEN
  10
 1189.1573033708
  20
 4822.7808988764
  30
0.0
  41
 42.000000000000
  42
 42.000000000000
  43
 42.000000000000
  50
 180.00000000000
   0
MTEXT
   5
C3
 100
AcDbEntity
   8
LEVEL001
 370
13
  62
1
 100
AcDbMText
  10
 1522.4065119900
  20
 4836.7808988764
  30
0.0
  40
 63.000000000000
  41
0.0
  71
8
  72
1
   1
\A1;600
   7
GMM006
   0
ENDBLK
   5
C4
 100
AcDbEntity
   8
0
 100
AcDbBlockEnd
   0
BLOCK
   5
C5
 100
AcDbEntity
   8
0
 100
AcDbBlockBegin
   2
*D14
  70
65
  10
0.0
  20
0.0
  30
0.0
   3
*D14
   0
LINE
   5
C6
 100
AcDbEntity
   8
LEVEL001
 370
13
 100
AcDbLine
   6
CONTINUOUS
  62
6
  10
 2741.6573033708
  20
 1144.3808988764
  30
0.0
  11
 2741.6573033708
  21
 944.38089887640
  31
0.0
   0
LINE
   5
C7
 100
AcDbEntity
   8
LEVEL001
 370
13
 100
AcDbLine
   6
CONTINUOUS
  62
6
  10
 3241.6573033708
  20
 1144.3808988764
  30
0.0
  11
 3241.6573033708
  21
 944.38089887640
  31
0.0
   0
LINE
   5
C8
 100
AcDbEntity
   8
LEVEL001
 370
13
 100
AcDbLine
   6
CONTINUOUS
  62
6
  10
 2741.6573033708
  20
 974.38089887640
  30
0.0
  11
 2991.6573033708
  21
 974.38089887640
  31
0.0
   0
LINE
   5
C9
 100
AcDbEntity
   8
LEVEL001
 370
13
 100
AcDbLine
   6
CONTINUOUS
  62
6
  10
 3241.6573033708
  20
 974.38089887640
  30
0.0
  11
 2991.6573033708
  21
 974.38089887640
  31
0.0
   0
INSERT
   5
CA
 100
AcDbEntity
   8
LEVEL001
   6
CONTINUOUS
  62
6
 100
AcDbBlockReference
   2
_OPEN
  10
 2741.6573033708
  20
 974.38089887640
  30
0.0
  41
 42.000000000000
  42
 42.000000000000
  43
 42.000000000000
  50
 180.00000000000
   0
INSERT
   5
CB
 100
AcDbEntity
   8
LEVEL001
   6
CONTINUOUS
  62
6
 100
AcDbBlockReference
   2
_OPEN
  10
 3241.6573033708
  20
 974.38089887640
  30
0.0
  41
 42.000000000000
  42
 42.000000000000
  43
 42.000000000000
  50
0.0
   0
MTEXT
   5
CC
 100
AcDbEntity
   8
LEVEL001
 370
13
  62
1
 100
AcDbMText
  10
 2991.6573033708
  20
 988.38089887640
  30
0.0
  40
 60.000000000000
  41
0.0
  71
8
  72
1
   1
\A1;□500
   7
GMM004
   0
ENDBLK
   5
CD
 100
AcDbEntity
   8
0
 100
AcDbBlockEnd
   0
BLOCK
   5
CE
 100
AcDbEntity
   8
0
 100
AcDbBlockBegin
   2
*D15
  70
65
  10
0.0
  20
0.0
  30
0.0
   3
*D15
   0
LINE
   5
CF
 100
AcDbEntity
   8
LEVEL001
 370
13
 100
AcDbLine
   6
CONTINUOUS
  62
6
  10
 1241.6573033708
  20
 1144.3808988764
  30
0.0
  11
 1241.6573033708
  21
 944.38089887640
  31
0.0
   0
LINE
   5
D0
 100
AcDbEntity
   8
LEVEL001
 370
13
 100
AcDbLine
   6
CONTINUOUS
  62
6
  10
 1741.6573033708
  20
 1144.3808988764
  30
0.0
  11
 1741.6573033708
  21
 944.38089887640
  31
0.0
   0
LINE
   5
D1
 100
AcDbEntity
   8
LEVEL001
 370
13
 100
AcDbLine
   6
CONTINUOUS
  62
6
  10
 1241.6573033708
  20
 974.38089887640
  30
0.0
  11
 1491.6573033708
  21
 974.38089887640
  31
0.0
   0
LINE
   5
D2
 100
AcDbEntity
   8
LEVEL001
 370
13
 100
AcDbLine
   6
CONTINUOUS
  62
6
  10
 1741.6573033708
  20
 974.38089887640
  30
0.0
  11
 1491.6573033708
  21
 974.38089887640
  31
0.0
   0
INSERT
   5
D3
 100
AcDbEntity
   8
LEVEL001
   6
CONTINUOUS
  62
6
 100
AcDbBlockReference
   2
_OPEN
  10
 1241.6573033708
  20
 974.38089887640
  30
0.0
  41
 42.000000000000
  42
 42.000000000000
  43
 42.000000000000
  50
 180.00000000000
   0
INSERT
   5
D4
 100
AcDbEntity
   8
LEVEL001
   6
CONTINUOUS
  62
6
 100
AcDbBlockReference
   2
_OPEN
  10
 1741.6573033708
  20
 974.38089887640
  30
0.0
  41
 42.000000000000
  42
 42.000000000000
  43
 42.000000000000
  50
0.0
   0
MTEXT
   5
D5
 100
AcDbEntity
   8
LEVEL001
 370
13
  62
1
 100
AcDbMText
  10
 1491.6573033708
  20
 988.38089887640
  30
0.0
  40
 60.000000000000
  41
0.0
  71
8
  72
1
   1
\A1;□500
   7
GMM004
   0
ENDBLK
   5
D6
 100
AcDbEntity
   8
0
 100
AcDbBlockEnd
   0
BLOCK
   5
D7
 100
AcDbEntity
   8
0
 100
AcDbBlockBegin
   2
BLOCK001
  70
64
  10
0.0
  20
0.0
  30
0.0
   3
BLOCK001
   0
LINE
   5
D8
 100
AcDbEntity
   8
LEVEL001
 370
13
 100
AcDbLine
   6
CONTINUOUS
  62
1
  10
 1422.0133824723
  20
 4158.3749174311
  30
0.0
  11
 1437.2825475114
  21
 4156.1202787591
  31
0.0
   0
ARC
   5
D9
 100
AcDbEntity
   8
LEVEL001
 370
13
   6
CONTINUOUS
  62
1
 100
AcDbCircle
  10
 1435.8998640811
  20
 4135.5870702789
  30
0.0
  40
 20.579710006714
 100
AcDbArc
  50
 10.432655985711
  51
 86.147581847720
   0
ARC
   5
DA
 100
AcDbEntity
   8
LEVEL001
 370
13
   6
CONTINUOUS
  62
1
 100
AcDbCircle
  10
 1442.2555010966
  20
 4139.0114582747
  30
0.0
  40
 13.887145996094
 100
AcDbArc
  50
 284.73810286312
  51
 1.2468362600485
   0
LINE
   5
DB
 100
AcDbEntity
   8
LEVEL001
 370
13
 100
AcDbLine
   6
CONTINUOUS
  62
1
  10
 1445.7884068864
  20
 4125.5812162591
  30
0.0
  11
 1422.0133824723
  21
 4158.3749174311
  31
0.0
   0
ARC
   5
DC
 100
AcDbEntity
   8
LEVEL001
 370
13
   6
CONTINUOUS
  62
1
 100
AcDbCircle
  10
 1429.5605943712
  20
 4098.7698863591
  30
0.0
  40
 20.228109359742
 100
AcDbArc
  50
 1.0520107710486
  51
 78.795797145824
   0
ARC
   5
DD
 100
AcDbEntity
   8
LEVEL001
 370
13
   6
CONTINUOUS
  62
1
 100
AcDbCircle
  10
 1434.8170311205
  20
 4100.9198276187
  30
0.0
  40
 15.073557853699
 100
AcDbArc
  50
 288.65953719946
  51
 353.22379545230
   0
LINE
   5
DE
 100
AcDbEntity
   8
LEVEL001
 370
13
 100
AcDbLine
   6
CONTINUOUS
  62
1
  10
 1424.3702550309
  20
 4072.5987943841
  30
0.0
  11
 1431.3389439958
  21
 4033.7584623529
  31
0.0
   0
ARC
   5
DF
 100
AcDbEntity
   8
LEVEL001
 370
13
   6
CONTINUOUS
  62
1
 100
AcDbCircle
  10
 1441.3213653793
  20
 4037.3903966039
  30
0.0
  40
 10.622602462769
 100
AcDbArc
  50
 199.99305619357
  51
 1.9685270930323
   0
LINE
   5
E0
 100
AcDbEntity
   8
LEVEL001
 370
13
 100
AcDbLine
   6
CONTINUOUS
  62
1
  10
 1451.9376988786
  20
 4037.7552885249
  30
0.0
  11
 1448.7605138200
  21
 4054.8695463373
  31
0.0
   0
LINE
   5
E1
 100
AcDbEntity
   8
LEVEL001
 370
13
 100
AcDbLine
   6
CONTINUOUS
  62
1
  10
 1448.7605138200
  20
 4054.8695463373
  30
0.0
  11
 1461.0581822770
  21
 4114.3082670405
  31
0.0
   0
LINE
   5
E2
 100
AcDbEntity
   8
LEVEL001
 370
13
 100
AcDbLine
   6
CONTINUOUS
  62
1
  10
 1461.0581822770
  20
 4114.3082670405
  30
0.0
  11
 1438.2050938981
  21
 4064.4003080561
  31
0.0
   0
LINE
   5
E3
 100
AcDbEntity
   8
LEVEL001
 370
13
 100
AcDbLine
   6
CONTINUOUS
  62
1
  10
 1438.2050938981
  20
 4064.4003080561
  30
0.0
  11
 1424.3702550309
  21
 4072.5987943841
  31
0.0
   0
LINE
   5
E4
 100
AcDbEntity
   8
LEVEL001
 370
13
 100
AcDbLine
   6
CONTINUOUS
  62
1
  10
 1488.3180089372
  20
 4141.5682768061
  30
0.0
  11
 1458.9060826677
  21
 4141.5682768061
  31
0.0
   0
LINE
   5
E5
 100
AcDbEntity
   8
LEVEL001
 370
13
 100
AcDbLine
   6
CONTINUOUS
  62
1
  10
 1458.9060826677
  20
 4141.5682768061
  30
0.0
  11
 1463.3128209489
  21
 4130.6027006341
  31
0.0
   0
LINE
   5
E6
 100
AcDbEntity
   8
LEVEL001
 370
13
 100
AcDbLine
   6
CONTINUOUS
  62
1
  10
 1463.3128209489
  20
 4130.6027006341
  30
0.0
  11
 1488.3180089372
  21
 4130.6027006341
  31
0.0
   0
LINE
   5
E7
 100
AcDbEntity
   8
LEVEL001
 370
13
 100
AcDbLine
   6
CONTINUOUS
  62
1
  10
 1488.3180089372
  20
 4100.0633939935
  30
0.0
  11
 1460.5457921403
  21
 4100.0633939935
  31
0.0
   0
LINE
   5
E8
 100
AcDbEntity
   8
LEVEL001
 370
13
 100
AcDbLine
   6
CONTINUOUS
  62
1
  10
 1460.5457921403
  20
 4100.0633939935
  30
0.0
  11
 1465.4649205583
  21
 4087.9708646967
  31
0.0
   0
LINE
   5
E9
 100
AcDbEntity
   8
LEVEL001
 370
13
 100
AcDbLine
   6
CONTINUOUS
  62
1
  10
 1465.4649205583
  20
 4087.9708646967
  30
0.0
  11
 1488.3180089372
  21
 4087.9708646967
  31
0.0
   0
LINE
   5
EA
 100
AcDbEntity
   8
LEVEL001
 370
13
 100
AcDbLine
   6
CONTINUOUS
  62
1
  10
 1488.3180089372
  20
 4043.0843900873
  30
0.0
  11
 1455.8317418473
  21
 4043.0843900873
  31
0.0
   0
LINE
   5
EB
 100
AcDbEntity
   8
LEVEL001
 370
13
 100
AcDbLine
   6
CONTINUOUS
  62
1
  10
 1455.8317418473
  20
 4043.0843900873
  30
0.0
  11
 1461.2632604020
  21
 4030.9916166499
  31
0.0
   0
LINE
   5
EC
 100
AcDbEntity
   8
LEVEL001
 370
13
 100
AcDbLine
   6
CONTINUOUS
  62
1
  10
 1461.2632604020
  20
 4030.9916166499
  30
0.0
  11
 1551.6410680192
  21
 4030.9916166499
  31
0.0
   0
ARC
   5
ED
 100
AcDbEntity
   8
LEVEL001
 370
13
   6
CONTINUOUS
  62
1
 100
AcDbCircle
  10
 1462.2547434911
  20
 3930.4450817441
  30
0.0
  40
 22.293228149414
 100
AcDbArc
  50
 35.161467069537
  51
 78.641482600079
   0
ARC
   5
EE
 100
AcDbEntity
   8
LEVEL001
 370
13
   6
CONTINUOUS
  62
1
 100
AcDbCircle
  10
 1474.1347437016
  20
 3941.5017780811
  30
0.0
  40
 6.5907969474792
 100
AcDbArc
  50
 312.23496141855
  51
 15.682969951835
   0
LINE
   5
EF
 100
AcDbEntity
   8
LEVEL001
 370
13
 100
AcDbLine
   6
CONTINUOUS
  62
1
  10
 1478.5648961442
  20
 3936.6219877435
  30
0.0
  11
 1497.4918980973
  21
 3936.6219877435
  31
0.0
   0
LINE
   5
F0
 100
AcDbEntity
   8
LEVEL001
 370
13
 100
AcDbLine
   6
CONTINUOUS
  62
1
  10
 1507.9450841325
  20
 3952.3016752435
  30
0.0
  11
 1466.6453404802
  21
 3952.3016752435
  31
0.0
   0
LINE
   5
F1
 100
AcDbEntity
   8
LEVEL001
 370
13
 100
AcDbLine
   6
CONTINUOUS
  62
1
  10
 1504.2280431169
  20
 3974.0360502435
  30
0.0
  11
 1479.4553990739
  21
 3974.6422514155
  31
0.0
   0
LINE
   5
F2
 100
AcDbEntity
   8
LEVEL001
 370
13
 100
AcDbLine
   6
CONTINUOUS
  62
1
  10
 1479.4553990739
  20
 3974.6422514155
  30
0.0
  11
 1479.4553990739
  21
 3962.2421049311
  31
0.0
   0
LINE
   5
F3
 100
AcDbEntity
   8
LEVEL001
 370
13
 100
AcDbLine
   6
CONTINUOUS
  62
1
  10
 1479.4553990739
  20
 3962.2421049311
  30
0.0
  11
 1429.9931188005
  21
 3962.2421049311
  31
0.0
   0
LINE
   5
F4
 100
AcDbEntity
   8
LEVEL001
 370
13
 100
AcDbLine
   6
CONTINUOUS
  62
1
  10
 1429.9931188005
  20
 3962.2421049311
  30
0.0
  11
 1434.4663854020
  21
 3952.3016752435
  31
0.0
   0
LINE
   5
F5
 100
AcDbEntity
   8
LEVEL001
 370
13
 100
AcDbLine
   6
CONTINUOUS
  62
1
  10
 1434.4663854020
  20
 3952.3016752435
  30
0.0
  11
 1452.0933385270
  21
 3952.3016752435
  31
0.0
   0
LINE
   5
F6
 100
AcDbEntity
   8
LEVEL001
 370
13
 100
AcDbLine
   6
CONTINUOUS
  62
1
  10
 1452.0933385270
  20
 3952.3016752435
  30
0.0
  11
 1462.0338292497
  21
 3936.6219877435
  31
0.0
   0
LINE
   5
F7
 100
AcDbEntity
   8
LEVEL001
 370
13
 100
AcDbLine
   6
CONTINUOUS
  62
1
  10
 1462.0338292497
  20
 3936.6219877435
  30
0.0
  11
 1427.3185582536
  21
 3936.6219877435
  31
0.0
   0
LINE
   5
F8
 100
AcDbEntity
   8
LEVEL001
 370
13
 100
AcDbLine
   6
CONTINUOUS
  62
1
  10
 1427.3185582536
  20
 3936.6219877435
  30
0.0
  11
 1432.2190709489
  21
 3926.0665678217
  31
0.0
   0
LINE
   5
F9
 100
AcDbEntity
   8
LEVEL001
 370
13
 100
AcDbLine
   6
CONTINUOUS
  62
1
  10
 1432.2190709489
  20
 3926.0665678217
  30
0.0
  11
 1555.8036656755
  21
 3926.0665678217
  31
0.0
   0
ARC
   5
FA
 100
AcDbEntity
   8
LEVEL001
 370
13
   6
CONTINUOUS
  62
1
 100
AcDbCircle
  10
 1451.5929823223
  20
 3902.0360216599
  30
0.0
  40
 31.206602096558
 100
AcDbArc
  50
 246.86715997187
  51
 289.54649732736
   0
LINE
   5
FB
 100
AcDbEntity
   8
LEVEL001
 370
13
 100
AcDbLine
   6
CONTINUOUS
  62
1
  10
 1462.0338292497
  20
 3901.9835600091
  30
0.0
  11
 1462.0338292497
  21
 3908.4398588373
  31
0.0
   0
LINE
   5
FC
 100
AcDbEntity
   8
LEVEL001
 370
13
 100
AcDbLine
   6
CONTINUOUS
  62
1
  10
 1462.0338292497
  20
 3908.4398588373
  30
0.0
  11
 1518.6029820817
  21
 3908.4398588373
  31
0.0
   0
LINE
   5
FD
 100
AcDbEntity
   8
LEVEL001
 370
13
 100
AcDbLine
   6
CONTINUOUS
  62
1
  10
 1518.6029820817
  20
 3901.9835600091
  30
0.0
  11
 1462.0338292497
  21
 3901.9835600091
  31
0.0
   0
LINE
   5
FE
 100
AcDbEntity
   8
LEVEL001
 370
13
 100
AcDbLine
   6
CONTINUOUS
  62
1
  10
 1518.6029820817
  20
 3916.7406400873
  30
0.0
  11
 1462.0338292497
  21
 3916.7406400873
  31
0.0
   0
LINE
   5
FF
 100
AcDbEntity
   8
LEVEL001
 370
13
 100
AcDbLine
   6
CONTINUOUS
  62
1
  10
 1462.0338292497
  20
 3916.7406400873
  30
0.0
  11
 1462.0338292497
  21
 3918.4830717279
  31
0.0
   0
LINE
   5
100
 100
AcDbEntity
   8
LEVEL001
 370
13
 100
AcDbLine
   6
CONTINUOUS
  62
1
  10
 1462.0338292497
  20
 3918.4830717279
  30
0.0
  11
 1439.3858189958
  21
 3923.0943998529
  31
0.0
   0
LINE
   5
101
 100
AcDbEntity
   8
LEVEL001
 370
13
 100
AcDbLine
   6
CONTINUOUS
  62
1
  10
 1439.3858189958
  20
 3923.0943998529
  30
0.0
  11
 1439.3330235856
  21
 3873.3385404779
  31
0.0
   0
LINE
   5
102
 100
AcDbEntity
   8
LEVEL001
 370
13
 100
AcDbLine
   6
CONTINUOUS
  62
1
  10
 1462.0338292497
  20
 3885.9964994623
  30
0.0
  11
 1462.0338292497
  21
 3892.8592924311
  31
0.0
   0
LINE
   5
103
 100
AcDbEntity
   8
LEVEL001
 370
13
 100
AcDbLine
   6
CONTINUOUS
  62
1
  10
 1462.0338292497
  20
 3892.8592924311
  30
0.0
  11
 1518.6029820817
  21
 3892.8592924311
  31
0.0
   0
LINE
   5
104
 100
AcDbEntity
   8
LEVEL001
 370
13
 100
AcDbLine
   6
CONTINUOUS
  62
1
  10
 1518.6029820817
  20
 3885.9964994623
  30
0.0
  11
 1462.0338292497
  21
 3885.9964994623
  31
0.0
   0
LINE
   5
105
 100
AcDbEntity
   8
LEVEL001
 370
13
 100
AcDbLine
   6
CONTINUOUS
  62
1
  10
 1462.0338292497
  20
 3872.6278471185
  30
0.0
  11
 1462.0338292497
  21
 3877.3883451655
  31
0.0
   0
LINE
   5
106
 100
AcDbEntity
   8
LEVEL001
 370
13
 100
AcDbLine
   6
CONTINUOUS
  62
1
  10
 1462.0338292497
  20
 3877.3883451655
  30
0.0
  11
 1518.6029820817
  21
 3877.3883451655
  31
0.0
   0
LINE
   5
107
 100
AcDbEntity
   8
LEVEL001
 370
13
 100
AcDbLine
   6
CONTINUOUS
  62
1
  10
 1445.5662389177
  20
 3867.0377592279
  30
0.0
  11
 1445.0538487809
  21
 3861.9137357905
  31
0.0
   0
LINE
   5
108
 100
AcDbEntity
   8
LEVEL001
 370
13
 100
AcDbLine
   6
CONTINUOUS
  62
1
  10
 1445.0538487809
  20
 3861.9137357905
  30
0.0
  11
 1443.1065221208
  21
 3858.3268217279
  31
0.0
   0
LINE
   5
109
 100
AcDbEntity
   8
LEVEL001
 370
13
 100
AcDbLine
   6
CONTINUOUS
  62
1
  10
 1443.1065221208
  20
 3858.3268217279
  30
0.0
  11
 1432.0387120622
  21
 3844.5943998529
  31
0.0
   0
ARC
   5
10A
 100
AcDbEntity
   8
LEVEL001
 370
13
   6
CONTINUOUS
  62
1
 100
AcDbCircle
  10
 1440.5705306993
  20
 3838.9819723071
  30
0.0
  40
 10.212309837341
 100
AcDbArc
  50
 146.66215660277
  51
 331.70689669712
   0
ARC
   5
10B
 100
AcDbEntity
   8
LEVEL001
 370
13
   6
CONTINUOUS
  62
1
 100
AcDbCircle
  10
 1426.5828787293
  20
 3848.0405669495
  30
0.0
  40
 26.856307983398
 100
AcDbArc
  50
 328.83302933365
  51
 45.020866477526
   0
ARC
   5
10C
 100
AcDbEntity
   8
LEVEL001
 370
13
   6
CONTINUOUS
  62
1
 100
AcDbCircle
  10
 1467.7208829300
  20
 3835.1146356537
  30
0.0
  40
 6.6096000671386
 100
AcDbArc
  50
 179.99975839708
  51
 269.90651680925
   0
LINE
   5
10D
 100
AcDbEntity
   8
LEVEL001
 370
13
 100
AcDbLine
   6
CONTINUOUS
  62
1
  10
 1467.7100987809
  20
 3828.5050443841
  30
0.0
  11
 1534.6216588395
  21
 3828.5050443841
  31
0.0
   0
LINE
   5
10E
 100
AcDbEntity
   8
LEVEL001
 370
13
 100
AcDbLine
   6
CONTINUOUS
  62
1
  10
 1523.7217564958
  20
 3846.0289701655
  30
0.0
  11
 1483.8621373552
  21
 3846.0289701655
  31
0.0
   0
LINE
   5
10F
 100
AcDbEntity
   8
LEVEL001
 370
13
 100
AcDbLine
   6
CONTINUOUS
  62
1
  10
 1483.8621373552
  20
 3846.0289701655
  30
0.0
  11
 1483.8621373552
  21
 3861.9137357905
  31
0.0
   0
LINE
   5
110
 100
AcDbEntity
   8
LEVEL001
 370
13
 100
AcDbLine
   6
CONTINUOUS
  62
1
  10
 1483.8621373552
  20
 3861.9137357905
  30
0.0
  11
 1485.9116979020
  21
 3864.8856596185
  31
0.0
   0
LINE
   5
111
 100
AcDbEntity
   8
LEVEL001
 370
13
 100
AcDbLine
   6
CONTINUOUS
  62
1
  10
 1484.0672154802
  20
 3867.0377592279
  30
0.0
  11
 1461.1112828630
  21
 3870.1119779779
  31
0.0
   0
LINE
   5
112
 100
AcDbEntity
   8
LEVEL001
 370
13
 100
AcDbLine
   6
CONTINUOUS
  62
1
  10
 1461.1112828630
  20
 3870.1119779779
  30
0.0
  11
 1461.1112828630
  21
 3835.1146635249
  31
0.0
   0
LINE
   5
113
 100
AcDbEntity
   8
LEVEL001
 370
13
 100
AcDbLine
   6
CONTINUOUS
  62
1
  10
 1418.5839391130
  20
 4120.9415678217
  30
0.0
  11
 1433.4910436052
  21
 4118.6124662591
  31
0.0
   0
LINE
   5
114
 100
AcDbEntity
   8
LEVEL001
 370
13
 100
AcDbLine
   6
CONTINUOUS
  62
1
  10
 1439.6397252458
  20
 4086.6385893061
  30
0.0
  11
 1418.5839391130
  21
 4118.8920072749
  31
0.0
   0
LINE
   5
115
 100
AcDbEntity
   8
LEVEL001
 370
13
 100
AcDbLine
   6
CONTINUOUS
  62
1
  10
 1517.2174840348
  20
 4161.5519193841
  30
0.0
  11
 1488.3180089372
  21
 4166.0609525873
  31
0.0
   0
LINE
   5
116
 100
AcDbEntity
   8
LEVEL001
 370
13
 100
AcDbLine
   6
CONTINUOUS
  62
1
  10
 1488.3180089372
  20
 4166.0609525873
  30
0.0
  11
 1488.3180089372
  21
 4141.5682768061
  31
0.0
   0
LINE
   5
117
 100
AcDbEntity
   8
LEVEL001
 370
13
 100
AcDbLine
   6
CONTINUOUS
  62
1
  10
 1488.3180089372
  20
 4130.6027006341
  30
0.0
  11
 1488.3180089372
  21
 4100.0633939935
  31
0.0
   0
LINE
   5
118
 100
AcDbEntity
   8
LEVEL001
 370
13
 100
AcDbLine
   6
CONTINUOUS
  62
1
  10
 1488.3180089372
  20
 4087.9708646967
  30
0.0
  11
 1488.3180089372
  21
 4043.0843900873
  31
0.0
   0
ARC
   5
119
 100
AcDbEntity
   8
LEVEL001
 370
13
   6
CONTINUOUS
  62
1
 100
AcDbCircle
  10
 1491.3124066241
  20
 3833.7494882809
  30
0.0
  40
 37.929008483886
 100
AcDbArc
  50
 46.131357984443
  51
 92.247049960184
   0
LINE
   5
11A
 100
AcDbEntity
   8
LEVEL001
 370
13
 100
AcDbLine
   6
CONTINUOUS
  62
1
  10
 1485.9116979020
  20
 3864.8856596185
  30
0.0
  11
 1484.0672154802
  21
 3867.0377592279
  31
0.0
   0
LINE
   5
11B
 100
AcDbEntity
   8
LEVEL001
 370
13
 100
AcDbLine
   6
CONTINUOUS
  62
1
  10
 1503.9674229997
  20
 3850.3331693841
  30
0.0
  11
 1489.8252721208
  21
 3871.6493314935
  31
0.0
   0
ARC
   5
11C
 100
AcDbEntity
   8
LEVEL001
 370
13
   6
CONTINUOUS
  62
1
 100
AcDbCircle
  10
 1546.4173676613
  20
 4093.0168251553
  30
0.0
  40
 5.0631766319274
 100
AcDbArc
  50
 274.72625926493
  51
 43.105627832225
   0
ARC
   5
11D
 100
AcDbEntity
   8
LEVEL001
 370
13
   6
CONTINUOUS
  62
1
 100
AcDbCircle
  10
 1550.0571058736
  20
 4136.1657966643
  30
0.0
  40
 5.5826339721680
 100
AcDbArc
  50
 274.79495132884
  51
 36.912748479785
   0
LINE
   5
11E
 100
AcDbEntity
   8
LEVEL001
 370
13
 100
AcDbLine
   6
CONTINUOUS
  62
1
  10
 1550.1139684098
  20
 4096.4767240717
  30
0.0
  11
 1533.7168736833
  21
 4109.4918607905
  31
0.0
   0
LINE
   5
11F
 100
AcDbEntity
   8
LEVEL001
 370
13
 100
AcDbLine
   6
CONTINUOUS
  62
1
  10
 1533.7168736833
  20
 4109.4918607905
  30
0.0
  11
 1526.1332555192
  21
 4100.0633939935
  31
0.0
   0
LINE
   5
120
 100
AcDbEntity
   8
LEVEL001
 370
13
 100
AcDbLine
   6
CONTINUOUS
  62
1
  10
 1526.1332555192
  20
 4100.0633939935
  30
0.0
  11
 1513.3231969255
  21
 4100.0633939935
  31
0.0
   0
LINE
   5
121
 100
AcDbEntity
   8
LEVEL001
 370
13
 100
AcDbLine
   6
CONTINUOUS
  62
1
  10
 1513.3231969255
  20
 4100.0633939935
  30
0.0
  11
 1513.3231969255
  21
 4130.6027006341
  31
0.0
   0
LINE
   5
122
 100
AcDbEntity
   8
LEVEL001
 370
13
 100
AcDbLine
   6
CONTINUOUS
  62
1
  10
 1513.3231969255
  20
 4130.6027006341
  30
0.0
  11
 1550.5237584489
  21
 4130.6027006341
  31
0.0
   0
LINE
   5
123
 100
AcDbEntity
   8
LEVEL001
 370
13
 100
AcDbLine
   6
CONTINUOUS
  62
1
  10
 1554.5207066911
  20
 4139.5187162591
  30
0.0
  11
 1540.6855016130
  21
 4151.6112455561
  31
0.0
   0
LINE
   5
124
 100
AcDbEntity
   8
LEVEL001
 370
13
 100
AcDbLine
   6
CONTINUOUS
  62
1
  10
 1540.6855016130
  20
 4151.6112455561
  30
0.0
  11
 1528.7980504411
  21
 4141.5682768061
  31
0.0
   0
LINE
   5
125
 100
AcDbEntity
   8
LEVEL001
 370
13
 100
AcDbLine
   6
CONTINUOUS
  62
1
  10
 1528.7980504411
  20
 4141.5682768061
  30
0.0
  11
 1513.3231969255
  21
 4141.5682768061
  31
0.0
   0
LINE
   5
126
 100
AcDbEntity
   8
LEVEL001
 370
13
 100
AcDbLine
   6
CONTINUOUS
  62
1
  10
 1513.3231969255
  20
 4141.5682768061
  30
0.0
  11
 1513.3231969255
  21
 4157.0426420405
  31
0.0
   0
LINE
   5
127
 100
AcDbEntity
   8
LEVEL001
 370
13
 100
AcDbLine
   6
CONTINUOUS
  62
1
  10
 1513.3231969255
  20
 4157.0426420405
  30
0.0
  11
 1516.9102330583
  21
 4158.8873686029
  31
0.0
   0
LINE
   5
128
 100
AcDbEntity
   8
LEVEL001
 370
13
 100
AcDbLine
   6
CONTINUOUS
  62
1
  10
 1516.9102330583
  20
 4158.8873686029
  30
0.0
  11
 1517.2174840348
  21
 4161.5519193841
  31
0.0
   0
LINE
   5
129
 100
AcDbEntity
   8
LEVEL001
 370
13
 100
AcDbLine
   6
CONTINUOUS
  62
1
  10
 1555.0956578630
  20
 4042.5143217279
  30
0.0
  11
 1539.7632604020
  21
 4052.6151518061
  31
0.0
   0
LINE
   5
12A
 100
AcDbEntity
   8
LEVEL001
 370
13
 100
AcDbLine
   6
CONTINUOUS
  62
1
  10
 1539.7632604020
  20
 4052.6151518061
  30
0.0
  11
 1531.8723912614
  21
 4043.0843900873
  31
0.0
   0
LINE
   5
12B
 100
AcDbEntity
   8
LEVEL001
 370
13
 100
AcDbLine
   6
CONTINUOUS
  62
1
  10
 1531.8723912614
  20
 4043.0843900873
  30
0.0
  11
 1513.3231969255
  21
 4043.0843900873
  31
0.0
   0
LINE
   5
12C
 100
AcDbEntity
   8
LEVEL001
 370
13
 100
AcDbLine
   6
CONTINUOUS
  62
1
  10
 1513.3231969255
  20
 4043.0843900873
  30
0.0
  11
 1513.3231969255
  21
 4087.9708646967
  31
0.0
   0
LINE
   5
12D
 100
AcDbEntity
   8
LEVEL001
 370
13
 100
AcDbLine
   6
CONTINUOUS
  62
1
  10
 1513.3231969255
  20
 4087.9708646967
  30
0.0
  11
 1546.8345494645
  21
 4087.9708646967
  31
0.0
   0
ARC
   5
12E
 100
AcDbEntity
   8
LEVEL001
 370
13
   6
CONTINUOUS
  62
1
 100
AcDbCircle
  10
 1551.6413631863
  20
 4037.2707361345
  30
0.0
  40
 6.2791194915772
 100
AcDbArc
  50
 269.99730665617
  51
 56.624475922390
   0
ARC
   5
12F
 100
AcDbEntity
   8
LEVEL001
 370
13
   6
CONTINUOUS
  62
1
 100
AcDbCircle
  10
 1555.4140836706
  20
 3930.8021009369
  30
0.0
  40
 4.7515311241150
 100
AcDbArc
  50
 274.70300820747
  51
 59.113555838224
   0
LINE
   5
130
 100
AcDbEntity
   8
LEVEL001
 370
13
 100
AcDbLine
   6
CONTINUOUS
  62
1
  10
 1497.4918980973
  20
 3936.6219877435
  30
0.0
  11
 1507.9450841325
  21
 3952.3016752435
  31
0.0
   0
ARC
   5
131
 100
AcDbEntity
   8
LEVEL001
 370
13
   6
CONTINUOUS
  62
1
 100
AcDbCircle
  10
 1545.9727572496
  20
 3957.4578489585
  30
0.0
  40
 5.1561789512634
 100
AcDbArc
  50
 269.91834398461
  51
 52.069476722727
   0
LINE
   5
132
 100
AcDbEntity
   8
LEVEL001
 370
13
 100
AcDbLine
   6
CONTINUOUS
  62
1
  10
 1557.8532262223
  20
 3934.8798002435
  30
0.0
  11
 1539.9192662614
  21
 3945.3329252435
  31
0.0
   0
LINE
   5
133
 100
AcDbEntity
   8
LEVEL001
 370
13
 100
AcDbLine
   6
CONTINUOUS
  62
1
  10
 1539.9192662614
  20
 3945.3329252435
  30
0.0
  11
 1533.3604283708
  21
 3936.6219877435
  31
0.0
   0
LINE
   5
134
 100
AcDbEntity
   8
LEVEL001
 370
13
 100
AcDbLine
   6
CONTINUOUS
  62
1
  10
 1533.3604283708
  20
 3936.6219877435
  30
0.0
  11
 1517.6115270036
  21
 3936.6219877435
  31
0.0
   0
LINE
   5
135
 100
AcDbEntity
   8
LEVEL001
 370
13
 100
AcDbLine
   6
CONTINUOUS
  62
1
  10
 1517.6115270036
  20
 3936.6219877435
  30
0.0
  11
 1526.6990514177
  21
 3944.8204740717
  31
0.0
   0
LINE
   5
136
 100
AcDbEntity
   8
LEVEL001
 370
13
 100
AcDbLine
   6
CONTINUOUS
  62
1
  10
 1526.6990514177
  20
 3944.8204740717
  30
0.0
  11
 1530.4907994645
  21
 3945.3329252435
  31
0.0
   0
LINE
   5
137
 100
AcDbEntity
   8
LEVEL001
 370
13
 100
AcDbLine
   6
CONTINUOUS
  62
1
  10
 1530.4907994645
  20
 3945.3329252435
  30
0.0
  11
 1532.1305699723
  21
 3947.6898588373
  31
0.0
   0
LINE
   5
138
 100
AcDbEntity
   8
LEVEL001
 370
13
 100
AcDbLine
   6
CONTINUOUS
  62
1
  10
 1532.1305699723
  20
 3947.6898588373
  30
0.0
  11
 1529.4660191911
  21
 3952.3016752435
  31
0.0
   0
LINE
   5
139
 100
AcDbEntity
   8
LEVEL001
 370
13
 100
AcDbLine
   6
CONTINUOUS
  62
1
  10
 1529.4660191911
  20
 3952.3016752435
  30
0.0
  11
 1545.9654088395
  21
 3952.3016752435
  31
0.0
   0
LINE
   5
13A
 100
AcDbEntity
   8
LEVEL001
 370
13
 100
AcDbLine
   6
CONTINUOUS
  62
1
  10
 1549.1422887223
  20
 3961.5248197749
  30
0.0
  11
 1530.4907994645
  21
 3971.7728666499
  31
0.0
   0
LINE
   5
13B
 100
AcDbEntity
   8
LEVEL001
 370
13
 100
AcDbLine
   6
CONTINUOUS
  62
1
  10
 1530.4907994645
  20
 3971.7728666499
  30
0.0
  11
 1524.3418736833
  21
 3962.2421049311
  31
0.0
   0
LINE
   5
13C
 100
AcDbEntity
   8
LEVEL001
 370
13
 100
AcDbLine
   6
CONTINUOUS
  62
1
  10
 1524.3418736833
  20
 3962.2421049311
  30
0.0
  11
 1502.9234166520
  21
 3962.2421049311
  31
0.0
   0
LINE
   5
13D
 100
AcDbEntity
   8
LEVEL001
 370
13
 100
AcDbLine
   6
CONTINUOUS
  62
1
  10
 1518.6029820817
  20
 3908.4398588373
  30
0.0
  11
 1518.6029820817
  21
 3901.9835600091
  31
0.0
   0
LINE
   5
13E
 100
AcDbEntity
   8
LEVEL001
 370
13
 100
AcDbLine
   6
CONTINUOUS
  62
1
  10
 1545.1457066911
  20
 3915.4086088373
  30
0.0
  11
 1525.1618199723
  21
 3924.4269193841
  31
0.0
   0
LINE
   5
13F
 100
AcDbEntity
   8
LEVEL001
 370
13
 100
AcDbLine
   6
CONTINUOUS
  62
1
  10
 1525.1618199723
  20
 3924.4269193841
  30
0.0
  11
 1518.6029820817
  21
 3916.7406400873
  31
0.0
   0
LINE
   5
140
 100
AcDbEntity
   8
LEVEL001
 370
13
 100
AcDbLine
   6
CONTINUOUS
  62
1
  10
 1518.6029820817
  20
 3892.8592924311
  30
0.0
  11
 1518.6029820817
  21
 3885.9964994623
  31
0.0
   0
ARC
   5
141
 100
AcDbEntity
   8
LEVEL001
 370
13
   6
CONTINUOUS
  62
1
 100
AcDbCircle
  10
 1541.6467791632
  20
 3912.7964516229
  30
0.0
  40
 4.3664469718934
 100
AcDbArc
  50
 266.14995656848
  51
 36.743524531019
   0
LINE
   5
142
 100
AcDbEntity
   8
LEVEL001
 370
13
 100
AcDbLine
   6
CONTINUOUS
  62
1
  10
 1518.6029820817
  20
 3877.3883451655
  30
0.0
  11
 1518.6029820817
  21
 3872.4691557123
  31
0.0
   0
LINE
   5
143
 100
AcDbEntity
   8
LEVEL001
 370
13
 100
AcDbLine
   6
CONTINUOUS
  62
1
  10
 1518.6029820817
  20
 3872.4691557123
  30
0.0
  11
 1535.5125279802
  21
 3872.4691557123
  31
0.0
   0
LINE
   5
144
 100
AcDbEntity
   8
LEVEL001
 370
13
 100
AcDbLine
   6
CONTINUOUS
  62
1
  10
 1535.5125279802
  20
 3872.4691557123
  30
0.0
  11
 1539.2014928239
  21
 3874.5187162591
  31
0.0
   0
LINE
   5
145
 100
AcDbEntity
   8
LEVEL001
 370
13
 100
AcDbLine
   6
CONTINUOUS
  62
1
  10
 1539.2014928239
  20
 3874.5187162591
  30
0.0
  11
 1541.3535924333
  21
 3878.9254545405
  31
0.0
   0
LINE
   5
146
 100
AcDbEntity
   8
LEVEL001
 370
13
 100
AcDbLine
   6
CONTINUOUS
  62
1
  10
 1541.3535924333
  20
 3878.9254545405
  30
0.0
  11
 1541.3468785661
  21
 3908.4398588373
  31
0.0
   0
LINE
   5
147
 100
AcDbEntity
   8
LEVEL001
 370
13
 100
AcDbLine
   6
CONTINUOUS
  62
1
  10
 1529.1905064958
  20
 3869.8046049311
  30
0.0
  11
 1542.6151891130
  21
 3847.4640287591
  31
0.0
   0
ARC
   5
148
 100
AcDbEntity
   8
LEVEL001
 370
13
   6
CONTINUOUS
  62
1
 100
AcDbCircle
  10
 1534.9231282254
  20
 3837.2883720855
  30
0.0
  40
 8.7884998321534
 100
AcDbArc
  50
 268.03421368566
  51
 95.984851979611
   0
LINE
   5
149
 100
AcDbEntity
   8
LEVEL001
 370
13
 100
AcDbLine
   6
CONTINUOUS
  62
1
  10
 1534.0067906755
  20
 3846.0289701655
  30
0.0
  11
 1526.6282506364
  21
 3864.4757475091
  31
0.0
   0
LINE
   5
14A
 100
AcDbEntity
   8
LEVEL001
 370
13
 100
AcDbLine
   6
CONTINUOUS
  62
1
  10
 1526.6282506364
  20
 3864.4757475091
  30
0.0
  11
 1526.4231725114
  21
 3854.2277006341
  31
0.0
   0
LINE
   5
14B
 100
AcDbEntity
   8
LEVEL001
 370
13
 100
AcDbLine
   6
CONTINUOUS
  62
1
  10
 1526.4231725114
  20
 3854.2277006341
  30
0.0
  11
 1523.7217564958
  21
 3846.0289701655
  31
0.0
   0
ARC
   5
14C
 100
AcDbEntity
   8
LEVEL001
 370
13
   6
CONTINUOUS
  62
1
 100
AcDbCircle
  10
 1508.8477754303
  20
 3858.0526528069
  30
0.0
  40
 9.1328125000000
 100
AcDbArc
  50
 237.69842193839
  51
 18.768745074032
   0
ARC
   5
14D
 100
AcDbEntity
   8
LEVEL001
 370
13
   6
CONTINUOUS
  62
1
 100
AcDbCircle
  10
 1548.4077259960
  20
 3854.2723067333
  30
0.0
  40
 8.9390230178834
 100
AcDbArc
  50
 229.60859987452
  51
 6.7921555436571
   0
ARC
   5
14E
 100
AcDbEntity
   8
LEVEL001
 370
13
   6
CONTINUOUS
  62
1
 100
AcDbCircle
  10
 1533.0989399852
  20
 3843.2409145539
  30
0.0
  40
 27.037969589234
 100
AcDbArc
  50
 26.557576861274
  51
 98.091890389852
   0
LINE
   5
14F
 100
AcDbEntity
   8
LEVEL001
 370
13
 100
AcDbLine
   6
CONTINUOUS
  62
1
  10
 1502.9234166520
  20
 3962.2421049311
  30
0.0
  11
 1502.9234166520
  21
 3968.5958646967
  31
0.0
   0
LINE
   5
150
 100
AcDbEntity
   8
LEVEL001
 370
13
 100
AcDbLine
   6
CONTINUOUS
  62
1
  10
 1502.9234166520
  20
 3968.5958646967
  30
0.0
  11
 1505.0480504411
  21
 3972.2938627435
  31
0.0
   0
LINE
   5
151
 100
AcDbEntity
   8
LEVEL001
 370
13
 100
AcDbLine
   6
CONTINUOUS
  62
1
  10
 1505.0480504411
  20
 3972.2938627435
  30
0.0
  11
 1504.2280431169
  21
 3974.0360502435
  31
0.0
   0
ENDBLK
   5
152
 100
AcDbEntity
   8
0
 100
AcDbBlockEnd
   0
BLOCK
   5
153
 100
AcDbEntity
   8
0
 100
AcDbBlockBegin
   2
BLOCK002
  70
64
  10
0.0
  20
0.0
  30
0.0
   3
BLOCK002
   0
LINE
   5
154
 100
AcDbEntity
   8
LEVEL001
 370
13
 100
AcDbLine
   6
CONTINUOUS
  62
7
  10
 1421.6586461442
  20
 3774.3805326655
  30
0.0
  11
 1561.6559605973
  21
 3774.3805326655
  31
0.0
   0
ARC
   5
155
 100
AcDbEntity
   8
LEVEL001
 370
13
   6
CONTINUOUS
  62
7
 100
AcDbCircle
  10
 1561.6559605973
  20
 3794.3805326655
  30
0.0
  40
 20.000000000000
 100
AcDbArc
  50
 270.00000000000
  51
0.0
   0
LINE
   5
156
 100
AcDbEntity
   8
LEVEL001
 370
13
 100
AcDbLine
   6
CONTINUOUS
  62
7
  10
 1581.6559605973
  20
 3794.3805326655
  30
0.0
  11
 1581.6559605973
  21
 4354.3812650873
  31
0.0
   0
ARC
   5
157
 100
AcDbEntity
   8
LEVEL001
 370
13
   6
CONTINUOUS
  62
7
 100
AcDbCircle
  10
 1421.6586461442
  20
 3794.3805326655
  30
0.0
  40
 20.000000000000
 100
AcDbArc
  50
 180.00000000000
  51
 270.00000000000
   0
LINE
   5
158
 100
AcDbEntity
   8
LEVEL001
 370
13
 100
AcDbLine
   6
CONTINUOUS
  62
7
  10
 1401.6586461442
  20
 4354.3812650873
  30
0.0
  11
 1401.6586461442
  21
 3794.3805326655
  31
0.0
   0
LINE
   5
159
 100
AcDbEntity
   8
LEVEL001
 370
13
 100
AcDbLine
   6
CONTINUOUS
  62
7
  10
 1561.6559605973
  20
 4374.3812650873
  30
0.0
  11
 1421.6586461442
  21
 4374.3812650873
  31
0.0
   0
ARC
   5
15A
 100
AcDbEntity
   8
LEVEL001
 370
13
   6
CONTINUOUS
  62
7
 100
AcDbCircle
  10
 1421.6586461442
  20
 4354.3812650873
  30
0.0
  40
 20.000000000000
 100
AcDbArc
  50
 90.000000000000
  51
 180.00000000000
   0
ARC
   5
15B
 100
AcDbEntity
   8
LEVEL001
 370
13
   6
CONTINUOUS
  62
7
 100
AcDbCircle
  10
 1561.6559605973
  20
 4354.3812650873
  30
0.0
  40
 20.000000000000
 100
AcDbArc
  50
0.0
  51
 90.000000000005
   0
ENDBLK
   5
15C
 100
AcDbEntity
   8
0
 100
AcDbBlockEnd
   0
BLOCK
   5
15D
 100
AcDbEntity
   8
0
 100
AcDbBlockBegin
   2
BLOCK003
  70
64
  10
0.0
  20
0.0
  30
0.0
   3
BLOCK003
   0
LINE
   5
15E
 100
AcDbEntity
   8
LEVEL001
 370
13
 100
AcDbLine
   6
CONTINUOUS
  62
5
  10
 1491.6563268083
  20
 4324.3839506341
  30
0.0
  11
 1436.6563268083
  21
 4254.3839506341
  31
0.0
   0
LINE
   5
15F
 100
AcDbEntity
   8
LEVEL001
 370
13
 100
AcDbLine
   6
CONTINUOUS
  62
5
  10
 1436.6563268083
  20
 4254.3839506341
  30
0.0
  11
 1466.6563268083
  21
 4254.3839506341
  31
0.0
   0
LINE
   5
160
 100
AcDbEntity
   8
LEVEL001
 370
13
 100
AcDbLine
   6
CONTINUOUS
  62
5
  10
 1466.6563268083
  20
 4254.3839506341
  30
0.0
  11
 1466.6563268083
  21
 4224.3839506341
  31
0.0
   0
LINE
   5
161
 100
AcDbEntity
   8
LEVEL001
 370
13
 100
AcDbLine
   6
CONTINUOUS
  62
5
  10
 1466.6563268083
  20
 4224.3839506341
  30
0.0
  11
 1516.6563268083
  21
 4224.3839506341
  31
0.0
   0
LINE
   5
162
 100
AcDbEntity
   8
LEVEL001
 370
13
 100
AcDbLine
   6
CONTINUOUS
  62
5
  10
 1546.6563268083
  20
 4254.3839506341
  30
0.0
  11
 1491.6563268083
  21
 4324.3839506341
  31
0.0
   0
LINE
   5
163
 100
AcDbEntity
   8
LEVEL001
 370
13
 100
AcDbLine
   6
CONTINUOUS
  62
5
  10
 1516.6563268083
  20
 4254.3839506341
  30
0.0
  11
 1546.6563268083
  21
 4254.3839506341
  31
0.0
   0
LINE
   5
164
 100
AcDbEntity
   8
LEVEL001
 370
13
 100
AcDbLine
   6
CONTINUOUS
  62
5
  10
 1516.6563268083
  20
 4224.3839506341
  30
0.0
  11
 1516.6563268083
  21
 4254.3839506341
  31
0.0
   0
ENDBLK
   5
165
 100
AcDbEntity
   8
0
 100
AcDbBlockEnd
   0
BLOCK
   5
166
 100
AcDbEntity
   8
0
 100
AcDbBlockBegin
   2
*D18
  70
65
  10
0.0
  20
0.0
  30
0.0
   3
*D18
   0
LINE
   5
167
 100
AcDbEntity
   8
0
 370
13
 100
AcDbLine
   6
CONTINUOUS
  62
6
  10
 961.65730337079
  20
 1974.3808988764
  30
0.0
  11
 711.65730337079
  21
 1974.3808988764
  31
0.0
   0
LINE
   5
168
 100
AcDbEntity
   8
0
 370
13
 100
AcDbLine
   6
CONTINUOUS
  62
6
  10
 1211.6573033708
  20
 1274.3808988764
  30
0.0
  11
 711.65730337079
  21
 1274.3808988764
  31
0.0
   0
LINE
   5
169
 100
AcDbEntity
   8
0
 370
13
 100
AcDbLine
   6
CONTINUOUS
  62
6
  10
 741.65730337079
  20
 1974.3808988764
  30
0.0
  11
 741.65730337079
  21
 1624.3808988764
  31
0.0
   0
LINE
   5
16A
 100
AcDbEntity
   8
0
 370
13
 100
AcDbLine
   6
CONTINUOUS
  62
6
  10
 741.65730337079
  20
 1274.3808988764
  30
0.0
  11
 741.65730337079
  21
 1624.3808988764
  31
0.0
   0
INSERT
   5
16B
 100
AcDbEntity
   8
0
   6
CONTINUOUS
  62
6
 100
AcDbBlockReference
   2
_OPEN
  10
 741.65730337079
  20
 1974.3808988764
  30
0.0
  41
 42.000000000000
  42
 42.000000000000
  43
 42.000000000000
  50
 90.000000000000
   0
INSERT
   5
16C
 100
AcDbEntity
   8
0
   6
CONTINUOUS
  62
6
 100
AcDbBlockReference
   2
_OPEN
  10
 741.65730337079
  20
 1274.3808988764
  30
0.0
  41
 42.000000000000
  42
 42.000000000000
  43
 42.000000000000
  50
 270.00000000000
   0
MTEXT
   5
16D
 100
AcDbEntity
   8
0
 370
13
  62
1
 100
AcDbMText
  10
 715.94301765650
  20
 1624.3808988764
  30
0.0
  40
 60.000000000000
  41
0.0
  71
8
  72
1
   1
\A1;700
   7
GMM004
  11
0.0
  21
 1.0000000000000
  31
0.0
   0
ENDBLK
   5
16E
 100
AcDbEntity
   8
0
 100
AcDbBlockEnd
   0
BLOCK
   5
16F
 100
AcDbEntity
   8
0
 100
AcDbBlockBegin
   2
*D19
  70
65
  10
0.0
  20
0.0
  30
0.0
   3
*D19
   0
LINE
   5
170
 100
AcDbEntity
   8
0
 370
13
 100
AcDbLine
   6
CONTINUOUS
  62
6
  10
 1211.6573033708
  20
 1274.3808988764
  30
0.0
  11
 711.65730337079
  21
 1274.3808988764
  31
0.0
   0
LINE
   5
171
 100
AcDbEntity
   8
0
 370
13
 100
AcDbLine
   6
CONTINUOUS
  62
6
  10
 1211.6573033708
  20
 1174.3808988764
  30
0.0
  11
 711.65730337079
  21
 1174.3808988764
  31
0.0
   0
LINE
   5
172
 100
AcDbEntity
   8
0
 370
13
 100
AcDbLine
   6
CONTINUOUS
  62
6
  10
 741.65730337079
  20
 1274.3808988764
  30
0.0
  11
 741.65730337079
  21
 1224.3808988764
  31
0.0
   0
LINE
   5
173
 100
AcDbEntity
   8
0
 370
13
 100
AcDbLine
   6
CONTINUOUS
  62
6
  10
 741.65730337079
  20
 1174.3808988764
  30
0.0
  11
 741.65730337079
  21
 1224.3808988764
  31
0.0
   0
INSERT
   5
174
 100
AcDbEntity
   8
0
   6
CONTINUOUS
  62
6
 100
AcDbBlockReference
   2
_OPEN
  10
 741.65730337079
  20
 1274.3808988764
  30
0.0
  41
 42.000000000000
  42
 42.000000000000
  43
 42.000000000000
  50
 90.000000000000
   0
INSERT
   5
175
 100
AcDbEntity
   8
0
   6
CONTINUOUS
  62
6
 100
AcDbBlockReference
   2
_OPEN
  10
 741.65730337079
  20
 1174.3808988764
  30
0.0
  41
 42.000000000000
  42
 42.000000000000
  43
 42.000000000000
  50
 270.00000000000
   0
MTEXT
   5
176
 100
AcDbEntity
   8
0
 370
13
  62
1
 100
AcDbMText
  10
 715.94301765650
  20
 1224.3808988764
  30
0.0
  40
 60.000000000000
  41
0.0
  71
8
  72
1
   1
\A1;100
   7
GMM004
  11
0.0
  21
 1.0000000000000
  31
0.0
   0
ENDBLK
   5
177
 100
AcDbEntity
   8
0
 100
AcDbBlockEnd
   0
BLOCK
   5
178
 100
AcDbEntity
   8
0
 100
AcDbBlockBegin
   2
*D20
  70
65
  10
0.0
  20
0.0
  30
0.0
   3
*D20
   0
LINE
   5
179
 100
AcDbEntity
   8
0
 370
13
 100
AcDbLine
   6
CONTINUOUS
  62
6
  10
 1229.1573033708
  20
 4474.3808988764
  30
0.0
  11
 711.65730337079
  21
 4474.3808988764
  31
0.0
   0
LINE
   5
17A
 100
AcDbEntity
   8
0
 370
13
 100
AcDbLine
   6
CONTINUOUS
  62
6
  10
 961.65730337079
  20
 1974.3808988764
  30
0.0
  11
 711.65730337079
  21
 1974.3808988764
  31
0.0
   0
LINE
   5
17B
 100
AcDbEntity
   8
0
 370
13
 100
AcDbLine
   6
CONTINUOUS
  62
6
  10
 741.65730337079
  20
 4474.3808988764
  30
0.0
  11
 741.65730337079
  21
 3224.3808988764
  31
0.0
   0
LINE
   5
17C
 100
AcDbEntity
   8
0
 370
13
 100
AcDbLine
   6
CONTINUOUS
  62
6
  10
 741.65730337079
  20
 1974.3808988764
  30
0.0
  11
 741.65730337079
  21
 3224.3808988764
  31
0.0
   0
INSERT
   5
17D
 100
AcDbEntity
   8
0
   6
CONTINUOUS
  62
6
 100
AcDbBlockReference
   2
_OPEN
  10
 741.65730337079
  20
 4474.3808988764
  30
0.0
  41
 42.000000000000
  42
 42.000000000000
  43
 42.000000000000
  50
 90.000000000000
   0
INSERT
   5
17E
 100
AcDbEntity
   8
0
   6
CONTINUOUS
  62
6
 100
AcDbBlockReference
   2
_OPEN
  10
 741.65730337079
  20
 1974.3808988764
  30
0.0
  41
 42.000000000000
  42
 42.000000000000
  43
 42.000000000000
  50
 270.00000000000
   0
MTEXT
   5
17F
 100
AcDbEntity
   8
0
 370
13
  62
1
 100
AcDbMText
  10
 715.94301765650
  20
 3224.3808988764
  30
0.0
  40
 60.000000000000
  41
0.0
  71
8
  72
1
   1
\A1;2500(標準設置高さ)
   7
GMM004
  11
0.0
  21
 1.0000000000000
  31
0.0
   0
ENDBLK
   5
180
 100
AcDbEntity
   8
0
 100
AcDbBlockEnd
   0
ENDSEC
   0
SECTION
   2
ENTITIES
   0
LINE
   5
181
 100
AcDbEntity
   8
LEVEL001
 370
13
 100
AcDbLine
   6
CONTINUOUS
  62
7
  10
 8091.6573033708
  20
 5722.7808988764
  30
0.0
  11
 291.65730337079
  21
 5722.7808988764
  31
0.0
   0
LINE
   5
182
 100
AcDbEntity
   8
LEVEL001
 370
13
 100
AcDbLine
   6
CONTINUOUS
  62
7
  10
 291.65730337079
  20
 5722.7808988764
  30
0.0
  11
 291.65730337079
  21
 222.78089887640
  31
0.0
   0
LINE
   5
183
 100
AcDbEntity
   8
LEVEL001
 370
13
 100
AcDbLine
   6
CONTINUOUS
  62
7
  10
 291.65730337079
  20
 222.78089887640
  30
0.0
  11
 8091.6573033708
  21
 222.78089887640
  31
0.0
   0
LINE
   5
184
 100
AcDbEntity
   8
LEVEL001
 370
13
 100
AcDbLine
   6
CONTINUOUS
  62
7
  10
 8091.6573033708
  20
 222.78089887640
  30
0.0
  11
 8091.6573033708
  21
 5722.7808988764
  31
0.0
   0
LINE
   5
185
 100
AcDbEntity
   8
LEVEL001
 370
13
 100
AcDbLine
   6
CONTINUOUS
  62
2
  10
 5451.6573033708
  20
 702.78089887640
  30
0.0
  11
 7131.6573033708
  21
 702.78089887640
  31
0.0
   0
POINT
   5
186
 100
AcDbEntity
   8
LEVEL001
 100
AcDbPoint
  62
3
  10
 6391.6573033708
  20
 762.78089887640
  30
0.0
   0
POINT
   5
187
 100
AcDbEntity
   8
LEVEL001
 100
AcDbPoint
  62
3
  10
 6291.6573033708
  20
 762.78089887640
  30
0.0
   0
POINT
   5
188
 100
AcDbEntity
   8
LEVEL001
 100
AcDbPoint
  62
3
  10
 6391.6573033708
  20
 862.78089887640
  30
0.0
   0
LINE
   5
189
 100
AcDbEntity
   8
LEVEL001
 370
13
 100
AcDbLine
   6
CONTINUOUS
  62
6
  10
 5451.6573033708
  20
 2482.7808988764
  30
0.0
  11
 8091.6573033708
  21
 2482.7808988764
  31
0.0
   0
LINE
   5
18A
 100
AcDbEntity
   8
LEVEL001
 370
13
 100
AcDbLine
   6
CONTINUOUS
  62
6
  10
 5451.6573033708
  20
 1042.7808988764
  30
0.0
  11
 8091.6573033708
  21
 1042.7808988764
  31
0.0
   0
LINE
   5
18B
 100
AcDbEntity
   8
LEVEL001
 370
13
 100
AcDbLine
   6
CONTINUOUS
  62
6
  10
 5451.6573033708
  20
 1162.7808988764
  30
0.0
  11
 8091.6573033708
  21
 1162.7808988764
  31
0.0
   0
LINE
   5
18C
 100
AcDbEntity
   8
LEVEL001
 370
13
 100
AcDbLine
   6
CONTINUOUS
  62
6
  10
 5451.6573033708
  20
 1282.7808988764
  30
0.0
  11
 8091.6573033708
  21
 1282.7808988764
  31
0.0
   0
LINE
   5
18D
 100
AcDbEntity
   8
LEVEL001
 370
13
 100
AcDbLine
   6
CONTINUOUS
  62
6
  10
 5451.6573033708
  20
 1402.7808988764
  30
0.0
  11
 8091.6573033708
  21
 1402.7808988764
  31
0.0
   0
LINE
   5
18E
 100
AcDbEntity
   8
LEVEL001
 370
13
 100
AcDbLine
   6
CONTINUOUS
  62
6
  10
 5451.6573033708
  20
 1522.7808988764
  30
0.0
  11
 8091.6573033708
  21
 1522.7808988764
  31
0.0
   0
MTEXT
   5
18F
 100
AcDbEntity
   8
LEVEL001
 370
13
  62
1
 100
AcDbMText
  10
 7331.6573033708
  20
 1942.7808988764
  30
0.0
  40
 51.428571428572
  41
0.0
  71
4
  72
1
   1
\T1.000000;溶融亜鉛メッキ
   7
GMM001
  44
 0.79999984000003
   0
MTEXT
   5
190
 100
AcDbEntity
   8
LEVEL001
 370
13
  62
1
 100
AcDbMText
  10
 7331.6573033708
  20
 2062.7808988764
  30
0.0
  40
 51.428571428572
  41
0.0
  71
4
  72
1
   1
\T1.000000;溶融亜鉛メッキ
   7
GMM001
  44
 0.79999984000003
   0
MTEXT
   5
191
 100
AcDbEntity
   8
LEVEL001
 370
13
  62
1
 100
AcDbMText
  10
 6771.6573033708
  20
 1942.7808988764
  30
0.0
  40
 51.428571428572
  41
0.0
  71
4
  72
1
   1
\T1.000000;ＳＳ４００
   7
GMM001
  44
 0.79999984000003
   0
MTEXT
   5
192
 100
AcDbEntity
   8
LEVEL001
 370
13
  62
1
 100
AcDbMText
  10
 6771.6573033708
  20
 2062.7808988764
  30
0.0
  40
 51.428571428572
  41
0.0
  71
4
  72
1
   1
\T1.000000;ＳＳ４００
   7
GMM001
  44
 0.79999984000003
   0
MTEXT
   5
193
 100
AcDbEntity
   8
LEVEL001
 370
13
  62
1
 100
AcDbMText
  10
 5623.6573033708
  20
 1822.7808988764
  30
0.0
  40
 51.428571428572
  41
0.0
  71
6
  72
1
   1
\T1.000000;９
   7
GMM001
  44
 0.79999984000003
   0
MTEXT
   5
194
 100
AcDbEntity
   8
LEVEL001
 370
13
  62
1
 100
AcDbMText
  10
 5623.6573033708
  20
 1942.7808988764
  30
0.0
  40
 51.428571428572
  41
0.0
  71
6
  72
1
   1
\T1.000000;８
   7
GMM001
  44
 0.79999984000003
   0
MTEXT
   5
195
 100
AcDbEntity
   8
LEVEL001
 370
13
  62
1
 100
AcDbMText
  10
 5691.6573033708
  20
 1942.7808988764
  30
0.0
  40
 51.428571428572
  41
0.0
  71
4
  72
1
   1
\T1.000000;金具締付ボルトナット
   7
GMM001
  44
 0.79999984000003
   0
MTEXT
   5
196
 100
AcDbEntity
   8
LEVEL001
 370
13
  62
1
 100
AcDbMText
  10
 5623.6573033708
  20
 2062.7808988764
  30
0.0
  40
 51.428571428572
  41
0.0
  71
6
  72
1
   1
\T1.000000;７
   7
GMM001
  44
 0.79999984000003
   0
MTEXT
   5
197
 100
AcDbEntity
   8
LEVEL001
 370
13
  62
1
 100
AcDbMText
  10
 5691.6573033708
  20
 2062.7808988764
  30
0.0
  40
 51.428571428572
  41
0.0
  71
4
  72
1
   1
\T1.000000;裏板金具取付ボルト
   7
GMM001
  44
 0.79999984000003
   0
LINE
   5
198
 100
AcDbEntity
   8
LEVEL001
 370
13
 100
AcDbLine
   6
CONTINUOUS
  62
6
  10
 5451.6573033708
  20
 1642.7808988764
  30
0.0
  11
 8091.6573033708
  21
 1642.7808988764
  31
0.0
   0
LINE
   5
199
 100
AcDbEntity
   8
LEVEL001
 370
13
 100
AcDbLine
   6
CONTINUOUS
  62
6
  10
 5451.6573033708
  20
 1882.7808988764
  30
0.0
  11
 8091.6573033708
  21
 1882.7808988764
  31
0.0
   0
LINE
   5
19A
 100
AcDbEntity
   8
LEVEL001
 370
13
 100
AcDbLine
   6
CONTINUOUS
  62
6
  10
 5451.6573033708
  20
 2002.7808988764
  30
0.0
  11
 8091.6573033708
  21
 2002.7808988764
  31
0.0
   0
MTEXT
   5
19B
 100
AcDbEntity
   8
LEVEL001
 370
13
  62
1
 100
AcDbMText
  10
 5691.6573033708
  20
 2182.7808988764
  30
0.0
  40
 51.428571428572
  41
0.0
  71
4
  72
1
   1
\T1.000000;支柱取付金具
   7
GMM001
  44
 0.79999984000003
   0
MTEXT
   5
19C
 100
AcDbEntity
   8
LEVEL001
 370
13
  62
1
 100
AcDbMText
  10
 5623.6573033708
  20
 2182.7808988764
  30
0.0
  40
 51.428571428572
  41
0.0
  71
6
  72
1
   1
\T1.000000;６
   7
GMM001
  44
 0.79999984000003
   0
MTEXT
   5
19D
 100
AcDbEntity
   8
LEVEL001
 370
13
  62
1
 100
AcDbMText
  10
 6771.6573033708
  20
 2182.7808988764
  30
0.0
  40
 51.428571428572
  41
0.0
  71
4
  72
1
   1
\T1.000000;ＳＳ４００
   7
GMM001
  44
 0.79999984000003
   0
MTEXT
   5
19E
 100
AcDbEntity
   8
LEVEL001
 370
13
  62
1
 100
AcDbMText
  10
 5623.6573033708
  20
 2302.7808988764
  30
0.0
  40
 51.428571428572
  41
0.0
  71
6
  72
1
   1
\T1.000000;５
   7
GMM001
  44
 0.79999984000003
   0
MTEXT
   5
19F
 100
AcDbEntity
   8
LEVEL001
 370
13
  62
1
 100
AcDbMText
  10
 5691.6573033708
  20
 2302.7808988764
  30
0.0
  40
 51.428571428572
  41
0.0
  71
4
  72
1
   1
\T1.000000;裏板取付金具
   7
GMM001
  44
 0.79999984000003
   0
MTEXT
   5
1A0
 100
AcDbEntity
   8
LEVEL001
 370
13
  62
1
 100
AcDbMText
  10
 5623.6573033708
  20
 2422.7808988764
  30
0.0
  40
 51.428571428572
  41
0.0
  71
6
  72
1
   1
\T1.000000;４
   7
GMM001
  44
 0.79999984000003
   0
MTEXT
   5
1A1
 100
AcDbEntity
   8
LEVEL001
 370
13
  62
1
 100
AcDbMText
  10
 5691.6573033708
  20
 2422.7808988764
  30
0.0
  40
 51.428571428572
  41
0.0
  71
4
  72
1
   1
\T1.000000;リング
   7
GMM001
  44
 0.79999984000003
   0
MTEXT
   5
1A2
 100
AcDbEntity
   8
LEVEL001
 370
13
  62
1
 100
AcDbMText
  10
 5623.6573033708
  20
 2542.7808988764
  30
0.0
  40
 51.428571428572
  41
0.0
  71
6
  72
1
   1
\T1.000000;３
   7
GMM001
  44
 0.79999984000003
   0
MTEXT
   5
1A3
 100
AcDbEntity
   8
LEVEL001
 370
13
  62
1
 100
AcDbMText
  10
 5691.6573033708
  20
 2542.7808988764
  30
0.0
  40
 51.428571428572
  41
0.0
  71
4
  72
1
   1
\T1.000000;フード
   7
GMM001
  44
 0.79999984000003
   0
MTEXT
   5
1A4
 100
AcDbEntity
   8
LEVEL001
 370
13
  62
1
 100
AcDbMText
  10
 5623.6573033708
  20
 2662.7808988764
  30
0.0
  40
 51.428571428572
  41
0.0
  71
6
  72
1
   1
\T1.000000;２
   7
GMM001
  44
 0.79999984000003
   0
MTEXT
   5
1A5
 100
AcDbEntity
   8
LEVEL001
 370
13
  62
1
 100
AcDbMText
  10
 5623.6573033708
  20
 2782.7808988764
  30
0.0
  40
 51.428571428572
  41
0.0
  71
6
  72
1
   1
\T1.000000;１
   7
GMM001
  44
 0.79999984000003
   0
MTEXT
   5
1A6
 100
AcDbEntity
   8
LEVEL001
 370
13
  62
1
 100
AcDbMText
  10
 5691.6573033708
  20
 2662.7808988764
  30
0.0
  40
 51.428571428572
  41
0.0
  71
4
  72
1
   1
\T1.000000;バックプレート
   7
GMM001
  44
 0.79999984000003
   0
MTEXT
   5
1A7
 100
AcDbEntity
   8
LEVEL001
 370
13
  62
1
 100
AcDbMText
  10
 5691.6573033708
  20
 2782.7808988764
  30
0.0
  40
 51.428571428572
  41
0.0
  71
4
  72
1
   1
\T1.000000;鏡面　Ｒ＝２２００
   7
GMM001
  44
 0.79999984000003
   0
MTEXT
   5
1A8
 100
AcDbEntity
   8
LEVEL001
 370
13
  62
1
 100
AcDbMText
  10
 6771.6573033708
  20
 2302.7808988764
  30
0.0
  40
 51.428571428572
  41
0.0
  71
4
  72
1
   1
\T1.000000;ＳＳ４００
   7
GMM001
  44
 0.79999984000003
   0
MTEXT
   5
1A9
 100
AcDbEntity
   8
LEVEL001
 370
13
  62
1
 100
AcDbMText
  10
 6771.6573033708
  20
 2422.7808988764
  30
0.0
  40
 51.428571428572
  41
0.0
  71
4
  72
1
   1
\T1.000000;軟質ＰＶＣ
   7
GMM001
  44
 0.79999984000003
   0
MTEXT
   5
1AA
 100
AcDbEntity
   8
LEVEL001
 370
13
  62
1
 100
AcDbMText
  10
 6771.6573033708
  20
 2782.7808988764
  30
0.0
  40
 51.428571428572
  41
0.0
  71
4
  72
1
   1
\T1.000000;ＳＵＳ３０４
   7
GMM001
  44
 0.79999984000003
   0
MTEXT
   5
1AB
 100
AcDbEntity
   8
LEVEL001
 370
13
  62
1
 100
AcDbMText
  10
 7331.6573033708
  20
 2182.7808988764
  30
0.0
  40
 51.428571428572
  41
0.0
  71
4
  72
1
   1
\T1.000000;溶融亜鉛メッキ
   7
GMM001
  44
 0.79999984000003
   0
MTEXT
   5
1AC
 100
AcDbEntity
   8
LEVEL001
 370
13
  62
1
 100
AcDbMText
  10
 7331.6573033708
  20
 2302.7808988764
  30
0.0
  40
 51.428571428572
  41
0.0
  71
4
  72
1
   1
\T1.000000;溶融亜鉛メッキ
   7
GMM001
  44
 0.79999984000003
   0
MTEXT
   5
1AD
 100
AcDbEntity
   8
LEVEL001
 370
13
  62
1
 100
AcDbMText
  10
 7331.6573033708
  20
 2782.7808988764
  30
0.0
  40
 51.428571428572
  41
0.0
  71
4
  72
1
   1
\T1.000000;t=0.9mm\T1.000000;・表面研磨
   7
GMM001
  44
 0.79999984000003
   0
LINE
   5
1AE
 100
AcDbEntity
   8
LEVEL001
 370
13
 100
AcDbLine
   6
CONTINUOUS
  62
6
  10
 5451.6573033708
  20
 2122.7808988764
  30
0.0
  11
 8091.6573033708
  21
 2122.7808988764
  31
0.0
   0
LINE
   5
1AF
 100
AcDbEntity
   8
LEVEL001
 370
13
 100
AcDbLine
   6
CONTINUOUS
  62
6
  10
 5451.6573033708
  20
 2242.7808988764
  30
0.0
  11
 8091.6573033708
  21
 2242.7808988764
  31
0.0
   0
LINE
   5
1B0
 100
AcDbEntity
   8
LEVEL001
 370
13
 100
AcDbLine
   6
CONTINUOUS
  62
6
  10
 5451.6573033708
  20
 2602.7808988764
  30
0.0
  11
 8091.6573033708
  21
 2602.7808988764
  31
0.0
   0
LINE
   5
1B1
 100
AcDbEntity
   8
LEVEL001
 370
13
 100
AcDbLine
   6
CONTINUOUS
  62
6
  10
 5451.6573033708
  20
 2362.7808988764
  30
0.0
  11
 8091.6573033708
  21
 2362.7808988764
  31
0.0
   0
LINE
   5
1B2
 100
AcDbEntity
   8
LEVEL001
 370
13
 100
AcDbLine
   6
CONTINUOUS
  62
6
  10
 5451.6573033708
  20
 2722.7808988764
  30
0.0
  11
 8091.6573033708
  21
 2722.7808988764
  31
0.0
   0
MTEXT
   5
1B3
 100
AcDbEntity
   8
LEVEL001
 370
13
  62
1
 100
AcDbMText
  10
 6091.6573033708
  20
 2922.7808988764
  30
0.0
  40
 51.428571428572
  41
0.0
  71
5
  72
1
   1
\T1.000000;名　　称
   7
GMM001
  44
 0.79999984000003
   0
MTEXT
   5
1B4
 100
AcDbEntity
   8
LEVEL001
 370
13
  62
1
 100
AcDbMText
  10
 6631.6573033708
  20
 2922.7808988764
  30
0.0
  40
 51.428571428572
  41
0.0
  71
5
  72
1
   1
\T1.000000;個数
   7
GMM001
  44
 0.79999984000003
   0
MTEXT
   5
1B5
 100
AcDbEntity
   8
LEVEL001
 370
13
  62
1
 100
AcDbMText
  10
 7011.6573033708
  20
 2922.7808988764
  30
0.0
  40
 51.428571428572
  41
0.0
  71
5
  72
1
   1
\T1.000000;材　　質
   7
GMM001
  44
 0.79999984000003
   0
MTEXT
   5
1B6
 100
AcDbEntity
   8
LEVEL001
 370
13
  62
1
 100
AcDbMText
  10
 7691.6573033708
  20
 2922.7808988764
  30
0.0
  40
 51.428571428572
  41
0.0
  71
5
  72
1
   1
\T1.000000;規格仕様
   7
GMM001
  44
 0.79999984000003
   0
CIRCLE
   5
1B7
 100
AcDbEntity
   8
LEVEL001
 370
13
 100
AcDbCircle
   6
CONTINUOUS
  62
1
  10
 3351.1511214984
  20
 5172.7808988764
  30
0.0
  40
 69.999997913838
   0
CIRCLE
   5
1B8
 100
AcDbEntity
   8
LEVEL001
 370
13
 100
AcDbCircle
   6
CONTINUOUS
  62
1
  10
 3491.1511173262
  20
 5172.7808988764
  30
0.0
  40
 69.999997913838
   0
CIRCLE
   5
1B9
 100
AcDbEntity
   8
LEVEL001
 370
13
 100
AcDbCircle
   6
CONTINUOUS
  62
1
  10
 3191.6573033708
  20
 5172.7808988764
  30
0.0
  40
 70.000000000000
   0
MTEXT
   5
1BA
 100
AcDbEntity
   8
LEVEL001
 370
13
  62
1
 100
AcDbMText
  10
 3351.1511214984
  20
 5172.7808988764
  30
0.0
  40
 57.142857142858
  41
0.0
  71
5
  72
1
   1
\T1.000000;6
   7
GMM001
  44
 0.79999984000003
   0
MTEXT
   5
1BB
 100
AcDbEntity
   8
LEVEL001
 370
13
  62
1
 100
AcDbMText
  10
 3491.1511173262
  20
 5172.7808988764
  30
0.0
  40
 57.142857142858
  41
0.0
  71
5
  72
1
   1
\T1.000000;8
   7
GMM001
  44
 0.79999984000003
   0
CIRCLE
   5
1BC
 100
AcDbEntity
   8
LEVEL001
 370
13
 100
AcDbCircle
   6
CONTINUOUS
  62
1
  10
 2291.6573033708
  20
 5172.7808988764
  30
0.0
  40
 69.999997913838
   0
MTEXT
   5
1BD
 100
AcDbEntity
   8
LEVEL001
 370
13
  62
1
 100
AcDbMText
  10
 2291.6573033708
  20
 5172.7808988764
  30
0.0
  40
 57.142857142858
  41
0.0
  71
5
  72
1
   1
\T1.000000;3
   7
GMM001
  44
 0.79999984000003
   0
MTEXT
   5
1BE
 100
AcDbEntity
   8
LEVEL001
 370
13
  62
1
 100
AcDbMText
  10
 3191.6573033708
  20
 5172.7808988764
  30
0.0
  40
 57.142857142858
  41
0.0
  71
5
  72
1
   1
\T1.000000;11
   7
GMM001
  44
 0.79999984000003
   0
CIRCLE
   5
1BF
 100
AcDbEntity
   8
LEVEL001
 370
13
 100
AcDbCircle
   6
CONTINUOUS
  62
1
  10
 2701.6573075432
  20
 5172.7808988764
  30
0.0
  40
 69.999997913838
   0
CIRCLE
   5
1C0
 100
AcDbEntity
   8
LEVEL001
 370
13
 100
AcDbCircle
   6
CONTINUOUS
  62
1
  10
 2841.6573033708
  20
 5172.7808988764
  30
0.0
  40
 69.999997913838
   0
MTEXT
   5
1C1
 100
AcDbEntity
   8
LEVEL001
 370
13
  62
1
 100
AcDbMText
  10
 2841.6573033708
  20
 5172.7808988764
  30
0.0
  40
 57.142857142858
  41
0.0
  71
5
  72
1
   1
\T1.000000;7
   7
GMM001
  44
 0.79999984000003
   0
MTEXT
   5
1C2
 100
AcDbEntity
   8
LEVEL001
 370
13
  62
1
 100
AcDbMText
  10
 2701.6573075432
  20
 5172.7808988764
  30
0.0
  40
 57.142857142858
  41
0.0
  71
5
  72
1
   1
\T1.000000;5
   7
GMM001
  44
 0.79999984000003
   0
MTEXT
   5
1C3
 100
AcDbEntity
   8
LEVEL001
 370
13
  62
1
 100
AcDbMText
  10
 7331.6573033708
  20
 1822.7808988764
  30
0.0
  40
 51.428571428572
  41
0.0
  71
4
  72
1
   1
\T1.000000;静電粉体塗装
   7
GMM001
  44
 0.79999984000003
   0
MTEXT
   5
1C4
 100
AcDbEntity
   8
LEVEL001
 370
13
  62
1
 100
AcDbMText
  10
 6771.6573033708
  20
 1822.7808988764
  30
0.0
  40
 51.428571428572
  41
0.0
  71
4
  72
1
   1
\T1.000000;ＳＴＫ４００
   7
GMM001
  44
 0.79999984000003
   0
MTEXT
   5
1C5
 100
AcDbEntity
   8
LEVEL001
 370
13
  62
1
 100
AcDbMText
  10
 6703.6573033708
  20
 1822.7808988764
  30
0.0
  40
 51.428571428572
  41
0.0
  71
6
  72
1
   1
\T1.000000;１
   7
GMM001
  44
 0.79999984000003
   0
MTEXT
   5
1C6
 100
AcDbEntity
   8
LEVEL001
 370
13
  62
1
 100
AcDbMText
  10
 5691.6573033708
  20
 1822.7808988764
  30
0.0
  40
 51.428571428572
  41
0.0
  71
4
  72
1
   1
\T1.000000;支柱
   7
GMM001
  44
 0.79999984000003
   0
MTEXT
   5
1C7
 100
AcDbEntity
   8
LEVEL001
 370
13
  62
1
 100
AcDbMText
  10
 6703.6573033708
  20
 2782.7808988764
  30
0.0
  40
 51.428571428572
  41
0.0
  71
6
  72
1
   1
\T1.000000;１
   7
GMM001
  44
 0.79999984000003
   0
MTEXT
   5
1C8
 100
AcDbEntity
   8
LEVEL001
 370
13
  62
1
 100
AcDbMText
  10
 6703.6573033708
  20
 2062.7808988764
  30
0.0
  40
 51.428571428572
  41
0.0
  71
6
  72
1
   1
\T1.000000;４
   7
GMM001
  44
 0.79999984000003
   0
MTEXT
   5
1C9
 100
AcDbEntity
   8
LEVEL001
 370
13
  62
1
 100
AcDbMText
  10
 6703.6573033708
  20
 1942.7808988764
  30
0.0
  40
 51.428571428572
  41
0.0
  71
6
  72
1
   1
\T1.000000;４
   7
GMM001
  44
 0.79999984000003
   0
MTEXT
   5
1CA
 100
AcDbEntity
   8
LEVEL001
 370
13
  62
1
 100
AcDbMText
  10
 6703.6573033708
  20
 2662.7808988764
  30
0.0
  40
 51.428571428572
  41
0.0
  71
6
  72
1
   1
\T1.000000;１
   7
GMM001
  44
 0.79999984000003
   0
MTEXT
   5
1CB
 100
AcDbEntity
   8
LEVEL001
 370
13
  62
1
 100
AcDbMText
  10
 6703.6573033708
  20
 2542.7808988764
  30
0.0
  40
 51.428571428572
  41
0.0
  71
6
  72
1
   1
\T1.000000;１
   7
GMM001
  44
 0.79999984000003
   0
MTEXT
   5
1CC
 100
AcDbEntity
   8
LEVEL001
 370
13
  62
1
 100
AcDbMText
  10
 6703.6573033708
  20
 2422.7808988764
  30
0.0
  40
 51.428571428572
  41
0.0
  71
6
  72
1
   1
\T1.000000;１
   7
GMM001
  44
 0.79999984000003
   0
MTEXT
   5
1CD
 100
AcDbEntity
   8
LEVEL001
 370
13
  62
1
 100
AcDbMText
  10
 6703.6573033708
  20
 2302.7808988764
  30
0.0
  40
 51.428571428572
  41
0.0
  71
6
  72
1
   1
\T1.000000;１
   7
GMM001
  44
 0.79999984000003
   0
MTEXT
   5
1CE
 100
AcDbEntity
   8
LEVEL001
 370
13
  62
1
 100
AcDbMText
  10
 6703.6573033708
  20
 2182.7808988764
  30
0.0
  40
 51.428571428572
  41
0.0
  71
6
  72
1
   1
\T1.000000;１
   7
GMM001
  44
 0.79999984000003
   0
MTEXT
   5
1D0
 100
AcDbEntity
   8
LEVEL001
 370
13
  62
1
 100
AcDbMText
  10
 1112.3059085803
  20
 1983.1108359167
  30
0.0
  40
 40.000000000000
  41
0.0
  71
7
  72
1
   1
\T1.000000;ＧＬ
   7
GMM002
  44
 0.79999984000003
   0
LINE
   5
1D1
 100
AcDbEntity
   8
LEVEL001
 370
13
 100
AcDbLine
   6
CONTINUOUS
  62
1
  10
 1084.1572381355
  20
 1974.3808988764
  30
0.0
  11
 1059.1572381355
  21
 2024.3808988764
  31
0.0
   0
LINE
   5
1D2
 100
AcDbEntity
   8
LEVEL001
 370
13
 100
AcDbLine
   6
CONTINUOUS
  62
1
  10
 1059.1572381355
  20
 2024.3808988764
  30
0.0
  11
 1109.1572381355
  21
 2024.3808988764
  31
0.0
   0
LINE
   5
1D3
 100
AcDbEntity
   8
LEVEL001
 370
13
 100
AcDbLine
   6
CONTINUOUS
  62
1
  10
 1109.1572381355
  20
 2024.3808988764
  30
0.0
  11
 1084.1572381355
  21
 1974.3808988764
  31
0.0
   0
MTEXT
   5
1D5
 100
AcDbEntity
   8
LEVEL001
 370
13
  62
1
 100
AcDbMText
  10
 2612.3059085802
  20
 1983.1108359167
  30
0.0
  40
 40.000000000000
  41
0.0
  71
7
  72
1
   1
\T1.000000;ＧＬ
   7
GMM002
  44
 0.79999984000003
   0
LINE
   5
1D6
 100
AcDbEntity
   8
LEVEL001
 370
13
 100
AcDbLine
   6
CONTINUOUS
  62
1
  10
 2584.1572381354
  20
 1974.3808988764
  30
0.0
  11
 2559.1572381354
  21
 2024.3808988764
  31
0.0
   0
LINE
   5
1D7
 100
AcDbEntity
   8
LEVEL001
 370
13
 100
AcDbLine
   6
CONTINUOUS
  62
1
  10
 2559.1572381354
  20
 2024.3808988764
  30
0.0
  11
 2609.1572381354
  21
 2024.3808988764
  31
0.0
   0
LINE
   5
1D8
 100
AcDbEntity
   8
LEVEL001
 370
13
 100
AcDbLine
   6
CONTINUOUS
  62
1
  10
 2609.1572381354
  20
 2024.3808988764
  30
0.0
  11
 2584.1572381354
  21
 1974.3808988764
  31
0.0
   0
LINE
   5
1D9
 100
AcDbEntity
   8
LEVEL001
 370
13
 100
AcDbLine
   6
CONTINUOUS
  62
7
  10
 3029.8073033708
  20
 4878.3808988764
  30
0.0
  11
 2953.5073033708
  21
 4878.3808988764
  31
0.0
   0
LINE
   5
1DA
 100
AcDbEntity
   8
LEVEL001
 370
13
 100
AcDbLine
   6
CONTINUOUS
  62
7
  10
 2953.5073033708
  20
 4878.3808988764
  30
0.0
  11
 2953.5073033708
  21
 4875.3808988764
  31
0.0
   0
LINE
   5
1DB
 100
AcDbEntity
   8
LEVEL001
 370
13
 100
AcDbLine
   6
CONTINUOUS
  62
7
  10
 2953.5073033708
  20
 4875.3808988764
  30
0.0
  11
 3029.8073033708
  21
 4875.3808988764
  31
0.0
   0
LINE
   5
1DC
 100
AcDbEntity
   8
LEVEL001
 370
13
 100
AcDbLine
   6
CONTINUOUS
  62
7
  10
 3029.8073033708
  20
 4875.3808988764
  30
0.0
  11
 3029.8073033708
  21
 4878.3808988764
  31
0.0
   0
LINE
   5
1DD
 100
AcDbEntity
   8
LEVEL001
 370
13
 100
AcDbLine
   6
DOT
  62
1
  10
 3024.8073033708
  20
 4875.3808988764
  30
0.0
  11
 3024.8073033708
  21
 4848.3808988764
  31
0.0
   0
LINE
   5
1DE
 100
AcDbEntity
   8
LEVEL001
 370
13
 100
AcDbLine
   6
DOT
  62
1
  10
 3024.8073033708
  20
 4848.3808988764
  30
0.0
  11
 2958.5073033708
  21
 4848.3808988764
  31
0.0
   0
LINE
   5
1DF
 100
AcDbEntity
   8
LEVEL001
 370
13
 100
AcDbLine
   6
DOT
  62
1
  10
 2958.5073033708
  20
 4848.3808988764
  30
0.0
  11
 2958.5073033708
  21
 4875.3808988764
  31
0.0
   0
LINE
   5
1E0
 100
AcDbEntity
   8
LEVEL001
 370
13
 100
AcDbLine
   6
DASHDOT
  62
6
  10
 1431.6572852851
  20
 1674.3808988764
  30
0.0
  11
 1551.6572852851
  21
 1674.3808988764
  31
0.0
   0
CIRCLE
   5
1E1
 100
AcDbEntity
   8
LEVEL001
 370
13
 100
AcDbCircle
   6
CONTINUOUS
  62
7
  10
 1491.6572695687
  20
 1574.3808988764
  30
0.0
  40
 7.5000000000000
   0
LINE
   5
1E2
 100
AcDbEntity
   8
LEVEL001
 370
13
 100
AcDbLine
   6
DASHDOT
  62
6
  10
 1461.6572695687
  20
 1574.3808988764
  30
0.0
  11
 1521.6572695687
  21
 1574.3808988764
  31
0.0
   0
LINE
   5
1E3
 100
AcDbEntity
   8
LEVEL001
 370
13
 100
AcDbLine
   6
CONTINUOUS
  62
7
  10
 1453.5073033708
  20
 1274.3808988764
  30
0.0
  11
 1529.8073033708
  21
 1274.3808988764
  31
0.0
   0
CIRCLE
   5
1E4
 100
AcDbEntity
   8
LEVEL001
 370
13
 100
AcDbCircle
   6
CONTINUOUS
  62
7
  10
 2991.6572695688
  20
 1674.3808988764
  30
0.0
  40
 7.5000000000000
   0
LINE
   5
1E5
 100
AcDbEntity
   8
LEVEL001
 370
13
 100
AcDbLine
   6
DASHDOT
  62
6
  10
 2961.6572695688
  20
 1674.3808988764
  30
0.0
  11
 3021.6572695688
  21
 1674.3808988764
  31
0.0
   0
LINE
   5
1E6
 100
AcDbEntity
   8
LEVEL001
 370
13
 100
AcDbLine
   6
DASHDOT
  62
6
  10
 2931.6572852852
  20
 1574.3808988764
  30
0.0
  11
 3051.6572852852
  21
 1574.3808988764
  31
0.0
   0
LINE
   5
1E7
 100
AcDbEntity
   8
LEVEL001
 370
13
 100
AcDbLine
   6
CONTINUOUS
  62
7
  10
 2953.5073033708
  20
 1581.8808988764
  30
0.0
  11
 2881.6572852852
  21
 1581.8808988764
  31
0.0
   0
LINE
   5
1E8
 100
AcDbEntity
   8
LEVEL001
 370
13
 100
AcDbLine
   6
CONTINUOUS
  62
7
  10
 2881.6572852852
  20
 1581.8808988764
  30
0.0
  11
 2881.6572852852
  21
 1566.8808988764
  31
0.0
   0
LINE
   5
1E9
 100
AcDbEntity
   8
LEVEL001
 370
13
 100
AcDbLine
   6
CONTINUOUS
  62
7
  10
 2881.6572852852
  20
 1566.8808988764
  30
0.0
  11
 2953.5073033708
  21
 1566.8808988764
  31
0.0
   0
LINE
   5
1EA
 100
AcDbEntity
   8
LEVEL001
 370
13
 100
AcDbLine
   6
CONTINUOUS
  62
7
  10
 3029.8073033708
  20
 1581.8808988764
  30
0.0
  11
 3101.6572852852
  21
 1581.8808988764
  31
0.0
   0
LINE
   5
1EB
 100
AcDbEntity
   8
LEVEL001
 370
13
 100
AcDbLine
   6
CONTINUOUS
  62
7
  10
 3101.6572852852
  20
 1581.8808988764
  30
0.0
  11
 3101.6572852852
  21
 1566.8808988764
  31
0.0
   0
LINE
   5
1EC
 100
AcDbEntity
   8
LEVEL001
 370
13
 100
AcDbLine
   6
CONTINUOUS
  62
7
  10
 3101.6572852852
  20
 1566.8808988764
  30
0.0
  11
 3029.8073033708
  21
 1566.8808988764
  31
0.0
   0
CIRCLE
   5
1ED
 100
AcDbEntity
   8
LEVEL001
 370
13
 100
AcDbCircle
   6
CONTINUOUS
  62
1
  10
 2616.6573033708
  20
 1424.3808988764
  30
0.0
  40
 70.000000000000
   0
LINE
   5
1EE
 100
AcDbEntity
   8
LEVEL001
 370
13
 100
AcDbLine
   6
DOT
  62
1
  10
 3029.8073033708
  20
 1566.8808988764
  30
0.0
  11
 2953.5073033708
  21
 1566.8808988764
  31
0.0
   0
LINE
   5
1EF
 100
AcDbEntity
   8
LEVEL001
 370
13
 100
AcDbLine
   6
DOT
  62
1
  10
 2953.5073033708
  20
 1581.8808988764
  30
0.0
  11
 3029.8073033708
  21
 1581.8808988764
  31
0.0
   0
MTEXT
   5
1F0
 100
AcDbEntity
   8
LEVEL001
 370
13
  62
1
 100
AcDbMText
  10
 2616.6573033708
  20
 1424.3808988764
  30
0.0
  40
 57.142857142858
  41
0.0
  71
5
  72
1
   1
\T1.000000;10
   7
GMM001
  44
 0.79999984000003
   0
LINE
   5
1F1
 100
AcDbEntity
   8
LEVEL001
 370
13
 100
AcDbLine
   6
DASHDOT
  62
6
  10
 1116.6573033708
  20
 4722.7808988764
  30
0.0
  11
 1866.6573033708
  21
 4722.7808988764
  31
0.0
   0
LINE
   5
1F2
 100
AcDbEntity
   8
LEVEL001
 370
13
 100
AcDbLine
   6
DASHDOT
  62
6
  10
 3116.6573204734
  20
 4722.7808988764
  30
0.0
  11
 2691.1018724726
  21
 4722.7808988764
  31
0.0
   0
LINE
   5
1F3
 100
AcDbEntity
   8
LEVEL001
 370
13
 100
AcDbLine
   6
DASHDOT
  62
6
  10
 2873.8739406300
  20
 4767.7808988764
  30
0.0
  11
 2873.8739406300
  21
 4737.7808988764
  31
0.0
   0
LINE
   5
1F4
 100
AcDbEntity
   8
LEVEL001
 370
13
 100
AcDbLine
   6
DASHDOT
  62
6
  10
 2858.8739406300
  20
 4752.7808988764
  30
0.0
  11
 2888.8739406300
  21
 4752.7808988764
  31
0.0
   0
LINE
   5
1F5
 100
AcDbEntity
   8
LEVEL001
 370
13
 100
AcDbLine
   6
DASHDOT
  62
6
  10
 2873.8739406300
  20
 4707.7808988764
  30
0.0
  11
 2873.8739406300
  21
 4677.7808988764
  31
0.0
   0
LINE
   5
1F6
 100
AcDbEntity
   8
LEVEL001
 370
13
 100
AcDbLine
   6
DASHDOT
  62
6
  10
 2858.8739406300
  20
 4692.7808988764
  30
0.0
  11
 2888.8739406300
  21
 4692.7808988764
  31
0.0
   0
LINE
   5
1F7
 100
AcDbEntity
   8
LEVEL001
 370
13
 100
AcDbLine
   6
CONTINUOUS
  62
7
  10
 2898.8739406300
  20
 4777.7808988764
  30
0.0
  11
 2953.8739406300
  21
 4777.7808988764
  31
0.0
   0
LINE
   5
1F8
 100
AcDbEntity
   8
LEVEL001
 370
13
 100
AcDbLine
   6
CONTINUOUS
  62
7
  10
 2953.8739406300
  20
 4777.7808988764
  30
0.0
  11
 2953.8739406300
  21
 4667.7808988764
  31
0.0
   0
LINE
   5
1F9
 100
AcDbEntity
   8
LEVEL001
 370
13
 100
AcDbLine
   6
CONTINUOUS
  62
7
  10
 2953.8739406300
  20
 4667.7808988764
  30
0.0
  11
 2898.8739406300
  21
 4667.7808988764
  31
0.0
   0
LINE
   5
1FA
 100
AcDbEntity
   8
LEVEL001
 370
13
 100
AcDbLine
   6
DASHDOT
  62
6
  10
 2923.0230632874
  20
 4733.3663126952
  30
0.0
  11
 2923.0230632874
  21
 4703.3663126952
  31
0.0
   0
LINE
   5
1FB
 100
AcDbEntity
   8
LEVEL001
 370
13
 100
AcDbLine
   6
DASHDOT
  62
6
  10
 2908.0230632874
  20
 4718.3663126952
  30
0.0
  11
 2938.0230632874
  21
 4718.3663126952
  31
0.0
   0
LINE
   5
1FC
 100
AcDbEntity
   8
LEVEL001
 370
13
 100
AcDbLine
   6
CONTINUOUS
  62
3
  10
 2866.8739406300
  20
 4745.7808988764
  30
0.0
  11
 2880.8739406300
  21
 4745.7808988764
  31
0.0
   0
LINE
   5
1FD
 100
AcDbEntity
   8
LEVEL001
 370
13
 100
AcDbLine
   6
CONTINUOUS
  62
3
  10
 2880.8739406300
  20
 4745.7808988764
  30
0.0
  11
 2880.8739406300
  21
 4759.7808988764
  31
0.0
   0
LINE
   5
1FE
 100
AcDbEntity
   8
LEVEL001
 370
13
 100
AcDbLine
   6
CONTINUOUS
  62
3
  10
 2880.8739406300
  20
 4759.7808988764
  30
0.0
  11
 2866.8739406300
  21
 4759.7808988764
  31
0.0
   0
LINE
   5
1FF
 100
AcDbEntity
   8
LEVEL001
 370
13
 100
AcDbLine
   6
CONTINUOUS
  62
3
  10
 2866.8739406300
  20
 4759.7808988764
  30
0.0
  11
 2866.8739406300
  21
 4745.7808988764
  31
0.0
   0
LINE
   5
200
 100
AcDbEntity
   8
LEVEL001
 370
13
 100
AcDbLine
   6
CONTINUOUS
  62
3
  10
 2866.8739406300
  20
 4685.7808988764
  30
0.0
  11
 2880.8739406300
  21
 4685.7808988764
  31
0.0
   0
LINE
   5
201
 100
AcDbEntity
   8
LEVEL001
 370
13
 100
AcDbLine
   6
CONTINUOUS
  62
3
  10
 2880.8739406300
  20
 4685.7808988764
  30
0.0
  11
 2880.8739406300
  21
 4699.7808988764
  31
0.0
   0
LINE
   5
202
 100
AcDbEntity
   8
LEVEL001
 370
13
 100
AcDbLine
   6
CONTINUOUS
  62
3
  10
 2880.8739406300
  20
 4699.7808988764
  30
0.0
  11
 2866.8739406300
  21
 4699.7808988764
  31
0.0
   0
LINE
   5
203
 100
AcDbEntity
   8
LEVEL001
 370
13
 100
AcDbLine
   6
CONTINUOUS
  62
3
  10
 2866.8739406300
  20
 4699.7808988764
  30
0.0
  11
 2866.8739406300
  21
 4685.7808988764
  31
0.0
   0
ARC
   5
204
 100
AcDbEntity
   8
LEVEL001
 370
13
   6
CONTINUOUS
  62
3
 100
AcDbCircle
  10
 2873.8739406300
  20
 4752.7808988764
  30
0.0
  40
 52.000000000000
 100
AcDbArc
  50
 298.73565374491
  51
 324.99999999986
   0
ARC
   5
205
 100
AcDbEntity
   8
LEVEL001
 370
13
   6
CONTINUOUS
  62
3
 100
AcDbCircle
  10
 2923.0230632872
  20
 4718.3663126952
  30
0.0
  40
 8.0000000000000
 100
AcDbArc
  50
 324.99999999985
  51
 146.50781277454
   0
ARC
   5
206
 100
AcDbEntity
   8
LEVEL001
 370
13
   6
CONTINUOUS
  62
3
 100
AcDbCircle
  10
 2873.8739406300
  20
 4752.7808988764
  30
0.0
  40
 68.000000000000
 100
AcDbArc
  50
 291.57057830161
  51
 324.99999999989
   0
LINE
   5
207
 100
AcDbEntity
   8
LEVEL001
 370
13
 100
AcDbLine
   6
DASHDOT
  62
6
  10
 3046.6573204734
  20
 4767.7808988764
  30
0.0
  11
 3046.6573204734
  21
 4737.7808988764
  31
0.0
   0
LINE
   5
208
 100
AcDbEntity
   8
LEVEL001
 370
13
 100
AcDbLine
   6
DASHDOT
  62
6
  10
 3031.6573204734
  20
 4752.7808988764
  30
0.0
  11
 3061.6573204734
  21
 4752.7808988764
  31
0.0
   0
LINE
   5
209
 100
AcDbEntity
   8
LEVEL001
 370
13
 100
AcDbLine
   6
DASHDOT
  62
6
  10
 3046.6573204734
  20
 4707.7808988764
  30
0.0
  11
 3046.6573204734
  21
 4677.7808988764
  31
0.0
   0
LINE
   5
20A
 100
AcDbEntity
   8
LEVEL001
 370
13
 100
AcDbLine
   6
DASHDOT
  62
6
  10
 3031.6573204734
  20
 4692.7808988764
  30
0.0
  11
 3061.6573204734
  21
 4692.7808988764
  31
0.0
   0
LINE
   5
20B
 100
AcDbEntity
   8
LEVEL001
 370
13
 100
AcDbLine
   6
CONTINUOUS
  62
7
  10
 2953.8739406300
  20
 4667.7808988764
  30
0.0
  11
 3066.6573204734
  21
 4667.7808988764
  31
0.0
   0
LINE
   5
20C
 100
AcDbEntity
   8
LEVEL001
 370
13
 100
AcDbLine
   6
CONTINUOUS
  62
7
  10
 3066.6573204734
  20
 4667.7808988764
  30
0.0
  11
 3066.6573204734
  21
 4777.7808988764
  31
0.0
   0
LINE
   5
20D
 100
AcDbEntity
   8
LEVEL001
 370
13
 100
AcDbLine
   6
CONTINUOUS
  62
7
  10
 3066.6573204734
  20
 4777.7808988764
  30
0.0
  11
 2953.8739406300
  21
 4777.7808988764
  31
0.0
   0
LINE
   5
20E
 100
AcDbEntity
   8
LEVEL001
 370
13
 100
AcDbLine
   6
CONTINUOUS
  62
3
  10
 3039.6573204734
  20
 4685.7808988764
  30
0.0
  11
 3053.6573204734
  21
 4685.7808988764
  31
0.0
   0
LINE
   5
20F
 100
AcDbEntity
   8
LEVEL001
 370
13
 100
AcDbLine
   6
CONTINUOUS
  62
3
  10
 3053.6573204734
  20
 4685.7808988764
  30
0.0
  11
 3053.6573204734
  21
 4699.7808988764
  31
0.0
   0
LINE
   5
210
 100
AcDbEntity
   8
LEVEL001
 370
13
 100
AcDbLine
   6
CONTINUOUS
  62
3
  10
 3053.6573204734
  20
 4699.7808988764
  30
0.0
  11
 3039.6573204734
  21
 4699.7808988764
  31
0.0
   0
LINE
   5
211
 100
AcDbEntity
   8
LEVEL001
 370
13
 100
AcDbLine
   6
CONTINUOUS
  62
3
  10
 3039.6573204734
  20
 4699.7808988764
  30
0.0
  11
 3039.6573204734
  21
 4685.7808988764
  31
0.0
   0
LINE
   5
212
 100
AcDbEntity
   8
LEVEL001
 370
13
 100
AcDbLine
   6
CONTINUOUS
  62
3
  10
 3039.6573204734
  20
 4745.7808988764
  30
0.0
  11
 3053.6573204734
  21
 4745.7808988764
  31
0.0
   0
LINE
   5
213
 100
AcDbEntity
   8
LEVEL001
 370
13
 100
AcDbLine
   6
CONTINUOUS
  62
3
  10
 3053.6573204734
  20
 4745.7808988764
  30
0.0
  11
 3053.6573204734
  21
 4759.7808988764
  31
0.0
   0
LINE
   5
214
 100
AcDbEntity
   8
LEVEL001
 370
13
 100
AcDbLine
   6
CONTINUOUS
  62
3
  10
 3053.6573204734
  20
 4759.7808988764
  30
0.0
  11
 3039.6573204734
  21
 4759.7808988764
  31
0.0
   0
LINE
   5
215
 100
AcDbEntity
   8
LEVEL001
 370
13
 100
AcDbLine
   6
CONTINUOUS
  62
3
  10
 3039.6573204734
  20
 4759.7808988764
  30
0.0
  11
 3039.6573204734
  21
 4745.7808988764
  31
0.0
   0
LINE
   5
216
 100
AcDbEntity
   8
LEVEL001
 370
13
 100
AcDbLine
   6
CONTINUOUS
  62
6
  10
 3027.0853300274
  20
 4772.7808988764
  30
0.0
  11
 3027.0853300274
  21
 4672.7808988764
  31
0.0
   0
LINE
   5
217
 100
AcDbEntity
   8
LEVEL001
 370
13
 100
AcDbLine
   6
CONTINUOUS
  62
7
  10
 3029.8073033708
  20
 4777.7808988764
  30
0.0
  11
 3029.8073033708
  21
 4874.3808988764
  31
0.0
   0
LINE
   5
218
 100
AcDbEntity
   8
LEVEL001
 370
13
 100
AcDbLine
   6
CONTINUOUS
  62
7
  10
 3029.8073033708
  20
 4874.3808988764
  30
0.0
  11
 2953.5073033708
  21
 4874.3808988764
  31
0.0
   0
LINE
   5
219
 100
AcDbEntity
   8
LEVEL001
 370
13
 100
AcDbLine
   6
CONTINUOUS
  62
7
  10
 2953.5073033708
  20
 4874.3808988764
  30
0.0
  11
 2953.5073033708
  21
 4777.7808988764
  31
0.0
   0
LINE
   5
21A
 100
AcDbEntity
   8
LEVEL001
 370
13
 100
AcDbLine
   6
CONTINUOUS
  62
3
  10
 2803.8739406300
  20
 4969.3808988764
  30
0.0
  11
 2803.8739406300
  21
 4476.1808988764
  31
0.0
   0
ARC
   5
21B
 100
AcDbEntity
   8
LEVEL001
 370
13
   6
CONTINUOUS
  62
3
 100
AcDbCircle
  10
 2805.6739406300
  20
 4969.3808988764
  30
0.0
  40
 1.8000000000002
 100
AcDbArc
  50
 90.000000000029
  51
 180.00000000009
   0
LINE
   5
21C
 100
AcDbEntity
   8
LEVEL001
 370
13
 100
AcDbLine
   6
CONTINUOUS
  62
3
  10
 2807.4739406300
  20
 4476.1808988764
  30
0.0
  11
 2807.4739406300
  21
 4969.3808988764
  31
0.0
   0
ARC
   5
21D
 100
AcDbEntity
   8
LEVEL001
 370
13
   6
CONTINUOUS
  62
3
 100
AcDbCircle
  10
 2805.6739406300
  20
 4969.3808988764
  30
0.0
  40
 1.8000000000002
 100
AcDbArc
  50
 359.99999999997
  51
 90.000000000000
   0
LINE
   5
21E
 100
AcDbEntity
   8
LEVEL001
 370
13
 100
AcDbLine
   6
CONTINUOUS
  62
1
  10
 2803.8739406300
  20
 4951.1808988764
  30
0.0
  11
 2728.8739406300
  21
 4951.1808988764
  31
0.0
   0
LINE
   5
21F
 100
AcDbEntity
   8
LEVEL001
 370
13
 100
AcDbLine
   6
CONTINUOUS
  62
1
  10
 2728.8739406300
  20
 4951.1808988764
  30
0.0
  11
 2728.8739406300
  21
 4850.7761365714
  31
0.0
   0
ARC
   5
220
 100
AcDbEntity
   8
LEVEL001
 370
13
   6
CONTINUOUS
  62
1
 100
AcDbCircle
  10
 2784.5630871160
  20
 4786.1808988764
  30
0.0
  40
 5.0000000000000
 100
AcDbArc
  50
 254.02764019580
  51
 270.00000000002
   0
LINE
   5
221
 100
AcDbEntity
   8
LEVEL001
 370
13
 100
AcDbLine
   6
CONTINUOUS
  62
1
  10
 2785.2778218278
  20
 4781.1808988764
  30
0.0
  11
 2803.8739406300
  21
 4781.1808988764
  31
0.0
   0
ARC
   5
222
 100
AcDbEntity
   8
LEVEL001
 370
13
   6
CONTINUOUS
  62
1
 100
AcDbCircle
  10
 2785.2778218278
  20
 4791.1808988764
  30
0.0
  40
 10.000000000000
 100
AcDbArc
  50
 253.42053515292
  51
 269.99999999997
   0
ARC
   5
223
 100
AcDbEntity
   8
LEVEL001
 370
13
   6
CONTINUOUS
  62
1
 100
AcDbCircle
  10
 2803.8252390584
  20
 4853.4785177240
  30
0.0
  40
 75.000000000000
 100
AcDbArc
  50
 177.93508589806
  51
 253.42053515295
   0
ARC
   5
224
 100
AcDbEntity
   8
LEVEL001
 370
13
   6
CONTINUOUS
  62
7
 100
AcDbCircle
  10
 4962.0795411164
  20
 4722.7808988764
  30
0.0
  40
 2200.0000000000
 100
AcDbArc
  50
 178.23647305739
  51
 185.69973045140
   0
LINE
   5
225
 100
AcDbEntity
   8
LEVEL001
 370
13
 100
AcDbLine
   6
CONTINUOUS
  62
6
  10
 2782.9068196462
  20
 4781.4660469138
  30
0.0
  11
 2782.9068196462
  21
 4495.2808988764
  31
0.0
   0
ARC
   5
226
 100
AcDbEntity
   8
LEVEL001
 370
13
   6
CONTINUOUS
  62
3
 100
AcDbCircle
  10
 2805.6739406300
  20
 4476.1808988764
  30
0.0
  40
 1.8000000000002
 100
AcDbArc
  50
 179.99999999997
  51
 269.99999999997
   0
ARC
   5
227
 100
AcDbEntity
   8
LEVEL001
 370
13
   6
CONTINUOUS
  62
3
 100
AcDbCircle
  10
 2805.6739406300
  20
 4476.1808988764
  30
0.0
  40
 1.8000000000002
 100
AcDbArc
  50
 270.00000000000
  51
 0.28950115500607E-10
   0
LINE
   5
228
 100
AcDbEntity
   8
LEVEL001
 370
13
 100
AcDbLine
   6
CONTINUOUS
  62
7
  10
 2782.9068196462
  20
 4495.2808988764
  30
0.0
  11
 2803.8739406300
  21
 4495.2808988764
  31
0.0
   0
ARC
   5
229
 100
AcDbEntity
   8
LEVEL001
 370
13
   6
CONTINUOUS
  62
7
 100
AcDbCircle
  10
 2782.9068196462
  20
 4505.2808988764
  30
0.0
  40
 10.000000000000
 100
AcDbArc
  50
 185.69973045140
  51
 270.00000000000
   0
LINE
   5
22A
 100
AcDbEntity
   8
LEVEL001
 370
13
 100
AcDbLine
   6
CONTINUOUS
  62
7
  10
 2807.4739406300
  20
 4667.7808988764
  30
0.0
  11
 2898.8739406300
  21
 4667.7808988764
  31
0.0
   0
LINE
   5
22B
 100
AcDbEntity
   8
LEVEL001
 370
13
 100
AcDbLine
   6
CONTINUOUS
  62
7
  10
 2898.8739406300
  20
 4667.7808988764
  30
0.0
  11
 2898.8739406300
  21
 4777.7808988764
  31
0.0
   0
LINE
   5
22C
 100
AcDbEntity
   8
LEVEL001
 370
13
 100
AcDbLine
   6
CONTINUOUS
  62
7
  10
 2898.8739406300
  20
 4777.7808988764
  30
0.0
  11
 2807.4739406300
  21
 4777.7808988764
  31
0.0
   0
LINE
   5
22D
 100
AcDbEntity
   8
LEVEL001
 370
13
 100
AcDbLine
   6
DOT
  62
6
  10
 2782.9068196462
  20
 4950.2808988764
  30
0.0
  11
 2803.8739406300
  21
 4950.2808988764
  31
0.0
   0
ARC
   5
22E
 100
AcDbEntity
   8
LEVEL001
 370
13
   6
DOT
  62
6
 100
AcDbCircle
  10
 2782.9068196462
  20
 4940.2808988764
  30
0.0
  40
 10.000000000000
 100
AcDbArc
  50
 90.000000000000
  51
 174.30026954860
   0
ARC
   5
22F
 100
AcDbEntity
   8
LEVEL001
 370
13
   6
DOT
  62
6
 100
AcDbCircle
  10
 4962.0795411164
  20
 4722.7808988764
  30
0.0
  40
 2200.0000000000
 100
AcDbArc
  50
 174.30026954860
  51
 178.23647305739
   0
CIRCLE
   5
230
 100
AcDbEntity
   8
LEVEL001
 370
13
 100
AcDbCircle
   6
CONTINUOUS
  62
1
  10
 2291.6573033708
  20
 4372.7808988764
  30
0.0
  40
 69.999997913838
   0
MTEXT
   5
231
 100
AcDbEntity
   8
LEVEL001
 370
13
  62
1
 100
AcDbMText
  10
 2291.6573033708
  20
 4372.7808988764
  30
0.0
  40
 57.142857142858
  41
0.0
  71
5
  72
1
   1
\T1.000000;1
   7
GMM001
  44
 0.79999984000003
   0
CIRCLE
   5
232
 100
AcDbEntity
   8
LEVEL001
 370
13
 100
AcDbCircle
   6
CONTINUOUS
  62
1
  10
 1741.6573033708
  20
 4372.7808988764
  30
0.0
  40
 69.999997913838
   0
MTEXT
   5
233
 100
AcDbEntity
   8
LEVEL001
 370
13
  62
1
 100
AcDbMText
  10
 1741.6573033708
  20
 4372.7808988764
  30
0.0
  40
 57.142857142858
  41
0.0
  71
5
  72
1
   1
\T1.000000;4
   7
GMM001
  44
 0.79999984000003
   0
CIRCLE
   5
234
 100
AcDbEntity
   8
LEVEL001
 370
13
 100
AcDbCircle
   6
CONTINUOUS
  62
1
  10
 4091.6573033708
  20
 4372.7808988764
  30
0.0
  40
 69.999997913838
   0
MTEXT
   5
235
 100
AcDbEntity
   8
LEVEL001
 370
13
  62
1
 100
AcDbMText
  10
 4091.6573033708
  20
 4372.7808988764
  30
0.0
  40
 57.142857142858
  41
0.0
  71
5
  72
1
   1
\T1.000000;2
   7
GMM001
  44
 0.79999984000003
   0
MTEXT
   5
236
 100
AcDbEntity
   8
LEVEL001
 370
13
  62
1
 100
AcDbMText
  10
 5551.6573033708
  20
 3082.7808988764
  30
0.0
  40
 57.142857142858
  41
0.0
  71
4
  72
1
   1
\T1.000000;□４５０×６００（シングル）
   7
GMM001
  44
 0.79999984000003
   0
CIRCLE
   5
237
 100
AcDbEntity
   8
LEVEL001
 370
13
 100
AcDbCircle
   6
CONTINUOUS
  62
1
  10
 1741.6573033708
  20
 2774.3808988764
  30
0.0
  40
 70.000000000000
   0
MTEXT
   5
238
 100
AcDbEntity
   8
LEVEL001
 370
13
  62
1
 100
AcDbMText
  10
 1741.6573033708
  20
 2774.3808988764
  30
0.0
  40
 57.142857142858
  41
0.0
  71
5
  72
1
   1
\T1.000000;9
   7
GMM001
  44
 0.79999984000003
   0
LINE
   5
239
 100
AcDbEntity
   8
LEVEL001
 370
13
 100
AcDbLine
   6
DASHDOT
  62
6
  10
 2991.6573033708
  20
 4930.5769431788
  30
0.0
  11
 2991.6573033708
  21
 1174.3808988764
  31
0.0
   0
LINE
   5
23A
 100
AcDbEntity
   8
LEVEL001
 370
13
 100
AcDbLine
   6
DASHDOT
  62
6
  10
 1491.6573033708
  20
 5022.7808988764
  30
0.0
  11
 1491.6573033708
  21
 1174.3808988764
  31
0.0
   0
MTEXT
   5
23B
 100
AcDbEntity
   8
LEVEL001
 370
13
  62
1
 100
AcDbMText
  10
 4491.6573033708
  20
 5522.7808988764
  30
0.0
  40
 57.142857142858
  41
0.0
  71
5
  72
1
   1
\T1.000000;背　面　図
   7
GMM001
  44
 0.79999984000003
   0
MTEXT
   5
23C
 100
AcDbEntity
   8
LEVEL001
 370
13
  62
1
 100
AcDbMText
  10
 2991.6573033708
  20
 5522.7808988764
  30
0.0
  40
 57.142857142858
  41
0.0
  71
5
  72
1
   1
\T1.000000;側　面　図
   7
GMM001
  44
 0.79999984000003
   0
MTEXT
   5
23D
 100
AcDbEntity
   8
LEVEL001
 370
13
  62
1
 100
AcDbMText
  10
 1491.6573033708
  20
 5522.7808988764
  30
0.0
  40
 57.142857142858
  41
0.0
  71
5
  72
1
   1
\T1.000000;正　面　図
   7
GMM001
  44
 0.79999984000003
   0
LINE
   5
23E
 100
AcDbEntity
   8
LEVEL001
 370
13
 100
AcDbLine
   6
DASHDOT
  62
6
  10
 4441.6573033708
  20
 4787.7808988764
  30
0.0
  11
 4441.6573033708
  21
 4757.7808988764
  31
0.0
   0
LINE
   5
23F
 100
AcDbEntity
   8
LEVEL001
 370
13
 100
AcDbLine
   6
DASHDOT
  62
6
  10
 4426.6573033708
  20
 4772.7808988764
  30
0.0
  11
 4456.6573033708
  21
 4772.7808988764
  31
0.0
   0
LINE
   5
240
 100
AcDbEntity
   8
LEVEL001
 370
13
 100
AcDbLine
   6
DASHDOT
  62
6
  10
 4541.6573033708
  20
 4787.7808988764
  30
0.0
  11
 4541.6573033708
  21
 4757.7808988764
  31
0.0
   0
LINE
   5
241
 100
AcDbEntity
   8
LEVEL001
 370
13
 100
AcDbLine
   6
DASHDOT
  62
6
  10
 4526.6573033708
  20
 4772.7808988764
  30
0.0
  11
 4556.6573033708
  21
 4772.7808988764
  31
0.0
   0
LINE
   5
242
 100
AcDbEntity
   8
LEVEL001
 370
13
 100
AcDbLine
   6
DASHDOT
  62
6
  10
 4541.6573033708
  20
 4687.7808988764
  30
0.0
  11
 4541.6573033708
  21
 4657.7808988764
  31
0.0
   0
LINE
   5
243
 100
AcDbEntity
   8
LEVEL001
 370
13
 100
AcDbLine
   6
DASHDOT
  62
6
  10
 4526.6573033708
  20
 4672.7808988764
  30
0.0
  11
 4556.6573033708
  21
 4672.7808988764
  31
0.0
   0
LINE
   5
244
 100
AcDbEntity
   8
LEVEL001
 370
13
 100
AcDbLine
   6
DASHDOT
  62
6
  10
 4441.6573033708
  20
 4687.7808988764
  30
0.0
  11
 4441.6573033708
  21
 4657.7808988764
  31
0.0
   0
LINE
   5
245
 100
AcDbEntity
   8
LEVEL001
 370
13
 100
AcDbLine
   6
DASHDOT
  62
6
  10
 4426.6573033708
  20
 4672.7808988764
  30
0.0
  11
 4456.6573033708
  21
 4672.7808988764
  31
0.0
   0
LINE
   5
246
 100
AcDbEntity
   8
LEVEL001
 370
13
 100
AcDbLine
   6
DASHDOT
  62
6
  10
 4541.6573033708
  20
 4687.7808988764
  30
0.0
  11
 4541.6573033708
  21
 4657.7808988764
  31
0.0
   0
LINE
   5
247
 100
AcDbEntity
   8
LEVEL001
 370
13
 100
AcDbLine
   6
DASHDOT
  62
6
  10
 4526.6573033708
  20
 4672.7808988764
  30
0.0
  11
 4556.6573033708
  21
 4672.7808988764
  31
0.0
   0
LINE
   5
248
 100
AcDbEntity
   8
LEVEL001
 370
13
 100
AcDbLine
   6
DASHDOT
  62
6
  10
 4441.6573033708
  20
 4687.7808988764
  30
0.0
  11
 4441.6573033708
  21
 4657.7808988764
  31
0.0
   0
LINE
   5
249
 100
AcDbEntity
   8
LEVEL001
 370
13
 100
AcDbLine
   6
DASHDOT
  62
6
  10
 4426.6573033708
  20
 4672.7808988764
  30
0.0
  11
 4456.6573033708
  21
 4672.7808988764
  31
0.0
   0
CIRCLE
   5
24A
 100
AcDbEntity
   8
LEVEL001
 370
13
 100
AcDbCircle
   6
CONTINUOUS
  62
3
  10
 4541.6573033708
  20
 4772.7808988764
  30
0.0
  40
 7.0000000000000
   0
CIRCLE
   5
24B
 100
AcDbEntity
   8
LEVEL001
 370
13
 100
AcDbCircle
   6
CONTINUOUS
  62
3
  10
 4541.6573033708
  20
 4672.7808988764
  30
0.0
  40
 7.0000000000000
   0
CIRCLE
   5
24C
 100
AcDbEntity
   8
LEVEL001
 370
13
 100
AcDbCircle
   6
CONTINUOUS
  62
3
  10
 4441.6573033708
  20
 4672.7808988764
  30
0.0
  40
 7.0000000000000
   0
CIRCLE
   5
24D
 100
AcDbEntity
   8
LEVEL001
 370
13
 100
AcDbCircle
   6
CONTINUOUS
  62
3
  10
 4441.6573033708
  20
 4772.7808988764
  30
0.0
  40
 7.0000000000000
   0
ARC
   5
24E
 100
AcDbEntity
   8
LEVEL001
 370
13
   6
CONTINUOUS
  62
6
 100
AcDbCircle
  10
 4717.7963361732
  20
 4896.2344599330
  30
0.0
  40
 20.000000000000
 100
AcDbArc
  50
 37.488991427307
  51
 127.48899142730
   0
LINE
   5
24F
 100
AcDbEntity
   8
LEVEL001
 370
13
 100
AcDbLine
   6
CONTINUOUS
  62
6
  10
 4614.3750730386
  20
 4842.1138323350
  30
0.0
  11
 4705.6241564500
  21
 4912.1038657436
  31
0.0
   0
ARC
   5
250
 100
AcDbEntity
   8
LEVEL001
 370
13
   6
CONTINUOUS
  62
6
 100
AcDbCircle
  10
 4717.7963361732
  20
 4896.2344599328
  30
0.0
  40
 20.000000000000
 100
AcDbArc
  50
 307.48899142730
  51
 37.488991427300
   0
LINE
   5
251
 100
AcDbEntity
   8
LEVEL001
 370
13
 100
AcDbLine
   6
CONTINUOUS
  62
6
  10
 4729.9685158966
  20
 4880.3650541222
  30
0.0
  11
 4638.7194324852
  21
 4810.3750207134
  31
0.0
   0
ARC
   5
252
 100
AcDbEntity
   8
LEVEL001
 370
13
   6
CONTINUOUS
  62
6
 100
AcDbCircle
  10
 4626.5472527618
  20
 4826.2444265242
  30
0.0
  40
 20.000000000000
 100
AcDbArc
  50
 217.48899142730
  51
 307.48899142730
   0
ARC
   5
253
 100
AcDbEntity
   8
LEVEL001
 370
13
   6
CONTINUOUS
  62
6
 100
AcDbCircle
  10
 4626.5472527618
  20
 4826.2444265242
  30
0.0
  40
 20.000000000000
 100
AcDbArc
  50
 127.48899142730
  51
 217.48899142731
   0
LINE
   5
254
 100
AcDbEntity
   8
LEVEL001
 370
13
 100
AcDbLine
   6
CONTINUOUS
  62
6
  10
 4623.9448689240
  20
 4750.2808988764
  30
0.0
  11
 4734.1573033708
  21
 4750.2808988764
  31
0.0
   0
ARC
   5
255
 100
AcDbEntity
   8
LEVEL001
 370
13
   6
CONTINUOUS
  62
6
 100
AcDbCircle
  10
 4734.1573033708
  20
 4722.7808988764
  30
0.0
  40
 27.500000000000
 100
AcDbArc
  50
0.0
  51
 90.000000000000
   0
ARC
   5
256
 100
AcDbEntity
   8
LEVEL001
 370
13
   6
CONTINUOUS
  62
6
 100
AcDbCircle
  10
 4734.1573033708
  20
 4722.7808988764
  30
0.0
  40
 27.500000000000
 100
AcDbArc
  50
 270.00000000000
  51
0.0
   0
LINE
   5
257
 100
AcDbEntity
   8
LEVEL001
 370
13
 100
AcDbLine
   6
CONTINUOUS
  62
6
  10
 4734.1573033708
  20
 4695.2808988764
  30
0.0
  11
 4623.9448689240
  21
 4695.2808988764
  31
0.0
   0
ARC
   5
258
 100
AcDbEntity
   8
LEVEL001
 370
13
   6
CONTINUOUS
  62
6
 100
AcDbCircle
  10
 4623.9448689240
  20
 4685.2808988764
  30
0.0
  40
 10.000000000000
 100
AcDbArc
  50
 90.000000000000
  51
 164.17337986812
   0
ARC
   5
259
 100
AcDbEntity
   8
LEVEL001
 370
13
   6
CONTINUOUS
  62
6
 100
AcDbCircle
  10
 4491.6573033708
  20
 4722.7808988764
  30
0.0
  40
 127.50000000000
 100
AcDbArc
  50
 285.82662013187
  51
 344.17337986813
   0
ARC
   5
25A
 100
AcDbEntity
   8
LEVEL001
 370
13
   6
CONTINUOUS
  62
6
 100
AcDbCircle
  10
 4626.5472527618
  20
 4619.3173712286
  30
0.0
  40
 20.000000000000
 100
AcDbArc
  50
 52.511008572700
  51
 142.51100857270
   0
LINE
   5
25B
 100
AcDbEntity
   8
LEVEL001
 370
13
 100
AcDbLine
   6
CONTINUOUS
  62
6
  10
 4729.9685158966
  20
 4565.1967436306
  30
0.0
  11
 4638.7194324852
  21
 4635.1867770394
  31
0.0
   0
ARC
   5
25C
 100
AcDbEntity
   8
LEVEL001
 370
13
   6
CONTINUOUS
  62
6
 100
AcDbCircle
  10
 4626.5472527618
  20
 4619.3173712286
  30
0.0
  40
 20.000000000000
 100
AcDbArc
  50
 142.51100857270
  51
 232.51100857270
   0
LINE
   5
25D
 100
AcDbEntity
   8
LEVEL001
 370
13
 100
AcDbLine
   6
CONTINUOUS
  62
6
  10
 4614.3750730386
  20
 4603.4479654178
  30
0.0
  11
 4705.6241564500
  21
 4533.4579320092
  31
0.0
   0
ARC
   5
25E
 100
AcDbEntity
   8
LEVEL001
 370
13
   6
CONTINUOUS
  62
6
 100
AcDbCircle
  10
 4717.7963361732
  20
 4549.3273378200
  30
0.0
  40
 20.000000000000
 100
AcDbArc
  50
 322.51100857270
  51
 52.511008572693
   0
ARC
   5
25F
 100
AcDbEntity
   8
LEVEL001
 370
13
   6
CONTINUOUS
  62
6
 100
AcDbCircle
  10
 4717.7963361732
  20
 4549.3273378198
  30
0.0
  40
 20.000000000000
 100
AcDbArc
  50
 232.51100857270
  51
 322.51100857269
   0
ARC
   5
260
 100
AcDbEntity
   8
LEVEL001
 370
13
   6
CONTINUOUS
  62
6
 100
AcDbCircle
  10
 4491.6573033708
  20
 4555.2808988764
  30
0.0
  40
 27.500000000000
 100
AcDbArc
  50
 270.00000000000
  51
0.0
   0
LINE
   5
261
 100
AcDbEntity
   8
LEVEL001
 370
13
 100
AcDbLine
   6
CONTINUOUS
  62
6
  10
 4519.1573033708
  20
 4555.2808988764
  30
0.0
  11
 4519.1573033708
  21
 4590.4933333232
  31
0.0
   0
ARC
   5
262
 100
AcDbEntity
   8
LEVEL001
 370
13
   6
CONTINUOUS
  62
6
 100
AcDbCircle
  10
 4529.1573033708
  20
 4590.4933333232
  30
0.0
  40
 10.000000000000
 100
AcDbArc
  50
 105.82662013187
  51
 180.00000000001
   0
ARC
   5
263
 100
AcDbEntity
   8
LEVEL001
 370
13
   6
CONTINUOUS
  62
6
 100
AcDbCircle
  10
 4491.6573033708
  20
 4722.7808988764
  30
0.0
  40
 127.50000000000
 100
AcDbArc
  50
 195.82662013187
  51
 254.17337986813
   0
ARC
   5
264
 100
AcDbEntity
   8
LEVEL001
 370
13
   6
CONTINUOUS
  62
6
 100
AcDbCircle
  10
 4491.6573033708
  20
 4555.2808988764
  30
0.0
  40
 27.500000000000
 100
AcDbArc
  50
 180.00000000000
  51
 270.00000000000
   0
LINE
   5
265
 100
AcDbEntity
   8
LEVEL001
 370
13
 100
AcDbLine
   6
CONTINUOUS
  62
6
  10
 4464.1573033708
  20
 4590.4933333232
  30
0.0
  11
 4464.1573033708
  21
 4555.2808988764
  31
0.0
   0
ARC
   5
266
 100
AcDbEntity
   8
LEVEL001
 370
13
   6
CONTINUOUS
  62
6
 100
AcDbCircle
  10
 4454.1573033708
  20
 4590.4933333232
  30
0.0
  40
 10.000000000000
 100
AcDbArc
  50
 0.52110207901098E-11
  51
 74.173379868132
   0
LINE
   5
267
 100
AcDbEntity
   8
LEVEL001
 370
13
 100
AcDbLine
   6
CONTINUOUS
  62
6
  10
 4249.1573033708
  20
 4695.2808988764
  30
0.0
  11
 4359.3697378176
  21
 4695.2808988764
  31
0.0
   0
ARC
   5
268
 100
AcDbEntity
   8
LEVEL001
 370
13
   6
CONTINUOUS
  62
6
 100
AcDbCircle
  10
 4359.3697378176
  20
 4685.2808988764
  30
0.0
  40
 10.000000000000
 100
AcDbArc
  50
 15.826620131868
  51
 89.999999999984
   0
LINE
   5
269
 100
AcDbEntity
   8
LEVEL001
 370
13
 100
AcDbLine
   6
CONTINUOUS
  62
6
  10
 4359.3697378176
  20
 4750.2808988764
  30
0.0
  11
 4249.1573033708
  21
 4750.2808988764
  31
0.0
   0
ARC
   5
26A
 100
AcDbEntity
   8
LEVEL001
 370
13
   6
CONTINUOUS
  62
6
 100
AcDbCircle
  10
 4359.3697378176
  20
 4760.2808988764
  30
0.0
  40
 10.000000000000
 100
AcDbArc
  50
 270.00000000001
  51
 344.17337986813
   0
ARC
   5
26B
 100
AcDbEntity
   8
LEVEL001
 370
13
   6
CONTINUOUS
  62
6
 100
AcDbCircle
  10
 4491.6573033708
  20
 4722.7808988764
  30
0.0
  40
 127.50000000000
 100
AcDbArc
  50
 105.82662013187
  51
 164.17337986813
   0
ARC
   5
26C
 100
AcDbEntity
   8
LEVEL001
 370
13
   6
CONTINUOUS
  62
6
 100
AcDbCircle
  10
 4491.6573033708
  20
 4890.2808988764
  30
0.0
  40
 27.500000000000
 100
AcDbArc
  50
 90.000000000000
  51
 180.00000000000
   0
LINE
   5
26D
 100
AcDbEntity
   8
LEVEL001
 370
13
 100
AcDbLine
   6
CONTINUOUS
  62
6
  10
 4464.1573033708
  20
 4855.0684644296
  30
0.0
  11
 4464.1573033708
  21
 4890.2808988764
  31
0.0
   0
ARC
   5
26E
 100
AcDbEntity
   8
LEVEL001
 370
13
   6
CONTINUOUS
  62
6
 100
AcDbCircle
  10
 4454.1573033708
  20
 4855.0684644296
  30
0.0
  40
 10.000000000000
 100
AcDbArc
  50
 285.82662013187
  51
 359.99999999999
   0
ARC
   5
26F
 100
AcDbEntity
   8
LEVEL001
 370
13
   6
CONTINUOUS
  62
6
 100
AcDbCircle
  10
 4491.6573033708
  20
 4890.2808988764
  30
0.0
  40
 27.500000000000
 100
AcDbArc
  50
0.0
  51
 90.000000000000
   0
LINE
   5
270
 100
AcDbEntity
   8
LEVEL001
 370
13
 100
AcDbLine
   6
CONTINUOUS
  62
6
  10
 4519.1573033708
  20
 4890.2808988764
  30
0.0
  11
 4519.1573033708
  21
 4855.0684644296
  31
0.0
   0
ARC
   5
271
 100
AcDbEntity
   8
LEVEL001
 370
13
   6
CONTINUOUS
  62
6
 100
AcDbCircle
  10
 4529.1573033708
  20
 4855.0684644296
  30
0.0
  40
 10.000000000000
 100
AcDbArc
  50
 180.00000000001
  51
 254.17337986813
   0
ARC
   5
272
 100
AcDbEntity
   8
LEVEL001
 370
13
   6
CONTINUOUS
  62
6
 100
AcDbCircle
  10
 4623.9448689240
  20
 4760.2808988764
  30
0.0
  40
 10.000000000000
 100
AcDbArc
  50
 195.82662013187
  51
 269.99999999999
   0
ARC
   5
273
 100
AcDbEntity
   8
LEVEL001
 370
13
   6
CONTINUOUS
  62
6
 100
AcDbCircle
  10
 4491.6573033708
  20
 4722.7808988764
  30
0.0
  40
 127.50000000000
 100
AcDbArc
  50
 15.826620131873
  51
 74.173379868129
   0
ARC
   5
274
 100
AcDbEntity
   8
LEVEL001
 370
13
   6
CONTINUOUS
  62
6
 100
AcDbCircle
  10
 4356.7673539798
  20
 4826.2444265242
  30
0.0
  40
 20.000000000000
 100
AcDbArc
  50
 322.51100857268
  51
 52.511008572702
   0
LINE
   5
275
 100
AcDbEntity
   8
LEVEL001
 370
13
 100
AcDbLine
   6
CONTINUOUS
  62
6
  10
 4253.3460908450
  20
 4880.3650541222
  30
0.0
  11
 4344.5951742564
  21
 4810.3750207134
  31
0.0
   0
ARC
   5
276
 100
AcDbEntity
   8
LEVEL001
 370
13
   6
CONTINUOUS
  62
6
 100
AcDbCircle
  10
 4356.7673539798
  20
 4826.2444265242
  30
0.0
  40
 20.000000000000
 100
AcDbArc
  50
 232.51100857270
  51
 322.51100857270
   0
LINE
   5
277
 100
AcDbEntity
   8
LEVEL001
 370
13
 100
AcDbLine
   6
CONTINUOUS
  62
6
  10
 4368.9395337030
  20
 4842.1138323350
  30
0.0
  11
 4277.6904502916
  21
 4912.1038657436
  31
0.0
   0
ARC
   5
278
 100
AcDbEntity
   8
LEVEL001
 370
13
   6
CONTINUOUS
  62
6
 100
AcDbCircle
  10
 4356.7673539798
  20
 4619.3173712286
  30
0.0
  40
 20.000000000000
 100
AcDbArc
  50
 37.488991427296
  51
 127.48899142730
   0
ARC
   5
279
 100
AcDbEntity
   8
LEVEL001
 370
13
   6
CONTINUOUS
  62
6
 100
AcDbCircle
  10
 4356.7673539798
  20
 4619.3173712286
  30
0.0
  40
 20.000000000000
 100
AcDbArc
  50
 307.48899142730
  51
 37.488991427304
   0
LINE
   5
27A
 100
AcDbEntity
   8
LEVEL001
 370
13
 100
AcDbLine
   6
CONTINUOUS
  62
6
  10
 4253.3460908450
  20
 4565.1967436306
  30
0.0
  11
 4344.5951742564
  21
 4635.1867770394
  31
0.0
   0
LINE
   5
27B
 100
AcDbEntity
   8
LEVEL001
 370
13
 100
AcDbLine
   6
CONTINUOUS
  62
6
  10
 4368.9395337030
  20
 4603.4479654178
  30
0.0
  11
 4277.6904502916
  21
 4533.4579320092
  31
0.0
   0
ARC
   5
27C
 100
AcDbEntity
   8
LEVEL001
 370
13
   6
CONTINUOUS
  62
7
 100
AcDbCircle
  10
 4369.7967273012
  20
 4760.2808988764
  30
0.0
  40
 25.000000000000
 100
AcDbArc
  50
 270.00000000000
  51
 342.89536482336
   0
ARC
   5
27D
 100
AcDbEntity
   8
LEVEL001
 370
13
   6
CONTINUOUS
  62
7
 100
AcDbCircle
  10
 4369.7967273012
  20
 4685.2808988764
  30
0.0
  40
 25.000000000000
 100
AcDbArc
  50
 17.104635176643
  51
 89.999999999996
   0
ARC
   5
27E
 100
AcDbEntity
   8
LEVEL001
 370
13
   6
CONTINUOUS
  62
7
 100
AcDbCircle
  10
 4491.6573033708
  20
 4722.7808988764
  30
0.0
  40
 102.50000000000
 100
AcDbArc
  50
 197.10463517664
  51
 252.89536482336
   0
ARC
   5
27F
 100
AcDbEntity
   8
LEVEL001
 370
13
   6
CONTINUOUS
  62
7
 100
AcDbCircle
  10
 4613.5178794404
  20
 4685.2808988764
  30
0.0
  40
 25.000000000000
 100
AcDbArc
  50
 90.000000000000
  51
 162.89536482336
   0
ARC
   5
280
 100
AcDbEntity
   8
LEVEL001
 370
13
   6
CONTINUOUS
  62
7
 100
AcDbCircle
  10
 4491.6573033708
  20
 4722.7808988764
  30
0.0
  40
 102.50000000000
 100
AcDbArc
  50
 287.10463517664
  51
 342.89536482336
   0
ARC
   5
281
 100
AcDbEntity
   8
LEVEL001
 370
13
   6
CONTINUOUS
  62
7
 100
AcDbCircle
  10
 4613.5178794404
  20
 4760.2808988764
  30
0.0
  40
 25.000000000000
 100
AcDbArc
  50
 197.10463517664
  51
 270.00000000000
   0
ARC
   5
282
 100
AcDbEntity
   8
LEVEL001
 370
13
   6
CONTINUOUS
  62
7
 100
AcDbCircle
  10
 4529.1573033708
  20
 4844.6414749460
  30
0.0
  40
 25.000000000000
 100
AcDbArc
  50
 180.00000000000
  51
 252.89536482336
   0
ARC
   5
283
 100
AcDbEntity
   8
LEVEL001
 370
13
   6
CONTINUOUS
  62
7
 100
AcDbCircle
  10
 4491.6573033708
  20
 4722.7808988764
  30
0.0
  40
 102.50000000000
 100
AcDbArc
  50
 17.104635176644
  51
 72.895364823356
   0
ARC
   5
284
 100
AcDbEntity
   8
LEVEL001
 370
13
   6
CONTINUOUS
  62
7
 100
AcDbCircle
  10
 4454.1573033708
  20
 4844.6414749460
  30
0.0
  40
 25.000000000000
 100
AcDbArc
  50
 287.10463517664
  51
0.0
   0
ARC
   5
285
 100
AcDbEntity
   8
LEVEL001
 370
13
   6
CONTINUOUS
  62
7
 100
AcDbCircle
  10
 4491.6573033708
  20
 4722.7808988764
  30
0.0
  40
 102.50000000000
 100
AcDbArc
  50
 107.10463517664
  51
 162.89536482336
   0
LINE
   5
286
 100
AcDbEntity
   8
LEVEL001
 370
13
 100
AcDbLine
   6
CONTINUOUS
  62
7
  10
 4369.7967273012
  20
 4735.2808988764
  30
0.0
  11
 4251.6573033708
  21
 4735.2808988764
  31
0.0
   0
LINE
   5
287
 100
AcDbEntity
   8
LEVEL001
 370
13
 100
AcDbLine
   6
CONTINUOUS
  62
7
  10
 4251.6573033708
  20
 4710.2808988764
  30
0.0
  11
 4369.7967273012
  21
 4710.2808988764
  31
0.0
   0
LINE
   5
288
 100
AcDbEntity
   8
LEVEL001
 370
13
 100
AcDbLine
   6
CONTINUOUS
  62
7
  10
 4479.1573033708
  20
 4844.6414749460
  30
0.0
  11
 4479.1573033708
  21
 4887.7808988764
  31
0.0
   0
ARC
   5
289
 100
AcDbEntity
   8
LEVEL001
 370
13
   6
CONTINUOUS
  62
7
 100
AcDbCircle
  10
 4491.6573033708
  20
 4887.7808988764
  30
0.0
  40
 12.500000000000
 100
AcDbArc
  50
 90.000000000000
  51
 180.00000000000
   0
LINE
   5
28A
 100
AcDbEntity
   8
LEVEL001
 370
13
 100
AcDbLine
   6
CONTINUOUS
  62
7
  10
 4504.1573033708
  20
 4887.7808988764
  30
0.0
  11
 4504.1573033708
  21
 4844.6414749460
  31
0.0
   0
ARC
   5
28B
 100
AcDbEntity
   8
LEVEL001
 370
13
   6
CONTINUOUS
  62
7
 100
AcDbCircle
  10
 4491.6573033708
  20
 4887.7808988764
  30
0.0
  40
 12.500000000000
 100
AcDbArc
  50
0.0
  51
 90.000000000000
   0
LINE
   5
28C
 100
AcDbEntity
   8
LEVEL001
 370
13
 100
AcDbLine
   6
CONTINUOUS
  62
7
  10
 4613.5178794404
  20
 4735.2808988764
  30
0.0
  11
 4731.6573033708
  21
 4735.2808988764
  31
0.0
   0
LINE
   5
28D
 100
AcDbEntity
   8
LEVEL001
 370
13
 100
AcDbLine
   6
CONTINUOUS
  62
7
  10
 4731.6573033708
  20
 4710.2808988764
  30
0.0
  11
 4613.5178794404
  21
 4710.2808988764
  31
0.0
   0
ARC
   5
28E
 100
AcDbEntity
   8
LEVEL001
 370
13
   6
CONTINUOUS
  62
7
 100
AcDbCircle
  10
 4628.5309284882
  20
 4827.7659489898
  30
0.0
  40
 7.4999999999998
 100
AcDbArc
  50
 127.48899142730
  51
 217.48899142730
   0
ARC
   5
28F
 100
AcDbEntity
   8
LEVEL001
 370
13
   6
CONTINUOUS
  62
7
 100
AcDbCircle
  10
 4628.5309284884
  20
 4827.7659489898
  30
0.0
  40
 7.4999999999998
 100
AcDbArc
  50
 217.48899142729
  51
 307.48899142729
   0
LINE
   5
290
 100
AcDbEntity
   8
LEVEL001
 370
13
 100
AcDbLine
   6
CONTINUOUS
  62
7
  10
 4350.2191108570
  20
 4821.8149218108
  30
0.0
  11
 4262.9373788982
  21
 4888.7619102886
  31
0.0
   0
LINE
   5
291
 100
AcDbEntity
   8
LEVEL001
 370
13
 100
AcDbLine
   6
CONTINUOUS
  62
7
  10
 4272.0665136908
  20
 4900.6639646466
  30
0.0
  11
 4359.3482456496
  21
 4833.7169761688
  31
0.0
   0
ARC
   5
292
 100
AcDbEntity
   8
LEVEL001
 370
13
   6
CONTINUOUS
  62
7
 100
AcDbCircle
  10
 4354.7836782534
  20
 4827.7659489898
  30
0.0
  40
 7.4999999999998
 100
AcDbArc
  50
 322.51100857270
  51
 52.511008572688
   0
ARC
   5
293
 100
AcDbEntity
   8
LEVEL001
 370
13
   6
CONTINUOUS
  62
7
 100
AcDbCircle
  10
 4354.7836782532
  20
 4827.7659489898
  30
0.0
  40
 7.4999999999998
 100
AcDbArc
  50
 232.51100857270
  51
 322.51100857272
   0
ARC
   5
294
 100
AcDbEntity
   8
LEVEL001
 370
13
   6
CONTINUOUS
  62
7
 100
AcDbCircle
  10
 4731.6573033708
  20
 4722.7808988764
  30
0.0
  40
 12.500000000000
 100
AcDbArc
  50
0.0
  51
 90.000000000000
   0
ARC
   5
295
 100
AcDbEntity
   8
LEVEL001
 370
13
   6
CONTINUOUS
  62
7
 100
AcDbCircle
  10
 4731.6573033708
  20
 4722.7808988764
  30
0.0
  40
 12.500000000000
 100
AcDbArc
  50
 270.00000000000
  51
0.0
   0
LINE
   5
296
 100
AcDbEntity
   8
LEVEL001
 370
13
 100
AcDbLine
   6
CONTINUOUS
  62
7
  10
 4633.0954958846
  20
 4821.8149218108
  30
0.0
  11
 4720.3772278434
  21
 4888.7619102886
  31
0.0
   0
ARC
   5
297
 100
AcDbEntity
   8
LEVEL001
 370
13
   6
CONTINUOUS
  62
7
 100
AcDbCircle
  10
 4715.8126604472
  20
 4894.7129374676
  30
0.0
  40
 7.4999999999998
 100
AcDbArc
  50
 307.48899142729
  51
 37.488991427306
   0
LINE
   5
298
 100
AcDbEntity
   8
LEVEL001
 370
13
 100
AcDbLine
   6
CONTINUOUS
  62
7
  10
 4711.2480930508
  20
 4900.6639646466
  30
0.0
  11
 4623.9663610920
  21
 4833.7169761688
  31
0.0
   0
ARC
   5
299
 100
AcDbEntity
   8
LEVEL001
 370
13
   6
CONTINUOUS
  62
7
 100
AcDbCircle
  10
 4715.8126604470
  20
 4894.7129374676
  30
0.0
  40
 7.4999999999998
 100
AcDbArc
  50
 37.488991427297
  51
 127.48899142730
   0
ARC
   5
29A
 100
AcDbEntity
   8
LEVEL001
 370
13
   6
CONTINUOUS
  62
7
 100
AcDbCircle
  10
 4454.1573033708
  20
 4600.9203228068
  30
0.0
  40
 25.000000000000
 100
AcDbArc
  50
0.0
  51
 72.895364823357
   0
ARC
   5
29B
 100
AcDbEntity
   8
LEVEL001
 370
13
   6
CONTINUOUS
  62
7
 100
AcDbCircle
  10
 4529.1573033708
  20
 4600.9203228068
  30
0.0
  40
 25.000000000000
 100
AcDbArc
  50
 107.10463517664
  51
 180.00000000000
   0
LINE
   5
29C
 100
AcDbEntity
   8
LEVEL001
 370
13
 100
AcDbLine
   6
CONTINUOUS
  62
7
  10
 4504.1573033708
  20
 4557.7808988764
  30
0.0
  11
 4504.1573033708
  21
 4600.9203228068
  31
0.0
   0
ARC
   5
29D
 100
AcDbEntity
   8
LEVEL001
 370
13
   6
CONTINUOUS
  62
7
 100
AcDbCircle
  10
 4491.6573033708
  20
 4557.7808988764
  30
0.0
  40
 12.500000000000
 100
AcDbArc
  50
 270.00000000000
  51
0.0
   0
LINE
   5
29E
 100
AcDbEntity
   8
LEVEL001
 370
13
 100
AcDbLine
   6
CONTINUOUS
  62
7
  10
 4479.1573033708
  20
 4600.9203228068
  30
0.0
  11
 4479.1573033708
  21
 4557.7808988764
  31
0.0
   0
ARC
   5
29F
 100
AcDbEntity
   8
LEVEL001
 370
13
   6
CONTINUOUS
  62
7
 100
AcDbCircle
  10
 4491.6573033708
  20
 4557.7808988764
  30
0.0
  40
 12.500000000000
 100
AcDbArc
  50
 180.00000000000
  51
 270.00000000000
   0
LINE
   5
2A0
 100
AcDbEntity
   8
LEVEL001
 370
13
 100
AcDbLine
   6
CONTINUOUS
  62
7
  10
 4350.2191108570
  20
 4623.7468759420
  30
0.0
  11
 4262.9373788982
  21
 4556.7998874642
  31
0.0
   0
LINE
   5
2A1
 100
AcDbEntity
   8
LEVEL001
 370
13
 100
AcDbLine
   6
CONTINUOUS
  62
7
  10
 4272.0665136908
  20
 4544.8978331062
  30
0.0
  11
 4359.3482456496
  21
 4611.8448215840
  31
0.0
   0
ARC
   5
2A2
 100
AcDbEntity
   8
LEVEL001
 370
13
   6
CONTINUOUS
  62
7
 100
AcDbCircle
  10
 4354.7836782534
  20
 4617.7958487630
  30
0.0
  40
 7.4999999999998
 100
AcDbArc
  50
 307.48899142732
  51
 37.488991427292
   0
ARC
   5
2A3
 100
AcDbEntity
   8
LEVEL001
 370
13
   6
CONTINUOUS
  62
7
 100
AcDbCircle
  10
 4354.7836782532
  20
 4617.7958487630
  30
0.0
  40
 7.4999999999998
 100
AcDbArc
  50
 37.488991427297
  51
 127.48899142730
   0
LINE
   5
2A4
 100
AcDbEntity
   8
LEVEL001
 370
13
 100
AcDbLine
   6
CONTINUOUS
  62
7
  10
 4633.0954958846
  20
 4623.7468759420
  30
0.0
  11
 4720.3772278434
  21
 4556.7998874642
  31
0.0
   0
ARC
   5
2A5
 100
AcDbEntity
   8
LEVEL001
 370
13
   6
CONTINUOUS
  62
7
 100
AcDbCircle
  10
 4715.8126604472
  20
 4550.8488602852
  30
0.0
  40
 7.4999999999998
 100
AcDbArc
  50
 322.51100857270
  51
 52.511008572703
   0
LINE
   5
2A6
 100
AcDbEntity
   8
LEVEL001
 370
13
 100
AcDbLine
   6
CONTINUOUS
  62
7
  10
 4711.2480930508
  20
 4544.8978331062
  30
0.0
  11
 4623.9663610920
  21
 4611.8448215840
  31
0.0
   0
ARC
   5
2A7
 100
AcDbEntity
   8
LEVEL001
 370
13
   6
CONTINUOUS
  62
7
 100
AcDbCircle
  10
 4715.8126604470
  20
 4550.8488602852
  30
0.0
  40
 7.4999999999998
 100
AcDbArc
  50
 232.51100857270
  51
 322.51100857269
   0
ARC
   5
2A8
 100
AcDbEntity
   8
LEVEL001
 370
13
   6
CONTINUOUS
  62
7
 100
AcDbCircle
  10
 4628.5309284884
  20
 4617.7958487630
  30
0.0
  40
 7.4999999999998
 100
AcDbArc
  50
 142.51100857271
  51
 232.51100857268
   0
ARC
   5
2A9
 100
AcDbEntity
   8
LEVEL001
 370
13
   6
CONTINUOUS
  62
7
 100
AcDbCircle
  10
 4628.5309284884
  20
 4617.7958487630
  30
0.0
  40
 7.4999999999998
 100
AcDbArc
  50
 52.511008572698
  51
 142.51100857269
   0
ARC
   5
2AA
 100
AcDbEntity
   8
LEVEL001
 370
13
   6
CONTINUOUS
  62
7
 100
AcDbCircle
  10
 4724.1573033708
  20
 4880.2808988764
  30
0.0
  40
 65.000000000000
 100
AcDbArc
  50
0.0
  51
 90.000000000000
   0
LINE
   5
2AB
 100
AcDbEntity
   8
LEVEL001
 370
13
 100
AcDbLine
   6
CONTINUOUS
  62
7
  10
 4789.1573033708
  20
 4565.2808988764
  30
0.0
  11
 4789.1573033708
  21
 4880.2808988764
  31
0.0
   0
ARC
   5
2AC
 100
AcDbEntity
   8
LEVEL001
 370
13
   6
CONTINUOUS
  62
7
 100
AcDbCircle
  10
 4724.1573033708
  20
 4565.2808988764
  30
0.0
  40
 65.000000000000
 100
AcDbArc
  50
 270.00000000000
  51
0.0
   0
ARC
   5
2AD
 100
AcDbEntity
   8
LEVEL001
 370
13
   6
CONTINUOUS
  62
7
 100
AcDbCircle
  10
 4724.1573033708
  20
 4880.2808988764
  30
0.0
  40
 90.900000000000
 100
AcDbArc
  50
 360.00000000000
  51
 90.000000000000
   0
ARC
   5
2AE
 100
AcDbEntity
   8
LEVEL001
 370
13
   6
CONTINUOUS
  62
7
 100
AcDbCircle
  10
 4724.1573033708
  20
 4880.2808988764
  30
0.0
  40
 75.000000000000
 100
AcDbArc
  50
0.0
  51
 90.000000000000
   0
LINE
   5
2AF
 100
AcDbEntity
   8
LEVEL001
 370
13
 100
AcDbLine
   6
CONTINUOUS
  62
7
  10
 4815.0573033708
  20
 4565.2808988764
  30
0.0
  11
 4815.0573033708
  21
 4880.2808988764
  31
0.0
   0
LINE
   5
2B0
 100
AcDbEntity
   8
LEVEL001
 370
13
 100
AcDbLine
   6
CONTINUOUS
  62
7
  10
 4799.1573033708
  20
 4880.2808988764
  30
0.0
  11
 4799.1573033708
  21
 4565.2808988764
  31
0.0
   0
ARC
   5
2B1
 100
AcDbEntity
   8
LEVEL001
 370
13
   6
CONTINUOUS
  62
7
 100
AcDbCircle
  10
 4724.1573033708
  20
 4565.2808988764
  30
0.0
  40
 90.900000000000
 100
AcDbArc
  50
 270.00000000000
  51
 0.11465392277469E-11
   0
ARC
   5
2B2
 100
AcDbEntity
   8
LEVEL001
 370
13
   6
CONTINUOUS
  62
7
 100
AcDbCircle
  10
 4724.1573033708
  20
 4565.2808988764
  30
0.0
  40
 75.000000000000
 100
AcDbArc
  50
 270.00000000000
  51
0.0
   0
LINE
   5
2B3
 100
AcDbEntity
   8
LEVEL001
 370
13
 100
AcDbLine
   6
CONTINUOUS
  62
7
  10
 4259.1573033708
  20
 4500.2808988764
  30
0.0
  11
 4724.1573033708
  21
 4500.2808988764
  31
0.0
   0
LINE
   5
2B4
 100
AcDbEntity
   8
LEVEL001
 370
13
 100
AcDbLine
   6
CONTINUOUS
  62
7
  10
 4259.1573033708
  20
 4474.3808988764
  30
0.0
  11
 4724.1573033708
  21
 4474.3808988764
  31
0.0
   0
LINE
   5
2B5
 100
AcDbEntity
   8
LEVEL001
 370
13
 100
AcDbLine
   6
CONTINUOUS
  62
7
  10
 4259.1573033708
  20
 4490.2808988764
  30
0.0
  11
 4724.1573033708
  21
 4490.2808988764
  31
0.0
   0
LINE
   5
2B6
 100
AcDbEntity
   8
LEVEL001
 370
13
 100
AcDbLine
   6
CONTINUOUS
  62
7
  10
 4724.1573033708
  20
 4945.2808988764
  30
0.0
  11
 4259.1573033708
  21
 4945.2808988764
  31
0.0
   0
LINE
   5
2B7
 100
AcDbEntity
   8
LEVEL001
 370
13
 100
AcDbLine
   6
CONTINUOUS
  62
7
  10
 4724.1573033708
  20
 4971.1808988764
  30
0.0
  11
 4259.1573033708
  21
 4971.1808988764
  31
0.0
   0
LINE
   5
2B8
 100
AcDbEntity
   8
LEVEL001
 370
13
 100
AcDbLine
   6
CONTINUOUS
  62
7
  10
 4724.1573033708
  20
 4955.2808988764
  30
0.0
  11
 4259.1573033708
  21
 4955.2808988764
  31
0.0
   0
LINE
   5
2B9
 100
AcDbEntity
   8
LEVEL001
 370
13
 100
AcDbLine
   6
DASHDOT
  62
6
  10
 4141.6573033708
  20
 4722.7808988764
  30
0.0
  11
 4841.6573033708
  21
 4722.7808988764
  31
0.0
   0
LINE
   5
2BA
 100
AcDbEntity
   8
LEVEL001
 370
13
 100
AcDbLine
   6
DASHDOT
  62
6
  10
 4491.6573033708
  20
 4997.7808988764
  30
0.0
  11
 4491.6573033708
  21
 4447.7808988764
  31
0.0
   0
ARC
   5
2BB
 100
AcDbEntity
   8
LEVEL001
 370
13
   6
CONTINUOUS
  62
6
 100
AcDbCircle
  10
 4249.1573033708
  20
 4722.7808988764
  30
0.0
  40
 27.500000000000
 100
AcDbArc
  50
 180.00000000000
  51
 270.00000000000
   0
ARC
   5
2BC
 100
AcDbEntity
   8
LEVEL001
 370
13
   6
CONTINUOUS
  62
6
 100
AcDbCircle
  10
 4249.1573033708
  20
 4722.7808988764
  30
0.0
  40
 27.500000000000
 100
AcDbArc
  50
 90.000000000000
  51
 180.00000000000
   0
ARC
   5
2BD
 100
AcDbEntity
   8
LEVEL001
 370
13
   6
CONTINUOUS
  62
6
 100
AcDbCircle
  10
 4265.5182705684
  20
 4896.2344599330
  30
0.0
  40
 20.000000000000
 100
AcDbArc
  50
 52.511008572693
  51
 142.51100857270
   0
ARC
   5
2BE
 100
AcDbEntity
   8
LEVEL001
 370
13
   6
CONTINUOUS
  62
6
 100
AcDbCircle
  10
 4265.5182705684
  20
 4896.2344599328
  30
0.0
  40
 20.000000000000
 100
AcDbArc
  50
 142.51100857270
  51
 232.51100857270
   0
ARC
   5
2BF
 100
AcDbEntity
   8
LEVEL001
 370
13
   6
CONTINUOUS
  62
6
 100
AcDbCircle
  10
 4265.5182705684
  20
 4549.3273378198
  30
0.0
  40
 20.000000000000
 100
AcDbArc
  50
 217.48899142730
  51
 307.48899142732
   0
ARC
   5
2C0
 100
AcDbEntity
   8
LEVEL001
 370
13
   6
CONTINUOUS
  62
6
 100
AcDbCircle
  10
 4265.5182705684
  20
 4549.3273378200
  30
0.0
  40
 20.000000000000
 100
AcDbArc
  50
 127.48899142730
  51
 217.48899142730
   0
ARC
   5
2C1
 100
AcDbEntity
   8
LEVEL001
 370
13
   6
CONTINUOUS
  62
7
 100
AcDbCircle
  10
 4251.6573033708
  20
 4722.7808988764
  30
0.0
  40
 12.500000000000
 100
AcDbArc
  50
 90.000000000000
  51
 180.00000000000
   0
ARC
   5
2C2
 100
AcDbEntity
   8
LEVEL001
 370
13
   6
CONTINUOUS
  62
7
 100
AcDbCircle
  10
 4251.6573033708
  20
 4722.7808988764
  30
0.0
  40
 12.500000000000
 100
AcDbArc
  50
 180.00000000000
  51
 270.00000000000
   0
ARC
   5
2C3
 100
AcDbEntity
   8
LEVEL001
 370
13
   6
CONTINUOUS
  62
7
 100
AcDbCircle
  10
 4267.5019462944
  20
 4894.7129374676
  30
0.0
  40
 7.4999999999998
 100
AcDbArc
  50
 142.51100857269
  51
 232.51100857270
   0
ARC
   5
2C4
 100
AcDbEntity
   8
LEVEL001
 370
13
   6
CONTINUOUS
  62
7
 100
AcDbCircle
  10
 4267.5019462946
  20
 4894.7129374676
  30
0.0
  40
 7.4999999999998
 100
AcDbArc
  50
 52.511008572708
  51
 142.51100857268
   0
ARC
   5
2C5
 100
AcDbEntity
   8
LEVEL001
 370
13
   6
CONTINUOUS
  62
7
 100
AcDbCircle
  10
 4267.5019462944
  20
 4550.8488602852
  30
0.0
  40
 7.4999999999998
 100
AcDbArc
  50
 127.48899142731
  51
 217.48899142730
   0
ARC
   5
2C6
 100
AcDbEntity
   8
LEVEL001
 370
13
   6
CONTINUOUS
  62
7
 100
AcDbCircle
  10
 4267.5019462946
  20
 4550.8488602852
  30
0.0
  40
 7.4999999999998
 100
AcDbArc
  50
 217.48899142731
  51
 307.48899142730
   0
ARC
   5
2C7
 100
AcDbEntity
   8
LEVEL001
 370
13
   6
CONTINUOUS
  62
7
 100
AcDbCircle
  10
 4259.1573033708
  20
 4565.2808988764
  30
0.0
  40
 65.000000000000
 100
AcDbArc
  50
 180.00000000000
  51
 270.00000000000
   0
ARC
   5
2C8
 100
AcDbEntity
   8
LEVEL001
 370
13
   6
CONTINUOUS
  62
7
 100
AcDbCircle
  10
 4259.1573033708
  20
 4565.2808988764
  30
0.0
  40
 90.900000000000
 100
AcDbArc
  50
 180.00000000000
  51
 270.00000000000
   0
ARC
   5
2C9
 100
AcDbEntity
   8
LEVEL001
 370
13
   6
CONTINUOUS
  62
7
 100
AcDbCircle
  10
 4259.1573033708
  20
 4565.2808988764
  30
0.0
  40
 75.000000000000
 100
AcDbArc
  50
 180.00000000000
  51
 270.00000000000
   0
ARC
   5
2CA
 100
AcDbEntity
   8
LEVEL001
 370
13
   6
CONTINUOUS
  62
7
 100
AcDbCircle
  10
 4259.1573033708
  20
 4880.2808988764
  30
0.0
  40
 65.000000000000
 100
AcDbArc
  50
 90.000000000000
  51
 180.00000000000
   0
LINE
   5
2CB
 100
AcDbEntity
   8
LEVEL001
 370
13
 100
AcDbLine
   6
CONTINUOUS
  62
7
  10
 4194.1573033708
  20
 4880.2808988764
  30
0.0
  11
 4194.1573033708
  21
 4565.2808988764
  31
0.0
   0
ARC
   5
2CC
 100
AcDbEntity
   8
LEVEL001
 370
13
   6
CONTINUOUS
  62
7
 100
AcDbCircle
  10
 4259.1573033708
  20
 4880.2808988764
  30
0.0
  40
 90.900000000000
 100
AcDbArc
  50
 90.000000000000
  51
 180.00000000000
   0
ARC
   5
2CD
 100
AcDbEntity
   8
LEVEL001
 370
13
   6
CONTINUOUS
  62
7
 100
AcDbCircle
  10
 4259.1573033708
  20
 4880.2808988764
  30
0.0
  40
 75.000000000000
 100
AcDbArc
  50
 90.000000000000
  51
 180.00000000000
   0
LINE
   5
2CE
 100
AcDbEntity
   8
LEVEL001
 370
13
 100
AcDbLine
   6
CONTINUOUS
  62
7
  10
 4168.2573033708
  20
 4880.2808988764
  30
0.0
  11
 4168.2573033708
  21
 4565.2808988764
  31
0.0
   0
LINE
   5
2CF
 100
AcDbEntity
   8
LEVEL001
 370
13
 100
AcDbLine
   6
CONTINUOUS
  62
7
  10
 4184.1573033708
  20
 4880.2808988764
  30
0.0
  11
 4184.1573033708
  21
 4565.2808988764
  31
0.0
   0
LINE
   5
2D0
 100
AcDbEntity
   8
LEVEL001
 370
13
 100
AcDbLine
   6
CONTINUOUS
  62
7
  10
 1724.1573033708
  20
 4950.2808988764
  30
0.0
  11
 1259.1573033708
  21
 4950.2808988764
  31
0.0
   0
LINE
   5
2D1
 100
AcDbEntity
   8
LEVEL001
 370
13
 100
AcDbLine
   6
CONTINUOUS
  62
3
  10
 1724.1573033708
  20
 4955.2808988764
  30
0.0
  11
 1259.1573033708
  21
 4955.2808988764
  31
0.0
   0
LINE
   5
2D2
 100
AcDbEntity
   8
LEVEL001
 370
13
 100
AcDbLine
   6
CONTINUOUS
  62
3
  10
 1724.1573033708
  20
 4971.1808988764
  30
0.0
  11
 1259.1573033708
  21
 4971.1808988764
  31
0.0
   0
LINE
   5
2D3
 100
AcDbEntity
   8
LEVEL001
 370
13
 100
AcDbLine
   6
CONTINUOUS
  62
1
  10
 1724.1573033708
  20
 4951.1808988764
  30
0.0
  11
 1259.1573033708
  21
 4951.1808988764
  31
0.0
   0
ARC
   5
2D4
 100
AcDbEntity
   8
LEVEL001
 370
13
   6
CONTINUOUS
  62
1
 100
AcDbCircle
  10
 1259.1573033708
  20
 4880.2808988764
  30
0.0
  40
 70.900000000000
 100
AcDbArc
  50
 90.000000000000
  51
 180.00000000000
   0
ARC
   5
2D5
 100
AcDbEntity
   8
LEVEL001
 370
13
   6
CONTINUOUS
  62
1
 100
AcDbCircle
  10
 1724.1573033708
  20
 4880.2808988764
  30
0.0
  40
 70.900000000000
 100
AcDbArc
  50
 360.00000000000
  51
 89.999999999999
   0
LINE
   5
2D6
 100
AcDbEntity
   8
LEVEL001
 370
13
 100
AcDbLine
   6
CONTINUOUS
  62
1
  10
 1795.0573033708
  20
 4781.1808988764
  30
0.0
  11
 1795.0573033708
  21
 4880.2808988764
  31
0.0
   0
LINE
   5
2D7
 100
AcDbEntity
   8
LEVEL001
 370
13
 100
AcDbLine
   6
CONTINUOUS
  62
1
  10
 1188.2573033708
  20
 4880.2808988764
  30
0.0
  11
 1188.2573033708
  21
 4781.1808988764
  31
0.0
   0
LINE
   5
2D8
 100
AcDbEntity
   8
LEVEL001
 370
13
 100
AcDbLine
   6
CONTINUOUS
  62
1
  10
 1189.1573033708
  20
 4781.1808988764
  30
0.0
  11
 1188.2573033708
  21
 4781.1808988764
  31
0.0
   0
LINE
   5
2D9
 100
AcDbEntity
   8
LEVEL001
 370
13
 100
AcDbLine
   6
CONTINUOUS
  62
1
  10
 1794.1573033708
  20
 4781.1808988764
  30
0.0
  11
 1795.0573033708
  21
 4781.1808988764
  31
0.0
   0
ARC
   5
2DA
 100
AcDbEntity
   8
LEVEL001
 370
13
   6
CONTINUOUS
  62
7
 100
AcDbCircle
  10
 1259.1573033708
  20
 4880.2808988764
  30
0.0
  40
 70.000000000000
 100
AcDbArc
  50
 90.000000000000
  51
 180.00000000000
   0
ARC
   5
2DB
 100
AcDbEntity
   8
LEVEL001
 370
13
   6
CONTINUOUS
  62
3
 100
AcDbCircle
  10
 1259.1573033708
  20
 4880.2808988764
  30
0.0
  40
 75.000000000000
 100
AcDbArc
  50
 90.000000000000
  51
 180.00000000000
   0
ARC
   5
2DC
 100
AcDbEntity
   8
LEVEL001
 370
13
   6
CONTINUOUS
  62
3
 100
AcDbCircle
  10
 1259.1573033708
  20
 4880.2808988764
  30
0.0
  40
 90.900000000000
 100
AcDbArc
  50
 90.000000000000
  51
 180.00000000000
   0
LINE
   5
2DD
 100
AcDbEntity
   8
LEVEL001
 370
13
 100
AcDbLine
   6
CONTINUOUS
  62
7
  10
 1189.1573033708
  20
 4880.2808988764
  30
0.0
  11
 1189.1573033708
  21
 4565.2808988764
  31
0.0
   0
LINE
   5
2DE
 100
AcDbEntity
   8
LEVEL001
 370
13
 100
AcDbLine
   6
CONTINUOUS
  62
3
  10
 1184.1573033708
  20
 4880.2808988764
  30
0.0
  11
 1184.1573033708
  21
 4565.2808988764
  31
0.0
   0
LINE
   5
2DF
 100
AcDbEntity
   8
LEVEL001
 370
13
 100
AcDbLine
   6
CONTINUOUS
  62
3
  10
 1168.2573033708
  20
 4880.2808988764
  30
0.0
  11
 1168.2573033708
  21
 4565.2808988764
  31
0.0
   0
LINE
   5
2E0
 100
AcDbEntity
   8
LEVEL001
 370
13
 100
AcDbLine
   6
CONTINUOUS
  62
7
  10
 1259.1573033708
  20
 4495.2808988764
  30
0.0
  11
 1724.1573033708
  21
 4495.2808988764
  31
0.0
   0
LINE
   5
2E1
 100
AcDbEntity
   8
LEVEL001
 370
13
 100
AcDbLine
   6
CONTINUOUS
  62
3
  10
 1259.1573033708
  20
 4490.2808988764
  30
0.0
  11
 1724.1573033708
  21
 4490.2808988764
  31
0.0
   0
LINE
   5
2E2
 100
AcDbEntity
   8
LEVEL001
 370
13
 100
AcDbLine
   6
CONTINUOUS
  62
3
  10
 1259.1573033708
  20
 4474.3808988764
  30
0.0
  11
 1724.1573033708
  21
 4474.3808988764
  31
0.0
   0
ARC
   5
2E3
 100
AcDbEntity
   8
LEVEL001
 370
13
   6
CONTINUOUS
  62
7
 100
AcDbCircle
  10
 1259.1573033708
  20
 4565.2808988764
  30
0.0
  40
 70.000000000000
 100
AcDbArc
  50
 180.00000000000
  51
 270.00000000000
   0
ARC
   5
2E4
 100
AcDbEntity
   8
LEVEL001
 370
13
   6
CONTINUOUS
  62
3
 100
AcDbCircle
  10
 1259.1573033708
  20
 4565.2808988764
  30
0.0
  40
 75.000000000000
 100
AcDbArc
  50
 180.00000000000
  51
 270.00000000000
   0
ARC
   5
2E5
 100
AcDbEntity
   8
LEVEL001
 370
13
   6
CONTINUOUS
  62
3
 100
AcDbCircle
  10
 1259.1573033708
  20
 4565.2808988764
  30
0.0
  40
 90.900000000000
 100
AcDbArc
  50
 180.00000000000
  51
 270.00000000000
   0
ARC
   5
2E6
 100
AcDbEntity
   8
LEVEL001
 370
13
   6
CONTINUOUS
  62
7
 100
AcDbCircle
  10
 1724.1573033708
  20
 4565.2808988764
  30
0.0
  40
 70.000000000000
 100
AcDbArc
  50
 270.00000000000
  51
0.0
   0
ARC
   5
2E7
 100
AcDbEntity
   8
LEVEL001
 370
13
   6
CONTINUOUS
  62
3
 100
AcDbCircle
  10
 1724.1573033708
  20
 4565.2808988764
  30
0.0
  40
 75.000000000000
 100
AcDbArc
  50
 270.00000000000
  51
0.0
   0
ARC
   5
2E8
 100
AcDbEntity
   8
LEVEL001
 370
13
   6
CONTINUOUS
  62
3
 100
AcDbCircle
  10
 1724.1573033708
  20
 4565.2808988764
  30
0.0
  40
 90.900000000000
 100
AcDbArc
  50
 270.00000000000
  51
 0.11465392277469E-11
   0
ARC
   5
2E9
 100
AcDbEntity
   8
LEVEL001
 370
13
   6
CONTINUOUS
  62
7
 100
AcDbCircle
  10
 1724.1573033708
  20
 4880.2808988764
  30
0.0
  40
 70.000000000000
 100
AcDbArc
  50
0.0
  51
 90.000000000000
   0
ARC
   5
2EA
 100
AcDbEntity
   8
LEVEL001
 370
13
   6
CONTINUOUS
  62
3
 100
AcDbCircle
  10
 1724.1573033708
  20
 4880.2808988764
  30
0.0
  40
 75.000000000000
 100
AcDbArc
  50
0.0
  51
 90.000000000000
   0
ARC
   5
2EB
 100
AcDbEntity
   8
LEVEL001
 370
13
   6
CONTINUOUS
  62
3
 100
AcDbCircle
  10
 1724.1573033708
  20
 4880.2808988764
  30
0.0
  40
 90.900000000000
 100
AcDbArc
  50
 360.00000000000
  51
 89.999999999999
   0
LINE
   5
2EC
 100
AcDbEntity
   8
LEVEL001
 370
13
 100
AcDbLine
   6
CONTINUOUS
  62
7
  10
 1794.1573033708
  20
 4565.2808988764
  30
0.0
  11
 1794.1573033708
  21
 4880.2808988764
  31
0.0
   0
LINE
   5
2ED
 100
AcDbEntity
   8
LEVEL001
 370
13
 100
AcDbLine
   6
CONTINUOUS
  62
3
  10
 1799.1573033708
  20
 4565.2808988764
  30
0.0
  11
 1799.1573033708
  21
 4880.2808988764
  31
0.0
   0
LINE
   5
2EE
 100
AcDbEntity
   8
LEVEL001
 370
13
 100
AcDbLine
   6
CONTINUOUS
  62
3
  10
 1815.0573033708
  20
 4565.2808988764
  30
0.0
  11
 1815.0573033708
  21
 4880.2808988764
  31
0.0
   0
MTEXT
   5
2EF
 100
AcDbEntity
   8
LEVEL001
 370
13
  62
1
 100
AcDbMText
  10
 6771.6573033708
  20
 2542.7808988764
  30
0.0
  40
 51.428571428572
  41
0.0
  71
4
  72
1
   1
\T1.000000;ＳＵＳ４３０
   7
GMM001
  44
 0.79999984000003
   0
MTEXT
   5
2F0
 100
AcDbEntity
   8
LEVEL001
 370
13
  62
1
 100
AcDbMText
  10
 5551.6573033708
  20
 3242.7808988764
  30
0.0
  40
 57.142857142858
  41
0.0
  71
4
  72
1
   1
\T1.000000;ステンレスミラー　＜Ｚタイプ＞
   7
GMM001
  44
 0.79999984000003
   0
MTEXT
   5
2F1
 100
AcDbEntity
   8
LEVEL001
 370
13
  62
1
 100
AcDbMText
  10
 6771.6573033708
  20
 2662.7808988764
  30
0.0
  40
 51.428571428572
  41
0.0
  71
4
  72
1
   1
\T1.000000;高耐食溶融めっき鋼板
   7
GMM003
  44
 0.79999984000003
   0
LEADER
   5
2F2
 100
AcDbEntity
   8
LEVEL001
 370
13
   6
CONTINUOUS
  62
1
 100
AcDbLeader
   3
GMM001
  73
3
  74
1
  75
0
  40
 60.000000000000
  41
0.0
  76
2
  10
 3066.6573204734
  20
 4777.7808988764
  30
0.0
  10
 3310.6808972658
  20
 5115.6655711744
  30
0.0
  77
1
   0
LEADER
   5
2F3
 100
AcDbEntity
   8
LEVEL001
 370
13
   6
CONTINUOUS
  62
1
 100
AcDbLeader
   3
GMM001
  73
3
  74
1
  75
0
  40
 60.000000000000
  41
0.0
  76
2
  10
 2883.2472090490
  20
 4777.7808988764
  30
0.0
  10
 2850.8104169128
  20
 5103.3819059412
  30
0.0
  77
1
   0
LEADER
   5
2F4
 100
AcDbEntity
   8
LEVEL001
 370
13
   6
CONTINUOUS
  62
1
 100
AcDbLeader
   3
GMM001
  73
3
  74
1
  75
0
  40
 60.000000000000
  41
0.0
  76
2
  10
 2881.6572852852
  20
 1566.8808988764
  30
0.0
  10
 2678.3089455108
  20
 1457.5331992708
  30
0.0
  77
1
   0
LEADER
   5
2F5
 100
AcDbEntity
   8
LEVEL001
 370
13
   6
CONTINUOUS
  62
1
 100
AcDbLeader
   3
GMM002
  73
3
  74
1
  75
0
  40
 66.000000000000
  41
0.0
  76
2
  10
 4232.8746968088
  20
 4589.8658952210
  30
0.0
  10
 4129.8647708490
  20
 4431.4340244268
  30
0.0
  77
1
   0
LEADER
   5
2F6
 100
AcDbEntity
   8
LEVEL001
 370
13
   6
CONTINUOUS
  62
1
 100
AcDbLeader
   3
GMM001
  73
3
  74
1
  75
0
  40
 60.000000000000
  41
0.0
  76
2
  10
 2728.8739406300
  20
 4951.1808988764
  30
0.0
  10
 2354.2018375366
  20
 5141.3455532616
  30
0.0
  77
1
   0
LEADER
   5
2F7
 100
AcDbEntity
   8
LEVEL001
 370
13
   6
CONTINUOUS
  62
1
 100
AcDbLeader
   3
GMM001
  73
3
  74
1
  75
0
  40
 60.000000000000
  41
0.0
  76
2
  10
 2991.6573033708
  20
 4878.3808988764
  30
0.0
  10
 3152.7670409954
  20
 5114.5782572494
  30
0.0
  77
1
   0
LEADER
   5
2F8
 100
AcDbEntity
   8
LEVEL001
 370
13
   6
CONTINUOUS
  62
1
 100
AcDbLeader
   3
GMM001
  73
3
  74
1
  75
0
  40
 60.000000000000
  41
0.0
  76
2
  10
 1641.6573033708
  20
 4474.3808988764
  30
0.0
  10
 1692.6691700455
  20
 4422.7825238624
  30
0.0
  77
1
   0
LEADER
   5
2F9
 100
AcDbEntity
   8
LEVEL001
 370
13
   6
CONTINUOUS
  62
1
 100
AcDbLeader
   3
GMM001
  73
3
  74
1
  75
0
  40
 60.000000000000
  41
0.0
  76
2
  10
 1641.6573033708
  20
 4608.1233909638
  30
0.0
  10
 2225.5893900086
  20
 4395.9116258840
  30
0.0
  77
1
   0
LEADER
   5
2FA
 100
AcDbEntity
   8
LEVEL001
 370
13
   6
CONTINUOUS
  62
1
 100
AcDbLeader
   3
GMM001
  73
3
  74
1
  75
0
  40
 60.000000000000
  41
0.0
  76
2
  10
 2764.3508381490
  20
 4622.8381745120
  30
0.0
  10
 2354.3021910780
  20
 4404.0157792522
  30
0.0
  77
1
   0
LEADER
   5
2FB
 100
AcDbEntity
   8
LEVEL001
 370
13
   6
CONTINUOUS
  62
1
 100
AcDbLeader
   3
GMM001
  73
3
  74
1
  75
0
  40
 60.000000000000
  41
0.0
  76
2
  10
 1529.8073033708
  20
 2649.3808988764
  30
0.0
  10
 1681.3695140096
  20
 2738.8086842428
  30
0.0
  77
1
   0
DIMENSION
   5
2FC
 100
AcDbEntity
   8
LEVEL001
 370
13
   6
CONTINUOUS
  62
1
 100
AcDbDimension
   2
*D11
  10
 1341.6573033708
  20
 4950.2808988764
  30
0.0
  11
 1341.6573033708
  21
 4689.9676584206
  31
0.0
  70
128
   1
\A1;450
   3
GMM003
 100
AcDbAlignedDimension
  13
 1341.6573033708
  23
 4495.2808988764
  33
0.0
  14
 1341.6573033708
  24
 4950.2808988764
  34
0.0
  50
 90.000000000000
 100
AcDbRotatedDimension
   0
DIMENSION
   5
2FD
 100
AcDbEntity
   8
LEVEL001
 370
13
   6
CONTINUOUS
  62
1
 100
AcDbDimension
   2
*D12
  10
 1189.1573033708
  20
 4822.7808988764
  30
0.0
  11
 1522.4065119900
  21
 4822.7808988764
  31
0.0
  70
128
   1
\A1;600
   3
GMM004
 100
AcDbAlignedDimension
  13
 1794.1573033708
  23
 4822.7808988764
  33
0.0
  14
 1189.1573033708
  24
 4822.7808988764
  34
0.0
  50
 180.00000000000
 100
AcDbRotatedDimension
   0
LEADER
   5
2FE
 100
AcDbEntity
   8
LEVEL001
 370
13
   6
CONTINUOUS
  62
1
 100
AcDbLeader
   3
GMM005
  73
3
  74
1
  75
0
  40
 60.000000000000
  41
0.0
  76
2
  10
 1724.1573033708
  20
 4951.1808988764
  30
0.0
  10
 2226.4706161798
  20
 5147.2721646662
  30
0.0
  77
1
   0
DIMENSION
   5
2FF
 100
AcDbEntity
   8
LEVEL001
 370
13
   6
CONTINUOUS
  62
1
 100
AcDbDimension
   2
*D14
  10
 3241.6573033708
  20
 974.38089887640
  30
0.0
  11
 2991.6573033708
  21
 974.38089887640
  31
0.0
  70
128
   1
\A1;□500
   3
GMM006
 100
AcDbAlignedDimension
  13
 2741.6573033708
  23
 1174.3808988764
  33
0.0
  14
 3241.6573033708
  24
 1174.3808988764
  34
0.0
 100
AcDbRotatedDimension
   0
DIMENSION
   5
300
 100
AcDbEntity
   8
LEVEL001
 370
13
   6
CONTINUOUS
  62
1
 100
AcDbDimension
   2
*D15
  10
 1741.6573033708
  20
 974.38089887640
  30
0.0
  11
 1491.6573033708
  21
 974.38089887640
  31
0.0
  70
128
   1
\A1;□500
   3
GMM006
 100
AcDbAlignedDimension
  13
 1241.6573033708
  23
 1174.3808988764
  33
0.0
  14
 1741.6573033708
  24
 1174.3808988764
  34
0.0
 100
AcDbRotatedDimension
   0
MTEXT
   5
301
 100
AcDbEntity
   8
LEVEL001
 370
13
  62
1
 100
AcDbMText
  10
 1841.6573033708
  20
 2795.8094703050
  30
0.0
  40
 42.857142857142
  41
0.0
  71
1
  72
1
   1
{\T1.000000;支柱}\P%%c{\T1.000000;７６}{\T1.000000;.}{\T1.000000;３×３}{\T1.000000;.}{\T1.000000;２ｔ}\P{\T1.000000;×３６００Ｌ}
   7
GMM001
  44
 0.79999984000003
   0
MTEXT
   5
302
 100
AcDbEntity
   8
LEVEL001
 370
13
  62
1
 100
AcDbMText
  10
 5691.6573033708
  20
 3502.7808988764
  30
0.0
  40
 51.428580000000
  41
0.0
  71
1
  72
1
   1
{\T1.000000;※構成部材は改良のため、変更する場合があります。}\P{\T1.000000;※本図は道路反射鏡ハンドブックに基づいています。}
   7
GMM001
  44
 0.79999984000003
   0
MTEXT
   5
303
 100
AcDbEntity
   8
LEVEL001
 370
13
  62
1
 100
AcDbMText
  10
 5623.6573033708
  20
 1102.7808988764
  30
0.0
  40
 51.428571428572
  41
0.0
  71
6
  72
1
   1
\T1.000000;１４
   7
GMM001
  44
 0.79999984000003
   0
MTEXT
   5
304
 100
AcDbEntity
   8
LEVEL001
 370
13
  62
1
 100
AcDbMText
  10
 5623.6573033708
  20
 1222.7808988764
  30
0.0
  40
 51.428571428572
  41
0.0
  71
6
  72
1
   1
\T1.000000;１３
   7
GMM001
  44
 0.79999984000003
   0
MTEXT
   5
305
 100
AcDbEntity
   8
LEVEL001
 370
13
  62
1
 100
AcDbMText
  10
 5623.6573033708
  20
 1342.7808988764
  30
0.0
  40
 51.428571428572
  41
0.0
  71
6
  72
1
   1
\T1.000000;１２
   7
GMM001
  44
 0.79999984000003
   0
MTEXT
   5
306
 100
AcDbEntity
   8
LEVEL001
 370
13
  62
1
 100
AcDbMText
  10
 5623.6573033708
  20
 1462.7808988764
  30
0.0
  40
 51.428571428572
  41
0.0
  71
6
  72
1
   1
\T1.000000;１１
   7
GMM001
  44
 0.79999984000003
   0
MTEXT
   5
307
 100
AcDbEntity
   8
LEVEL001
 370
13
  62
1
 100
AcDbMText
  10
 5623.6573033708
  20
 1582.7808988764
  30
0.0
  40
 51.428571428572
  41
0.0
  71
6
  72
1
   1
\T1.000000;１０
   7
GMM001
  44
 0.79999984000003
   0
MTEXT
   5
308
 100
AcDbEntity
   8
LEVEL001
 370
13
  62
1
 100
AcDbMText
  10
 6781.6573033708
  20
 1459.9281142682
  30
0.0
  40
 51.428571428572
  41
0.0
  71
4
  72
1
   1
\T1.000000;ＰＥ
   7
GMM001
  44
 0.79999984000003
   0
MTEXT
   5
309
 100
AcDbEntity
   8
LEVEL001
 370
13
  62
1
 100
AcDbMText
  10
 5691.6573033708
  20
 1102.7808988764
  30
0.0
  40
 51.428571428572
  41
0.0
  71
4
  72
1
   1
\T1.000000;同上ボルトナット
   7
GMM001
  44
 0.79999984000003
   0
MTEXT
   5
30A
 100
AcDbEntity
   8
LEVEL001
 370
13
  62
1
 100
AcDbMText
  10
 5691.6573033708
  20
 1222.7808988764
  30
0.0
  40
 51.428571428572
  41
0.0
  71
4
  72
1
   1
\T1.000000;注意板取付バンド
   7
GMM001
  44
 0.79999984000003
   0
MTEXT
   5
30B
 100
AcDbEntity
   8
LEVEL001
 370
13
  62
1
 100
AcDbMText
  10
 6703.6573033708
  20
 1342.7808988764
  30
0.0
  40
 51.428571428572
  41
0.0
  71
6
  72
1
   1
\T1.000000;１
   7
GMM001
  44
 0.79999984000003
   0
MTEXT
   5
30C
 100
AcDbEntity
   8
LEVEL001
 370
13
  62
1
 100
AcDbMText
  10
 5691.6573033708
  20
 1462.7808988764
  30
0.0
  40
 51.428571428572
  41
0.0
  71
4
  72
1
   1
\T1.000000;キャップ
   7
GMM001
  44
 0.79999984000003
   0
MTEXT
   5
30D
 100
AcDbEntity
   8
LEVEL001
 370
13
  62
1
 100
AcDbMText
  10
 6703.6573033708
  20
 1462.7808988764
  30
0.0
  40
 51.428571428572
  41
0.0
  71
6
  72
1
   1
\T1.000000;１
   7
GMM001
  44
 0.79999984000003
   0
MTEXT
   5
30E
 100
AcDbEntity
   8
LEVEL001
 370
13
  62
1
 100
AcDbMText
  10
 5691.6573033708
  20
 1582.7808988764
  30
0.0
  40
 51.428571428572
  41
0.0
  71
4
  72
1
   1
\T1.000000;根入れ鉄筋
   7
GMM001
  44
 0.79999984000003
   0
MTEXT
   5
30F
 100
AcDbEntity
   8
LEVEL001
 370
13
  62
1
 100
AcDbMText
  10
 6703.6573033708
  20
 1582.7808988764
  30
0.0
  40
 51.428571428572
  41
0.0
  71
6
  72
1
   1
\T1.000000;１
   7
GMM001
  44
 0.79999984000003
   0
MTEXT
   5
310
 100
AcDbEntity
   8
LEVEL001
 370
13
  62
1
 100
AcDbMText
  10
 6771.6573033708
  20
 1582.7808988764
  30
0.0
  40
 51.428571428572
  41
0.0
  71
4
  72
1
   1
\T1.000000;ＳＤ２９５Ａ
   7
GMM001
  44
 0.79999984000003
   0
LINE
   5
311
 100
AcDbEntity
   8
LEVEL001
 370
13
 100
AcDbLine
   6
CONTINUOUS
  62
6
  10
 5651.6573033708
  20
 3002.7808988764
  30
0.0
  11
 5651.6573033708
  21
 922.78089887640
  31
0.0
   0
LINE
   5
312
 100
AcDbEntity
   8
LEVEL001
 370
13
 100
AcDbLine
   6
CONTINUOUS
  62
6
  10
 6531.6573033708
  20
 3002.7808988764
  30
0.0
  11
 6531.6573033708
  21
 922.78089887640
  31
0.0
   0
LINE
   5
313
 100
AcDbEntity
   8
LEVEL001
 370
13
 100
AcDbLine
   6
CONTINUOUS
  62
6
  10
 6731.6573033708
  20
 3002.7808988764
  30
0.0
  11
 6731.6573033708
  21
 922.78089887640
  31
0.0
   0
LINE
   5
314
 100
AcDbEntity
   8
LEVEL001
 370
13
 100
AcDbLine
   6
CONTINUOUS
  62
6
  10
 7291.6573033708
  20
 3002.7808988764
  30
0.0
  11
 7291.6573033708
  21
 922.78089887640
  31
0.0
   0
MTEXT
   5
315
 100
AcDbEntity
   8
0
 370
13
  62
1
 100
AcDbMText
  10
 6702.6362771248
  20
 1669.0497486308
  30
0.0
  40
 51.428571428571
  41
0.0
  71
9
  72
1
   1
\T1.000000;１
   7
GMM001
  44
 0.79999984000003
   0
MTEXT
   5
316
 100
AcDbEntity
   8
0
 370
13
  62
1
 100
AcDbMText
  10
 6771.2406945022
  20
 1669.0497486308
  30
0.0
  40
 51.428571428571
  41
0.0
  71
7
  72
1
   1
\T1.000000;ＳＴＫ４００
   7
GMM001
  44
 0.79999984000003
   0
LINE
   5
317
 100
AcDbEntity
   8
0
 370
13
 100
AcDbLine
   6
CONTINUOUS
  62
6
  10
 6531.6573033708
  20
 1762.7808988764
  30
0.0
  11
 8091.6573033708
  21
 1762.7808988764
  31
0.0
   0
MTEXT
   5
318
 100
AcDbEntity
   8
LEVEL001
 370
13
  62
2
 100
AcDbMText
  10
 5461.6573033708
  20
 892.78089887640
  30
0.0
  40
 38.571428571428
  41
0.0
  71
4
  72
1
   1
\T1.370378;図面番号
   7
GMM007
  44
 0.79999984000003
   0
MTEXT
   5
319
 100
AcDbEntity
   8
LEVEL001
 370
13
  62
1
 100
AcDbMText
  10
 6291.6573033708
  20
 766.99964887640
  30
0.0
  40
 42.857142857142
  41
0.0
  71
5
  72
1
   1
\T1.000000;ＭＺＨ４５６Ｓ
   7
GMM001
  44
 0.79999984000003
   0
MTEXT
   5
31A
 100
AcDbEntity
   8
LEVEL001
 370
13
  62
1
 100
AcDbMText
  10
 7331.6573033708
  20
 2718.9746745077
  30
0.0
  40
 34.285720000000
  41
0.0
  71
1
  72
1
   1
{\T1.000000;ＺＡＭ処理鋼板}\P{\T1.000000;プレス成型}
   7
GMM008
  44
 1.0099997630000
   0
MTEXT
   5
31B
 100
AcDbEntity
   8
0
 370
13
  62
1
 100
AcDbMText
  10
 7333.0388326207
  20
 1708.6409698473
  30
0.0
  40
 34.285720000000
  41
0.0
  71
4
  72
1
   1
{\T1.000000;下地亜鉛メッキ}\P{\T1.000000;＋静電粉体塗装}
   7
GMM008
  44
 0.79999984000003
   0
MTEXT
   5
31C
 100
AcDbEntity
   8
LEVEL001
 370
13
  62
1
 100
AcDbMText
  10
 7331.6573033708
  20
 1222.7808988764
  30
0.0
  40
 51.428571428572
  41
0.0
  71
4
  72
1
   1
\T1.000000;―
   7
GMM001
  44
 0.79999984000003
   0
MTEXT
   5
31D
 100
AcDbEntity
   8
LEVEL001
 370
13
  62
1
 100
AcDbMText
  10
 7331.6573033708
  20
 1102.7808988764
  30
0.0
  40
 51.428571428572
  41
0.0
  71
4
  72
1
   1
\T1.000000;―
   7
GMM001
  44
 0.79999984000003
   0
MTEXT
   5
31E
 100
AcDbEntity
   8
LEVEL001
 370
13
  62
1
 100
AcDbMText
  10
 6771.6573033708
  20
 1222.7808988764
  30
0.0
  40
 51.428571428572
  41
0.0
  71
4
  72
1
   1
\T1.000000;―
   7
GMM001
  44
 0.79999984000003
   0
MTEXT
   5
31F
 100
AcDbEntity
   8
LEVEL001
 370
13
  62
1
 100
AcDbMText
  10
 6771.6573033708
  20
 1102.7808988764
  30
0.0
  40
 51.428571428572
  41
0.0
  71
4
  72
1
   1
\T1.000000;―
   7
GMM001
  44
 0.79999984000003
   0
MTEXT
   5
320
 100
AcDbEntity
   8
LEVEL001
 370
13
  62
1
 100
AcDbMText
  10
 6703.6573033708
  20
 1222.7808988764
  30
0.0
  40
 51.428571428572
  41
0.0
  71
6
  72
1
   1
\T1.000000;１式
   7
GMM001
  44
 0.79999984000003
   0
MTEXT
   5
321
 100
AcDbEntity
   8
LEVEL001
 370
13
  62
1
 100
AcDbMText
  10
 6703.6573033708
  20
 1102.7808988764
  30
0.0
  40
 51.428571428572
  41
0.0
  71
6
  72
1
   1
\T1.000000;１式
   7
GMM001
  44
 0.79999984000003
   0
MTEXT
   5
322
 100
AcDbEntity
   8
LEVEL001
 370
13
  62
1
 100
AcDbMText
  10
 6771.6573033708
  20
 1342.7808988764
  30
0.0
  40
 51.428571428572
  41
0.0
  71
4
  72
1
   1
\T1.000000;―
   7
GMM001
  44
 0.79999984000003
   0
LINE
   5
323
 100
AcDbEntity
   8
LEVEL001
 370
13
 100
AcDbLine
   6
CONTINUOUS
  62
6
  10
 5451.6573033708
  20
 3002.7808988764
  30
0.0
  11
 8091.6573033708
  21
 3002.7808988764
  31
0.0
   0
LINE
   5
324
 100
AcDbEntity
   8
LEVEL001
 370
13
 100
AcDbLine
   6
CONTINUOUS
  62
6
  10
 5451.6573033708
  20
 2842.7808988764
  30
0.0
  11
 8091.6573033708
  21
 2842.7808988764
  31
0.0
   0
LWPOLYLINE
   5
325
 100
AcDbEntity
   8
0
 370
13
   6
CONTINUOUS
  62
6
 100
AcDbPolyline
  90
4
  70
1
  10
 5451.6573033708
  20
 922.78089887640
  10
 8091.6573033708
  20
 922.78089887640
  10
 8091.6573033708
  20
 3322.7808988764
  10
 5451.6573033708
  20
 3322.7808988764
   0
LINE
   5
326
 100
AcDbEntity
   8
LEVEL001
 370
13
 100
AcDbLine
   6
CONTINUOUS
  62
5
  10
 3302.3374982174
  20
 1974.3808988764
  30
0.0
  11
 3249.8374982174
  21
 1921.8808988764
  31
0.0
   0
LINE
   5
327
 100
AcDbEntity
   8
LEVEL001
 370
13
 100
AcDbLine
   6
CONTINUOUS
  62
5
  10
 3265.7474007936
  20
 1921.8808988764
  30
0.0
  11
 3318.2474007936
  21
 1974.3808988764
  31
0.0
   0
LINE
   5
328
 100
AcDbEntity
   8
LEVEL001
 370
13
 100
AcDbLine
   6
CONTINUOUS
  62
5
  10
 3334.1573033712
  20
 1974.3808988764
  30
0.0
  11
 3281.6573033712
  21
 1921.8808988764
  31
0.0
   0
LINE
   5
329
 100
AcDbEntity
   8
LEVEL001
 370
13
 100
AcDbLine
   6
CONTINUOUS
  62
5
  10
 3297.5672059472
  20
 1921.8808988764
  30
0.0
  11
 3350.0672059472
  21
 1974.3808988764
  31
0.0
   0
LINE
   5
32A
 100
AcDbEntity
   8
LEVEL001
 370
13
 100
AcDbLine
   6
CONTINUOUS
  62
5
  10
 3354.8374982178
  20
 1921.8808988764
  30
0.0
  11
 3326.2023520824
  21
 1950.5160450117
  31
0.0
   0
LINE
   5
32B
 100
AcDbEntity
   8
LEVEL001
 370
13
 100
AcDbLine
   6
CONTINUOUS
  62
5
  10
 3334.1573033706
  20
 1958.4709962999
  30
0.0
  11
 3370.7474007942
  21
 1921.8808988764
  31
0.0
   0
LINE
   5
32C
 100
AcDbEntity
   8
LEVEL001
 370
13
 100
AcDbLine
   6
CONTINUOUS
  62
5
  10
 3386.6573033706
  20
 1921.8808988764
  30
0.0
  11
 3342.1122546588
  21
 1966.4259475881
  31
0.0
   0
LINE
   5
32D
 100
AcDbEntity
   8
LEVEL001
 370
13
 100
AcDbLine
   6
CONTINUOUS
  62
5
  10
 3350.0672059472
  20
 1974.3808988764
  30
0.0
  11
 3402.5672059474
  21
 1921.8808988764
  31
0.0
   0
LINE
   5
32E
 100
AcDbEntity
   8
LEVEL001
 370
13
 100
AcDbLine
   6
CONTINUOUS
  62
5
  10
 3402.5672059474
  20
 1921.8808988764
  30
0.0
  11
 3455.0672059474
  21
 1974.3808988764
  31
0.0
   0
LINE
   5
32F
 100
AcDbEntity
   8
LEVEL001
 370
13
 100
AcDbLine
   6
CONTINUOUS
  62
5
  10
 3407.3374982176
  20
 1974.3808988764
  30
0.0
  11
 3378.7023520824
  21
 1945.7457527412
  31
0.0
   0
LINE
   5
330
 100
AcDbEntity
   8
LEVEL001
 370
13
 100
AcDbLine
   6
CONTINUOUS
  62
5
  10
 3386.6573033706
  20
 1937.7908014532
  30
0.0
  11
 3423.2474007938
  21
 1974.3808988764
  31
0.0
   0
LINE
   5
331
 100
AcDbEntity
   8
LEVEL001
 370
13
 100
AcDbLine
   6
CONTINUOUS
  62
5
  10
 3439.1573033714
  20
 1974.3808988764
  30
0.0
  11
 3394.6122546594
  21
 1929.8358501644
  31
0.0
   0
LINE
   5
332
 100
AcDbEntity
   8
LEVEL001
 370
13
 100
AcDbLine
   6
CONTINUOUS
  62
5
  10
 3459.8374982180
  20
 1921.8808988764
  30
0.0
  11
 3431.2023520826
  21
 1950.5160450117
  31
0.0
   0
LINE
   5
333
 100
AcDbEntity
   8
LEVEL001
 370
13
 100
AcDbLine
   6
CONTINUOUS
  62
5
  10
 3439.1573033708
  20
 1958.4709962999
  30
0.0
  11
 3475.7474007944
  21
 1921.8808988764
  31
0.0
   0
LINE
   5
334
 100
AcDbEntity
   8
LEVEL001
 370
13
 100
AcDbLine
   6
CONTINUOUS
  62
5
  10
 3491.6573033708
  20
 1921.8808988764
  30
0.0
  11
 3447.1122546590
  21
 1966.4259475881
  31
0.0
   0
LINE
   5
335
 100
AcDbEntity
   8
LEVEL001
 370
13
 100
AcDbLine
   6
CONTINUOUS
  62
5
  10
 3455.0672059474
  20
 1974.3808988764
  30
0.0
  11
 3491.6573033708
  21
 1937.7908014531
  31
0.0
   0
LINE
   5
336
 100
AcDbEntity
   8
LEVEL001
 370
13
 100
AcDbLine
   6
CONTINUOUS
  62
5
  10
 3029.8073033708
  20
 1974.3808988764
  30
0.0
  11
 3491.6573033708
  21
 1974.3808988764
  31
0.0
   0
LINE
   5
337
 100
AcDbEntity
   8
LEVEL001
 370
13
 100
AcDbLine
   6
CONTINUOUS
  62
5
  10
 3241.6573033708
  20
 1274.3808988764
  30
0.0
  11
 3241.6573033708
  21
 1974.3808988764
  31
0.0
   0
LINE
   5
338
 100
AcDbEntity
   8
LEVEL001
 370
13
 100
AcDbLine
   6
CONTINUOUS
  62
5
  10
 3241.6573033708
  20
 1897.8862379357
  30
0.0
  11
 3029.8073033708
  21
 1686.0362379357
  31
0.0
   0
LINE
   5
339
 100
AcDbEntity
   8
LEVEL001
 370
13
 100
AcDbLine
   6
CONTINUOUS
  62
5
  10
 3029.8073033708
  20
 1650.6808988764
  30
0.0
  11
 3241.6573033708
  21
 1862.5308988764
  31
0.0
   0
LINE
   5
33A
 100
AcDbEntity
   8
LEVEL001
 370
13
 100
AcDbLine
   6
CONTINUOUS
  62
5
  10
 3241.6573033708
  20
 1827.1755598171
  30
0.0
  11
 3029.8073033708
  21
 1615.3255598171
  31
0.0
   0
LINE
   5
33B
 100
AcDbEntity
   8
LEVEL001
 370
13
 100
AcDbLine
   6
CONTINUOUS
  62
5
  10
 3241.6573033708
  20
 1274.3808988764
  30
0.0
  11
 3191.6573033708
  21
 1174.3808988764
  31
0.0
   0
LINE
   5
33C
 100
AcDbEntity
   8
LEVEL001
 370
13
 100
AcDbLine
   6
CONTINUOUS
  62
5
  10
 3191.6573033708
  20
 1274.3808988764
  30
0.0
  11
 3231.6573033708
  21
 1254.3808988764
  31
0.0
   0
LINE
   5
33D
 100
AcDbEntity
   8
LEVEL001
 370
13
 100
AcDbLine
   6
CONTINUOUS
  62
5
  10
 3191.6573033708
  20
 1274.3808988764
  30
0.0
  11
 3141.6573033708
  21
 1174.3808988764
  31
0.0
   0
LINE
   5
33E
 100
AcDbEntity
   8
LEVEL001
 370
13
 100
AcDbLine
   6
CONTINUOUS
  62
5
  10
 3141.6573033708
  20
 1274.3808988764
  30
0.0
  11
 3181.6573033708
  21
 1254.3808988764
  31
0.0
   0
LINE
   5
33F
 100
AcDbEntity
   8
LEVEL001
 370
13
 100
AcDbLine
   6
CONTINUOUS
  62
5
  10
 3141.6573033708
  20
 1274.3808988764
  30
0.0
  11
 3091.6573033708
  21
 1174.3808988764
  31
0.0
   0
LINE
   5
340
 100
AcDbEntity
   8
LEVEL001
 370
13
 100
AcDbLine
   6
CONTINUOUS
  62
5
  10
 3091.6573033708
  20
 1274.3808988764
  30
0.0
  11
 3131.6573033708
  21
 1254.3808988764
  31
0.0
   0
LINE
   5
341
 100
AcDbEntity
   8
LEVEL001
 370
13
 100
AcDbLine
   6
CONTINUOUS
  62
5
  10
 3241.6573033708
  20
 1174.3808988764
  30
0.0
  11
 3201.6573033708
  21
 1194.3808988764
  31
0.0
   0
LINE
   5
342
 100
AcDbEntity
   8
LEVEL001
 370
13
 100
AcDbLine
   6
CONTINUOUS
  62
5
  10
 3191.6573033708
  20
 1174.3808988764
  30
0.0
  11
 3151.6573033708
  21
 1194.3808988764
  31
0.0
   0
LINE
   5
343
 100
AcDbEntity
   8
LEVEL001
 370
13
 100
AcDbLine
   6
CONTINUOUS
  62
5
  10
 3141.6573033708
  20
 1174.3808988764
  30
0.0
  11
 3101.6573033708
  21
 1194.3808988764
  31
0.0
   0
LINE
   5
344
 100
AcDbEntity
   8
LEVEL001
 370
13
 100
AcDbLine
   6
CONTINUOUS
  62
5
  10
 3241.6573033708
  20
 1274.3808988764
  30
0.0
  11
 2741.6573033708
  21
 1274.3808988764
  31
0.0
   0
LINE
   5
345
 100
AcDbEntity
   8
LEVEL001
 370
13
 100
AcDbLine
   6
CONTINUOUS
  62
5
  10
 2741.6573033708
  20
 1174.3808988764
  30
0.0
  11
 3241.6573033708
  21
 1174.3808988764
  31
0.0
   0
LINE
   5
346
 100
AcDbEntity
   8
LEVEL001
 370
13
 100
AcDbLine
   6
CONTINUOUS
  62
5
  10
 3241.6573033708
  20
 1174.3808988764
  30
0.0
  11
 3241.6573033708
  21
 1274.3808988764
  31
0.0
   0
LINE
   5
347
 100
AcDbEntity
   8
LEVEL001
 370
13
 100
AcDbLine
   6
CONTINUOUS
  62
5
  10
 2741.6573033708
  20
 1274.3808988764
  30
0.0
  11
 3241.6573033708
  21
 1274.3808988764
  31
0.0
   0
LINE
   5
348
 100
AcDbEntity
   8
LEVEL001
 370
13
 100
AcDbLine
   6
CONTINUOUS
  62
5
  10
 2891.6573033708
  20
 1274.3808988764
  30
0.0
  11
 2841.6573033708
  21
 1174.3808988764
  31
0.0
   0
LINE
   5
349
 100
AcDbEntity
   8
LEVEL001
 370
13
 100
AcDbLine
   6
CONTINUOUS
  62
5
  10
 2841.6573033708
  20
 1274.3808988764
  30
0.0
  11
 2881.6573033708
  21
 1254.3808988764
  31
0.0
   0
LINE
   5
34A
 100
AcDbEntity
   8
LEVEL001
 370
13
 100
AcDbLine
   6
CONTINUOUS
  62
5
  10
 2841.6573033708
  20
 1274.3808988764
  30
0.0
  11
 2791.6573033708
  21
 1174.3808988764
  31
0.0
   0
LINE
   5
34B
 100
AcDbEntity
   8
LEVEL001
 370
13
 100
AcDbLine
   6
CONTINUOUS
  62
5
  10
 2791.6573033708
  20
 1274.3808988764
  30
0.0
  11
 2831.6573033708
  21
 1254.3808988764
  31
0.0
   0
LINE
   5
34C
 100
AcDbEntity
   8
LEVEL001
 370
13
 100
AcDbLine
   6
CONTINUOUS
  62
5
  10
 2791.6573033708
  20
 1274.3808988764
  30
0.0
  11
 2741.6573033708
  21
 1174.3808988764
  31
0.0
   0
LINE
   5
34D
 100
AcDbEntity
   8
LEVEL001
 370
13
 100
AcDbLine
   6
CONTINUOUS
  62
5
  10
 2741.6573033708
  20
 1274.3808988764
  30
0.0
  11
 2781.6573033708
  21
 1254.3808988764
  31
0.0
   0
LINE
   5
34E
 100
AcDbEntity
   8
LEVEL001
 370
13
 100
AcDbLine
   6
CONTINUOUS
  62
5
  10
 2891.6573033708
  20
 1174.3808988764
  30
0.0
  11
 2851.6573033708
  21
 1194.3808988764
  31
0.0
   0
LINE
   5
34F
 100
AcDbEntity
   8
LEVEL001
 370
13
 100
AcDbLine
   6
CONTINUOUS
  62
5
  10
 2841.6573033708
  20
 1174.3808988764
  30
0.0
  11
 2801.6573033708
  21
 1194.3808988764
  31
0.0
   0
LINE
   5
350
 100
AcDbEntity
   8
LEVEL001
 370
13
 100
AcDbLine
   6
CONTINUOUS
  62
5
  10
 2791.6573033708
  20
 1174.3808988764
  30
0.0
  11
 2751.6573033708
  21
 1194.3808988764
  31
0.0
   0
LINE
   5
351
 100
AcDbEntity
   8
LEVEL001
 370
13
 100
AcDbLine
   6
CONTINUOUS
  62
5
  10
 2741.6573033708
  20
 1274.3808988764
  30
0.0
  11
 2741.6573033708
  21
 1174.3808988764
  31
0.0
   0
LINE
   5
352
 100
AcDbEntity
   8
LEVEL001
 370
13
 100
AcDbLine
   6
CONTINUOUS
  62
5
  10
 2741.6573033708
  20
 1974.3808988764
  30
0.0
  11
 2741.6573033708
  21
 1274.3808988764
  31
0.0
   0
LINE
   5
353
 100
AcDbEntity
   8
LEVEL001
 370
13
 100
AcDbLine
   6
CONTINUOUS
  62
5
  10
 2953.5073033708
  20
 1609.7362379357
  30
0.0
  11
 2737.2223539938
  21
 1393.4512885587
  31
0.0
   0
LINE
   5
354
 100
AcDbEntity
   8
LEVEL001
 370
13
 100
AcDbLine
   6
CONTINUOUS
  62
5
  10
 2741.6573033708
  20
 1362.5308988764
  30
0.0
  11
 2953.5073033708
  21
 1574.3808988764
  31
0.0
   0
LINE
   5
355
 100
AcDbEntity
   8
LEVEL001
 370
13
 100
AcDbLine
   6
CONTINUOUS
  62
5
  10
 2953.5073033708
  20
 1539.0255598171
  30
0.0
  11
 2741.6573033708
  21
 1327.1755598171
  31
0.0
   0
LINE
   5
356
 100
AcDbEntity
   8
LEVEL001
 370
13
 100
AcDbLine
   6
CONTINUOUS
  62
5
  10
 2652.5672059474
  20
 1921.8808988764
  30
0.0
  11
 2705.0672059474
  21
 1974.3808988764
  31
0.0
   0
LINE
   5
357
 100
AcDbEntity
   8
LEVEL001
 370
13
 100
AcDbLine
   6
CONTINUOUS
  62
5
  10
 2689.1573033714
  20
 1974.3808988764
  30
0.0
  11
 2644.6122546594
  21
 1929.8358501644
  31
0.0
   0
LINE
   5
358
 100
AcDbEntity
   8
LEVEL001
 370
13
 100
AcDbLine
   6
CONTINUOUS
  62
5
  10
 2709.8374982180
  20
 1921.8808988764
  30
0.0
  11
 2681.2023520826
  21
 1950.5160450117
  31
0.0
   0
LINE
   5
359
 100
AcDbEntity
   8
LEVEL001
 370
13
 100
AcDbLine
   6
CONTINUOUS
  62
5
  10
 2689.1573033708
  20
 1958.4709962999
  30
0.0
  11
 2725.7474007944
  21
 1921.8808988764
  31
0.0
   0
LINE
   5
35A
 100
AcDbEntity
   8
LEVEL001
 370
13
 100
AcDbLine
   6
CONTINUOUS
  62
5
  10
 2741.6573033708
  20
 1921.8808988764
  30
0.0
  11
 2697.1122546590
  21
 1966.4259475881
  31
0.0
   0
LINE
   5
35B
 100
AcDbEntity
   8
LEVEL001
 370
13
 100
AcDbLine
   6
CONTINUOUS
  62
5
  10
 2705.0672059474
  20
 1974.3808988764
  30
0.0
  11
 2741.6573033708
  21
 1937.7908014531
  31
0.0
   0
LINE
   5
35C
 100
AcDbEntity
   8
LEVEL001
 370
13
 100
AcDbLine
   6
CONTINUOUS
  62
5
  10
 2953.5073033708
  20
 1974.3808988764
  30
0.0
  11
 2491.6573033708
  21
 1974.3808988764
  31
0.0
   0
LINE
   5
35D
 100
AcDbEntity
   8
LEVEL001
 370
13
 100
AcDbLine
   6
CONTINUOUS
  62
5
  10
 2636.6573033706
  20
 1937.7908014532
  30
0.0
  11
 2673.2474007938
  21
 1974.3808988764
  31
0.0
   0
LINE
   5
35E
 100
AcDbEntity
   8
LEVEL001
 370
13
 100
AcDbLine
   6
CONTINUOUS
  62
5
  10
 2552.3374982174
  20
 1974.3808988764
  30
0.0
  11
 2499.8374982174
  21
 1921.8808988764
  31
0.0
   0
LINE
   5
35F
 100
AcDbEntity
   8
LEVEL001
 370
13
 100
AcDbLine
   6
CONTINUOUS
  62
5
  10
 2515.7474007936
  20
 1921.8808988764
  30
0.0
  11
 2568.2474007936
  21
 1974.3808988764
  31
0.0
   0
LINE
   5
360
 100
AcDbEntity
   8
LEVEL001
 370
13
 100
AcDbLine
   6
CONTINUOUS
  62
5
  10
 2584.1573033712
  20
 1974.3808988764
  30
0.0
  11
 2531.6573033712
  21
 1921.8808988764
  31
0.0
   0
LINE
   5
361
 100
AcDbEntity
   8
LEVEL001
 370
13
 100
AcDbLine
   6
CONTINUOUS
  62
5
  10
 2547.5672059472
  20
 1921.8808988764
  30
0.0
  11
 2600.0672059472
  21
 1974.3808988764
  31
0.0
   0
LINE
   5
362
 100
AcDbEntity
   8
LEVEL001
 370
13
 100
AcDbLine
   6
CONTINUOUS
  62
5
  10
 2604.8374982178
  20
 1921.8808988764
  30
0.0
  11
 2576.2023520824
  21
 1950.5160450117
  31
0.0
   0
LINE
   5
363
 100
AcDbEntity
   8
LEVEL001
 370
13
 100
AcDbLine
   6
CONTINUOUS
  62
5
  10
 2584.1573033706
  20
 1958.4709962999
  30
0.0
  11
 2620.7474007942
  21
 1921.8808988764
  31
0.0
   0
LINE
   5
364
 100
AcDbEntity
   8
LEVEL001
 370
13
 100
AcDbLine
   6
CONTINUOUS
  62
5
  10
 2636.6573033706
  20
 1921.8808988764
  30
0.0
  11
 2592.1122546588
  21
 1966.4259475881
  31
0.0
   0
LINE
   5
365
 100
AcDbEntity
   8
LEVEL001
 370
13
 100
AcDbLine
   6
CONTINUOUS
  62
5
  10
 2600.0672059472
  20
 1974.3808988764
  30
0.0
  11
 2652.5672059474
  21
 1921.8808988764
  31
0.0
   0
LINE
   5
366
 100
AcDbEntity
   8
LEVEL001
 370
13
 100
AcDbLine
   6
CONTINUOUS
  62
5
  10
 2657.3374982176
  20
 1974.3808988764
  30
0.0
  11
 2628.7023520824
  21
 1945.7457527412
  31
0.0
   0
LINE
   5
367
 100
AcDbEntity
   8
LEVEL001
 370
13
 100
AcDbLine
   6
CONTINUOUS
  62
5
  10
 1802.3374982175
  20
 1974.3808988764
  30
0.0
  11
 1749.8374982175
  21
 1921.8808988764
  31
0.0
   0
LINE
   5
368
 100
AcDbEntity
   8
LEVEL001
 370
13
 100
AcDbLine
   6
CONTINUOUS
  62
5
  10
 1765.7474007935
  20
 1921.8808988764
  30
0.0
  11
 1818.2474007935
  21
 1974.3808988764
  31
0.0
   0
LINE
   5
369
 100
AcDbEntity
   8
LEVEL001
 370
13
 100
AcDbLine
   6
CONTINUOUS
  62
5
  10
 1834.1573033711
  20
 1974.3808988764
  30
0.0
  11
 1781.6573033711
  21
 1921.8808988764
  31
0.0
   0
LINE
   5
36A
 100
AcDbEntity
   8
LEVEL001
 370
13
 100
AcDbLine
   6
CONTINUOUS
  62
5
  10
 1797.5672059471
  20
 1921.8808988764
  30
0.0
  11
 1850.0672059471
  21
 1974.3808988764
  31
0.0
   0
LINE
   5
36B
 100
AcDbEntity
   8
LEVEL001
 370
13
 100
AcDbLine
   6
CONTINUOUS
  62
5
  10
 1854.8374982177
  20
 1921.8808988764
  30
0.0
  11
 1826.2023520824
  21
 1950.5160450117
  31
0.0
   0
LINE
   5
36C
 100
AcDbEntity
   8
LEVEL001
 370
13
 100
AcDbLine
   6
CONTINUOUS
  62
5
  10
 1834.1573033707
  20
 1958.4709962999
  30
0.0
  11
 1870.7474007942
  21
 1921.8808988764
  31
0.0
   0
LINE
   5
36D
 100
AcDbEntity
   8
LEVEL001
 370
13
 100
AcDbLine
   6
CONTINUOUS
  62
5
  10
 1886.6573033706
  20
 1921.8808988764
  30
0.0
  11
 1842.1122546589
  21
 1966.4259475881
  31
0.0
   0
LINE
   5
36E
 100
AcDbEntity
   8
LEVEL001
 370
13
 100
AcDbLine
   6
CONTINUOUS
  62
5
  10
 1850.0672059471
  20
 1974.3808988764
  30
0.0
  11
 1902.5672059473
  21
 1921.8808988764
  31
0.0
   0
LINE
   5
36F
 100
AcDbEntity
   8
LEVEL001
 370
13
 100
AcDbLine
   6
CONTINUOUS
  62
5
  10
 1902.5672059473
  20
 1921.8808988764
  30
0.0
  11
 1955.0672059474
  21
 1974.3808988764
  31
0.0
   0
LINE
   5
370
 100
AcDbEntity
   8
LEVEL001
 370
13
 100
AcDbLine
   6
CONTINUOUS
  62
5
  10
 1907.3374982176
  20
 1974.3808988764
  30
0.0
  11
 1878.7023520824
  21
 1945.7457527412
  31
0.0
   0
LINE
   5
371
 100
AcDbEntity
   8
LEVEL001
 370
13
 100
AcDbLine
   6
CONTINUOUS
  62
5
  10
 1886.6573033705
  20
 1937.7908014532
  30
0.0
  11
 1923.2474007938
  21
 1974.3808988764
  31
0.0
   0
LINE
   5
372
 100
AcDbEntity
   8
LEVEL001
 370
13
 100
AcDbLine
   6
CONTINUOUS
  62
5
  10
 1939.1573033714
  20
 1974.3808988764
  30
0.0
  11
 1894.6122546593
  21
 1929.8358501644
  31
0.0
   0
LINE
   5
373
 100
AcDbEntity
   8
LEVEL001
 370
13
 100
AcDbLine
   6
CONTINUOUS
  62
5
  10
 1959.8374982180
  20
 1921.8808988764
  30
0.0
  11
 1931.2023520826
  21
 1950.5160450117
  31
0.0
   0
LINE
   5
374
 100
AcDbEntity
   8
LEVEL001
 370
13
 100
AcDbLine
   6
CONTINUOUS
  62
5
  10
 1939.1573033708
  20
 1958.4709962999
  30
0.0
  11
 1975.7474007944
  21
 1921.8808988764
  31
0.0
   0
LINE
   5
375
 100
AcDbEntity
   8
LEVEL001
 370
13
 100
AcDbLine
   6
CONTINUOUS
  62
5
  10
 1991.6573033708
  20
 1921.8808988764
  30
0.0
  11
 1947.1122546590
  21
 1966.4259475881
  31
0.0
   0
LINE
   5
376
 100
AcDbEntity
   8
LEVEL001
 370
13
 100
AcDbLine
   6
CONTINUOUS
  62
5
  10
 1955.0672059474
  20
 1974.3808988764
  30
0.0
  11
 1991.6573033708
  21
 1937.7908014531
  31
0.0
   0
LINE
   5
377
 100
AcDbEntity
   8
LEVEL001
 370
13
 100
AcDbLine
   6
CONTINUOUS
  62
5
  10
 1529.8073033708
  20
 1974.3808988764
  30
0.0
  11
 1991.6573033708
  21
 1974.3808988764
  31
0.0
   0
LINE
   5
378
 100
AcDbEntity
   8
LEVEL001
 370
13
 100
AcDbLine
   6
CONTINUOUS
  62
5
  10
 1741.6573033708
  20
 1274.3808988764
  30
0.0
  11
 1741.6573033708
  21
 1974.3808988764
  31
0.0
   0
LINE
   5
379
 100
AcDbEntity
   8
LEVEL001
 370
13
 100
AcDbLine
   6
CONTINUOUS
  62
5
  10
 1741.6573033708
  20
 1897.8862379357
  30
0.0
  11
 1529.8073033708
  21
 1686.0362379357
  31
0.0
   0
LINE
   5
37A
 100
AcDbEntity
   8
LEVEL001
 370
13
 100
AcDbLine
   6
CONTINUOUS
  62
5
  10
 1529.8073033708
  20
 1650.6808988764
  30
0.0
  11
 1741.6573033708
  21
 1862.5308988764
  31
0.0
   0
LINE
   5
37B
 100
AcDbEntity
   8
LEVEL001
 370
13
 100
AcDbLine
   6
CONTINUOUS
  62
5
  10
 1741.6573033708
  20
 1827.1755598171
  30
0.0
  11
 1529.8073033708
  21
 1615.3255598171
  31
0.0
   0
LINE
   5
37C
 100
AcDbEntity
   8
LEVEL001
 370
13
 100
AcDbLine
   6
CONTINUOUS
  62
5
  10
 1152.5672059473
  20
 1921.8808988764
  30
0.0
  11
 1205.0672059473
  21
 1974.3808988764
  31
0.0
   0
LINE
   5
37D
 100
AcDbEntity
   8
LEVEL001
 370
13
 100
AcDbLine
   6
CONTINUOUS
  62
5
  10
 1136.6573033705
  20
 1937.7908014532
  30
0.0
  11
 1173.2474007937
  21
 1974.3808988764
  31
0.0
   0
LINE
   5
37E
 100
AcDbEntity
   8
LEVEL001
 370
13
 100
AcDbLine
   6
CONTINUOUS
  62
5
  10
 1189.1573033713
  20
 1974.3808988764
  30
0.0
  11
 1144.6122546593
  21
 1929.8358501644
  31
0.0
   0
LINE
   5
37F
 100
AcDbEntity
   8
LEVEL001
 370
13
 100
AcDbLine
   6
CONTINUOUS
  62
5
  10
 1209.8374982179
  20
 1921.8808988764
  30
0.0
  11
 1181.2023520826
  21
 1950.5160450117
  31
0.0
   0
LINE
   5
380
 100
AcDbEntity
   8
LEVEL001
 370
13
 100
AcDbLine
   6
CONTINUOUS
  62
5
  10
 1189.1573033708
  20
 1958.4709962999
  30
0.0
  11
 1225.7474007944
  21
 1921.8808988764
  31
0.0
   0
LINE
   5
381
 100
AcDbEntity
   8
LEVEL001
 370
13
 100
AcDbLine
   6
CONTINUOUS
  62
5
  10
 1241.6573033708
  20
 1921.8808988764
  30
0.0
  11
 1197.1122546591
  21
 1966.4259475881
  31
0.0
   0
LINE
   5
382
 100
AcDbEntity
   8
LEVEL001
 370
13
 100
AcDbLine
   6
CONTINUOUS
  62
5
  10
 1052.3374982175
  20
 1974.3808988764
  30
0.0
  11
 999.83749821747
  21
 1921.8808988764
  31
0.0
   0
LINE
   5
383
 100
AcDbEntity
   8
LEVEL001
 370
13
 100
AcDbLine
   6
CONTINUOUS
  62
5
  10
 1015.7474007935
  20
 1921.8808988764
  30
0.0
  11
 1068.2474007935
  21
 1974.3808988764
  31
0.0
   0
LINE
   5
384
 100
AcDbEntity
   8
LEVEL001
 370
13
 100
AcDbLine
   6
CONTINUOUS
  62
5
  10
 1084.1573033711
  20
 1974.3808988764
  30
0.0
  11
 1031.6573033711
  21
 1921.8808988764
  31
0.0
   0
LINE
   5
385
 100
AcDbEntity
   8
LEVEL001
 370
13
 100
AcDbLine
   6
CONTINUOUS
  62
5
  10
 1047.5672059471
  20
 1921.8808988764
  30
0.0
  11
 1100.0672059471
  21
 1974.3808988764
  31
0.0
   0
LINE
   5
386
 100
AcDbEntity
   8
LEVEL001
 370
13
 100
AcDbLine
   6
CONTINUOUS
  62
5
  10
 1104.8374982177
  20
 1921.8808988764
  30
0.0
  11
 1076.2023520824
  21
 1950.5160450117
  31
0.0
   0
LINE
   5
387
 100
AcDbEntity
   8
LEVEL001
 370
13
 100
AcDbLine
   6
CONTINUOUS
  62
5
  10
 1084.1573033707
  20
 1958.4709962999
  30
0.0
  11
 1120.7474007942
  21
 1921.8808988764
  31
0.0
   0
LINE
   5
388
 100
AcDbEntity
   8
LEVEL001
 370
13
 100
AcDbLine
   6
CONTINUOUS
  62
5
  10
 1136.6573033706
  20
 1921.8808988764
  30
0.0
  11
 1092.1122546589
  21
 1966.4259475881
  31
0.0
   0
LINE
   5
389
 100
AcDbEntity
   8
LEVEL001
 370
13
 100
AcDbLine
   6
CONTINUOUS
  62
5
  10
 1100.0672059471
  20
 1974.3808988764
  30
0.0
  11
 1152.5672059473
  21
 1921.8808988764
  31
0.0
   0
LINE
   5
38A
 100
AcDbEntity
   8
LEVEL001
 370
13
 100
AcDbLine
   6
CONTINUOUS
  62
5
  10
 1157.3374982176
  20
 1974.3808988764
  30
0.0
  11
 1128.7023520824
  21
 1945.7457527412
  31
0.0
   0
LINE
   5
38B
 100
AcDbEntity
   8
LEVEL001
 370
13
 100
AcDbLine
   6
CONTINUOUS
  62
5
  10
 1205.0672059473
  20
 1974.3808988764
  30
0.0
  11
 1241.6573033708
  21
 1937.7908014531
  31
0.0
   0
LINE
   5
38C
 100
AcDbEntity
   8
LEVEL001
 370
13
 100
AcDbLine
   6
CONTINUOUS
  62
5
  10
 1241.6573033708
  20
 1974.3808988764
  30
0.0
  11
 1241.6573033708
  21
 1274.3808988764
  31
0.0
   0
LINE
   5
38D
 100
AcDbEntity
   8
LEVEL001
 370
13
 100
AcDbLine
   6
CONTINUOUS
  62
5
  10
 1453.5073033708
  20
 1974.3808988764
  30
0.0
  11
 991.65730337079
  21
 1974.3808988764
  31
0.0
   0
LINE
   5
38E
 100
AcDbEntity
   8
LEVEL001
 370
13
 100
AcDbLine
   6
CONTINUOUS
  62
5
  10
 1391.6573033708
  20
 1274.3808988764
  30
0.0
  11
 1341.6573033708
  21
 1174.3808988764
  31
0.0
   0
LINE
   5
38F
 100
AcDbEntity
   8
LEVEL001
 370
13
 100
AcDbLine
   6
CONTINUOUS
  62
5
  10
 1341.6573033708
  20
 1274.3808988764
  30
0.0
  11
 1381.6573033708
  21
 1254.3808988764
  31
0.0
   0
LINE
   5
390
 100
AcDbEntity
   8
LEVEL001
 370
13
 100
AcDbLine
   6
CONTINUOUS
  62
5
  10
 1341.6573033708
  20
 1274.3808988764
  30
0.0
  11
 1291.6573033708
  21
 1174.3808988764
  31
0.0
   0
LINE
   5
391
 100
AcDbEntity
   8
LEVEL001
 370
13
 100
AcDbLine
   6
CONTINUOUS
  62
5
  10
 1291.6573033708
  20
 1274.3808988764
  30
0.0
  11
 1331.6573033708
  21
 1254.3808988764
  31
0.0
   0
LINE
   5
392
 100
AcDbEntity
   8
LEVEL001
 370
13
 100
AcDbLine
   6
CONTINUOUS
  62
5
  10
 1291.6573033708
  20
 1274.3808988764
  30
0.0
  11
 1241.6573033708
  21
 1174.3808988764
  31
0.0
   0
LINE
   5
393
 100
AcDbEntity
   8
LEVEL001
 370
13
 100
AcDbLine
   6
CONTINUOUS
  62
5
  10
 1241.6573033708
  20
 1274.3808988764
  30
0.0
  11
 1281.6573033708
  21
 1254.3808988764
  31
0.0
   0
LINE
   5
394
 100
AcDbEntity
   8
LEVEL001
 370
13
 100
AcDbLine
   6
CONTINUOUS
  62
5
  10
 1391.6573033708
  20
 1174.3808988764
  30
0.0
  11
 1351.6573033708
  21
 1194.3808988764
  31
0.0
   0
LINE
   5
395
 100
AcDbEntity
   8
LEVEL001
 370
13
 100
AcDbLine
   6
CONTINUOUS
  62
5
  10
 1341.6573033708
  20
 1174.3808988764
  30
0.0
  11
 1301.6573033708
  21
 1194.3808988764
  31
0.0
   0
LINE
   5
396
 100
AcDbEntity
   8
LEVEL001
 370
13
 100
AcDbLine
   6
CONTINUOUS
  62
5
  10
 1291.6573033708
  20
 1174.3808988764
  30
0.0
  11
 1251.6573033708
  21
 1194.3808988764
  31
0.0
   0
LINE
   5
397
 100
AcDbEntity
   8
LEVEL001
 370
13
 100
AcDbLine
   6
CONTINUOUS
  62
5
  10
 1741.6573033708
  20
 1274.3808988764
  30
0.0
  11
 1241.6573033708
  21
 1274.3808988764
  31
0.0
   0
LINE
   5
398
 100
AcDbEntity
   8
LEVEL001
 370
13
 100
AcDbLine
   6
CONTINUOUS
  62
5
  10
 1241.6573033708
  20
 1274.3808988764
  30
0.0
  11
 1241.6573033708
  21
 1174.3808988764
  31
0.0
   0
LINE
   5
399
 100
AcDbEntity
   8
LEVEL001
 370
13
 100
AcDbLine
   6
CONTINUOUS
  62
5
  10
 1241.6573033708
  20
 1174.3808988764
  30
0.0
  11
 1741.6573033708
  21
 1174.3808988764
  31
0.0
   0
LINE
   5
39A
 100
AcDbEntity
   8
LEVEL001
 370
13
 100
AcDbLine
   6
CONTINUOUS
  62
5
  10
 1241.6573033708
  20
 1274.3808988764
  30
0.0
  11
 1741.6573033708
  21
 1274.3808988764
  31
0.0
   0
LINE
   5
39B
 100
AcDbEntity
   8
LEVEL001
 370
13
 100
AcDbLine
   6
CONTINUOUS
  62
5
  10
 1453.5073033708
  20
 1609.7362379357
  30
0.0
  11
 1237.2223539938
  21
 1393.4512885587
  31
0.0
   0
LINE
   5
39C
 100
AcDbEntity
   8
LEVEL001
 370
13
 100
AcDbLine
   6
CONTINUOUS
  62
5
  10
 1241.6573033708
  20
 1362.5308988764
  30
0.0
  11
 1453.5073033708
  21
 1574.3808988764
  31
0.0
   0
LINE
   5
39D
 100
AcDbEntity
   8
LEVEL001
 370
13
 100
AcDbLine
   6
CONTINUOUS
  62
5
  10
 1453.5073033708
  20
 1539.0255598171
  30
0.0
  11
 1241.6573033708
  21
 1327.1755598171
  31
0.0
   0
LINE
   5
39E
 100
AcDbEntity
   8
LEVEL001
 370
13
 100
AcDbLine
   6
CONTINUOUS
  62
5
  10
 1741.6573033708
  20
 1274.3808988764
  30
0.0
  11
 1691.6573033708
  21
 1174.3808988764
  31
0.0
   0
LINE
   5
39F
 100
AcDbEntity
   8
LEVEL001
 370
13
 100
AcDbLine
   6
CONTINUOUS
  62
5
  10
 1691.6573033708
  20
 1274.3808988764
  30
0.0
  11
 1731.6573033708
  21
 1254.3808988764
  31
0.0
   0
LINE
   5
3A0
 100
AcDbEntity
   8
LEVEL001
 370
13
 100
AcDbLine
   6
CONTINUOUS
  62
5
  10
 1691.6573033708
  20
 1274.3808988764
  30
0.0
  11
 1641.6573033708
  21
 1174.3808988764
  31
0.0
   0
LINE
   5
3A1
 100
AcDbEntity
   8
LEVEL001
 370
13
 100
AcDbLine
   6
CONTINUOUS
  62
5
  10
 1641.6573033708
  20
 1274.3808988764
  30
0.0
  11
 1681.6573033708
  21
 1254.3808988764
  31
0.0
   0
LINE
   5
3A2
 100
AcDbEntity
   8
LEVEL001
 370
13
 100
AcDbLine
   6
CONTINUOUS
  62
5
  10
 1641.6573033708
  20
 1274.3808988764
  30
0.0
  11
 1591.6573033708
  21
 1174.3808988764
  31
0.0
   0
LINE
   5
3A3
 100
AcDbEntity
   8
LEVEL001
 370
13
 100
AcDbLine
   6
CONTINUOUS
  62
5
  10
 1591.6573033708
  20
 1274.3808988764
  30
0.0
  11
 1631.6573033708
  21
 1254.3808988764
  31
0.0
   0
LINE
   5
3A4
 100
AcDbEntity
   8
LEVEL001
 370
13
 100
AcDbLine
   6
CONTINUOUS
  62
5
  10
 1741.6573033708
  20
 1174.3808988764
  30
0.0
  11
 1701.6573033708
  21
 1194.3808988764
  31
0.0
   0
LINE
   5
3A5
 100
AcDbEntity
   8
LEVEL001
 370
13
 100
AcDbLine
   6
CONTINUOUS
  62
5
  10
 1691.6573033708
  20
 1174.3808988764
  30
0.0
  11
 1651.6573033708
  21
 1194.3808988764
  31
0.0
   0
LINE
   5
3A6
 100
AcDbEntity
   8
LEVEL001
 370
13
 100
AcDbLine
   6
CONTINUOUS
  62
5
  10
 1641.6573033708
  20
 1174.3808988764
  30
0.0
  11
 1601.6573033708
  21
 1194.3808988764
  31
0.0
   0
LINE
   5
3A7
 100
AcDbEntity
   8
LEVEL001
 370
13
 100
AcDbLine
   6
CONTINUOUS
  62
5
  10
 1741.6573033708
  20
 1174.3808988764
  30
0.0
  11
 1741.6573033708
  21
 1274.3808988764
  31
0.0
   0
MTEXT
   5
3A8
 100
AcDbEntity
   8
LEVEL001
 370
13
  62
1
 100
AcDbMText
  10
 5691.6573033708
  20
 1342.7808988764
  30
0.0
  40
 51.428571428572
  41
0.0
  71
4
  72
1
   1
\T1.000000;注意板
   7
GMM001
  44
 0.79999984000003
   0
INSERT
   5
3A9
 100
AcDbEntity
   8
0
 100
AcDbBlockReference
   2
BLOCK001
  10
0.0
  20
0.0
  30
0.0
   0
INSERT
   5
3AA
 100
AcDbEntity
   8
0
 100
AcDbBlockReference
   2
BLOCK002
  10
0.0
  20
0.0
  30
0.0
   0
INSERT
   5
3AB
 100
AcDbEntity
   8
0
 100
AcDbBlockReference
   2
BLOCK003
  10
0.0
  20
0.0
  30
0.0
   0
LINE
   5
3AC
 100
AcDbEntity
   8
LEVEL001
 370
13
 100
AcDbLine
   6
CONTINUOUS
  62
7
  10
 2939.8059171116
  20
 4374.3812912493
  30
0.0
  11
 2937.0920103482
  21
 4367.5965243405
  31
0.0
   0
ARC
   5
3AD
 100
AcDbEntity
   8
LEVEL001
 370
13
   6
CONTINUOUS
  62
7
 100
AcDbCircle
  10
 2941.7343938026
  20
 4365.7395709587
  30
0.0
  40
 5.0000000000000
 100
AcDbArc
  50
 158.19859051363
  51
 180.00000000008
   0
LINE
   5
3AE
 100
AcDbEntity
   8
LEVEL001
 370
13
 100
AcDbLine
   6
CONTINUOUS
  62
7
  10
 2936.7343938026
  20
 4365.7395709587
  30
0.0
  11
 2936.7343938026
  21
 3783.0230115383
  31
0.0
   0
LINE
   5
3AF
 100
AcDbEntity
   8
LEVEL001
 370
13
 100
AcDbLine
   6
CONTINUOUS
  62
6
  10
 2943.7343938026
  20
 4303.3813522875
  30
0.0
  11
 2943.7343938026
  21
 4304.3812912485
  31
0.0
   0
ARC
   5
3B0
 100
AcDbEntity
   8
LEVEL001
 370
13
   6
CONTINUOUS
  62
7
 100
AcDbCircle
  10
 2935.7343938026
  20
 4358.5336447903
  30
0.0
  40
 5.0000000000000
 100
AcDbArc
  50
 359.99999999992
  51
 21.801409486367
   0
LINE
   5
3B1
 100
AcDbEntity
   8
LEVEL001
 370
13
 100
AcDbLine
   6
CONTINUOUS
  62
7
  10
 2938.5745064022
  20
 4364.8962753087
  30
0.0
  11
 2940.3767772570
  21
 4360.3905981719
  31
0.0
   0
ARC
   5
3B2
 100
AcDbEntity
   8
LEVEL001
 370
13
   6
CONTINUOUS
  62
7
 100
AcDbCircle
  10
 2943.2168898566
  20
 4366.7532286905
  30
0.0
  40
 5.0000000000000
 100
AcDbArc
  50
 158.19859051363
  51
 201.80140948637
   0
LINE
   5
3B3
 100
AcDbEntity
   8
LEVEL001
 370
13
 100
AcDbLine
   6
CONTINUOUS
  62
7
  10
 2939.8059171116
  20
 4374.3812912493
  30
0.0
  11
 2940.7343938026
  21
 4374.0099005729
  31
0.0
   0
LINE
   5
3B4
 100
AcDbEntity
   8
LEVEL001
 370
13
 100
AcDbLine
   6
CONTINUOUS
  62
7
  10
 2940.7343938026
  20
 4374.0099005729
  30
0.0
  11
 2938.5745064022
  21
 4368.6101820723
  31
0.0
   0
LINE
   5
3B5
 100
AcDbEntity
   8
LEVEL001
 370
13
 100
AcDbLine
   6
CONTINUOUS
  62
7
  10
 2940.7343938026
  20
 4358.5336447903
  30
0.0
  11
 2940.7343938026
  21
 3790.2289377067
  31
0.0
   0
LINE
   5
3B6
 100
AcDbEntity
   8
LEVEL001
 370
13
 100
AcDbLine
   6
CONTINUOUS
  62
7
  10
 2943.7343938026
  20
 4304.3812912485
  30
0.0
  11
 2940.7343938026
  21
 4304.3812912485
  31
0.0
   0
LINE
   5
3B7
 100
AcDbEntity
   8
LEVEL001
 370
13
 100
AcDbLine
   6
CONTINUOUS
  62
6
  10
 2940.7343938026
  20
 4303.3813522875
  30
0.0
  11
 2943.7343938026
  21
 4303.3813522875
  31
0.0
   0
LINE
   5
3B8
 100
AcDbEntity
   8
LEVEL001
 370
13
 100
AcDbLine
   6
CONTINUOUS
  62
7
  10
 2944.1898725816
  20
 4289.3809250961
  30
0.0
  11
 2944.1903303456
  21
 4247.3810168127
  31
0.0
   0
ELLIPSE
   5
3B9
 100
AcDbEntity
   8
LEVEL001
 370
13
   6
CONTINUOUS
  62
7
 100
AcDbEllipse
  10
 2940.1898700318
  20
 4289.3810470473
  30
0.0
  11
-4.0000025516047
  21
0.0
  31
0.0
  40
 0.99999938800000
  41
 3.1415621657857
  42
-1.7073511820388
   0
LINE
   5
3BA
 100
AcDbEntity
   8
LEVEL001
 370
13
 100
AcDbLine
   6
CONTINUOUS
  62
7
  10
 2944.1898998256
  20
 4286.8812915293
  30
0.0
  11
 3049.7343938026
  21
 4286.8812915293
  31
0.0
   0
LINE
   5
3BB
 100
AcDbEntity
   8
LEVEL001
 370
13
 100
AcDbLine
   6
CONTINUOUS
  62
7
  10
 3049.7343938026
  20
 4249.8812915293
  30
0.0
  11
 2944.1903030946
  21
 4249.8812915293
  31
0.0
   0
LINE
   5
3BC
 100
AcDbEntity
   8
LEVEL001
 370
13
 100
AcDbLine
   6
CONTINUOUS
  62
7
  10
 2940.7343938026
  20
 4249.8812915293
  30
0.0
  11
 2940.7343938026
  21
 4286.8812915293
  31
0.0
   0
LINE
   5
3BD
 100
AcDbEntity
   8
LEVEL001
 370
13
 100
AcDbLine
   6
CONTINUOUS
  62
6
  10
 2943.7343938026
  20
 4232.3812915293
  30
0.0
  11
 2943.7343938026
  21
 4233.3813220431
  31
0.0
   0
LINE
   5
3BE
 100
AcDbEntity
   8
LEVEL001
 370
13
 100
AcDbLine
   6
CONTINUOUS
  62
6
  10
 2943.7343938026
  20
 4233.3813220431
  30
0.0
  11
 2940.7343938026
  21
 4233.3813220431
  31
0.0
   0
ELLIPSE
   5
3BF
 100
AcDbEntity
   8
LEVEL001
 370
13
   6
CONTINUOUS
  62
7
 100
AcDbEllipse
  10
 2940.1903277944
  20
 4247.3810779651
  30
0.0
  11
-4.0000025516047
  21
0.0
  31
0.0
  40
 0.99999938800000
  41
 1.7072356670414
  42
 3.1415773654645
   0
LINE
   5
3C0
 100
AcDbEntity
   8
LEVEL001
 370
13
 100
AcDbLine
   6
CONTINUOUS
  62
7
  10
 2940.7343938026
  20
 4232.3812915293
  30
0.0
  11
 2943.7343938026
  21
 4232.3812915293
  31
0.0
   0
LINE
   5
3C1
 100
AcDbEntity
   8
LEVEL001
 370
13
 100
AcDbLine
   6
CONTINUOUS
  62
7
  10
 2940.7343938026
  20
 3916.3812909675
  30
0.0
  11
 2943.7343938026
  21
 3916.3812909675
  31
0.0
   0
LINE
   5
3C2
 100
AcDbEntity
   8
LEVEL001
 370
13
 100
AcDbLine
   6
CONTINUOUS
  62
6
  10
 2943.7343938026
  20
 3916.3812909675
  30
0.0
  11
 2943.7343938026
  21
 3915.3812604539
  31
0.0
   0
LINE
   5
3C3
 100
AcDbEntity
   8
LEVEL001
 370
13
 100
AcDbLine
   6
CONTINUOUS
  62
6
  10
 2943.7343938026
  20
 3915.3812604539
  30
0.0
  11
 2940.7343938026
  21
 3915.3812604539
  31
0.0
   0
LINE
   5
3C4
 100
AcDbEntity
   8
LEVEL001
 370
13
 100
AcDbLine
   6
CONTINUOUS
  62
7
  10
 2944.1898725816
  20
 3859.3816574009
  30
0.0
  11
 2944.1903303456
  21
 3901.3815656843
  31
0.0
   0
ELLIPSE
   5
3C5
 100
AcDbEntity
   8
LEVEL001
 370
13
   6
CONTINUOUS
  62
7
 100
AcDbEllipse
  10
 2940.1903277944
  20
 3901.3815045317
  30
0.0
  11
-4.0000025516047
  21
0.0
  31
0.0
  40
 0.99999938800000
  41
-3.1415773654645
  42
-1.7072356670409
   0
LINE
   5
3C6
 100
AcDbEntity
   8
LEVEL001
 370
13
 100
AcDbLine
   6
CONTINUOUS
  62
6
  10
 2943.7343938026
  20
 3845.3812302095
  30
0.0
  11
 2943.7343938026
  21
 3844.3812912485
  31
0.0
   0
LINE
   5
3C7
 100
AcDbEntity
   8
LEVEL001
 370
13
 100
AcDbLine
   6
CONTINUOUS
  62
6
  10
 2940.7343938026
  20
 3845.3812302095
  30
0.0
  11
 2943.7343938026
  21
 3845.3812302095
  31
0.0
   0
ELLIPSE
   5
3C8
 100
AcDbEntity
   8
LEVEL001
 370
13
   6
CONTINUOUS
  62
7
 100
AcDbEllipse
  10
 2940.1898700318
  20
 3859.3815354497
  30
0.0
  11
-4.0000025516047
  21
0.0
  31
0.0
  40
 0.99999938800000
  41
 1.7073511820393
  42
-3.1415621657820
   0
LINE
   5
3C9
 100
AcDbEntity
   8
LEVEL001
 370
13
 100
AcDbLine
   6
CONTINUOUS
  62
7
  10
 2943.7343938026
  20
 3844.3812912485
  30
0.0
  11
 2940.7343938026
  21
 3844.3812912485
  31
0.0
   0
ARC
   5
3CA
 100
AcDbEntity
   8
LEVEL001
 370
13
   6
CONTINUOUS
  62
7
 100
AcDbCircle
  10
 2941.7343938026
  20
 3783.0230115383
  30
0.0
  40
 5.0000000000000
 100
AcDbArc
  50
 179.99999999992
  51
 201.80140948637
   0
LINE
   5
3CB
 100
AcDbEntity
   8
LEVEL001
 370
13
 100
AcDbLine
   6
CONTINUOUS
  62
7
  10
 2939.8059171116
  20
 3774.3812912477
  30
0.0
  11
 2937.0920103482
  21
 3781.1660581565
  31
0.0
   0
ARC
   5
3CC
 100
AcDbEntity
   8
LEVEL001
 370
13
   6
CONTINUOUS
  62
7
 100
AcDbCircle
  10
 2935.7343938026
  20
 3790.2289377067
  30
0.0
  40
 5.0000000000000
 100
AcDbArc
  50
 338.19859051363
  51
 0.83376332641757E-10
   0
LINE
   5
3CD
 100
AcDbEntity
   8
LEVEL001
 370
13
 100
AcDbLine
   6
CONTINUOUS
  62
7
  10
 2938.5745064022
  20
 3783.8663071883
  30
0.0
  11
 2940.3767772570
  21
 3788.3719843249
  31
0.0
   0
ARC
   5
3CE
 100
AcDbEntity
   8
LEVEL001
 370
13
   6
CONTINUOUS
  62
7
 100
AcDbCircle
  10
 2943.2168898566
  20
 3782.0093538065
  30
0.0
  40
 5.0000000000000
 100
AcDbArc
  50
 158.19859051363
  51
 201.80140948637
   0
LINE
   5
3CF
 100
AcDbEntity
   8
LEVEL001
 370
13
 100
AcDbLine
   6
CONTINUOUS
  62
7
  10
 2939.8059171116
  20
 3774.3812912477
  30
0.0
  11
 2940.7343938026
  21
 3774.7526819241
  31
0.0
   0
LINE
   5
3D0
 100
AcDbEntity
   8
LEVEL001
 370
13
 100
AcDbLine
   6
CONTINUOUS
  62
7
  10
 2940.7343938026
  20
 3774.7526819241
  30
0.0
  11
 2938.5745064022
  21
 3780.1524004247
  31
0.0
   0
LINE
   5
3D1
 100
AcDbEntity
   8
LEVEL001
 370
13
 100
AcDbLine
   6
CONTINUOUS
  62
7
  10
 2944.1903030946
  20
 3898.8812912485
  30
0.0
  11
 3049.7343987748
  21
 3898.8812912485
  31
0.0
   0
LINE
   5
3D2
 100
AcDbEntity
   8
LEVEL001
 370
13
 100
AcDbLine
   6
CONTINUOUS
  62
7
  10
 3049.7343987748
  20
 3861.8812912485
  30
0.0
  11
 2944.1898998256
  21
 3861.8812912485
  31
0.0
   0
LINE
   5
3D3
 100
AcDbEntity
   8
LEVEL001
 370
13
 100
AcDbLine
   6
CONTINUOUS
  62
6
  10
 3028.5623997744
  20
 3873.8812912485
  30
0.0
  11
 2956.4432279488
  21
 3873.8812912485
  31
0.0
   0
LINE
   5
3D4
 100
AcDbEntity
   8
LEVEL001
 370
13
 100
AcDbLine
   6
CONTINUOUS
  62
6
  10
 2956.4432279488
  20
 3886.8812912485
  30
0.0
  11
 3028.5623997744
  21
 3886.8812912485
  31
0.0
   0
LINE
   5
3D5
 100
AcDbEntity
   8
LEVEL001
 370
13
 100
AcDbLine
   6
CONTINUOUS
  62
6
  10
 2955.1823333792
  20
 3885.8812912485
  30
0.0
  11
 2955.1823333792
  21
 3874.8812912485
  31
0.0
   0
LINE
   5
3D6
 100
AcDbEntity
   8
LEVEL001
 370
13
 100
AcDbLine
   6
CONTINUOUS
  62
6
  10
 2955.1823333792
  20
 3896.8812912485
  30
0.0
  11
 2955.1823333792
  21
 3887.8812912485
  31
0.0
   0
LINE
   5
3D7
 100
AcDbEntity
   8
LEVEL001
 370
13
 100
AcDbLine
   6
CONTINUOUS
  62
6
  10
 2955.1823333792
  20
 3872.8812912485
  30
0.0
  11
 2955.1823333792
  21
 3863.8812912485
  31
0.0
   0
LINE
   5
3D8
 100
AcDbEntity
   8
LEVEL001
 370
13
 100
AcDbLine
   6
CONTINUOUS
  62
6
  10
 3028.5623997744
  20
 3896.8812912485
  30
0.0
  11
 3028.5623997744
  21
 3887.8812912485
  31
0.0
   0
LINE
   5
3D9
 100
AcDbEntity
   8
LEVEL001
 370
13
 100
AcDbLine
   6
CONTINUOUS
  62
6
  10
 3028.5623997744
  20
 3872.8812912485
  30
0.0
  11
 3028.5623997744
  21
 3863.8812912485
  31
0.0
   0
LINE
   5
3DA
 100
AcDbEntity
   8
LEVEL001
 370
13
 100
AcDbLine
   6
CONTINUOUS
  62
7
  10
 3044.7343987748
  20
 3875.3812912485
  30
0.0
  11
 3034.7343987748
  21
 3875.3812912485
  31
0.0
   0
LINE
   5
3DB
 100
AcDbEntity
   8
LEVEL001
 370
13
 100
AcDbLine
   6
CONTINUOUS
  62
7
  10
 3034.7343987748
  20
 3875.3812912485
  30
0.0
  11
 3034.7343987748
  21
 3885.3812912485
  31
0.0
   0
LINE
   5
3DC
 100
AcDbEntity
   8
LEVEL001
 370
13
 100
AcDbLine
   6
CONTINUOUS
  62
7
  10
 3034.7343987748
  20
 3885.3812912485
  30
0.0
  11
 3044.7343987748
  21
 3885.3812912485
  31
0.0
   0
LINE
   5
3DD
 100
AcDbEntity
   8
LEVEL001
 370
13
 100
AcDbLine
   6
CONTINUOUS
  62
7
  10
 3044.7343987748
  20
 3885.3812912485
  30
0.0
  11
 3044.7343987748
  21
 3875.3812912485
  31
0.0
   0
LINE
   5
3DE
 100
AcDbEntity
   8
LEVEL001
 370
13
 100
AcDbLine
   6
CONTINUOUS
  62
6
  10
 3030.8809248158
  20
 3886.8812912485
  30
0.0
  11
 3030.8809248158
  21
 3873.8812912485
  31
0.0
   0
LINE
   5
3DF
 100
AcDbEntity
   8
LEVEL001
 370
13
 100
AcDbLine
   6
CONTINUOUS
  62
7
  10
 3049.7343987748
  20
 3898.8812912485
  30
0.0
  11
 3049.7343987748
  21
 3861.8812912485
  31
0.0
   0
LINE
   5
3E0
 100
AcDbEntity
   8
LEVEL001
 370
13
 100
AcDbLine
   6
CONTINUOUS
  62
6
  10
 2955.1823284068
  20
 4273.8812915293
  30
0.0
  11
 2955.1823284068
  21
 4262.8812915293
  31
0.0
   0
LINE
   5
3E1
 100
AcDbEntity
   8
LEVEL001
 370
13
 100
AcDbLine
   6
CONTINUOUS
  62
6
  10
 2955.1823284068
  20
 4260.8812915293
  30
0.0
  11
 2955.1823284068
  21
 4251.8812915293
  31
0.0
   0
LINE
   5
3E2
 100
AcDbEntity
   8
LEVEL001
 370
13
 100
AcDbLine
   6
CONTINUOUS
  62
6
  10
 2955.1823284068
  20
 4284.8812915293
  30
0.0
  11
 2955.1823284068
  21
 4275.8812915293
  31
0.0
   0
LINE
   5
3E3
 100
AcDbEntity
   8
LEVEL001
 370
13
 100
AcDbLine
   6
CONTINUOUS
  62
6
  10
 3028.5623948022
  20
 4261.8812915293
  30
0.0
  11
 2956.4432229764
  21
 4261.8812915293
  31
0.0
   0
LINE
   5
3E4
 100
AcDbEntity
   8
LEVEL001
 370
13
 100
AcDbLine
   6
CONTINUOUS
  62
6
  10
 2956.4432229764
  20
 4274.8812915293
  30
0.0
  11
 3028.5623948022
  21
 4274.8812915293
  31
0.0
   0
LINE
   5
3E5
 100
AcDbEntity
   8
LEVEL001
 370
13
 100
AcDbLine
   6
CONTINUOUS
  62
6
  10
 3028.5623948022
  20
 4284.8812915293
  30
0.0
  11
 3028.5623948022
  21
 4275.8812915293
  31
0.0
   0
LINE
   5
3E6
 100
AcDbEntity
   8
LEVEL001
 370
13
 100
AcDbLine
   6
CONTINUOUS
  62
6
  10
 3028.5623948022
  20
 4260.8812915293
  30
0.0
  11
 3028.5623948022
  21
 4251.8812915293
  31
0.0
   0
LINE
   5
3E7
 100
AcDbEntity
   8
LEVEL001
 370
13
 100
AcDbLine
   6
CONTINUOUS
  62
7
  10
 3044.7343938026
  20
 4263.3812915293
  30
0.0
  11
 3034.7343938026
  21
 4263.3812915293
  31
0.0
   0
LINE
   5
3E8
 100
AcDbEntity
   8
LEVEL001
 370
13
 100
AcDbLine
   6
CONTINUOUS
  62
7
  10
 3034.7343938026
  20
 4263.3812915293
  30
0.0
  11
 3034.7343938026
  21
 4273.3812915293
  31
0.0
   0
LINE
   5
3E9
 100
AcDbEntity
   8
LEVEL001
 370
13
 100
AcDbLine
   6
CONTINUOUS
  62
7
  10
 3034.7343938026
  20
 4273.3812915293
  30
0.0
  11
 3044.7343938026
  21
 4273.3812915293
  31
0.0
   0
LINE
   5
3EA
 100
AcDbEntity
   8
LEVEL001
 370
13
 100
AcDbLine
   6
CONTINUOUS
  62
7
  10
 3044.7343938026
  20
 4273.3812915293
  30
0.0
  11
 3044.7343938026
  21
 4263.3812915293
  31
0.0
   0
LINE
   5
3EB
 100
AcDbEntity
   8
LEVEL001
 370
13
 100
AcDbLine
   6
CONTINUOUS
  62
6
  10
 3030.8809198434
  20
 4274.8812915293
  30
0.0
  11
 3030.8809198434
  21
 4261.8812915293
  31
0.0
   0
LINE
   5
3EC
 100
AcDbEntity
   8
LEVEL001
 370
13
 100
AcDbLine
   6
CONTINUOUS
  62
7
  10
 3049.7343938026
  20
 4286.8812915293
  30
0.0
  11
 3049.7343938026
  21
 4249.8812915293
  31
0.0
   0
CIRCLE
   5
3ED
 100
AcDbEntity
   8
LEVEL001
 370
13
 100
AcDbCircle
   6
CONTINUOUS
  62
1
  10
 3191.6573033708
  20
 3955.8812912493
  30
0.0
  40
 70.000000000000
   0
CIRCLE
   5
3EE
 100
AcDbEntity
   8
LEVEL001
 370
13
 100
AcDbCircle
   6
CONTINUOUS
  62
1
  10
 3331.6573033708
  20
 3955.8812912493
  30
0.0
  40
 70.000000000000
   0
LEADER
   5
3EF
 100
AcDbEntity
   8
LEVEL001
 370
13
   6
CONTINUOUS
  62
1
 100
AcDbLeader
   3
GMM001
  73
3
  74
1
  75
0
  40
 60.000000000000
  41
0.0
  76
2
  10
 3049.7343987748
  20
 3880.3812912485
  30
0.0
  10
 3130.2999130588
  20
 3922.1875135729
  30
0.0
  77
1
   0
MTEXT
   5
3F0
 100
AcDbEntity
   8
LEVEL001
 370
13
  62
1
 100
AcDbMText
  10
 3191.6573033708
  20
 3955.8812912493
  30
0.0
  40
 57.142857142858
  41
0.0
  71
5
  72
1
   1
\T1.000000;13
   7
GMM001
  44
 0.79999984000003
   0
MTEXT
   5
3F1
 100
AcDbEntity
   8
LEVEL001
 370
13
  62
1
 100
AcDbMText
  10
 3331.6573033708
  20
 3955.8812912493
  30
0.0
  40
 57.142857142858
  41
0.0
  71
5
  72
1
   1
\T1.000000;14
   7
GMM001
  44
 0.79999984000003
   0
LWPOLYLINE
   5
3F2
 100
AcDbEntity
   8
0
 370
13
   6
CONTINUOUS
  62
7
 100
AcDbPolyline
  90
4
  70
0
  10
 1453.5073033708
  20
 4374.3812650873
  10
 1453.5073033708
  20
 4495.2808988764
  10
 1529.8073033708
  20
 4495.2808988764
  10
 1529.8073033708
  20
 4374.3812650873
   0
LWPOLYLINE
   5
3F3
 100
AcDbEntity
   8
0
 370
13
   6
CONTINUOUS
  62
7
 100
AcDbPolyline
  90
4
  70
0
  10
 1453.5073033708
  20
 3774.3805326655
  10
 1453.5073033708
  20
 1274.3808988764
  10
 1529.8073033708
  20
 1274.3808988764
  10
 1529.8073033708
  20
 3774.3805326655
   0
LWPOLYLINE
   5
3F4
 100
AcDbEntity
   8
0
 370
13
   6
CONTINUOUS
  62
7
 100
AcDbPolyline
  90
4
  70
0
  10
 2953.5073033708
  20
 3861.8812912485
  10
 2953.5073033708
  20
 1274.3808988764
  10
 3029.8073033708
  20
 1274.3808988764
  10
 3029.8073033708
  20
 3861.8812912485
   0
LWPOLYLINE
   5
3F5
 100
AcDbEntity
   8
0
 370
13
   6
CONTINUOUS
  62
7
 100
AcDbPolyline
  90
4
  70
0
  10
 3029.8073033708
  20
 4286.8812915293
  10
 3029.8073033708
  20
 4667.7808988764
  10
 2953.5073033708
  20
 4667.7808988764
  10
 2953.5073033708
  20
 4286.8812915293
   0
LINE
   5
3F6
 100
AcDbEntity
   8
0
 370
13
 100
AcDbLine
   6
CONTINUOUS
  62
7
  10
 2953.5073033708
  20
 4249.8812915293
  30
0.0
  11
 2953.5073033708
  21
 3898.8812912485
  31
0.0
   0
LINE
   5
3F7
 100
AcDbEntity
   8
0
 370
13
 100
AcDbLine
   6
CONTINUOUS
  62
7
  10
 3029.8073033708
  20
 3898.8812912485
  30
0.0
  11
 3029.8073033708
  21
 4249.8812915293
  31
0.0
   0
CIRCLE
   5
3F8
 100
AcDbEntity
   8
LEVEL001
 370
13
 100
AcDbCircle
   6
CONTINUOUS
  62
1
  10
 1741.6562677084
  20
 3914.3805917648
  30
0.0
  40
 70.000000000000
   0
MTEXT
   5
3F9
 100
AcDbEntity
   8
LEVEL001
 370
13
  62
1
 100
AcDbMText
  10
 1741.6562677084
  20
 3914.3805917648
  30
0.0
  40
 57.142857142858
  41
0.0
  71
5
  72
1
   1
\T1.000000;12
   7
GMM001
  44
 0.79999984000003
   0
LEADER
   5
3FA
 100
AcDbEntity
   8
LEVEL001
 370
13
   6
CONTINUOUS
  62
1
 100
AcDbLeader
   3
GMM001
  73
3
  74
1
  75
0
  40
 60.000000000000
  41
0.0
  76
2
  10
 1581.6559605973
  20
 4074.3808988764
  30
0.0
  10
 1692.1587930257
  20
 3963.8780664482
  30
0.0
  77
1
   0
DIMENSION
   5
3FB
 100
AcDbEntity
   8
0
 370
13
   6
CONTINUOUS
  62
1
 100
AcDbDimension
   2
*D18
  10
 741.65730337079
  20
 1274.3808988764
  30
0.0
  11
 741.65730337079
  21
 1624.3808988764
  31
0.0
  70
0
   3
GMM007
 100
AcDbAlignedDimension
  13
 991.65730337079
  23
 1974.3808988764
  33
0.0
  14
 1241.6573033708
  24
 1274.3808988764
  34
0.0
  50
 270.00000000000
 100
AcDbRotatedDimension
   0
DIMENSION
   5
3FC
 100
AcDbEntity
   8
0
 370
13
   6
CONTINUOUS
  62
1
 100
AcDbDimension
   2
*D19
  10
 741.65730337079
  20
 1174.3808988764
  30
0.0
  11
 741.65730337079
  21
 1224.3808988764
  31
0.0
  70
0
   3
GMM007
 100
AcDbAlignedDimension
  13
 1241.6573033708
  23
 1274.3808988764
  33
0.0
  14
 1241.6573033708
  24
 1174.3808988764
  34
0.0
  50
 270.00000000000
 100
AcDbRotatedDimension
   0
DIMENSION
   5
3FD
 100
AcDbEntity
   8
0
 370
13
   6
CONTINUOUS
  62
1
 100
AcDbDimension
   2
*D20
  10
 741.65730337079
  20
 1974.3808988764
  30
0.0
  11
 741.65730337079
  21
 3224.3808988764
  31
0.0
  70
0
   1
\A1;2500(標準設置高さ)
   3
GMM008
 100
AcDbAlignedDimension
  13
 1259.1573033708
  23
 4474.3808988764
  33
0.0
  14
 991.65730337079
  24
 1974.3808988764
  34
0.0
  50
 270.00000000000
 100
AcDbRotatedDimension
   0
ENDSEC
  0
SECTION
  2
OBJECTS
  0
DICTIONARY
  5
C
100
AcDbDictionary
  3
ACAD_GROUP
350
D
  3
ACAD_MLINESTYLE
350
1B
  3
DWGPROPS
350
1C
  0
DICTIONARY
  5
D
102
{ACAD_REACTORS
330
C
102
}
100
AcDbDictionary
  0
DICTIONARY
  5
1B
102
{ACAD_REACTORS
330
C
102
}
100
AcDbDictionary
  3
STANDARD
350
1D
  0
MLINESTYLE
  5
1D
102
{ACAD_REACTORS
330
1B
102
}
100
AcDbMlineStyle
  2
STANDARD
 70
     0
  3

 62
   256
 51
90.0
 52
90.0
 71
     2
 49
0.5
 62
   256
  6
BYLAYER
 49
-0.5
 62
   256
  6
BYLAYER
   0
XRECORD
   5
1C
 102
{ACAD_REACTORS
 330
C
 102
}
 330
C
 100
AcDbXrecord
 280
1
   1
DWGPROPS COOKIE
   2
 
   3
 
   4
 
   6
 
   7
MZH456S
   8
 
   9

 300
 = 
 301
 = 
 302
 = 
 303
 = 
 304
 = 
 305
 = 
 306
 = 
 307
 = 
 308
 = 
 309
 = 
  40
0.0
  41
 2460339.5000000
  42
 2460342.5000000
   1

  90
10
   0
ENDSEC
   0
EOF
