   0
SECTION
   2
HEADER
   9
$ACADVER
   1
AC1015
   9
$DWGCODEPAGE
   3
ANSI_932
   9
$LIMMIN
  10
0.0
  20
0.0
   9
$LIMMAX
  10
 8400.0000000000
  20
 5940.0000000000
   9
$EXTMIN
  10
0.0
  20
0.0
  30
0.0
   9
$EXTMAX
  10
 8400.0000000000
  20
 5940.0000000000
  30
0.0
   9
$LTSCALE
  40
 168.00000000000
   9
$HANDSEED
   5
40E
   0
ENDSEC
   0
SECTION
   2
TABLES
  0
TABLE
  2
VPORT
  5
8
100
AcDbSymbolTable
 70
     1
  0
VPORT
  5
40D
100
AcDbSymbolTableRecord
100
AcDbViewportTableRecord
  2
*ACTIVE
 70
     0
 10
0.0
 20
0.0
 11
1.0
 21
1.0
  12
 4200.0000000000
  22
 2970.0000000000
 13
0.0
 23
0.0
 14
1.0
 24
1.0
 15
0.0
 25
0.0
 16
0.0
 26
0.0
 36
1.0
 17
0.0
 27
0.0
 37
0.0
  40
 8400.0000000000
  41
 1.4787878787879
 42
50.0
 43
0.0
 44
0.0
 50
0.0
 51
0.0
 71
     0
 72
   100
 73
     1
 74
     1
 75
     0
 76
     0
 77
     0
 78
     0
  0
ENDTAB
  0
TABLE
  2
LTYPE
  5
5
100
AcDbSymbolTable
 70
    25
  0
LTYPE
  5
12
100
AcDbSymbolTableRecord
100
AcDbLinetypeTableRecord
  2
BYBLOCK
 70
     0
  3

 72
    65
 73
     0
 40
0.0
  0
LTYPE
  5
13
100
AcDbSymbolTableRecord
100
AcDbLinetypeTableRecord
  2
BYLAYER
 70
     0
  3

 72
    65
 73
     0
 40
0.0
  0
LTYPE
  5
14
100
AcDbSymbolTableRecord
100
AcDbLinetypeTableRecord
  2
CONTINUOUS
 70
     0
  3
Solid line
 72
    65
 73
     0
 40
0.0
  0
LTYPE
  5
20
100
AcDbSymbolTableRecord
100
AcDbLinetypeTableRecord
  2
BORDER
 70
     0
  3
__ __ . __ __ . __ __ . __ __ . __ __ . __ __ .
 72
    65
 73
     6
 40
1.75
 49
0.5
 74
     0
 49
-0.25
 74
     0
 49
0.5
 74
     0
 49
-0.25
 74
     0
 49
0.0
 74
     0
 49
-0.25
 74
     0
  0
LTYPE
  5
21
100
AcDbSymbolTableRecord
100
AcDbLinetypeTableRecord
  2
BORDER2
 70
     0
  3
__.__.__.__.__.__.__.__.__.__.__.__.__.__.__.__
 72
    65
 73
     6
 40
0.875
 49
0.25
 74
     0
 49
-0.125
 74
     0
 49
0.25
 74
     0
 49
-0.125
 74
     0
 49
0.0
 74
     0
 49
-0.125
 74
     0
  0
LTYPE
  5
22
100
AcDbSymbolTableRecord
100
AcDbLinetypeTableRecord
  2
BORDERX2
 70
     0
  3
____  ____  .  ____  ____  .  ____  ____  .  __
 72
    65
 73
     6
 40
3.5
 49
1.0
 74
     0
 49
-0.5
 74
     0
 49
1.0
 74
     0
 49
-0.5
 74
     0
 49
0.0
 74
     0
 49
-0.5
 74
     0
  0
LTYPE
  5
23
100
AcDbSymbolTableRecord
100
AcDbLinetypeTableRecord
  2
CENTER
 70
     0
  3
____ _ ____ _ ____ _ ____ _ ____ _ ____ _ ____ 
 72
    65
 73
     4
 40
2.0
 49
1.25
 74
     0
 49
-0.25
 74
     0
 49
0.25
 74
     0
 49
-0.25
 74
     0
  0
LTYPE
  5
24
100
AcDbSymbolTableRecord
100
AcDbLinetypeTableRecord
  2
CENTER2
 70
     0
  3
___ _ ___ _ ___ _ ___ _ ___ _ ___ _ ___ _ ___ _
 72
    65
 73
     4
 40
1.125
 49
0.75
 74
     0
 49
-0.125
 74
     0
 49
0.125
 74
     0
 49
-0.125
 74
     0
  0
LTYPE
  5
25
100
AcDbSymbolTableRecord
100
AcDbLinetypeTableRecord
  2
CENTERX2
 70
     0
  3
________  __  ________  __  ________  __  _____
 72
    65
 73
     4
 40
4.0
 49
2.5
 74
     0
 49
-0.5
 74
     0
 49
0.5
 74
     0
 49
-0.5
 74
     0
  0
LTYPE
  5
26
100
AcDbSymbolTableRecord
100
AcDbLinetypeTableRecord
  2
DASHDOT
 70
     0
  3
__ . __ . __ . __ . __ . __ . __ . __ . __ . __
 72
    65
 73
     4
 40
1.0
 49
0.5
 74
     0
 49
-0.25
 74
     0
 49
0.0
 74
     0
 49
-0.25
 74
     0
  0
LTYPE
  5
27
100
AcDbSymbolTableRecord
100
AcDbLinetypeTableRecord
  2
DASHDOT2
 70
     0
  3
_._._._._._._._._._._._._._._._._._._._._._._._
 72
    65
 73
     4
 40
0.5
 49
0.25
 74
     0
 49
-0.125
 74
     0
 49
0.0
 74
     0
 49
-0.125
 74
     0
  0
LTYPE
  5
28
100
AcDbSymbolTableRecord
100
AcDbLinetypeTableRecord
  2
DASHDOTX2
 70
     0
  3
____  .  ____  .  ____  .  ____  .  ____  .  __
 72
    65
 73
     4
 40
2.0
 49
1.0
 74
     0
 49
-0.5
 74
     0
 49
0.0
 74
     0
 49
-0.5
 74
     0
  0
LTYPE
  5
29
100
AcDbSymbolTableRecord
100
AcDbLinetypeTableRecord
  2
DASHED
 70
     0
  3
__ __ __ __ __ __ __ __ __ __ __ __ __ __ __ __
 72
    65
 73
     2
 40
0.75
 49
0.5
 74
     0
 49
-0.25
 74
     0
  0
LTYPE
  5
2A
100
AcDbSymbolTableRecord
100
AcDbLinetypeTableRecord
  2
DASHED2
 70
     0
  3
_ _ _ _ _ _ _ _ _ _ _ _ _ _ _ _ _ _ _ _ _ _ _ _
 72
    65
 73
     2
 40
0.375
 49
0.25
 74
     0
 49
-0.125
 74
     0
  0
LTYPE
  5
2B
100
AcDbSymbolTableRecord
100
AcDbLinetypeTableRecord
  2
DASHEDX2
 70
     0
  3
____  ____  ____  ____  ____  ____  ____  ____ 
 72
    65
 73
     2
 40
1.5
 49
1.0
 74
     0
 49
-0.5
 74
     0
  0
LTYPE
  5
2C
100
AcDbSymbolTableRecord
100
AcDbLinetypeTableRecord
  2
DIVIDE
 70
     0
  3
____ . . ____ . . ____ . . ____ . . ____ . . __
 72
    65
 73
     6
 40
1.25
 49
0.5
 74
     0
 49
-0.25
 74
     0
 49
0.0
 74
     0
 49
-0.25
 74
     0
 49
0.0
 74
     0
 49
-0.25
 74
     0
  0
LTYPE
  5
2D
100
AcDbSymbolTableRecord
100
AcDbLinetypeTableRecord
  2
DIVIDE2
 70
     0
  3
__..__..__..__..__..__..__..__..__..__..__..__.
 72
    65
 73
     6
 40
0.625
 49
0.25
 74
     0
 49
-0.125
 74
     0
 49
0.0
 74
     0
 49
-0.125
 74
     0
 49
0.0
 74
     0
 49
-0.125
 74
     0
  0
LTYPE
  5
2E
100
AcDbSymbolTableRecord
100
AcDbLinetypeTableRecord
  2
DIVIDEX2
 70
     0
  3
________  .  .  ________  .  .  ________  .  . 
 72
    65
 73
     6
 40
2.5
 49
1.0
 74
     0
 49
-0.5
 74
     0
 49
0.0
 74
     0
 49
-0.5
 74
     0
 49
0.0
 74
     0
 49
-0.5
 74
     0
  0
LTYPE
  5
2F
100
AcDbSymbolTableRecord
100
AcDbLinetypeTableRecord
  2
DOT
 70
     0
  3
. . . . . . . . . . . . . . . . . . . . . . . .
 72
    65
 73
     2
 40
0.25
 49
0.0
 74
     0
 49
-0.25
 74
     0
  0
LTYPE
  5
30
100
AcDbSymbolTableRecord
100
AcDbLinetypeTableRecord
  2
DOT2
 70
     0
  3
...............................................
 72
    65
 73
     2
 40
0.125
 49
0.0
 74
     0
 49
-0.125
 74
     0
  0
LTYPE
  5
31
100
AcDbSymbolTableRecord
100
AcDbLinetypeTableRecord
  2
DOTX2
 70
     0
  3
.  .  .  .  .  .  .  .  .  .  .  .  .  .  .  . 
 72
    65
 73
     2
 40
0.5
 49
0.0
 74
     0
 49
-0.5
 74
     0
  0
LTYPE
  5
32
100
AcDbSymbolTableRecord
100
AcDbLinetypeTableRecord
  2
HIDDEN
 70
     0
  3
__ __ __ __ __ __ __ __ __ __ __ __ __ __ __ __
 72
    65
 73
     2
 40
0.375
 49
0.25
 74
     0
 49
-0.125
 74
     0
  0
LTYPE
  5
33
100
AcDbSymbolTableRecord
100
AcDbLinetypeTableRecord
  2
HIDDEN2
 70
     0
  3
_ _ _ _ _ _ _ _ _ _ _ _ _ _ _ _ _ _ _ _ _ _ _ _
 72
    65
 73
     2
 40
0.1875
 49
0.125
 74
     0
 49
-0.0625
 74
     0
  0
LTYPE
  5
34
100
AcDbSymbolTableRecord
100
AcDbLinetypeTableRecord
  2
HIDDENX2
 70
     0
  3
____ ____ ____ ____ ____ ____ ____ ____ ____ __
 72
    65
 73
     2
 40
0.75
 49
0.5
 74
     0
 49
-0.25
 74
     0
  0
LTYPE
  5
35
100
AcDbSymbolTableRecord
100
AcDbLinetypeTableRecord
  2
PHANTOM
 70
     0
  3
______  __  __  ______  __  __  ______  __  __ 
 72
    65
 73
     6
 40
2.5
 49
1.25
 74
     0
 49
-0.25
 74
     0
 49
0.25
 74
     0
 49
-0.25
 74
     0
 49
0.25
 74
     0
 49
-0.25
 74
     0
  0
LTYPE
  5
36
100
AcDbSymbolTableRecord
100
AcDbLinetypeTableRecord
  2
PHANTOM2
 70
     0
  3
___ _ _ ___ _ _ ___ _ _ ___ _ _ ___ _ _ ___ _ _
 72
    65
 73
     6
 40
1.25
 49
0.625
 74
     0
 49
-0.125
 74
     0
 49
0.125
 74
     0
 49
-0.125
 74
     0
 49
0.125
 74
     0
 49
-0.125
 74
     0
  0
LTYPE
  5
37
100
AcDbSymbolTableRecord
100
AcDbLinetypeTableRecord
  2
PHANTOMX2
 70
     0
  3
____________    ____    ____    ____________   
 72
    65
 73
     6
 40
5.0
 49
2.5
 74
     0
 49
-0.5
 74
     0
 49
0.5
 74
     0
 49
-0.5
 74
     0
 49
0.5
 74
     0
 49
-0.5
 74
     0
  0
ENDTAB
   0
TABLE
   2
LAYER
   5
2
 100
AcDbSymbolTable
  70
2
   0
LAYER
   5
E
 100
AcDbSymbolTableRecord
 100
AcDbLayerTableRecord
   2
0
  70
0
  62
7
   6
CONTINUOUS
 390
30
   0
LAYER
   5
39
 100
AcDbSymbolTableRecord
 100
AcDbLayerTableRecord
   2
LEVEL001
  70
0
  62
7
   6
CONTINUOUS
 390
30
   0
ENDTAB
  0
TABLE
  2
STYLE
  5
3
100
AcDbSymbolTable
  70
8
  0
STYLE
  5
F
100
AcDbSymbolTableRecord
100
AcDbTextStyleTableRecord
  2
STANDARD
 70
     0
 40
0.0
 41
1.0
 50
0.0
 71
     0
 42
0.2
  3
TXT
  4
BIGFONT
  0
STYLE
  5
38
100
AcDbSymbolTableRecord
100
AcDbTextStyleTableRecord
  2
STANDARD1
 70
     4
 40
0.0
 41
1.0
 50
0.0
 71
     0
 42
0.2
  3
TXT
  4
BIGFONT
   0
STYLE
   5
3A
 100
AcDbSymbolTableRecord
 100
AcDbTextStyleTableRecord
   2
GMM001
  70
0
  40
0.0
  41
 1.0000000000000
  50
0.0
  71
     0
  42
1.0
   3

   4

1001
ACAD
1000
ＭＳ ゴシック
1071
32817
   0
STYLE
   5
3B
 100
AcDbSymbolTableRecord
 100
AcDbTextStyleTableRecord
   2
GMM002
  70
0
  40
0.0
  41
 1.0000000000000
  50
0.0
  71
     0
  42
1.0
   3
txt.shx
   4
bigfont.shx
   0
STYLE
   5
3C
 100
AcDbSymbolTableRecord
 100
AcDbTextStyleTableRecord
   2
GMM003
  70
0
  40
0.0
  41
 0.75000000000000
  50
0.0
  71
     0
  42
1.0
   3
txt.shx
   4
bigfont.shx
   0
STYLE
   5
3D
 100
AcDbSymbolTableRecord
 100
AcDbTextStyleTableRecord
   2
GMM004
  70
0
  40
0.0
  41
 0.66666666666667
  50
0.0
  71
     0
  42
1.0
   3

   4

1001
ACAD
1000
ＭＳ ゴシック
1071
32817
   0
STYLE
   5
3E
 100
AcDbSymbolTableRecord
 100
AcDbTextStyleTableRecord
   2
GMM005
  70
0
  40
0.0
  41
 1.5000000000000
  50
0.0
  71
     0
  42
1.0
   3

   4

1001
ACAD
1000
ＭＳ ゴシック
1071
32817
   0
STYLE
   5
3F
 100
AcDbSymbolTableRecord
 100
AcDbTextStyleTableRecord
   2
GMM006
  70
0
  40
0.0
  41
 1.0000000000000
  50
0.0
  71
     0
  42
1.0
   3

   4

1001
ACAD
1000
ＭＳ 明朝
1071
32785
   0
ENDTAB
  0
TABLE
  2
VIEW
  5
6
100
AcDbSymbolTable
 70
     0
  0
ENDTAB
  0
TABLE
  2
UCS
  5
7
100
AcDbSymbolTable
 70
     0
  0
ENDTAB
  0
TABLE
  2
APPID
  5
9
100
AcDbSymbolTable
 70
     1
  0
APPID
  5
10
100
AcDbSymbolTableRecord
100
AcDbRegAppTableRecord
  2
ACAD
 70
     0
  0
ENDTAB
   0
TABLE
   2
DIMSTYLE
   5
A
 100
AcDbSymbolTable
  70
9
 100
AcDbDimStyleTable
  0
DIMSTYLE
105
1D
100
AcDbSymbolTableRecord
100
AcDbDimStyleTableRecord
  2
STANDARD
 70
     0
  3

  4

  5

  6

  7

 40
1.0
 41
0.18
 42
0.0625
 43
0.38
 44
0.18
 45
0.0
 46
0.0
 47
0.0
 48
0.0
140
0.18
141
0.09
142
0.0
143
25.4
144
1.0
145
0.0
146
1.0
147
0.09
 71
     0
 72
     0
 73
     1
 74
     1
 75
     0
 76
     0
 77
     0
 78
     0
170
     0
171
     2
172
     0
173
     0
174
     0
175
     0
176
     0
177
     0
178
     0
270
     2
271
     4
272
     4
273
     2
274
     2
340
F
275
     0
280
     0
281
     0
282
     0
283
     1
284
     0
285
     0
286
     0
287
     3
288
     0
   0
DIMSTYLE
 105
40
 100
AcDbSymbolTableRecord
 100
AcDbDimStyleTableRecord
   2
GMM001
  70
0
   3

   4

   5

   6
_OPEN
   7
_OPEN
  40
 1.0000000000000
  41
 30.000000000000
  42
 30.000000000000
  43
 160.00000000000
  44
 30.000000000000
  45
0.0
  46
0.0
  47
0.0
  48
0.0
 140
 66.000000000000
 141
 20.000000000000
 142
0.0
 143
 0.39400000000000E-1
 144
 1.0000000000000
 145
0.0
 146
 0.75757575757576
 147
0.0
  71
0
  72
0
  73
0
  74
0
  75
0
  76
0
  77
0
  78
8
 170
0
 171
2
 172
1
 173
1
 174
0
 175
0
 176
1
 177
1
 178
7
 270
2
 271
1
 272
0
 273
2
 274
2
 340
3B
 275
0
 280
0
 281
0
 282
0
 283
1
 284
0
 285
0
 286
0
 287
3
 288
1
   0
DIMSTYLE
 105
41
 100
AcDbSymbolTableRecord
 100
AcDbDimStyleTableRecord
   2
GMM002
  70
0
   3

   4

   5

   6
_OPEN
   7
_OPEN
  40
 1.0000000000000
  41
 42.000000000000
  42
 30.000000000000
  43
 160.00000000000
  44
 30.000000000000
  45
0.0
  46
0.0
  47
0.0
  48
0.0
 140
 60.000000000000
 141
 20.000000000000
 142
0.0
 143
 0.39400000000000E-1
 144
 1.0000000000000
 145
0.0
 146
 0.83333333333333
 147
0.0
  71
0
  72
0
  73
0
  74
0
  75
0
  76
0
  77
0
  78
8
 170
0
 171
2
 172
1
 173
1
 174
0
 175
0
 176
1
 177
1
 178
7
 270
2
 271
1
 272
0
 273
2
 274
2
 340
3B
 275
0
 280
0
 281
0
 282
0
 283
1
 284
0
 285
0
 286
0
 287
3
 288
1
   0
DIMSTYLE
 105
42
 100
AcDbSymbolTableRecord
 100
AcDbDimStyleTableRecord
   2
GMM003
  70
0
   3
%%c<>
   4

   5

   6
_OPEN
   7
_OPEN
  40
 1.0000000000000
  41
 42.000000000000
  42
 30.000000000000
  43
 160.00000000000
  44
 30.000000000000
  45
0.0
  46
0.0
  47
0.0
  48
0.0
 140
 60.000000000000
 141
 20.000000000000
 142
0.0
 143
 0.39400000000000E-1
 144
 1.0000000000000
 145
0.0
 146
 0.83333333333333
 147
 25.714285714286
  71
0
  72
0
  73
0
  74
0
  75
0
  76
0
  77
3
  78
8
 170
0
 171
2
 172
1
 173
1
 174
0
 175
0
 176
6
 177
6
 178
1
 270
2
 271
6
 272
0
 273
2
 274
2
 340
3B
 275
1
 280
0
 281
0
 282
0
 283
1
 284
0
 285
0
 286
0
 287
0
 288
0
   0
DIMSTYLE
 105
43
 100
AcDbSymbolTableRecord
 100
AcDbDimStyleTableRecord
   2
GMM004
  70
0
   3

   4

   5

   6
_OPEN
   7
_OPEN
  40
 1.0000000000000
  41
 42.000000000000
  42
 30.000000000000
  43
 160.00000000000
  44
 30.000000000000
  45
0.0
  46
0.0
  47
0.0
  48
0.0
 140
 60.000000000000
 141
 20.000000000000
 142
0.0
 143
 0.39400000000000E-1
 144
 1.0000000000000
 145
0.0
 146
 0.83333333333333
 147
 25.714285714286
  71
0
  72
0
  73
0
  74
0
  75
0
  76
0
  77
3
  78
8
 170
0
 171
2
 172
1
 173
1
 174
0
 175
0
 176
6
 177
6
 178
1
 270
2
 271
6
 272
0
 273
2
 274
2
 340
3B
 275
1
 280
0
 281
0
 282
0
 283
1
 284
0
 285
0
 286
0
 287
3
 288
0
   0
DIMSTYLE
 105
44
 100
AcDbSymbolTableRecord
 100
AcDbDimStyleTableRecord
   2
GMM005
  70
0
   3
□<>
   4

   5

   6
_OPEN
   7
_OPEN
  40
 1.0000000000000
  41
 42.000000000000
  42
 30.000000000000
  43
 160.00000000000
  44
 30.000000000000
  45
0.0
  46
0.0
  47
0.0
  48
0.0
 140
 60.000000000000
 141
 20.000000000000
 142
0.0
 143
 0.39400000000000E-1
 144
 1.0000000000000
 145
0.0
 146
 0.83333333333333
 147
 25.714285714286
  71
0
  72
0
  73
0
  74
0
  75
0
  76
0
  77
3
  78
8
 170
0
 171
2
 172
1
 173
1
 174
0
 175
0
 176
6
 177
6
 178
1
 270
2
 271
6
 272
0
 273
2
 274
2
 340
3B
 275
1
 280
0
 281
0
 282
0
 283
1
 284
0
 285
0
 286
0
 287
3
 288
0
   0
DIMSTYLE
 105
45
 100
AcDbSymbolTableRecord
 100
AcDbDimStyleTableRecord
   2
GMM006
  70
0
   3

   4

   5

   6
_OPEN
   7
_OPEN
  40
 1.0000000000000
  41
 42.000000000000
  42
 30.000000000000
  43
 160.00000000000
  44
 30.000000000000
  45
0.0
  46
0.0
  47
0.0
  48
0.0
 140
 60.000000000000
 141
 20.000000000000
 142
0.0
 143
 0.39400000000000E-1
 144
 1.0000000000000
 145
0.0
 146
 0.83333333333333
 147
 25.714285714286
  71
0
  72
0
  73
0
  74
0
  75
0
  76
1
  77
3
  78
8
 170
0
 171
2
 172
1
 173
1
 174
0
 175
0
 176
6
 177
6
 178
1
 270
2
 271
6
 272
0
 273
2
 274
2
 340
3B
 275
1
 280
0
 281
0
 282
0
 283
1
 284
0
 285
0
 286
0
 287
3
 288
0
   0
DIMSTYLE
 105
46
 100
AcDbSymbolTableRecord
 100
AcDbDimStyleTableRecord
   2
GMM007
  70
0
   3

   4

   5

   6
_OPEN
   7
_OPEN
  40
 1.0000000000000
  41
 42.000000000000
  42
 30.000000000000
  43
 160.00000000000
  44
 30.000000000000
  45
0.0
  46
0.0
  47
0.0
  48
0.0
 140
 60.000000000000
 141
 20.000000000000
 142
0.0
 143
 0.39400000000000E-1
 144
 1.0000000000000
 145
0.0
 146
 0.83333333333333
 147
 25.714285714286
  71
0
  72
0
  73
0
  74
0
  75
0
  76
0
  77
3
  78
8
 170
0
 171
2
 172
1
 173
1
 174
0
 175
0
 176
6
 177
6
 178
1
 270
2
 271
6
 272
0
 273
2
 274
2
 340
3B
 275
1
 280
0
 281
0
 282
0
 283
1
 284
0
 285
0
 286
0
 287
3
 288
0
   0
ENDTAB
  0
TABLE
  2
BLOCK_RECORD
  5
1
100
AcDbSymbolTable
 70
     0
  0
BLOCK_RECORD
  5
18
100
AcDbSymbolTableRecord
100
AcDbBlockTableRecord
  2
*MODEL_SPACE
  0
BLOCK_RECORD
  5
15
100
AcDbSymbolTableRecord
100
AcDbBlockTableRecord
  2
*PAPER_SPACE
   0
BLOCK_RECORD
   5
47
 100
AcDbSymbolTableRecord
 100
AcDbBlockTableRecord
   2
BLOCK001
   0
BLOCK_RECORD
   5
48
 100
AcDbSymbolTableRecord
 100
AcDbBlockTableRecord
   2
BLOCK002
   0
BLOCK_RECORD
   5
49
 100
AcDbSymbolTableRecord
 100
AcDbBlockTableRecord
   2
*D14
   0
BLOCK_RECORD
   5
4A
 100
AcDbSymbolTableRecord
 100
AcDbBlockTableRecord
   2
*D15
   0
BLOCK_RECORD
   5
4B
 100
AcDbSymbolTableRecord
 100
AcDbBlockTableRecord
   2
*D16
   0
BLOCK_RECORD
   5
4C
 100
AcDbSymbolTableRecord
 100
AcDbBlockTableRecord
   2
*D17
   0
BLOCK_RECORD
   5
4D
 100
AcDbSymbolTableRecord
 100
AcDbBlockTableRecord
   2
*D18
   0
BLOCK_RECORD
   5
4E
 100
AcDbSymbolTableRecord
 100
AcDbBlockTableRecord
   2
*D19
   0
BLOCK_RECORD
   5
4F
 100
AcDbSymbolTableRecord
 100
AcDbBlockTableRecord
   2
*D20
   0
BLOCK_RECORD
   5
50
 100
AcDbSymbolTableRecord
 100
AcDbBlockTableRecord
   2
_ARCHTICK
   0
BLOCK_RECORD
   5
51
 100
AcDbSymbolTableRecord
 100
AcDbBlockTableRecord
   2
_BOXBLANK
   0
BLOCK_RECORD
   5
52
 100
AcDbSymbolTableRecord
 100
AcDbBlockTableRecord
   2
_BOXFILLED
   0
BLOCK_RECORD
   5
53
 100
AcDbSymbolTableRecord
 100
AcDbBlockTableRecord
   2
_CLOSED
   0
BLOCK_RECORD
   5
54
 100
AcDbSymbolTableRecord
 100
AcDbBlockTableRecord
   2
_CLOSEDBLANK
   0
BLOCK_RECORD
   5
55
 100
AcDbSymbolTableRecord
 100
AcDbBlockTableRecord
   2
_DATUMBLANK
   0
BLOCK_RECORD
   5
56
 100
AcDbSymbolTableRecord
 100
AcDbBlockTableRecord
   2
_DATUMFILLED
   0
BLOCK_RECORD
   5
57
 100
AcDbSymbolTableRecord
 100
AcDbBlockTableRecord
   2
_DOT
   0
BLOCK_RECORD
   5
58
 100
AcDbSymbolTableRecord
 100
AcDbBlockTableRecord
   2
_DOTBLANK
   0
BLOCK_RECORD
   5
59
 100
AcDbSymbolTableRecord
 100
AcDbBlockTableRecord
   2
_DOTSMALL
   0
BLOCK_RECORD
   5
5A
 100
AcDbSymbolTableRecord
 100
AcDbBlockTableRecord
   2
_INTEGRAL
   0
BLOCK_RECORD
   5
5B
 100
AcDbSymbolTableRecord
 100
AcDbBlockTableRecord
   2
_NONE
   0
BLOCK_RECORD
   5
5C
 100
AcDbSymbolTableRecord
 100
AcDbBlockTableRecord
   2
_OBLIQUE
   0
BLOCK_RECORD
   5
5D
 100
AcDbSymbolTableRecord
 100
AcDbBlockTableRecord
   2
_OPEN
   0
BLOCK_RECORD
   5
5E
 100
AcDbSymbolTableRecord
 100
AcDbBlockTableRecord
   2
_OPEN30
   0
BLOCK_RECORD
   5
5F
 100
AcDbSymbolTableRecord
 100
AcDbBlockTableRecord
   2
_OPEN90
   0
BLOCK_RECORD
   5
60
 100
AcDbSymbolTableRecord
 100
AcDbBlockTableRecord
   2
_ORIGIN
   0
ENDTAB
   0
ENDSEC
  0
SECTION
  2
BLOCKS
  0
BLOCK
  5
19
100
AcDbEntity
  8
0
100
AcDbBlockBegin
  2
*MODEL_SPACE
 70
     0
 10
0.0
 20
0.0
 30
0.0
  3
*MODEL_SPACE
  1

  0
ENDBLK
  5
1A
100
AcDbEntity
  8
0
100
AcDbBlockEnd
  0
BLOCK
  5
16
100
AcDbEntity
 67
     1
  8
0
100
AcDbBlockBegin
  2
*PAPER_SPACE
 70
     0
 10
0.0
 20
0.0
 30
0.0
  3
*PAPER_SPACE
  1

  0
ENDBLK
  5
17
100
AcDbEntity
 67
     1
  8
0
100
AcDbBlockEnd
   0
BLOCK
   5
61
 100
AcDbEntity
   8
0
 100
AcDbBlockBegin
   2
_ARCHTICK
  70
0
  10
0.0
  20
0.0
  30
0.0
   3
_ARCHTICK
   0
POLYLINE
   5
62
 100
AcDbEntity
   8
0
 370
-2
   6
BYBLOCK
  62
0
 100
AcDb2dPolyline
  66
1
  10
0.0
  20
0.0
  30
0.0
  70
1
  40
 0.15000000000000
  41
 0.15000000000000
   0
VERTEX
   5
63
 100
AcDbEntity
   8
0
   6
BYBLOCK
  62
0
 100
AcDbVertex
 100
AcDb2dVertex
  10
-0.50000000000000
  20
-0.50000000000000
  30
0.0
  40
 0.15000000000000
  41
 0.15000000000000
   0
VERTEX
   5
64
 100
AcDbEntity
   8
0
   6
BYBLOCK
  62
0
 100
AcDbVertex
 100
AcDb2dVertex
  10
 0.50000000000000
  20
 0.50000000000000
  30
0.0
  40
 0.15000000000000
  41
 0.15000000000000
   0
SEQEND
   5
65
 100
AcDbEntity
   8
0
   6
BYBLOCK
  62
0
   0
ENDBLK
   5
66
 100
AcDbEntity
   8
0
 100
AcDbBlockEnd
   0
BLOCK
   5
67
 100
AcDbEntity
   8
0
 100
AcDbBlockBegin
   2
_OBLIQUE
  70
0
  10
0.0
  20
0.0
  30
0.0
   3
_OBLIQUE
   0
LINE
   5
68
 100
AcDbEntity
   8
0
 370
-2
 100
AcDbLine
   6
BYBLOCK
  62
0
  10
-0.50000000000000
  20
-0.50000000000000
  30
0.0
  11
 0.50000000000000
  21
 0.50000000000000
  31
0.0
   0
ENDBLK
   5
69
 100
AcDbEntity
   8
0
 100
AcDbBlockEnd
   0
BLOCK
   5
6A
 100
AcDbEntity
   8
0
 100
AcDbBlockBegin
   2
_BOXBLANK
  70
0
  10
0.0
  20
0.0
  30
0.0
   3
_BOXBLANK
   0
LINE
   5
6B
 100
AcDbEntity
   8
0
 370
-2
 100
AcDbLine
   6
BYBLOCK
  62
0
  10
-0.50000000000000
  20
-0.50000000000000
  30
0.0
  11
 0.50000000000000
  21
-0.50000000000000
  31
0.0
   0
LINE
   5
6C
 100
AcDbEntity
   8
0
 370
-2
 100
AcDbLine
   6
BYBLOCK
  62
0
  10
 0.50000000000000
  20
-0.50000000000000
  30
0.0
  11
 0.50000000000000
  21
 0.50000000000000
  31
0.0
   0
LINE
   5
6D
 100
AcDbEntity
   8
0
 370
-2
 100
AcDbLine
   6
BYBLOCK
  62
0
  10
 0.50000000000000
  20
 0.50000000000000
  30
0.0
  11
-0.50000000000000
  21
 0.50000000000000
  31
0.0
   0
LINE
   5
6E
 100
AcDbEntity
   8
0
 370
-2
 100
AcDbLine
   6
BYBLOCK
  62
0
  10
-0.50000000000000
  20
 0.50000000000000
  30
0.0
  11
-0.50000000000000
  21
-0.50000000000000
  31
0.0
   0
LINE
   5
6F
 100
AcDbEntity
   8
0
 370
-2
 100
AcDbLine
   6
BYBLOCK
  62
0
  10
-0.50000000000000
  20
0.0
  30
0.0
  11
-1.0000000000000
  21
0.0
  31
0.0
   0
ENDBLK
   5
70
 100
AcDbEntity
   8
0
 100
AcDbBlockEnd
   0
BLOCK
   5
71
 100
AcDbEntity
   8
0
 100
AcDbBlockBegin
   2
_BOXFILLED
  70
0
  10
0.0
  20
0.0
  30
0.0
   3
_BOXFILLED
   0
SOLID
   5
72
 100
AcDbEntity
   8
0
 100
AcDbTrace
   6
BYBLOCK
  62
0
  10
-0.50000000000000
  20
 0.50000000000000
  30
0.0
  11
 0.50000000000000
  21
 0.50000000000000
  31
0.0
  12
-0.50000000000000
  22
-0.50000000000000
  32
0.0
  13
 0.50000000000000
  23
-0.50000000000000
  33
0.0
   0
LINE
   5
73
 100
AcDbEntity
   8
0
 370
-2
 100
AcDbLine
   6
BYBLOCK
  62
0
  10
-0.50000000000000
  20
0.0
  30
0.0
  11
-1.0000000000000
  21
0.0
  31
0.0
   0
ENDBLK
   5
74
 100
AcDbEntity
   8
0
 100
AcDbBlockEnd
   0
BLOCK
   5
75
 100
AcDbEntity
   8
0
 100
AcDbBlockBegin
   2
_CLOSED
  70
0
  10
0.0
  20
0.0
  30
0.0
   3
_CLOSED
   0
LINE
   5
76
 100
AcDbEntity
   8
0
 370
-2
 100
AcDbLine
   6
BYBLOCK
  62
0
  10
-1.0000000000000
  20
 0.16666666666667
  30
0.0
  11
0.0
  21
0.0
  31
0.0
   0
LINE
   5
77
 100
AcDbEntity
   8
0
 370
-2
 100
AcDbLine
   6
BYBLOCK
  62
0
  10
0.0
  20
0.0
  30
0.0
  11
-1.0000000000000
  21
-0.16666666666667
  31
0.0
   0
LINE
   5
78
 100
AcDbEntity
   8
0
 370
-2
 100
AcDbLine
   6
BYBLOCK
  62
0
  10
-1.0000000000000
  20
 0.16666666666667
  30
0.0
  11
-1.0000000000000
  21
-0.16666666666667
  31
0.0
   0
LINE
   5
79
 100
AcDbEntity
   8
0
 370
-2
 100
AcDbLine
   6
BYBLOCK
  62
0
  10
0.0
  20
0.0
  30
0.0
  11
-1.0000000000000
  21
0.0
  31
0.0
   0
ENDBLK
   5
7A
 100
AcDbEntity
   8
0
 100
AcDbBlockEnd
   0
BLOCK
   5
7B
 100
AcDbEntity
   8
0
 100
AcDbBlockBegin
   2
_OPEN
  70
0
  10
0.0
  20
0.0
  30
0.0
   3
_OPEN
   0
LINE
   5
7C
 100
AcDbEntity
   8
0
 370
-2
 100
AcDbLine
   6
BYBLOCK
  62
0
  10
-1.0000000000000
  20
 0.16666666666667
  30
0.0
  11
0.0
  21
0.0
  31
0.0
   0
LINE
   5
7D
 100
AcDbEntity
   8
0
 370
-2
 100
AcDbLine
   6
BYBLOCK
  62
0
  10
0.0
  20
0.0
  30
0.0
  11
-1.0000000000000
  21
-0.16666666666667
  31
0.0
   0
LINE
   5
7E
 100
AcDbEntity
   8
0
 370
-2
 100
AcDbLine
   6
BYBLOCK
  62
0
  10
0.0
  20
0.0
  30
0.0
  11
-1.0000000000000
  21
0.0
  31
0.0
   0
ENDBLK
   5
7F
 100
AcDbEntity
   8
0
 100
AcDbBlockEnd
   0
BLOCK
   5
80
 100
AcDbEntity
   8
0
 100
AcDbBlockBegin
   2
_OPEN30
  70
0
  10
0.0
  20
0.0
  30
0.0
   3
_OPEN30
   0
LINE
   5
81
 100
AcDbEntity
   8
0
 370
-2
 100
AcDbLine
   6
BYBLOCK
  62
0
  10
-1.0000000000000
  20
 0.26794919243110
  30
0.0
  11
0.0
  21
0.0
  31
0.0
   0
LINE
   5
82
 100
AcDbEntity
   8
0
 370
-2
 100
AcDbLine
   6
BYBLOCK
  62
0
  10
0.0
  20
0.0
  30
0.0
  11
-1.0000000000000
  21
-0.26794919243110
  31
0.0
   0
LINE
   5
83
 100
AcDbEntity
   8
0
 370
-2
 100
AcDbLine
   6
BYBLOCK
  62
0
  10
0.0
  20
0.0
  30
0.0
  11
-1.0000000000000
  21
0.0
  31
0.0
   0
ENDBLK
   5
84
 100
AcDbEntity
   8
0
 100
AcDbBlockEnd
   0
BLOCK
   5
85
 100
AcDbEntity
   8
0
 100
AcDbBlockBegin
   2
_OPEN90
  70
0
  10
0.0
  20
0.0
  30
0.0
   3
_OPEN90
   0
LINE
   5
86
 100
AcDbEntity
   8
0
 370
-2
 100
AcDbLine
   6
BYBLOCK
  62
0
  10
-0.50000000000000
  20
 0.50000000000000
  30
0.0
  11
0.0
  21
0.0
  31
0.0
   0
LINE
   5
87
 100
AcDbEntity
   8
0
 370
-2
 100
AcDbLine
   6
BYBLOCK
  62
0
  10
0.0
  20
0.0
  30
0.0
  11
-0.50000000000000
  21
-0.50000000000000
  31
0.0
   0
LINE
   5
88
 100
AcDbEntity
   8
0
 370
-2
 100
AcDbLine
   6
BYBLOCK
  62
0
  10
0.0
  20
0.0
  30
0.0
  11
-1.0000000000000
  21
0.0
  31
0.0
   0
ENDBLK
   5
89
 100
AcDbEntity
   8
0
 100
AcDbBlockEnd
   0
BLOCK
   5
8A
 100
AcDbEntity
   8
0
 100
AcDbBlockBegin
   2
_CLOSEDBLANK
  70
0
  10
0.0
  20
0.0
  30
0.0
   3
_CLOSEDBLANK
   0
LINE
   5
8B
 100
AcDbEntity
   8
0
 370
-2
 100
AcDbLine
   6
BYBLOCK
  62
0
  10
-1.0000000000000
  20
 0.16666666666667
  30
0.0
  11
0.0
  21
0.0
  31
0.0
   0
LINE
   5
8C
 100
AcDbEntity
   8
0
 370
-2
 100
AcDbLine
   6
BYBLOCK
  62
0
  10
0.0
  20
0.0
  30
0.0
  11
-1.0000000000000
  21
-0.16666666666667
  31
0.0
   0
LINE
   5
8D
 100
AcDbEntity
   8
0
 370
-2
 100
AcDbLine
   6
BYBLOCK
  62
0
  10
-1.0000000000000
  20
 0.16666666666667
  30
0.0
  11
-1.0000000000000
  21
-0.16666666666667
  31
0.0
   0
ENDBLK
   5
8E
 100
AcDbEntity
   8
0
 100
AcDbBlockEnd
   0
BLOCK
   5
8F
 100
AcDbEntity
   8
0
 100
AcDbBlockBegin
   2
_DOT
  70
0
  10
0.0
  20
0.0
  30
0.0
   3
_DOT
   0
POLYLINE
   5
90
 100
AcDbEntity
   8
0
 370
-2
   6
BYBLOCK
  62
0
 100
AcDb2dPolyline
  66
1
  10
0.0
  20
0.0
  30
0.0
  70
1
  40
 0.50000000000000
  41
 0.50000000000000
   0
VERTEX
   5
91
 100
AcDbEntity
   8
0
   6
BYBLOCK
  62
0
 100
AcDbVertex
 100
AcDb2dVertex
  10
-0.25000000000000
  20
0.0
  30
0.0
  42
 1.0000000000000
  40
 0.50000000000000
  41
 0.50000000000000
   0
VERTEX
   5
92
 100
AcDbEntity
   8
0
   6
BYBLOCK
  62
0
 100
AcDbVertex
 100
AcDb2dVertex
  10
 0.25000000000000
  20
0.0
  30
0.0
  42
 1.0000000000000
  40
 0.50000000000000
  41
 0.50000000000000
   0
SEQEND
   5
93
 100
AcDbEntity
   8
0
   6
BYBLOCK
  62
0
   0
LINE
   5
94
 100
AcDbEntity
   8
0
 370
-2
 100
AcDbLine
   6
BYBLOCK
  62
0
  10
-0.50000000000000
  20
0.0
  30
0.0
  11
-1.0000000000000
  21
0.0
  31
0.0
   0
ENDBLK
   5
95
 100
AcDbEntity
   8
0
 100
AcDbBlockEnd
   0
BLOCK
   5
96
 100
AcDbEntity
   8
0
 100
AcDbBlockBegin
   2
_DOTSMALL
  70
0
  10
0.0
  20
0.0
  30
0.0
   3
_DOTSMALL
   0
POLYLINE
   5
97
 100
AcDbEntity
   8
0
 370
-2
   6
BYBLOCK
  62
0
 100
AcDb2dPolyline
  66
1
  10
0.0
  20
0.0
  30
0.0
  70
1
  40
 0.50000000000000
  41
 0.50000000000000
   0
VERTEX
   5
98
 100
AcDbEntity
   8
0
   6
BYBLOCK
  62
0
 100
AcDbVertex
 100
AcDb2dVertex
  10
-0.62500000000000E-1
  20
0.0
  30
0.0
  42
 1.0000000000000
  40
 0.50000000000000
  41
 0.50000000000000
   0
VERTEX
   5
99
 100
AcDbEntity
   8
0
   6
BYBLOCK
  62
0
 100
AcDbVertex
 100
AcDb2dVertex
  10
 0.62500000000000E-1
  20
0.0
  30
0.0
  42
 1.0000000000000
  40
 0.50000000000000
  41
 0.50000000000000
   0
SEQEND
   5
9A
 100
AcDbEntity
   8
0
   6
BYBLOCK
  62
0
   0
ENDBLK
   5
9B
 100
AcDbEntity
   8
0
 100
AcDbBlockEnd
   0
BLOCK
   5
9C
 100
AcDbEntity
   8
0
 100
AcDbBlockBegin
   2
_DATUMBLANK
  70
0
  10
0.0
  20
0.0
  30
0.0
   3
_DATUMBLANK
   0
LINE
   5
9D
 100
AcDbEntity
   8
0
 370
-2
 100
AcDbLine
   6
BYBLOCK
  62
0
  10
0.0
  20
 0.57735027000000
  30
0.0
  11
-1.0000000000000
  21
0.0
  31
0.0
   0
LINE
   5
9E
 100
AcDbEntity
   8
0
 370
-2
 100
AcDbLine
   6
BYBLOCK
  62
0
  10
-1.0000000000000
  20
0.0
  30
0.0
  11
0.0
  21
-0.57735027000000
  31
0.0
   0
LINE
   5
9F
 100
AcDbEntity
   8
0
 370
-2
 100
AcDbLine
   6
BYBLOCK
  62
0
  10
0.0
  20
-0.57735027000000
  30
0.0
  11
0.0
  21
 0.57735027000000
  31
0.0
   0
ENDBLK
   5
A0
 100
AcDbEntity
   8
0
 100
AcDbBlockEnd
   0
BLOCK
   5
A1
 100
AcDbEntity
   8
0
 100
AcDbBlockBegin
   2
_DATUMFILLED
  70
0
  10
0.0
  20
0.0
  30
0.0
   3
_DATUMFILLED
   0
SOLID
   5
A2
 100
AcDbEntity
   8
0
 100
AcDbTrace
   6
BYBLOCK
  62
0
  10
0.0
  20
 0.57735027000000
  30
0.0
  11
-1.0000000000000
  21
0.0
  31
0.0
  12
0.0
  22
-0.57735027000000
  32
0.0
  13
0.0
  23
-0.57735027000000
  33
0.0
   0
ENDBLK
   5
A3
 100
AcDbEntity
   8
0
 100
AcDbBlockEnd
   0
BLOCK
   5
A4
 100
AcDbEntity
   8
0
 100
AcDbBlockBegin
   2
_ORIGIN
  70
0
  10
0.0
  20
0.0
  30
0.0
   3
_ORIGIN
   0
CIRCLE
   5
A5
 100
AcDbEntity
   8
0
 370
-2
 100
AcDbCircle
   6
BYBLOCK
  62
0
  10
0.0
  20
0.0
  30
0.0
  40
 0.50000000000000
   0
LINE
   5
A6
 100
AcDbEntity
   8
0
 370
-2
 100
AcDbLine
   6
BYBLOCK
  62
0
  10
0.0
  20
0.0
  30
0.0
  11
-1.0000000000000
  21
0.0
  31
0.0
   0
ENDBLK
   5
A7
 100
AcDbEntity
   8
0
 100
AcDbBlockEnd
   0
BLOCK
   5
A8
 100
AcDbEntity
   8
0
 100
AcDbBlockBegin
   2
_NONE
  70
0
  10
0.0
  20
0.0
  30
0.0
   3
_NONE
   0
CIRCLE
   5
A9
 100
AcDbEntity
   8
0
 370
-2
 100
AcDbCircle
   6
BYBLOCK
  62
0
  10
0.0
  20
0.0
  30
0.0
  40
 0.25000000000000
   0
ENDBLK
   5
AA
 100
AcDbEntity
   8
0
 100
AcDbBlockEnd
   0
BLOCK
   5
AB
 100
AcDbEntity
   8
0
 100
AcDbBlockBegin
   2
_DOTBLANK
  70
0
  10
0.0
  20
0.0
  30
0.0
   3
_DOTBLANK
   0
CIRCLE
   5
AC
 100
AcDbEntity
   8
0
 370
-2
 100
AcDbCircle
   6
BYBLOCK
  62
0
  10
0.0
  20
0.0
  30
0.0
  40
 0.50000000000000
   0
LINE
   5
AD
 100
AcDbEntity
   8
0
 370
-2
 100
AcDbLine
   6
BYBLOCK
  62
0
  10
-0.50000000000000
  20
0.0
  30
0.0
  11
-1.0000000000000
  21
0.0
  31
0.0
   0
ENDBLK
   5
AE
 100
AcDbEntity
   8
0
 100
AcDbBlockEnd
   0
BLOCK
   5
AF
 100
AcDbEntity
   8
0
 100
AcDbBlockBegin
   2
_INTEGRAL
  70
0
  10
0.0
  20
0.0
  30
0.0
   3
_INTEGRAL
   0
ARC
   5
B0
 100
AcDbEntity
   8
0
 370
-2
   6
BYBLOCK
  62
0
 100
AcDbCircle
  10
 0.44488800000000
  20
-0.91335000000000E-1
  30
0.0
  40
 0.45416700000000
 100
AcDbArc
  50
 102.00000000000
  51
 168.00000000000
   0
ARC
   5
B1
 100
AcDbEntity
   8
0
 370
-2
   6
BYBLOCK
  62
0
 100
AcDbCircle
  10
-0.44488800000000
  20
 0.91335000000000E-1
  30
0.0
  40
 0.45416700000000
 100
AcDbArc
  50
 282.00000000000
  51
 348.00000000000
   0
ENDBLK
   5
B2
 100
AcDbEntity
   8
0
 100
AcDbBlockEnd
   0
BLOCK
   5
B3
 100
AcDbEntity
   8
0
 100
AcDbBlockBegin
   2
BLOCK001
  70
64
  10
0.0
  20
0.0
  30
0.0
   3
BLOCK001
   0
LINE
   5
B4
 100
AcDbEntity
   8
LEVEL001
 370
13
 100
AcDbLine
   6
CONTINUOUS
  62
5
  10
 1504.6348314607
  20
 3399.5966734742
  30
0.0
  11
 1449.6348314607
  21
 3329.5966734742
  31
0.0
   0
LINE
   5
B5
 100
AcDbEntity
   8
LEVEL001
 370
13
 100
AcDbLine
   6
CONTINUOUS
  62
5
  10
 1449.6348314607
  20
 3329.5966734742
  30
0.0
  11
 1479.6348314607
  21
 3329.5966734742
  31
0.0
   0
LINE
   5
B6
 100
AcDbEntity
   8
LEVEL001
 370
13
 100
AcDbLine
   6
CONTINUOUS
  62
5
  10
 1479.6348314607
  20
 3329.5966734742
  30
0.0
  11
 1479.6348314607
  21
 3299.5966734742
  31
0.0
   0
LINE
   5
B7
 100
AcDbEntity
   8
LEVEL001
 370
13
 100
AcDbLine
   6
CONTINUOUS
  62
5
  10
 1479.6348314607
  20
 3299.5966734742
  30
0.0
  11
 1529.6348314607
  21
 3299.5966734742
  31
0.0
   0
LINE
   5
B8
 100
AcDbEntity
   8
LEVEL001
 370
13
 100
AcDbLine
   6
CONTINUOUS
  62
5
  10
 1559.6348314607
  20
 3329.5966734742
  30
0.0
  11
 1504.6348314607
  21
 3399.5966734742
  31
0.0
   0
LINE
   5
B9
 100
AcDbEntity
   8
LEVEL001
 370
13
 100
AcDbLine
   6
CONTINUOUS
  62
5
  10
 1529.6348314607
  20
 3329.5966734742
  30
0.0
  11
 1559.6348314607
  21
 3329.5966734742
  31
0.0
   0
LINE
   5
BA
 100
AcDbEntity
   8
LEVEL001
 370
13
 100
AcDbLine
   6
CONTINUOUS
  62
5
  10
 1529.6348314607
  20
 3299.5966734742
  30
0.0
  11
 1529.6348314607
  21
 3329.5966734742
  31
0.0
   0
ENDBLK
   5
BB
 100
AcDbEntity
   8
0
 100
AcDbBlockEnd
   0
BLOCK
   5
BC
 100
AcDbEntity
   8
0
 100
AcDbBlockBegin
   2
BLOCK002
  70
64
  10
0.0
  20
0.0
  30
0.0
   3
BLOCK002
   0
LINE
   5
BD
 100
AcDbEntity
   8
LEVEL001
 370
13
 100
AcDbLine
   6
CONTINUOUS
  62
1
  10
 1434.9918871247
  20
 3233.5876402712
  30
0.0
  11
 1450.2610521638
  21
 3231.3330015992
  31
0.0
   0
ARC
   5
BE
 100
AcDbEntity
   8
LEVEL001
 370
13
   6
CONTINUOUS
  62
1
 100
AcDbCircle
  10
 1448.8783687335
  20
 3210.7997931190
  30
0.0
  40
 20.579710006714
 100
AcDbArc
  50
 10.432655985708
  51
 86.147581847720
   0
ARC
   5
BF
 100
AcDbEntity
   8
LEVEL001
 370
13
   6
CONTINUOUS
  62
1
 100
AcDbCircle
  10
 1455.2340057490
  20
 3214.2241811148
  30
0.0
  40
 13.887145996094
 100
AcDbArc
  50
 284.73810286312
  51
 1.2468362600448
   0
LINE
   5
C0
 100
AcDbEntity
   8
LEVEL001
 370
13
 100
AcDbLine
   6
CONTINUOUS
  62
1
  10
 1458.7669115388
  20
 3200.7939390992
  30
0.0
  11
 1434.9918871247
  21
 3233.5876402712
  31
0.0
   0
ARC
   5
C1
 100
AcDbEntity
   8
LEVEL001
 370
13
   6
CONTINUOUS
  62
1
 100
AcDbCircle
  10
 1442.5390990236
  20
 3173.9826091992
  30
0.0
  40
 20.228109359742
 100
AcDbArc
  50
 1.0520107710498
  51
 78.795797145820
   0
ARC
   5
C2
 100
AcDbEntity
   8
LEVEL001
 370
13
   6
CONTINUOUS
  62
1
 100
AcDbCircle
  10
 1447.7955357729
  20
 3176.1325504588
  30
0.0
  40
 15.073557853699
 100
AcDbArc
  50
 288.65953719945
  51
 353.22379545230
   0
LINE
   5
C3
 100
AcDbEntity
   8
LEVEL001
 370
13
 100
AcDbLine
   6
CONTINUOUS
  62
1
  10
 1437.3487596833
  20
 3147.8115172242
  30
0.0
  11
 1444.3174486482
  21
 3108.9711851930
  31
0.0
   0
ARC
   5
C4
 100
AcDbEntity
   8
LEVEL001
 370
13
   6
CONTINUOUS
  62
1
 100
AcDbCircle
  10
 1454.2998700317
  20
 3112.6031194440
  30
0.0
  40
 10.622602462769
 100
AcDbArc
  50
 199.99305619358
  51
 1.9685270930248
   0
LINE
   5
C5
 100
AcDbEntity
   8
LEVEL001
 370
13
 100
AcDbLine
   6
CONTINUOUS
  62
1
  10
 1464.9162035310
  20
 3112.9680113650
  30
0.0
  11
 1461.7390184724
  21
 3130.0822691774
  31
0.0
   0
LINE
   5
C6
 100
AcDbEntity
   8
LEVEL001
 370
13
 100
AcDbLine
   6
CONTINUOUS
  62
1
  10
 1461.7390184724
  20
 3130.0822691774
  30
0.0
  11
 1474.0366869294
  21
 3189.5209898806
  31
0.0
   0
LINE
   5
C7
 100
AcDbEntity
   8
LEVEL001
 370
13
 100
AcDbLine
   6
CONTINUOUS
  62
1
  10
 1474.0366869294
  20
 3189.5209898806
  30
0.0
  11
 1451.1835985505
  21
 3139.6130308962
  31
0.0
   0
LINE
   5
C8
 100
AcDbEntity
   8
LEVEL001
 370
13
 100
AcDbLine
   6
CONTINUOUS
  62
1
  10
 1451.1835985505
  20
 3139.6130308962
  30
0.0
  11
 1437.3487596833
  21
 3147.8115172242
  31
0.0
   0
LINE
   5
C9
 100
AcDbEntity
   8
LEVEL001
 370
13
 100
AcDbLine
   6
CONTINUOUS
  62
1
  10
 1501.2965135896
  20
 3216.7809996462
  30
0.0
  11
 1471.8845873201
  21
 3216.7809996462
  31
0.0
   0
LINE
   5
CA
 100
AcDbEntity
   8
LEVEL001
 370
13
 100
AcDbLine
   6
CONTINUOUS
  62
1
  10
 1471.8845873201
  20
 3216.7809996462
  30
0.0
  11
 1476.2913256013
  21
 3205.8154234742
  31
0.0
   0
LINE
   5
CB
 100
AcDbEntity
   8
LEVEL001
 370
13
 100
AcDbLine
   6
CONTINUOUS
  62
1
  10
 1476.2913256013
  20
 3205.8154234742
  30
0.0
  11
 1501.2965135896
  21
 3205.8154234742
  31
0.0
   0
LINE
   5
CC
 100
AcDbEntity
   8
LEVEL001
 370
13
 100
AcDbLine
   6
CONTINUOUS
  62
1
  10
 1501.2965135896
  20
 3175.2761168336
  30
0.0
  11
 1473.5242967927
  21
 3175.2761168336
  31
0.0
   0
LINE
   5
CD
 100
AcDbEntity
   8
LEVEL001
 370
13
 100
AcDbLine
   6
CONTINUOUS
  62
1
  10
 1473.5242967927
  20
 3175.2761168336
  30
0.0
  11
 1478.4434252107
  21
 3163.1835875368
  31
0.0
   0
LINE
   5
CE
 100
AcDbEntity
   8
LEVEL001
 370
13
 100
AcDbLine
   6
CONTINUOUS
  62
1
  10
 1478.4434252107
  20
 3163.1835875368
  30
0.0
  11
 1501.2965135896
  21
 3163.1835875368
  31
0.0
   0
LINE
   5
CF
 100
AcDbEntity
   8
LEVEL001
 370
13
 100
AcDbLine
   6
CONTINUOUS
  62
1
  10
 1501.2965135896
  20
 3118.2971129274
  30
0.0
  11
 1468.8102464997
  21
 3118.2971129274
  31
0.0
   0
LINE
   5
D0
 100
AcDbEntity
   8
LEVEL001
 370
13
 100
AcDbLine
   6
CONTINUOUS
  62
1
  10
 1468.8102464997
  20
 3118.2971129274
  30
0.0
  11
 1474.2417650544
  21
 3106.2043394900
  31
0.0
   0
LINE
   5
D1
 100
AcDbEntity
   8
LEVEL001
 370
13
 100
AcDbLine
   6
CONTINUOUS
  62
1
  10
 1474.2417650544
  20
 3106.2043394900
  30
0.0
  11
 1564.6195726716
  21
 3106.2043394900
  31
0.0
   0
ARC
   5
D2
 100
AcDbEntity
   8
LEVEL001
 370
13
   6
CONTINUOUS
  62
1
 100
AcDbCircle
  10
 1475.2332481435
  20
 3005.6578045842
  30
0.0
  40
 22.293228149414
 100
AcDbArc
  50
 35.161467069538
  51
 78.641482600080
   0
ARC
   5
D3
 100
AcDbEntity
   8
LEVEL001
 370
13
   6
CONTINUOUS
  62
1
 100
AcDbCircle
  10
 1487.1132483540
  20
 3016.7145009212
  30
0.0
  40
 6.5907969474792
 100
AcDbArc
  50
 312.23496141854
  51
 15.682969951831
   0
LINE
   5
D4
 100
AcDbEntity
   8
LEVEL001
 370
13
 100
AcDbLine
   6
CONTINUOUS
  62
1
  10
 1491.5434007966
  20
 3011.8347105836
  30
0.0
  11
 1510.4704027497
  21
 3011.8347105836
  31
0.0
   0
LINE
   5
D5
 100
AcDbEntity
   8
LEVEL001
 370
13
 100
AcDbLine
   6
CONTINUOUS
  62
1
  10
 1520.9235887849
  20
 3027.5143980836
  30
0.0
  11
 1479.6238451326
  21
 3027.5143980836
  31
0.0
   0
LINE
   5
D6
 100
AcDbEntity
   8
LEVEL001
 370
13
 100
AcDbLine
   6
CONTINUOUS
  62
1
  10
 1517.2065477693
  20
 3049.2487730836
  30
0.0
  11
 1492.4339037263
  21
 3049.8549742556
  31
0.0
   0
LINE
   5
D7
 100
AcDbEntity
   8
LEVEL001
 370
13
 100
AcDbLine
   6
CONTINUOUS
  62
1
  10
 1492.4339037263
  20
 3049.8549742556
  30
0.0
  11
 1492.4339037263
  21
 3037.4548277712
  31
0.0
   0
LINE
   5
D8
 100
AcDbEntity
   8
LEVEL001
 370
13
 100
AcDbLine
   6
CONTINUOUS
  62
1
  10
 1492.4339037263
  20
 3037.4548277712
  30
0.0
  11
 1442.9716234529
  21
 3037.4548277712
  31
0.0
   0
LINE
   5
D9
 100
AcDbEntity
   8
LEVEL001
 370
13
 100
AcDbLine
   6
CONTINUOUS
  62
1
  10
 1442.9716234529
  20
 3037.4548277712
  30
0.0
  11
 1447.4448900544
  21
 3027.5143980836
  31
0.0
   0
LINE
   5
DA
 100
AcDbEntity
   8
LEVEL001
 370
13
 100
AcDbLine
   6
CONTINUOUS
  62
1
  10
 1447.4448900544
  20
 3027.5143980836
  30
0.0
  11
 1465.0718431794
  21
 3027.5143980836
  31
0.0
   0
LINE
   5
DB
 100
AcDbEntity
   8
LEVEL001
 370
13
 100
AcDbLine
   6
CONTINUOUS
  62
1
  10
 1465.0718431794
  20
 3027.5143980836
  30
0.0
  11
 1475.0123339021
  21
 3011.8347105836
  31
0.0
   0
LINE
   5
DC
 100
AcDbEntity
   8
LEVEL001
 370
13
 100
AcDbLine
   6
CONTINUOUS
  62
1
  10
 1475.0123339021
  20
 3011.8347105836
  30
0.0
  11
 1440.2970629060
  21
 3011.8347105836
  31
0.0
   0
LINE
   5
DD
 100
AcDbEntity
   8
LEVEL001
 370
13
 100
AcDbLine
   6
CONTINUOUS
  62
1
  10
 1440.2970629060
  20
 3011.8347105836
  30
0.0
  11
 1445.1975756013
  21
 3001.2792906618
  31
0.0
   0
LINE
   5
DE
 100
AcDbEntity
   8
LEVEL001
 370
13
 100
AcDbLine
   6
CONTINUOUS
  62
1
  10
 1445.1975756013
  20
 3001.2792906618
  30
0.0
  11
 1568.7821703279
  21
 3001.2792906618
  31
0.0
   0
ARC
   5
DF
 100
AcDbEntity
   8
LEVEL001
 370
13
   6
CONTINUOUS
  62
1
 100
AcDbCircle
  10
 1464.5714869747
  20
 2977.2487445000
  30
0.0
  40
 31.206602096558
 100
AcDbArc
  50
 246.86715997187
  51
 289.54649732736
   0
LINE
   5
E0
 100
AcDbEntity
   8
LEVEL001
 370
13
 100
AcDbLine
   6
CONTINUOUS
  62
1
  10
 1475.0123339021
  20
 2977.1962828492
  30
0.0
  11
 1475.0123339021
  21
 2983.6525816774
  31
0.0
   0
LINE
   5
E1
 100
AcDbEntity
   8
LEVEL001
 370
13
 100
AcDbLine
   6
CONTINUOUS
  62
1
  10
 1475.0123339021
  20
 2983.6525816774
  30
0.0
  11
 1531.5814867341
  21
 2983.6525816774
  31
0.0
   0
LINE
   5
E2
 100
AcDbEntity
   8
LEVEL001
 370
13
 100
AcDbLine
   6
CONTINUOUS
  62
1
  10
 1531.5814867341
  20
 2977.1962828492
  30
0.0
  11
 1475.0123339021
  21
 2977.1962828492
  31
0.0
   0
LINE
   5
E3
 100
AcDbEntity
   8
LEVEL001
 370
13
 100
AcDbLine
   6
CONTINUOUS
  62
1
  10
 1531.5814867341
  20
 2991.9533629274
  30
0.0
  11
 1475.0123339021
  21
 2991.9533629274
  31
0.0
   0
LINE
   5
E4
 100
AcDbEntity
   8
LEVEL001
 370
13
 100
AcDbLine
   6
CONTINUOUS
  62
1
  10
 1475.0123339021
  20
 2991.9533629274
  30
0.0
  11
 1475.0123339021
  21
 2993.6957945680
  31
0.0
   0
LINE
   5
E5
 100
AcDbEntity
   8
LEVEL001
 370
13
 100
AcDbLine
   6
CONTINUOUS
  62
1
  10
 1475.0123339021
  20
 2993.6957945680
  30
0.0
  11
 1452.3643236482
  21
 2998.3071226930
  31
0.0
   0
LINE
   5
E6
 100
AcDbEntity
   8
LEVEL001
 370
13
 100
AcDbLine
   6
CONTINUOUS
  62
1
  10
 1452.3643236482
  20
 2998.3071226930
  30
0.0
  11
 1452.3115282380
  21
 2948.5512633180
  31
0.0
   0
LINE
   5
E7
 100
AcDbEntity
   8
LEVEL001
 370
13
 100
AcDbLine
   6
CONTINUOUS
  62
1
  10
 1475.0123339021
  20
 2961.2092223024
  30
0.0
  11
 1475.0123339021
  21
 2968.0720152712
  31
0.0
   0
LINE
   5
E8
 100
AcDbEntity
   8
LEVEL001
 370
13
 100
AcDbLine
   6
CONTINUOUS
  62
1
  10
 1475.0123339021
  20
 2968.0720152712
  30
0.0
  11
 1531.5814867341
  21
 2968.0720152712
  31
0.0
   0
LINE
   5
E9
 100
AcDbEntity
   8
LEVEL001
 370
13
 100
AcDbLine
   6
CONTINUOUS
  62
1
  10
 1531.5814867341
  20
 2961.2092223024
  30
0.0
  11
 1475.0123339021
  21
 2961.2092223024
  31
0.0
   0
LINE
   5
EA
 100
AcDbEntity
   8
LEVEL001
 370
13
 100
AcDbLine
   6
CONTINUOUS
  62
1
  10
 1475.0123339021
  20
 2947.8405699586
  30
0.0
  11
 1475.0123339021
  21
 2952.6010680056
  31
0.0
   0
LINE
   5
EB
 100
AcDbEntity
   8
LEVEL001
 370
13
 100
AcDbLine
   6
CONTINUOUS
  62
1
  10
 1475.0123339021
  20
 2952.6010680056
  30
0.0
  11
 1531.5814867341
  21
 2952.6010680056
  31
0.0
   0
LINE
   5
EC
 100
AcDbEntity
   8
LEVEL001
 370
13
 100
AcDbLine
   6
CONTINUOUS
  62
1
  10
 1458.5447435701
  20
 2942.2504820680
  30
0.0
  11
 1458.0323534333
  21
 2937.1264586306
  31
0.0
   0
LINE
   5
ED
 100
AcDbEntity
   8
LEVEL001
 370
13
 100
AcDbLine
   6
CONTINUOUS
  62
1
  10
 1458.0323534333
  20
 2937.1264586306
  30
0.0
  11
 1456.0850267732
  21
 2933.5395445680
  31
0.0
   0
LINE
   5
EE
 100
AcDbEntity
   8
LEVEL001
 370
13
 100
AcDbLine
   6
CONTINUOUS
  62
1
  10
 1456.0850267732
  20
 2933.5395445680
  30
0.0
  11
 1445.0172167146
  21
 2919.8071226930
  31
0.0
   0
ARC
   5
EF
 100
AcDbEntity
   8
LEVEL001
 370
13
   6
CONTINUOUS
  62
1
 100
AcDbCircle
  10
 1453.5490353517
  20
 2914.1946951472
  30
0.0
  40
 10.212309837341
 100
AcDbArc
  50
 146.66215660278
  51
 331.70689669711
   0
ARC
   5
F0
 100
AcDbEntity
   8
LEVEL001
 370
13
   6
CONTINUOUS
  62
1
 100
AcDbCircle
  10
 1439.5613833817
  20
 2923.2532897896
  30
0.0
  40
 26.856307983398
 100
AcDbArc
  50
 328.83302933365
  51
 45.020866477525
   0
ARC
   5
F1
 100
AcDbEntity
   8
LEVEL001
 370
13
   6
CONTINUOUS
  62
1
 100
AcDbCircle
  10
 1480.6993875824
  20
 2910.3273584938
  30
0.0
  40
 6.6096000671386
 100
AcDbArc
  50
 179.99975839708
  51
 269.90651680926
   0
LINE
   5
F2
 100
AcDbEntity
   8
LEVEL001
 370
13
 100
AcDbLine
   6
CONTINUOUS
  62
1
  10
 1480.6886034333
  20
 2903.7177672242
  30
0.0
  11
 1547.6001634919
  21
 2903.7177672242
  31
0.0
   0
LINE
   5
F3
 100
AcDbEntity
   8
LEVEL001
 370
13
 100
AcDbLine
   6
CONTINUOUS
  62
1
  10
 1536.7002611482
  20
 2921.2416930056
  30
0.0
  11
 1496.8406420076
  21
 2921.2416930056
  31
0.0
   0
LINE
   5
F4
 100
AcDbEntity
   8
LEVEL001
 370
13
 100
AcDbLine
   6
CONTINUOUS
  62
1
  10
 1496.8406420076
  20
 2921.2416930056
  30
0.0
  11
 1496.8406420076
  21
 2937.1264586306
  31
0.0
   0
LINE
   5
F5
 100
AcDbEntity
   8
LEVEL001
 370
13
 100
AcDbLine
   6
CONTINUOUS
  62
1
  10
 1496.8406420076
  20
 2937.1264586306
  30
0.0
  11
 1498.8902025544
  21
 2940.0983824586
  31
0.0
   0
LINE
   5
F6
 100
AcDbEntity
   8
LEVEL001
 370
13
 100
AcDbLine
   6
CONTINUOUS
  62
1
  10
 1497.0457201326
  20
 2942.2504820680
  30
0.0
  11
 1474.0897875154
  21
 2945.3247008180
  31
0.0
   0
LINE
   5
F7
 100
AcDbEntity
   8
LEVEL001
 370
13
 100
AcDbLine
   6
CONTINUOUS
  62
1
  10
 1474.0897875154
  20
 2945.3247008180
  30
0.0
  11
 1474.0897875154
  21
 2910.3273863650
  31
0.0
   0
LINE
   5
F8
 100
AcDbEntity
   8
LEVEL001
 370
13
 100
AcDbLine
   6
CONTINUOUS
  62
1
  10
 1431.5624437654
  20
 3196.1542906618
  30
0.0
  11
 1446.4695482576
  21
 3193.8251890992
  31
0.0
   0
LINE
   5
F9
 100
AcDbEntity
   8
LEVEL001
 370
13
 100
AcDbLine
   6
CONTINUOUS
  62
1
  10
 1452.6182298982
  20
 3161.8513121462
  30
0.0
  11
 1431.5624437654
  21
 3194.1047301150
  31
0.0
   0
LINE
   5
FA
 100
AcDbEntity
   8
LEVEL001
 370
13
 100
AcDbLine
   6
CONTINUOUS
  62
1
  10
 1530.1959886872
  20
 3236.7646422242
  30
0.0
  11
 1501.2965135896
  21
 3241.2736754274
  31
0.0
   0
LINE
   5
FB
 100
AcDbEntity
   8
LEVEL001
 370
13
 100
AcDbLine
   6
CONTINUOUS
  62
1
  10
 1501.2965135896
  20
 3241.2736754274
  30
0.0
  11
 1501.2965135896
  21
 3216.7809996462
  31
0.0
   0
LINE
   5
FC
 100
AcDbEntity
   8
LEVEL001
 370
13
 100
AcDbLine
   6
CONTINUOUS
  62
1
  10
 1501.2965135896
  20
 3205.8154234742
  30
0.0
  11
 1501.2965135896
  21
 3175.2761168336
  31
0.0
   0
LINE
   5
FD
 100
AcDbEntity
   8
LEVEL001
 370
13
 100
AcDbLine
   6
CONTINUOUS
  62
1
  10
 1501.2965135896
  20
 3163.1835875368
  30
0.0
  11
 1501.2965135896
  21
 3118.2971129274
  31
0.0
   0
ARC
   5
FE
 100
AcDbEntity
   8
LEVEL001
 370
13
   6
CONTINUOUS
  62
1
 100
AcDbCircle
  10
 1504.2909112765
  20
 2908.9622111210
  30
0.0
  40
 37.929008483886
 100
AcDbArc
  50
 46.131357984443
  51
 92.247049960182
   0
LINE
   5
FF
 100
AcDbEntity
   8
LEVEL001
 370
13
 100
AcDbLine
   6
CONTINUOUS
  62
1
  10
 1498.8902025544
  20
 2940.0983824586
  30
0.0
  11
 1497.0457201326
  21
 2942.2504820680
  31
0.0
   0
LINE
   5
100
 100
AcDbEntity
   8
LEVEL001
 370
13
 100
AcDbLine
   6
CONTINUOUS
  62
1
  10
 1516.9459276521
  20
 2925.5458922242
  30
0.0
  11
 1502.8037767732
  21
 2946.8620543336
  31
0.0
   0
ARC
   5
101
 100
AcDbEntity
   8
LEVEL001
 370
13
   6
CONTINUOUS
  62
1
 100
AcDbCircle
  10
 1559.3958723137
  20
 3168.2295479954
  30
0.0
  40
 5.0631766319274
 100
AcDbArc
  50
 274.72625926491
  51
 43.105627832234
   0
ARC
   5
102
 100
AcDbEntity
   8
LEVEL001
 370
13
   6
CONTINUOUS
  62
1
 100
AcDbCircle
  10
 1563.0356105260
  20
 3211.3785195044
  30
0.0
  40
 5.5826339721680
 100
AcDbArc
  50
 274.79495132882
  51
 36.912748479784
   0
LINE
   5
103
 100
AcDbEntity
   8
LEVEL001
 370
13
 100
AcDbLine
   6
CONTINUOUS
  62
1
  10
 1563.0924730622
  20
 3171.6894469118
  30
0.0
  11
 1546.6953783357
  21
 3184.7045836306
  31
0.0
   0
LINE
   5
104
 100
AcDbEntity
   8
LEVEL001
 370
13
 100
AcDbLine
   6
CONTINUOUS
  62
1
  10
 1546.6953783357
  20
 3184.7045836306
  30
0.0
  11
 1539.1117601716
  21
 3175.2761168336
  31
0.0
   0
LINE
   5
105
 100
AcDbEntity
   8
LEVEL001
 370
13
 100
AcDbLine
   6
CONTINUOUS
  62
1
  10
 1539.1117601716
  20
 3175.2761168336
  30
0.0
  11
 1526.3017015779
  21
 3175.2761168336
  31
0.0
   0
LINE
   5
106
 100
AcDbEntity
   8
LEVEL001
 370
13
 100
AcDbLine
   6
CONTINUOUS
  62
1
  10
 1526.3017015779
  20
 3175.2761168336
  30
0.0
  11
 1526.3017015779
  21
 3205.8154234742
  31
0.0
   0
LINE
   5
107
 100
AcDbEntity
   8
LEVEL001
 370
13
 100
AcDbLine
   6
CONTINUOUS
  62
1
  10
 1526.3017015779
  20
 3205.8154234742
  30
0.0
  11
 1563.5022631013
  21
 3205.8154234742
  31
0.0
   0
LINE
   5
108
 100
AcDbEntity
   8
LEVEL001
 370
13
 100
AcDbLine
   6
CONTINUOUS
  62
1
  10
 1567.4992113435
  20
 3214.7314390992
  30
0.0
  11
 1553.6640062654
  21
 3226.8239683962
  31
0.0
   0
LINE
   5
109
 100
AcDbEntity
   8
LEVEL001
 370
13
 100
AcDbLine
   6
CONTINUOUS
  62
1
  10
 1553.6640062654
  20
 3226.8239683962
  30
0.0
  11
 1541.7765550935
  21
 3216.7809996462
  31
0.0
   0
LINE
   5
10A
 100
AcDbEntity
   8
LEVEL001
 370
13
 100
AcDbLine
   6
CONTINUOUS
  62
1
  10
 1541.7765550935
  20
 3216.7809996462
  30
0.0
  11
 1526.3017015779
  21
 3216.7809996462
  31
0.0
   0
LINE
   5
10B
 100
AcDbEntity
   8
LEVEL001
 370
13
 100
AcDbLine
   6
CONTINUOUS
  62
1
  10
 1526.3017015779
  20
 3216.7809996462
  30
0.0
  11
 1526.3017015779
  21
 3232.2553648806
  31
0.0
   0
LINE
   5
10C
 100
AcDbEntity
   8
LEVEL001
 370
13
 100
AcDbLine
   6
CONTINUOUS
  62
1
  10
 1526.3017015779
  20
 3232.2553648806
  30
0.0
  11
 1529.8887377107
  21
 3234.1000914430
  31
0.0
   0
LINE
   5
10D
 100
AcDbEntity
   8
LEVEL001
 370
13
 100
AcDbLine
   6
CONTINUOUS
  62
1
  10
 1529.8887377107
  20
 3234.1000914430
  30
0.0
  11
 1530.1959886872
  21
 3236.7646422242
  31
0.0
   0
LINE
   5
10E
 100
AcDbEntity
   8
LEVEL001
 370
13
 100
AcDbLine
   6
CONTINUOUS
  62
1
  10
 1568.0741625154
  20
 3117.7270445680
  30
0.0
  11
 1552.7417650544
  21
 3127.8278746462
  31
0.0
   0
LINE
   5
10F
 100
AcDbEntity
   8
LEVEL001
 370
13
 100
AcDbLine
   6
CONTINUOUS
  62
1
  10
 1552.7417650544
  20
 3127.8278746462
  30
0.0
  11
 1544.8508959138
  21
 3118.2971129274
  31
0.0
   0
LINE
   5
110
 100
AcDbEntity
   8
LEVEL001
 370
13
 100
AcDbLine
   6
CONTINUOUS
  62
1
  10
 1544.8508959138
  20
 3118.2971129274
  30
0.0
  11
 1526.3017015779
  21
 3118.2971129274
  31
0.0
   0
LINE
   5
111
 100
AcDbEntity
   8
LEVEL001
 370
13
 100
AcDbLine
   6
CONTINUOUS
  62
1
  10
 1526.3017015779
  20
 3118.2971129274
  30
0.0
  11
 1526.3017015779
  21
 3163.1835875368
  31
0.0
   0
LINE
   5
112
 100
AcDbEntity
   8
LEVEL001
 370
13
 100
AcDbLine
   6
CONTINUOUS
  62
1
  10
 1526.3017015779
  20
 3163.1835875368
  30
0.0
  11
 1559.8130541169
  21
 3163.1835875368
  31
0.0
   0
ARC
   5
113
 100
AcDbEntity
   8
LEVEL001
 370
13
   6
CONTINUOUS
  62
1
 100
AcDbCircle
  10
 1564.6198678387
  20
 3112.4834589746
  30
0.0
  40
 6.2791194915772
 100
AcDbArc
  50
 269.99730665616
  51
 56.624475922383
   0
ARC
   5
114
 100
AcDbEntity
   8
LEVEL001
 370
13
   6
CONTINUOUS
  62
1
 100
AcDbCircle
  10
 1568.3925883230
  20
 3006.0148237770
  30
0.0
  40
 4.7515311241150
 100
AcDbArc
  50
 274.70300820748
  51
 59.113555838216
   0
LINE
   5
115
 100
AcDbEntity
   8
LEVEL001
 370
13
 100
AcDbLine
   6
CONTINUOUS
  62
1
  10
 1510.4704027497
  20
 3011.8347105836
  30
0.0
  11
 1520.9235887849
  21
 3027.5143980836
  31
0.0
   0
ARC
   5
116
 100
AcDbEntity
   8
LEVEL001
 370
13
   6
CONTINUOUS
  62
1
 100
AcDbCircle
  10
 1558.9512619020
  20
 3032.6705717986
  30
0.0
  40
 5.1561789512634
 100
AcDbArc
  50
 269.91834398461
  51
 52.069476722723
   0
LINE
   5
117
 100
AcDbEntity
   8
LEVEL001
 370
13
 100
AcDbLine
   6
CONTINUOUS
  62
1
  10
 1570.8317308747
  20
 3010.0925230836
  30
0.0
  11
 1552.8977709138
  21
 3020.5456480836
  31
0.0
   0
LINE
   5
118
 100
AcDbEntity
   8
LEVEL001
 370
13
 100
AcDbLine
   6
CONTINUOUS
  62
1
  10
 1552.8977709138
  20
 3020.5456480836
  30
0.0
  11
 1546.3389330232
  21
 3011.8347105836
  31
0.0
   0
LINE
   5
119
 100
AcDbEntity
   8
LEVEL001
 370
13
 100
AcDbLine
   6
CONTINUOUS
  62
1
  10
 1546.3389330232
  20
 3011.8347105836
  30
0.0
  11
 1530.5900316560
  21
 3011.8347105836
  31
0.0
   0
LINE
   5
11A
 100
AcDbEntity
   8
LEVEL001
 370
13
 100
AcDbLine
   6
CONTINUOUS
  62
1
  10
 1530.5900316560
  20
 3011.8347105836
  30
0.0
  11
 1539.6775560701
  21
 3020.0331969118
  31
0.0
   0
LINE
   5
11B
 100
AcDbEntity
   8
LEVEL001
 370
13
 100
AcDbLine
   6
CONTINUOUS
  62
1
  10
 1539.6775560701
  20
 3020.0331969118
  30
0.0
  11
 1543.4693041169
  21
 3020.5456480836
  31
0.0
   0
LINE
   5
11C
 100
AcDbEntity
   8
LEVEL001
 370
13
 100
AcDbLine
   6
CONTINUOUS
  62
1
  10
 1543.4693041169
  20
 3020.5456480836
  30
0.0
  11
 1545.1090746247
  21
 3022.9025816774
  31
0.0
   0
LINE
   5
11D
 100
AcDbEntity
   8
LEVEL001
 370
13
 100
AcDbLine
   6
CONTINUOUS
  62
1
  10
 1545.1090746247
  20
 3022.9025816774
  30
0.0
  11
 1542.4445238435
  21
 3027.5143980836
  31
0.0
   0
LINE
   5
11E
 100
AcDbEntity
   8
LEVEL001
 370
13
 100
AcDbLine
   6
CONTINUOUS
  62
1
  10
 1542.4445238435
  20
 3027.5143980836
  30
0.0
  11
 1558.9439134919
  21
 3027.5143980836
  31
0.0
   0
LINE
   5
11F
 100
AcDbEntity
   8
LEVEL001
 370
13
 100
AcDbLine
   6
CONTINUOUS
  62
1
  10
 1562.1207933747
  20
 3036.7375426150
  30
0.0
  11
 1543.4693041169
  21
 3046.9855894900
  31
0.0
   0
LINE
   5
120
 100
AcDbEntity
   8
LEVEL001
 370
13
 100
AcDbLine
   6
CONTINUOUS
  62
1
  10
 1543.4693041169
  20
 3046.9855894900
  30
0.0
  11
 1537.3203783357
  21
 3037.4548277712
  31
0.0
   0
LINE
   5
121
 100
AcDbEntity
   8
LEVEL001
 370
13
 100
AcDbLine
   6
CONTINUOUS
  62
1
  10
 1537.3203783357
  20
 3037.4548277712
  30
0.0
  11
 1515.9019213044
  21
 3037.4548277712
  31
0.0
   0
LINE
   5
122
 100
AcDbEntity
   8
LEVEL001
 370
13
 100
AcDbLine
   6
CONTINUOUS
  62
1
  10
 1531.5814867341
  20
 2983.6525816774
  30
0.0
  11
 1531.5814867341
  21
 2977.1962828492
  31
0.0
   0
LINE
   5
123
 100
AcDbEntity
   8
LEVEL001
 370
13
 100
AcDbLine
   6
CONTINUOUS
  62
1
  10
 1558.1242113435
  20
 2990.6213316774
  30
0.0
  11
 1538.1403246247
  21
 2999.6396422242
  31
0.0
   0
LINE
   5
124
 100
AcDbEntity
   8
LEVEL001
 370
13
 100
AcDbLine
   6
CONTINUOUS
  62
1
  10
 1538.1403246247
  20
 2999.6396422242
  30
0.0
  11
 1531.5814867341
  21
 2991.9533629274
  31
0.0
   0
LINE
   5
125
 100
AcDbEntity
   8
LEVEL001
 370
13
 100
AcDbLine
   6
CONTINUOUS
  62
1
  10
 1531.5814867341
  20
 2968.0720152712
  30
0.0
  11
 1531.5814867341
  21
 2961.2092223024
  31
0.0
   0
ARC
   5
126
 100
AcDbEntity
   8
LEVEL001
 370
13
   6
CONTINUOUS
  62
1
 100
AcDbCircle
  10
 1554.6252838156
  20
 2988.0091744630
  30
0.0
  40
 4.3664469718934
 100
AcDbArc
  50
 266.14995656848
  51
 36.743524531019
   0
LINE
   5
127
 100
AcDbEntity
   8
LEVEL001
 370
13
 100
AcDbLine
   6
CONTINUOUS
  62
1
  10
 1531.5814867341
  20
 2952.6010680056
  30
0.0
  11
 1531.5814867341
  21
 2947.6818785524
  31
0.0
   0
LINE
   5
128
 100
AcDbEntity
   8
LEVEL001
 370
13
 100
AcDbLine
   6
CONTINUOUS
  62
1
  10
 1531.5814867341
  20
 2947.6818785524
  30
0.0
  11
 1548.4910326326
  21
 2947.6818785524
  31
0.0
   0
LINE
   5
129
 100
AcDbEntity
   8
LEVEL001
 370
13
 100
AcDbLine
   6
CONTINUOUS
  62
1
  10
 1548.4910326326
  20
 2947.6818785524
  30
0.0
  11
 1552.1799974763
  21
 2949.7314390992
  31
0.0
   0
LINE
   5
12A
 100
AcDbEntity
   8
LEVEL001
 370
13
 100
AcDbLine
   6
CONTINUOUS
  62
1
  10
 1552.1799974763
  20
 2949.7314390992
  30
0.0
  11
 1554.3320970857
  21
 2954.1381773806
  31
0.0
   0
LINE
   5
12B
 100
AcDbEntity
   8
LEVEL001
 370
13
 100
AcDbLine
   6
CONTINUOUS
  62
1
  10
 1554.3320970857
  20
 2954.1381773806
  30
0.0
  11
 1554.3253832185
  21
 2983.6525816774
  31
0.0
   0
LINE
   5
12C
 100
AcDbEntity
   8
LEVEL001
 370
13
 100
AcDbLine
   6
CONTINUOUS
  62
1
  10
 1542.1690111482
  20
 2945.0173277712
  30
0.0
  11
 1555.5936937654
  21
 2922.6767515992
  31
0.0
   0
ARC
   5
12D
 100
AcDbEntity
   8
LEVEL001
 370
13
   6
CONTINUOUS
  62
1
 100
AcDbCircle
  10
 1547.9016328777
  20
 2912.5010949256
  30
0.0
  40
 8.7884998321534
 100
AcDbArc
  50
 268.03421368566
  51
 95.984851979608
   0
LINE
   5
12E
 100
AcDbEntity
   8
LEVEL001
 370
13
 100
AcDbLine
   6
CONTINUOUS
  62
1
  10
 1546.9852953279
  20
 2921.2416930056
  30
0.0
  11
 1539.6067552888
  21
 2939.6884703492
  31
0.0
   0
LINE
   5
12F
 100
AcDbEntity
   8
LEVEL001
 370
13
 100
AcDbLine
   6
CONTINUOUS
  62
1
  10
 1539.6067552888
  20
 2939.6884703492
  30
0.0
  11
 1539.4016771638
  21
 2929.4404234742
  31
0.0
   0
LINE
   5
130
 100
AcDbEntity
   8
LEVEL001
 370
13
 100
AcDbLine
   6
CONTINUOUS
  62
1
  10
 1539.4016771638
  20
 2929.4404234742
  30
0.0
  11
 1536.7002611482
  21
 2921.2416930056
  31
0.0
   0
ARC
   5
131
 100
AcDbEntity
   8
LEVEL001
 370
13
   6
CONTINUOUS
  62
1
 100
AcDbCircle
  10
 1521.8262800827
  20
 2933.2653756470
  30
0.0
  40
 9.1328125000000
 100
AcDbArc
  50
 237.69842193839
  51
 18.768745074031
   0
ARC
   5
132
 100
AcDbEntity
   8
LEVEL001
 370
13
   6
CONTINUOUS
  62
1
 100
AcDbCircle
  10
 1561.3862306484
  20
 2929.4850295734
  30
0.0
  40
 8.9390230178834
 100
AcDbArc
  50
 229.60859987453
  51
 6.7921555436508
   0
ARC
   5
133
 100
AcDbEntity
   8
LEVEL001
 370
13
   6
CONTINUOUS
  62
1
 100
AcDbCircle
  10
 1546.0774446376
  20
 2918.4536373940
  30
0.0
  40
 27.037969589234
 100
AcDbArc
  50
 26.557576861274
  51
 98.091890389853
   0
LINE
   5
134
 100
AcDbEntity
   8
LEVEL001
 370
13
 100
AcDbLine
   6
CONTINUOUS
  62
1
  10
 1515.9019213044
  20
 3037.4548277712
  30
0.0
  11
 1515.9019213044
  21
 3043.8085875368
  31
0.0
   0
LINE
   5
135
 100
AcDbEntity
   8
LEVEL001
 370
13
 100
AcDbLine
   6
CONTINUOUS
  62
1
  10
 1515.9019213044
  20
 3043.8085875368
  30
0.0
  11
 1518.0265550935
  21
 3047.5065855836
  31
0.0
   0
LINE
   5
136
 100
AcDbEntity
   8
LEVEL001
 370
13
 100
AcDbLine
   6
CONTINUOUS
  62
1
  10
 1518.0265550935
  20
 3047.5065855836
  30
0.0
  11
 1517.2065477693
  21
 3049.2487730836
  31
0.0
   0
ENDBLK
   5
137
 100
AcDbEntity
   8
0
 100
AcDbBlockEnd
   0
BLOCK
   5
138
 100
AcDbEntity
   8
0
 100
AcDbBlockBegin
   2
*D14
  70
65
  10
0.0
  20
0.0
  30
0.0
   3
*D14
   0
LINE
   5
139
 100
AcDbEntity
   8
0
 370
13
 100
AcDbLine
   6
CONTINUOUS
  62
6
  10
 1067.2920025496
  20
 4598.0337078652
  30
0.0
  11
 1504.6348314607
  21
 4850.5337078652
  31
0.0
   0
LINE
   5
13A
 100
AcDbEntity
   8
0
 370
13
 100
AcDbLine
   6
CONTINUOUS
  62
6
  10
 1504.6348314607
  20
 4850.5337078652
  30
0.0
  11
 1941.9776603719
  21
 5103.0337078651
  31
0.0
   0
INSERT
   5
13B
 100
AcDbEntity
   8
0
   6
CONTINUOUS
  62
6
 100
AcDbBlockReference
   2
_OPEN
  10
 1067.2920025496
  20
 4598.0337078652
  30
0.0
  41
 42.000000000000
  42
 42.000000000000
  43
 42.000000000000
  50
 210.00000000000
   0
INSERT
   5
13C
 100
AcDbEntity
   8
0
   6
CONTINUOUS
  62
6
 100
AcDbBlockReference
   2
_OPEN
  10
 1941.9776603719
  20
 5103.0337078651
  30
0.0
  41
 42.000000000000
  42
 42.000000000000
  43
 42.000000000000
  50
 29.999999999997
   0
MTEXT
   5
13D
 100
AcDbEntity
   8
0
 370
13
  62
1
 100
AcDbMText
  10
 1491.7776886036
  20
 4872.8029325339
  30
0.0
  40
 60.000000000000
  41
0.0
  71
8
  72
1
   1
\A1;%%c1000
   7
GMM002
  11
 0.86602540378446
  21
 0.49999999999996
  31
0.0
   0
ENDBLK
   5
13E
 100
AcDbEntity
   8
0
 100
AcDbBlockEnd
   0
BLOCK
   5
13F
 100
AcDbEntity
   8
0
 100
AcDbBlockBegin
   2
*D15
  70
65
  10
0.0
  20
0.0
  30
0.0
   3
*D15
   0
LINE
   5
140
 100
AcDbEntity
   8
0
 370
13
 100
AcDbLine
   6
CONTINUOUS
  62
6
  10
 1224.6348314607
  20
 718.03370786517
  30
0.0
  11
 574.63483146067
  21
 718.03370786517
  31
0.0
   0
LINE
   5
141
 100
AcDbEntity
   8
0
 370
13
 100
AcDbLine
   6
CONTINUOUS
  62
6
  10
 1224.6348314607
  20
 618.03370786517
  30
0.0
  11
 574.63483146067
  21
 618.03370786517
  31
0.0
   0
LINE
   5
142
 100
AcDbEntity
   8
0
 370
13
 100
AcDbLine
   6
CONTINUOUS
  62
6
  10
 604.63483146067
  20
 718.03370786517
  30
0.0
  11
 604.63483146067
  21
 668.03370786517
  31
0.0
   0
LINE
   5
143
 100
AcDbEntity
   8
0
 370
13
 100
AcDbLine
   6
CONTINUOUS
  62
6
  10
 604.63483146067
  20
 618.03370786517
  30
0.0
  11
 604.63483146067
  21
 668.03370786517
  31
0.0
   0
INSERT
   5
144
 100
AcDbEntity
   8
0
   6
CONTINUOUS
  62
6
 100
AcDbBlockReference
   2
_OPEN
  10
 604.63483146067
  20
 718.03370786517
  30
0.0
  41
 42.000000000000
  42
 42.000000000000
  43
 42.000000000000
  50
 90.000000000000
   0
INSERT
   5
145
 100
AcDbEntity
   8
0
   6
CONTINUOUS
  62
6
 100
AcDbBlockReference
   2
_OPEN
  10
 604.63483146067
  20
 618.03370786517
  30
0.0
  41
 42.000000000000
  42
 42.000000000000
  43
 42.000000000000
  50
 270.00000000000
   0
MTEXT
   5
146
 100
AcDbEntity
   8
0
 370
13
  62
1
 100
AcDbMText
  10
 578.92054574639
  20
 668.03370786517
  30
0.0
  40
 60.000000000000
  41
0.0
  71
8
  72
1
   1
\A1;100
   7
GMM002
  11
0.0
  21
 1.0000000000000
  31
0.0
   0
ENDBLK
   5
147
 100
AcDbEntity
   8
0
 100
AcDbBlockEnd
   0
BLOCK
   5
148
 100
AcDbEntity
   8
0
 100
AcDbBlockBegin
   2
*D16
  70
65
  10
0.0
  20
0.0
  30
0.0
   3
*D16
   0
LINE
   5
149
 100
AcDbEntity
   8
0
 370
13
 100
AcDbLine
   6
CONTINUOUS
  62
6
  10
 1224.6348314607
  20
 718.03370786517
  30
0.0
  11
 574.63483146067
  21
 718.03370786517
  31
0.0
   0
LINE
   5
14A
 100
AcDbEntity
   8
0
 370
13
 100
AcDbLine
   6
CONTINUOUS
  62
6
  10
 974.63483146067
  20
 1818.0337078651
  30
0.0
  11
 574.63483146067
  21
 1818.0337078651
  31
0.0
   0
LINE
   5
14B
 100
AcDbEntity
   8
0
 370
13
 100
AcDbLine
   6
CONTINUOUS
  62
6
  10
 604.63483146067
  20
 718.03370786517
  30
0.0
  11
 604.63483146067
  21
 1268.0337078652
  31
0.0
   0
LINE
   5
14C
 100
AcDbEntity
   8
0
 370
13
 100
AcDbLine
   6
CONTINUOUS
  62
6
  10
 604.63483146067
  20
 1818.0337078651
  30
0.0
  11
 604.63483146067
  21
 1268.0337078652
  31
0.0
   0
INSERT
   5
14D
 100
AcDbEntity
   8
0
   6
CONTINUOUS
  62
6
 100
AcDbBlockReference
   2
_OPEN
  10
 604.63483146067
  20
 718.03370786517
  30
0.0
  41
 42.000000000000
  42
 42.000000000000
  43
 42.000000000000
  50
 270.00000000000
   0
INSERT
   5
14E
 100
AcDbEntity
   8
0
   6
CONTINUOUS
  62
6
 100
AcDbBlockReference
   2
_OPEN
  10
 604.63483146067
  20
 1818.0337078651
  30
0.0
  41
 42.000000000000
  42
 42.000000000000
  43
 42.000000000000
  50
 90.000000000000
   0
MTEXT
   5
14F
 100
AcDbEntity
   8
0
 370
13
  62
1
 100
AcDbMText
  10
 578.92054574639
  20
 1268.0337078652
  30
0.0
  40
 60.000000000000
  41
0.0
  71
8
  72
1
   1
\A1;1100
   7
GMM002
  11
0.0
  21
 1.0000000000000
  31
0.0
   0
ENDBLK
   5
150
 100
AcDbEntity
   8
0
 100
AcDbBlockEnd
   0
BLOCK
   5
151
 100
AcDbEntity
   8
0
 100
AcDbBlockBegin
   2
*D17
  70
65
  10
0.0
  20
0.0
  30
0.0
   3
*D17
   0
LINE
   5
152
 100
AcDbEntity
   8
0
 370
13
 100
AcDbLine
   6
CONTINUOUS
  62
6
  10
 1254.6348314607
  20
 588.03370786517
  30
0.0
  11
 1254.6348314607
  21
 388.03370786517
  31
0.0
   0
LINE
   5
153
 100
AcDbEntity
   8
0
 370
13
 100
AcDbLine
   6
CONTINUOUS
  62
6
  10
 1754.6348314607
  20
 588.03370786517
  30
0.0
  11
 1754.6348314607
  21
 388.03370786517
  31
0.0
   0
LINE
   5
154
 100
AcDbEntity
   8
0
 370
13
 100
AcDbLine
   6
CONTINUOUS
  62
6
  10
 1254.6348314607
  20
 418.03370786517
  30
0.0
  11
 1504.6348314607
  21
 418.03370786517
  31
0.0
   0
LINE
   5
155
 100
AcDbEntity
   8
0
 370
13
 100
AcDbLine
   6
CONTINUOUS
  62
6
  10
 1754.6348314607
  20
 418.03370786517
  30
0.0
  11
 1504.6348314607
  21
 418.03370786517
  31
0.0
   0
INSERT
   5
156
 100
AcDbEntity
   8
0
   6
CONTINUOUS
  62
6
 100
AcDbBlockReference
   2
_OPEN
  10
 1254.6348314607
  20
 418.03370786517
  30
0.0
  41
 42.000000000000
  42
 42.000000000000
  43
 42.000000000000
  50
 180.00000000000
   0
INSERT
   5
157
 100
AcDbEntity
   8
0
   6
CONTINUOUS
  62
6
 100
AcDbBlockReference
   2
_OPEN
  10
 1754.6348314607
  20
 418.03370786517
  30
0.0
  41
 42.000000000000
  42
 42.000000000000
  43
 42.000000000000
  50
0.0
   0
MTEXT
   5
158
 100
AcDbEntity
   8
0
 370
13
  62
1
 100
AcDbMText
  10
 1504.6348314607
  20
 443.74799357946
  30
0.0
  40
 60.000000000000
  41
0.0
  71
8
  72
1
   1
\A1;□500
   7
GMM002
   0
ENDBLK
   5
159
 100
AcDbEntity
   8
0
 100
AcDbBlockEnd
   0
BLOCK
   5
15A
 100
AcDbEntity
   8
0
 100
AcDbBlockBegin
   2
*D18
  70
65
  10
0.0
  20
0.0
  30
0.0
   3
*D18
   0
LINE
   5
15B
 100
AcDbEntity
   8
0
 370
13
 100
AcDbLine
   6
CONTINUOUS
  62
6
  10
 3004.6348314607
  20
 3988.0337078632
  30
0.0
  11
 3004.6348314607
  21
 2588.0337078652
  31
0.0
   0
LINE
   5
15C
 100
AcDbEntity
   8
0
 370
13
 100
AcDbLine
   6
CONTINUOUS
  62
6
  10
 3004.6348314607
  20
 2618.0337078652
  30
0.0
  11
 2804.6348314607
  21
 2618.0337078652
  31
0.0
   0
LINE
   5
15D
 100
AcDbEntity
   8
0
 370
13
 100
AcDbLine
   6
CONTINUOUS
  62
6
  10
 2604.6348314607
  20
 2618.0337078652
  30
0.0
  11
 2804.6348314607
  21
 2618.0337078652
  31
0.0
   0
INSERT
   5
15E
 100
AcDbEntity
   8
0
   6
CONTINUOUS
  62
6
 100
AcDbBlockReference
   2
_OPEN
  10
 3004.6348314607
  20
 2618.0337078652
  30
0.0
  41
 42.000000000000
  42
 42.000000000000
  43
 42.000000000000
  50
0.0
   0
INSERT
   5
15F
 100
AcDbEntity
   8
0
   6
CONTINUOUS
  62
6
 100
AcDbBlockReference
   2
_OPEN
  10
 2604.6348314607
  20
 2618.0337078652
  30
0.0
  41
 42.000000000000
  42
 42.000000000000
  43
 42.000000000000
  50
 180.00000000000
   0
MTEXT
   5
160
 100
AcDbEntity
   8
0
 370
13
  62
1
 100
AcDbMText
  10
 2804.6348314607
  20
 2643.7479935795
  30
0.0
  40
 60.000000000000
  41
0.0
  71
8
  72
1
   1
\A1;400
   7
GMM002
   0
ENDBLK
   5
161
 100
AcDbEntity
   8
0
 100
AcDbBlockEnd
   0
BLOCK
   5
162
 100
AcDbEntity
   8
0
 100
AcDbBlockBegin
   2
*D19
  70
65
  10
0.0
  20
0.0
  30
0.0
   3
*D19
   0
LINE
   5
163
 100
AcDbEntity
   8
0
 370
13
 100
AcDbLine
   6
CONTINUOUS
  62
6
  10
 1430.0848436677
  20
 4318.0337078652
  30
0.0
  11
 574.63483146067
  21
 4318.0337078652
  31
0.0
   0
LINE
   5
164
 100
AcDbEntity
   8
0
 370
13
 100
AcDbLine
   6
CONTINUOUS
  62
6
  10
 974.63483146067
  20
 1818.0337078651
  30
0.0
  11
 574.63483146067
  21
 1818.0337078651
  31
0.0
   0
LINE
   5
165
 100
AcDbEntity
   8
0
 370
13
 100
AcDbLine
   6
CONTINUOUS
  62
6
  10
 604.63483146067
  20
 4318.0337078652
  30
0.0
  11
 604.63483146067
  21
 3068.0337078652
  31
0.0
   0
LINE
   5
166
 100
AcDbEntity
   8
0
 370
13
 100
AcDbLine
   6
CONTINUOUS
  62
6
  10
 604.63483146067
  20
 1818.0337078651
  30
0.0
  11
 604.63483146067
  21
 3068.0337078652
  31
0.0
   0
INSERT
   5
167
 100
AcDbEntity
   8
0
   6
CONTINUOUS
  62
6
 100
AcDbBlockReference
   2
_OPEN
  10
 604.63483146067
  20
 4318.0337078652
  30
0.0
  41
 42.000000000000
  42
 42.000000000000
  43
 42.000000000000
  50
 90.000000000000
   0
INSERT
   5
168
 100
AcDbEntity
   8
0
   6
CONTINUOUS
  62
6
 100
AcDbBlockReference
   2
_OPEN
  10
 604.63483146067
  20
 1818.0337078651
  30
0.0
  41
 42.000000000000
  42
 42.000000000000
  43
 42.000000000000
  50
 270.00000000000
   0
MTEXT
   5
169
 100
AcDbEntity
   8
0
 370
13
  62
1
 100
AcDbMText
  10
 578.92054574639
  20
 3068.0337078652
  30
0.0
  40
 60.000000000000
  41
0.0
  71
8
  72
1
   1
\A1;2500(標準設置高さ)
   7
GMM002
  11
0.0
  21
 1.0000000000000
  31
0.0
   0
ENDBLK
   5
16A
 100
AcDbEntity
   8
0
 100
AcDbBlockEnd
   0
BLOCK
   5
16B
 100
AcDbEntity
   8
0
 100
AcDbBlockBegin
   2
*D20
  70
65
  10
0.0
  20
0.0
  30
0.0
   3
*D20
   0
LINE
   5
16C
 100
AcDbEntity
   8
0
 370
13
 100
AcDbLine
   6
CONTINUOUS
  62
6
  10
 2354.6348314607
  20
 588.03370786517
  30
0.0
  11
 2354.6348314607
  21
 388.03370786517
  31
0.0
   0
LINE
   5
16D
 100
AcDbEntity
   8
0
 370
13
 100
AcDbLine
   6
CONTINUOUS
  62
6
  10
 2854.6348314607
  20
 588.03370786517
  30
0.0
  11
 2854.6348314607
  21
 388.03370786517
  31
0.0
   0
LINE
   5
16E
 100
AcDbEntity
   8
0
 370
13
 100
AcDbLine
   6
CONTINUOUS
  62
6
  10
 2354.6348314607
  20
 418.03370786517
  30
0.0
  11
 2604.6348314607
  21
 418.03370786517
  31
0.0
   0
LINE
   5
16F
 100
AcDbEntity
   8
0
 370
13
 100
AcDbLine
   6
CONTINUOUS
  62
6
  10
 2854.6348314607
  20
 418.03370786517
  30
0.0
  11
 2604.6348314607
  21
 418.03370786517
  31
0.0
   0
INSERT
   5
170
 100
AcDbEntity
   8
0
   6
CONTINUOUS
  62
6
 100
AcDbBlockReference
   2
_OPEN
  10
 2354.6348314607
  20
 418.03370786517
  30
0.0
  41
 42.000000000000
  42
 42.000000000000
  43
 42.000000000000
  50
 180.00000000000
   0
INSERT
   5
171
 100
AcDbEntity
   8
0
   6
CONTINUOUS
  62
6
 100
AcDbBlockReference
   2
_OPEN
  10
 2854.6348314607
  20
 418.03370786517
  30
0.0
  41
 42.000000000000
  42
 42.000000000000
  43
 42.000000000000
  50
0.0
   0
MTEXT
   5
172
 100
AcDbEntity
   8
0
 370
13
  62
1
 100
AcDbMText
  10
 2604.6348314607
  20
 443.74799357946
  30
0.0
  40
 60.000000000000
  41
0.0
  71
8
  72
1
   1
\A1;□500
   7
GMM002
   0
ENDBLK
   5
173
 100
AcDbEntity
   8
0
 100
AcDbBlockEnd
   0
ENDSEC
   0
SECTION
   2
ENTITIES
   0
CIRCLE
   5
174
 100
AcDbEntity
   8
LEVEL001
 370
13
 100
AcDbCircle
   6
DASHDOT
  62
6
  10
 4804.6348314607
  20
 4850.5337078652
  30
0.0
  40
 115.00000000000
   0
ARC
   5
175
 100
AcDbEntity
   8
LEVEL001
 370
13
   6
CONTINUOUS
  62
7
 100
AcDbCircle
  10
 5239.6348314607
  20
 4850.5337078652
  30
0.0
  40
 15.000000000000
 100
AcDbArc
  50
0.0
  51
 90.000000000000
   0
ARC
   5
176
 100
AcDbEntity
   8
LEVEL001
 370
13
   6
CONTINUOUS
  62
7
 100
AcDbCircle
  10
 5239.6348314607
  20
 4850.5337078652
  30
0.0
  40
 15.000000000000
 100
AcDbArc
  50
 270.00000000000
  51
0.0
   0
ARC
   5
177
 100
AcDbEntity
   8
LEVEL001
 370
13
   6
CONTINUOUS
  62
6
 100
AcDbCircle
  10
 5239.6348314607
  20
 4850.5337078652
  30
0.0
  40
 35.000000000000
 100
AcDbArc
  50
0.0
  51
 90.000000000000
   0
ARC
   5
178
 100
AcDbEntity
   8
LEVEL001
 370
13
   6
CONTINUOUS
  62
6
 100
AcDbCircle
  10
 5239.6348314607
  20
 4850.5337078652
  30
0.0
  40
 35.000000000000
 100
AcDbArc
  50
 270.00000000000
  51
0.0
   0
ARC
   5
179
 100
AcDbEntity
   8
LEVEL001
 370
13
   6
CONTINUOUS
  62
7
 100
AcDbCircle
  10
 5022.1348314607
  20
 5227.2547585114
  30
0.0
  40
 15.000000000000
 100
AcDbArc
  50
 60.000000000005
  51
 150.00000000000
   0
ARC
   5
17A
 100
AcDbEntity
   8
LEVEL001
 370
13
   6
CONTINUOUS
  62
7
 100
AcDbCircle
  10
 5022.1348314607
  20
 5227.2547585114
  30
0.0
  40
 15.000000000000
 100
AcDbArc
  50
 330.00000000000
  51
 59.999999999994
   0
ARC
   5
17B
 100
AcDbEntity
   8
LEVEL001
 370
13
   6
CONTINUOUS
  62
6
 100
AcDbCircle
  10
 5022.1348314607
  20
 5227.2547585114
  30
0.0
  40
 35.000000000000
 100
AcDbArc
  50
 60.000000000000
  51
 150.00000000000
   0
ARC
   5
17C
 100
AcDbEntity
   8
LEVEL001
 370
13
   6
CONTINUOUS
  62
6
 100
AcDbCircle
  10
 5022.1348314607
  20
 5227.2547585114
  30
0.0
  40
 35.000000000000
 100
AcDbArc
  50
 330.00000000000
  51
 59.999999999997
   0
ARC
   5
17D
 100
AcDbEntity
   8
LEVEL001
 370
13
   6
CONTINUOUS
  62
7
 100
AcDbCircle
  10
 4587.1348314609
  20
 5227.2547585114
  30
0.0
  40
 15.000000000000
 100
AcDbArc
  50
 120.00000000000
  51
 210.00000000000
   0
ARC
   5
17E
 100
AcDbEntity
   8
LEVEL001
 370
13
   6
CONTINUOUS
  62
7
 100
AcDbCircle
  10
 4587.1348314609
  20
 5227.2547585114
  30
0.0
  40
 15.000000000000
 100
AcDbArc
  50
 30.000000000000
  51
 120.00000000000
   0
ARC
   5
17F
 100
AcDbEntity
   8
LEVEL001
 370
13
   6
CONTINUOUS
  62
6
 100
AcDbCircle
  10
 4587.1348314609
  20
 5227.2547585114
  30
0.0
  40
 35.000000000000
 100
AcDbArc
  50
 120.00000000000
  51
 210.00000000000
   0
ARC
   5
180
 100
AcDbEntity
   8
LEVEL001
 370
13
   6
CONTINUOUS
  62
6
 100
AcDbCircle
  10
 4587.1348314609
  20
 5227.2547585114
  30
0.0
  40
 35.000000000000
 100
AcDbArc
  50
 30.000000000000
  51
 120.00000000000
   0
ARC
   5
181
 100
AcDbEntity
   8
LEVEL001
 370
13
   6
CONTINUOUS
  62
7
 100
AcDbCircle
  10
 4587.1348314607
  20
 4473.8126572192
  30
0.0
  40
 15.000000000000
 100
AcDbArc
  50
 239.99999999999
  51
 330.00000000000
   0
ARC
   5
182
 100
AcDbEntity
   8
LEVEL001
 370
13
   6
CONTINUOUS
  62
7
 100
AcDbCircle
  10
 4587.1348314607
  20
 4473.8126572192
  30
0.0
  40
 15.000000000000
 100
AcDbArc
  50
 150.00000000001
  51
 240.00000000000
   0
ARC
   5
183
 100
AcDbEntity
   8
LEVEL001
 370
13
   6
CONTINUOUS
  62
6
 100
AcDbCircle
  10
 4587.1348314607
  20
 4473.8126572192
  30
0.0
  40
 35.000000000000
 100
AcDbArc
  50
 240.00000000000
  51
 330.00000000000
   0
ARC
   5
184
 100
AcDbEntity
   8
LEVEL001
 370
13
   6
CONTINUOUS
  62
6
 100
AcDbCircle
  10
 4587.1348314607
  20
 4473.8126572192
  30
0.0
  40
 35.000000000000
 100
AcDbArc
  50
 150.00000000000
  51
 240.00000000000
   0
ARC
   5
185
 100
AcDbEntity
   8
LEVEL001
 370
13
   6
CONTINUOUS
  62
7
 100
AcDbCircle
  10
 5022.1348314607
  20
 4473.8126572192
  30
0.0
  40
 15.000000000000
 100
AcDbArc
  50
 299.99999999999
  51
 29.999999999997
   0
ARC
   5
186
 100
AcDbEntity
   8
LEVEL001
 370
13
   6
CONTINUOUS
  62
7
 100
AcDbCircle
  10
 5022.1348314607
  20
 4473.8126572192
  30
0.0
  40
 15.000000000000
 100
AcDbArc
  50
 210.00000000001
  51
 300.00000000000
   0
ARC
   5
187
 100
AcDbEntity
   8
LEVEL001
 370
13
   6
CONTINUOUS
  62
6
 100
AcDbCircle
  10
 5022.1348314607
  20
 4473.8126572192
  30
0.0
  40
 35.000000000000
 100
AcDbArc
  50
 300.00000000000
  51
 30.000000000002
   0
ARC
   5
188
 100
AcDbEntity
   8
LEVEL001
 370
13
   6
CONTINUOUS
  62
6
 100
AcDbCircle
  10
 5022.1348314607
  20
 4473.8126572192
  30
0.0
  40
 35.000000000000
 100
AcDbArc
  50
 210.00000000000
  51
 300.00000000000
   0
ARC
   5
189
 100
AcDbEntity
   8
LEVEL001
 370
13
   6
CONTINUOUS
  62
7
 100
AcDbCircle
  10
 5057.9472620679
  20
 4996.7837078654
  30
0.0
  40
 14.999999999942
 100
AcDbArc
  50
 30.000000000007
  51
 120.00000000000
   0
ARC
   5
18A
 100
AcDbEntity
   8
LEVEL001
 370
13
   6
CONTINUOUS
  62
7
 100
AcDbCircle
  10
 5057.9472620679
  20
 4996.7837078652
  30
0.0
  40
 14.999999999942
 100
AcDbArc
  50
 300.00000000000
  51
 30.000000000010
   0
ARC
   5
18B
 100
AcDbEntity
   8
LEVEL001
 370
13
   6
CONTINUOUS
  62
6
 100
AcDbCircle
  10
 5057.9472620679
  20
 4996.7837078654
  30
0.0
  40
 35.000000000000
 100
AcDbArc
  50
 29.999999999999
  51
 120.00000000000
   0
ARC
   5
18C
 100
AcDbEntity
   8
LEVEL001
 370
13
   6
CONTINUOUS
  62
6
 100
AcDbCircle
  10
 5057.9472620679
  20
 4996.7837078652
  30
0.0
  40
 35.000000000000
 100
AcDbArc
  50
 300.00000000000
  51
 30.000000000003
   0
ARC
   5
18D
 100
AcDbEntity
   8
LEVEL001
 370
13
   6
CONTINUOUS
  62
7
 100
AcDbCircle
  10
 4804.6348314609
  20
 5143.0337078654
  30
0.0
  40
 14.999999999942
 100
AcDbArc
  50
 89.999999999990
  51
 180.00000000000
   0
ARC
   5
18E
 100
AcDbEntity
   8
LEVEL001
 370
13
   6
CONTINUOUS
  62
7
 100
AcDbCircle
  10
 4804.6348314609
  20
 5143.0337078654
  30
0.0
  40
 14.999999999942
 100
AcDbArc
  50
 0.69480277201734E-11
  51
 90.000000000000
   0
ARC
   5
18F
 100
AcDbEntity
   8
LEVEL001
 370
13
   6
CONTINUOUS
  62
6
 100
AcDbCircle
  10
 4804.6348314609
  20
 5143.0337078654
  30
0.0
  40
 35.000000000000
 100
AcDbArc
  50
 90.000000000000
  51
 180.00000000000
   0
ARC
   5
190
 100
AcDbEntity
   8
LEVEL001
 370
13
   6
CONTINUOUS
  62
6
 100
AcDbCircle
  10
 4804.6348314609
  20
 5143.0337078654
  30
0.0
  40
 35.000000000000
 100
AcDbArc
  50
0.0
  51
 90.000000000000
   0
ARC
   5
191
 100
AcDbEntity
   8
LEVEL001
 370
13
   6
CONTINUOUS
  62
7
 100
AcDbCircle
  10
 4551.3224008539
  20
 4996.7837078654
  30
0.0
  40
 14.999999999942
 100
AcDbArc
  50
 150.00000000000
  51
 240.00000000001
   0
ARC
   5
192
 100
AcDbEntity
   8
LEVEL001
 370
13
   6
CONTINUOUS
  62
7
 100
AcDbCircle
  10
 4551.3224008539
  20
 4996.7837078656
  30
0.0
  40
 14.999999999942
 100
AcDbArc
  50
 59.999999999999
  51
 150.00000000001
   0
ARC
   5
193
 100
AcDbEntity
   8
LEVEL001
 370
13
   6
CONTINUOUS
  62
6
 100
AcDbCircle
  10
 4551.3224008539
  20
 4996.7837078654
  30
0.0
  40
 35.000000000000
 100
AcDbArc
  50
 150.00000000000
  51
 240.00000000000
   0
ARC
   5
194
 100
AcDbEntity
   8
LEVEL001
 370
13
   6
CONTINUOUS
  62
6
 100
AcDbCircle
  10
 4551.3224008539
  20
 4996.7837078656
  30
0.0
  40
 35.000000000000
 100
AcDbArc
  50
 59.999999999993
  51
 150.00000000000
   0
ARC
   5
195
 100
AcDbEntity
   8
LEVEL001
 370
13
   6
CONTINUOUS
  62
7
 100
AcDbCircle
  10
 4551.3224008537
  20
 4704.2837078654
  30
0.0
  40
 14.999999999942
 100
AcDbArc
  50
 210.00000000001
  51
 300.00000000000
   0
ARC
   5
196
 100
AcDbEntity
   8
LEVEL001
 370
13
   6
CONTINUOUS
  62
7
 100
AcDbCircle
  10
 4551.3224008537
  20
 4704.2837078654
  30
0.0
  40
 14.999999999942
 100
AcDbArc
  50
 120.00000000000
  51
 210.00000000001
   0
ARC
   5
197
 100
AcDbEntity
   8
LEVEL001
 370
13
   6
CONTINUOUS
  62
6
 100
AcDbCircle
  10
 4551.3224008537
  20
 4704.2837078654
  30
0.0
  40
 35.000000000000
 100
AcDbArc
  50
 210.00000000000
  51
 300.00000000000
   0
ARC
   5
198
 100
AcDbEntity
   8
LEVEL001
 370
13
   6
CONTINUOUS
  62
6
 100
AcDbCircle
  10
 4551.3224008537
  20
 4704.2837078654
  30
0.0
  40
 35.000000000000
 100
AcDbArc
  50
 120.00000000000
  51
 210.00000000000
   0
ARC
   5
199
 100
AcDbEntity
   8
LEVEL001
 370
13
   6
CONTINUOUS
  62
7
 100
AcDbCircle
  10
 4804.6348314607
  20
 4558.0337078654
  30
0.0
  40
 14.999999999942
 100
AcDbArc
  50
 270.00000000000
  51
 359.99999999999
   0
ARC
   5
19A
 100
AcDbEntity
   8
LEVEL001
 370
13
   6
CONTINUOUS
  62
7
 100
AcDbCircle
  10
 4804.6348314607
  20
 4558.0337078654
  30
0.0
  40
 14.999999999942
 100
AcDbArc
  50
 180.00000000001
  51
 270.00000000000
   0
ARC
   5
19B
 100
AcDbEntity
   8
LEVEL001
 370
13
   6
CONTINUOUS
  62
6
 100
AcDbCircle
  10
 4804.6348314607
  20
 4558.0337078654
  30
0.0
  40
 35.000000000000
 100
AcDbArc
  50
 270.00000000000
  51
0.0
   0
ARC
   5
19C
 100
AcDbEntity
   8
LEVEL001
 370
13
   6
CONTINUOUS
  62
6
 100
AcDbCircle
  10
 4804.6348314607
  20
 4558.0337078654
  30
0.0
  40
 35.000000000000
 100
AcDbArc
  50
 180.00000000000
  51
 270.00000000001
   0
ARC
   5
19D
 100
AcDbEntity
   8
LEVEL001
 370
13
   6
CONTINUOUS
  62
7
 100
AcDbCircle
  10
 5057.9472620677
  20
 4704.2837078652
  30
0.0
  40
 14.999999999942
 100
AcDbArc
  50
 330.00000000001
  51
 59.999999999987
   0
ARC
   5
19E
 100
AcDbEntity
   8
LEVEL001
 370
13
   6
CONTINUOUS
  62
7
 100
AcDbCircle
  10
 5057.9472620677
  20
 4704.2837078652
  30
0.0
  40
 14.999999999942
 100
AcDbArc
  50
 240.00000000001
  51
 330.00000000000
   0
ARC
   5
19F
 100
AcDbEntity
   8
LEVEL001
 370
13
   6
CONTINUOUS
  62
6
 100
AcDbCircle
  10
 5057.9472620677
  20
 4704.2837078652
  30
0.0
  40
 35.000000000000
 100
AcDbArc
  50
 330.00000000000
  51
 60.000000000003
   0
ARC
   5
1A0
 100
AcDbEntity
   8
LEVEL001
 370
13
   6
CONTINUOUS
  62
6
 100
AcDbCircle
  10
 5057.9472620677
  20
 4704.2837078652
  30
0.0
  40
 35.000000000000
 100
AcDbArc
  50
 240.00000000000
  51
 329.99999999999
   0
CIRCLE
   5
1A1
 100
AcDbEntity
   8
LEVEL001
 370
13
 100
AcDbCircle
   6
CONTINUOUS
  62
7
  10
 4804.6348314607
  20
 4850.5337078652
  30
0.0
  40
 532.50000000000
   0
CIRCLE
   5
1A2
 100
AcDbEntity
   8
LEVEL001
 370
13
 100
AcDbCircle
   6
CONTINUOUS
  62
7
  10
 4804.6348314607
  20
 4850.5337078652
  30
0.0
  40
 512.50000000000
   0
CIRCLE
   5
1A3
 100
AcDbEntity
   8
LEVEL001
 370
13
 100
AcDbCircle
   6
CONTINUOUS
  62
7
  10
 4804.6348314607
  20
 4850.5337078652
  30
0.0
  40
 505.00000000000
   0
CIRCLE
   5
1A4
 100
AcDbEntity
   8
LEVEL001
 370
13
 100
AcDbCircle
   6
CONTINUOUS
  62
7
  10
 4804.6348314607
  20
 4850.5337078652
  30
0.0
  40
 510.00000000000
   0
LINE
   5
1A5
 100
AcDbEntity
   8
LEVEL001
 370
13
 100
AcDbLine
   6
DASHDOT
  62
6
  10
 4917.2181339527
  20
 4915.5337078652
  30
0.0
  11
 4891.2373718391
  21
 4900.5337078652
  31
0.0
   0
LINE
   5
1A6
 100
AcDbEntity
   8
LEVEL001
 370
13
 100
AcDbLine
   6
DASHDOT
  62
6
  10
 4692.0515289687
  20
 4915.5337078652
  30
0.0
  11
 4718.0322910821
  21
 4900.5337078652
  31
0.0
   0
LINE
   5
1A7
 100
AcDbEntity
   8
LEVEL001
 370
13
 100
AcDbLine
   6
DASHDOT
  62
6
  10
 4692.0515289687
  20
 4785.5337078652
  30
0.0
  11
 4718.0322910821
  21
 4800.5337078652
  31
0.0
   0
LINE
   5
1A8
 100
AcDbEntity
   8
LEVEL001
 370
13
 100
AcDbLine
   6
DASHDOT
  62
6
  10
 4917.2181339527
  20
 4785.5337078652
  30
0.0
  11
 4891.2373718391
  21
 4800.5337078652
  31
0.0
   0
LINE
   5
1A9
 100
AcDbEntity
   8
LEVEL001
 370
13
 100
AcDbLine
   6
CONTINUOUS
  62
6
  10
 4839.6348314609
  20
 5143.0337078654
  30
0.0
  11
 4839.6348314609
  21
 5037.1362482450
  31
0.0
   0
ARC
   5
1AA
 100
AcDbEntity
   8
LEVEL001
 370
13
   6
CONTINUOUS
  62
6
 100
AcDbCircle
  10
 4854.6348314613
  20
 5037.1362482450
  30
0.0
  40
 15.000000000275
 100
AcDbArc
  50
 180.00000000000
  51
 330.00000000000
   0
LINE
   5
1AB
 100
AcDbEntity
   8
LEVEL001
 370
13
 100
AcDbLine
   6
CONTINUOUS
  62
6
  10
 4867.6252125183
  20
 5029.6362482448
  30
0.0
  11
 4991.8239423283
  21
 5244.7547585114
  31
0.0
   0
LINE
   5
1AC
 100
AcDbEntity
   8
LEVEL001
 370
13
 100
AcDbLine
   6
CONTINUOUS
  62
7
  10
 4819.6348314609
  20
 5143.0337078654
  30
0.0
  11
 4819.6348314609
  21
 5037.1362482450
  31
0.0
   0
ARC
   5
1AD
 100
AcDbEntity
   8
LEVEL001
 370
13
   6
CONTINUOUS
  62
7
 100
AcDbCircle
  10
 4854.6348314613
  20
 5037.1362482450
  30
0.0
  40
 35.000000000332
 100
AcDbArc
  50
 180.00000000000
  51
 330.00000000001
   0
LINE
   5
1AE
 100
AcDbEntity
   8
LEVEL001
 370
13
 100
AcDbLine
   6
CONTINUOUS
  62
7
  10
 4884.9457205939
  20
 5019.6362482450
  30
0.0
  11
 5009.1444504039
  21
 5234.7547585114
  31
0.0
   0
LINE
   5
1AF
 100
AcDbEntity
   8
LEVEL001
 370
13
 100
AcDbLine
   6
CONTINUOUS
  62
6
  10
 4769.6348314609
  20
 5037.1362482448
  30
0.0
  11
 4769.6348314609
  21
 5143.0337078654
  31
0.0
   0
ARC
   5
1B0
 100
AcDbEntity
   8
LEVEL001
 370
13
   6
CONTINUOUS
  62
6
 100
AcDbCircle
  10
 4754.6348314605
  20
 5037.1362482448
  30
0.0
  40
 15.000000000275
 100
AcDbArc
  50
 210.00000000000
  51
 0.20844083160059E-10
   0
LINE
   5
1B1
 100
AcDbEntity
   8
LEVEL001
 370
13
 100
AcDbLine
   6
CONTINUOUS
  62
6
  10
 4617.4457205933
  20
 5244.7547585114
  30
0.0
  11
 4741.6444504035
  21
 5029.6362482446
  31
0.0
   0
LINE
   5
1B2
 100
AcDbEntity
   8
LEVEL001
 370
13
 100
AcDbLine
   6
CONTINUOUS
  62
6
  10
 4681.0226721385
  20
 4994.6362482450
  30
0.0
  11
 4556.8239423285
  21
 5209.7547585114
  31
0.0
   0
ARC
   5
1B3
 100
AcDbEntity
   8
LEVEL001
 370
13
   6
CONTINUOUS
  62
6
 100
AcDbCircle
  10
 4668.0322910815
  20
 4987.1362482448
  30
0.0
  40
 15.000000000275
 100
AcDbArc
  50
 240.00000000002
  51
 29.999999999996
   0
LINE
   5
1B4
 100
AcDbEntity
   8
LEVEL001
 370
13
 100
AcDbLine
   6
CONTINUOUS
  62
6
  10
 4568.8224008539
  20
 5027.0945969980
  30
0.0
  11
 4660.5322910813
  21
 4974.1458671878
  31
0.0
   0
LINE
   5
1B5
 100
AcDbEntity
   8
LEVEL001
 370
13
 100
AcDbLine
   6
CONTINUOUS
  62
6
  10
 4625.5322910815
  20
 4913.5240889226
  30
0.0
  11
 4533.8224008539
  21
 4966.4728187330
  31
0.0
   0
ARC
   5
1B6
 100
AcDbEntity
   8
LEVEL001
 370
13
   6
CONTINUOUS
  62
6
 100
AcDbCircle
  10
 4618.0322910815
  20
 4900.5337078656
  30
0.0
  40
 15.000000000275
 100
AcDbArc
  50
 270.00000000000
  51
 60.000000000004
   0
LINE
   5
1B7
 100
AcDbEntity
   8
LEVEL001
 370
13
 100
AcDbLine
   6
CONTINUOUS
  62
6
  10
 4369.6348314609
  20
 4885.5337078654
  30
0.0
  11
 4618.0322910815
  21
 4885.5337078654
  31
0.0
   0
LINE
   5
1B8
 100
AcDbEntity
   8
LEVEL001
 370
13
 100
AcDbLine
   6
CONTINUOUS
  62
6
  10
 4618.0322910809
  20
 4815.5337078654
  30
0.0
  11
 4369.6348314609
  21
 4815.5337078654
  31
0.0
   0
ARC
   5
1B9
 100
AcDbEntity
   8
LEVEL001
 370
13
   6
CONTINUOUS
  62
6
 100
AcDbCircle
  10
 4618.0322910809
  20
 4800.5337078650
  30
0.0
  40
 15.000000000275
 100
AcDbArc
  50
 300.00000000000
  51
 90.000000000003
   0
LINE
   5
1BA
 100
AcDbEntity
   8
LEVEL001
 370
13
 100
AcDbLine
   6
CONTINUOUS
  62
6
  10
 4533.8224008537
  20
 4734.5945969980
  30
0.0
  11
 4625.5322910811
  21
 4787.5433268080
  31
0.0
   0
LINE
   5
1BB
 100
AcDbEntity
   8
LEVEL001
 370
13
 100
AcDbLine
   6
CONTINUOUS
  62
6
  10
 4660.5322910813
  20
 4726.9215485432
  30
0.0
  11
 4568.8224008537
  21
 4673.9728187330
  31
0.0
   0
ARC
   5
1BC
 100
AcDbEntity
   8
LEVEL001
 370
13
   6
CONTINUOUS
  62
6
 100
AcDbCircle
  10
 4668.0322910815
  20
 4713.9311674862
  30
0.0
  40
 15.000000000275
 100
AcDbArc
  50
 329.99999999998
  51
 120.00000000002
   0
LINE
   5
1BD
 100
AcDbEntity
   8
LEVEL001
 370
13
 100
AcDbLine
   6
CONTINUOUS
  62
6
  10
 4556.8239423283
  20
 4491.3126572192
  30
0.0
  11
 4681.0226721385
  21
 4706.4311674860
  31
0.0
   0
LINE
   5
1BE
 100
AcDbEntity
   8
LEVEL001
 370
13
 100
AcDbLine
   6
CONTINUOUS
  62
6
  10
 4741.6444504033
  20
 4671.4311674860
  30
0.0
  11
 4617.4457205931
  21
 4456.3126572192
  31
0.0
   0
ARC
   5
1BF
 100
AcDbEntity
   8
LEVEL001
 370
13
   6
CONTINUOUS
  62
6
 100
AcDbCircle
  10
 4754.6348314603
  20
 4663.9311674858
  30
0.0
  40
 15.000000000275
 100
AcDbArc
  50
 0.24318097020069E-10
  51
 149.99999999998
   0
LINE
   5
1C0
 100
AcDbEntity
   8
LEVEL001
 370
13
 100
AcDbLine
   6
CONTINUOUS
  62
6
  10
 4769.6348314607
  20
 4558.0337078654
  30
0.0
  11
 4769.6348314607
  21
 4663.9311674858
  31
0.0
   0
LINE
   5
1C1
 100
AcDbEntity
   8
LEVEL001
 370
13
 100
AcDbLine
   6
CONTINUOUS
  62
6
  10
 4839.6348314607
  20
 4663.9311674856
  30
0.0
  11
 4839.6348314607
  21
 4558.0337078654
  31
0.0
   0
ARC
   5
1C2
 100
AcDbEntity
   8
LEVEL001
 370
13
   6
CONTINUOUS
  62
6
 100
AcDbCircle
  10
 4854.6348314611
  20
 4663.9311674856
  30
0.0
  40
 15.000000000275
 100
AcDbArc
  50
 29.999999999996
  51
 180.00000000000
   0
LINE
   5
1C3
 100
AcDbEntity
   8
LEVEL001
 370
13
 100
AcDbLine
   6
CONTINUOUS
  62
6
  10
 4991.8239423281
  20
 4456.3126572192
  30
0.0
  11
 4867.6252125181
  21
 4671.4311674858
  31
0.0
   0
LINE
   5
1C4
 100
AcDbEntity
   8
LEVEL001
 370
13
 100
AcDbLine
   6
CONTINUOUS
  62
6
  10
 4928.2469907829
  20
 4706.4311674860
  30
0.0
  11
 5052.4457205931
  21
 4491.3126572192
  31
0.0
   0
ARC
   5
1C5
 100
AcDbEntity
   8
LEVEL001
 370
13
   6
CONTINUOUS
  62
6
 100
AcDbCircle
  10
 4941.2373718399
  20
 4713.9311674860
  30
0.0
  40
 15.000000000275
 100
AcDbArc
  50
 60.000000000004
  51
 209.99999999998
   0
LINE
   5
1C6
 100
AcDbEntity
   8
LEVEL001
 370
13
 100
AcDbLine
   6
CONTINUOUS
  62
6
  10
 5040.4472620677
  20
 4673.9728187328
  30
0.0
  11
 4948.7373718401
  21
 4726.9215485430
  31
0.0
   0
LINE
   5
1C7
 100
AcDbEntity
   8
LEVEL001
 370
13
 100
AcDbLine
   6
CONTINUOUS
  62
6
  10
 4983.7373718403
  20
 4787.5433268080
  30
0.0
  11
 5075.4472620677
  21
 4734.5945969978
  31
0.0
   0
ARC
   5
1C8
 100
AcDbEntity
   8
LEVEL001
 370
13
   6
CONTINUOUS
  62
6
 100
AcDbCircle
  10
 4991.2373718405
  20
 4800.5337078650
  30
0.0
  40
 15.000000000275
 100
AcDbArc
  50
 90.000000000000
  51
 240.00000000000
   0
LINE
   5
1C9
 100
AcDbEntity
   8
LEVEL001
 370
13
 100
AcDbLine
   6
CONTINUOUS
  62
6
  10
 5239.6348314607
  20
 4815.5337078652
  30
0.0
  11
 4991.2373718405
  21
 4815.5337078652
  31
0.0
   0
LINE
   5
1CA
 100
AcDbEntity
   8
LEVEL001
 370
13
 100
AcDbLine
   6
CONTINUOUS
  62
6
  10
 4991.2373718403
  20
 4885.5337078652
  30
0.0
  11
 5239.6348314607
  21
 4885.5337078652
  31
0.0
   0
ARC
   5
1CB
 100
AcDbEntity
   8
LEVEL001
 370
13
   6
CONTINUOUS
  62
6
 100
AcDbCircle
  10
 4991.2373718403
  20
 4900.5337078654
  30
0.0
  40
 15.000000000275
 100
AcDbArc
  50
 120.00000000003
  51
 269.99999999998
   0
LINE
   5
1CC
 100
AcDbEntity
   8
LEVEL001
 370
13
 100
AcDbLine
   6
CONTINUOUS
  62
6
  10
 5075.4472620679
  20
 4966.4728187328
  30
0.0
  11
 4983.7373718401
  21
 4913.5240889224
  31
0.0
   0
LINE
   5
1CD
 100
AcDbEntity
   8
LEVEL001
 370
13
 100
AcDbLine
   6
CONTINUOUS
  62
6
  10
 4948.7373718403
  20
 4974.1458671876
  30
0.0
  11
 5040.4472620679
  21
 5027.0945969978
  31
0.0
   0
ARC
   5
1CE
 100
AcDbEntity
   8
LEVEL001
 370
13
   6
CONTINUOUS
  62
6
 100
AcDbCircle
  10
 4941.2373718401
  20
 4987.1362482446
  30
0.0
  40
 15.000000000275
 100
AcDbArc
  50
 149.99999999998
  51
 300.00000000002
   0
LINE
   5
1CF
 100
AcDbEntity
   8
LEVEL001
 370
13
 100
AcDbLine
   6
CONTINUOUS
  62
6
  10
 5052.4457205933
  20
 5209.7547585114
  30
0.0
  11
 4928.2469907831
  21
 4994.6362482446
  31
0.0
   0
LINE
   5
1D0
 100
AcDbEntity
   8
LEVEL001
 370
13
 100
AcDbLine
   6
CONTINUOUS
  62
7
  10
 5035.1252125175
  20
 5219.7547585114
  30
0.0
  11
 4910.9264827065
  21
 5004.6362482430
  31
0.0
   0
ARC
   5
1D1
 100
AcDbEntity
   8
LEVEL001
 370
13
   6
CONTINUOUS
  62
7
 100
AcDbCircle
  10
 4941.2373718387
  20
 4987.1362482432
  30
0.0
  40
 34.999999999784
 100
AcDbArc
  50
 150.00000000000
  51
 300.00000000000
   0
LINE
   5
1D2
 100
AcDbEntity
   8
LEVEL001
 370
13
 100
AcDbLine
   6
CONTINUOUS
  62
7
  10
 4958.7373718385
  20
 4956.8253591108
  30
0.0
  11
 5050.4472620679
  21
 5009.7740889220
  31
0.0
   0
LINE
   5
1D3
 100
AcDbEntity
   8
LEVEL001
 370
13
 100
AcDbLine
   6
CONTINUOUS
  62
7
  10
 5065.4472620679
  20
 4983.7933268086
  30
0.0
  11
 4973.7373718385
  21
 4930.8445969972
  31
0.0
   0
ARC
   5
1D4
 100
AcDbEntity
   8
LEVEL001
 370
13
   6
CONTINUOUS
  62
7
 100
AcDbCircle
  10
 4991.2373718383
  20
 4900.5337078650
  30
0.0
  40
 34.999999999784
 100
AcDbArc
  50
 120.00000000000
  51
 270.00000000000
   0
LINE
   5
1D5
 100
AcDbEntity
   8
LEVEL001
 370
13
 100
AcDbLine
   6
CONTINUOUS
  62
7
  10
 4991.2373718383
  20
 4865.5337078652
  30
0.0
  11
 5239.6348314607
  21
 4865.5337078652
  31
0.0
   0
LINE
   5
1D6
 100
AcDbEntity
   8
LEVEL001
 370
13
 100
AcDbLine
   6
CONTINUOUS
  62
7
  10
 5239.6348314607
  20
 4835.5337078652
  30
0.0
  11
 4991.2373718385
  21
 4835.5337078652
  31
0.0
   0
ARC
   5
1D7
 100
AcDbEntity
   8
LEVEL001
 370
13
   6
CONTINUOUS
  62
7
 100
AcDbCircle
  10
 4991.2373718385
  20
 4800.5337078654
  30
0.0
  40
 34.999999999784
 100
AcDbArc
  50
 90.000000000001
  51
 240.00000000000
   0
LINE
   5
1D8
 100
AcDbEntity
   8
LEVEL001
 370
13
 100
AcDbLine
   6
CONTINUOUS
  62
7
  10
 4973.7373718387
  20
 4770.2228187332
  30
0.0
  11
 5065.4472620677
  21
 4717.2740889220
  31
0.0
   0
LINE
   5
1D9
 100
AcDbEntity
   8
LEVEL001
 370
13
 100
AcDbLine
   6
CONTINUOUS
  62
7
  10
 5050.4472620677
  20
 4691.2933268084
  30
0.0
  11
 4958.7373718383
  21
 4744.2420566198
  31
0.0
   0
ARC
   5
1DA
 100
AcDbEntity
   8
LEVEL001
 370
13
   6
CONTINUOUS
  62
7
 100
AcDbCircle
  10
 4941.2373718385
  20
 4713.9311674874
  30
0.0
  40
 34.999999999784
 100
AcDbArc
  50
 60.000000000006
  51
 209.99999999999
   0
LINE
   5
1DB
 100
AcDbEntity
   8
LEVEL001
 370
13
 100
AcDbLine
   6
CONTINUOUS
  62
7
  10
 4910.9264827061
  20
 4696.4311674876
  30
0.0
  11
 5035.1252125173
  21
 4481.3126572192
  31
0.0
   0
LINE
   5
1DC
 100
AcDbEntity
   8
LEVEL001
 370
13
 100
AcDbLine
   6
CONTINUOUS
  62
7
  10
 5009.1444504039
  20
 4466.3126572192
  30
0.0
  11
 4884.9457205927
  21
 4681.4311674874
  31
0.0
   0
ARC
   5
1DD
 100
AcDbEntity
   8
LEVEL001
 370
13
   6
CONTINUOUS
  62
7
 100
AcDbCircle
  10
 4854.6348314605
  20
 4663.9311674876
  30
0.0
  40
 34.999999999784
 100
AcDbArc
  50
 30.000000000000
  51
 180.00000000001
   0
LINE
   5
1DE
 100
AcDbEntity
   8
LEVEL001
 370
13
 100
AcDbLine
   6
CONTINUOUS
  62
7
  10
 4819.6348314607
  20
 4663.9311674876
  30
0.0
  11
 4819.6348314607
  21
 4558.0337078654
  31
0.0
   0
LINE
   5
1DF
 100
AcDbEntity
   8
LEVEL001
 370
13
 100
AcDbLine
   6
CONTINUOUS
  62
7
  10
 4789.6348314607
  20
 4558.0337078654
  30
0.0
  11
 4789.6348314607
  21
 4663.9311674878
  31
0.0
   0
ARC
   5
1E0
 100
AcDbEntity
   8
LEVEL001
 370
13
   6
CONTINUOUS
  62
7
 100
AcDbCircle
  10
 4754.6348314609
  20
 4663.9311674878
  30
0.0
  40
 34.999999999784
 100
AcDbArc
  50
 0.14888630828977E-11
  51
 150.00000000000
   0
LINE
   5
1E1
 100
AcDbEntity
   8
LEVEL001
 370
13
 100
AcDbLine
   6
CONTINUOUS
  62
7
  10
 4724.3239423287
  20
 4681.4311674876
  30
0.0
  11
 4600.1252125175
  21
 4466.3126572192
  31
0.0
   0
LINE
   5
1E2
 100
AcDbEntity
   8
LEVEL001
 370
13
 100
AcDbLine
   6
CONTINUOUS
  62
7
  10
 4574.1444504039
  20
 4481.3126572192
  30
0.0
  11
 4698.3431802151
  21
 4696.4311674878
  31
0.0
   0
ARC
   5
1E3
 100
AcDbEntity
   8
LEVEL001
 370
13
   6
CONTINUOUS
  62
7
 100
AcDbCircle
  10
 4668.0322910829
  20
 4713.9311674876
  30
0.0
  40
 34.999999999784
 100
AcDbArc
  50
 330.00000000000
  51
 119.99999999999
   0
LINE
   5
1E4
 100
AcDbEntity
   8
LEVEL001
 370
13
 100
AcDbLine
   6
CONTINUOUS
  62
7
  10
 4650.5322910831
  20
 4744.2420566200
  30
0.0
  11
 4558.8224008537
  21
 4691.2933268086
  31
0.0
   0
LINE
   5
1E5
 100
AcDbEntity
   8
LEVEL001
 370
13
 100
AcDbLine
   6
CONTINUOUS
  62
7
  10
 4543.8224008537
  20
 4717.2740889222
  30
0.0
  11
 4635.5322910829
  21
 4770.2228187334
  31
0.0
   0
ARC
   5
1E6
 100
AcDbEntity
   8
LEVEL001
 370
13
   6
CONTINUOUS
  62
7
 100
AcDbCircle
  10
 4618.0322910829
  20
 4800.5337078656
  30
0.0
  40
 34.999999999784
 100
AcDbArc
  50
 300.00000000000
  51
 90.000000000004
   0
LINE
   5
1E7
 100
AcDbEntity
   8
LEVEL001
 370
13
 100
AcDbLine
   6
CONTINUOUS
  62
7
  10
 4618.0322910829
  20
 4835.5337078654
  30
0.0
  11
 4369.6348314609
  21
 4835.5337078654
  31
0.0
   0
LINE
   5
1E8
 100
AcDbEntity
   8
LEVEL001
 370
13
 100
AcDbLine
   6
CONTINUOUS
  62
7
  10
 4369.6348314609
  20
 4865.5337078654
  30
0.0
  11
 4618.0322910835
  21
 4865.5337078654
  31
0.0
   0
ARC
   5
1E9
 100
AcDbEntity
   8
LEVEL001
 370
13
   6
CONTINUOUS
  62
7
 100
AcDbCircle
  10
 4618.0322910835
  20
 4900.5337078652
  30
0.0
  40
 34.999999999784
 100
AcDbArc
  50
 270.00000000000
  51
 59.999999999999
   0
LINE
   5
1EA
 100
AcDbEntity
   8
LEVEL001
 370
13
 100
AcDbLine
   6
CONTINUOUS
  62
7
  10
 4635.5322910833
  20
 4930.8445969974
  30
0.0
  11
 4543.8224008539
  21
 4983.7933268088
  31
0.0
   0
LINE
   5
1EB
 100
AcDbEntity
   8
LEVEL001
 370
13
 100
AcDbLine
   6
CONTINUOUS
  62
7
  10
 4558.8224008539
  20
 5009.7740889222
  30
0.0
  11
 4650.5322910829
  21
 4956.8253591112
  31
0.0
   0
ARC
   5
1EC
 100
AcDbEntity
   8
LEVEL001
 370
13
   6
CONTINUOUS
  62
7
 100
AcDbCircle
  10
 4668.0322910829
  20
 4987.1362482434
  30
0.0
  40
 34.999999999784
 100
AcDbArc
  50
 240.00000000000
  51
 30.000000000002
   0
LINE
   5
1ED
 100
AcDbEntity
   8
LEVEL001
 370
13
 100
AcDbLine
   6
CONTINUOUS
  62
7
  10
 4698.3431802151
  20
 5004.6362482434
  30
0.0
  11
 4574.1444504041
  21
 5219.7547585114
  31
0.0
   0
LINE
   5
1EE
 100
AcDbEntity
   8
LEVEL001
 370
13
 100
AcDbLine
   6
CONTINUOUS
  62
7
  10
 4600.1252125177
  20
 5234.7547585114
  30
0.0
  11
 4724.3239423289
  21
 5019.6362482430
  31
0.0
   0
ARC
   5
1EF
 100
AcDbEntity
   8
LEVEL001
 370
13
   6
CONTINUOUS
  62
7
 100
AcDbCircle
  10
 4754.6348314611
  20
 5037.1362482428
  30
0.0
  40
 34.999999999784
 100
AcDbArc
  50
 210.00000000000
  51
0.0
   0
LINE
   5
1F0
 100
AcDbEntity
   8
LEVEL001
 370
13
 100
AcDbLine
   6
CONTINUOUS
  62
7
  10
 4789.6348314609
  20
 5037.1362482428
  30
0.0
  11
 4789.6348314609
  21
 5143.0337078654
  31
0.0
   0
ARC
   5
1F1
 100
AcDbEntity
   8
LEVEL001
 370
13
   6
CONTINUOUS
  62
7
 100
AcDbCircle
  10
 4369.6348314609
  20
 4850.5337078654
  30
0.0
  40
 15.000000000000
 100
AcDbArc
  50
 180.00000000000
  51
 270.00000000000
   0
ARC
   5
1F2
 100
AcDbEntity
   8
LEVEL001
 370
13
   6
CONTINUOUS
  62
7
 100
AcDbCircle
  10
 4369.6348314609
  20
 4850.5337078654
  30
0.0
  40
 15.000000000000
 100
AcDbArc
  50
 90.000000000000
  51
 180.00000000000
   0
ARC
   5
1F3
 100
AcDbEntity
   8
LEVEL001
 370
13
   6
CONTINUOUS
  62
6
 100
AcDbCircle
  10
 4369.6348314609
  20
 4850.5337078654
  30
0.0
  40
 35.000000000000
 100
AcDbArc
  50
 180.00000000000
  51
 270.00000000000
   0
ARC
   5
1F4
 100
AcDbEntity
   8
LEVEL001
 370
13
   6
CONTINUOUS
  62
6
 100
AcDbCircle
  10
 4369.6348314609
  20
 4850.5337078654
  30
0.0
  40
 35.000000000000
 100
AcDbArc
  50
 90.000000000000
  51
 180.00000000000
   0
LINE
   5
1F5
 100
AcDbEntity
   8
LEVEL001
 370
13
 100
AcDbLine
   6
DASHDOT
  62
6
  10
 5379.6348314607
  20
 4850.5337078652
  30
0.0
  11
 4229.6348314607
  21
 4850.5337078652
  31
0.0
   0
LINE
   5
1F6
 100
AcDbEntity
   8
LEVEL001
 370
13
 100
AcDbLine
   6
DASHDOT
  62
6
  10
 4804.6348314607
  20
 5425.5337078652
  30
0.0
  11
 4804.6348314607
  21
 4275.5337078652
  31
0.0
   0
CIRCLE
   5
1F7
 100
AcDbEntity
   8
LEVEL001
 370
13
 100
AcDbCircle
   6
CONTINUOUS
  62
3
  10
 4804.6348314607
  20
 4965.5337078652
  30
0.0
  40
 7.0000000000000
   0
CIRCLE
   5
1F8
 100
AcDbEntity
   8
LEVEL001
 370
13
 100
AcDbCircle
   6
CONTINUOUS
  62
3
  10
 4705.0419100255
  20
 4908.0337078652
  30
0.0
  40
 7.0000000000000
   0
CIRCLE
   5
1F9
 100
AcDbEntity
   8
LEVEL001
 370
13
 100
AcDbCircle
   6
CONTINUOUS
  62
3
  10
 4705.0419100255
  20
 4793.0337078652
  30
0.0
  40
 7.0000000000000
   0
CIRCLE
   5
1FA
 100
AcDbEntity
   8
LEVEL001
 370
13
 100
AcDbCircle
   6
CONTINUOUS
  62
3
  10
 4804.6348314607
  20
 4735.5337078652
  30
0.0
  40
 7.0000000000000
   0
CIRCLE
   5
1FB
 100
AcDbEntity
   8
LEVEL001
 370
13
 100
AcDbCircle
   6
CONTINUOUS
  62
3
  10
 4904.2277528959
  20
 4793.0337078652
  30
0.0
  40
 7.0000000000000
   0
CIRCLE
   5
1FC
 100
AcDbEntity
   8
LEVEL001
 370
13
 100
AcDbCircle
   6
CONTINUOUS
  62
3
  10
 4904.2277528959
  20
 4908.0337078652
  30
0.0
  40
 7.0000000000000
   0
CIRCLE
   5
1FD
 100
AcDbEntity
   8
LEVEL001
 370
13
 100
AcDbCircle
   6
CONTINUOUS
  62
1
  10
 4404.6348314607
  20
 4350.5337078652
  30
0.0
  40
 69.999997913838
   0
MTEXT
   5
1FE
 100
AcDbEntity
   8
LEVEL001
 370
13
  62
1
 100
AcDbMText
  10
 4404.6348314607
  20
 4350.5337078652
  30
0.0
  40
 57.142857142858
  41
0.0
  71
5
  72
1
   1
\T1.000000;2
   7
GMM001
  44
 0.79999984000003
   0
LEADER
   5
1FF
 100
AcDbEntity
   8
LEVEL001
 370
13
   6
CONTINUOUS
  62
1
 100
AcDbLeader
   3
GMM001
  73
3
  74
1
  75
0
  40
 66.000000000000
  41
0.0
  76
2
  10
 4553.7656534907
  20
 4538.7467720188
  30
0.0
  10
 4448.1038838273
  20
 4405.4011954538
  30
0.0
  77
1
   0
LINE
   5
200
 100
AcDbEntity
   8
LEVEL001
 370
13
 100
AcDbLine
   6
CONTINUOUS
  62
7
  10
 5044.6348314607
  20
 4855.5337078652
  30
0.0
  11
 4969.1796581799
  21
 4855.5337078652
  31
0.0
   0
ARC
   5
201
 100
AcDbEntity
   8
LEVEL001
 370
13
   6
CONTINUOUS
  62
7
 100
AcDbCircle
  10
 5044.6348314607
  20
 4850.5337078652
  30
0.0
  40
 5.0000000000000
 100
AcDbArc
  50
 270.00000000000
  51
 90.000000000000
   0
LINE
   5
202
 100
AcDbEntity
   8
LEVEL001
 370
13
 100
AcDbLine
   6
CONTINUOUS
  62
7
  10
 4969.1796581799
  20
 4845.5337078652
  30
0.0
  11
 5044.6348314607
  21
 4845.5337078652
  31
0.0
   0
ARC
   5
203
 100
AcDbEntity
   8
LEVEL001
 370
13
   6
CONTINUOUS
  62
7
 100
AcDbCircle
  10
 4969.1796581799
  20
 4945.5337078652
  30
0.0
  40
 90.000000000000
 100
AcDbArc
  50
 150.00000000000
  51
 270.00000000000
   0
ARC
   5
204
 100
AcDbEntity
   8
LEVEL001
 370
13
   6
CONTINUOUS
  62
7
 100
AcDbCircle
  10
 4969.1796581799
  20
 4755.5337078652
  30
0.0
  40
 90.000000000000
 100
AcDbArc
  50
 90.000000000002
  51
 210.00000000000
   0
ARC
   5
205
 100
AcDbEntity
   8
LEVEL001
 370
13
   6
CONTINUOUS
  62
7
 100
AcDbCircle
  10
 4804.6348314609
  20
 5040.5337078652
  30
0.0
  40
 90.000000000000
 100
AcDbArc
  50
 210.00000000000
  51
 330.00000000000
   0
ARC
   5
206
 100
AcDbEntity
   8
LEVEL001
 370
13
   6
CONTINUOUS
  62
7
 100
AcDbCircle
  10
 4640.0900047419
  20
 4945.5337078652
  30
0.0
  40
 90.000000000000
 100
AcDbArc
  50
 270.00000000000
  51
 30.000000000000
   0
ARC
   5
207
 100
AcDbEntity
   8
LEVEL001
 370
13
   6
CONTINUOUS
  62
7
 100
AcDbCircle
  10
 4640.0900047417
  20
 4755.5337078652
  30
0.0
  40
 90.000000000000
 100
AcDbArc
  50
 330.00000000000
  51
 89.999999999999
   0
ARC
   5
208
 100
AcDbEntity
   8
LEVEL001
 370
13
   6
CONTINUOUS
  62
7
 100
AcDbCircle
  10
 4804.6348314609
  20
 4660.5337078652
  30
0.0
  40
 90.000000000000
 100
AcDbArc
  50
 30.000000000001
  51
 150.00000000000
   0
LINE
   5
209
 100
AcDbEntity
   8
LEVEL001
 370
13
 100
AcDbLine
   6
CONTINUOUS
  62
7
  10
 4920.3047044417
  20
 5060.8798047734
  30
0.0
  11
 4882.5771178013
  21
 4995.5337078654
  31
0.0
   0
ARC
   5
20A
 100
AcDbEntity
   8
LEVEL001
 370
13
   6
CONTINUOUS
  62
7
 100
AcDbCircle
  10
 4924.6348314607
  20
 5058.3798047734
  30
0.0
  40
 5.0000000000000
 100
AcDbArc
  50
 329.99999999999
  51
 149.99999999999
   0
LINE
   5
20B
 100
AcDbEntity
   8
LEVEL001
 370
13
 100
AcDbLine
   6
CONTINUOUS
  62
7
  10
 4891.2373718393
  20
 4990.5337078654
  30
0.0
  11
 4928.9649584795
  21
 5055.8798047734
  31
0.0
   0
LINE
   5
20C
 100
AcDbEntity
   8
LEVEL001
 370
13
 100
AcDbLine
   6
CONTINUOUS
  62
7
  10
 4680.3047044417
  20
 5055.8798047734
  30
0.0
  11
 4718.0322910821
  21
 4990.5337078654
  31
0.0
   0
ARC
   5
20D
 100
AcDbEntity
   8
LEVEL001
 370
13
   6
CONTINUOUS
  62
7
 100
AcDbCircle
  10
 4684.6348314607
  20
 5058.3798047734
  30
0.0
  40
 5.0000000000000
 100
AcDbArc
  50
 30.000000000014
  51
 210.00000000001
   0
LINE
   5
20E
 100
AcDbEntity
   8
LEVEL001
 370
13
 100
AcDbLine
   6
CONTINUOUS
  62
7
  10
 4726.6925451199
  20
 4995.5337078654
  30
0.0
  11
 4688.9649584795
  21
 5060.8798047734
  31
0.0
   0
LINE
   5
20F
 100
AcDbEntity
   8
LEVEL001
 370
13
 100
AcDbLine
   6
CONTINUOUS
  62
7
  10
 4564.6348314607
  20
 4845.5337078652
  30
0.0
  11
 4640.0900047415
  21
 4845.5337078652
  31
0.0
   0
ARC
   5
210
 100
AcDbEntity
   8
LEVEL001
 370
13
   6
CONTINUOUS
  62
7
 100
AcDbCircle
  10
 4564.6348314607
  20
 4850.5337078652
  30
0.0
  40
 5.0000000000000
 100
AcDbArc
  50
 90.000000000000
  51
 270.00000000000
   0
LINE
   5
211
 100
AcDbEntity
   8
LEVEL001
 370
13
 100
AcDbLine
   6
CONTINUOUS
  62
7
  10
 4640.0900047413
  20
 4855.5337078652
  30
0.0
  11
 4564.6348314607
  21
 4855.5337078652
  31
0.0
   0
LINE
   5
212
 100
AcDbEntity
   8
LEVEL001
 370
13
 100
AcDbLine
   6
CONTINUOUS
  62
7
  10
 4688.9649584795
  20
 4640.1876109570
  30
0.0
  11
 4726.6925451199
  21
 4705.5337078650
  31
0.0
   0
ARC
   5
213
 100
AcDbEntity
   8
LEVEL001
 370
13
   6
CONTINUOUS
  62
7
 100
AcDbCircle
  10
 4684.6348314607
  20
 4642.6876109570
  30
0.0
  40
 5.0000000000000
 100
AcDbArc
  50
 150.00000000000
  51
 330.00000000000
   0
LINE
   5
214
 100
AcDbEntity
   8
LEVEL001
 370
13
 100
AcDbLine
   6
CONTINUOUS
  62
7
  10
 4718.0322910821
  20
 4710.5337078650
  30
0.0
  11
 4680.3047044417
  21
 4645.1876109570
  31
0.0
   0
LINE
   5
215
 100
AcDbEntity
   8
LEVEL001
 370
13
 100
AcDbLine
   6
CONTINUOUS
  62
7
  10
 4928.9649584795
  20
 4645.1876109570
  30
0.0
  11
 4891.2373718391
  21
 4710.5337078650
  31
0.0
   0
ARC
   5
216
 100
AcDbEntity
   8
LEVEL001
 370
13
   6
CONTINUOUS
  62
7
 100
AcDbCircle
  10
 4924.6348314607
  20
 4642.6876109570
  30
0.0
  40
 5.0000000000000
 100
AcDbArc
  50
 210.00000000000
  51
 30.000000000000
   0
LINE
   5
217
 100
AcDbEntity
   8
LEVEL001
 370
13
 100
AcDbLine
   6
CONTINUOUS
  62
7
  10
 4882.5771178013
  20
 4705.5337078650
  30
0.0
  11
 4920.3047044417
  21
 4640.1876109570
  31
0.0
   0
MTEXT
   5
219
 100
AcDbEntity
   8
LEVEL001
 370
13
  62
1
 100
AcDbMText
  10
 1125.2834366702
  20
 1826.7636449054
  30
0.0
  40
 40.000000000000
  41
0.0
  71
7
  72
1
   1
\T1.000000;ＧＬ
   7
GMM003
  44
 0.79999984000003
   0
LINE
   5
21A
 100
AcDbEntity
   8
LEVEL001
 370
13
 100
AcDbLine
   6
CONTINUOUS
  62
1
  10
 1097.1347662254
  20
 1818.0337078651
  30
0.0
  11
 1072.1347662254
  21
 1868.0337078651
  31
0.0
   0
LINE
   5
21B
 100
AcDbEntity
   8
LEVEL001
 370
13
 100
AcDbLine
   6
CONTINUOUS
  62
1
  10
 1072.1347662254
  20
 1868.0337078651
  30
0.0
  11
 1122.1347662254
  21
 1868.0337078651
  31
0.0
   0
LINE
   5
21C
 100
AcDbEntity
   8
LEVEL001
 370
13
 100
AcDbLine
   6
CONTINUOUS
  62
1
  10
 1122.1347662254
  20
 1868.0337078651
  30
0.0
  11
 1097.1347662254
  21
 1818.0337078651
  31
0.0
   0
CIRCLE
   5
21D
 100
AcDbEntity
   8
LEVEL001
 370
13
 100
AcDbCircle
   6
CONTINUOUS
  62
6
  10
 1504.6348314607
  20
 4850.5337078652
  30
0.0
  40
 505.00000000000
   0
CIRCLE
   5
21E
 100
AcDbEntity
   8
LEVEL001
 370
13
 100
AcDbCircle
   6
CONTINUOUS
  62
7
  10
 1504.6348314607
  20
 4850.5337078652
  30
0.0
  40
 532.50000000000
   0
CIRCLE
   5
21F
 100
AcDbEntity
   8
LEVEL001
 370
13
 100
AcDbCircle
   6
CONTINUOUS
  62
6
  10
 1504.6348314607
  20
 4850.5337078652
  30
0.0
  40
 510.00000000000
   0
CIRCLE
   5
220
 100
AcDbEntity
   8
LEVEL001
 370
13
 100
AcDbCircle
   6
CONTINUOUS
  62
7
  10
 1504.6348314607
  20
 4850.5337078652
  30
0.0
  40
 512.50000000000
   0
ARC
   5
221
 100
AcDbEntity
   8
LEVEL001
 370
13
   6
CONTINUOUS
  62
1
 100
AcDbCircle
  10
 1504.6348314607
  20
 4850.5337078652
  30
0.0
  40
 510.00000000000
 100
AcDbArc
  50
 22.559010865493
  51
 157.44098913451
   0
ARC
   5
222
 100
AcDbEntity
   8
LEVEL001
 370
13
   6
CONTINUOUS
  62
1
 100
AcDbCircle
  10
 1504.6348314607
  20
 4850.5337078652
  30
0.0
  40
 511.50000000000
 100
AcDbArc
  50
 22.559010865494
  51
 157.44098913451
   0
LINE
   5
223
 100
AcDbEntity
   8
LEVEL001
 370
13
 100
AcDbLine
   6
CONTINUOUS
  62
1
  10
 1033.6575304548
  20
 5046.1874375440
  30
0.0
  11
 1032.2723030989
  21
 5046.7628896900
  31
0.0
   0
LINE
   5
224
 100
AcDbEntity
   8
LEVEL001
 370
13
 100
AcDbLine
   6
CONTINUOUS
  62
1
  10
 1975.6121324665
  20
 5046.1874375440
  30
0.0
  11
 1976.9973598225
  21
 5046.7628896900
  31
0.0
   0
LINE
   5
225
 100
AcDbEntity
   8
LEVEL001
 370
13
 100
AcDbLine
   6
DASHDOT
  62
6
  10
 929.63483146068
  20
 4850.5337078652
  30
0.0
  11
 2079.6348314607
  21
 4850.5337078652
  31
0.0
   0
CIRCLE
   5
226
 100
AcDbEntity
   8
LEVEL001
 370
13
 100
AcDbCircle
   6
CONTINUOUS
  62
7
  10
 1504.6347704255
  20
 1018.0337078652
  30
0.0
  40
 7.5000000000000
   0
LINE
   5
227
 100
AcDbEntity
   8
LEVEL001
 370
13
 100
AcDbLine
   6
DASHDOT
  62
6
  10
 1474.6347704255
  20
 1018.0337078652
  30
0.0
  11
 1534.6348314607
  21
 1018.0337078652
  31
0.0
   0
LINE
   5
228
 100
AcDbEntity
   8
LEVEL001
 370
13
 100
AcDbLine
   6
CONTINUOUS
  62
7
  10
 1460.0848436677
  20
 1125.5337078652
  30
0.0
  11
 1388.2348070466
  21
 1125.5337078652
  31
0.0
   0
LINE
   5
229
 100
AcDbEntity
   8
LEVEL001
 370
13
 100
AcDbLine
   6
CONTINUOUS
  62
7
  10
 1388.2348070466
  20
 1125.5337078652
  30
0.0
  11
 1388.2348070466
  21
 1110.5337078652
  31
0.0
   0
LINE
   5
22A
 100
AcDbEntity
   8
LEVEL001
 370
13
 100
AcDbLine
   6
CONTINUOUS
  62
7
  10
 1388.2348070466
  20
 1110.5337078652
  30
0.0
  11
 1460.0848436677
  21
 1110.5337078652
  31
0.0
   0
LINE
   5
22B
 100
AcDbEntity
   8
LEVEL001
 370
13
 100
AcDbLine
   6
CONTINUOUS
  62
7
  10
 1549.1848802888
  20
 1125.5337078652
  30
0.0
  11
 1621.0348558747
  21
 1125.5337078652
  31
0.0
   0
LINE
   5
22C
 100
AcDbEntity
   8
LEVEL001
 370
13
 100
AcDbLine
   6
CONTINUOUS
  62
7
  10
 1621.0348558747
  20
 1125.5337078652
  30
0.0
  11
 1621.0348558747
  21
 1110.5337078652
  31
0.0
   0
LINE
   5
22D
 100
AcDbEntity
   8
LEVEL001
 370
13
 100
AcDbLine
   6
CONTINUOUS
  62
7
  10
 1621.0348558747
  20
 1110.5337078652
  30
0.0
  11
 1549.1848802888
  21
 1110.5337078652
  31
0.0
   0
LINE
   5
22E
 100
AcDbEntity
   8
LEVEL001
 370
13
 100
AcDbLine
   6
DASHDOT
  62
6
  10
 1438.2348070466
  20
 1118.0337078652
  30
0.0
  11
 1571.0348558747
  21
 1118.0337078652
  31
0.0
   0
LINE
   5
22F
 100
AcDbEntity
   8
LEVEL001
 370
13
 100
AcDbLine
   6
DOT
  62
1
  10
 1549.1848802888
  20
 1110.5337078652
  30
0.0
  11
 1460.0848436677
  21
 1110.5337078652
  31
0.0
   0
LINE
   5
230
 100
AcDbEntity
   8
LEVEL001
 370
13
 100
AcDbLine
   6
DOT
  62
1
  10
 1460.0848436677
  20
 1125.5337078652
  30
0.0
  11
 1549.1848802888
  21
 1125.5337078652
  31
0.0
   0
CIRCLE
   5
231
 100
AcDbEntity
   8
LEVEL001
 370
13
 100
AcDbCircle
   6
CONTINUOUS
  62
1
  10
 2304.6348314607
  20
 4200.5337078652
  30
0.0
  40
 69.999997913838
   0
MTEXT
   5
232
 100
AcDbEntity
   8
LEVEL001
 370
13
  62
1
 100
AcDbMText
  10
 2304.6348314607
  20
 4200.5337078652
  30
0.0
  40
 57.142857142858
  41
0.0
  71
5
  72
1
   1
\T1.000000;1
   7
GMM001
  44
 0.79999984000003
   0
LEADER
   5
233
 100
AcDbEntity
   8
LEVEL001
 370
13
   6
CONTINUOUS
  62
1
 100
AcDbLeader
   3
GMM002
  73
3
  74
1
  75
0
  40
 60.000000000000
  41
0.0
  76
2
  10
 1617.7654765977
  20
 4450.5337078652
  30
0.0
  10
 2238.9775684299
  20
 4224.8055746916
  30
0.0
  77
1
   0
CIRCLE
   5
234
 100
AcDbEntity
   8
LEVEL001
 370
13
 100
AcDbCircle
   6
CONTINUOUS
  62
1
  10
 1754.6348314607
  20
 4200.5337078652
  30
0.0
  40
 69.999997913838
   0
MTEXT
   5
235
 100
AcDbEntity
   8
LEVEL001
 370
13
  62
1
 100
AcDbMText
  10
 1754.6348314607
  20
 4200.5337078652
  30
0.0
  40
 57.142857142858
  41
0.0
  71
5
  72
1
   1
\T1.000000;4
   7
GMM001
  44
 0.79999984000003
   0
CIRCLE
   5
236
 100
AcDbEntity
   8
LEVEL001
 370
13
 100
AcDbCircle
   6
CONTINUOUS
  62
1
  10
 2304.6348314607
  20
 5460.5337078652
  30
0.0
  40
 69.999997913838
   0
MTEXT
   5
237
 100
AcDbEntity
   8
LEVEL001
 370
13
  62
1
 100
AcDbMText
  10
 2304.6348314607
  20
 5460.5337078652
  30
0.0
  40
 57.142857142858
  41
0.0
  71
5
  72
1
   1
\T1.000000;3
   7
GMM001
  44
 0.79999984000003
   0
CIRCLE
   5
238
 100
AcDbEntity
   8
LEVEL001
 370
13
 100
AcDbCircle
   6
CONTINUOUS
  62
1
  10
 2714.6348356331
  20
 5460.5337078652
  30
0.0
  40
 69.999997913838
   0
CIRCLE
   5
239
 100
AcDbEntity
   8
LEVEL001
 370
13
 100
AcDbCircle
   6
CONTINUOUS
  62
1
  10
 2854.6348314607
  20
 5460.5337078652
  30
0.0
  40
 69.999997913838
   0
MTEXT
   5
23A
 100
AcDbEntity
   8
LEVEL001
 370
13
  62
1
 100
AcDbMText
  10
 2854.6348314607
  20
 5460.5337078652
  30
0.0
  40
 57.142857142858
  41
0.0
  71
5
  72
1
   1
\T1.000000;7
   7
GMM001
  44
 0.79999984000003
   0
MTEXT
   5
23B
 100
AcDbEntity
   8
LEVEL001
 370
13
  62
1
 100
AcDbMText
  10
 2714.6348356331
  20
 5460.5337078652
  30
0.0
  40
 57.142857142858
  41
0.0
  71
5
  72
1
   1
\T1.000000;5
   7
GMM001
  44
 0.79999984000003
   0
CIRCLE
   5
23C
 100
AcDbEntity
   8
LEVEL001
 370
13
 100
AcDbCircle
   6
CONTINUOUS
  62
1
  10
 3364.1286495883
  20
 5460.5337078652
  30
0.0
  40
 69.999997913838
   0
CIRCLE
   5
23D
 100
AcDbEntity
   8
LEVEL001
 370
13
 100
AcDbCircle
   6
CONTINUOUS
  62
1
  10
 3204.6348314607
  20
 5460.5337078652
  30
0.0
  40
 70.000000000000
   0
MTEXT
   5
23E
 100
AcDbEntity
   8
LEVEL001
 370
13
  62
1
 100
AcDbMText
  10
 3364.1286495883
  20
 5460.5337078652
  30
0.0
  40
 57.142857142858
  41
0.0
  71
5
  72
1
   1
\T1.000000;6
   7
GMM001
  44
 0.79999984000003
   0
MTEXT
   5
23F
 100
AcDbEntity
   8
LEVEL001
 370
13
  62
1
 100
AcDbMText
  10
 3204.6348314607
  20
 5460.5337078652
  30
0.0
  40
 57.142857142858
  41
0.0
  71
5
  72
1
   1
\T1.000000;11
   7
GMM001
  44
 0.79999984000003
   0
MTEXT
   5
240
 100
AcDbEntity
   8
LEVEL001
 370
13
  62
1
 100
AcDbMText
  10
 3504.1286454161
  20
 5460.5337078652
  30
0.0
  40
 57.142857142858
  41
0.0
  71
5
  72
1
   1
\T1.000000;8
   7
GMM001
  44
 0.79999984000003
   0
CIRCLE
   5
241
 100
AcDbEntity
   8
LEVEL001
 370
13
 100
AcDbCircle
   6
CONTINUOUS
  62
1
  10
 3504.1286454161
  20
 5460.5337078652
  30
0.0
  40
 69.999997913838
   0
ARC
   5
242
 100
AcDbEntity
   8
LEVEL001
 370
13
   6
CONTINUOUS
  62
7
 100
AcDbCircle
  10
 2804.2378237309
  20
 4320.5337078652
  30
0.0
  40
 2.5000000000000
 100
AcDbArc
  50
 180.00000000000
  51
 270.00000000000
   0
ARC
   5
243
 100
AcDbEntity
   8
LEVEL001
 370
13
   6
CONTINUOUS
  62
7
 100
AcDbCircle
  10
 2804.2378237309
  20
 4320.5337078652
  30
0.0
  40
 2.5000000000000
 100
AcDbArc
  50
 270.00000000000
  51
0.0
   0
LINE
   5
244
 100
AcDbEntity
   8
LEVEL001
 370
13
 100
AcDbLine
   6
CONTINUOUS
  62
7
  10
 2782.3650107849
  20
 4344.4082704544
  30
0.0
  11
 2801.7378237309
  21
 4340.5337078652
  31
0.0
   0
ARC
   5
245
 100
AcDbEntity
   8
LEVEL001
 370
13
   6
CONTINUOUS
  62
7
 100
AcDbCircle
  10
 2783.7378237309
  20
 4351.2723351842
  30
0.0
  40
 7.0000000000000
 100
AcDbArc
  50
 180.00000000000
  51
 258.69006752598
   0
LINE
   5
246
 100
AcDbEntity
   8
LEVEL001
 370
13
 100
AcDbLine
   6
CONTINUOUS
  62
7
  10
 2801.7378237309
  20
 5380.5337078652
  30
0.0
  11
 2801.7378237309
  21
 4320.5337078652
  31
0.0
   0
LINE
   5
247
 100
AcDbEntity
   8
LEVEL001
 370
13
 100
AcDbLine
   6
CONTINUOUS
  62
7
  10
 2806.7378237309
  20
 4320.5337078652
  30
0.0
  11
 2806.7378237309
  21
 5380.5337078652
  31
0.0
   0
LINE
   5
248
 100
AcDbEntity
   8
LEVEL001
 370
13
 100
AcDbLine
   6
CONTINUOUS
  62
3
  10
 2801.7378237309
  20
 5046.1874375440
  30
0.0
  11
 2781.7378237309
  21
 5046.1874375438
  31
0.0
   0
LINE
   5
249
 100
AcDbEntity
   8
LEVEL001
 370
13
 100
AcDbLine
   6
CONTINUOUS
  62
3
  10
 2781.7378237309
  20
 5046.1874375438
  30
0.0
  11
 2716.7378237309
  21
 5158.7707400358
  31
0.0
   0
LINE
   5
24A
 100
AcDbEntity
   8
LEVEL001
 370
13
 100
AcDbLine
   6
CONTINUOUS
  62
3
  10
 2716.7378237309
  20
 5158.7707400358
  30
0.0
  11
 2716.7378237309
  21
 5362.0337078652
  31
0.0
   0
LINE
   5
24B
 100
AcDbEntity
   8
LEVEL001
 370
13
 100
AcDbLine
   6
CONTINUOUS
  62
3
  10
 2716.7378237309
  20
 5362.0337078652
  30
0.0
  11
 2801.7378237309
  21
 5362.0337078652
  31
0.0
   0
ARC
   5
24C
 100
AcDbEntity
   8
LEVEL001
 370
13
   6
HIDDEN
  62
6
 100
AcDbCircle
  10
 6341.8465177261
  20
 4850.5337078652
  30
0.0
  40
 3600.0000000000
 100
AcDbArc
  50
 172.01644385444
  51
 176.02227596322
   0
LINE
   5
24D
 100
AcDbEntity
   8
LEVEL001
 370
13
 100
AcDbLine
   6
HIDDEN
  62
6
  10
 2776.7378237309
  20
 5349.7950805462
  30
0.0
  11
 2776.7378237309
  21
 5054.8476915816
  31
0.0
   0
ARC
   5
24E
 100
AcDbEntity
   8
LEVEL001
 370
13
   6
CONTINUOUS
  62
7
 100
AcDbCircle
  10
 6341.8465177261
  20
 4850.5337078652
  30
0.0
  40
 3600.0000000000
 100
AcDbArc
  50
 176.02227596322
  51
 187.98355614556
   0
LINE
   5
24F
 100
AcDbEntity
   8
LEVEL001
 370
13
 100
AcDbLine
   6
CONTINUOUS
  62
7
  10
 2776.7378237309
  20
 5054.8476915816
  30
0.0
  11
 2776.7378237309
  21
 4351.2723351842
  31
0.0
   0
ARC
   5
250
 100
AcDbEntity
   8
LEVEL001
 370
13
   6
CONTINUOUS
  62
7
 100
AcDbCircle
  10
 2804.2378237309
  20
 5380.5337078652
  30
0.0
  40
 2.5000000000000
 100
AcDbArc
  50
 90.000000000000
  51
 180.00000000000
   0
ARC
   5
251
 100
AcDbEntity
   8
LEVEL001
 370
13
   6
CONTINUOUS
  62
7
 100
AcDbCircle
  10
 2804.2378237309
  20
 5380.5337078652
  30
0.0
  40
 2.5000000000000
 100
AcDbArc
  50
0.0
  51
 90.000000000000
   0
LINE
   5
252
 100
AcDbEntity
   8
LEVEL001
 370
13
 100
AcDbLine
   6
HIDDEN
  62
6
  10
 2801.7378237309
  20
 5360.5337078652
  30
0.0
  11
 2782.3650107849
  21
 5356.6591452760
  31
0.0
   0
ARC
   5
253
 100
AcDbEntity
   8
LEVEL001
 370
13
   6
HIDDEN
  62
6
 100
AcDbCircle
  10
 2783.7378237309
  20
 5349.7950805462
  30
0.0
  40
 7.0000000000000
 100
AcDbArc
  50
 101.30993247402
  51
 180.00000000002
   0
LINE
   5
254
 100
AcDbEntity
   8
LEVEL001
 370
13
 100
AcDbLine
   6
DASHDOT
  62
6
  10
 3096.8389330233
  20
 4850.5337078652
  30
0.0
  11
 2693.7700502933
  21
 4850.5337078652
  31
0.0
   0
LINE
   5
255
 100
AcDbEntity
   8
LEVEL001
 370
13
 100
AcDbLine
   6
CONTINUOUS
  62
7
  10
 2806.7378237309
  20
 4905.5337078652
  30
0.0
  11
 2899.9378237309
  21
 4905.5337078652
  31
0.0
   0
LINE
   5
256
 100
AcDbEntity
   8
LEVEL001
 370
13
 100
AcDbLine
   6
CONTINUOUS
  62
7
  10
 2899.9378237309
  20
 4905.5337078652
  30
0.0
  11
 2899.9378237309
  21
 4795.5337078652
  31
0.0
   0
LINE
   5
257
 100
AcDbEntity
   8
LEVEL001
 370
13
 100
AcDbLine
   6
CONTINUOUS
  62
7
  10
 2899.9378237309
  20
 4795.5337078652
  30
0.0
  11
 2806.7378237309
  21
 4795.5337078652
  31
0.0
   0
LINE
   5
258
 100
AcDbEntity
   8
LEVEL001
 370
13
 100
AcDbLine
   6
CONTINUOUS
  62
7
  10
 3049.1848802889
  20
 5122.0337078652
  30
0.0
  11
 2960.0847826325
  21
 5122.0337078652
  31
0.0
   0
LINE
   5
259
 100
AcDbEntity
   8
LEVEL001
 370
13
 100
AcDbLine
   6
CONTINUOUS
  62
7
  10
 2960.0847826325
  20
 5122.0337078652
  30
0.0
  11
 2960.0847826325
  21
 5119.0337078652
  31
0.0
   0
LINE
   5
25A
 100
AcDbEntity
   8
LEVEL001
 370
13
 100
AcDbLine
   6
CONTINUOUS
  62
7
  10
 2960.0847826325
  20
 5119.0337078652
  30
0.0
  11
 3049.1848802889
  21
 5119.0337078652
  31
0.0
   0
LINE
   5
25B
 100
AcDbEntity
   8
LEVEL001
 370
13
 100
AcDbLine
   6
CONTINUOUS
  62
7
  10
 3049.1848802889
  20
 5119.0337078652
  30
0.0
  11
 3049.1848802889
  21
 5122.0337078652
  31
0.0
   0
LINE
   5
25C
 100
AcDbEntity
   8
LEVEL001
 370
13
 100
AcDbLine
   6
DOT
  62
1
  10
 3044.1848802889
  20
 5119.0337078652
  30
0.0
  11
 3044.1848802889
  21
 5092.0337078652
  31
0.0
   0
LINE
   5
25D
 100
AcDbEntity
   8
LEVEL001
 370
13
 100
AcDbLine
   6
DOT
  62
1
  10
 3044.1848802889
  20
 5092.0337078652
  30
0.0
  11
 2965.0847826325
  21
 5092.0337078652
  31
0.0
   0
LINE
   5
25E
 100
AcDbEntity
   8
LEVEL001
 370
13
 100
AcDbLine
   6
DOT
  62
1
  10
 2965.0847826325
  20
 5092.0337078652
  30
0.0
  11
 2965.0847826325
  21
 5119.0337078652
  31
0.0
   0
LINE
   5
25F
 100
AcDbEntity
   8
LEVEL001
 370
13
 100
AcDbLine
   6
CONTINUOUS
  62
7
  10
 3049.1848802889
  20
 4905.5337078652
  30
0.0
  11
 3049.1848802889
  21
 5118.0337078652
  31
0.0
   0
LINE
   5
260
 100
AcDbEntity
   8
LEVEL001
 370
13
 100
AcDbLine
   6
CONTINUOUS
  62
7
  10
 3049.1848802889
  20
 5118.0337078652
  30
0.0
  11
 2960.0847826325
  21
 5118.0337078652
  31
0.0
   0
LINE
   5
261
 100
AcDbEntity
   8
LEVEL001
 370
13
 100
AcDbLine
   6
CONTINUOUS
  62
7
  10
 2960.0847826325
  20
 5118.0337078652
  30
0.0
  11
 2960.0847826325
  21
 4905.5337078652
  31
0.0
   0
LINE
   5
262
 100
AcDbEntity
   8
LEVEL001
 370
13
 100
AcDbLine
   6
DASHDOT
  62
6
  10
 3004.6348314607
  20
 4915.5337078652
  30
0.0
  11
 3004.6348314607
  21
 4785.5337078652
  31
0.0
   0
LINE
   5
263
 100
AcDbEntity
   8
LEVEL001
 370
13
 100
AcDbLine
   6
DASHDOT
  62
6
  10
 2899.9378237309
  20
 4880.5337078652
  30
0.0
  11
 2859.9378237309
  21
 4880.5337078652
  31
0.0
   0
LINE
   5
264
 100
AcDbEntity
   8
LEVEL001
 370
13
 100
AcDbLine
   6
DASHDOT
  62
6
  10
 2879.9378237309
  20
 4900.5337078652
  30
0.0
  11
 2879.9378237309
  21
 4860.5337078652
  31
0.0
   0
LINE
   5
265
 100
AcDbEntity
   8
LEVEL001
 370
13
 100
AcDbLine
   6
DASHDOT
  62
6
  10
 2899.9378237309
  20
 4820.5337078652
  30
0.0
  11
 2859.9378237309
  21
 4820.5337078652
  31
0.0
   0
LINE
   5
266
 100
AcDbEntity
   8
LEVEL001
 370
13
 100
AcDbLine
   6
DASHDOT
  62
6
  10
 2879.9378237309
  20
 4840.5337078652
  30
0.0
  11
 2879.9378237309
  21
 4800.5337078652
  31
0.0
   0
LINE
   5
267
 100
AcDbEntity
   8
LEVEL001
 370
13
 100
AcDbLine
   6
DASHDOT
  62
6
  10
 2949.0869463883
  20
 4846.1191216842
  30
0.0
  11
 2909.0869463883
  21
 4846.1191216842
  31
0.0
   0
LINE
   5
268
 100
AcDbEntity
   8
LEVEL001
 370
13
 100
AcDbLine
   6
DASHDOT
  62
6
  10
 2929.0869463883
  20
 4866.1191216842
  30
0.0
  11
 2929.0869463883
  21
 4826.1191216842
  31
0.0
   0
LINE
   5
269
 100
AcDbEntity
   8
LEVEL001
 370
13
 100
AcDbLine
   6
CONTINUOUS
  62
7
  10
 2959.9378237309
  20
 4795.5337078652
  30
0.0
  11
 2959.9378237309
  21
 4905.5337078652
  31
0.0
   0
ARC
   5
26A
 100
AcDbEntity
   8
LEVEL001
 370
13
   6
CONTINUOUS
  62
3
 100
AcDbCircle
  10
 2929.0869463883
  20
 4846.1191216842
  30
0.0
  40
 8.0000000000000
 100
AcDbArc
  50
 325.00000000000
  51
 145.00000000000
   0
LINE
   5
26B
 100
AcDbEntity
   8
LEVEL001
 370
13
 100
AcDbLine
   6
CONTINUOUS
  62
6
  10
 3048.0628495345
  20
 4900.5337078652
  30
0.0
  11
 3048.0628495345
  21
 4800.5337078652
  31
0.0
   0
LINE
   5
26C
 100
AcDbEntity
   8
LEVEL001
 370
13
 100
AcDbLine
   6
DASHDOT
  62
6
  10
 3087.6348399805
  20
 4880.5337077252
  30
0.0
  11
 3047.6348399805
  21
 4880.5337077252
  31
0.0
   0
LINE
   5
26D
 100
AcDbEntity
   8
LEVEL001
 370
13
 100
AcDbLine
   6
DASHDOT
  62
6
  10
 3067.6348399805
  20
 4900.5337077252
  30
0.0
  11
 3067.6348399805
  21
 4860.5337077252
  31
0.0
   0
LINE
   5
26E
 100
AcDbEntity
   8
LEVEL001
 370
13
 100
AcDbLine
   6
DASHDOT
  62
6
  10
 3087.6348399805
  20
 4820.5337077252
  30
0.0
  11
 3047.6348399805
  21
 4820.5337077252
  31
0.0
   0
LINE
   5
26F
 100
AcDbEntity
   8
LEVEL001
 370
13
 100
AcDbLine
   6
DASHDOT
  62
6
  10
 3067.6348399805
  20
 4840.5337077252
  30
0.0
  11
 3067.6348399805
  21
 4800.5337077252
  31
0.0
   0
LINE
   5
270
 100
AcDbEntity
   8
LEVEL001
 370
13
 100
AcDbLine
   6
CONTINUOUS
  62
3
  10
 3060.6348399805
  20
 4873.5337078652
  30
0.0
  11
 3074.6348399805
  21
 4873.5337078652
  31
0.0
   0
LINE
   5
271
 100
AcDbEntity
   8
LEVEL001
 370
13
 100
AcDbLine
   6
CONTINUOUS
  62
3
  10
 3074.6348399805
  20
 4873.5337078652
  30
0.0
  11
 3074.6348399805
  21
 4887.5337078652
  31
0.0
   0
LINE
   5
272
 100
AcDbEntity
   8
LEVEL001
 370
13
 100
AcDbLine
   6
CONTINUOUS
  62
3
  10
 3074.6348399805
  20
 4887.5337078652
  30
0.0
  11
 3060.6348399805
  21
 4887.5337078652
  31
0.0
   0
LINE
   5
273
 100
AcDbEntity
   8
LEVEL001
 370
13
 100
AcDbLine
   6
CONTINUOUS
  62
3
  10
 3060.6348399805
  20
 4887.5337078652
  30
0.0
  11
 3060.6348399805
  21
 4873.5337078652
  31
0.0
   0
LINE
   5
274
 100
AcDbEntity
   8
LEVEL001
 370
13
 100
AcDbLine
   6
CONTINUOUS
  62
3
  10
 3060.6348399805
  20
 4813.5337078652
  30
0.0
  11
 3074.6348399805
  21
 4813.5337078652
  31
0.0
   0
LINE
   5
275
 100
AcDbEntity
   8
LEVEL001
 370
13
 100
AcDbLine
   6
CONTINUOUS
  62
3
  10
 3074.6348399805
  20
 4813.5337078652
  30
0.0
  11
 3074.6348399805
  21
 4827.5337078652
  31
0.0
   0
LINE
   5
276
 100
AcDbEntity
   8
LEVEL001
 370
13
 100
AcDbLine
   6
CONTINUOUS
  62
3
  10
 3074.6348399805
  20
 4827.5337078652
  30
0.0
  11
 3060.6348399805
  21
 4827.5337078652
  31
0.0
   0
LINE
   5
277
 100
AcDbEntity
   8
LEVEL001
 370
13
 100
AcDbLine
   6
CONTINUOUS
  62
3
  10
 3060.6348399805
  20
 4827.5337078652
  30
0.0
  11
 3060.6348399805
  21
 4813.5337078652
  31
0.0
   0
LINE
   5
278
 100
AcDbEntity
   8
LEVEL001
 370
13
 100
AcDbLine
   6
DASHDOT
  62
6
  10
 2879.9378237309
  20
 4895.5337078652
  30
0.0
  11
 2879.9378237309
  21
 4865.5337078652
  31
0.0
   0
LINE
   5
279
 100
AcDbEntity
   8
LEVEL001
 370
13
 100
AcDbLine
   6
DASHDOT
  62
6
  10
 2864.9378237309
  20
 4880.5337078652
  30
0.0
  11
 2894.9378237309
  21
 4880.5337078652
  31
0.0
   0
LINE
   5
27A
 100
AcDbEntity
   8
LEVEL001
 370
13
 100
AcDbLine
   6
DASHDOT
  62
6
  10
 2879.9378237309
  20
 4835.5337078652
  30
0.0
  11
 2879.9378237309
  21
 4805.5337078652
  31
0.0
   0
LINE
   5
27B
 100
AcDbEntity
   8
LEVEL001
 370
13
 100
AcDbLine
   6
DASHDOT
  62
6
  10
 2864.9378237309
  20
 4820.5337078652
  30
0.0
  11
 2894.9378237309
  21
 4820.5337078652
  31
0.0
   0
LINE
   5
27C
 100
AcDbEntity
   8
LEVEL001
 370
13
 100
AcDbLine
   6
CONTINUOUS
  62
3
  10
 2872.9378237309
  20
 4887.5337078652
  30
0.0
  11
 2886.9378237309
  21
 4887.5337078652
  31
0.0
   0
LINE
   5
27D
 100
AcDbEntity
   8
LEVEL001
 370
13
 100
AcDbLine
   6
CONTINUOUS
  62
3
  10
 2886.9378237309
  20
 4887.5337078652
  30
0.0
  11
 2886.9378237309
  21
 4873.5337078652
  31
0.0
   0
LINE
   5
27E
 100
AcDbEntity
   8
LEVEL001
 370
13
 100
AcDbLine
   6
CONTINUOUS
  62
3
  10
 2886.9378237309
  20
 4873.5337078652
  30
0.0
  11
 2872.9378237309
  21
 4873.5337078652
  31
0.0
   0
LINE
   5
27F
 100
AcDbEntity
   8
LEVEL001
 370
13
 100
AcDbLine
   6
CONTINUOUS
  62
3
  10
 2872.9378237309
  20
 4873.5337078652
  30
0.0
  11
 2872.9378237309
  21
 4887.5337078652
  31
0.0
   0
LINE
   5
280
 100
AcDbEntity
   8
LEVEL001
 370
13
 100
AcDbLine
   6
CONTINUOUS
  62
3
  10
 2872.9378237309
  20
 4827.5337078652
  30
0.0
  11
 2886.9378237309
  21
 4827.5337078652
  31
0.0
   0
LINE
   5
281
 100
AcDbEntity
   8
LEVEL001
 370
13
 100
AcDbLine
   6
CONTINUOUS
  62
3
  10
 2886.9378237309
  20
 4827.5337078652
  30
0.0
  11
 2886.9378237309
  21
 4813.5337078652
  31
0.0
   0
LINE
   5
282
 100
AcDbEntity
   8
LEVEL001
 370
13
 100
AcDbLine
   6
CONTINUOUS
  62
3
  10
 2886.9378237309
  20
 4813.5337078652
  30
0.0
  11
 2872.9378237309
  21
 4813.5337078652
  31
0.0
   0
LINE
   5
283
 100
AcDbEntity
   8
LEVEL001
 370
13
 100
AcDbLine
   6
CONTINUOUS
  62
3
  10
 2872.9378237309
  20
 4813.5337078652
  30
0.0
  11
 2872.9378237309
  21
 4827.5337078652
  31
0.0
   0
ARC
   5
284
 100
AcDbEntity
   8
LEVEL001
 370
13
   6
CONTINUOUS
  62
3
 100
AcDbCircle
  10
 2879.9378237309
  20
 4880.5337078652
  30
0.0
  40
 52.000000000000
 100
AcDbArc
  50
 292.61986494804
  51
 325.00000000001
   0
ARC
   5
285
 100
AcDbEntity
   8
LEVEL001
 370
13
   6
CONTINUOUS
  62
3
 100
AcDbCircle
  10
 2879.9378237309
  20
 4880.5337078652
  30
0.0
  40
 68.000000000000
 100
AcDbArc
  50
 287.10463517664
  51
 325.00000000000
   0
LINE
   5
286
 100
AcDbEntity
   8
LEVEL001
 370
13
 100
AcDbLine
   6
CONTINUOUS
  62
7
  10
 2899.9378237309
  20
 4795.5337078652
  30
0.0
  11
 3087.6348399805
  21
 4795.5337078652
  31
0.0
   0
LINE
   5
287
 100
AcDbEntity
   8
LEVEL001
 370
13
 100
AcDbLine
   6
CONTINUOUS
  62
7
  10
 3087.6348399805
  20
 4795.5337078652
  30
0.0
  11
 3087.6348399805
  21
 4905.5337078652
  31
0.0
   0
LINE
   5
288
 100
AcDbEntity
   8
LEVEL001
 370
13
 100
AcDbLine
   6
CONTINUOUS
  62
7
  10
 3087.6348399805
  20
 4905.5337078652
  30
0.0
  11
 2899.9378237309
  21
 4905.5337078652
  31
0.0
   0
LEADER
   5
289
 100
AcDbEntity
   8
LEVEL001
 370
13
   6
CONTINUOUS
  62
1
 100
AcDbLeader
   3
GMM002
  73
3
  74
1
  75
0
  40
 60.000000000000
  41
0.0
  76
2
  10
 2764.8774357033
  20
 4443.9722903000
  30
0.0
  10
 2366.8852192675
  20
 4232.5475943184
  30
0.0
  77
1
   0
LEADER
   5
28A
 100
AcDbEntity
   8
LEVEL001
 370
13
   6
CONTINUOUS
  62
1
 100
AcDbLeader
   3
GMM002
  73
3
  74
1
  75
0
  40
 60.000000000000
  41
0.0
  76
2
  10
 1623.7451646531
  20
 4331.5260214800
  30
0.0
  10
 1705.1373582532
  20
 4250.0311810736
  30
0.0
  77
1
   0
LEADER
   5
28B
 100
AcDbEntity
   8
LEVEL001
 370
13
   6
CONTINUOUS
  62
1
 100
AcDbLeader
   3
GMM002
  73
3
  74
1
  75
0
  40
 60.000000000000
  41
0.0
  76
2
  10
 1702.8391355426
  20
 5322.0708790864
  30
0.0
  10
 2236.4594363191
  20
 5444.6555717904
  30
0.0
  77
1
   0
LEADER
   5
28C
 100
AcDbEntity
   8
LEVEL001
 370
13
   6
CONTINUOUS
  62
1
 100
AcDbLeader
   3
GMM002
  73
3
  74
1
  75
0
  40
 60.000000000000
  41
0.0
  76
2
  10
 2716.7378237309
  20
 5309.3357415060
  30
0.0
  10
 2370.0663773521
  20
 5435.6597755226
  30
0.0
  77
1
   0
LEADER
   5
28D
 100
AcDbEntity
   8
LEVEL001
 370
13
   6
CONTINUOUS
  62
1
 100
AcDbLeader
   3
GMM002
  73
3
  74
1
  75
0
  40
 60.000000000000
  41
0.0
  76
2
  10
 2840.7752516501
  20
 4905.5337078652
  30
0.0
  10
 2853.3353684673
  20
 5390.5457724486
  30
0.0
  77
1
   0
LEADER
   5
28E
 100
AcDbEntity
   8
LEVEL001
 370
13
   6
CONTINUOUS
  62
1
 100
AcDbLeader
   3
GMM002
  73
3
  74
1
  75
0
  40
 60.000000000000
  41
0.0
  76
2
  10
 3004.6348314607
  20
 5122.0337078652
  30
0.0
  10
 3169.0506697959
  20
 5400.2529693278
  30
0.0
  77
1
   0
LEADER
   5
28F
 100
AcDbEntity
   8
LEVEL001
 370
13
   6
CONTINUOUS
  62
1
 100
AcDbLeader
   3
GMM002
  73
3
  74
1
  75
0
  40
 60.000000000000
  41
0.0
  76
2
  10
 3087.6348399805
  20
 4905.5337078652
  30
0.0
  10
 3333.1499808303
  20
 5397.7617253418
  30
0.0
  77
1
   0
LINE
   5
290
 100
AcDbEntity
   8
LEVEL001
 370
13
 100
AcDbLine
   6
CONTINUOUS
  62
7
  10
 8104.6348314607
  20
 5700.5337078652
  30
0.0
  11
 304.63483146068
  21
 5700.5337078652
  31
0.0
   0
LINE
   5
291
 100
AcDbEntity
   8
LEVEL001
 370
13
 100
AcDbLine
   6
CONTINUOUS
  62
7
  10
 304.63483146068
  20
 5700.5337078652
  30
0.0
  11
 304.63483146068
  21
 200.53370786517
  31
0.0
   0
LINE
   5
292
 100
AcDbEntity
   8
LEVEL001
 370
13
 100
AcDbLine
   6
CONTINUOUS
  62
7
  10
 304.63483146068
  20
 200.53370786517
  30
0.0
  11
 8104.6348314607
  21
 200.53370786517
  31
0.0
   0
LINE
   5
293
 100
AcDbEntity
   8
LEVEL001
 370
13
 100
AcDbLine
   6
CONTINUOUS
  62
7
  10
 8104.6348314607
  20
 200.53370786517
  30
0.0
  11
 8104.6348314607
  21
 5700.5337078652
  31
0.0
   0
MTEXT
   5
295
 100
AcDbEntity
   8
LEVEL001
 370
13
  62
1
 100
AcDbMText
  10
 2225.2834366701
  20
 1826.7636449054
  30
0.0
  40
 40.000000000000
  41
0.0
  71
7
  72
1
   1
\T1.000000;ＧＬ
   7
GMM003
  44
 0.79999984000003
   0
LINE
   5
296
 100
AcDbEntity
   8
LEVEL001
 370
13
 100
AcDbLine
   6
CONTINUOUS
  62
1
  10
 2197.1347662253
  20
 1818.0337078651
  30
0.0
  11
 2172.1347662253
  21
 1868.0337078651
  31
0.0
   0
LINE
   5
297
 100
AcDbEntity
   8
LEVEL001
 370
13
 100
AcDbLine
   6
CONTINUOUS
  62
1
  10
 2172.1347662253
  20
 1868.0337078651
  30
0.0
  11
 2222.1347662253
  21
 1868.0337078651
  31
0.0
   0
LINE
   5
298
 100
AcDbEntity
   8
LEVEL001
 370
13
 100
AcDbLine
   6
CONTINUOUS
  62
1
  10
 2222.1347662253
  20
 1868.0337078651
  30
0.0
  11
 2197.1347662253
  21
 1818.0337078651
  31
0.0
   0
CIRCLE
   5
299
 100
AcDbEntity
   8
LEVEL001
 370
13
 100
AcDbCircle
   6
CONTINUOUS
  62
1
  10
 2214.6348314607
  20
 868.03370786517
  30
0.0
  40
 70.000000000000
   0
LEADER
   5
29A
 100
AcDbEntity
   8
LEVEL001
 370
13
   6
CONTINUOUS
  62
1
 100
AcDbLeader
   3
GMM002
  73
3
  74
1
  75
0
  40
 60.000000000000
  41
0.0
  76
2
  10
 2488.2349291169
  20
 1010.5337078652
  30
0.0
  10
 2276.6393808745
  20
 900.52118009661
  30
0.0
  77
1
   0
MTEXT
   5
29B
 100
AcDbEntity
   8
LEVEL001
 370
13
  62
1
 100
AcDbMText
  10
 2214.6348314607
  20
 868.03370786517
  30
0.0
  40
 57.142857142858
  41
0.0
  71
5
  72
1
   1
\T1.000000;10
   7
GMM001
  44
 0.79999984000003
   0
CIRCLE
   5
29C
 100
AcDbEntity
   8
LEVEL001
 370
13
 100
AcDbCircle
   6
CONTINUOUS
  62
7
  10
 2604.6348314607
  20
 1118.0337078652
  30
0.0
  40
 7.5000000000000
   0
LINE
   5
29D
 100
AcDbEntity
   8
LEVEL001
 370
13
 100
AcDbLine
   6
DASHDOT
  62
6
  10
 2574.6348314607
  20
 1118.0337078652
  30
0.0
  11
 2634.6348314607
  21
 1118.0337078652
  31
0.0
   0
LINE
   5
29E
 100
AcDbEntity
   8
LEVEL001
 370
13
 100
AcDbLine
   6
CONTINUOUS
  62
7
  10
 2560.0847826325
  20
 1025.5337078652
  30
0.0
  11
 2488.2349291169
  21
 1025.5337078652
  31
0.0
   0
LINE
   5
29F
 100
AcDbEntity
   8
LEVEL001
 370
13
 100
AcDbLine
   6
CONTINUOUS
  62
7
  10
 2488.2349291169
  20
 1025.5337078652
  30
0.0
  11
 2488.2349291169
  21
 1010.5337078652
  31
0.0
   0
LINE
   5
2A0
 100
AcDbEntity
   8
LEVEL001
 370
13
 100
AcDbLine
   6
CONTINUOUS
  62
7
  10
 2488.2349291169
  20
 1010.5337078652
  30
0.0
  11
 2560.0847826325
  21
 1010.5337078652
  31
0.0
   0
LINE
   5
2A1
 100
AcDbEntity
   8
LEVEL001
 370
13
 100
AcDbLine
   6
CONTINUOUS
  62
7
  10
 2649.1848802889
  20
 1025.5337078652
  30
0.0
  11
 2721.0347338045
  21
 1025.5337078652
  31
0.0
   0
LINE
   5
2A2
 100
AcDbEntity
   8
LEVEL001
 370
13
 100
AcDbLine
   6
CONTINUOUS
  62
7
  10
 2721.0347338045
  20
 1025.5337078652
  30
0.0
  11
 2721.0347338045
  21
 1010.5337078652
  31
0.0
   0
LINE
   5
2A3
 100
AcDbEntity
   8
LEVEL001
 370
13
 100
AcDbLine
   6
CONTINUOUS
  62
7
  10
 2721.0347338045
  20
 1010.5337078652
  30
0.0
  11
 2649.1848802889
  21
 1010.5337078652
  31
0.0
   0
LINE
   5
2A4
 100
AcDbEntity
   8
LEVEL001
 370
13
 100
AcDbLine
   6
DASHDOT
  62
6
  10
 2538.2349291169
  20
 1018.0337078652
  30
0.0
  11
 2671.0347338045
  21
 1018.0337078652
  31
0.0
   0
LINE
   5
2A5
 100
AcDbEntity
   8
LEVEL001
 370
13
 100
AcDbLine
   6
DOT
  62
1
  10
 2649.1848802889
  20
 1010.5337078652
  30
0.0
  11
 2560.0847826325
  21
 1010.5337078652
  31
0.0
   0
LINE
   5
2A6
 100
AcDbEntity
   8
LEVEL001
 370
13
 100
AcDbLine
   6
DOT
  62
1
  10
 2560.0847826325
  20
 1025.5337078652
  30
0.0
  11
 2649.1848802889
  21
 1025.5337078652
  31
0.0
   0
LINE
   5
2A7
 100
AcDbEntity
   8
LEVEL001
 370
13
 100
AcDbLine
   6
DASHDOT
  62
6
  10
 1504.6348314607
  20
 5425.5337078652
  30
0.0
  11
 1504.6348314607
  21
 618.03370786517
  31
0.0
   0
ARC
   5
2A8
 100
AcDbEntity
   8
LEVEL001
 370
13
   6
CONTINUOUS
  62
7
 100
AcDbCircle
  10
 2560.0848314607
  20
 4173.9734278028
  30
0.0
  40
 400.00000000000
 100
AcDbArc
  50
 321.34019174591
  51
 0.13027551975275E-12
   0
ARC
   5
2A9
 100
AcDbEntity
   8
LEVEL001
 370
13
   6
DASHDOT
  62
6
 100
AcDbCircle
  10
 2560.0848314607
  20
 4173.9734278028
  30
0.0
  40
 444.55000000000
 100
AcDbArc
  50
 321.34019174591
  51
 0.11722012799707E-12
   0
ARC
   5
2AA
 100
AcDbEntity
   8
LEVEL001
 370
13
   6
CONTINUOUS
  62
7
 100
AcDbCircle
  10
 2560.0848314607
  20
 4173.9734278026
  30
0.0
  40
 489.10000000000
 100
AcDbArc
  50
 321.34019174591
  51
 0.10654305438785E-12
   0
LINE
   5
2AB
 100
AcDbEntity
   8
LEVEL001
 370
13
 100
AcDbLine
   6
DASHDOT
  62
6
  10
 3004.6348314607
  20
 5168.0337078652
  30
0.0
  11
 3004.6348314607
  21
 4173.9734278028
  31
0.0
   0
LINE
   5
2AC
 100
AcDbEntity
   8
LEVEL001
 370
13
 100
AcDbLine
   6
CONTINUOUS
  62
7
  10
 3049.1848314607
  20
 4795.5337078652
  30
0.0
  11
 3049.1848314607
  21
 4173.9734278026
  31
0.0
   0
LINE
   5
2AD
 100
AcDbEntity
   8
LEVEL001
 370
13
 100
AcDbLine
   6
CONTINUOUS
  62
7
  10
 2960.0848314607
  20
 4173.9734278028
  30
0.0
  11
 2960.0848314607
  21
 4795.5337078652
  31
0.0
   0
ARC
   5
2AE
 100
AcDbEntity
   8
LEVEL001
 370
13
   6
CONTINUOUS
  62
7
 100
AcDbCircle
  10
 3049.1848314607
  20
 3362.0939879274
  30
0.0
  40
 400.00000000000
 100
AcDbArc
  50
 141.34019174591
  51
 180.00000000000
   0
ARC
   5
2AF
 100
AcDbEntity
   8
LEVEL001
 370
13
   6
DASHDOT
  62
6
 100
AcDbCircle
  10
 3049.1848314607
  20
 3362.0939879276
  30
0.0
  40
 444.55000000000
 100
AcDbArc
  50
 141.34019174591
  51
 180.00000000000
   0
ARC
   5
2B0
 100
AcDbEntity
   8
LEVEL001
 370
13
   6
CONTINUOUS
  62
7
 100
AcDbCircle
  10
 3049.1848314607
  20
 3362.0939879274
  30
0.0
  40
 489.10000000000
 100
AcDbArc
  50
 141.34019174591
  51
 180.00000000000
   0
LINE
   5
2B1
 100
AcDbEntity
   8
LEVEL001
 370
13
 100
AcDbLine
   6
CONTINUOUS
  62
7
  10
 2872.4323552379
  20
 3924.0954087810
  30
0.0
  11
 2667.2618967621
  21
 3667.6323356862
  31
0.0
   0
LINE
   5
2B2
 100
AcDbEntity
   8
LEVEL001
 370
13
 100
AcDbLine
   6
DASHDOT
  62
6
  10
 2907.2200606987
  20
 3896.2652444126
  30
0.0
  11
 2702.0496022229
  21
 3639.8021713178
  31
0.0
   0
LINE
   5
2B3
 100
AcDbEntity
   8
LEVEL001
 370
13
 100
AcDbLine
   6
CONTINUOUS
  62
7
  10
 2736.8373076835
  20
 3611.9720069490
  30
0.0
  11
 2942.0077661593
  21
 3868.4350800438
  31
0.0
   0
ARC
   5
2B4
 100
AcDbEntity
   8
LEVEL001
 370
13
   6
CONTINUOUS
  62
7
 100
AcDbCircle
  10
 2549.5835619273
  20
 2858.2357329534
  30
0.0
  40
 5.0000000000000
 100
AcDbArc
  50
 180.00164397080
  51
 201.80293588369
   0
LINE
   5
2B5
 100
AcDbEntity
   8
LEVEL001
 370
13
 100
AcDbLine
   6
CONTINUOUS
  62
7
  10
 2547.6550951325
  20
 2849.5939879274
  30
0.0
  11
 2544.9412279451
  21
 2856.3786558960
  31
0.0
   0
LINE
   5
2B6
 100
AcDbEntity
   8
LEVEL001
 370
13
 100
AcDbLine
   6
CONTINUOUS
  62
7
  10
 2547.6550951325
  20
 3449.5939879274
  30
0.0
  11
 2544.9412279451
  21
 3442.8090758180
  31
0.0
   0
ARC
   5
2B7
 100
AcDbEntity
   8
LEVEL001
 370
13
   6
CONTINUOUS
  62
7
 100
AcDbCircle
  10
 2549.5835619273
  20
 3440.9519987606
  30
0.0
  40
 5.0000000000000
 100
AcDbArc
  50
 158.19706411631
  51
 179.99835602918
   0
LINE
   5
2B8
 100
AcDbEntity
   8
LEVEL001
 370
13
 100
AcDbLine
   6
CONTINUOUS
  62
7
  10
 2544.5835619295
  20
 3440.9521422242
  30
0.0
  11
 2544.5835619295
  21
 2858.2355894898
  31
0.0
   0
LINE
   5
2B9
 100
AcDbEntity
   8
LEVEL001
 370
13
 100
AcDbLine
   6
CONTINUOUS
  62
6
  10
 2551.5835619295
  20
 2920.5939879274
  30
0.0
  11
 2551.5835619295
  21
 2919.5939879274
  31
0.0
   0
LINE
   5
2BA
 100
AcDbEntity
   8
LEVEL001
 370
13
 100
AcDbLine
   6
CONTINUOUS
  62
7
  10
 2552.0391283357
  20
 2934.5942320680
  30
0.0
  11
 2552.0396166169
  21
 2976.5942320680
  31
0.0
   0
LINE
   5
2BB
 100
AcDbEntity
   8
LEVEL001
 370
13
 100
AcDbLine
   6
CONTINUOUS
  62
6
  10
 2551.5835619295
  20
 3378.5939879274
  30
0.0
  11
 2551.5835619295
  21
 3379.5939879274
  31
0.0
   0
LINE
   5
2BC
 100
AcDbEntity
   8
LEVEL001
 370
13
 100
AcDbLine
   6
CONTINUOUS
  62
7
  10
 2552.0391283357
  20
 3364.5934996460
  30
0.0
  11
 2552.0396166169
  21
 3322.5937437866
  31
0.0
   0
ARC
   5
2BD
 100
AcDbEntity
   8
LEVEL001
 370
13
   6
CONTINUOUS
  62
7
 100
AcDbCircle
  10
 2543.5835619513
  20
 2865.4411772694
  30
0.0
  40
 5.0000000000000
 100
AcDbArc
  50
 338.20459713447
  51
 0.53503703463050E-2
   0
LINE
   5
2BE
 100
AcDbEntity
   8
LEVEL001
 370
13
 100
AcDbLine
   6
CONTINUOUS
  62
7
  10
 2546.4236498201
  20
 2859.0788512086
  30
0.0
  11
 2548.2261400545
  21
 2863.5847105836
  31
0.0
   0
ARC
   5
2BF
 100
AcDbEntity
   8
LEVEL001
 370
13
   6
CONTINUOUS
  62
7
 100
AcDbCircle
  10
 2551.0660411897
  20
 2857.2219176148
  30
0.0
  40
 5.0000000000000
 100
AcDbArc
  50
 158.19883473499
  51
 201.80116526501
   0
LINE
   5
2C0
 100
AcDbEntity
   8
LEVEL001
 370
13
 100
AcDbLine
   6
CONTINUOUS
  62
7
  10
 2547.6550951325
  20
 2849.5939879274
  30
0.0
  11
 2548.5835619295
  21
 2849.9653258180
  31
0.0
   0
LINE
   5
2C1
 100
AcDbEntity
   8
LEVEL001
 370
13
 100
AcDbLine
   6
CONTINUOUS
  62
7
  10
 2548.5835619295
  20
 2849.9653258180
  30
0.0
  11
 2546.4236498201
  21
 2855.3649840210
  31
0.0
   0
ARC
   5
2C2
 100
AcDbEntity
   8
LEVEL001
 370
13
   6
CONTINUOUS
  62
7
 100
AcDbCircle
  10
 2543.5835619513
  20
 3433.7467985852
  30
0.0
  40
 5.0000000000000
 100
AcDbArc
  50
 359.99464962967
  51
 21.795402865535
   0
LINE
   5
2C3
 100
AcDbEntity
   8
LEVEL001
 370
13
 100
AcDbLine
   6
CONTINUOUS
  62
7
  10
 2546.4236498201
  20
 3440.1088805054
  30
0.0
  11
 2548.2261400545
  21
 3435.6032652710
  31
0.0
   0
ARC
   5
2C4
 100
AcDbEntity
   8
LEVEL001
 370
13
   6
CONTINUOUS
  62
7
 100
AcDbCircle
  10
 2551.0660411897
  20
 3441.9658140992
  30
0.0
  40
 5.0000000000000
 100
AcDbArc
  50
 158.19883473498
  51
 201.80116526501
   0
LINE
   5
2C5
 100
AcDbEntity
   8
LEVEL001
 370
13
 100
AcDbLine
   6
CONTINUOUS
  62
7
  10
 2547.6550951325
  20
 3449.5939879274
  30
0.0
  11
 2548.5835619295
  21
 3449.2226500366
  31
0.0
   0
LINE
   5
2C6
 100
AcDbEntity
   8
LEVEL001
 370
13
 100
AcDbLine
   6
CONTINUOUS
  62
7
  10
 2548.5835619295
  20
 3449.2226500366
  30
0.0
  11
 2546.4236498201
  21
 3443.8227476930
  31
0.0
   0
LINE
   5
2C7
 100
AcDbEntity
   8
LEVEL001
 370
13
 100
AcDbLine
   6
CONTINUOUS
  62
7
  10
 2548.5835619295
  20
 3433.7463316774
  30
0.0
  11
 2548.5835619295
  21
 2865.4416441774
  31
0.0
   0
LINE
   5
2C8
 100
AcDbEntity
   8
LEVEL001
 370
13
 100
AcDbLine
   6
CONTINUOUS
  62
7
  10
 2551.5835619295
  20
 3379.5939879274
  30
0.0
  11
 2548.5835619295
  21
 3379.5939879274
  31
0.0
   0
LINE
   5
2C9
 100
AcDbEntity
   8
LEVEL001
 370
13
 100
AcDbLine
   6
CONTINUOUS
  62
6
  10
 2548.5835619295
  20
 3378.5939879274
  30
0.0
  11
 2551.5835619295
  21
 3378.5939879274
  31
0.0
   0
LINE
   5
2CA
 100
AcDbEntity
   8
LEVEL001
 370
13
 100
AcDbLine
   6
CONTINUOUS
  62
6
  10
 2551.5835619295
  20
 3307.5939879274
  30
0.0
  11
 2551.5835619295
  21
 3308.5939879274
  31
0.0
   0
LINE
   5
2CB
 100
AcDbEntity
   8
LEVEL001
 370
13
 100
AcDbLine
   6
CONTINUOUS
  62
6
  10
 2551.5835619295
  20
 3308.5939879274
  30
0.0
  11
 2548.5835619295
  21
 3308.5939879274
  31
0.0
   0
ELLIPSE
   5
2CC
 100
AcDbEntity
   8
LEVEL001
 370
13
   6
CONTINUOUS
  62
7
 100
AcDbEllipse
  10
 2548.0396166169
  20
 3322.5937437866
  30
0.0
  11
-4.0000023841862
  21
0.0
  31
0.0
  40
 0.99999940395391
  41
 1.7072035060234
  42
 3.1415925661669
   0
LINE
   5
2CD
 100
AcDbEntity
   8
LEVEL001
 370
13
 100
AcDbLine
   6
CONTINUOUS
  62
7
  10
 2548.5835619295
  20
 3307.5939879274
  30
0.0
  11
 2551.5835619295
  21
 3307.5939879274
  31
0.0
   0
ELLIPSE
   5
2CE
 100
AcDbEntity
   8
LEVEL001
 370
13
   6
CONTINUOUS
  62
7
 100
AcDbEllipse
  10
 2548.0391283357
  20
 3364.5937437866
  30
0.0
  11
-4.0000023841862
  21
0.0
  31
0.0
  40
 0.99999940395391
  41
 3.1415315309741
  42
-1.7073329211767
   0
LINE
   5
2CF
 100
AcDbEntity
   8
LEVEL001
 370
13
 100
AcDbLine
   6
CONTINUOUS
  62
7
  10
 2548.5835619295
  20
 2991.5939879274
  30
0.0
  11
 2551.5835619295
  21
 2991.5939879274
  31
0.0
   0
LINE
   5
2D0
 100
AcDbEntity
   8
LEVEL001
 370
13
 100
AcDbLine
   6
CONTINUOUS
  62
6
  10
 2551.5835619295
  20
 2991.5939879274
  30
0.0
  11
 2551.5835619295
  21
 2990.5939879274
  31
0.0
   0
LINE
   5
2D1
 100
AcDbEntity
   8
LEVEL001
 370
13
 100
AcDbLine
   6
CONTINUOUS
  62
6
  10
 2551.5835619295
  20
 2990.5939879274
  30
0.0
  11
 2548.5835619295
  21
 2990.5939879274
  31
0.0
   0
ELLIPSE
   5
2D2
 100
AcDbEntity
   8
LEVEL001
 370
13
   6
CONTINUOUS
  62
7
 100
AcDbEllipse
  10
 2548.0396166169
  20
 2976.5942320680
  30
0.0
  11
-4.0000023841862
  21
0.0
  31
0.0
  40
 0.99999940395391
  41
 3.1415925661669
  42
-1.7072119811162
   0
LINE
   5
2D3
 100
AcDbEntity
   8
LEVEL001
 370
13
 100
AcDbLine
   6
CONTINUOUS
  62
6
  10
 2548.5835619295
  20
 2920.5939879274
  30
0.0
  11
 2551.5835619295
  21
 2920.5939879274
  31
0.0
   0
ELLIPSE
   5
2D4
 100
AcDbEntity
   8
LEVEL001
 370
13
   6
CONTINUOUS
  62
7
 100
AcDbEllipse
  10
 2548.0391283357
  20
 2934.5942320680
  30
0.0
  11
-4.0000023841862
  21
0.0
  31
0.0
  40
 0.99999940395391
  41
 1.7073244389088
  42
 3.1415925661669
   0
LINE
   5
2D5
 100
AcDbEntity
   8
LEVEL001
 370
13
 100
AcDbLine
   6
CONTINUOUS
  62
7
  10
 2551.5835619295
  20
 2919.5939879274
  30
0.0
  11
 2548.5835619295
  21
 2919.5939879274
  31
0.0
   0
LINE
   5
2D6
 100
AcDbEntity
   8
LEVEL001
 370
13
 100
AcDbLine
   6
CONTINUOUS
  62
6
  10
 2648.4116869295
  20
 3327.0939879274
  30
0.0
  11
 2648.4116869295
  21
 3336.0939879274
  31
0.0
   0
LINE
   5
2D7
 100
AcDbEntity
   8
LEVEL001
 370
13
 100
AcDbLine
   6
CONTINUOUS
  62
6
  10
 2648.4116869295
  20
 3351.0939879274
  30
0.0
  11
 2648.4116869295
  21
 3360.0939879274
  31
0.0
   0
LINE
   5
2D8
 100
AcDbEntity
   8
LEVEL001
 370
13
 100
AcDbLine
   6
CONTINUOUS
  62
6
  10
 2650.7300463045
  20
 3337.0939879274
  30
0.0
  11
 2650.7300463045
  21
 3350.0939879274
  31
0.0
   0
LINE
   5
2D9
 100
AcDbEntity
   8
LEVEL001
 370
13
 100
AcDbLine
   6
CONTINUOUS
  62
6
  10
 2561.0698900545
  20
 3338.0939879274
  30
0.0
  11
 2561.0698900545
  21
 3349.0939879274
  31
0.0
   0
LINE
   5
2DA
 100
AcDbEntity
   8
LEVEL001
 370
13
 100
AcDbLine
   6
CONTINUOUS
  62
6
  10
 2561.0698900545
  20
 3351.0939879274
  30
0.0
  11
 2561.0698900545
  21
 3360.0939879274
  31
0.0
   0
LINE
   5
2DB
 100
AcDbEntity
   8
LEVEL001
 370
13
 100
AcDbLine
   6
CONTINUOUS
  62
6
  10
 2561.0698900545
  20
 3327.0939879274
  30
0.0
  11
 2561.0698900545
  21
 3336.0939879274
  31
0.0
   0
LINE
   5
2DC
 100
AcDbEntity
   8
LEVEL001
 370
13
 100
AcDbLine
   6
CONTINUOUS
  62
6
  10
 2648.4116869295
  20
 3350.0939879274
  30
0.0
  11
 2562.3308763825
  21
 3350.0939879274
  31
0.0
   0
LINE
   5
2DD
 100
AcDbEntity
   8
LEVEL001
 370
13
 100
AcDbLine
   6
CONTINUOUS
  62
6
  10
 2562.3308763825
  20
 3337.0939879274
  30
0.0
  11
 2648.4116869295
  21
 3337.0939879274
  31
0.0
   0
LINE
   5
2DE
 100
AcDbEntity
   8
LEVEL001
 370
13
 100
AcDbLine
   6
CONTINUOUS
  62
7
  10
 2552.0396166169
  20
 3325.0939879274
  30
0.0
  11
 2669.5835619295
  21
 3325.0939879274
  31
0.0
   0
LINE
   5
2DF
 100
AcDbEntity
   8
LEVEL001
 370
13
 100
AcDbLine
   6
CONTINUOUS
  62
7
  10
 2669.5835619295
  20
 3325.0939879274
  30
0.0
  11
 2669.5835619295
  21
 3362.0939879274
  31
0.0
   0
LINE
   5
2E0
 100
AcDbEntity
   8
LEVEL001
 370
13
 100
AcDbLine
   6
CONTINUOUS
  62
7
  10
 2669.5835619295
  20
 3362.0939879274
  30
0.0
  11
 2552.0391283357
  21
 3362.0939879274
  31
0.0
   0
LINE
   5
2E1
 100
AcDbEntity
   8
LEVEL001
 370
13
 100
AcDbLine
   6
CONTINUOUS
  62
6
  10
 2648.4116869295
  20
 2939.0939879274
  30
0.0
  11
 2648.4116869295
  21
 2948.0939879274
  31
0.0
   0
LINE
   5
2E2
 100
AcDbEntity
   8
LEVEL001
 370
13
 100
AcDbLine
   6
CONTINUOUS
  62
6
  10
 2648.4116869295
  20
 2963.0939879274
  30
0.0
  11
 2648.4116869295
  21
 2972.0939879274
  31
0.0
   0
LINE
   5
2E3
 100
AcDbEntity
   8
LEVEL001
 370
13
 100
AcDbLine
   6
CONTINUOUS
  62
6
  10
 2650.7300463045
  20
 2949.0939879274
  30
0.0
  11
 2650.7300463045
  21
 2962.0939879274
  31
0.0
   0
LINE
   5
2E4
 100
AcDbEntity
   8
LEVEL001
 370
13
 100
AcDbLine
   6
CONTINUOUS
  62
6
  10
 2648.4116869295
  20
 2962.0939879274
  30
0.0
  11
 2562.3308763825
  21
 2962.0939879274
  31
0.0
   0
LINE
   5
2E5
 100
AcDbEntity
   8
LEVEL001
 370
13
 100
AcDbLine
   6
CONTINUOUS
  62
6
  10
 2562.3308763825
  20
 2949.0939879274
  30
0.0
  11
 2648.4116869295
  21
 2949.0939879274
  31
0.0
   0
LINE
   5
2E6
 100
AcDbEntity
   8
LEVEL001
 370
13
 100
AcDbLine
   6
CONTINUOUS
  62
7
  10
 2552.0396166169
  20
 2937.0939879274
  30
0.0
  11
 2669.5835619295
  21
 2937.0939879274
  31
0.0
   0
LINE
   5
2E7
 100
AcDbEntity
   8
LEVEL001
 370
13
 100
AcDbLine
   6
CONTINUOUS
  62
7
  10
 2669.5835619295
  20
 2937.0939879274
  30
0.0
  11
 2669.5835619295
  21
 2974.0939879274
  31
0.0
   0
LINE
   5
2E8
 100
AcDbEntity
   8
LEVEL001
 370
13
 100
AcDbLine
   6
CONTINUOUS
  62
7
  10
 2669.5835619295
  20
 2974.0939879274
  30
0.0
  11
 2552.0391283357
  21
 2974.0939879274
  31
0.0
   0
LINE
   5
2E9
 100
AcDbEntity
   8
LEVEL001
 370
13
 100
AcDbLine
   6
CONTINUOUS
  62
6
  10
 2561.0698900545
  20
 2950.0939879274
  30
0.0
  11
 2561.0698900545
  21
 2961.0939879274
  31
0.0
   0
LINE
   5
2EA
 100
AcDbEntity
   8
LEVEL001
 370
13
 100
AcDbLine
   6
CONTINUOUS
  62
6
  10
 2561.0698900545
  20
 2963.0939879274
  30
0.0
  11
 2561.0698900545
  21
 2972.0939879274
  31
0.0
   0
LINE
   5
2EB
 100
AcDbEntity
   8
LEVEL001
 370
13
 100
AcDbLine
   6
CONTINUOUS
  62
6
  10
 2561.0698900545
  20
 2939.0939879274
  30
0.0
  11
 2561.0698900545
  21
 2948.0939879274
  31
0.0
   0
LINE
   5
2EC
 100
AcDbEntity
   8
LEVEL001
 370
13
 100
AcDbLine
   6
CONTINUOUS
  62
7
  10
 2654.5835619295
  20
 2950.5939879274
  30
0.0
  11
 2664.5835619295
  21
 2950.5939879274
  31
0.0
   0
LINE
   5
2ED
 100
AcDbEntity
   8
LEVEL001
 370
13
 100
AcDbLine
   6
CONTINUOUS
  62
7
  10
 2664.5835619295
  20
 2950.5939879274
  30
0.0
  11
 2664.5835619295
  21
 2960.5939879274
  31
0.0
   0
LINE
   5
2EE
 100
AcDbEntity
   8
LEVEL001
 370
13
 100
AcDbLine
   6
CONTINUOUS
  62
7
  10
 2664.5835619295
  20
 2960.5939879274
  30
0.0
  11
 2654.5835619295
  21
 2960.5939879274
  31
0.0
   0
LINE
   5
2EF
 100
AcDbEntity
   8
LEVEL001
 370
13
 100
AcDbLine
   6
CONTINUOUS
  62
7
  10
 2654.5835619295
  20
 2960.5939879274
  30
0.0
  11
 2654.5835619295
  21
 2950.5939879274
  31
0.0
   0
LINE
   5
2F0
 100
AcDbEntity
   8
LEVEL001
 370
13
 100
AcDbLine
   6
CONTINUOUS
  62
7
  10
 2654.5835619295
  20
 3338.5939879274
  30
0.0
  11
 2664.5835619295
  21
 3338.5939879274
  31
0.0
   0
LINE
   5
2F1
 100
AcDbEntity
   8
LEVEL001
 370
13
 100
AcDbLine
   6
CONTINUOUS
  62
7
  10
 2664.5835619295
  20
 3338.5939879274
  30
0.0
  11
 2664.5835619295
  21
 3348.5939879274
  31
0.0
   0
LINE
   5
2F2
 100
AcDbEntity
   8
LEVEL001
 370
13
 100
AcDbLine
   6
CONTINUOUS
  62
7
  10
 2664.5835619295
  20
 3348.5939879274
  30
0.0
  11
 2654.5835619295
  21
 3348.5939879274
  31
0.0
   0
LINE
   5
2F3
 100
AcDbEntity
   8
LEVEL001
 370
13
 100
AcDbLine
   6
CONTINUOUS
  62
7
  10
 2654.5835619295
  20
 3348.5939879274
  30
0.0
  11
 2654.5835619295
  21
 3338.5939879274
  31
0.0
   0
LINE
   5
2F4
 100
AcDbEntity
   8
LEVEL001
 370
13
 100
AcDbLine
   6
CONTINUOUS
  62
7
  10
 2560.0848314607
  20
 3325.0939879274
  30
0.0
  11
 2560.0848314607
  21
 2974.0939879274
  31
0.0
   0
LINE
   5
2F5
 100
AcDbEntity
   8
LEVEL001
 370
13
 100
AcDbLine
   6
CONTINUOUS
  62
7
  10
 2560.0848314607
  20
 2937.0939879274
  30
0.0
  11
 2560.0848314607
  21
 718.03370786517
  31
0.0
   0
LINE
   5
2F6
 100
AcDbEntity
   8
LEVEL001
 370
13
 100
AcDbLine
   6
CONTINUOUS
  62
7
  10
 2560.0848314607
  20
 718.03370786517
  30
0.0
  11
 2649.1848314607
  21
 718.03370786517
  31
0.0
   0
LINE
   5
2F7
 100
AcDbEntity
   8
LEVEL001
 370
13
 100
AcDbLine
   6
CONTINUOUS
  62
7
  10
 2649.1848314607
  20
 718.03370786517
  30
0.0
  11
 2649.1848314607
  21
 2937.0939879274
  31
0.0
   0
LINE
   5
2F8
 100
AcDbEntity
   8
LEVEL001
 370
13
 100
AcDbLine
   6
CONTINUOUS
  62
7
  10
 2649.1848314607
  20
 2974.0939879274
  30
0.0
  11
 2649.1848314607
  21
 3325.0939879274
  31
0.0
   0
CIRCLE
   5
2F9
 100
AcDbEntity
   8
LEVEL001
 370
13
 100
AcDbCircle
   6
CONTINUOUS
  62
1
  10
 1754.6348314607
  20
 3049.5939879272
  30
0.0
  40
 70.000000000000
   0
LEADER
   5
2FA
 100
AcDbEntity
   8
LEVEL001
 370
13
   6
CONTINUOUS
  62
1
 100
AcDbLeader
   3
GMM002
  73
3
  74
1
  75
0
  40
 60.000000000000
  41
0.0
  76
2
  10
 1594.6345243496
  20
 3209.5942950390
  30
0.0
  10
 1705.1373567779
  20
 3099.0914626106
  30
0.0
  77
1
   0
ARC
   5
2FB
 100
AcDbEntity
   8
LEVEL001
 370
13
   6
CONTINUOUS
  62
7
 100
AcDbCircle
  10
 1574.6344652497
  20
 3429.5939879274
  30
0.0
  40
 20.000000000000
 100
AcDbArc
  50
0.0
  51
 90.000000000000
   0
LINE
   5
2FC
 100
AcDbEntity
   8
LEVEL001
 370
13
 100
AcDbLine
   6
CONTINUOUS
  62
7
  10
 1574.6344652497
  20
 3449.5939879274
  30
0.0
  11
 1434.6371507966
  21
 3449.5939879274
  31
0.0
   0
ARC
   5
2FD
 100
AcDbEntity
   8
LEVEL001
 370
13
   6
CONTINUOUS
  62
7
 100
AcDbCircle
  10
 1434.6371507966
  20
 3429.5939879274
  30
0.0
  40
 20.000000000000
 100
AcDbArc
  50
 90.000000000000
  51
 180.00000000000
   0
ARC
   5
2FE
 100
AcDbEntity
   8
LEVEL001
 370
13
   6
CONTINUOUS
  62
7
 100
AcDbCircle
  10
 1434.6371507966
  20
 2869.5932555054
  30
0.0
  40
 20.000000000000
 100
AcDbArc
  50
 180.00000000000
  51
 270.00000000000
   0
LINE
   5
2FF
 100
AcDbEntity
   8
LEVEL001
 370
13
 100
AcDbLine
   6
CONTINUOUS
  62
7
  10
 1414.6371507966
  20
 3429.5939879274
  30
0.0
  11
 1414.6371507966
  21
 2869.5932555054
  31
0.0
   0
LINE
   5
300
 100
AcDbEntity
   8
LEVEL001
 370
13
 100
AcDbLine
   6
CONTINUOUS
  62
7
  10
 1434.6371507966
  20
 2849.5932555054
  30
0.0
  11
 1574.6344652497
  21
 2849.5932555054
  31
0.0
   0
ARC
   5
301
 100
AcDbEntity
   8
LEVEL001
 370
13
   6
CONTINUOUS
  62
7
 100
AcDbCircle
  10
 1574.6344652497
  20
 2869.5932555054
  30
0.0
  40
 20.000000000000
 100
AcDbArc
  50
 270.00000000000
  51
0.0
   0
LINE
   5
302
 100
AcDbEntity
   8
LEVEL001
 370
13
 100
AcDbLine
   6
CONTINUOUS
  62
7
  10
 1594.6344652497
  20
 2869.5932555054
  30
0.0
  11
 1594.6344652497
  21
 3429.5939879274
  31
0.0
   0
LINE
   5
303
 100
AcDbEntity
   8
LEVEL001
 370
13
 100
AcDbLine
   6
CONTINUOUS
  62
7
  10
 1460.0848436677
  20
 4319.8977215370
  30
0.0
  11
 1460.0848436677
  21
 3449.5939879274
  31
0.0
   0
LINE
   5
304
 100
AcDbEntity
   8
LEVEL001
 370
13
 100
AcDbLine
   6
CONTINUOUS
  62
7
  10
 1549.1848802888
  20
 3449.5939879274
  30
0.0
  11
 1549.1848802888
  21
 4319.8977215370
  31
0.0
   0
LINE
   5
305
 100
AcDbEntity
   8
LEVEL001
 370
13
 100
AcDbLine
   6
CONTINUOUS
  62
7
  10
 1460.0848436677
  20
 2849.5932555054
  30
0.0
  11
 1460.0848436677
  21
 718.03370786517
  31
0.0
   0
LINE
   5
306
 100
AcDbEntity
   8
LEVEL001
 370
13
 100
AcDbLine
   6
CONTINUOUS
  62
7
  10
 1460.0848436677
  20
 718.03370786517
  30
0.0
  11
 1549.1848802888
  21
 718.03370786517
  31
0.0
   0
LINE
   5
307
 100
AcDbEntity
   8
LEVEL001
 370
13
 100
AcDbLine
   6
CONTINUOUS
  62
7
  10
 1549.1848802888
  20
 718.03370786517
  30
0.0
  11
 1549.1848802888
  21
 2849.5932555054
  31
0.0
   0
MTEXT
   5
308
 100
AcDbEntity
   8
LEVEL001
 370
13
  62
1
 100
AcDbMText
  10
 1754.6348314607
  20
 3049.5939879272
  30
0.0
  40
 57.142857142858
  41
0.0
  71
5
  72
1
   1
\T1.000000;12
   7
GMM001
  44
 0.79999984000003
   0
POINT
   5
309
 100
AcDbEntity
   8
LEVEL001
 100
AcDbPoint
  62
2
  10
 2604.6348314607
  20
 3518.0337078632
  30
0.0
   0
POINT
   5
30A
 100
AcDbEntity
   8
LEVEL001
 100
AcDbPoint
  62
2
  10
 3004.6348314607
  20
 4018.0337078632
  30
0.0
   0
CIRCLE
   5
30B
 100
AcDbEntity
   8
LEVEL001
 370
13
 100
AcDbCircle
   6
CONTINUOUS
  62
1
  10
 3204.6348314607
  20
 3437.5947203492
  30
0.0
  40
 70.000000000000
   0
CIRCLE
   5
30C
 100
AcDbEntity
   8
LEVEL001
 370
13
 100
AcDbCircle
   6
CONTINUOUS
  62
1
  10
 3344.6348314607
  20
 3437.5947203492
  30
0.0
  40
 70.000000000000
   0
MTEXT
   5
30D
 100
AcDbEntity
   8
LEVEL001
 370
13
  62
1
 100
AcDbMText
  10
 3204.6348314607
  20
 3437.5947203492
  30
0.0
  40
 57.142857142858
  41
0.0
  71
5
  72
1
   1
\T1.000000;13
   7
GMM001
  44
 0.79999984000003
   0
MTEXT
   5
30E
 100
AcDbEntity
   8
LEVEL001
 370
13
  62
1
 100
AcDbMText
  10
 3344.6348314607
  20
 3437.5947203492
  30
0.0
  40
 57.142857142858
  41
0.0
  71
5
  72
1
   1
\T1.000000;14
   7
GMM001
  44
 0.79999984000003
   0
LEADER
   5
30F
 100
AcDbEntity
   8
LEVEL001
 370
13
   6
CONTINUOUS
  62
1
 100
AcDbLeader
   3
GMM002
  73
3
  74
1
  75
0
  40
 60.000000000000
  41
0.0
  76
2
  10
 2669.5835619295
  20
 3362.0939879274
  30
0.0
  10
 3135.3202031241
  20
 3427.8232159324
  30
0.0
  77
1
   0
CIRCLE
   5
310
 100
AcDbEntity
   8
LEVEL001
 370
13
 100
AcDbCircle
   6
CONTINUOUS
  62
1
  10
 1748.3848802888
  20
 2618.0337078652
  30
0.0
  40
 69.999997913838
   0
LEADER
   5
311
 100
AcDbEntity
   8
LEVEL001
 370
13
   6
CONTINUOUS
  62
1
 100
AcDbLeader
   3
GMM002
  73
3
  74
1
  75
0
  40
 60.000000000000
  41
0.0
  76
2
  10
 1549.1848802888
  20
 2493.0337078652
  30
0.0
  10
 1689.2646172183
  20
 2580.5531235258
  30
0.0
  77
1
   0
MTEXT
   5
312
 100
AcDbEntity
   8
LEVEL001
 370
13
  62
1
 100
AcDbMText
  10
 1748.3848802888
  20
 2618.0337078652
  30
0.0
  40
 57.142857142858
  41
0.0
  71
5
  72
1
   1
\T1.000000;9
   7
GMM001
  44
 0.79999984000003
   0
LINE
   5
313
 100
AcDbEntity
   8
LEVEL001
 370
13
 100
AcDbLine
   6
DASHDOT
  62
6
  10
 2604.6348314607
  20
 3362.0939879276
  30
0.0
  11
 2604.6348314607
  21
 618.03370786517
  31
0.0
   0
MTEXT
   5
314
 100
AcDbEntity
   8
LEVEL001
 370
13
  62
1
 100
AcDbMText
  10
 4804.6348314607
  20
 5600.5337078652
  30
0.0
  40
 57.142857142858
  41
0.0
  71
5
  72
1
   1
\T1.000000;背　面　図
   7
GMM001
  44
 0.79999984000003
   0
MTEXT
   5
315
 100
AcDbEntity
   8
LEVEL001
 370
13
  62
1
 100
AcDbMText
  10
 3004.6348314607
  20
 5600.5337078652
  30
0.0
  40
 57.142857142858
  41
0.0
  71
5
  72
1
   1
\T1.000000;側　面　図
   7
GMM001
  44
 0.79999984000003
   0
MTEXT
   5
316
 100
AcDbEntity
   8
LEVEL001
 370
13
  62
1
 100
AcDbMText
  10
 1504.6348314607
  20
 5600.5337078652
  30
0.0
  40
 57.142857142858
  41
0.0
  71
5
  72
1
   1
\T1.000000;正　面　図
   7
GMM001
  44
 0.79999984000003
   0
INSERT
   5
317
 100
AcDbEntity
   8
0
 100
AcDbBlockReference
   2
BLOCK001
  10
0.0
  20
0.0
  30
0.0
   0
INSERT
   5
318
 100
AcDbEntity
   8
0
 100
AcDbBlockReference
   2
BLOCK002
  10
0.0
  20
0.0
  30
0.0
   0
LINE
   5
319
 100
AcDbEntity
   8
LEVEL001
 370
13
 100
AcDbLine
   6
CONTINUOUS
  62
5
  10
 1815.3150263074
  20
 1818.0337078651
  30
0.0
  11
 1762.8150263074
  21
 1765.5337078651
  31
0.0
   0
LINE
   5
31A
 100
AcDbEntity
   8
LEVEL001
 370
13
 100
AcDbLine
   6
CONTINUOUS
  62
5
  10
 1778.7249288834
  20
 1765.5337078651
  30
0.0
  11
 1831.2249288834
  21
 1818.0337078651
  31
0.0
   0
LINE
   5
31B
 100
AcDbEntity
   8
LEVEL001
 370
13
 100
AcDbLine
   6
CONTINUOUS
  62
5
  10
 1847.1348314610
  20
 1818.0337078651
  30
0.0
  11
 1794.6348314610
  21
 1765.5337078651
  31
0.0
   0
LINE
   5
31C
 100
AcDbEntity
   8
LEVEL001
 370
13
 100
AcDbLine
   6
CONTINUOUS
  62
5
  10
 1810.5447340370
  20
 1765.5337078651
  30
0.0
  11
 1863.0447340370
  21
 1818.0337078651
  31
0.0
   0
LINE
   5
31D
 100
AcDbEntity
   8
LEVEL001
 370
13
 100
AcDbLine
   6
CONTINUOUS
  62
5
  10
 1867.8150263076
  20
 1765.5337078651
  30
0.0
  11
 1839.1798801723
  21
 1794.1688540004
  31
0.0
   0
LINE
   5
31E
 100
AcDbEntity
   8
LEVEL001
 370
13
 100
AcDbLine
   6
CONTINUOUS
  62
5
  10
 1847.1348314606
  20
 1802.1238052886
  30
0.0
  11
 1883.7249288841
  21
 1765.5337078651
  31
0.0
   0
LINE
   5
31F
 100
AcDbEntity
   8
LEVEL001
 370
13
 100
AcDbLine
   6
CONTINUOUS
  62
5
  10
 1899.6348314605
  20
 1765.5337078651
  30
0.0
  11
 1855.0897827488
  21
 1810.0787565768
  31
0.0
   0
LINE
   5
320
 100
AcDbEntity
   8
LEVEL001
 370
13
 100
AcDbLine
   6
CONTINUOUS
  62
5
  10
 1863.0447340370
  20
 1818.0337078651
  30
0.0
  11
 1915.5447340372
  21
 1765.5337078651
  31
0.0
   0
LINE
   5
321
 100
AcDbEntity
   8
LEVEL001
 370
13
 100
AcDbLine
   6
CONTINUOUS
  62
5
  10
 1915.5447340372
  20
 1765.5337078651
  30
0.0
  11
 1968.0447340373
  21
 1818.0337078651
  31
0.0
   0
LINE
   5
322
 100
AcDbEntity
   8
LEVEL001
 370
13
 100
AcDbLine
   6
CONTINUOUS
  62
5
  10
 1920.3150263075
  20
 1818.0337078651
  30
0.0
  11
 1891.6798801723
  21
 1789.3985617299
  31
0.0
   0
LINE
   5
323
 100
AcDbEntity
   8
LEVEL001
 370
13
 100
AcDbLine
   6
CONTINUOUS
  62
5
  10
 1899.6348314604
  20
 1781.4436104419
  30
0.0
  11
 1936.2249288837
  21
 1818.0337078651
  31
0.0
   0
LINE
   5
324
 100
AcDbEntity
   8
LEVEL001
 370
13
 100
AcDbLine
   6
CONTINUOUS
  62
5
  10
 1952.1348314613
  20
 1818.0337078651
  30
0.0
  11
 1907.5897827492
  21
 1773.4886591531
  31
0.0
   0
LINE
   5
325
 100
AcDbEntity
   8
LEVEL001
 370
13
 100
AcDbLine
   6
CONTINUOUS
  62
5
  10
 1972.8150263079
  20
 1765.5337078651
  30
0.0
  11
 1944.1798801725
  21
 1794.1688540004
  31
0.0
   0
LINE
   5
326
 100
AcDbEntity
   8
LEVEL001
 370
13
 100
AcDbLine
   6
CONTINUOUS
  62
5
  10
 1952.1348314607
  20
 1802.1238052886
  30
0.0
  11
 1988.7249288843
  21
 1765.5337078651
  31
0.0
   0
LINE
   5
327
 100
AcDbEntity
   8
LEVEL001
 370
13
 100
AcDbLine
   6
CONTINUOUS
  62
5
  10
 2004.6348314607
  20
 1765.5337078651
  30
0.0
  11
 1960.0897827489
  21
 1810.0787565768
  31
0.0
   0
LINE
   5
328
 100
AcDbEntity
   8
LEVEL001
 370
13
 100
AcDbLine
   6
CONTINUOUS
  62
5
  10
 1754.6348314607
  20
 1603.3890469245
  30
0.0
  11
 1549.1848802888
  21
 1397.9390957527
  31
0.0
   0
LINE
   5
329
 100
AcDbEntity
   8
LEVEL001
 370
13
 100
AcDbLine
   6
CONTINUOUS
  62
5
  10
 1549.1848802888
  20
 1362.5837566933
  30
0.0
  11
 1754.6348314607
  21
 1568.0337078652
  31
0.0
   0
LINE
   5
32A
 100
AcDbEntity
   8
LEVEL001
 370
13
 100
AcDbLine
   6
CONTINUOUS
  62
5
  10
 1754.6348314607
  20
 1532.6783688059
  30
0.0
  11
 1549.1848802888
  21
 1327.2284176340
  31
0.0
   0
LINE
   5
32B
 100
AcDbEntity
   8
LEVEL001
 370
13
 100
AcDbLine
   6
CONTINUOUS
  62
5
  10
 1754.6348314607
  20
 718.03370786517
  30
0.0
  11
 1754.6348314607
  21
 1818.0337078652
  31
0.0
   0
LINE
   5
32C
 100
AcDbEntity
   8
LEVEL001
 370
13
 100
AcDbLine
   6
CONTINUOUS
  62
5
  10
 1549.1848802888
  20
 1818.0337078651
  30
0.0
  11
 2004.6348314607
  21
 1818.0337078651
  31
0.0
   0
LINE
   5
32D
 100
AcDbEntity
   8
LEVEL001
 370
13
 100
AcDbLine
   6
CONTINUOUS
  62
5
  10
 1968.0447340373
  20
 1818.0337078651
  30
0.0
  11
 2004.6348314607
  21
 1781.4436104418
  31
0.0
   0
LINE
   5
32E
 100
AcDbEntity
   8
LEVEL001
 370
13
 100
AcDbLine
   6
CONTINUOUS
  62
5
  10
 1754.6348314607
  20
 718.03370786517
  30
0.0
  11
 1704.6348314607
  21
 618.03370786517
  31
0.0
   0
LINE
   5
32F
 100
AcDbEntity
   8
LEVEL001
 370
13
 100
AcDbLine
   6
CONTINUOUS
  62
5
  10
 1704.6348314607
  20
 718.03370786517
  30
0.0
  11
 1744.6348314607
  21
 698.03370786517
  31
0.0
   0
LINE
   5
330
 100
AcDbEntity
   8
LEVEL001
 370
13
 100
AcDbLine
   6
CONTINUOUS
  62
5
  10
 1704.6348314607
  20
 718.03370786517
  30
0.0
  11
 1654.6348314607
  21
 618.03370786517
  31
0.0
   0
LINE
   5
331
 100
AcDbEntity
   8
LEVEL001
 370
13
 100
AcDbLine
   6
CONTINUOUS
  62
5
  10
 1654.6348314607
  20
 718.03370786517
  30
0.0
  11
 1694.6348314607
  21
 698.03370786517
  31
0.0
   0
LINE
   5
332
 100
AcDbEntity
   8
LEVEL001
 370
13
 100
AcDbLine
   6
CONTINUOUS
  62
5
  10
 1654.6348314607
  20
 718.03370786517
  30
0.0
  11
 1604.6348314607
  21
 618.03370786517
  31
0.0
   0
LINE
   5
333
 100
AcDbEntity
   8
LEVEL001
 370
13
 100
AcDbLine
   6
CONTINUOUS
  62
5
  10
 1604.6348314607
  20
 718.03370786517
  30
0.0
  11
 1644.6348314607
  21
 698.03370786517
  31
0.0
   0
LINE
   5
334
 100
AcDbEntity
   8
LEVEL001
 370
13
 100
AcDbLine
   6
CONTINUOUS
  62
5
  10
 1754.6348314607
  20
 618.03370786517
  30
0.0
  11
 1714.6348314607
  21
 638.03370786517
  31
0.0
   0
LINE
   5
335
 100
AcDbEntity
   8
LEVEL001
 370
13
 100
AcDbLine
   6
CONTINUOUS
  62
5
  10
 1704.6348314607
  20
 618.03370786517
  30
0.0
  11
 1664.6348314607
  21
 638.03370786517
  31
0.0
   0
LINE
   5
336
 100
AcDbEntity
   8
LEVEL001
 370
13
 100
AcDbLine
   6
CONTINUOUS
  62
5
  10
 1654.6348314607
  20
 618.03370786517
  30
0.0
  11
 1614.6348314607
  21
 638.03370786517
  31
0.0
   0
LINE
   5
337
 100
AcDbEntity
   8
LEVEL001
 370
13
 100
AcDbLine
   6
CONTINUOUS
  62
5
  10
 1754.6348314607
  20
 718.03370786517
  30
0.0
  11
 1254.6348314607
  21
 718.03370786517
  31
0.0
   0
LINE
   5
338
 100
AcDbEntity
   8
LEVEL001
 370
13
 100
AcDbLine
   6
CONTINUOUS
  62
5
  10
 1254.6348314607
  20
 618.03370786517
  30
0.0
  11
 1754.6348314607
  21
 618.03370786517
  31
0.0
   0
LINE
   5
339
 100
AcDbEntity
   8
LEVEL001
 370
13
 100
AcDbLine
   6
CONTINUOUS
  62
5
  10
 1754.6348314607
  20
 618.03370786517
  30
0.0
  11
 1754.6348314607
  21
 718.03370786517
  31
0.0
   0
LINE
   5
33A
 100
AcDbEntity
   8
LEVEL001
 370
13
 100
AcDbLine
   6
CONTINUOUS
  62
5
  10
 1254.6348314607
  20
 718.03370786517
  30
0.0
  11
 1754.6348314607
  21
 718.03370786517
  31
0.0
   0
LINE
   5
33B
 100
AcDbEntity
   8
LEVEL001
 370
13
 100
AcDbLine
   6
CONTINUOUS
  62
5
  10
 1404.6348314607
  20
 718.03370786517
  30
0.0
  11
 1354.6348314607
  21
 618.03370786517
  31
0.0
   0
LINE
   5
33C
 100
AcDbEntity
   8
LEVEL001
 370
13
 100
AcDbLine
   6
CONTINUOUS
  62
5
  10
 1354.6348314607
  20
 718.03370786517
  30
0.0
  11
 1394.6348314607
  21
 698.03370786517
  31
0.0
   0
LINE
   5
33D
 100
AcDbEntity
   8
LEVEL001
 370
13
 100
AcDbLine
   6
CONTINUOUS
  62
5
  10
 1354.6348314607
  20
 718.03370786517
  30
0.0
  11
 1304.6348314607
  21
 618.03370786517
  31
0.0
   0
LINE
   5
33E
 100
AcDbEntity
   8
LEVEL001
 370
13
 100
AcDbLine
   6
CONTINUOUS
  62
5
  10
 1304.6348314607
  20
 718.03370786517
  30
0.0
  11
 1344.6348314607
  21
 698.03370786517
  31
0.0
   0
LINE
   5
33F
 100
AcDbEntity
   8
LEVEL001
 370
13
 100
AcDbLine
   6
CONTINUOUS
  62
5
  10
 1304.6348314607
  20
 718.03370786517
  30
0.0
  11
 1254.6348314607
  21
 618.03370786517
  31
0.0
   0
LINE
   5
340
 100
AcDbEntity
   8
LEVEL001
 370
13
 100
AcDbLine
   6
CONTINUOUS
  62
5
  10
 1254.6348314607
  20
 718.03370786517
  30
0.0
  11
 1294.6348314607
  21
 698.03370786517
  31
0.0
   0
LINE
   5
341
 100
AcDbEntity
   8
LEVEL001
 370
13
 100
AcDbLine
   6
CONTINUOUS
  62
5
  10
 1404.6348314607
  20
 618.03370786517
  30
0.0
  11
 1364.6348314607
  21
 638.03370786517
  31
0.0
   0
LINE
   5
342
 100
AcDbEntity
   8
LEVEL001
 370
13
 100
AcDbLine
   6
CONTINUOUS
  62
5
  10
 1354.6348314607
  20
 618.03370786517
  30
0.0
  11
 1314.6348314607
  21
 638.03370786517
  31
0.0
   0
LINE
   5
343
 100
AcDbEntity
   8
LEVEL001
 370
13
 100
AcDbLine
   6
CONTINUOUS
  62
5
  10
 1304.6348314607
  20
 618.03370786517
  30
0.0
  11
 1264.6348314607
  21
 638.03370786517
  31
0.0
   0
LINE
   5
344
 100
AcDbEntity
   8
LEVEL001
 370
13
 100
AcDbLine
   6
CONTINUOUS
  62
5
  10
 1254.6348314607
  20
 718.03370786517
  30
0.0
  11
 1254.6348314607
  21
 618.03370786517
  31
0.0
   0
LINE
   5
345
 100
AcDbEntity
   8
LEVEL001
 370
13
 100
AcDbLine
   6
CONTINUOUS
  62
5
  10
 1254.6348314607
  20
 1818.0337078652
  30
0.0
  11
 1254.6348314607
  21
 718.03370786517
  31
0.0
   0
LINE
   5
346
 100
AcDbEntity
   8
LEVEL001
 370
13
 100
AcDbLine
   6
CONTINUOUS
  62
5
  10
 1165.5447340372
  20
 1765.5337078651
  30
0.0
  11
 1218.0447340372
  21
 1818.0337078651
  31
0.0
   0
LINE
   5
347
 100
AcDbEntity
   8
LEVEL001
 370
13
 100
AcDbLine
   6
CONTINUOUS
  62
5
  10
 1149.6348314604
  20
 1781.4436104419
  30
0.0
  11
 1186.2249288836
  21
 1818.0337078651
  31
0.0
   0
LINE
   5
348
 100
AcDbEntity
   8
LEVEL001
 370
13
 100
AcDbLine
   6
CONTINUOUS
  62
5
  10
 1202.1348314612
  20
 1818.0337078651
  30
0.0
  11
 1157.5897827492
  21
 1773.4886591531
  31
0.0
   0
LINE
   5
349
 100
AcDbEntity
   8
LEVEL001
 370
13
 100
AcDbLine
   6
CONTINUOUS
  62
5
  10
 1222.8150263078
  20
 1765.5337078651
  30
0.0
  11
 1194.1798801725
  21
 1794.1688540004
  31
0.0
   0
LINE
   5
34A
 100
AcDbEntity
   8
LEVEL001
 370
13
 100
AcDbLine
   6
CONTINUOUS
  62
5
  10
 1202.1348314607
  20
 1802.1238052886
  30
0.0
  11
 1238.7249288843
  21
 1765.5337078651
  31
0.0
   0
LINE
   5
34B
 100
AcDbEntity
   8
LEVEL001
 370
13
 100
AcDbLine
   6
CONTINUOUS
  62
5
  10
 1254.6348314607
  20
 1765.5337078651
  30
0.0
  11
 1210.0897827490
  21
 1810.0787565768
  31
0.0
   0
LINE
   5
34C
 100
AcDbEntity
   8
LEVEL001
 370
13
 100
AcDbLine
   6
CONTINUOUS
  62
5
  10
 1065.3150263074
  20
 1818.0337078651
  30
0.0
  11
 1012.8150263074
  21
 1765.5337078651
  31
0.0
   0
LINE
   5
34D
 100
AcDbEntity
   8
LEVEL001
 370
13
 100
AcDbLine
   6
CONTINUOUS
  62
5
  10
 1028.7249288834
  20
 1765.5337078651
  30
0.0
  11
 1081.2249288834
  21
 1818.0337078651
  31
0.0
   0
LINE
   5
34E
 100
AcDbEntity
   8
LEVEL001
 370
13
 100
AcDbLine
   6
CONTINUOUS
  62
5
  10
 1097.1348314610
  20
 1818.0337078651
  30
0.0
  11
 1044.6348314610
  21
 1765.5337078651
  31
0.0
   0
LINE
   5
34F
 100
AcDbEntity
   8
LEVEL001
 370
13
 100
AcDbLine
   6
CONTINUOUS
  62
5
  10
 1060.5447340370
  20
 1765.5337078651
  30
0.0
  11
 1113.0447340370
  21
 1818.0337078651
  31
0.0
   0
LINE
   5
350
 100
AcDbEntity
   8
LEVEL001
 370
13
 100
AcDbLine
   6
CONTINUOUS
  62
5
  10
 1117.8150263076
  20
 1765.5337078651
  30
0.0
  11
 1089.1798801723
  21
 1794.1688540004
  31
0.0
   0
LINE
   5
351
 100
AcDbEntity
   8
LEVEL001
 370
13
 100
AcDbLine
   6
CONTINUOUS
  62
5
  10
 1097.1348314606
  20
 1802.1238052886
  30
0.0
  11
 1133.7249288841
  21
 1765.5337078651
  31
0.0
   0
LINE
   5
352
 100
AcDbEntity
   8
LEVEL001
 370
13
 100
AcDbLine
   6
CONTINUOUS
  62
5
  10
 1149.6348314605
  20
 1765.5337078651
  30
0.0
  11
 1105.0897827488
  21
 1810.0787565768
  31
0.0
   0
LINE
   5
353
 100
AcDbEntity
   8
LEVEL001
 370
13
 100
AcDbLine
   6
CONTINUOUS
  62
5
  10
 1113.0447340370
  20
 1818.0337078651
  30
0.0
  11
 1165.5447340372
  21
 1765.5337078651
  31
0.0
   0
LINE
   5
354
 100
AcDbEntity
   8
LEVEL001
 370
13
 100
AcDbLine
   6
CONTINUOUS
  62
5
  10
 1218.0447340372
  20
 1818.0337078651
  30
0.0
  11
 1254.6348314607
  21
 1781.4436104418
  31
0.0
   0
LINE
   5
355
 100
AcDbEntity
   8
LEVEL001
 370
13
 100
AcDbLine
   6
CONTINUOUS
  62
5
  10
 1460.0848436677
  20
 1238.1283810129
  30
0.0
  11
 1254.6348314607
  21
 1032.6783688059
  31
0.0
   0
LINE
   5
356
 100
AcDbEntity
   8
LEVEL001
 370
13
 100
AcDbLine
   6
CONTINUOUS
  62
5
  10
 1254.6348314607
  20
 1068.0337078652
  30
0.0
  11
 1460.0848436677
  21
 1273.4837200722
  31
0.0
   0
LINE
   5
357
 100
AcDbEntity
   8
LEVEL001
 370
13
 100
AcDbLine
   6
CONTINUOUS
  62
5
  10
 1460.0848436677
  20
 1308.8390591316
  30
0.0
  11
 1254.6348314607
  21
 1103.3890469245
  31
0.0
   0
LINE
   5
358
 100
AcDbEntity
   8
LEVEL001
 370
13
 100
AcDbLine
   6
CONTINUOUS
  62
5
  10
 1170.3150263075
  20
 1818.0337078651
  30
0.0
  11
 1141.6798801723
  21
 1789.3985617299
  31
0.0
   0
LINE
   5
359
 100
AcDbEntity
   8
LEVEL001
 370
13
 100
AcDbLine
   6
CONTINUOUS
  62
5
  10
 1460.0848436677
  20
 1818.0337078651
  30
0.0
  11
 1004.6348314607
  21
 1818.0337078651
  31
0.0
   0
LINE
   5
35A
 100
AcDbEntity
   8
LEVEL001
 370
13
 100
AcDbLine
   6
CONTINUOUS
  62
5
  10
 2354.6348314607
  20
 1818.0337078652
  30
0.0
  11
 2354.6348314607
  21
 718.03370786517
  31
0.0
   0
LINE
   5
35B
 100
AcDbEntity
   8
LEVEL001
 370
13
 100
AcDbLine
   6
CONTINUOUS
  62
5
  10
 2265.5447340373
  20
 1765.5337078651
  30
0.0
  11
 2318.0447340373
  21
 1818.0337078651
  31
0.0
   0
LINE
   5
35C
 100
AcDbEntity
   8
LEVEL001
 370
13
 100
AcDbLine
   6
CONTINUOUS
  62
5
  10
 2249.6348314605
  20
 1781.4436104419
  30
0.0
  11
 2286.2249288837
  21
 1818.0337078651
  31
0.0
   0
LINE
   5
35D
 100
AcDbEntity
   8
LEVEL001
 370
13
 100
AcDbLine
   6
CONTINUOUS
  62
5
  10
 2302.1348314613
  20
 1818.0337078651
  30
0.0
  11
 2257.5897827493
  21
 1773.4886591531
  31
0.0
   0
LINE
   5
35E
 100
AcDbEntity
   8
LEVEL001
 370
13
 100
AcDbLine
   6
CONTINUOUS
  62
5
  10
 2322.8150263079
  20
 1765.5337078651
  30
0.0
  11
 2294.1798801725
  21
 1794.1688540004
  31
0.0
   0
LINE
   5
35F
 100
AcDbEntity
   8
LEVEL001
 370
13
 100
AcDbLine
   6
CONTINUOUS
  62
5
  10
 2302.1348314607
  20
 1802.1238052886
  30
0.0
  11
 2338.7249288843
  21
 1765.5337078651
  31
0.0
   0
LINE
   5
360
 100
AcDbEntity
   8
LEVEL001
 370
13
 100
AcDbLine
   6
CONTINUOUS
  62
5
  10
 2354.6348314607
  20
 1765.5337078651
  30
0.0
  11
 2310.0897827489
  21
 1810.0787565768
  31
0.0
   0
LINE
   5
361
 100
AcDbEntity
   8
LEVEL001
 370
13
 100
AcDbLine
   6
CONTINUOUS
  62
5
  10
 2165.3150263073
  20
 1818.0337078651
  30
0.0
  11
 2112.8150263073
  21
 1765.5337078651
  31
0.0
   0
LINE
   5
362
 100
AcDbEntity
   8
LEVEL001
 370
13
 100
AcDbLine
   6
CONTINUOUS
  62
5
  10
 2128.7249288835
  20
 1765.5337078651
  30
0.0
  11
 2181.2249288835
  21
 1818.0337078651
  31
0.0
   0
LINE
   5
363
 100
AcDbEntity
   8
LEVEL001
 370
13
 100
AcDbLine
   6
CONTINUOUS
  62
5
  10
 2197.1348314611
  20
 1818.0337078651
  30
0.0
  11
 2144.6348314611
  21
 1765.5337078651
  31
0.0
   0
LINE
   5
364
 100
AcDbEntity
   8
LEVEL001
 370
13
 100
AcDbLine
   6
CONTINUOUS
  62
5
  10
 2160.5447340371
  20
 1765.5337078651
  30
0.0
  11
 2213.0447340371
  21
 1818.0337078651
  31
0.0
   0
LINE
   5
365
 100
AcDbEntity
   8
LEVEL001
 370
13
 100
AcDbLine
   6
CONTINUOUS
  62
5
  10
 2217.8150263077
  20
 1765.5337078651
  30
0.0
  11
 2189.1798801723
  21
 1794.1688540004
  31
0.0
   0
LINE
   5
366
 100
AcDbEntity
   8
LEVEL001
 370
13
 100
AcDbLine
   6
CONTINUOUS
  62
5
  10
 2197.1348314605
  20
 1802.1238052886
  30
0.0
  11
 2233.7249288841
  21
 1765.5337078651
  31
0.0
   0
LINE
   5
367
 100
AcDbEntity
   8
LEVEL001
 370
13
 100
AcDbLine
   6
CONTINUOUS
  62
5
  10
 2249.6348314605
  20
 1765.5337078651
  30
0.0
  11
 2205.0897827487
  21
 1810.0787565768
  31
0.0
   0
LINE
   5
368
 100
AcDbEntity
   8
LEVEL001
 370
13
 100
AcDbLine
   6
CONTINUOUS
  62
5
  10
 2213.0447340371
  20
 1818.0337078651
  30
0.0
  11
 2265.5447340373
  21
 1765.5337078651
  31
0.0
   0
LINE
   5
369
 100
AcDbEntity
   8
LEVEL001
 370
13
 100
AcDbLine
   6
CONTINUOUS
  62
5
  10
 2270.3150263075
  20
 1818.0337078651
  30
0.0
  11
 2241.6798801723
  21
 1789.3985617299
  31
0.0
   0
LINE
   5
36A
 100
AcDbEntity
   8
LEVEL001
 370
13
 100
AcDbLine
   6
CONTINUOUS
  62
5
  10
 2318.0447340373
  20
 1818.0337078651
  30
0.0
  11
 2354.6348314607
  21
 1781.4436104418
  31
0.0
   0
LINE
   5
36B
 100
AcDbEntity
   8
LEVEL001
 370
13
 100
AcDbLine
   6
CONTINUOUS
  62
5
  10
 2560.0848314607
  20
 1818.0337078651
  30
0.0
  11
 2104.6348314607
  21
 1818.0337078651
  31
0.0
   0
LINE
   5
36C
 100
AcDbEntity
   8
LEVEL001
 370
13
 100
AcDbLine
   6
CONTINUOUS
  62
5
  10
 2560.0847826325
  20
 1238.1283199777
  30
0.0
  11
 2354.6348314607
  21
 1032.6783688059
  31
0.0
   0
LINE
   5
36D
 100
AcDbEntity
   8
LEVEL001
 370
13
 100
AcDbLine
   6
CONTINUOUS
  62
5
  10
 2354.6348314607
  20
 1068.0337078652
  30
0.0
  11
 2560.0847826325
  21
 1273.4836590371
  31
0.0
   0
LINE
   5
36E
 100
AcDbEntity
   8
LEVEL001
 370
13
 100
AcDbLine
   6
CONTINUOUS
  62
5
  10
 2560.0847826325
  20
 1308.8389980964
  30
0.0
  11
 2354.6348314607
  21
 1103.3890469245
  31
0.0
   0
LINE
   5
36F
 100
AcDbEntity
   8
LEVEL001
 370
13
 100
AcDbLine
   6
CONTINUOUS
  62
5
  10
 2854.6348314607
  20
 718.03370786517
  30
0.0
  11
 2354.6348314607
  21
 718.03370786517
  31
0.0
   0
LINE
   5
370
 100
AcDbEntity
   8
LEVEL001
 370
13
 100
AcDbLine
   6
CONTINUOUS
  62
5
  10
 2354.6348314607
  20
 718.03370786517
  30
0.0
  11
 2354.6348314607
  21
 618.03370786517
  31
0.0
   0
LINE
   5
371
 100
AcDbEntity
   8
LEVEL001
 370
13
 100
AcDbLine
   6
CONTINUOUS
  62
5
  10
 2354.6348314607
  20
 618.03370786517
  30
0.0
  11
 2854.6348314607
  21
 618.03370786517
  31
0.0
   0
LINE
   5
372
 100
AcDbEntity
   8
LEVEL001
 370
13
 100
AcDbLine
   6
CONTINUOUS
  62
5
  10
 2354.6348314607
  20
 718.03370786517
  30
0.0
  11
 2854.6348314607
  21
 718.03370786517
  31
0.0
   0
LINE
   5
373
 100
AcDbEntity
   8
LEVEL001
 370
13
 100
AcDbLine
   6
CONTINUOUS
  62
5
  10
 2404.6348314607
  20
 718.03370786517
  30
0.0
  11
 2354.6348314607
  21
 618.03370786517
  31
0.0
   0
LINE
   5
374
 100
AcDbEntity
   8
LEVEL001
 370
13
 100
AcDbLine
   6
CONTINUOUS
  62
5
  10
 2354.6348314607
  20
 718.03370786517
  30
0.0
  11
 2394.6348314607
  21
 698.03370786517
  31
0.0
   0
LINE
   5
375
 100
AcDbEntity
   8
LEVEL001
 370
13
 100
AcDbLine
   6
CONTINUOUS
  62
5
  10
 2404.6348314607
  20
 618.03370786517
  30
0.0
  11
 2364.6348314607
  21
 638.03370786517
  31
0.0
   0
LINE
   5
376
 100
AcDbEntity
   8
LEVEL001
 370
13
 100
AcDbLine
   6
CONTINUOUS
  62
5
  10
 2504.6348314607
  20
 718.03370786517
  30
0.0
  11
 2454.6348314607
  21
 618.03370786517
  31
0.0
   0
LINE
   5
377
 100
AcDbEntity
   8
LEVEL001
 370
13
 100
AcDbLine
   6
CONTINUOUS
  62
5
  10
 2454.6348314607
  20
 718.03370786517
  30
0.0
  11
 2494.6348314607
  21
 698.03370786517
  31
0.0
   0
LINE
   5
378
 100
AcDbEntity
   8
LEVEL001
 370
13
 100
AcDbLine
   6
CONTINUOUS
  62
5
  10
 2454.6348314607
  20
 718.03370786517
  30
0.0
  11
 2404.6348314607
  21
 618.03370786517
  31
0.0
   0
LINE
   5
379
 100
AcDbEntity
   8
LEVEL001
 370
13
 100
AcDbLine
   6
CONTINUOUS
  62
5
  10
 2404.6348314607
  20
 718.03370786517
  30
0.0
  11
 2444.6348314607
  21
 698.03370786517
  31
0.0
   0
LINE
   5
37A
 100
AcDbEntity
   8
LEVEL001
 370
13
 100
AcDbLine
   6
CONTINUOUS
  62
5
  10
 2504.6348314607
  20
 618.03370786517
  30
0.0
  11
 2464.6348314607
  21
 638.03370786517
  31
0.0
   0
LINE
   5
37B
 100
AcDbEntity
   8
LEVEL001
 370
13
 100
AcDbLine
   6
CONTINUOUS
  62
5
  10
 2454.6348314607
  20
 618.03370786517
  30
0.0
  11
 2414.6348314607
  21
 638.03370786517
  31
0.0
   0
LINE
   5
37C
 100
AcDbEntity
   8
LEVEL001
 370
13
 100
AcDbLine
   6
CONTINUOUS
  62
5
  10
 2854.6348314607
  20
 718.03370786517
  30
0.0
  11
 2804.6348314607
  21
 618.03370786517
  31
0.0
   0
LINE
   5
37D
 100
AcDbEntity
   8
LEVEL001
 370
13
 100
AcDbLine
   6
CONTINUOUS
  62
5
  10
 2804.6348314607
  20
 718.03370786517
  30
0.0
  11
 2844.6348314607
  21
 698.03370786517
  31
0.0
   0
LINE
   5
37E
 100
AcDbEntity
   8
LEVEL001
 370
13
 100
AcDbLine
   6
CONTINUOUS
  62
5
  10
 2854.6348314607
  20
 618.03370786517
  30
0.0
  11
 2814.6348314607
  21
 638.03370786517
  31
0.0
   0
LINE
   5
37F
 100
AcDbEntity
   8
LEVEL001
 370
13
 100
AcDbLine
   6
CONTINUOUS
  62
5
  10
 2854.6348314607
  20
 618.03370786517
  30
0.0
  11
 2854.6348314607
  21
 718.03370786517
  31
0.0
   0
LINE
   5
380
 100
AcDbEntity
   8
LEVEL001
 370
13
 100
AcDbLine
   6
CONTINUOUS
  62
5
  10
 2854.6348314607
  20
 718.03370786517
  30
0.0
  11
 2854.6348314607
  21
 1818.0337078652
  31
0.0
   0
LINE
   5
381
 100
AcDbEntity
   8
LEVEL001
 370
13
 100
AcDbLine
   6
CONTINUOUS
  62
5
  10
 2804.6348314607
  20
 718.03370786517
  30
0.0
  11
 2754.6348314607
  21
 618.03370786517
  31
0.0
   0
LINE
   5
382
 100
AcDbEntity
   8
LEVEL001
 370
13
 100
AcDbLine
   6
CONTINUOUS
  62
5
  10
 2754.6348314607
  20
 718.03370786517
  30
0.0
  11
 2794.6348314607
  21
 698.03370786517
  31
0.0
   0
LINE
   5
383
 100
AcDbEntity
   8
LEVEL001
 370
13
 100
AcDbLine
   6
CONTINUOUS
  62
5
  10
 2754.6348314607
  20
 718.03370786517
  30
0.0
  11
 2704.6348314607
  21
 618.03370786517
  31
0.0
   0
LINE
   5
384
 100
AcDbEntity
   8
LEVEL001
 370
13
 100
AcDbLine
   6
CONTINUOUS
  62
5
  10
 2704.6348314607
  20
 718.03370786517
  30
0.0
  11
 2744.6348314607
  21
 698.03370786517
  31
0.0
   0
LINE
   5
385
 100
AcDbEntity
   8
LEVEL001
 370
13
 100
AcDbLine
   6
CONTINUOUS
  62
5
  10
 2804.6348314607
  20
 618.03370786517
  30
0.0
  11
 2764.6348314607
  21
 638.03370786517
  31
0.0
   0
LINE
   5
386
 100
AcDbEntity
   8
LEVEL001
 370
13
 100
AcDbLine
   6
CONTINUOUS
  62
5
  10
 2754.6348314607
  20
 618.03370786517
  30
0.0
  11
 2714.6348314607
  21
 638.03370786517
  31
0.0
   0
LINE
   5
387
 100
AcDbEntity
   8
LEVEL001
 370
13
 100
AcDbLine
   6
CONTINUOUS
  62
5
  10
 2915.3150263073
  20
 1818.0337078651
  30
0.0
  11
 2862.8150263073
  21
 1765.5337078651
  31
0.0
   0
LINE
   5
388
 100
AcDbEntity
   8
LEVEL001
 370
13
 100
AcDbLine
   6
CONTINUOUS
  62
5
  10
 2878.7249288835
  20
 1765.5337078651
  30
0.0
  11
 2931.2249288835
  21
 1818.0337078651
  31
0.0
   0
LINE
   5
389
 100
AcDbEntity
   8
LEVEL001
 370
13
 100
AcDbLine
   6
CONTINUOUS
  62
5
  10
 2947.1348314611
  20
 1818.0337078651
  30
0.0
  11
 2894.6348314611
  21
 1765.5337078651
  31
0.0
   0
LINE
   5
38A
 100
AcDbEntity
   8
LEVEL001
 370
13
 100
AcDbLine
   6
CONTINUOUS
  62
5
  10
 2910.5447340371
  20
 1765.5337078651
  30
0.0
  11
 2963.0447340371
  21
 1818.0337078651
  31
0.0
   0
LINE
   5
38B
 100
AcDbEntity
   8
LEVEL001
 370
13
 100
AcDbLine
   6
CONTINUOUS
  62
5
  10
 2967.8150263077
  20
 1765.5337078651
  30
0.0
  11
 2939.1798801723
  21
 1794.1688540004
  31
0.0
   0
LINE
   5
38C
 100
AcDbEntity
   8
LEVEL001
 370
13
 100
AcDbLine
   6
CONTINUOUS
  62
5
  10
 2947.1348314605
  20
 1802.1238052886
  30
0.0
  11
 2983.7249288841
  21
 1765.5337078651
  31
0.0
   0
LINE
   5
38D
 100
AcDbEntity
   8
LEVEL001
 370
13
 100
AcDbLine
   6
CONTINUOUS
  62
5
  10
 2999.6348314605
  20
 1765.5337078651
  30
0.0
  11
 2955.0897827487
  21
 1810.0787565768
  31
0.0
   0
LINE
   5
38E
 100
AcDbEntity
   8
LEVEL001
 370
13
 100
AcDbLine
   6
CONTINUOUS
  62
5
  10
 2963.0447340371
  20
 1818.0337078651
  30
0.0
  11
 3015.5447340373
  21
 1765.5337078651
  31
0.0
   0
LINE
   5
38F
 100
AcDbEntity
   8
LEVEL001
 370
13
 100
AcDbLine
   6
CONTINUOUS
  62
5
  10
 3015.5447340373
  20
 1765.5337078651
  30
0.0
  11
 3068.0447340373
  21
 1818.0337078651
  31
0.0
   0
LINE
   5
390
 100
AcDbEntity
   8
LEVEL001
 370
13
 100
AcDbLine
   6
CONTINUOUS
  62
5
  10
 3020.3150263075
  20
 1818.0337078651
  30
0.0
  11
 2991.6798801723
  21
 1789.3985617299
  31
0.0
   0
LINE
   5
391
 100
AcDbEntity
   8
LEVEL001
 370
13
 100
AcDbLine
   6
CONTINUOUS
  62
5
  10
 2999.6348314605
  20
 1781.4436104419
  30
0.0
  11
 3036.2249288837
  21
 1818.0337078651
  31
0.0
   0
LINE
   5
392
 100
AcDbEntity
   8
LEVEL001
 370
13
 100
AcDbLine
   6
CONTINUOUS
  62
5
  10
 3052.1348314613
  20
 1818.0337078651
  30
0.0
  11
 3007.5897827493
  21
 1773.4886591531
  31
0.0
   0
LINE
   5
393
 100
AcDbEntity
   8
LEVEL001
 370
13
 100
AcDbLine
   6
CONTINUOUS
  62
5
  10
 3072.8150263079
  20
 1765.5337078651
  30
0.0
  11
 3044.1798801725
  21
 1794.1688540004
  31
0.0
   0
LINE
   5
394
 100
AcDbEntity
   8
LEVEL001
 370
13
 100
AcDbLine
   6
CONTINUOUS
  62
5
  10
 3052.1348314607
  20
 1802.1238052886
  30
0.0
  11
 3088.7249288843
  21
 1765.5337078651
  31
0.0
   0
LINE
   5
395
 100
AcDbEntity
   8
LEVEL001
 370
13
 100
AcDbLine
   6
CONTINUOUS
  62
5
  10
 3104.6348314607
  20
 1765.5337078651
  30
0.0
  11
 3060.0897827489
  21
 1810.0787565768
  31
0.0
   0
LINE
   5
396
 100
AcDbEntity
   8
LEVEL001
 370
13
 100
AcDbLine
   6
CONTINUOUS
  62
5
  10
 3068.0447340373
  20
 1818.0337078651
  30
0.0
  11
 3104.6348314607
  21
 1781.4436104418
  31
0.0
   0
LINE
   5
397
 100
AcDbEntity
   8
LEVEL001
 370
13
 100
AcDbLine
   6
CONTINUOUS
  62
5
  10
 2854.6348314607
  20
 1603.3890469245
  30
0.0
  11
 2649.1848802889
  21
 1397.9390957527
  31
0.0
   0
LINE
   5
398
 100
AcDbEntity
   8
LEVEL001
 370
13
 100
AcDbLine
   6
CONTINUOUS
  62
5
  10
 2649.1848802889
  20
 1362.5837566933
  30
0.0
  11
 2854.6348314607
  21
 1568.0337078652
  31
0.0
   0
LINE
   5
399
 100
AcDbEntity
   8
LEVEL001
 370
13
 100
AcDbLine
   6
CONTINUOUS
  62
5
  10
 2854.6348314607
  20
 1532.6783688059
  30
0.0
  11
 2649.1848802889
  21
 1327.2284176340
  31
0.0
   0
LINE
   5
39A
 100
AcDbEntity
   8
LEVEL001
 370
13
 100
AcDbLine
   6
CONTINUOUS
  62
5
  10
 2649.1848314607
  20
 1818.0337078651
  30
0.0
  11
 3104.6348314607
  21
 1818.0337078651
  31
0.0
   0
LINE
   5
39B
 100
AcDbEntity
   8
LEVEL001
 370
13
 100
AcDbLine
   6
CONTINUOUS
  62
2
  10
 5464.6348314607
  20
 680.53370786517
  30
0.0
  11
 7144.6348314607
  21
 680.53370786517
  31
0.0
   0
POINT
   5
39C
 100
AcDbEntity
   8
LEVEL001
 100
AcDbPoint
  62
3
  10
 6404.6348314607
  20
 740.53370786517
  30
0.0
   0
POINT
   5
39D
 100
AcDbEntity
   8
LEVEL001
 100
AcDbPoint
  62
3
  10
 6304.6348314607
  20
 740.53370786517
  30
0.0
   0
POINT
   5
39E
 100
AcDbEntity
   8
LEVEL001
 100
AcDbPoint
  62
3
  10
 6404.6348314607
  20
 840.53370786517
  30
0.0
   0
LINE
   5
39F
 100
AcDbEntity
   8
LEVEL001
 370
13
 100
AcDbLine
   6
CONTINUOUS
  62
6
  10
 5464.6348314607
  20
 2460.5337078652
  30
0.0
  11
 8104.6348314607
  21
 2460.5337078652
  31
0.0
   0
LINE
   5
3A0
 100
AcDbEntity
   8
LEVEL001
 370
13
 100
AcDbLine
   6
CONTINUOUS
  62
6
  10
 5464.6348314607
  20
 1020.5337078652
  30
0.0
  11
 8104.6348314607
  21
 1020.5337078652
  31
0.0
   0
LINE
   5
3A1
 100
AcDbEntity
   8
LEVEL001
 370
13
 100
AcDbLine
   6
CONTINUOUS
  62
6
  10
 5464.6348314607
  20
 1140.5337078652
  30
0.0
  11
 8104.6348314607
  21
 1140.5337078652
  31
0.0
   0
LINE
   5
3A2
 100
AcDbEntity
   8
LEVEL001
 370
13
 100
AcDbLine
   6
CONTINUOUS
  62
6
  10
 5464.6348314607
  20
 1260.5337078652
  30
0.0
  11
 8104.6348314607
  21
 1260.5337078652
  31
0.0
   0
LINE
   5
3A3
 100
AcDbEntity
   8
LEVEL001
 370
13
 100
AcDbLine
   6
CONTINUOUS
  62
6
  10
 5464.6348314607
  20
 1380.5337078652
  30
0.0
  11
 8104.6348314607
  21
 1380.5337078652
  31
0.0
   0
LINE
   5
3A4
 100
AcDbEntity
   8
LEVEL001
 370
13
 100
AcDbLine
   6
CONTINUOUS
  62
6
  10
 5464.6348314607
  20
 1500.5337078652
  30
0.0
  11
 8104.6348314607
  21
 1500.5337078652
  31
0.0
   0
MTEXT
   5
3A5
 100
AcDbEntity
   8
LEVEL001
 370
13
  62
1
 100
AcDbMText
  10
 7344.6348314607
  20
 1920.5337078652
  30
0.0
  40
 51.428571428572
  41
0.0
  71
4
  72
1
   1
\T1.000000;溶融亜鉛メッキ
   7
GMM001
  44
 0.79999984000003
   0
MTEXT
   5
3A6
 100
AcDbEntity
   8
LEVEL001
 370
13
  62
1
 100
AcDbMText
  10
 7344.6348314607
  20
 2040.5337078652
  30
0.0
  40
 51.428571428572
  41
0.0
  71
4
  72
1
   1
\T1.000000;溶融亜鉛メッキ
   7
GMM001
  44
 0.79999984000003
   0
MTEXT
   5
3A7
 100
AcDbEntity
   8
LEVEL001
 370
13
  62
1
 100
AcDbMText
  10
 6784.6348314607
  20
 1920.5337078652
  30
0.0
  40
 51.428571428572
  41
0.0
  71
4
  72
1
   1
\T1.000000;ＳＳ４００
   7
GMM001
  44
 0.79999984000003
   0
MTEXT
   5
3A8
 100
AcDbEntity
   8
LEVEL001
 370
13
  62
1
 100
AcDbMText
  10
 6784.6348314607
  20
 2040.5337078652
  30
0.0
  40
 51.428571428572
  41
0.0
  71
4
  72
1
   1
\T1.000000;ＳＳ４００
   7
GMM001
  44
 0.79999984000003
   0
MTEXT
   5
3A9
 100
AcDbEntity
   8
LEVEL001
 370
13
  62
1
 100
AcDbMText
  10
 5636.6348314607
  20
 1800.5337078652
  30
0.0
  40
 51.428571428572
  41
0.0
  71
6
  72
1
   1
\T1.000000;９
   7
GMM001
  44
 0.79999984000003
   0
MTEXT
   5
3AA
 100
AcDbEntity
   8
LEVEL001
 370
13
  62
1
 100
AcDbMText
  10
 5636.6348314607
  20
 1920.5337078652
  30
0.0
  40
 51.428571428572
  41
0.0
  71
6
  72
1
   1
\T1.000000;８
   7
GMM001
  44
 0.79999984000003
   0
MTEXT
   5
3AB
 100
AcDbEntity
   8
LEVEL001
 370
13
  62
1
 100
AcDbMText
  10
 5704.6348314607
  20
 1920.5337078652
  30
0.0
  40
 51.428571428572
  41
0.0
  71
4
  72
1
   1
\T1.000000;金具締付ボルトナット
   7
GMM001
  44
 0.79999984000003
   0
MTEXT
   5
3AC
 100
AcDbEntity
   8
LEVEL001
 370
13
  62
1
 100
AcDbMText
  10
 5636.6348314607
  20
 2040.5337078652
  30
0.0
  40
 51.428571428572
  41
0.0
  71
6
  72
1
   1
\T1.000000;７
   7
GMM001
  44
 0.79999984000003
   0
MTEXT
   5
3AD
 100
AcDbEntity
   8
LEVEL001
 370
13
  62
1
 100
AcDbMText
  10
 5704.6348314607
  20
 2040.5337078652
  30
0.0
  40
 51.428571428572
  41
0.0
  71
4
  72
1
   1
\T1.000000;裏板金具取付ボルト
   7
GMM001
  44
 0.79999984000003
   0
LINE
   5
3AE
 100
AcDbEntity
   8
LEVEL001
 370
13
 100
AcDbLine
   6
CONTINUOUS
  62
6
  10
 5464.6348314607
  20
 1620.5337078652
  30
0.0
  11
 8104.6348314607
  21
 1620.5337078652
  31
0.0
   0
LINE
   5
3AF
 100
AcDbEntity
   8
LEVEL001
 370
13
 100
AcDbLine
   6
CONTINUOUS
  62
6
  10
 5464.6348314607
  20
 1860.5337078652
  30
0.0
  11
 8104.6348314607
  21
 1860.5337078652
  31
0.0
   0
LINE
   5
3B0
 100
AcDbEntity
   8
LEVEL001
 370
13
 100
AcDbLine
   6
CONTINUOUS
  62
6
  10
 5464.6348314607
  20
 1980.5337078652
  30
0.0
  11
 8104.6348314607
  21
 1980.5337078652
  31
0.0
   0
MTEXT
   5
3B1
 100
AcDbEntity
   8
LEVEL001
 370
13
  62
1
 100
AcDbMText
  10
 5704.6348314607
  20
 2160.5337078652
  30
0.0
  40
 51.428571428572
  41
0.0
  71
4
  72
1
   1
\T1.000000;支柱取付金具
   7
GMM001
  44
 0.79999984000003
   0
MTEXT
   5
3B2
 100
AcDbEntity
   8
LEVEL001
 370
13
  62
1
 100
AcDbMText
  10
 5636.6348314607
  20
 2160.5337078652
  30
0.0
  40
 51.428571428572
  41
0.0
  71
6
  72
1
   1
\T1.000000;６
   7
GMM001
  44
 0.79999984000003
   0
MTEXT
   5
3B3
 100
AcDbEntity
   8
LEVEL001
 370
13
  62
1
 100
AcDbMText
  10
 6784.6348314607
  20
 2160.5337078652
  30
0.0
  40
 51.428571428572
  41
0.0
  71
4
  72
1
   1
\T1.000000;ＳＳ４００
   7
GMM001
  44
 0.79999984000003
   0
MTEXT
   5
3B4
 100
AcDbEntity
   8
LEVEL001
 370
13
  62
1
 100
AcDbMText
  10
 5636.6348314607
  20
 2280.5337078652
  30
0.0
  40
 51.428571428572
  41
0.0
  71
6
  72
1
   1
\T1.000000;５
   7
GMM001
  44
 0.79999984000003
   0
MTEXT
   5
3B5
 100
AcDbEntity
   8
LEVEL001
 370
13
  62
1
 100
AcDbMText
  10
 5704.6348314607
  20
 2280.5337078652
  30
0.0
  40
 51.428571428572
  41
0.0
  71
4
  72
1
   1
\T1.000000;裏板取付金具
   7
GMM001
  44
 0.79999984000003
   0
MTEXT
   5
3B6
 100
AcDbEntity
   8
LEVEL001
 370
13
  62
1
 100
AcDbMText
  10
 5636.6348314607
  20
 2400.5337078652
  30
0.0
  40
 51.428571428572
  41
0.0
  71
6
  72
1
   1
\T1.000000;４
   7
GMM001
  44
 0.79999984000003
   0
MTEXT
   5
3B7
 100
AcDbEntity
   8
LEVEL001
 370
13
  62
1
 100
AcDbMText
  10
 5704.6348314607
  20
 2400.5337078652
  30
0.0
  40
 51.428571428572
  41
0.0
  71
4
  72
1
   1
\T1.000000;リング
   7
GMM001
  44
 0.79999984000003
   0
MTEXT
   5
3B8
 100
AcDbEntity
   8
LEVEL001
 370
13
  62
1
 100
AcDbMText
  10
 5636.6348314607
  20
 2520.5337078652
  30
0.0
  40
 51.428571428572
  41
0.0
  71
6
  72
1
   1
\T1.000000;３
   7
GMM001
  44
 0.79999984000003
   0
MTEXT
   5
3B9
 100
AcDbEntity
   8
LEVEL001
 370
13
  62
1
 100
AcDbMText
  10
 5704.6348314607
  20
 2520.5337078652
  30
0.0
  40
 51.428571428572
  41
0.0
  71
4
  72
1
   1
\T1.000000;フード
   7
GMM001
  44
 0.79999984000003
   0
MTEXT
   5
3BA
 100
AcDbEntity
   8
LEVEL001
 370
13
  62
1
 100
AcDbMText
  10
 5636.6348314607
  20
 2640.5337078652
  30
0.0
  40
 51.428571428572
  41
0.0
  71
6
  72
1
   1
\T1.000000;２
   7
GMM001
  44
 0.79999984000003
   0
MTEXT
   5
3BB
 100
AcDbEntity
   8
LEVEL001
 370
13
  62
1
 100
AcDbMText
  10
 5636.6348314607
  20
 2760.5337078652
  30
0.0
  40
 51.428571428572
  41
0.0
  71
6
  72
1
   1
\T1.000000;１
   7
GMM001
  44
 0.79999984000003
   0
MTEXT
   5
3BC
 100
AcDbEntity
   8
LEVEL001
 370
13
  62
1
 100
AcDbMText
  10
 5704.6348314607
  20
 2640.5337078652
  30
0.0
  40
 51.428571428572
  41
0.0
  71
4
  72
1
   1
\T1.000000;バックプレート
   7
GMM001
  44
 0.79999984000003
   0
MTEXT
   5
3BD
 100
AcDbEntity
   8
LEVEL001
 370
13
  62
1
 100
AcDbMText
  10
 6784.6348314607
  20
 2280.5337078652
  30
0.0
  40
 51.428571428572
  41
0.0
  71
4
  72
1
   1
\T1.000000;ＳＳ４００
   7
GMM001
  44
 0.79999984000003
   0
MTEXT
   5
3BE
 100
AcDbEntity
   8
LEVEL001
 370
13
  62
1
 100
AcDbMText
  10
 6784.6348314607
  20
 2400.5337078652
  30
0.0
  40
 51.428571428572
  41
0.0
  71
4
  72
1
   1
\T1.000000;軟質ＰＶＣ
   7
GMM001
  44
 0.79999984000003
   0
MTEXT
   5
3BF
 100
AcDbEntity
   8
LEVEL001
 370
13
  62
1
 100
AcDbMText
  10
 6784.6348314607
  20
 2520.5337078652
  30
0.0
  40
 51.428571428572
  41
0.0
  71
4
  72
1
   1
\T1.000000;ＰＣ
   7
GMM001
  44
 0.79999984000003
   0
MTEXT
   5
3C0
 100
AcDbEntity
   8
LEVEL001
 370
13
  62
1
 100
AcDbMText
  10
 6784.6348314607
  20
 2760.5337078652
  30
0.0
  40
 51.428571428572
  41
0.0
  71
4
  72
1
   1
\T1.000000;ＳＵＳ３０４
   7
GMM001
  44
 0.79999984000003
   0
MTEXT
   5
3C1
 100
AcDbEntity
   8
LEVEL001
 370
13
  62
1
 100
AcDbMText
  10
 7344.6348314607
  20
 2160.5337078652
  30
0.0
  40
 51.428571428572
  41
0.0
  71
4
  72
1
   1
\T1.000000;溶融亜鉛メッキ
   7
GMM001
  44
 0.79999984000003
   0
MTEXT
   5
3C2
 100
AcDbEntity
   8
LEVEL001
 370
13
  62
1
 100
AcDbMText
  10
 7344.6348314607
  20
 2280.5337078652
  30
0.0
  40
 51.428571428572
  41
0.0
  71
4
  72
1
   1
\T1.000000;溶融亜鉛メッキ
   7
GMM001
  44
 0.79999984000003
   0
MTEXT
   5
3C3
 100
AcDbEntity
   8
LEVEL001
 370
13
  62
1
 100
AcDbMText
  10
 7344.6348314607
  20
 2520.5337078652
  30
0.0
  40
 51.428571428572
  41
0.0
  71
4
  72
1
   1
\T1.000000;ＵＶグレ－ド
   7
GMM001
  44
 0.79999984000003
   0
LINE
   5
3C4
 100
AcDbEntity
   8
LEVEL001
 370
13
 100
AcDbLine
   6
CONTINUOUS
  62
6
  10
 5464.6348314607
  20
 2100.5337078652
  30
0.0
  11
 8104.6348314607
  21
 2100.5337078652
  31
0.0
   0
LINE
   5
3C5
 100
AcDbEntity
   8
LEVEL001
 370
13
 100
AcDbLine
   6
CONTINUOUS
  62
6
  10
 5464.6348314607
  20
 2220.5337078652
  30
0.0
  11
 8104.6348314607
  21
 2220.5337078652
  31
0.0
   0
LINE
   5
3C6
 100
AcDbEntity
   8
LEVEL001
 370
13
 100
AcDbLine
   6
CONTINUOUS
  62
6
  10
 5464.6348314607
  20
 2580.5337078652
  30
0.0
  11
 8104.6348314607
  21
 2580.5337078652
  31
0.0
   0
LINE
   5
3C7
 100
AcDbEntity
   8
LEVEL001
 370
13
 100
AcDbLine
   6
CONTINUOUS
  62
6
  10
 5464.6348314607
  20
 2340.5337078652
  30
0.0
  11
 8104.6348314607
  21
 2340.5337078652
  31
0.0
   0
LINE
   5
3C8
 100
AcDbEntity
   8
LEVEL001
 370
13
 100
AcDbLine
   6
CONTINUOUS
  62
6
  10
 5464.6348314607
  20
 2700.5337078652
  30
0.0
  11
 8104.6348314607
  21
 2700.5337078652
  31
0.0
   0
MTEXT
   5
3C9
 100
AcDbEntity
   8
LEVEL001
 370
13
  62
1
 100
AcDbMText
  10
 6104.6348314607
  20
 2900.5337078652
  30
0.0
  40
 51.428571428572
  41
0.0
  71
5
  72
1
   1
\T1.000000;名　　称
   7
GMM001
  44
 0.79999984000003
   0
MTEXT
   5
3CA
 100
AcDbEntity
   8
LEVEL001
 370
13
  62
1
 100
AcDbMText
  10
 6644.6348314607
  20
 2900.5337078652
  30
0.0
  40
 51.428571428572
  41
0.0
  71
5
  72
1
   1
\T1.000000;個数
   7
GMM001
  44
 0.79999984000003
   0
MTEXT
   5
3CB
 100
AcDbEntity
   8
LEVEL001
 370
13
  62
1
 100
AcDbMText
  10
 7024.6348314607
  20
 2900.5337078652
  30
0.0
  40
 51.428571428572
  41
0.0
  71
5
  72
1
   1
\T1.000000;材　　質
   7
GMM001
  44
 0.79999984000003
   0
MTEXT
   5
3CC
 100
AcDbEntity
   8
LEVEL001
 370
13
  62
1
 100
AcDbMText
  10
 7704.6348314607
  20
 2900.5337078652
  30
0.0
  40
 51.428571428572
  41
0.0
  71
5
  72
1
   1
\T1.000000;規格仕様
   7
GMM001
  44
 0.79999984000003
   0
LINE
   5
3CD
 100
AcDbEntity
   8
LEVEL001
 370
13
 100
AcDbLine
   6
CONTINUOUS
  62
6
  10
 5664.6348314607
  20
 2980.5337078652
  30
0.0
  11
 5664.6348314607
  21
 900.53370786517
  31
0.0
   0
LINE
   5
3CE
 100
AcDbEntity
   8
LEVEL001
 370
13
 100
AcDbLine
   6
CONTINUOUS
  62
6
  10
 6544.6348314607
  20
 2980.5337078652
  30
0.0
  11
 6544.6348314607
  21
 900.53370786517
  31
0.0
   0
LINE
   5
3CF
 100
AcDbEntity
   8
LEVEL001
 370
13
 100
AcDbLine
   6
CONTINUOUS
  62
6
  10
 6744.6348314607
  20
 2980.5337078652
  30
0.0
  11
 6744.6348314607
  21
 900.53370786517
  31
0.0
   0
LINE
   5
3D0
 100
AcDbEntity
   8
LEVEL001
 370
13
 100
AcDbLine
   6
CONTINUOUS
  62
6
  10
 7304.6348314607
  20
 2980.5337078652
  30
0.0
  11
 7304.6348314607
  21
 900.53370786517
  31
0.0
   0
LINE
   5
3D1
 100
AcDbEntity
   8
LEVEL001
 370
13
 100
AcDbLine
   6
CONTINUOUS
  62
2
  10
 5464.6348314607
  20
 3300.5337078652
  30
0.0
  11
 8104.6348314607
  21
 3300.5337078652
  31
0.0
   0
LINE
   5
3D2
 100
AcDbEntity
   8
LEVEL001
 370
13
 100
AcDbLine
   6
CONTINUOUS
  62
2
  10
 5464.6348314607
  20
 2980.5337078652
  30
0.0
  11
 8104.6348314607
  21
 2980.5337078652
  31
0.0
   0
LINE
   5
3D3
 100
AcDbEntity
   8
LEVEL001
 370
13
 100
AcDbLine
   6
CONTINUOUS
  62
2
  10
 5464.6348314607
  20
 2820.5337078652
  30
0.0
  11
 8104.6348314607
  21
 2820.5337078652
  31
0.0
   0
MTEXT
   5
3D4
 100
AcDbEntity
   8
LEVEL001
 370
13
  62
1
 100
AcDbMText
  10
 5704.6348314607
  20
 2760.5337078652
  30
0.0
  40
 51.428571428572
  41
0.0
  71
4
  72
1
   1
\T1.000000;鏡面　Ｒ＝３６００
   7
GMM001
  44
 0.79999984000003
   0
MTEXT
   5
3D5
 100
AcDbEntity
   8
LEVEL001
 370
13
  62
1
 100
AcDbMText
  10
 7344.6348314607
  20
 2760.5337078652
  30
0.0
  40
 51.428571428572
  41
0.0
  71
4
  72
1
   1
\T1.000000;t=1.0mm\T1.000000;・表面研磨
   7
GMM001
  44
 0.79999984000003
   0
MTEXT
   5
3D6
 100
AcDbEntity
   8
LEVEL001
 370
13
  62
1
 100
AcDbMText
  10
 7344.6348314607
  20
 1800.5337078652
  30
0.0
  40
 51.428571428572
  41
0.0
  71
4
  72
1
   1
\T1.000000;静電粉体塗装
   7
GMM001
  44
 0.79999984000003
   0
MTEXT
   5
3D7
 100
AcDbEntity
   8
LEVEL001
 370
13
  62
1
 100
AcDbMText
  10
 6784.6348314607
  20
 1800.5337078652
  30
0.0
  40
 51.428571428572
  41
0.0
  71
4
  72
1
   1
\T1.000000;ＳＴＫ４００
   7
GMM001
  44
 0.79999984000003
   0
MTEXT
   5
3D8
 100
AcDbEntity
   8
LEVEL001
 370
13
  62
1
 100
AcDbMText
  10
 6716.6348314607
  20
 1800.5337078652
  30
0.0
  40
 51.428571428572
  41
0.0
  71
6
  72
1
   1
\T1.000000;１
   7
GMM001
  44
 0.79999984000003
   0
MTEXT
   5
3D9
 100
AcDbEntity
   8
LEVEL001
 370
13
  62
1
 100
AcDbMText
  10
 5704.6348314607
  20
 1800.5337078652
  30
0.0
  40
 51.428571428572
  41
0.0
  71
4
  72
1
   1
\T1.000000;支柱
   7
GMM001
  44
 0.79999984000003
   0
MTEXT
   5
3DA
 100
AcDbEntity
   8
LEVEL001
 370
13
  62
1
 100
AcDbMText
  10
 6716.6348314607
  20
 2160.5337078652
  30
0.0
  40
 51.428571428572
  41
0.0
  71
6
  72
1
   1
\T1.000000;１
   7
GMM001
  44
 0.79999984000003
   0
MTEXT
   5
3DB
 100
AcDbEntity
   8
LEVEL001
 370
13
  62
1
 100
AcDbMText
  10
 6716.6348314607
  20
 2280.5337078652
  30
0.0
  40
 51.428571428572
  41
0.0
  71
6
  72
1
   1
\T1.000000;１
   7
GMM001
  44
 0.79999984000003
   0
MTEXT
   5
3DC
 100
AcDbEntity
   8
LEVEL001
 370
13
  62
1
 100
AcDbMText
  10
 6716.6348314607
  20
 2400.5337078652
  30
0.0
  40
 51.428571428572
  41
0.0
  71
6
  72
1
   1
\T1.000000;１
   7
GMM001
  44
 0.79999984000003
   0
MTEXT
   5
3DD
 100
AcDbEntity
   8
LEVEL001
 370
13
  62
1
 100
AcDbMText
  10
 6716.6348314607
  20
 2520.5337078652
  30
0.0
  40
 51.428571428572
  41
0.0
  71
6
  72
1
   1
\T1.000000;１
   7
GMM001
  44
 0.79999984000003
   0
MTEXT
   5
3DE
 100
AcDbEntity
   8
LEVEL001
 370
13
  62
1
 100
AcDbMText
  10
 6716.6348314607
  20
 2640.5337078652
  30
0.0
  40
 51.428571428572
  41
0.0
  71
6
  72
1
   1
\T1.000000;１
   7
GMM001
  44
 0.79999984000003
   0
MTEXT
   5
3DF
 100
AcDbEntity
   8
LEVEL001
 370
13
  62
1
 100
AcDbMText
  10
 6716.6348314607
  20
 2760.5337078652
  30
0.0
  40
 51.428571428572
  41
0.0
  71
6
  72
1
   1
\T1.000000;１
   7
GMM001
  44
 0.79999984000003
   0
MTEXT
   5
3E0
 100
AcDbEntity
   8
LEVEL001
 370
13
  62
1
 100
AcDbMText
  10
 6716.6348314607
  20
 2040.5337078652
  30
0.0
  40
 51.428571428572
  41
0.0
  71
6
  72
1
   1
\T1.000000;６
   7
GMM001
  44
 0.79999984000003
   0
MTEXT
   5
3E1
 100
AcDbEntity
   8
LEVEL001
 370
13
  62
1
 100
AcDbMText
  10
 6716.6348314607
  20
 1920.5337078652
  30
0.0
  40
 51.428571428572
  41
0.0
  71
6
  72
1
   1
\T1.000000;４
   7
GMM001
  44
 0.79999984000003
   0
MTEXT
   5
3E2
 100
AcDbEntity
   8
LEVEL001
 370
13
  62
1
 100
AcDbMText
  10
 5564.6348314607
  20
 3060.5337078652
  30
0.0
  40
 57.142857142858
  41
0.0
  71
4
  72
1
   1
%%c\T1.000000;１０００（シングル）
   7
GMM001
  44
 0.79999984000003
   0
MTEXT
   5
3E3
 100
AcDbEntity
   8
LEVEL001
 370
13
  62
1
 100
AcDbMText
  10
 5564.6348314607
  20
 3220.5337078652
  30
0.0
  40
 57.142857142858
  41
0.0
  71
4
  72
1
   1
\T1.000000;ステンレスミラー　＜Ｚタイプ＞
   7
GMM001
  44
 0.79999984000003
   0
MTEXT
   5
3E4
 100
AcDbEntity
   8
LEVEL001
 370
13
  62
1
 100
AcDbMText
  10
 6784.6348314607
  20
 2640.5337078652
  30
0.0
  40
 51.428571428572
  41
0.0
  71
4
  72
1
   1
\T1.000000;高耐食溶融めっき鋼板
   7
GMM004
  44
 0.79999984000003
   0
MTEXT
   5
3E5
 100
AcDbEntity
   8
LEVEL001
 370
13
  62
1
 100
AcDbMText
  10
 5636.6348314607
  20
 1080.5337078652
  30
0.0
  40
 51.428571428572
  41
0.0
  71
6
  72
1
   1
\T1.000000;１４
   7
GMM001
  44
 0.79999984000003
   0
MTEXT
   5
3E6
 100
AcDbEntity
   8
LEVEL001
 370
13
  62
1
 100
AcDbMText
  10
 5636.6348314607
  20
 1200.5337078652
  30
0.0
  40
 51.428571428572
  41
0.0
  71
6
  72
1
   1
\T1.000000;１３
   7
GMM001
  44
 0.79999984000003
   0
MTEXT
   5
3E7
 100
AcDbEntity
   8
LEVEL001
 370
13
  62
1
 100
AcDbMText
  10
 5636.6348314607
  20
 1320.5337078652
  30
0.0
  40
 51.428571428572
  41
0.0
  71
6
  72
1
   1
\T1.000000;１２
   7
GMM001
  44
 0.79999984000003
   0
MTEXT
   5
3E8
 100
AcDbEntity
   8
LEVEL001
 370
13
  62
1
 100
AcDbMText
  10
 5636.6348314607
  20
 1440.5337078652
  30
0.0
  40
 51.428571428572
  41
0.0
  71
6
  72
1
   1
\T1.000000;１１
   7
GMM001
  44
 0.79999984000003
   0
MTEXT
   5
3E9
 100
AcDbEntity
   8
LEVEL001
 370
13
  62
1
 100
AcDbMText
  10
 5636.6348314607
  20
 1560.5337078652
  30
0.0
  40
 51.428571428572
  41
0.0
  71
6
  72
1
   1
\T1.000000;１０
   7
GMM001
  44
 0.79999984000003
   0
MTEXT
   5
3EA
 100
AcDbEntity
   8
LEVEL001
 370
13
  62
1
 100
AcDbMText
  10
 5704.6348314607
  20
 1080.5337078652
  30
0.0
  40
 51.428571428572
  41
0.0
  71
4
  72
1
   1
\T1.000000;同上ボルトナット
   7
GMM001
  44
 0.79999984000003
   0
MTEXT
   5
3EB
 100
AcDbEntity
   8
LEVEL001
 370
13
  62
1
 100
AcDbMText
  10
 5704.6348314607
  20
 1200.5337078652
  30
0.0
  40
 51.428571428572
  41
0.0
  71
4
  72
1
   1
\T1.000000;注意板取付バンド
   7
GMM001
  44
 0.79999984000003
   0
MTEXT
   5
3EC
 100
AcDbEntity
   8
LEVEL001
 370
13
  62
1
 100
AcDbMText
  10
 5704.6348314607
  20
 1440.5337078652
  30
0.0
  40
 51.428571428572
  41
0.0
  71
4
  72
1
   1
\T1.000000;キャップ
   7
GMM001
  44
 0.79999984000003
   0
MTEXT
   5
3ED
 100
AcDbEntity
   8
LEVEL001
 370
13
  62
1
 100
AcDbMText
  10
 5704.6348314607
  20
 1560.5337078652
  30
0.0
  40
 51.428571428572
  41
0.0
  71
4
  72
1
   1
\T1.000000;根入れ鉄筋
   7
GMM001
  44
 0.79999984000003
   0
MTEXT
   5
3EE
 100
AcDbEntity
   8
LEVEL001
 370
13
  62
1
 100
AcDbMText
  10
 6716.6348314607
  20
 1320.5337078652
  30
0.0
  40
 51.428571428572
  41
0.0
  71
6
  72
1
   1
\T1.000000;１
   7
GMM001
  44
 0.79999984000003
   0
MTEXT
   5
3EF
 100
AcDbEntity
   8
LEVEL001
 370
13
  62
1
 100
AcDbMText
  10
 6716.6348314607
  20
 1440.5337078652
  30
0.0
  40
 51.428571428572
  41
0.0
  71
6
  72
1
   1
\T1.000000;１
   7
GMM001
  44
 0.79999984000003
   0
MTEXT
   5
3F0
 100
AcDbEntity
   8
LEVEL001
 370
13
  62
1
 100
AcDbMText
  10
 6716.6348314607
  20
 1560.5337078652
  30
0.0
  40
 51.428571428572
  41
0.0
  71
6
  72
1
   1
\T1.000000;２
   7
GMM001
  44
 0.79999984000003
   0
MTEXT
   5
3F1
 100
AcDbEntity
   8
LEVEL001
 370
13
  62
1
 100
AcDbMText
  10
 6794.6348314607
  20
 1437.6809232569
  30
0.0
  40
 51.428571428572
  41
0.0
  71
4
  72
1
   1
\T1.000000;ＰＥ
   7
GMM001
  44
 0.79999984000003
   0
MTEXT
   5
3F2
 100
AcDbEntity
   8
LEVEL001
 370
13
  62
1
 100
AcDbMText
  10
 6784.6348314607
  20
 1560.5337078652
  30
0.0
  40
 51.428571428572
  41
0.0
  71
4
  72
1
   1
\T1.000000;ＳＤ２９５Ａ
   7
GMM001
  44
 0.79999984000003
   0
MTEXT
   5
3F3
 100
AcDbEntity
   8
LEVEL001
 370
13
  62
1
 100
AcDbMText
  10
 7344.6348314607
  20
 2694.1714659541
  30
0.0
  40
 34.285714285714
  41
0.0
  71
1
  72
1
   1
{\T1.000000;ＺＡＭ処理鋼板}\P{\T1.000000;プレス成型}
   7
GMM005
  44
 1.0099997980000
   0
POINT
   5
3F4
 100
AcDbEntity
   8
0
 100
AcDbPoint
  62
7
  10
 5464.6348314607
  20
 3300.5337078652
  30
0.0
   0
MTEXT
   5
3F5
 100
AcDbEntity
   8
LEVEL001
 370
13
  62
1
 100
AcDbMText
  10
 5704.6348314607
  20
 3480.5337078652
  30
0.0
  40
 51.428580000000
  41
0.0
  71
1
  72
1
   1
{\T1.000000;※構成部材は改良のため、変更する場合があります。}\P{\T1.000000;※本図は道路反射鏡ハンドブックに基づいています。}
   7
GMM001
  44
 0.79999984000003
   0
MTEXT
   5
3F6
 100
AcDbEntity
   8
LEVEL001
 370
13
  62
2
 100
AcDbMText
  10
 5474.6348314607
  20
 870.53370786517
  30
0.0
  40
 38.571428571428
  41
0.0
  71
4
  72
1
   1
\T1.370378;図面番号
   7
GMM006
  44
 0.79999984000003
   0
LWPOLYLINE
   5
3F7
 100
AcDbEntity
   8
0
 370
13
   6
CONTINUOUS
  62
6
 100
AcDbPolyline
  90
4
  70
1
  10
 5464.6348314607
  20
 900.53370786517
  10
 8104.6348314607
  20
 900.53370786517
  10
 8104.6348314607
  20
 3300.5337078652
  10
 5464.6348314607
  20
 3300.5337078652
   0
MTEXT
   5
3F8
 100
AcDbEntity
   8
LEVEL001
 370
13
  62
1
 100
AcDbMText
  10
 6716.6348314607
  20
 1200.5337078652
  30
0.0
  40
 51.428571428572
  41
0.0
  71
6
  72
1
   1
\T1.000000;１式
   7
GMM001
  44
 0.79999984000003
   0
MTEXT
   5
3F9
 100
AcDbEntity
   8
LEVEL001
 370
13
  62
1
 100
AcDbMText
  10
 6716.6348314607
  20
 1080.5337078652
  30
0.0
  40
 51.428571428572
  41
0.0
  71
6
  72
1
   1
\T1.000000;１式
   7
GMM001
  44
 0.79999984000003
   0
MTEXT
   5
3FA
 100
AcDbEntity
   8
LEVEL001
 370
13
  62
1
 100
AcDbMText
  10
 6784.6348314607
  20
 1080.5337078652
  30
0.0
  40
 51.428571428572
  41
0.0
  71
4
  72
1
   1
\T1.000000;―
   7
GMM001
  44
 0.79999984000003
   0
MTEXT
   5
3FB
 100
AcDbEntity
   8
LEVEL001
 370
13
  62
1
 100
AcDbMText
  10
 6784.6348314607
  20
 1200.5337078652
  30
0.0
  40
 51.428571428572
  41
0.0
  71
4
  72
1
   1
\T1.000000;―
   7
GMM001
  44
 0.79999984000003
   0
MTEXT
   5
3FC
 100
AcDbEntity
   8
LEVEL001
 370
13
  62
1
 100
AcDbMText
  10
 6784.6348314607
  20
 1320.5337078652
  30
0.0
  40
 51.428571428572
  41
0.0
  71
4
  72
1
   1
\T1.000000;―
   7
GMM001
  44
 0.79999984000003
   0
MTEXT
   5
3FD
 100
AcDbEntity
   8
LEVEL001
 370
13
  62
1
 100
AcDbMText
  10
 7344.6348314607
  20
 1200.5337078652
  30
0.0
  40
 51.428571428572
  41
0.0
  71
4
  72
1
   1
\T1.000000;―
   7
GMM001
  44
 0.79999984000003
   0
MTEXT
   5
3FE
 100
AcDbEntity
   8
LEVEL001
 370
13
  62
1
 100
AcDbMText
  10
 7344.6348314607
  20
 1080.5337078652
  30
0.0
  40
 51.428571428572
  41
0.0
  71
4
  72
1
   1
\T1.000000;―
   7
GMM001
  44
 0.79999984000003
   0
MTEXT
   5
3FF
 100
AcDbEntity
   8
0
 370
13
  62
1
 100
AcDbMText
  10
 7346.0163607106
  20
 1686.3937788361
  30
0.0
  40
 34.285720000000
  41
0.0
  71
4
  72
1
   1
{\T1.000000;下地亜鉛メッキ}\P{\T1.000000;＋静電粉体塗装}
   7
GMM005
  44
 0.79999984000003
   0
MTEXT
   5
400
 100
AcDbEntity
   8
0
 370
13
  62
1
 100
AcDbMText
  10
 6784.2182225921
  20
 1646.8025576196
  30
0.0
  40
 51.428571428571
  41
0.0
  71
7
  72
1
   1
\T1.000000;ＳＴＫ４００
   7
GMM001
  44
 0.79999984000003
   0
MTEXT
   5
401
 100
AcDbEntity
   8
0
 370
13
  62
1
 100
AcDbMText
  10
 6715.6138052147
  20
 1646.8025576196
  30
0.0
  40
 51.428571428571
  41
0.0
  71
9
  72
1
   1
\T1.000000;１
   7
GMM001
  44
 0.79999984000003
   0
LINE
   5
402
 100
AcDbEntity
   8
0
 370
13
 100
AcDbLine
   6
CONTINUOUS
  62
6
  10
 6544.6348314607
  20
 1740.5337078652
  30
0.0
  11
 8104.6348314607
  21
 1740.5337078652
  31
0.0
   0
MTEXT
   5
403
 100
AcDbEntity
   8
LEVEL001
 370
13
  62
1
 100
AcDbMText
  10
 5704.6348314607
  20
 1320.5337078652
  30
0.0
  40
 51.428571428572
  41
0.0
  71
4
  72
1
   1
\T1.000000;注意板
   7
GMM001
  44
 0.79999984000003
   0
MTEXT
   5
404
 100
AcDbEntity
   8
LEVEL001
 370
13
  62
1
 100
AcDbMText
  10
 6304.6348314607
  20
 744.75245786517
  30
0.0
  40
 42.857142857142
  41
0.0
  71
5
  72
1
   1
\T1.000000;ＭＺＨ１００ＳＵＰ
   7
GMM001
  44
 0.79999984000003
   0
MTEXT
   5
405
 100
AcDbEntity
   8
LEVEL001
 370
13
  62
1
 100
AcDbMText
  10
 1848.3848802888
  20
 2639.4622792938
  30
0.0
  40
 42.857142857142
  41
0.0
  71
1
  72
1
   1
{\T1.000000;支柱}\P%%c{\T1.000000;８９．１×３}{\T1.000000;.}{\T1.000000;２ｔ}\P{\T1.000000;×４４００Ｌ}
   7
GMM001
  44
 0.79999984000003
   0
DIMENSION
   5
406
 100
AcDbEntity
   8
0
 370
13
   6
CONTINUOUS
  62
1
 100
AcDbDimension
   2
*D14
  10
 1067.2920025496
  20
 4598.0337078652
  30
0.0
  11
 1491.7776886036
  21
 4872.8029325339
  31
0.0
  70
3
   1
\A1;%%c1000
   3
GMM003
 100
AcDbDiametricDimension
  15
 1941.9776603719
  25
 5103.0337078651
  35
0.0
   0
DIMENSION
   5
407
 100
AcDbEntity
   8
0
 370
13
   6
CONTINUOUS
  62
1
 100
AcDbDimension
   2
*D15
  10
 604.63483146067
  20
 618.03370786517
  30
0.0
  11
 604.63483146067
  21
 668.03370786517
  31
0.0
  70
0
   3
GMM004
 100
AcDbAlignedDimension
  13
 1254.6348314607
  23
 718.03370786517
  33
0.0
  14
 1254.6348314607
  24
 618.03370786517
  34
0.0
  50
 270.00000000000
 100
AcDbRotatedDimension
   0
DIMENSION
   5
408
 100
AcDbEntity
   8
0
 370
13
   6
CONTINUOUS
  62
1
 100
AcDbDimension
   2
*D16
  10
 604.63483146067
  20
 1818.0337078651
  30
0.0
  11
 604.63483146067
  21
 1268.0337078652
  31
0.0
  70
0
   3
GMM004
 100
AcDbAlignedDimension
  13
 1254.6348314607
  23
 718.03370786517
  33
0.0
  14
 1004.6348314607
  24
 1818.0337078651
  34
0.0
  50
 90.000000000000
 100
AcDbRotatedDimension
   0
DIMENSION
   5
409
 100
AcDbEntity
   8
0
 370
13
   6
CONTINUOUS
  62
1
 100
AcDbDimension
   2
*D17
  10
 1754.6348314607
  20
 418.03370786517
  30
0.0
  11
 1504.6348314607
  21
 418.03370786517
  31
0.0
  70
0
   3
GMM005
 100
AcDbAlignedDimension
  13
 1254.6348314607
  23
 618.03370786517
  33
0.0
  14
 1754.6348314607
  24
 618.03370786517
  34
0.0
 100
AcDbRotatedDimension
   0
DIMENSION
   5
40A
 100
AcDbEntity
   8
0
 370
13
   6
CONTINUOUS
  62
1
 100
AcDbDimension
   2
*D18
  10
 2604.6348314607
  20
 2618.0337078652
  30
0.0
  11
 2804.6348314607
  21
 2618.0337078652
  31
0.0
  70
0
   3
GMM006
 100
AcDbAlignedDimension
  13
 3004.6348314607
  23
 4018.0337078632
  33
0.0
  14
 2604.6348314607
  24
 3518.0337078632
  34
0.0
  50
 180.00000000000
 100
AcDbRotatedDimension
   0
DIMENSION
   5
40B
 100
AcDbEntity
   8
0
 370
13
   6
CONTINUOUS
  62
1
 100
AcDbDimension
   2
*D19
  10
 604.63483146067
  20
 1818.0337078651
  30
0.0
  11
 604.63483146067
  21
 3068.0337078652
  31
0.0
  70
0
   1
\A1;2500(標準設置高さ)
   3
GMM007
 100
AcDbAlignedDimension
  13
 1460.0848436677
  23
 4318.0337078652
  33
0.0
  14
 1004.6348314607
  24
 1818.0337078651
  34
0.0
  50
 270.00000000000
 100
AcDbRotatedDimension
   0
DIMENSION
   5
40C
 100
AcDbEntity
   8
0
 370
13
   6
CONTINUOUS
  62
1
 100
AcDbDimension
   2
*D20
  10
 2854.6348314607
  20
 418.03370786517
  30
0.0
  11
 2604.6348314607
  21
 418.03370786517
  31
0.0
  70
0
   3
GMM005
 100
AcDbAlignedDimension
  13
 2354.6348314607
  23
 618.03370786517
  33
0.0
  14
 2854.6348314607
  24
 618.03370786517
  34
0.0
 100
AcDbRotatedDimension
   0
ENDSEC
  0
SECTION
  2
OBJECTS
  0
DICTIONARY
  5
C
100
AcDbDictionary
  3
ACAD_GROUP
350
D
  3
ACAD_MLINESTYLE
350
1B
  3
DWGPROPS
350
1C
  0
DICTIONARY
  5
D
102
{ACAD_REACTORS
330
C
102
}
100
AcDbDictionary
  0
DICTIONARY
  5
1B
102
{ACAD_REACTORS
330
C
102
}
100
AcDbDictionary
  3
STANDARD
350
1D
  0
MLINESTYLE
  5
1D
102
{ACAD_REACTORS
330
1B
102
}
100
AcDbMlineStyle
  2
STANDARD
 70
     0
  3

 62
   256
 51
90.0
 52
90.0
 71
     2
 49
0.5
 62
   256
  6
BYLAYER
 49
-0.5
 62
   256
  6
BYLAYER
   0
XRECORD
   5
1C
 102
{ACAD_REACTORS
 330
C
 102
}
 330
C
 100
AcDbXrecord
 280
1
   1
DWGPROPS COOKIE
   2
 
   3
 
   4
 
   6
 
   7
MZH100SUP
   8
 
   9

 300
 = 
 301
 = 
 302
 = 
 303
 = 
 304
 = 
 305
 = 
 306
 = 
 307
 = 
 308
 = 
 309
 = 
  40
0.0
  41
 2460340.5000000
  42
 2460340.5000000
   1

  90
10
   0
ENDSEC
   0
EOF
