   0
SECTION
   2
HEADER
   9
$ACADVER
   1
AC1015
   9
$DWGCODEPAGE
   3
ANSI_932
   9
$LIMMIN
  10
0.0
  20
0.0
   9
$LIMMAX
  10
 8400.0000000000
  20
 5940.0000000000
   9
$EXTMIN
  10
0.0
  20
0.0
  30
0.0
   9
$EXTMAX
  10
 8400.0000000000
  20
 5940.0000000000
  30
0.0
   9
$LTSCALE
  40
 168.00000000000
   9
$HANDSEED
   5
40F
   0
ENDSEC
   0
SECTION
   2
TABLES
  0
TABLE
  2
VPORT
  5
8
100
AcDbSymbolTable
 70
     1
  0
VPORT
  5
40E
100
AcDbSymbolTableRecord
100
AcDbViewportTableRecord
  2
*ACTIVE
 70
     0
 10
0.0
 20
0.0
 11
1.0
 21
1.0
  12
 4200.0000000000
  22
 2970.0000000000
 13
0.0
 23
0.0
 14
1.0
 24
1.0
 15
0.0
 25
0.0
 16
0.0
 26
0.0
 36
1.0
 17
0.0
 27
0.0
 37
0.0
  40
 8400.0000000000
  41
 1.4787878787879
 42
50.0
 43
0.0
 44
0.0
 50
0.0
 51
0.0
 71
     0
 72
   100
 73
     1
 74
     1
 75
     0
 76
     0
 77
     0
 78
     0
  0
ENDTAB
  0
TABLE
  2
LTYPE
  5
5
100
AcDbSymbolTable
 70
    25
  0
LTYPE
  5
12
100
AcDbSymbolTableRecord
100
AcDbLinetypeTableRecord
  2
BYBLOCK
 70
     0
  3

 72
    65
 73
     0
 40
0.0
  0
LTYPE
  5
13
100
AcDbSymbolTableRecord
100
AcDbLinetypeTableRecord
  2
BYLAYER
 70
     0
  3

 72
    65
 73
     0
 40
0.0
  0
LTYPE
  5
14
100
AcDbSymbolTableRecord
100
AcDbLinetypeTableRecord
  2
CONTINUOUS
 70
     0
  3
Solid line
 72
    65
 73
     0
 40
0.0
  0
LTYPE
  5
20
100
AcDbSymbolTableRecord
100
AcDbLinetypeTableRecord
  2
BORDER
 70
     0
  3
__ __ . __ __ . __ __ . __ __ . __ __ . __ __ .
 72
    65
 73
     6
 40
1.75
 49
0.5
 74
     0
 49
-0.25
 74
     0
 49
0.5
 74
     0
 49
-0.25
 74
     0
 49
0.0
 74
     0
 49
-0.25
 74
     0
  0
LTYPE
  5
21
100
AcDbSymbolTableRecord
100
AcDbLinetypeTableRecord
  2
BORDER2
 70
     0
  3
__.__.__.__.__.__.__.__.__.__.__.__.__.__.__.__
 72
    65
 73
     6
 40
0.875
 49
0.25
 74
     0
 49
-0.125
 74
     0
 49
0.25
 74
     0
 49
-0.125
 74
     0
 49
0.0
 74
     0
 49
-0.125
 74
     0
  0
LTYPE
  5
22
100
AcDbSymbolTableRecord
100
AcDbLinetypeTableRecord
  2
BORDERX2
 70
     0
  3
____  ____  .  ____  ____  .  ____  ____  .  __
 72
    65
 73
     6
 40
3.5
 49
1.0
 74
     0
 49
-0.5
 74
     0
 49
1.0
 74
     0
 49
-0.5
 74
     0
 49
0.0
 74
     0
 49
-0.5
 74
     0
  0
LTYPE
  5
23
100
AcDbSymbolTableRecord
100
AcDbLinetypeTableRecord
  2
CENTER
 70
     0
  3
____ _ ____ _ ____ _ ____ _ ____ _ ____ _ ____ 
 72
    65
 73
     4
 40
2.0
 49
1.25
 74
     0
 49
-0.25
 74
     0
 49
0.25
 74
     0
 49
-0.25
 74
     0
  0
LTYPE
  5
24
100
AcDbSymbolTableRecord
100
AcDbLinetypeTableRecord
  2
CENTER2
 70
     0
  3
___ _ ___ _ ___ _ ___ _ ___ _ ___ _ ___ _ ___ _
 72
    65
 73
     4
 40
1.125
 49
0.75
 74
     0
 49
-0.125
 74
     0
 49
0.125
 74
     0
 49
-0.125
 74
     0
  0
LTYPE
  5
25
100
AcDbSymbolTableRecord
100
AcDbLinetypeTableRecord
  2
CENTERX2
 70
     0
  3
________  __  ________  __  ________  __  _____
 72
    65
 73
     4
 40
4.0
 49
2.5
 74
     0
 49
-0.5
 74
     0
 49
0.5
 74
     0
 49
-0.5
 74
     0
  0
LTYPE
  5
26
100
AcDbSymbolTableRecord
100
AcDbLinetypeTableRecord
  2
DASHDOT
 70
     0
  3
__ . __ . __ . __ . __ . __ . __ . __ . __ . __
 72
    65
 73
     4
 40
1.0
 49
0.5
 74
     0
 49
-0.25
 74
     0
 49
0.0
 74
     0
 49
-0.25
 74
     0
  0
LTYPE
  5
27
100
AcDbSymbolTableRecord
100
AcDbLinetypeTableRecord
  2
DASHDOT2
 70
     0
  3
_._._._._._._._._._._._._._._._._._._._._._._._
 72
    65
 73
     4
 40
0.5
 49
0.25
 74
     0
 49
-0.125
 74
     0
 49
0.0
 74
     0
 49
-0.125
 74
     0
  0
LTYPE
  5
28
100
AcDbSymbolTableRecord
100
AcDbLinetypeTableRecord
  2
DASHDOTX2
 70
     0
  3
____  .  ____  .  ____  .  ____  .  ____  .  __
 72
    65
 73
     4
 40
2.0
 49
1.0
 74
     0
 49
-0.5
 74
     0
 49
0.0
 74
     0
 49
-0.5
 74
     0
  0
LTYPE
  5
29
100
AcDbSymbolTableRecord
100
AcDbLinetypeTableRecord
  2
DASHED
 70
     0
  3
__ __ __ __ __ __ __ __ __ __ __ __ __ __ __ __
 72
    65
 73
     2
 40
0.75
 49
0.5
 74
     0
 49
-0.25
 74
     0
  0
LTYPE
  5
2A
100
AcDbSymbolTableRecord
100
AcDbLinetypeTableRecord
  2
DASHED2
 70
     0
  3
_ _ _ _ _ _ _ _ _ _ _ _ _ _ _ _ _ _ _ _ _ _ _ _
 72
    65
 73
     2
 40
0.375
 49
0.25
 74
     0
 49
-0.125
 74
     0
  0
LTYPE
  5
2B
100
AcDbSymbolTableRecord
100
AcDbLinetypeTableRecord
  2
DASHEDX2
 70
     0
  3
____  ____  ____  ____  ____  ____  ____  ____ 
 72
    65
 73
     2
 40
1.5
 49
1.0
 74
     0
 49
-0.5
 74
     0
  0
LTYPE
  5
2C
100
AcDbSymbolTableRecord
100
AcDbLinetypeTableRecord
  2
DIVIDE
 70
     0
  3
____ . . ____ . . ____ . . ____ . . ____ . . __
 72
    65
 73
     6
 40
1.25
 49
0.5
 74
     0
 49
-0.25
 74
     0
 49
0.0
 74
     0
 49
-0.25
 74
     0
 49
0.0
 74
     0
 49
-0.25
 74
     0
  0
LTYPE
  5
2D
100
AcDbSymbolTableRecord
100
AcDbLinetypeTableRecord
  2
DIVIDE2
 70
     0
  3
__..__..__..__..__..__..__..__..__..__..__..__.
 72
    65
 73
     6
 40
0.625
 49
0.25
 74
     0
 49
-0.125
 74
     0
 49
0.0
 74
     0
 49
-0.125
 74
     0
 49
0.0
 74
     0
 49
-0.125
 74
     0
  0
LTYPE
  5
2E
100
AcDbSymbolTableRecord
100
AcDbLinetypeTableRecord
  2
DIVIDEX2
 70
     0
  3
________  .  .  ________  .  .  ________  .  . 
 72
    65
 73
     6
 40
2.5
 49
1.0
 74
     0
 49
-0.5
 74
     0
 49
0.0
 74
     0
 49
-0.5
 74
     0
 49
0.0
 74
     0
 49
-0.5
 74
     0
  0
LTYPE
  5
2F
100
AcDbSymbolTableRecord
100
AcDbLinetypeTableRecord
  2
DOT
 70
     0
  3
. . . . . . . . . . . . . . . . . . . . . . . .
 72
    65
 73
     2
 40
0.25
 49
0.0
 74
     0
 49
-0.25
 74
     0
  0
LTYPE
  5
30
100
AcDbSymbolTableRecord
100
AcDbLinetypeTableRecord
  2
DOT2
 70
     0
  3
...............................................
 72
    65
 73
     2
 40
0.125
 49
0.0
 74
     0
 49
-0.125
 74
     0
  0
LTYPE
  5
31
100
AcDbSymbolTableRecord
100
AcDbLinetypeTableRecord
  2
DOTX2
 70
     0
  3
.  .  .  .  .  .  .  .  .  .  .  .  .  .  .  . 
 72
    65
 73
     2
 40
0.5
 49
0.0
 74
     0
 49
-0.5
 74
     0
  0
LTYPE
  5
32
100
AcDbSymbolTableRecord
100
AcDbLinetypeTableRecord
  2
HIDDEN
 70
     0
  3
__ __ __ __ __ __ __ __ __ __ __ __ __ __ __ __
 72
    65
 73
     2
 40
0.375
 49
0.25
 74
     0
 49
-0.125
 74
     0
  0
LTYPE
  5
33
100
AcDbSymbolTableRecord
100
AcDbLinetypeTableRecord
  2
HIDDEN2
 70
     0
  3
_ _ _ _ _ _ _ _ _ _ _ _ _ _ _ _ _ _ _ _ _ _ _ _
 72
    65
 73
     2
 40
0.1875
 49
0.125
 74
     0
 49
-0.0625
 74
     0
  0
LTYPE
  5
34
100
AcDbSymbolTableRecord
100
AcDbLinetypeTableRecord
  2
HIDDENX2
 70
     0
  3
____ ____ ____ ____ ____ ____ ____ ____ ____ __
 72
    65
 73
     2
 40
0.75
 49
0.5
 74
     0
 49
-0.25
 74
     0
  0
LTYPE
  5
35
100
AcDbSymbolTableRecord
100
AcDbLinetypeTableRecord
  2
PHANTOM
 70
     0
  3
______  __  __  ______  __  __  ______  __  __ 
 72
    65
 73
     6
 40
2.5
 49
1.25
 74
     0
 49
-0.25
 74
     0
 49
0.25
 74
     0
 49
-0.25
 74
     0
 49
0.25
 74
     0
 49
-0.25
 74
     0
  0
LTYPE
  5
36
100
AcDbSymbolTableRecord
100
AcDbLinetypeTableRecord
  2
PHANTOM2
 70
     0
  3
___ _ _ ___ _ _ ___ _ _ ___ _ _ ___ _ _ ___ _ _
 72
    65
 73
     6
 40
1.25
 49
0.625
 74
     0
 49
-0.125
 74
     0
 49
0.125
 74
     0
 49
-0.125
 74
     0
 49
0.125
 74
     0
 49
-0.125
 74
     0
  0
LTYPE
  5
37
100
AcDbSymbolTableRecord
100
AcDbLinetypeTableRecord
  2
PHANTOMX2
 70
     0
  3
____________    ____    ____    ____________   
 72
    65
 73
     6
 40
5.0
 49
2.5
 74
     0
 49
-0.5
 74
     0
 49
0.5
 74
     0
 49
-0.5
 74
     0
 49
0.5
 74
     0
 49
-0.5
 74
     0
  0
ENDTAB
   0
TABLE
   2
LAYER
   5
2
 100
AcDbSymbolTable
  70
2
   0
LAYER
   5
E
 100
AcDbSymbolTableRecord
 100
AcDbLayerTableRecord
   2
0
  70
0
  62
7
   6
CONTINUOUS
 390
30
   0
LAYER
   5
39
 100
AcDbSymbolTableRecord
 100
AcDbLayerTableRecord
   2
LEVEL001
  70
0
  62
7
   6
CONTINUOUS
 390
30
   0
ENDTAB
  0
TABLE
  2
STYLE
  5
3
100
AcDbSymbolTable
  70
7
  0
STYLE
  5
F
100
AcDbSymbolTableRecord
100
AcDbTextStyleTableRecord
  2
STANDARD
 70
     0
 40
0.0
 41
1.0
 50
0.0
 71
     0
 42
0.2
  3
TXT
  4
BIGFONT
  0
STYLE
  5
38
100
AcDbSymbolTableRecord
100
AcDbTextStyleTableRecord
  2
STANDARD1
 70
     4
 40
0.0
 41
1.0
 50
0.0
 71
     0
 42
0.2
  3
TXT
  4
BIGFONT
   0
STYLE
   5
3A
 100
AcDbSymbolTableRecord
 100
AcDbTextStyleTableRecord
   2
GMM001
  70
0
  40
0.0
  41
 1.0000000000000
  50
0.0
  71
     0
  42
1.0
   3

   4

1001
ACAD
1000
ＭＳ ゴシック
1071
32817
   0
STYLE
   5
3B
 100
AcDbSymbolTableRecord
 100
AcDbTextStyleTableRecord
   2
GMM002
  70
0
  40
0.0
  41
 1.0000000000000
  50
0.0
  71
     0
  42
1.0
   3
txt.shx
   4
bigfont.shx
   0
STYLE
   5
3C
 100
AcDbSymbolTableRecord
 100
AcDbTextStyleTableRecord
   2
GMM003
  70
0
  40
0.0
  41
 0.75000000000000
  50
0.0
  71
     0
  42
1.0
   3
txt.shx
   4
bigfont.shx
   0
STYLE
   5
3D
 100
AcDbSymbolTableRecord
 100
AcDbTextStyleTableRecord
   2
GMM004
  70
0
  40
0.0
  41
 0.66666666666667
  50
0.0
  71
     0
  42
1.0
   3

   4

1001
ACAD
1000
ＭＳ ゴシック
1071
32817
   0
STYLE
   5
3E
 100
AcDbSymbolTableRecord
 100
AcDbTextStyleTableRecord
   2
GMM005
  70
0
  40
0.0
  41
 1.5000000000000
  50
0.0
  71
     0
  42
1.0
   3

   4

1001
ACAD
1000
ＭＳ ゴシック
1071
32817
   0
ENDTAB
  0
TABLE
  2
VIEW
  5
6
100
AcDbSymbolTable
 70
     0
  0
ENDTAB
  0
TABLE
  2
UCS
  5
7
100
AcDbSymbolTable
 70
     0
  0
ENDTAB
  0
TABLE
  2
APPID
  5
9
100
AcDbSymbolTable
 70
     1
  0
APPID
  5
10
100
AcDbSymbolTableRecord
100
AcDbRegAppTableRecord
  2
ACAD
 70
     0
  0
ENDTAB
   0
TABLE
   2
DIMSTYLE
   5
A
 100
AcDbSymbolTable
  70
9
 100
AcDbDimStyleTable
  0
DIMSTYLE
105
1D
100
AcDbSymbolTableRecord
100
AcDbDimStyleTableRecord
  2
STANDARD
 70
     0
  3

  4

  5

  6

  7

 40
1.0
 41
0.18
 42
0.0625
 43
0.38
 44
0.18
 45
0.0
 46
0.0
 47
0.0
 48
0.0
140
0.18
141
0.09
142
0.0
143
25.4
144
1.0
145
0.0
146
1.0
147
0.09
 71
     0
 72
     0
 73
     1
 74
     1
 75
     0
 76
     0
 77
     0
 78
     0
170
     0
171
     2
172
     0
173
     0
174
     0
175
     0
176
     0
177
     0
178
     0
270
     2
271
     4
272
     4
273
     2
274
     2
340
F
275
     0
280
     0
281
     0
282
     0
283
     1
284
     0
285
     0
286
     0
287
     3
288
     0
   0
DIMSTYLE
 105
3F
 100
AcDbSymbolTableRecord
 100
AcDbDimStyleTableRecord
   2
GMM001
  70
0
   3

   4

   5

   6
_OPEN
   7
_OPEN
  40
 1.0000000000000
  41
 30.000000000000
  42
 30.000000000000
  43
 160.00000000000
  44
 30.000000000000
  45
0.0
  46
0.0
  47
0.0
  48
0.0
 140
 66.000000000000
 141
 20.000000000000
 142
0.0
 143
 0.39400000000000E-1
 144
 1.0000000000000
 145
0.0
 146
 0.75757575757576
 147
0.0
  71
0
  72
0
  73
0
  74
0
  75
0
  76
0
  77
0
  78
8
 170
0
 171
2
 172
1
 173
1
 174
0
 175
0
 176
1
 177
1
 178
7
 270
2
 271
1
 272
0
 273
2
 274
2
 340
3B
 275
0
 280
0
 281
0
 282
0
 283
1
 284
0
 285
0
 286
0
 287
3
 288
1
   0
DIMSTYLE
 105
40
 100
AcDbSymbolTableRecord
 100
AcDbDimStyleTableRecord
   2
GMM002
  70
0
   3

   4

   5

   6
_OPEN
   7
_OPEN
  40
 1.0000000000000
  41
 42.000000000000
  42
 30.000000000000
  43
 160.00000000000
  44
 30.000000000000
  45
0.0
  46
0.0
  47
0.0
  48
0.0
 140
 60.000000000000
 141
 20.000000000000
 142
0.0
 143
 0.39400000000000E-1
 144
 1.0000000000000
 145
0.0
 146
 0.83333333333333
 147
0.0
  71
0
  72
0
  73
0
  74
0
  75
0
  76
0
  77
0
  78
8
 170
0
 171
2
 172
1
 173
1
 174
0
 175
0
 176
1
 177
1
 178
7
 270
2
 271
1
 272
0
 273
2
 274
2
 340
3B
 275
0
 280
0
 281
0
 282
0
 283
1
 284
0
 285
0
 286
0
 287
3
 288
1
   0
DIMSTYLE
 105
41
 100
AcDbSymbolTableRecord
 100
AcDbDimStyleTableRecord
   2
GMM003
  70
0
   3
□<>
   4

   5

   6
_OPEN
   7
_OPEN
  40
 1.0000000000000
  41
 42.000000000000
  42
 30.000000000000
  43
 160.00000000000
  44
 30.000000000000
  45
0.0
  46
0.0
  47
0.0
  48
0.0
 140
 60.000000000000
 141
 20.000000000000
 142
0.0
 143
 0.39400000000000E-1
 144
 1.0000000000000
 145
0.0
 146
 0.83333333333333
 147
 25.714285714286
  71
0
  72
0
  73
0
  74
0
  75
0
  76
0
  77
3
  78
8
 170
0
 171
2
 172
1
 173
1
 174
0
 175
0
 176
6
 177
6
 178
1
 270
2
 271
6
 272
0
 273
2
 274
2
 340
3B
 275
1
 280
0
 281
0
 282
0
 283
1
 284
0
 285
0
 286
0
 287
3
 288
0
   0
DIMSTYLE
 105
42
 100
AcDbSymbolTableRecord
 100
AcDbDimStyleTableRecord
   2
GMM004
  70
0
   3

   4

   5

   6
_OPEN
   7
_OPEN
  40
 1.0000000000000
  41
 42.000000000000
  42
 30.000000000000
  43
 160.00000000000
  44
 30.000000000000
  45
0.0
  46
0.0
  47
0.0
  48
0.0
 140
 60.000000000000
 141
 20.000000000000
 142
0.0
 143
 0.39400000000000E-1
 144
 1.0000000000000
 145
0.0
 146
 0.83333333333333
 147
 25.714285714286
  71
0
  72
0
  73
0
  74
0
  75
0
  76
0
  77
3
  78
8
 170
0
 171
2
 172
1
 173
1
 174
0
 175
0
 176
6
 177
6
 178
1
 270
2
 271
6
 272
0
 273
2
 274
2
 340
3B
 275
1
 280
0
 281
0
 282
0
 283
1
 284
0
 285
0
 286
0
 287
3
 288
0
   0
DIMSTYLE
 105
43
 100
AcDbSymbolTableRecord
 100
AcDbDimStyleTableRecord
   2
GMM005
  70
0
   3

   4

   5

   6
_OPEN
   7
_OPEN
  40
 1.0000000000000
  41
 42.000000000000
  42
 30.000000000000
  43
 160.00000000000
  44
 30.000000000000
  45
0.0
  46
0.0
  47
0.0
  48
0.0
 140
 60.000000000000
 141
 20.000000000000
 142
0.0
 143
 0.39400000000000E-1
 144
 1.0000000000000
 145
0.0
 146
 0.83333333333333
 147
 25.714285714286
  71
0
  72
0
  73
0
  74
0
  75
0
  76
0
  77
3
  78
8
 170
0
 171
2
 172
1
 173
1
 174
0
 175
0
 176
6
 177
6
 178
1
 270
2
 271
6
 272
0
 273
2
 274
2
 340
3B
 275
1
 280
0
 281
0
 282
0
 283
1
 284
0
 285
0
 286
0
 287
3
 288
0
   0
DIMSTYLE
 105
44
 100
AcDbSymbolTableRecord
 100
AcDbDimStyleTableRecord
   2
GMM006
  70
0
   3
%%c<>
   4

   5

   6
_OPEN
   7
_OPEN
  40
 1.0000000000000
  41
 42.000000000000
  42
 30.000000000000
  43
 160.00000000000
  44
 30.000000000000
  45
0.0
  46
0.0
  47
0.0
  48
0.0
 140
 60.000000000000
 141
 20.000000000000
 142
0.0
 143
 0.39400000000000E-1
 144
 1.0000000000000
 145
0.0
 146
 0.83333333333333
 147
 25.714285714286
  71
0
  72
0
  73
0
  74
0
  75
0
  76
0
  77
3
  78
8
 170
0
 171
2
 172
1
 173
1
 174
0
 175
0
 176
6
 177
6
 178
1
 270
2
 271
6
 272
0
 273
2
 274
2
 340
3B
 275
1
 280
0
 281
0
 282
0
 283
1
 284
0
 285
0
 286
0
 287
0
 288
0
   0
DIMSTYLE
 105
45
 100
AcDbSymbolTableRecord
 100
AcDbDimStyleTableRecord
   2
GMM007
  70
0
   3

   4

   5

   6
_OPEN
   7
_OPEN
  40
 1.0000000000000
  41
 42.000000000000
  42
 30.000000000000
  43
 160.00000000000
  44
 30.000000000000
  45
0.0
  46
0.0
  47
0.0
  48
0.0
 140
 60.000000000000
 141
 20.000000000000
 142
0.0
 143
 0.39400000000000E-1
 144
 1.0000000000000
 145
0.0
 146
 0.83333333333333
 147
 25.714285714286
  71
0
  72
0
  73
0
  74
0
  75
1
  76
0
  77
3
  78
8
 170
0
 171
2
 172
1
 173
1
 174
0
 175
0
 176
6
 177
6
 178
1
 270
2
 271
6
 272
0
 273
2
 274
2
 340
3B
 275
1
 280
0
 281
0
 282
0
 283
1
 284
0
 285
0
 286
0
 287
3
 288
0
   0
ENDTAB
  0
TABLE
  2
BLOCK_RECORD
  5
1
100
AcDbSymbolTable
 70
     0
  0
BLOCK_RECORD
  5
18
100
AcDbSymbolTableRecord
100
AcDbBlockTableRecord
  2
*MODEL_SPACE
  0
BLOCK_RECORD
  5
15
100
AcDbSymbolTableRecord
100
AcDbBlockTableRecord
  2
*PAPER_SPACE
   0
BLOCK_RECORD
   5
46
 100
AcDbSymbolTableRecord
 100
AcDbBlockTableRecord
   2
*D14
   0
BLOCK_RECORD
   5
47
 100
AcDbSymbolTableRecord
 100
AcDbBlockTableRecord
   2
*D15
   0
BLOCK_RECORD
   5
48
 100
AcDbSymbolTableRecord
 100
AcDbBlockTableRecord
   2
*D16
   0
BLOCK_RECORD
   5
49
 100
AcDbSymbolTableRecord
 100
AcDbBlockTableRecord
   2
*D17
   0
BLOCK_RECORD
   5
4A
 100
AcDbSymbolTableRecord
 100
AcDbBlockTableRecord
   2
*D18
   0
BLOCK_RECORD
   5
4B
 100
AcDbSymbolTableRecord
 100
AcDbBlockTableRecord
   2
*D19
   0
BLOCK_RECORD
   5
4C
 100
AcDbSymbolTableRecord
 100
AcDbBlockTableRecord
   2
BLOCK001
   0
BLOCK_RECORD
   5
4D
 100
AcDbSymbolTableRecord
 100
AcDbBlockTableRecord
   2
BLOCK002
   0
BLOCK_RECORD
   5
4E
 100
AcDbSymbolTableRecord
 100
AcDbBlockTableRecord
   2
*D20
   0
BLOCK_RECORD
   5
4F
 100
AcDbSymbolTableRecord
 100
AcDbBlockTableRecord
   2
_ARCHTICK
   0
BLOCK_RECORD
   5
50
 100
AcDbSymbolTableRecord
 100
AcDbBlockTableRecord
   2
_BOXBLANK
   0
BLOCK_RECORD
   5
51
 100
AcDbSymbolTableRecord
 100
AcDbBlockTableRecord
   2
_BOXFILLED
   0
BLOCK_RECORD
   5
52
 100
AcDbSymbolTableRecord
 100
AcDbBlockTableRecord
   2
_CLOSED
   0
BLOCK_RECORD
   5
53
 100
AcDbSymbolTableRecord
 100
AcDbBlockTableRecord
   2
_CLOSEDBLANK
   0
BLOCK_RECORD
   5
54
 100
AcDbSymbolTableRecord
 100
AcDbBlockTableRecord
   2
_DATUMBLANK
   0
BLOCK_RECORD
   5
55
 100
AcDbSymbolTableRecord
 100
AcDbBlockTableRecord
   2
_DATUMFILLED
   0
BLOCK_RECORD
   5
56
 100
AcDbSymbolTableRecord
 100
AcDbBlockTableRecord
   2
_DOT
   0
BLOCK_RECORD
   5
57
 100
AcDbSymbolTableRecord
 100
AcDbBlockTableRecord
   2
_DOTBLANK
   0
BLOCK_RECORD
   5
58
 100
AcDbSymbolTableRecord
 100
AcDbBlockTableRecord
   2
_DOTSMALL
   0
BLOCK_RECORD
   5
59
 100
AcDbSymbolTableRecord
 100
AcDbBlockTableRecord
   2
_INTEGRAL
   0
BLOCK_RECORD
   5
5A
 100
AcDbSymbolTableRecord
 100
AcDbBlockTableRecord
   2
_NONE
   0
BLOCK_RECORD
   5
5B
 100
AcDbSymbolTableRecord
 100
AcDbBlockTableRecord
   2
_OBLIQUE
   0
BLOCK_RECORD
   5
5C
 100
AcDbSymbolTableRecord
 100
AcDbBlockTableRecord
   2
_OPEN
   0
BLOCK_RECORD
   5
5D
 100
AcDbSymbolTableRecord
 100
AcDbBlockTableRecord
   2
_OPEN30
   0
BLOCK_RECORD
   5
5E
 100
AcDbSymbolTableRecord
 100
AcDbBlockTableRecord
   2
_OPEN90
   0
BLOCK_RECORD
   5
5F
 100
AcDbSymbolTableRecord
 100
AcDbBlockTableRecord
   2
_ORIGIN
   0
ENDTAB
   0
ENDSEC
  0
SECTION
  2
BLOCKS
  0
BLOCK
  5
19
100
AcDbEntity
  8
0
100
AcDbBlockBegin
  2
*MODEL_SPACE
 70
     0
 10
0.0
 20
0.0
 30
0.0
  3
*MODEL_SPACE
  1

  0
ENDBLK
  5
1A
100
AcDbEntity
  8
0
100
AcDbBlockEnd
  0
BLOCK
  5
16
100
AcDbEntity
 67
     1
  8
0
100
AcDbBlockBegin
  2
*PAPER_SPACE
 70
     0
 10
0.0
 20
0.0
 30
0.0
  3
*PAPER_SPACE
  1

  0
ENDBLK
  5
17
100
AcDbEntity
 67
     1
  8
0
100
AcDbBlockEnd
   0
BLOCK
   5
60
 100
AcDbEntity
   8
0
 100
AcDbBlockBegin
   2
_ARCHTICK
  70
0
  10
0.0
  20
0.0
  30
0.0
   3
_ARCHTICK
   0
POLYLINE
   5
61
 100
AcDbEntity
   8
0
 370
-2
   6
BYBLOCK
  62
0
 100
AcDb2dPolyline
  66
1
  10
0.0
  20
0.0
  30
0.0
  70
1
  40
 0.15000000000000
  41
 0.15000000000000
   0
VERTEX
   5
62
 100
AcDbEntity
   8
0
   6
BYBLOCK
  62
0
 100
AcDbVertex
 100
AcDb2dVertex
  10
-0.50000000000000
  20
-0.50000000000000
  30
0.0
  40
 0.15000000000000
  41
 0.15000000000000
   0
VERTEX
   5
63
 100
AcDbEntity
   8
0
   6
BYBLOCK
  62
0
 100
AcDbVertex
 100
AcDb2dVertex
  10
 0.50000000000000
  20
 0.50000000000000
  30
0.0
  40
 0.15000000000000
  41
 0.15000000000000
   0
SEQEND
   5
64
 100
AcDbEntity
   8
0
   6
BYBLOCK
  62
0
   0
ENDBLK
   5
65
 100
AcDbEntity
   8
0
 100
AcDbBlockEnd
   0
BLOCK
   5
66
 100
AcDbEntity
   8
0
 100
AcDbBlockBegin
   2
_OBLIQUE
  70
0
  10
0.0
  20
0.0
  30
0.0
   3
_OBLIQUE
   0
LINE
   5
67
 100
AcDbEntity
   8
0
 370
-2
 100
AcDbLine
   6
BYBLOCK
  62
0
  10
-0.50000000000000
  20
-0.50000000000000
  30
0.0
  11
 0.50000000000000
  21
 0.50000000000000
  31
0.0
   0
ENDBLK
   5
68
 100
AcDbEntity
   8
0
 100
AcDbBlockEnd
   0
BLOCK
   5
69
 100
AcDbEntity
   8
0
 100
AcDbBlockBegin
   2
_BOXBLANK
  70
0
  10
0.0
  20
0.0
  30
0.0
   3
_BOXBLANK
   0
LINE
   5
6A
 100
AcDbEntity
   8
0
 370
-2
 100
AcDbLine
   6
BYBLOCK
  62
0
  10
-0.50000000000000
  20
-0.50000000000000
  30
0.0
  11
 0.50000000000000
  21
-0.50000000000000
  31
0.0
   0
LINE
   5
6B
 100
AcDbEntity
   8
0
 370
-2
 100
AcDbLine
   6
BYBLOCK
  62
0
  10
 0.50000000000000
  20
-0.50000000000000
  30
0.0
  11
 0.50000000000000
  21
 0.50000000000000
  31
0.0
   0
LINE
   5
6C
 100
AcDbEntity
   8
0
 370
-2
 100
AcDbLine
   6
BYBLOCK
  62
0
  10
 0.50000000000000
  20
 0.50000000000000
  30
0.0
  11
-0.50000000000000
  21
 0.50000000000000
  31
0.0
   0
LINE
   5
6D
 100
AcDbEntity
   8
0
 370
-2
 100
AcDbLine
   6
BYBLOCK
  62
0
  10
-0.50000000000000
  20
 0.50000000000000
  30
0.0
  11
-0.50000000000000
  21
-0.50000000000000
  31
0.0
   0
LINE
   5
6E
 100
AcDbEntity
   8
0
 370
-2
 100
AcDbLine
   6
BYBLOCK
  62
0
  10
-0.50000000000000
  20
0.0
  30
0.0
  11
-1.0000000000000
  21
0.0
  31
0.0
   0
ENDBLK
   5
6F
 100
AcDbEntity
   8
0
 100
AcDbBlockEnd
   0
BLOCK
   5
70
 100
AcDbEntity
   8
0
 100
AcDbBlockBegin
   2
_BOXFILLED
  70
0
  10
0.0
  20
0.0
  30
0.0
   3
_BOXFILLED
   0
SOLID
   5
71
 100
AcDbEntity
   8
0
 100
AcDbTrace
   6
BYBLOCK
  62
0
  10
-0.50000000000000
  20
 0.50000000000000
  30
0.0
  11
 0.50000000000000
  21
 0.50000000000000
  31
0.0
  12
-0.50000000000000
  22
-0.50000000000000
  32
0.0
  13
 0.50000000000000
  23
-0.50000000000000
  33
0.0
   0
LINE
   5
72
 100
AcDbEntity
   8
0
 370
-2
 100
AcDbLine
   6
BYBLOCK
  62
0
  10
-0.50000000000000
  20
0.0
  30
0.0
  11
-1.0000000000000
  21
0.0
  31
0.0
   0
ENDBLK
   5
73
 100
AcDbEntity
   8
0
 100
AcDbBlockEnd
   0
BLOCK
   5
74
 100
AcDbEntity
   8
0
 100
AcDbBlockBegin
   2
_CLOSED
  70
0
  10
0.0
  20
0.0
  30
0.0
   3
_CLOSED
   0
LINE
   5
75
 100
AcDbEntity
   8
0
 370
-2
 100
AcDbLine
   6
BYBLOCK
  62
0
  10
-1.0000000000000
  20
 0.16666666666667
  30
0.0
  11
0.0
  21
0.0
  31
0.0
   0
LINE
   5
76
 100
AcDbEntity
   8
0
 370
-2
 100
AcDbLine
   6
BYBLOCK
  62
0
  10
0.0
  20
0.0
  30
0.0
  11
-1.0000000000000
  21
-0.16666666666667
  31
0.0
   0
LINE
   5
77
 100
AcDbEntity
   8
0
 370
-2
 100
AcDbLine
   6
BYBLOCK
  62
0
  10
-1.0000000000000
  20
 0.16666666666667
  30
0.0
  11
-1.0000000000000
  21
-0.16666666666667
  31
0.0
   0
LINE
   5
78
 100
AcDbEntity
   8
0
 370
-2
 100
AcDbLine
   6
BYBLOCK
  62
0
  10
0.0
  20
0.0
  30
0.0
  11
-1.0000000000000
  21
0.0
  31
0.0
   0
ENDBLK
   5
79
 100
AcDbEntity
   8
0
 100
AcDbBlockEnd
   0
BLOCK
   5
7A
 100
AcDbEntity
   8
0
 100
AcDbBlockBegin
   2
_OPEN
  70
0
  10
0.0
  20
0.0
  30
0.0
   3
_OPEN
   0
LINE
   5
7B
 100
AcDbEntity
   8
0
 370
-2
 100
AcDbLine
   6
BYBLOCK
  62
0
  10
-1.0000000000000
  20
 0.16666666666667
  30
0.0
  11
0.0
  21
0.0
  31
0.0
   0
LINE
   5
7C
 100
AcDbEntity
   8
0
 370
-2
 100
AcDbLine
   6
BYBLOCK
  62
0
  10
0.0
  20
0.0
  30
0.0
  11
-1.0000000000000
  21
-0.16666666666667
  31
0.0
   0
LINE
   5
7D
 100
AcDbEntity
   8
0
 370
-2
 100
AcDbLine
   6
BYBLOCK
  62
0
  10
0.0
  20
0.0
  30
0.0
  11
-1.0000000000000
  21
0.0
  31
0.0
   0
ENDBLK
   5
7E
 100
AcDbEntity
   8
0
 100
AcDbBlockEnd
   0
BLOCK
   5
7F
 100
AcDbEntity
   8
0
 100
AcDbBlockBegin
   2
_OPEN30
  70
0
  10
0.0
  20
0.0
  30
0.0
   3
_OPEN30
   0
LINE
   5
80
 100
AcDbEntity
   8
0
 370
-2
 100
AcDbLine
   6
BYBLOCK
  62
0
  10
-1.0000000000000
  20
 0.26794919243110
  30
0.0
  11
0.0
  21
0.0
  31
0.0
   0
LINE
   5
81
 100
AcDbEntity
   8
0
 370
-2
 100
AcDbLine
   6
BYBLOCK
  62
0
  10
0.0
  20
0.0
  30
0.0
  11
-1.0000000000000
  21
-0.26794919243110
  31
0.0
   0
LINE
   5
82
 100
AcDbEntity
   8
0
 370
-2
 100
AcDbLine
   6
BYBLOCK
  62
0
  10
0.0
  20
0.0
  30
0.0
  11
-1.0000000000000
  21
0.0
  31
0.0
   0
ENDBLK
   5
83
 100
AcDbEntity
   8
0
 100
AcDbBlockEnd
   0
BLOCK
   5
84
 100
AcDbEntity
   8
0
 100
AcDbBlockBegin
   2
_OPEN90
  70
0
  10
0.0
  20
0.0
  30
0.0
   3
_OPEN90
   0
LINE
   5
85
 100
AcDbEntity
   8
0
 370
-2
 100
AcDbLine
   6
BYBLOCK
  62
0
  10
-0.50000000000000
  20
 0.50000000000000
  30
0.0
  11
0.0
  21
0.0
  31
0.0
   0
LINE
   5
86
 100
AcDbEntity
   8
0
 370
-2
 100
AcDbLine
   6
BYBLOCK
  62
0
  10
0.0
  20
0.0
  30
0.0
  11
-0.50000000000000
  21
-0.50000000000000
  31
0.0
   0
LINE
   5
87
 100
AcDbEntity
   8
0
 370
-2
 100
AcDbLine
   6
BYBLOCK
  62
0
  10
0.0
  20
0.0
  30
0.0
  11
-1.0000000000000
  21
0.0
  31
0.0
   0
ENDBLK
   5
88
 100
AcDbEntity
   8
0
 100
AcDbBlockEnd
   0
BLOCK
   5
89
 100
AcDbEntity
   8
0
 100
AcDbBlockBegin
   2
_CLOSEDBLANK
  70
0
  10
0.0
  20
0.0
  30
0.0
   3
_CLOSEDBLANK
   0
LINE
   5
8A
 100
AcDbEntity
   8
0
 370
-2
 100
AcDbLine
   6
BYBLOCK
  62
0
  10
-1.0000000000000
  20
 0.16666666666667
  30
0.0
  11
0.0
  21
0.0
  31
0.0
   0
LINE
   5
8B
 100
AcDbEntity
   8
0
 370
-2
 100
AcDbLine
   6
BYBLOCK
  62
0
  10
0.0
  20
0.0
  30
0.0
  11
-1.0000000000000
  21
-0.16666666666667
  31
0.0
   0
LINE
   5
8C
 100
AcDbEntity
   8
0
 370
-2
 100
AcDbLine
   6
BYBLOCK
  62
0
  10
-1.0000000000000
  20
 0.16666666666667
  30
0.0
  11
-1.0000000000000
  21
-0.16666666666667
  31
0.0
   0
ENDBLK
   5
8D
 100
AcDbEntity
   8
0
 100
AcDbBlockEnd
   0
BLOCK
   5
8E
 100
AcDbEntity
   8
0
 100
AcDbBlockBegin
   2
_DOT
  70
0
  10
0.0
  20
0.0
  30
0.0
   3
_DOT
   0
POLYLINE
   5
8F
 100
AcDbEntity
   8
0
 370
-2
   6
BYBLOCK
  62
0
 100
AcDb2dPolyline
  66
1
  10
0.0
  20
0.0
  30
0.0
  70
1
  40
 0.50000000000000
  41
 0.50000000000000
   0
VERTEX
   5
90
 100
AcDbEntity
   8
0
   6
BYBLOCK
  62
0
 100
AcDbVertex
 100
AcDb2dVertex
  10
-0.25000000000000
  20
0.0
  30
0.0
  42
 1.0000000000000
  40
 0.50000000000000
  41
 0.50000000000000
   0
VERTEX
   5
91
 100
AcDbEntity
   8
0
   6
BYBLOCK
  62
0
 100
AcDbVertex
 100
AcDb2dVertex
  10
 0.25000000000000
  20
0.0
  30
0.0
  42
 1.0000000000000
  40
 0.50000000000000
  41
 0.50000000000000
   0
SEQEND
   5
92
 100
AcDbEntity
   8
0
   6
BYBLOCK
  62
0
   0
LINE
   5
93
 100
AcDbEntity
   8
0
 370
-2
 100
AcDbLine
   6
BYBLOCK
  62
0
  10
-0.50000000000000
  20
0.0
  30
0.0
  11
-1.0000000000000
  21
0.0
  31
0.0
   0
ENDBLK
   5
94
 100
AcDbEntity
   8
0
 100
AcDbBlockEnd
   0
BLOCK
   5
95
 100
AcDbEntity
   8
0
 100
AcDbBlockBegin
   2
_DOTSMALL
  70
0
  10
0.0
  20
0.0
  30
0.0
   3
_DOTSMALL
   0
POLYLINE
   5
96
 100
AcDbEntity
   8
0
 370
-2
   6
BYBLOCK
  62
0
 100
AcDb2dPolyline
  66
1
  10
0.0
  20
0.0
  30
0.0
  70
1
  40
 0.50000000000000
  41
 0.50000000000000
   0
VERTEX
   5
97
 100
AcDbEntity
   8
0
   6
BYBLOCK
  62
0
 100
AcDbVertex
 100
AcDb2dVertex
  10
-0.62500000000000E-1
  20
0.0
  30
0.0
  42
 1.0000000000000
  40
 0.50000000000000
  41
 0.50000000000000
   0
VERTEX
   5
98
 100
AcDbEntity
   8
0
   6
BYBLOCK
  62
0
 100
AcDbVertex
 100
AcDb2dVertex
  10
 0.62500000000000E-1
  20
0.0
  30
0.0
  42
 1.0000000000000
  40
 0.50000000000000
  41
 0.50000000000000
   0
SEQEND
   5
99
 100
AcDbEntity
   8
0
   6
BYBLOCK
  62
0
   0
ENDBLK
   5
9A
 100
AcDbEntity
   8
0
 100
AcDbBlockEnd
   0
BLOCK
   5
9B
 100
AcDbEntity
   8
0
 100
AcDbBlockBegin
   2
_DATUMBLANK
  70
0
  10
0.0
  20
0.0
  30
0.0
   3
_DATUMBLANK
   0
LINE
   5
9C
 100
AcDbEntity
   8
0
 370
-2
 100
AcDbLine
   6
BYBLOCK
  62
0
  10
0.0
  20
 0.57735027000000
  30
0.0
  11
-1.0000000000000
  21
0.0
  31
0.0
   0
LINE
   5
9D
 100
AcDbEntity
   8
0
 370
-2
 100
AcDbLine
   6
BYBLOCK
  62
0
  10
-1.0000000000000
  20
0.0
  30
0.0
  11
0.0
  21
-0.57735027000000
  31
0.0
   0
LINE
   5
9E
 100
AcDbEntity
   8
0
 370
-2
 100
AcDbLine
   6
BYBLOCK
  62
0
  10
0.0
  20
-0.57735027000000
  30
0.0
  11
0.0
  21
 0.57735027000000
  31
0.0
   0
ENDBLK
   5
9F
 100
AcDbEntity
   8
0
 100
AcDbBlockEnd
   0
BLOCK
   5
A0
 100
AcDbEntity
   8
0
 100
AcDbBlockBegin
   2
_DATUMFILLED
  70
0
  10
0.0
  20
0.0
  30
0.0
   3
_DATUMFILLED
   0
SOLID
   5
A1
 100
AcDbEntity
   8
0
 100
AcDbTrace
   6
BYBLOCK
  62
0
  10
0.0
  20
 0.57735027000000
  30
0.0
  11
-1.0000000000000
  21
0.0
  31
0.0
  12
0.0
  22
-0.57735027000000
  32
0.0
  13
0.0
  23
-0.57735027000000
  33
0.0
   0
ENDBLK
   5
A2
 100
AcDbEntity
   8
0
 100
AcDbBlockEnd
   0
BLOCK
   5
A3
 100
AcDbEntity
   8
0
 100
AcDbBlockBegin
   2
_ORIGIN
  70
0
  10
0.0
  20
0.0
  30
0.0
   3
_ORIGIN
   0
CIRCLE
   5
A4
 100
AcDbEntity
   8
0
 370
-2
 100
AcDbCircle
   6
BYBLOCK
  62
0
  10
0.0
  20
0.0
  30
0.0
  40
 0.50000000000000
   0
LINE
   5
A5
 100
AcDbEntity
   8
0
 370
-2
 100
AcDbLine
   6
BYBLOCK
  62
0
  10
0.0
  20
0.0
  30
0.0
  11
-1.0000000000000
  21
0.0
  31
0.0
   0
ENDBLK
   5
A6
 100
AcDbEntity
   8
0
 100
AcDbBlockEnd
   0
BLOCK
   5
A7
 100
AcDbEntity
   8
0
 100
AcDbBlockBegin
   2
_NONE
  70
0
  10
0.0
  20
0.0
  30
0.0
   3
_NONE
   0
CIRCLE
   5
A8
 100
AcDbEntity
   8
0
 370
-2
 100
AcDbCircle
   6
BYBLOCK
  62
0
  10
0.0
  20
0.0
  30
0.0
  40
 0.25000000000000
   0
ENDBLK
   5
A9
 100
AcDbEntity
   8
0
 100
AcDbBlockEnd
   0
BLOCK
   5
AA
 100
AcDbEntity
   8
0
 100
AcDbBlockBegin
   2
_DOTBLANK
  70
0
  10
0.0
  20
0.0
  30
0.0
   3
_DOTBLANK
   0
CIRCLE
   5
AB
 100
AcDbEntity
   8
0
 370
-2
 100
AcDbCircle
   6
BYBLOCK
  62
0
  10
0.0
  20
0.0
  30
0.0
  40
 0.50000000000000
   0
LINE
   5
AC
 100
AcDbEntity
   8
0
 370
-2
 100
AcDbLine
   6
BYBLOCK
  62
0
  10
-0.50000000000000
  20
0.0
  30
0.0
  11
-1.0000000000000
  21
0.0
  31
0.0
   0
ENDBLK
   5
AD
 100
AcDbEntity
   8
0
 100
AcDbBlockEnd
   0
BLOCK
   5
AE
 100
AcDbEntity
   8
0
 100
AcDbBlockBegin
   2
_INTEGRAL
  70
0
  10
0.0
  20
0.0
  30
0.0
   3
_INTEGRAL
   0
ARC
   5
AF
 100
AcDbEntity
   8
0
 370
-2
   6
BYBLOCK
  62
0
 100
AcDbCircle
  10
 0.44488800000000
  20
-0.91335000000000E-1
  30
0.0
  40
 0.45416700000000
 100
AcDbArc
  50
 102.00000000000
  51
 168.00000000000
   0
ARC
   5
B0
 100
AcDbEntity
   8
0
 370
-2
   6
BYBLOCK
  62
0
 100
AcDbCircle
  10
-0.44488800000000
  20
 0.91335000000000E-1
  30
0.0
  40
 0.45416700000000
 100
AcDbArc
  50
 282.00000000000
  51
 348.00000000000
   0
ENDBLK
   5
B1
 100
AcDbEntity
   8
0
 100
AcDbBlockEnd
   0
BLOCK
   5
B2
 100
AcDbEntity
   8
0
 100
AcDbBlockBegin
   2
*D14
  70
65
  10
0.0
  20
0.0
  30
0.0
   3
*D14
   0
LINE
   5
B3
 100
AcDbEntity
   8
0
 370
13
 100
AcDbLine
   6
CONTINUOUS
  62
6
  10
 1253.7078651685
  20
 592.66853932585
  30
0.0
  11
 1253.7078651685
  21
 392.66853932585
  31
0.0
   0
LINE
   5
B4
 100
AcDbEntity
   8
0
 370
13
 100
AcDbLine
   6
CONTINUOUS
  62
6
  10
 1753.7078651685
  20
 592.66853932585
  30
0.0
  11
 1753.7078651685
  21
 392.66853932585
  31
0.0
   0
LINE
   5
B5
 100
AcDbEntity
   8
0
 370
13
 100
AcDbLine
   6
CONTINUOUS
  62
6
  10
 1253.7078651685
  20
 422.66853932585
  30
0.0
  11
 1503.7078651685
  21
 422.66853932585
  31
0.0
   0
LINE
   5
B6
 100
AcDbEntity
   8
0
 370
13
 100
AcDbLine
   6
CONTINUOUS
  62
6
  10
 1753.7078651685
  20
 422.66853932585
  30
0.0
  11
 1503.7078651685
  21
 422.66853932585
  31
0.0
   0
INSERT
   5
B7
 100
AcDbEntity
   8
0
   6
CONTINUOUS
  62
6
 100
AcDbBlockReference
   2
_OPEN
  10
 1253.7078651685
  20
 422.66853932585
  30
0.0
  41
 42.000000000000
  42
 42.000000000000
  43
 42.000000000000
  50
 180.00000000000
   0
INSERT
   5
B8
 100
AcDbEntity
   8
0
   6
CONTINUOUS
  62
6
 100
AcDbBlockReference
   2
_OPEN
  10
 1753.7078651685
  20
 422.66853932585
  30
0.0
  41
 42.000000000000
  42
 42.000000000000
  43
 42.000000000000
  50
0.0
   0
MTEXT
   5
B9
 100
AcDbEntity
   8
0
 370
13
  62
1
 100
AcDbMText
  10
 1503.7078651685
  20
 448.38282504014
  30
0.0
  40
 60.000000000000
  41
0.0
  71
8
  72
1
   1
\A1;□500
   7
GMM002
   0
ENDBLK
   5
BA
 100
AcDbEntity
   8
0
 100
AcDbBlockEnd
   0
BLOCK
   5
BB
 100
AcDbEntity
   8
0
 100
AcDbBlockBegin
   2
*D15
  70
65
  10
0.0
  20
0.0
  30
0.0
   3
*D15
   0
LINE
   5
BC
 100
AcDbEntity
   8
0
 370
13
 100
AcDbLine
   6
CONTINUOUS
  62
6
  10
 2353.7078651685
  20
 592.66853932585
  30
0.0
  11
 2353.7078651685
  21
 392.66853932585
  31
0.0
   0
LINE
   5
BD
 100
AcDbEntity
   8
0
 370
13
 100
AcDbLine
   6
CONTINUOUS
  62
6
  10
 2853.7078651685
  20
 592.66853932585
  30
0.0
  11
 2853.7078651685
  21
 392.66853932585
  31
0.0
   0
LINE
   5
BE
 100
AcDbEntity
   8
0
 370
13
 100
AcDbLine
   6
CONTINUOUS
  62
6
  10
 2353.7078651685
  20
 422.66853932585
  30
0.0
  11
 2603.7078651685
  21
 422.66853932585
  31
0.0
   0
LINE
   5
BF
 100
AcDbEntity
   8
0
 370
13
 100
AcDbLine
   6
CONTINUOUS
  62
6
  10
 2853.7078651685
  20
 422.66853932585
  30
0.0
  11
 2603.7078651685
  21
 422.66853932585
  31
0.0
   0
INSERT
   5
C0
 100
AcDbEntity
   8
0
   6
CONTINUOUS
  62
6
 100
AcDbBlockReference
   2
_OPEN
  10
 2353.7078651685
  20
 422.66853932585
  30
0.0
  41
 42.000000000000
  42
 42.000000000000
  43
 42.000000000000
  50
 180.00000000000
   0
INSERT
   5
C1
 100
AcDbEntity
   8
0
   6
CONTINUOUS
  62
6
 100
AcDbBlockReference
   2
_OPEN
  10
 2853.7078651685
  20
 422.66853932585
  30
0.0
  41
 42.000000000000
  42
 42.000000000000
  43
 42.000000000000
  50
0.0
   0
MTEXT
   5
C2
 100
AcDbEntity
   8
0
 370
13
  62
1
 100
AcDbMText
  10
 2603.7078651685
  20
 508.38282504014
  30
0.0
  40
 60.000000000000
  41
0.0
  71
8
  72
1
   1
\A1;□500
   7
GMM002
  44
 0.79999984000003
   0
ENDBLK
   5
C3
 100
AcDbEntity
   8
0
 100
AcDbBlockEnd
   0
BLOCK
   5
C4
 100
AcDbEntity
   8
0
 100
AcDbBlockBegin
   2
*D16
  70
65
  10
0.0
  20
0.0
  30
0.0
   3
*D16
   0
LINE
   5
C5
 100
AcDbEntity
   8
0
 370
13
 100
AcDbLine
   6
CONTINUOUS
  62
6
  10
 1223.7078651685
  20
 722.66853932585
  30
0.0
  11
 573.70786516854
  21
 722.66853932585
  31
0.0
   0
LINE
   5
C6
 100
AcDbEntity
   8
0
 370
13
 100
AcDbLine
   6
CONTINUOUS
  62
6
  10
 1223.7078651685
  20
 622.66853932585
  30
0.0
  11
 573.70786516854
  21
 622.66853932585
  31
0.0
   0
LINE
   5
C7
 100
AcDbEntity
   8
0
 370
13
 100
AcDbLine
   6
CONTINUOUS
  62
6
  10
 603.70786516854
  20
 722.66853932585
  30
0.0
  11
 603.70786516854
  21
 672.66853932585
  31
0.0
   0
LINE
   5
C8
 100
AcDbEntity
   8
0
 370
13
 100
AcDbLine
   6
CONTINUOUS
  62
6
  10
 603.70786516854
  20
 622.66853932585
  30
0.0
  11
 603.70786516854
  21
 672.66853932585
  31
0.0
   0
INSERT
   5
C9
 100
AcDbEntity
   8
0
   6
CONTINUOUS
  62
6
 100
AcDbBlockReference
   2
_OPEN
  10
 603.70786516854
  20
 722.66853932585
  30
0.0
  41
 42.000000000000
  42
 42.000000000000
  43
 42.000000000000
  50
 90.000000000000
   0
INSERT
   5
CA
 100
AcDbEntity
   8
0
   6
CONTINUOUS
  62
6
 100
AcDbBlockReference
   2
_OPEN
  10
 603.70786516854
  20
 622.66853932585
  30
0.0
  41
 42.000000000000
  42
 42.000000000000
  43
 42.000000000000
  50
 270.00000000000
   0
MTEXT
   5
CB
 100
AcDbEntity
   8
0
 370
13
  62
1
 100
AcDbMText
  10
 577.99357945425
  20
 672.66853932585
  30
0.0
  40
 60.000000000000
  41
0.0
  71
8
  72
1
   1
\A1;100
   7
GMM002
  11
0.0
  21
 1.0000000000000
  31
0.0
   0
ENDBLK
   5
CC
 100
AcDbEntity
   8
0
 100
AcDbBlockEnd
   0
BLOCK
   5
CD
 100
AcDbEntity
   8
0
 100
AcDbBlockBegin
   2
*D17
  70
65
  10
0.0
  20
0.0
  30
0.0
   3
*D17
   0
LINE
   5
CE
 100
AcDbEntity
   8
0
 370
13
 100
AcDbLine
   6
CONTINUOUS
  62
6
  10
 1223.7078651685
  20
 722.66853932585
  30
0.0
  11
 573.70786516854
  21
 722.66853932585
  31
0.0
   0
LINE
   5
CF
 100
AcDbEntity
   8
0
 370
13
 100
AcDbLine
   6
CONTINUOUS
  62
6
  10
 973.70786516854
  20
 1822.6685393258
  30
0.0
  11
 573.70786516854
  21
 1822.6685393258
  31
0.0
   0
LINE
   5
D0
 100
AcDbEntity
   8
0
 370
13
 100
AcDbLine
   6
CONTINUOUS
  62
6
  10
 603.70786516854
  20
 722.66853932585
  30
0.0
  11
 603.70786516854
  21
 1272.6685393258
  31
0.0
   0
LINE
   5
D1
 100
AcDbEntity
   8
0
 370
13
 100
AcDbLine
   6
CONTINUOUS
  62
6
  10
 603.70786516854
  20
 1822.6685393258
  30
0.0
  11
 603.70786516854
  21
 1272.6685393258
  31
0.0
   0
INSERT
   5
D2
 100
AcDbEntity
   8
0
   6
CONTINUOUS
  62
6
 100
AcDbBlockReference
   2
_OPEN
  10
 603.70786516854
  20
 722.66853932585
  30
0.0
  41
 42.000000000000
  42
 42.000000000000
  43
 42.000000000000
  50
 270.00000000000
   0
INSERT
   5
D3
 100
AcDbEntity
   8
0
   6
CONTINUOUS
  62
6
 100
AcDbBlockReference
   2
_OPEN
  10
 603.70786516854
  20
 1822.6685393258
  30
0.0
  41
 42.000000000000
  42
 42.000000000000
  43
 42.000000000000
  50
 90.000000000000
   0
MTEXT
   5
D4
 100
AcDbEntity
   8
0
 370
13
  62
1
 100
AcDbMText
  10
 577.99357945425
  20
 1272.6685393258
  30
0.0
  40
 60.000000000000
  41
0.0
  71
8
  72
1
   1
\A1;1100
   7
GMM002
  11
0.0
  21
 1.0000000000000
  31
0.0
   0
ENDBLK
   5
D5
 100
AcDbEntity
   8
0
 100
AcDbBlockEnd
   0
BLOCK
   5
D6
 100
AcDbEntity
   8
0
 100
AcDbBlockBegin
   2
*D18
  70
65
  10
0.0
  20
0.0
  30
0.0
   3
*D18
   0
LINE
   5
D7
 100
AcDbEntity
   8
0
 370
13
 100
AcDbLine
   6
CONTINUOUS
  62
6
  10
 1429.1578773756
  20
 4322.6685393259
  30
0.0
  11
 573.70786516854
  21
 4322.6685393259
  31
0.0
   0
LINE
   5
D8
 100
AcDbEntity
   8
0
 370
13
 100
AcDbLine
   6
CONTINUOUS
  62
6
  10
 973.70786516854
  20
 1822.6685393258
  30
0.0
  11
 573.70786516854
  21
 1822.6685393258
  31
0.0
   0
LINE
   5
D9
 100
AcDbEntity
   8
0
 370
13
 100
AcDbLine
   6
CONTINUOUS
  62
6
  10
 603.70786516854
  20
 4322.6685393259
  30
0.0
  11
 603.70786516854
  21
 3072.6685393258
  31
0.0
   0
LINE
   5
DA
 100
AcDbEntity
   8
0
 370
13
 100
AcDbLine
   6
CONTINUOUS
  62
6
  10
 603.70786516854
  20
 1822.6685393258
  30
0.0
  11
 603.70786516854
  21
 3072.6685393258
  31
0.0
   0
INSERT
   5
DB
 100
AcDbEntity
   8
0
   6
CONTINUOUS
  62
6
 100
AcDbBlockReference
   2
_OPEN
  10
 603.70786516854
  20
 4322.6685393259
  30
0.0
  41
 42.000000000000
  42
 42.000000000000
  43
 42.000000000000
  50
 90.000000000000
   0
INSERT
   5
DC
 100
AcDbEntity
   8
0
   6
CONTINUOUS
  62
6
 100
AcDbBlockReference
   2
_OPEN
  10
 603.70786516854
  20
 1822.6685393258
  30
0.0
  41
 42.000000000000
  42
 42.000000000000
  43
 42.000000000000
  50
 270.00000000000
   0
MTEXT
   5
DD
 100
AcDbEntity
   8
0
 370
13
  62
1
 100
AcDbMText
  10
 577.99357945425
  20
 3072.6685393258
  30
0.0
  40
 60.000000000000
  41
0.0
  71
8
  72
1
   1
\A1;2500(標準設置高さ)
   7
GMM002
  11
0.0
  21
 1.0000000000000
  31
0.0
   0
ENDBLK
   5
DE
 100
AcDbEntity
   8
0
 100
AcDbBlockEnd
   0
BLOCK
   5
DF
 100
AcDbEntity
   8
0
 100
AcDbBlockBegin
   2
*D19
  70
65
  10
0.0
  20
0.0
  30
0.0
   3
*D19
   0
LINE
   5
E0
 100
AcDbEntity
   8
0
 370
13
 100
AcDbLine
   6
CONTINUOUS
  62
6
  10
 1066.3650362574
  20
 4602.6685393259
  30
0.0
  11
 1503.7078651686
  21
 4855.1685393258
  31
0.0
   0
LINE
   5
E1
 100
AcDbEntity
   8
0
 370
13
 100
AcDbLine
   6
CONTINUOUS
  62
6
  10
 1503.7078651686
  20
 4855.1685393258
  30
0.0
  11
 1941.0506940797
  21
 5107.6685393258
  31
0.0
   0
INSERT
   5
E2
 100
AcDbEntity
   8
0
   6
CONTINUOUS
  62
6
 100
AcDbBlockReference
   2
_OPEN
  10
 1066.3650362574
  20
 4602.6685393259
  30
0.0
  41
 42.000000000000
  42
 42.000000000000
  43
 42.000000000000
  50
 210.00000000000
   0
INSERT
   5
E3
 100
AcDbEntity
   8
0
   6
CONTINUOUS
  62
6
 100
AcDbBlockReference
   2
_OPEN
  10
 1941.0506940797
  20
 5107.6685393258
  30
0.0
  41
 42.000000000000
  42
 42.000000000000
  43
 42.000000000000
  50
 29.999999999997
   0
MTEXT
   5
E4
 100
AcDbEntity
   8
0
 370
13
  62
1
 100
AcDbMText
  10
 1490.8507223114
  20
 4877.4377639946
  30
0.0
  40
 60.000000000000
  41
0.0
  71
8
  72
1
   1
\A1;%%c1000
   7
GMM002
  11
 0.86602540378446
  21
 0.49999999999996
  31
0.0
   0
ENDBLK
   5
E5
 100
AcDbEntity
   8
0
 100
AcDbBlockEnd
   0
BLOCK
   5
E6
 100
AcDbEntity
   8
0
 100
AcDbBlockBegin
   2
BLOCK001
  70
64
  10
0.0
  20
0.0
  30
0.0
   3
BLOCK001
   0
LINE
   5
E7
 100
AcDbEntity
   8
LEVEL001
 370
13
 100
AcDbLine
   6
CONTINUOUS
  62
5
  10
 1503.7078651685
  20
 4172.6712248726
  30
0.0
  11
 1448.7078651685
  21
 4102.6712248726
  31
0.0
   0
LINE
   5
E8
 100
AcDbEntity
   8
LEVEL001
 370
13
 100
AcDbLine
   6
CONTINUOUS
  62
5
  10
 1448.7078651685
  20
 4102.6712248726
  30
0.0
  11
 1478.7078651685
  21
 4102.6712248726
  31
0.0
   0
LINE
   5
E9
 100
AcDbEntity
   8
LEVEL001
 370
13
 100
AcDbLine
   6
CONTINUOUS
  62
5
  10
 1478.7078651685
  20
 4102.6712248726
  30
0.0
  11
 1478.7078651685
  21
 4072.6712248726
  31
0.0
   0
LINE
   5
EA
 100
AcDbEntity
   8
LEVEL001
 370
13
 100
AcDbLine
   6
CONTINUOUS
  62
5
  10
 1478.7078651685
  20
 4072.6712248726
  30
0.0
  11
 1528.7078651685
  21
 4072.6712248726
  31
0.0
   0
LINE
   5
EB
 100
AcDbEntity
   8
LEVEL001
 370
13
 100
AcDbLine
   6
CONTINUOUS
  62
5
  10
 1558.7078651685
  20
 4102.6712248726
  30
0.0
  11
 1503.7078651685
  21
 4172.6712248726
  31
0.0
   0
LINE
   5
EC
 100
AcDbEntity
   8
LEVEL001
 370
13
 100
AcDbLine
   6
CONTINUOUS
  62
5
  10
 1528.7078651685
  20
 4102.6712248726
  30
0.0
  11
 1558.7078651685
  21
 4102.6712248726
  31
0.0
   0
LINE
   5
ED
 100
AcDbEntity
   8
LEVEL001
 370
13
 100
AcDbLine
   6
CONTINUOUS
  62
5
  10
 1528.7078651685
  20
 4072.6712248726
  30
0.0
  11
 1528.7078651685
  21
 4102.6712248726
  31
0.0
   0
ENDBLK
   5
EE
 100
AcDbEntity
   8
0
 100
AcDbBlockEnd
   0
BLOCK
   5
EF
 100
AcDbEntity
   8
0
 100
AcDbBlockBegin
   2
BLOCK002
  70
64
  10
0.0
  20
0.0
  30
0.0
   3
BLOCK002
   0
LINE
   5
F0
 100
AcDbEntity
   8
LEVEL001
 370
13
 100
AcDbLine
   6
CONTINUOUS
  62
1
  10
 1434.0649208326
  20
 4006.6621916696
  30
0.0
  11
 1449.3340858717
  21
 4004.4075529976
  31
0.0
   0
ARC
   5
F1
 100
AcDbEntity
   8
LEVEL001
 370
13
   6
CONTINUOUS
  62
1
 100
AcDbCircle
  10
 1447.9514024414
  20
 3983.8743445174
  30
0.0
  40
 20.579710006714
 100
AcDbArc
  50
 10.432655985708
  51
 86.147581847720
   0
ARC
   5
F2
 100
AcDbEntity
   8
LEVEL001
 370
13
   6
CONTINUOUS
  62
1
 100
AcDbCircle
  10
 1454.3070394569
  20
 3987.2987325132
  30
0.0
  40
 13.887145996094
 100
AcDbArc
  50
 284.73810286312
  51
 1.2468362600465
   0
LINE
   5
F3
 100
AcDbEntity
   8
LEVEL001
 370
13
 100
AcDbLine
   6
CONTINUOUS
  62
1
  10
 1457.8399452467
  20
 3973.8684904976
  30
0.0
  11
 1434.0649208326
  21
 4006.6621916696
  31
0.0
   0
ARC
   5
F4
 100
AcDbEntity
   8
LEVEL001
 370
13
   6
CONTINUOUS
  62
1
 100
AcDbCircle
  10
 1441.6121327314
  20
 3947.0571605976
  30
0.0
  40
 20.228109359742
 100
AcDbArc
  50
 1.0520107710499
  51
 78.795797145825
   0
ARC
   5
F5
 100
AcDbEntity
   8
LEVEL001
 370
13
   6
CONTINUOUS
  62
1
 100
AcDbCircle
  10
 1446.8685694807
  20
 3949.2071018572
  30
0.0
  40
 15.073557853699
 100
AcDbArc
  50
 288.65953719945
  51
 353.22379545230
   0
LINE
   5
F6
 100
AcDbEntity
   8
LEVEL001
 370
13
 100
AcDbLine
   6
CONTINUOUS
  62
1
  10
 1436.4217933912
  20
 3920.8860686226
  30
0.0
  11
 1443.3904823560
  21
 3882.0457365914
  31
0.0
   0
ARC
   5
F7
 100
AcDbEntity
   8
LEVEL001
 370
13
   6
CONTINUOUS
  62
1
 100
AcDbCircle
  10
 1453.3729037396
  20
 3885.6776708424
  30
0.0
  40
 10.622602462769
 100
AcDbArc
  50
 199.99305619357
  51
 1.9685270930322
   0
LINE
   5
F8
 100
AcDbEntity
   8
LEVEL001
 370
13
 100
AcDbLine
   6
CONTINUOUS
  62
1
  10
 1463.9892372389
  20
 3886.0425627634
  30
0.0
  11
 1460.8120521803
  21
 3903.1568205758
  31
0.0
   0
LINE
   5
F9
 100
AcDbEntity
   8
LEVEL001
 370
13
 100
AcDbLine
   6
CONTINUOUS
  62
1
  10
 1460.8120521803
  20
 3903.1568205758
  30
0.0
  11
 1473.1097206373
  21
 3962.5955412790
  31
0.0
   0
LINE
   5
FA
 100
AcDbEntity
   8
LEVEL001
 370
13
 100
AcDbLine
   6
CONTINUOUS
  62
1
  10
 1473.1097206373
  20
 3962.5955412790
  30
0.0
  11
 1450.2566322584
  21
 3912.6875822946
  31
0.0
   0
LINE
   5
FB
 100
AcDbEntity
   8
LEVEL001
 370
13
 100
AcDbLine
   6
CONTINUOUS
  62
1
  10
 1450.2566322584
  20
 3912.6875822946
  30
0.0
  11
 1436.4217933912
  21
 3920.8860686226
  31
0.0
   0
LINE
   5
FC
 100
AcDbEntity
   8
LEVEL001
 370
13
 100
AcDbLine
   6
CONTINUOUS
  62
1
  10
 1500.3695472974
  20
 3989.8555510446
  30
0.0
  11
 1470.9576210279
  21
 3989.8555510446
  31
0.0
   0
LINE
   5
FD
 100
AcDbEntity
   8
LEVEL001
 370
13
 100
AcDbLine
   6
CONTINUOUS
  62
1
  10
 1470.9576210279
  20
 3989.8555510446
  30
0.0
  11
 1475.3643593092
  21
 3978.8899748726
  31
0.0
   0
LINE
   5
FE
 100
AcDbEntity
   8
LEVEL001
 370
13
 100
AcDbLine
   6
CONTINUOUS
  62
1
  10
 1475.3643593092
  20
 3978.8899748726
  30
0.0
  11
 1500.3695472974
  21
 3978.8899748726
  31
0.0
   0
LINE
   5
FF
 100
AcDbEntity
   8
LEVEL001
 370
13
 100
AcDbLine
   6
CONTINUOUS
  62
1
  10
 1500.3695472974
  20
 3948.3506682320
  30
0.0
  11
 1472.5973305006
  21
 3948.3506682320
  31
0.0
   0
LINE
   5
100
 100
AcDbEntity
   8
LEVEL001
 370
13
 100
AcDbLine
   6
CONTINUOUS
  62
1
  10
 1472.5973305006
  20
 3948.3506682320
  30
0.0
  11
 1477.5164589185
  21
 3936.2581389352
  31
0.0
   0
LINE
   5
101
 100
AcDbEntity
   8
LEVEL001
 370
13
 100
AcDbLine
   6
CONTINUOUS
  62
1
  10
 1477.5164589185
  20
 3936.2581389352
  30
0.0
  11
 1500.3695472974
  21
 3936.2581389352
  31
0.0
   0
LINE
   5
102
 100
AcDbEntity
   8
LEVEL001
 370
13
 100
AcDbLine
   6
CONTINUOUS
  62
1
  10
 1500.3695472974
  20
 3891.3716643258
  30
0.0
  11
 1467.8832802076
  21
 3891.3716643258
  31
0.0
   0
LINE
   5
103
 100
AcDbEntity
   8
LEVEL001
 370
13
 100
AcDbLine
   6
CONTINUOUS
  62
1
  10
 1467.8832802076
  20
 3891.3716643258
  30
0.0
  11
 1473.3147987623
  21
 3879.2788908884
  31
0.0
   0
LINE
   5
104
 100
AcDbEntity
   8
LEVEL001
 370
13
 100
AcDbLine
   6
CONTINUOUS
  62
1
  10
 1473.3147987623
  20
 3879.2788908884
  30
0.0
  11
 1563.6926063795
  21
 3879.2788908884
  31
0.0
   0
ARC
   5
105
 100
AcDbEntity
   8
LEVEL001
 370
13
   6
CONTINUOUS
  62
1
 100
AcDbCircle
  10
 1474.3062818513
  20
 3778.7323559826
  30
0.0
  40
 22.293228149414
 100
AcDbArc
  50
 35.161467069538
  51
 78.641482600080
   0
ARC
   5
106
 100
AcDbEntity
   8
LEVEL001
 370
13
   6
CONTINUOUS
  62
1
 100
AcDbCircle
  10
 1486.1862820619
  20
 3789.7890523196
  30
0.0
  40
 6.5907969474792
 100
AcDbArc
  50
 312.23496141853
  51
 15.682969951823
   0
LINE
   5
107
 100
AcDbEntity
   8
LEVEL001
 370
13
 100
AcDbLine
   6
CONTINUOUS
  62
1
  10
 1490.6164345045
  20
 3784.9092619820
  30
0.0
  11
 1509.5434364576
  21
 3784.9092619820
  31
0.0
   0
LINE
   5
108
 100
AcDbEntity
   8
LEVEL001
 370
13
 100
AcDbLine
   6
CONTINUOUS
  62
1
  10
 1519.9966224928
  20
 3800.5889494820
  30
0.0
  11
 1478.6968788404
  21
 3800.5889494820
  31
0.0
   0
LINE
   5
109
 100
AcDbEntity
   8
LEVEL001
 370
13
 100
AcDbLine
   6
CONTINUOUS
  62
1
  10
 1516.2795814771
  20
 3822.3233244820
  30
0.0
  11
 1491.5069374342
  21
 3822.9295256540
  31
0.0
   0
LINE
   5
10A
 100
AcDbEntity
   8
LEVEL001
 370
13
 100
AcDbLine
   6
CONTINUOUS
  62
1
  10
 1491.5069374342
  20
 3822.9295256540
  30
0.0
  11
 1491.5069374342
  21
 3810.5293791696
  31
0.0
   0
LINE
   5
10B
 100
AcDbEntity
   8
LEVEL001
 370
13
 100
AcDbLine
   6
CONTINUOUS
  62
1
  10
 1491.5069374342
  20
 3810.5293791696
  30
0.0
  11
 1442.0446571607
  21
 3810.5293791696
  31
0.0
   0
LINE
   5
10C
 100
AcDbEntity
   8
LEVEL001
 370
13
 100
AcDbLine
   6
CONTINUOUS
  62
1
  10
 1442.0446571607
  20
 3810.5293791696
  30
0.0
  11
 1446.5179237623
  21
 3800.5889494820
  31
0.0
   0
LINE
   5
10D
 100
AcDbEntity
   8
LEVEL001
 370
13
 100
AcDbLine
   6
CONTINUOUS
  62
1
  10
 1446.5179237623
  20
 3800.5889494820
  30
0.0
  11
 1464.1448768873
  21
 3800.5889494820
  31
0.0
   0
LINE
   5
10E
 100
AcDbEntity
   8
LEVEL001
 370
13
 100
AcDbLine
   6
CONTINUOUS
  62
1
  10
 1464.1448768873
  20
 3800.5889494820
  30
0.0
  11
 1474.0853676099
  21
 3784.9092619820
  31
0.0
   0
LINE
   5
10F
 100
AcDbEntity
   8
LEVEL001
 370
13
 100
AcDbLine
   6
CONTINUOUS
  62
1
  10
 1474.0853676099
  20
 3784.9092619820
  30
0.0
  11
 1439.3700966139
  21
 3784.9092619820
  31
0.0
   0
LINE
   5
110
 100
AcDbEntity
   8
LEVEL001
 370
13
 100
AcDbLine
   6
CONTINUOUS
  62
1
  10
 1439.3700966139
  20
 3784.9092619820
  30
0.0
  11
 1444.2706093092
  21
 3774.3538420602
  31
0.0
   0
LINE
   5
111
 100
AcDbEntity
   8
LEVEL001
 370
13
 100
AcDbLine
   6
CONTINUOUS
  62
1
  10
 1444.2706093092
  20
 3774.3538420602
  30
0.0
  11
 1567.8552040357
  21
 3774.3538420602
  31
0.0
   0
ARC
   5
112
 100
AcDbEntity
   8
LEVEL001
 370
13
   6
CONTINUOUS
  62
1
 100
AcDbCircle
  10
 1463.6445206826
  20
 3750.3232958984
  30
0.0
  40
 31.206602096558
 100
AcDbArc
  50
 246.86715997187
  51
 289.54649732736
   0
LINE
   5
113
 100
AcDbEntity
   8
LEVEL001
 370
13
 100
AcDbLine
   6
CONTINUOUS
  62
1
  10
 1474.0853676099
  20
 3750.2708342476
  30
0.0
  11
 1474.0853676099
  21
 3756.7271330758
  31
0.0
   0
LINE
   5
114
 100
AcDbEntity
   8
LEVEL001
 370
13
 100
AcDbLine
   6
CONTINUOUS
  62
1
  10
 1474.0853676099
  20
 3756.7271330758
  30
0.0
  11
 1530.6545204420
  21
 3756.7271330758
  31
0.0
   0
LINE
   5
115
 100
AcDbEntity
   8
LEVEL001
 370
13
 100
AcDbLine
   6
CONTINUOUS
  62
1
  10
 1530.6545204420
  20
 3750.2708342476
  30
0.0
  11
 1474.0853676099
  21
 3750.2708342476
  31
0.0
   0
LINE
   5
116
 100
AcDbEntity
   8
LEVEL001
 370
13
 100
AcDbLine
   6
CONTINUOUS
  62
1
  10
 1530.6545204420
  20
 3765.0279143258
  30
0.0
  11
 1474.0853676099
  21
 3765.0279143258
  31
0.0
   0
LINE
   5
117
 100
AcDbEntity
   8
LEVEL001
 370
13
 100
AcDbLine
   6
CONTINUOUS
  62
1
  10
 1474.0853676099
  20
 3765.0279143258
  30
0.0
  11
 1474.0853676099
  21
 3766.7703459664
  31
0.0
   0
LINE
   5
118
 100
AcDbEntity
   8
LEVEL001
 370
13
 100
AcDbLine
   6
CONTINUOUS
  62
1
  10
 1474.0853676099
  20
 3766.7703459664
  30
0.0
  11
 1451.4373573560
  21
 3771.3816740914
  31
0.0
   0
LINE
   5
119
 100
AcDbEntity
   8
LEVEL001
 370
13
 100
AcDbLine
   6
CONTINUOUS
  62
1
  10
 1451.4373573560
  20
 3771.3816740914
  30
0.0
  11
 1451.3845619459
  21
 3721.6258147164
  31
0.0
   0
LINE
   5
11A
 100
AcDbEntity
   8
LEVEL001
 370
13
 100
AcDbLine
   6
CONTINUOUS
  62
1
  10
 1474.0853676099
  20
 3734.2837737008
  30
0.0
  11
 1474.0853676099
  21
 3741.1465666696
  31
0.0
   0
LINE
   5
11B
 100
AcDbEntity
   8
LEVEL001
 370
13
 100
AcDbLine
   6
CONTINUOUS
  62
1
  10
 1474.0853676099
  20
 3741.1465666696
  30
0.0
  11
 1530.6545204420
  21
 3741.1465666696
  31
0.0
   0
LINE
   5
11C
 100
AcDbEntity
   8
LEVEL001
 370
13
 100
AcDbLine
   6
CONTINUOUS
  62
1
  10
 1530.6545204420
  20
 3734.2837737008
  30
0.0
  11
 1474.0853676099
  21
 3734.2837737008
  31
0.0
   0
LINE
   5
11D
 100
AcDbEntity
   8
LEVEL001
 370
13
 100
AcDbLine
   6
CONTINUOUS
  62
1
  10
 1474.0853676099
  20
 3720.9151213570
  30
0.0
  11
 1474.0853676099
  21
 3725.6756194040
  31
0.0
   0
LINE
   5
11E
 100
AcDbEntity
   8
LEVEL001
 370
13
 100
AcDbLine
   6
CONTINUOUS
  62
1
  10
 1474.0853676099
  20
 3725.6756194040
  30
0.0
  11
 1530.6545204420
  21
 3725.6756194040
  31
0.0
   0
LINE
   5
11F
 100
AcDbEntity
   8
LEVEL001
 370
13
 100
AcDbLine
   6
CONTINUOUS
  62
1
  10
 1457.6177772779
  20
 3715.3250334664
  30
0.0
  11
 1457.1053871412
  21
 3710.2010100290
  31
0.0
   0
LINE
   5
120
 100
AcDbEntity
   8
LEVEL001
 370
13
 100
AcDbLine
   6
CONTINUOUS
  62
1
  10
 1457.1053871412
  20
 3710.2010100290
  30
0.0
  11
 1455.1580604810
  21
 3706.6140959664
  31
0.0
   0
LINE
   5
121
 100
AcDbEntity
   8
LEVEL001
 370
13
 100
AcDbLine
   6
CONTINUOUS
  62
1
  10
 1455.1580604810
  20
 3706.6140959664
  30
0.0
  11
 1444.0902504224
  21
 3692.8816740914
  31
0.0
   0
ARC
   5
122
 100
AcDbEntity
   8
LEVEL001
 370
13
   6
CONTINUOUS
  62
1
 100
AcDbCircle
  10
 1452.6220690595
  20
 3687.2692465456
  30
0.0
  40
 10.212309837341
 100
AcDbArc
  50
 146.66215660277
  51
 331.70689669712
   0
ARC
   5
123
 100
AcDbEntity
   8
LEVEL001
 370
13
   6
CONTINUOUS
  62
1
 100
AcDbCircle
  10
 1438.6344170896
  20
 3696.3278411880
  30
0.0
  40
 26.856307983398
 100
AcDbArc
  50
 328.83302933365
  51
 45.020866477522
   0
ARC
   5
124
 100
AcDbEntity
   8
LEVEL001
 370
13
   6
CONTINUOUS
  62
1
 100
AcDbCircle
  10
 1479.7724212903
  20
 3683.4019098922
  30
0.0
  40
 6.6096000671386
 100
AcDbArc
  50
 179.99975839708
  51
 269.90651680925
   0
LINE
   5
125
 100
AcDbEntity
   8
LEVEL001
 370
13
 100
AcDbLine
   6
CONTINUOUS
  62
1
  10
 1479.7616371412
  20
 3676.7923186226
  30
0.0
  11
 1546.6731971998
  21
 3676.7923186226
  31
0.0
   0
LINE
   5
126
 100
AcDbEntity
   8
LEVEL001
 370
13
 100
AcDbLine
   6
CONTINUOUS
  62
1
  10
 1535.7732948560
  20
 3694.3162444040
  30
0.0
  11
 1495.9136757154
  21
 3694.3162444040
  31
0.0
   0
LINE
   5
127
 100
AcDbEntity
   8
LEVEL001
 370
13
 100
AcDbLine
   6
CONTINUOUS
  62
1
  10
 1495.9136757154
  20
 3694.3162444040
  30
0.0
  11
 1495.9136757154
  21
 3710.2010100290
  31
0.0
   0
LINE
   5
128
 100
AcDbEntity
   8
LEVEL001
 370
13
 100
AcDbLine
   6
CONTINUOUS
  62
1
  10
 1495.9136757154
  20
 3710.2010100290
  30
0.0
  11
 1497.9632362623
  21
 3713.1729338570
  31
0.0
   0
LINE
   5
129
 100
AcDbEntity
   8
LEVEL001
 370
13
 100
AcDbLine
   6
CONTINUOUS
  62
1
  10
 1496.1187538404
  20
 3715.3250334664
  30
0.0
  11
 1473.1628212232
  21
 3718.3992522164
  31
0.0
   0
LINE
   5
12A
 100
AcDbEntity
   8
LEVEL001
 370
13
 100
AcDbLine
   6
CONTINUOUS
  62
1
  10
 1473.1628212232
  20
 3718.3992522164
  30
0.0
  11
 1473.1628212232
  21
 3683.4019377634
  31
0.0
   0
LINE
   5
12B
 100
AcDbEntity
   8
LEVEL001
 370
13
 100
AcDbLine
   6
CONTINUOUS
  62
1
  10
 1430.6354774732
  20
 3969.2288420602
  30
0.0
  11
 1445.5425819654
  21
 3966.8997404976
  31
0.0
   0
LINE
   5
12C
 100
AcDbEntity
   8
LEVEL001
 370
13
 100
AcDbLine
   6
CONTINUOUS
  62
1
  10
 1451.6912636060
  20
 3934.9258635446
  30
0.0
  11
 1430.6354774732
  21
 3967.1792815134
  31
0.0
   0
LINE
   5
12D
 100
AcDbEntity
   8
LEVEL001
 370
13
 100
AcDbLine
   6
CONTINUOUS
  62
1
  10
 1529.2690223951
  20
 4009.8391936226
  30
0.0
  11
 1500.3695472974
  21
 4014.3482268258
  31
0.0
   0
LINE
   5
12E
 100
AcDbEntity
   8
LEVEL001
 370
13
 100
AcDbLine
   6
CONTINUOUS
  62
1
  10
 1500.3695472974
  20
 4014.3482268258
  30
0.0
  11
 1500.3695472974
  21
 3989.8555510446
  31
0.0
   0
LINE
   5
12F
 100
AcDbEntity
   8
LEVEL001
 370
13
 100
AcDbLine
   6
CONTINUOUS
  62
1
  10
 1500.3695472974
  20
 3978.8899748726
  30
0.0
  11
 1500.3695472974
  21
 3948.3506682320
  31
0.0
   0
LINE
   5
130
 100
AcDbEntity
   8
LEVEL001
 370
13
 100
AcDbLine
   6
CONTINUOUS
  62
1
  10
 1500.3695472974
  20
 3936.2581389352
  30
0.0
  11
 1500.3695472974
  21
 3891.3716643258
  31
0.0
   0
ARC
   5
131
 100
AcDbEntity
   8
LEVEL001
 370
13
   6
CONTINUOUS
  62
1
 100
AcDbCircle
  10
 1503.3639449844
  20
 3682.0367625194
  30
0.0
  40
 37.929008483886
 100
AcDbArc
  50
 46.131357984443
  51
 92.247049960182
   0
LINE
   5
132
 100
AcDbEntity
   8
LEVEL001
 370
13
 100
AcDbLine
   6
CONTINUOUS
  62
1
  10
 1497.9632362623
  20
 3713.1729338570
  30
0.0
  11
 1496.1187538404
  21
 3715.3250334664
  31
0.0
   0
LINE
   5
133
 100
AcDbEntity
   8
LEVEL001
 370
13
 100
AcDbLine
   6
CONTINUOUS
  62
1
  10
 1516.0189613599
  20
 3698.6204436226
  30
0.0
  11
 1501.8768104810
  21
 3719.9366057320
  31
0.0
   0
ARC
   5
134
 100
AcDbEntity
   8
LEVEL001
 370
13
   6
CONTINUOUS
  62
1
 100
AcDbCircle
  10
 1558.4689060216
  20
 3941.3040993938
  30
0.0
  40
 5.0631766319274
 100
AcDbArc
  50
 274.72625926493
  51
 43.105627832220
   0
ARC
   5
135
 100
AcDbEntity
   8
LEVEL001
 370
13
   6
CONTINUOUS
  62
1
 100
AcDbCircle
  10
 1562.1086442339
  20
 3984.4530709028
  30
0.0
  40
 5.5826339721680
 100
AcDbArc
  50
 274.79495132882
  51
 36.912748479784
   0
LINE
   5
136
 100
AcDbEntity
   8
LEVEL001
 370
13
 100
AcDbLine
   6
CONTINUOUS
  62
1
  10
 1562.1655067701
  20
 3944.7639983102
  30
0.0
  11
 1545.7684120435
  21
 3957.7791350290
  31
0.0
   0
LINE
   5
137
 100
AcDbEntity
   8
LEVEL001
 370
13
 100
AcDbLine
   6
CONTINUOUS
  62
1
  10
 1545.7684120435
  20
 3957.7791350290
  30
0.0
  11
 1538.1847938795
  21
 3948.3506682320
  31
0.0
   0
LINE
   5
138
 100
AcDbEntity
   8
LEVEL001
 370
13
 100
AcDbLine
   6
CONTINUOUS
  62
1
  10
 1538.1847938795
  20
 3948.3506682320
  30
0.0
  11
 1525.3747352857
  21
 3948.3506682320
  31
0.0
   0
LINE
   5
139
 100
AcDbEntity
   8
LEVEL001
 370
13
 100
AcDbLine
   6
CONTINUOUS
  62
1
  10
 1525.3747352857
  20
 3948.3506682320
  30
0.0
  11
 1525.3747352857
  21
 3978.8899748726
  31
0.0
   0
LINE
   5
13A
 100
AcDbEntity
   8
LEVEL001
 370
13
 100
AcDbLine
   6
CONTINUOUS
  62
1
  10
 1525.3747352857
  20
 3978.8899748726
  30
0.0
  11
 1562.5752968092
  21
 3978.8899748726
  31
0.0
   0
LINE
   5
13B
 100
AcDbEntity
   8
LEVEL001
 370
13
 100
AcDbLine
   6
CONTINUOUS
  62
1
  10
 1566.5722450514
  20
 3987.8059904976
  30
0.0
  11
 1552.7370399732
  21
 3999.8985197946
  31
0.0
   0
LINE
   5
13C
 100
AcDbEntity
   8
LEVEL001
 370
13
 100
AcDbLine
   6
CONTINUOUS
  62
1
  10
 1552.7370399732
  20
 3999.8985197946
  30
0.0
  11
 1540.8495888014
  21
 3989.8555510446
  31
0.0
   0
LINE
   5
13D
 100
AcDbEntity
   8
LEVEL001
 370
13
 100
AcDbLine
   6
CONTINUOUS
  62
1
  10
 1540.8495888014
  20
 3989.8555510446
  30
0.0
  11
 1525.3747352857
  21
 3989.8555510446
  31
0.0
   0
LINE
   5
13E
 100
AcDbEntity
   8
LEVEL001
 370
13
 100
AcDbLine
   6
CONTINUOUS
  62
1
  10
 1525.3747352857
  20
 3989.8555510446
  30
0.0
  11
 1525.3747352857
  21
 4005.3299162790
  31
0.0
   0
LINE
   5
13F
 100
AcDbEntity
   8
LEVEL001
 370
13
 100
AcDbLine
   6
CONTINUOUS
  62
1
  10
 1525.3747352857
  20
 4005.3299162790
  30
0.0
  11
 1528.9617714185
  21
 4007.1746428414
  31
0.0
   0
LINE
   5
140
 100
AcDbEntity
   8
LEVEL001
 370
13
 100
AcDbLine
   6
CONTINUOUS
  62
1
  10
 1528.9617714185
  20
 4007.1746428414
  30
0.0
  11
 1529.2690223951
  21
 4009.8391936226
  31
0.0
   0
LINE
   5
141
 100
AcDbEntity
   8
LEVEL001
 370
13
 100
AcDbLine
   6
CONTINUOUS
  62
1
  10
 1567.1471962232
  20
 3890.8015959664
  30
0.0
  11
 1551.8147987623
  21
 3900.9024260446
  31
0.0
   0
LINE
   5
142
 100
AcDbEntity
   8
LEVEL001
 370
13
 100
AcDbLine
   6
CONTINUOUS
  62
1
  10
 1551.8147987623
  20
 3900.9024260446
  30
0.0
  11
 1543.9239296217
  21
 3891.3716643258
  31
0.0
   0
LINE
   5
143
 100
AcDbEntity
   8
LEVEL001
 370
13
 100
AcDbLine
   6
CONTINUOUS
  62
1
  10
 1543.9239296217
  20
 3891.3716643258
  30
0.0
  11
 1525.3747352857
  21
 3891.3716643258
  31
0.0
   0
LINE
   5
144
 100
AcDbEntity
   8
LEVEL001
 370
13
 100
AcDbLine
   6
CONTINUOUS
  62
1
  10
 1525.3747352857
  20
 3891.3716643258
  30
0.0
  11
 1525.3747352857
  21
 3936.2581389352
  31
0.0
   0
LINE
   5
145
 100
AcDbEntity
   8
LEVEL001
 370
13
 100
AcDbLine
   6
CONTINUOUS
  62
1
  10
 1525.3747352857
  20
 3936.2581389352
  30
0.0
  11
 1558.8860878248
  21
 3936.2581389352
  31
0.0
   0
ARC
   5
146
 100
AcDbEntity
   8
LEVEL001
 370
13
   6
CONTINUOUS
  62
1
 100
AcDbCircle
  10
 1563.6929015466
  20
 3885.5580103730
  30
0.0
  40
 6.2791194915772
 100
AcDbArc
  50
 269.99730665616
  51
 56.624475922383
   0
ARC
   5
147
 100
AcDbEntity
   8
LEVEL001
 370
13
   6
CONTINUOUS
  62
1
 100
AcDbCircle
  10
 1567.4656220309
  20
 3779.0893751754
  30
0.0
  40
 4.7515311241150
 100
AcDbArc
  50
 274.70300820748
  51
 59.113555838216
   0
LINE
   5
148
 100
AcDbEntity
   8
LEVEL001
 370
13
 100
AcDbLine
   6
CONTINUOUS
  62
1
  10
 1509.5434364576
  20
 3784.9092619820
  30
0.0
  11
 1519.9966224928
  21
 3800.5889494820
  31
0.0
   0
ARC
   5
149
 100
AcDbEntity
   8
LEVEL001
 370
13
   6
CONTINUOUS
  62
1
 100
AcDbCircle
  10
 1558.0242956099
  20
 3805.7451231970
  30
0.0
  40
 5.1561789512634
 100
AcDbArc
  50
 269.91834398461
  51
 52.069476722723
   0
LINE
   5
14A
 100
AcDbEntity
   8
LEVEL001
 370
13
 100
AcDbLine
   6
CONTINUOUS
  62
1
  10
 1569.9047645826
  20
 3783.1670744820
  30
0.0
  11
 1551.9708046217
  21
 3793.6201994820
  31
0.0
   0
LINE
   5
14B
 100
AcDbEntity
   8
LEVEL001
 370
13
 100
AcDbLine
   6
CONTINUOUS
  62
1
  10
 1551.9708046217
  20
 3793.6201994820
  30
0.0
  11
 1545.4119667310
  21
 3784.9092619820
  31
0.0
   0
LINE
   5
14C
 100
AcDbEntity
   8
LEVEL001
 370
13
 100
AcDbLine
   6
CONTINUOUS
  62
1
  10
 1545.4119667310
  20
 3784.9092619820
  30
0.0
  11
 1529.6630653639
  21
 3784.9092619820
  31
0.0
   0
LINE
   5
14D
 100
AcDbEntity
   8
LEVEL001
 370
13
 100
AcDbLine
   6
CONTINUOUS
  62
1
  10
 1529.6630653639
  20
 3784.9092619820
  30
0.0
  11
 1538.7505897779
  21
 3793.1077483102
  31
0.0
   0
LINE
   5
14E
 100
AcDbEntity
   8
LEVEL001
 370
13
 100
AcDbLine
   6
CONTINUOUS
  62
1
  10
 1538.7505897779
  20
 3793.1077483102
  30
0.0
  11
 1542.5423378248
  21
 3793.6201994820
  31
0.0
   0
LINE
   5
14F
 100
AcDbEntity
   8
LEVEL001
 370
13
 100
AcDbLine
   6
CONTINUOUS
  62
1
  10
 1542.5423378248
  20
 3793.6201994820
  30
0.0
  11
 1544.1821083326
  21
 3795.9771330758
  31
0.0
   0
LINE
   5
150
 100
AcDbEntity
   8
LEVEL001
 370
13
 100
AcDbLine
   6
CONTINUOUS
  62
1
  10
 1544.1821083326
  20
 3795.9771330758
  30
0.0
  11
 1541.5175575514
  21
 3800.5889494820
  31
0.0
   0
LINE
   5
151
 100
AcDbEntity
   8
LEVEL001
 370
13
 100
AcDbLine
   6
CONTINUOUS
  62
1
  10
 1541.5175575514
  20
 3800.5889494820
  30
0.0
  11
 1558.0169471998
  21
 3800.5889494820
  31
0.0
   0
LINE
   5
152
 100
AcDbEntity
   8
LEVEL001
 370
13
 100
AcDbLine
   6
CONTINUOUS
  62
1
  10
 1561.1938270826
  20
 3809.8120940134
  30
0.0
  11
 1542.5423378248
  21
 3820.0601408884
  31
0.0
   0
LINE
   5
153
 100
AcDbEntity
   8
LEVEL001
 370
13
 100
AcDbLine
   6
CONTINUOUS
  62
1
  10
 1542.5423378248
  20
 3820.0601408884
  30
0.0
  11
 1536.3934120435
  21
 3810.5293791696
  31
0.0
   0
LINE
   5
154
 100
AcDbEntity
   8
LEVEL001
 370
13
 100
AcDbLine
   6
CONTINUOUS
  62
1
  10
 1536.3934120435
  20
 3810.5293791696
  30
0.0
  11
 1514.9749550123
  21
 3810.5293791696
  31
0.0
   0
LINE
   5
155
 100
AcDbEntity
   8
LEVEL001
 370
13
 100
AcDbLine
   6
CONTINUOUS
  62
1
  10
 1530.6545204420
  20
 3756.7271330758
  30
0.0
  11
 1530.6545204420
  21
 3750.2708342476
  31
0.0
   0
LINE
   5
156
 100
AcDbEntity
   8
LEVEL001
 370
13
 100
AcDbLine
   6
CONTINUOUS
  62
1
  10
 1557.1972450514
  20
 3763.6958830758
  30
0.0
  11
 1537.2133583326
  21
 3772.7141936226
  31
0.0
   0
LINE
   5
157
 100
AcDbEntity
   8
LEVEL001
 370
13
 100
AcDbLine
   6
CONTINUOUS
  62
1
  10
 1537.2133583326
  20
 3772.7141936226
  30
0.0
  11
 1530.6545204420
  21
 3765.0279143258
  31
0.0
   0
LINE
   5
158
 100
AcDbEntity
   8
LEVEL001
 370
13
 100
AcDbLine
   6
CONTINUOUS
  62
1
  10
 1530.6545204420
  20
 3741.1465666696
  30
0.0
  11
 1530.6545204420
  21
 3734.2837737008
  31
0.0
   0
ARC
   5
159
 100
AcDbEntity
   8
LEVEL001
 370
13
   6
CONTINUOUS
  62
1
 100
AcDbCircle
  10
 1553.6983175234
  20
 3761.0837258614
  30
0.0
  40
 4.3664469718934
 100
AcDbArc
  50
 266.14995656848
  51
 36.743524531019
   0
LINE
   5
15A
 100
AcDbEntity
   8
LEVEL001
 370
13
 100
AcDbLine
   6
CONTINUOUS
  62
1
  10
 1530.6545204420
  20
 3725.6756194040
  30
0.0
  11
 1530.6545204420
  21
 3720.7564299508
  31
0.0
   0
LINE
   5
15B
 100
AcDbEntity
   8
LEVEL001
 370
13
 100
AcDbLine
   6
CONTINUOUS
  62
1
  10
 1530.6545204420
  20
 3720.7564299508
  30
0.0
  11
 1547.5640663404
  21
 3720.7564299508
  31
0.0
   0
LINE
   5
15C
 100
AcDbEntity
   8
LEVEL001
 370
13
 100
AcDbLine
   6
CONTINUOUS
  62
1
  10
 1547.5640663404
  20
 3720.7564299508
  30
0.0
  11
 1551.2530311842
  21
 3722.8059904976
  31
0.0
   0
LINE
   5
15D
 100
AcDbEntity
   8
LEVEL001
 370
13
 100
AcDbLine
   6
CONTINUOUS
  62
1
  10
 1551.2530311842
  20
 3722.8059904976
  30
0.0
  11
 1553.4051307935
  21
 3727.2127287790
  31
0.0
   0
LINE
   5
15E
 100
AcDbEntity
   8
LEVEL001
 370
13
 100
AcDbLine
   6
CONTINUOUS
  62
1
  10
 1553.4051307935
  20
 3727.2127287790
  30
0.0
  11
 1553.3984169264
  21
 3756.7271330758
  31
0.0
   0
LINE
   5
15F
 100
AcDbEntity
   8
LEVEL001
 370
13
 100
AcDbLine
   6
CONTINUOUS
  62
1
  10
 1541.2420448560
  20
 3718.0918791696
  30
0.0
  11
 1554.6667274732
  21
 3695.7513029976
  31
0.0
   0
ARC
   5
160
 100
AcDbEntity
   8
LEVEL001
 370
13
   6
CONTINUOUS
  62
1
 100
AcDbCircle
  10
 1546.9746665856
  20
 3685.5756463240
  30
0.0
  40
 8.7884998321534
 100
AcDbArc
  50
 268.03421368566
  51
 95.984851979608
   0
LINE
   5
161
 100
AcDbEntity
   8
LEVEL001
 370
13
 100
AcDbLine
   6
CONTINUOUS
  62
1
  10
 1546.0583290357
  20
 3694.3162444040
  30
0.0
  11
 1538.6797889967
  21
 3712.7630217476
  31
0.0
   0
LINE
   5
162
 100
AcDbEntity
   8
LEVEL001
 370
13
 100
AcDbLine
   6
CONTINUOUS
  62
1
  10
 1538.6797889967
  20
 3712.7630217476
  30
0.0
  11
 1538.4747108717
  21
 3702.5149748726
  31
0.0
   0
LINE
   5
163
 100
AcDbEntity
   8
LEVEL001
 370
13
 100
AcDbLine
   6
CONTINUOUS
  62
1
  10
 1538.4747108717
  20
 3702.5149748726
  30
0.0
  11
 1535.7732948560
  21
 3694.3162444040
  31
0.0
   0
ARC
   5
164
 100
AcDbEntity
   8
LEVEL001
 370
13
   6
CONTINUOUS
  62
1
 100
AcDbCircle
  10
 1520.8993137906
  20
 3706.3399270454
  30
0.0
  40
 9.1328125000000
 100
AcDbArc
  50
 237.69842193839
  51
 18.768745074031
   0
ARC
   5
165
 100
AcDbEntity
   8
LEVEL001
 370
13
   6
CONTINUOUS
  62
1
 100
AcDbCircle
  10
 1560.4592643563
  20
 3702.5595809718
  30
0.0
  40
 8.9390230178834
 100
AcDbArc
  50
 229.60859987452
  51
 6.7921555436566
   0
ARC
   5
166
 100
AcDbEntity
   8
LEVEL001
 370
13
   6
CONTINUOUS
  62
1
 100
AcDbCircle
  10
 1545.1504783455
  20
 3691.5281887924
  30
0.0
  40
 27.037969589234
 100
AcDbArc
  50
 26.557576861274
  51
 98.091890389853
   0
LINE
   5
167
 100
AcDbEntity
   8
LEVEL001
 370
13
 100
AcDbLine
   6
CONTINUOUS
  62
1
  10
 1514.9749550123
  20
 3810.5293791696
  30
0.0
  11
 1514.9749550123
  21
 3816.8831389352
  31
0.0
   0
LINE
   5
168
 100
AcDbEntity
   8
LEVEL001
 370
13
 100
AcDbLine
   6
CONTINUOUS
  62
1
  10
 1514.9749550123
  20
 3816.8831389352
  30
0.0
  11
 1517.0995888014
  21
 3820.5811369820
  31
0.0
   0
LINE
   5
169
 100
AcDbEntity
   8
LEVEL001
 370
13
 100
AcDbLine
   6
CONTINUOUS
  62
1
  10
 1517.0995888014
  20
 3820.5811369820
  30
0.0
  11
 1516.2795814771
  21
 3822.3233244820
  31
0.0
   0
ENDBLK
   5
16A
 100
AcDbEntity
   8
0
 100
AcDbBlockEnd
   0
BLOCK
   5
16B
 100
AcDbEntity
   8
0
 100
AcDbBlockBegin
   2
*D20
  70
65
  10
0.0
  20
0.0
  30
0.0
   3
*D20
   0
LINE
   5
16C
 100
AcDbEntity
   8
0
 370
13
 100
AcDbLine
   6
CONTINUOUS
  62
6
  10
 2603.7078651685
  20
 1852.6685393241
  30
0.0
  11
 2603.7078651685
  21
 2652.6685393258
  31
0.0
   0
LINE
   5
16D
 100
AcDbEntity
   8
0
 370
13
 100
AcDbLine
   6
CONTINUOUS
  62
6
  10
 3003.7078651685
  20
 2622.6685393258
  30
0.0
  11
 2803.7078651685
  21
 2622.6685393258
  31
0.0
   0
LINE
   5
16E
 100
AcDbEntity
   8
0
 370
13
 100
AcDbLine
   6
CONTINUOUS
  62
6
  10
 2603.7078651685
  20
 2622.6685393258
  30
0.0
  11
 2803.7078651685
  21
 2622.6685393258
  31
0.0
   0
INSERT
   5
16F
 100
AcDbEntity
   8
0
   6
CONTINUOUS
  62
6
 100
AcDbBlockReference
   2
_OPEN
  10
 3003.7078651685
  20
 2622.6685393258
  30
0.0
  41
 42.000000000000
  42
 42.000000000000
  43
 42.000000000000
  50
0.0
   0
INSERT
   5
170
 100
AcDbEntity
   8
0
   6
CONTINUOUS
  62
6
 100
AcDbBlockReference
   2
_OPEN
  10
 2603.7078651685
  20
 2622.6685393258
  30
0.0
  41
 42.000000000000
  42
 42.000000000000
  43
 42.000000000000
  50
 180.00000000000
   0
MTEXT
   5
171
 100
AcDbEntity
   8
0
 370
13
  62
1
 100
AcDbMText
  10
 2803.7078651685
  20
 2708.3828250401
  30
0.0
  40
 60.000000000000
  41
0.0
  71
8
  72
1
   1
\A1;400
   7
GMM002
  44
 0.79999984000003
   0
ENDBLK
   5
172
 100
AcDbEntity
   8
0
 100
AcDbBlockEnd
   0
ENDSEC
   0
SECTION
   2
ENTITIES
   0
LINE
   5
173
 100
AcDbEntity
   8
LEVEL001
 370
13
 100
AcDbLine
   6
CONTINUOUS
  62
2
  10
 5463.7078651685
  20
 685.16853932584
  30
0.0
  11
 7143.7078651685
  21
 685.16853932584
  31
0.0
   0
POINT
   5
174
 100
AcDbEntity
   8
LEVEL001
 100
AcDbPoint
  62
3
  10
 6403.7078651685
  20
 745.16853932584
  30
0.0
   0
POINT
   5
175
 100
AcDbEntity
   8
LEVEL001
 100
AcDbPoint
  62
3
  10
 6303.7078651685
  20
 745.16853932584
  30
0.0
   0
POINT
   5
176
 100
AcDbEntity
   8
LEVEL001
 100
AcDbPoint
  62
3
  10
 6403.7078651685
  20
 845.16853932584
  30
0.0
   0
LINE
   5
177
 100
AcDbEntity
   8
LEVEL001
 370
13
 100
AcDbLine
   6
CONTINUOUS
  62
6
  10
 5463.7078651685
  20
 2465.1685393258
  30
0.0
  11
 8103.7078651685
  21
 2465.1685393258
  31
0.0
   0
LINE
   5
178
 100
AcDbEntity
   8
LEVEL001
 370
13
 100
AcDbLine
   6
CONTINUOUS
  62
6
  10
 5463.7078651685
  20
 1025.1685393258
  30
0.0
  11
 8103.7078651685
  21
 1025.1685393258
  31
0.0
   0
LINE
   5
179
 100
AcDbEntity
   8
LEVEL001
 370
13
 100
AcDbLine
   6
CONTINUOUS
  62
6
  10
 5463.7078651685
  20
 1145.1685393258
  30
0.0
  11
 8103.7078651685
  21
 1145.1685393258
  31
0.0
   0
LINE
   5
17A
 100
AcDbEntity
   8
LEVEL001
 370
13
 100
AcDbLine
   6
CONTINUOUS
  62
6
  10
 5463.7078651685
  20
 1265.1685393258
  30
0.0
  11
 8103.7078651685
  21
 1265.1685393258
  31
0.0
   0
LINE
   5
17B
 100
AcDbEntity
   8
LEVEL001
 370
13
 100
AcDbLine
   6
CONTINUOUS
  62
6
  10
 5463.7078651685
  20
 1385.1685393258
  30
0.0
  11
 8103.7078651685
  21
 1385.1685393258
  31
0.0
   0
LINE
   5
17C
 100
AcDbEntity
   8
LEVEL001
 370
13
 100
AcDbLine
   6
CONTINUOUS
  62
6
  10
 5463.7078651685
  20
 1505.1685393258
  30
0.0
  11
 8103.7078651685
  21
 1505.1685393258
  31
0.0
   0
MTEXT
   5
17D
 100
AcDbEntity
   8
LEVEL001
 370
13
  62
1
 100
AcDbMText
  10
 7343.7078651685
  20
 1925.1685393258
  30
0.0
  40
 51.428571428572
  41
0.0
  71
4
  72
1
   1
\T1.000000;溶融亜鉛メッキ
   7
GMM001
  44
 0.79999984000003
   0
MTEXT
   5
17E
 100
AcDbEntity
   8
LEVEL001
 370
13
  62
1
 100
AcDbMText
  10
 7343.7078651685
  20
 2045.1685393258
  30
0.0
  40
 51.428571428572
  41
0.0
  71
4
  72
1
   1
\T1.000000;溶融亜鉛メッキ
   7
GMM001
  44
 0.79999984000003
   0
MTEXT
   5
17F
 100
AcDbEntity
   8
LEVEL001
 370
13
  62
1
 100
AcDbMText
  10
 6783.7078651685
  20
 1925.1685393258
  30
0.0
  40
 51.428571428572
  41
0.0
  71
4
  72
1
   1
\T1.000000;ＳＳ４００
   7
GMM001
  44
 0.79999984000003
   0
MTEXT
   5
180
 100
AcDbEntity
   8
LEVEL001
 370
13
  62
1
 100
AcDbMText
  10
 6783.7078651685
  20
 2045.1685393258
  30
0.0
  40
 51.428571428572
  41
0.0
  71
4
  72
1
   1
\T1.000000;ＳＳ４００
   7
GMM001
  44
 0.79999984000003
   0
MTEXT
   5
181
 100
AcDbEntity
   8
LEVEL001
 370
13
  62
1
 100
AcDbMText
  10
 5635.7078651685
  20
 1805.1685393258
  30
0.0
  40
 51.428571428572
  41
0.0
  71
6
  72
1
   1
\T1.000000;９
   7
GMM001
  44
 0.79999984000003
   0
MTEXT
   5
182
 100
AcDbEntity
   8
LEVEL001
 370
13
  62
1
 100
AcDbMText
  10
 5635.7078651685
  20
 1925.1685393258
  30
0.0
  40
 51.428571428572
  41
0.0
  71
6
  72
1
   1
\T1.000000;８
   7
GMM001
  44
 0.79999984000003
   0
MTEXT
   5
183
 100
AcDbEntity
   8
LEVEL001
 370
13
  62
1
 100
AcDbMText
  10
 5703.7078651685
  20
 1925.1685393258
  30
0.0
  40
 51.428571428572
  41
0.0
  71
4
  72
1
   1
\T1.000000;金具締付ボルトナット
   7
GMM001
  44
 0.79999984000003
   0
MTEXT
   5
184
 100
AcDbEntity
   8
LEVEL001
 370
13
  62
1
 100
AcDbMText
  10
 5635.7078651685
  20
 2045.1685393258
  30
0.0
  40
 51.428571428572
  41
0.0
  71
6
  72
1
   1
\T1.000000;７
   7
GMM001
  44
 0.79999984000003
   0
MTEXT
   5
185
 100
AcDbEntity
   8
LEVEL001
 370
13
  62
1
 100
AcDbMText
  10
 5703.7078651685
  20
 2045.1685393258
  30
0.0
  40
 51.428571428572
  41
0.0
  71
4
  72
1
   1
\T1.000000;裏板金具取付ボルト
   7
GMM001
  44
 0.79999984000003
   0
LINE
   5
186
 100
AcDbEntity
   8
LEVEL001
 370
13
 100
AcDbLine
   6
CONTINUOUS
  62
6
  10
 5463.7078651685
  20
 1625.1685393258
  30
0.0
  11
 8103.7078651685
  21
 1625.1685393258
  31
0.0
   0
LINE
   5
187
 100
AcDbEntity
   8
LEVEL001
 370
13
 100
AcDbLine
   6
CONTINUOUS
  62
6
  10
 5463.7078651685
  20
 1865.1685393258
  30
0.0
  11
 8103.7078651685
  21
 1865.1685393258
  31
0.0
   0
LINE
   5
188
 100
AcDbEntity
   8
LEVEL001
 370
13
 100
AcDbLine
   6
CONTINUOUS
  62
6
  10
 5463.7078651685
  20
 1985.1685393258
  30
0.0
  11
 8103.7078651685
  21
 1985.1685393258
  31
0.0
   0
MTEXT
   5
189
 100
AcDbEntity
   8
LEVEL001
 370
13
  62
1
 100
AcDbMText
  10
 5703.7078651685
  20
 2165.1685393258
  30
0.0
  40
 51.428571428572
  41
0.0
  71
4
  72
1
   1
\T1.000000;支柱取付金具
   7
GMM001
  44
 0.79999984000003
   0
MTEXT
   5
18A
 100
AcDbEntity
   8
LEVEL001
 370
13
  62
1
 100
AcDbMText
  10
 5635.7078651685
  20
 2165.1685393258
  30
0.0
  40
 51.428571428572
  41
0.0
  71
6
  72
1
   1
\T1.000000;６
   7
GMM001
  44
 0.79999984000003
   0
MTEXT
   5
18B
 100
AcDbEntity
   8
LEVEL001
 370
13
  62
1
 100
AcDbMText
  10
 6783.7078651685
  20
 2165.1685393258
  30
0.0
  40
 51.428571428572
  41
0.0
  71
4
  72
1
   1
\T1.000000;ＳＳ４００
   7
GMM001
  44
 0.79999984000003
   0
MTEXT
   5
18C
 100
AcDbEntity
   8
LEVEL001
 370
13
  62
1
 100
AcDbMText
  10
 5635.7078651685
  20
 2285.1685393258
  30
0.0
  40
 51.428571428572
  41
0.0
  71
6
  72
1
   1
\T1.000000;５
   7
GMM001
  44
 0.79999984000003
   0
MTEXT
   5
18D
 100
AcDbEntity
   8
LEVEL001
 370
13
  62
1
 100
AcDbMText
  10
 5703.7078651685
  20
 2285.1685393258
  30
0.0
  40
 51.428571428572
  41
0.0
  71
4
  72
1
   1
\T1.000000;裏板取付金具
   7
GMM001
  44
 0.79999984000003
   0
MTEXT
   5
18E
 100
AcDbEntity
   8
LEVEL001
 370
13
  62
1
 100
AcDbMText
  10
 5635.7078651685
  20
 2405.1685393258
  30
0.0
  40
 51.428571428572
  41
0.0
  71
6
  72
1
   1
\T1.000000;４
   7
GMM001
  44
 0.79999984000003
   0
MTEXT
   5
18F
 100
AcDbEntity
   8
LEVEL001
 370
13
  62
1
 100
AcDbMText
  10
 5703.7078651685
  20
 2405.1685393258
  30
0.0
  40
 51.428571428572
  41
0.0
  71
4
  72
1
   1
\T1.000000;リング
   7
GMM001
  44
 0.79999984000003
   0
MTEXT
   5
190
 100
AcDbEntity
   8
LEVEL001
 370
13
  62
1
 100
AcDbMText
  10
 5635.7078651685
  20
 2525.1685393258
  30
0.0
  40
 51.428571428572
  41
0.0
  71
6
  72
1
   1
\T1.000000;３
   7
GMM001
  44
 0.79999984000003
   0
MTEXT
   5
191
 100
AcDbEntity
   8
LEVEL001
 370
13
  62
1
 100
AcDbMText
  10
 5703.7078651685
  20
 2525.1685393258
  30
0.0
  40
 51.428571428572
  41
0.0
  71
4
  72
1
   1
\T1.000000;フード
   7
GMM001
  44
 0.79999984000003
   0
MTEXT
   5
192
 100
AcDbEntity
   8
LEVEL001
 370
13
  62
1
 100
AcDbMText
  10
 5635.7078651685
  20
 2645.1685393258
  30
0.0
  40
 51.428571428572
  41
0.0
  71
6
  72
1
   1
\T1.000000;２
   7
GMM001
  44
 0.79999984000003
   0
MTEXT
   5
193
 100
AcDbEntity
   8
LEVEL001
 370
13
  62
1
 100
AcDbMText
  10
 5635.7078651685
  20
 2765.1685393258
  30
0.0
  40
 51.428571428572
  41
0.0
  71
6
  72
1
   1
\T1.000000;１
   7
GMM001
  44
 0.79999984000003
   0
MTEXT
   5
194
 100
AcDbEntity
   8
LEVEL001
 370
13
  62
1
 100
AcDbMText
  10
 5703.7078651685
  20
 2645.1685393258
  30
0.0
  40
 51.428571428572
  41
0.0
  71
4
  72
1
   1
\T1.000000;バックプレート
   7
GMM001
  44
 0.79999984000003
   0
MTEXT
   5
195
 100
AcDbEntity
   8
LEVEL001
 370
13
  62
1
 100
AcDbMText
  10
 6783.7078651685
  20
 2285.1685393258
  30
0.0
  40
 51.428571428572
  41
0.0
  71
4
  72
1
   1
\T1.000000;ＳＳ４００
   7
GMM001
  44
 0.79999984000003
   0
MTEXT
   5
196
 100
AcDbEntity
   8
LEVEL001
 370
13
  62
1
 100
AcDbMText
  10
 6783.7078651685
  20
 2405.1685393258
  30
0.0
  40
 51.428571428572
  41
0.0
  71
4
  72
1
   1
\T1.000000;軟質ＰＶＣ
   7
GMM001
  44
 0.79999984000003
   0
MTEXT
   5
197
 100
AcDbEntity
   8
LEVEL001
 370
13
  62
1
 100
AcDbMText
  10
 6783.7078651685
  20
 2525.1685393258
  30
0.0
  40
 51.428571428572
  41
0.0
  71
4
  72
1
   1
\T1.000000;ＰＣ
   7
GMM001
  44
 0.79999984000003
   0
MTEXT
   5
198
 100
AcDbEntity
   8
LEVEL001
 370
13
  62
1
 100
AcDbMText
  10
 6783.7078651685
  20
 2765.1685393258
  30
0.0
  40
 51.428571428572
  41
0.0
  71
4
  72
1
   1
\T1.000000;ＳＵＳ３０４
   7
GMM001
  44
 0.79999984000003
   0
MTEXT
   5
199
 100
AcDbEntity
   8
LEVEL001
 370
13
  62
1
 100
AcDbMText
  10
 7343.7078651685
  20
 2165.1685393258
  30
0.0
  40
 51.428571428572
  41
0.0
  71
4
  72
1
   1
\T1.000000;溶融亜鉛メッキ
   7
GMM001
  44
 0.79999984000003
   0
MTEXT
   5
19A
 100
AcDbEntity
   8
LEVEL001
 370
13
  62
1
 100
AcDbMText
  10
 7343.7078651685
  20
 2285.1685393258
  30
0.0
  40
 51.428571428572
  41
0.0
  71
4
  72
1
   1
\T1.000000;溶融亜鉛メッキ
   7
GMM001
  44
 0.79999984000003
   0
MTEXT
   5
19B
 100
AcDbEntity
   8
LEVEL001
 370
13
  62
1
 100
AcDbMText
  10
 7343.7078651685
  20
 2525.1685393258
  30
0.0
  40
 51.428571428572
  41
0.0
  71
4
  72
1
   1
\T1.000000;ＵＶグレ－ド
   7
GMM001
  44
 0.79999984000003
   0
LINE
   5
19C
 100
AcDbEntity
   8
LEVEL001
 370
13
 100
AcDbLine
   6
CONTINUOUS
  62
6
  10
 5463.7078651685
  20
 2105.1685393258
  30
0.0
  11
 8103.7078651685
  21
 2105.1685393258
  31
0.0
   0
LINE
   5
19D
 100
AcDbEntity
   8
LEVEL001
 370
13
 100
AcDbLine
   6
CONTINUOUS
  62
6
  10
 5463.7078651685
  20
 2225.1685393258
  30
0.0
  11
 8103.7078651685
  21
 2225.1685393258
  31
0.0
   0
LINE
   5
19E
 100
AcDbEntity
   8
LEVEL001
 370
13
 100
AcDbLine
   6
CONTINUOUS
  62
6
  10
 5463.7078651685
  20
 2585.1685393258
  30
0.0
  11
 8103.7078651685
  21
 2585.1685393258
  31
0.0
   0
LINE
   5
19F
 100
AcDbEntity
   8
LEVEL001
 370
13
 100
AcDbLine
   6
CONTINUOUS
  62
6
  10
 5463.7078651685
  20
 2345.1685393258
  30
0.0
  11
 8103.7078651685
  21
 2345.1685393258
  31
0.0
   0
LINE
   5
1A0
 100
AcDbEntity
   8
LEVEL001
 370
13
 100
AcDbLine
   6
CONTINUOUS
  62
6
  10
 5463.7078651685
  20
 2705.1685393258
  30
0.0
  11
 8103.7078651685
  21
 2705.1685393258
  31
0.0
   0
MTEXT
   5
1A1
 100
AcDbEntity
   8
LEVEL001
 370
13
  62
1
 100
AcDbMText
  10
 6103.7078651685
  20
 2905.1685393258
  30
0.0
  40
 51.428571428572
  41
0.0
  71
5
  72
1
   1
\T1.000000;名　　称
   7
GMM001
  44
 0.79999984000003
   0
MTEXT
   5
1A2
 100
AcDbEntity
   8
LEVEL001
 370
13
  62
1
 100
AcDbMText
  10
 6643.7078651685
  20
 2905.1685393258
  30
0.0
  40
 51.428571428572
  41
0.0
  71
5
  72
1
   1
\T1.000000;個数
   7
GMM001
  44
 0.79999984000003
   0
MTEXT
   5
1A3
 100
AcDbEntity
   8
LEVEL001
 370
13
  62
1
 100
AcDbMText
  10
 7023.7078651685
  20
 2905.1685393258
  30
0.0
  40
 51.428571428572
  41
0.0
  71
5
  72
1
   1
\T1.000000;材　　質
   7
GMM001
  44
 0.79999984000003
   0
MTEXT
   5
1A4
 100
AcDbEntity
   8
LEVEL001
 370
13
  62
1
 100
AcDbMText
  10
 7703.7078651685
  20
 2905.1685393258
  30
0.0
  40
 51.428571428572
  41
0.0
  71
5
  72
1
   1
\T1.000000;規格仕様
   7
GMM001
  44
 0.79999984000003
   0
LINE
   5
1A5
 100
AcDbEntity
   8
LEVEL001
 370
13
 100
AcDbLine
   6
CONTINUOUS
  62
6
  10
 5663.7078651685
  20
 2985.1685393258
  30
0.0
  11
 5663.7078651685
  21
 905.16853932584
  31
0.0
   0
LINE
   5
1A6
 100
AcDbEntity
   8
LEVEL001
 370
13
 100
AcDbLine
   6
CONTINUOUS
  62
6
  10
 6543.7078651685
  20
 2985.1685393258
  30
0.0
  11
 6543.7078651685
  21
 905.16853932584
  31
0.0
   0
LINE
   5
1A7
 100
AcDbEntity
   8
LEVEL001
 370
13
 100
AcDbLine
   6
CONTINUOUS
  62
6
  10
 6743.7078651685
  20
 2985.1685393258
  30
0.0
  11
 6743.7078651685
  21
 905.16853932584
  31
0.0
   0
LINE
   5
1A8
 100
AcDbEntity
   8
LEVEL001
 370
13
 100
AcDbLine
   6
CONTINUOUS
  62
6
  10
 7303.7078651685
  20
 2985.1685393258
  30
0.0
  11
 7303.7078651685
  21
 905.16853932584
  31
0.0
   0
LINE
   5
1A9
 100
AcDbEntity
   8
LEVEL001
 370
13
 100
AcDbLine
   6
CONTINUOUS
  62
2
  10
 5463.7078651685
  20
 3305.1685393258
  30
0.0
  11
 8103.7078651685
  21
 3305.1685393258
  31
0.0
   0
LINE
   5
1AA
 100
AcDbEntity
   8
LEVEL001
 370
13
 100
AcDbLine
   6
CONTINUOUS
  62
2
  10
 5463.7078651685
  20
 905.16853932584
  30
0.0
  11
 5463.7078651685
  21
 3305.1685393258
  31
0.0
   0
LINE
   5
1AB
 100
AcDbEntity
   8
LEVEL001
 370
13
 100
AcDbLine
   6
CONTINUOUS
  62
2
  10
 5463.7078651685
  20
 2985.1685393258
  30
0.0
  11
 8103.7078651685
  21
 2985.1685393258
  31
0.0
   0
LINE
   5
1AC
 100
AcDbEntity
   8
LEVEL001
 370
13
 100
AcDbLine
   6
CONTINUOUS
  62
2
  10
 5463.7078651685
  20
 2825.1685393258
  30
0.0
  11
 8103.7078651685
  21
 2825.1685393258
  31
0.0
   0
CIRCLE
   5
1AD
 100
AcDbEntity
   8
LEVEL001
 370
13
 100
AcDbCircle
   6
DASHDOT
  62
6
  10
 4803.7078651685
  20
 4855.1685393258
  30
0.0
  40
 115.00000000000
   0
ARC
   5
1AE
 100
AcDbEntity
   8
LEVEL001
 370
13
   6
CONTINUOUS
  62
7
 100
AcDbCircle
  10
 5238.7078651685
  20
 4855.1685393258
  30
0.0
  40
 15.000000000000
 100
AcDbArc
  50
0.0
  51
 90.000000000000
   0
ARC
   5
1AF
 100
AcDbEntity
   8
LEVEL001
 370
13
   6
CONTINUOUS
  62
7
 100
AcDbCircle
  10
 5238.7078651685
  20
 4855.1685393258
  30
0.0
  40
 15.000000000000
 100
AcDbArc
  50
 270.00000000000
  51
0.0
   0
ARC
   5
1B0
 100
AcDbEntity
   8
LEVEL001
 370
13
   6
CONTINUOUS
  62
6
 100
AcDbCircle
  10
 5238.7078651685
  20
 4855.1685393258
  30
0.0
  40
 35.000000000000
 100
AcDbArc
  50
0.0
  51
 90.000000000000
   0
ARC
   5
1B1
 100
AcDbEntity
   8
LEVEL001
 370
13
   6
CONTINUOUS
  62
6
 100
AcDbCircle
  10
 5238.7078651685
  20
 4855.1685393258
  30
0.0
  40
 35.000000000000
 100
AcDbArc
  50
 270.00000000000
  51
0.0
   0
ARC
   5
1B2
 100
AcDbEntity
   8
LEVEL001
 370
13
   6
CONTINUOUS
  62
7
 100
AcDbCircle
  10
 5021.2078651685
  20
 5231.8895899720
  30
0.0
  40
 15.000000000000
 100
AcDbArc
  50
 60.000000000021
  51
 149.99999999999
   0
ARC
   5
1B3
 100
AcDbEntity
   8
LEVEL001
 370
13
   6
CONTINUOUS
  62
7
 100
AcDbCircle
  10
 5021.2078651685
  20
 5231.8895899720
  30
0.0
  40
 15.000000000000
 100
AcDbArc
  50
 330.00000000002
  51
 60.000000000021
   0
ARC
   5
1B4
 100
AcDbEntity
   8
LEVEL001
 370
13
   6
CONTINUOUS
  62
6
 100
AcDbCircle
  10
 5021.2078651685
  20
 5231.8895899720
  30
0.0
  40
 35.000000000000
 100
AcDbArc
  50
 60.000000000021
  51
 150.00000000000
   0
ARC
   5
1B5
 100
AcDbEntity
   8
LEVEL001
 370
13
   6
CONTINUOUS
  62
6
 100
AcDbCircle
  10
 5021.2078651685
  20
 5231.8895899720
  30
0.0
  40
 35.000000000000
 100
AcDbArc
  50
 330.00000000000
  51
 60.000000000009
   0
ARC
   5
1B6
 100
AcDbEntity
   8
LEVEL001
 370
13
   6
CONTINUOUS
  62
7
 100
AcDbCircle
  10
 4586.2078651687
  20
 5231.8895899720
  30
0.0
  40
 15.000000000000
 100
AcDbArc
  50
 119.99999999998
  51
 209.99999999998
   0
ARC
   5
1B7
 100
AcDbEntity
   8
LEVEL001
 370
13
   6
CONTINUOUS
  62
7
 100
AcDbCircle
  10
 4586.2078651687
  20
 5231.8895899720
  30
0.0
  40
 15.000000000000
 100
AcDbArc
  50
 30.000000000007
  51
 119.99999999998
   0
ARC
   5
1B8
 100
AcDbEntity
   8
LEVEL001
 370
13
   6
CONTINUOUS
  62
6
 100
AcDbCircle
  10
 4586.2078651687
  20
 5231.8895899720
  30
0.0
  40
 35.000000000000
 100
AcDbArc
  50
 119.99999999998
  51
 210.00000000000
   0
ARC
   5
1B9
 100
AcDbEntity
   8
LEVEL001
 370
13
   6
CONTINUOUS
  62
6
 100
AcDbCircle
  10
 4586.2078651687
  20
 5231.8895899720
  30
0.0
  40
 35.000000000000
 100
AcDbArc
  50
 30.000000000003
  51
 119.99999999998
   0
ARC
   5
1BA
 100
AcDbEntity
   8
LEVEL001
 370
13
   6
CONTINUOUS
  62
7
 100
AcDbCircle
  10
 4586.2078651685
  20
 4478.4474886798
  30
0.0
  40
 15.000000000000
 100
AcDbArc
  50
 239.99999999999
  51
 330.00000000002
   0
ARC
   5
1BB
 100
AcDbEntity
   8
LEVEL001
 370
13
   6
CONTINUOUS
  62
7
 100
AcDbCircle
  10
 4586.2078651685
  20
 4478.4474886798
  30
0.0
  40
 15.000000000000
 100
AcDbArc
  50
 150.00000000004
  51
 239.99999999999
   0
ARC
   5
1BC
 100
AcDbEntity
   8
LEVEL001
 370
13
   6
CONTINUOUS
  62
6
 100
AcDbCircle
  10
 4586.2078651685
  20
 4478.4474886798
  30
0.0
  40
 35.000000000000
 100
AcDbArc
  50
 240.00000000001
  51
 330.00000000000
   0
ARC
   5
1BD
 100
AcDbEntity
   8
LEVEL001
 370
13
   6
CONTINUOUS
  62
6
 100
AcDbCircle
  10
 4586.2078651685
  20
 4478.4474886798
  30
0.0
  40
 35.000000000000
 100
AcDbArc
  50
 150.00000000000
  51
 240.00000000001
   0
ARC
   5
1BE
 100
AcDbEntity
   8
LEVEL001
 370
13
   6
CONTINUOUS
  62
7
 100
AcDbCircle
  10
 5021.2078651685
  20
 4478.4474886798
  30
0.0
  40
 15.000000000000
 100
AcDbArc
  50
 300.00000000001
  51
 29.999999999931
   0
ARC
   5
1BF
 100
AcDbEntity
   8
LEVEL001
 370
13
   6
CONTINUOUS
  62
7
 100
AcDbCircle
  10
 5021.2078651685
  20
 4478.4474886798
  30
0.0
  40
 15.000000000000
 100
AcDbArc
  50
 210.00000000005
  51
 300.00000000001
   0
ARC
   5
1C0
 100
AcDbEntity
   8
LEVEL001
 370
13
   6
CONTINUOUS
  62
6
 100
AcDbCircle
  10
 5021.2078651685
  20
 4478.4474886798
  30
0.0
  40
 35.000000000000
 100
AcDbArc
  50
 299.99999999999
  51
 30.000000000003
   0
ARC
   5
1C1
 100
AcDbEntity
   8
LEVEL001
 370
13
   6
CONTINUOUS
  62
6
 100
AcDbCircle
  10
 5021.2078651685
  20
 4478.4474886798
  30
0.0
  40
 35.000000000000
 100
AcDbArc
  50
 210.00000000000
  51
 299.99999999999
   0
ARC
   5
1C2
 100
AcDbEntity
   8
LEVEL001
 370
13
   6
CONTINUOUS
  62
7
 100
AcDbCircle
  10
 5057.0202957757
  20
 5001.4185393260
  30
0.0
  40
 14.999999999942
 100
AcDbArc
  50
 29.999999999994
  51
 120.00000000002
   0
ARC
   5
1C3
 100
AcDbEntity
   8
LEVEL001
 370
13
   6
CONTINUOUS
  62
7
 100
AcDbCircle
  10
 5057.0202957757
  20
 5001.4185393258
  30
0.0
  40
 14.999999999942
 100
AcDbArc
  50
 299.99999999999
  51
 29.999999999994
   0
ARC
   5
1C4
 100
AcDbEntity
   8
LEVEL001
 370
13
   6
CONTINUOUS
  62
6
 100
AcDbCircle
  10
 5057.0202957757
  20
 5001.4185393260
  30
0.0
  40
 35.000000000000
 100
AcDbArc
  50
 30.000000000003
  51
 120.00000000000
   0
ARC
   5
1C5
 100
AcDbEntity
   8
LEVEL001
 370
13
   6
CONTINUOUS
  62
6
 100
AcDbCircle
  10
 5057.0202957757
  20
 5001.4185393258
  30
0.0
  40
 35.000000000000
 100
AcDbArc
  50
 300.00000000000
  51
 30.000000000003
   0
ARC
   5
1C6
 100
AcDbEntity
   8
LEVEL001
 370
13
   6
CONTINUOUS
  62
7
 100
AcDbCircle
  10
 4803.7078651687
  20
 5147.6685393260
  30
0.0
  40
 14.999999999942
 100
AcDbArc
  50
 90.000000000000
  51
 180.00000000000
   0
ARC
   5
1C7
 100
AcDbEntity
   8
LEVEL001
 370
13
   6
CONTINUOUS
  62
7
 100
AcDbCircle
  10
 4803.7078651687
  20
 5147.6685393260
  30
0.0
  40
 14.999999999942
 100
AcDbArc
  50
0.0
  51
 90.000000000000
   0
ARC
   5
1C8
 100
AcDbEntity
   8
LEVEL001
 370
13
   6
CONTINUOUS
  62
6
 100
AcDbCircle
  10
 4803.7078651687
  20
 5147.6685393260
  30
0.0
  40
 35.000000000000
 100
AcDbArc
  50
 90.000000000000
  51
 180.00000000000
   0
ARC
   5
1C9
 100
AcDbEntity
   8
LEVEL001
 370
13
   6
CONTINUOUS
  62
6
 100
AcDbCircle
  10
 4803.7078651687
  20
 5147.6685393260
  30
0.0
  40
 35.000000000000
 100
AcDbArc
  50
0.0
  51
 90.000000000000
   0
ARC
   5
1CA
 100
AcDbEntity
   8
LEVEL001
 370
13
   6
CONTINUOUS
  62
7
 100
AcDbCircle
  10
 4550.3954345617
  20
 5001.4185393260
  30
0.0
  40
 14.999999999942
 100
AcDbArc
  50
 150.00000000003
  51
 240.00000000005
   0
ARC
   5
1CB
 100
AcDbEntity
   8
LEVEL001
 370
13
   6
CONTINUOUS
  62
7
 100
AcDbCircle
  10
 4550.3954345617
  20
 5001.4185393263
  30
0.0
  40
 14.999999999942
 100
AcDbArc
  50
 59.999999999930
  51
 150.00000000003
   0
ARC
   5
1CC
 100
AcDbEntity
   8
LEVEL001
 370
13
   6
CONTINUOUS
  62
6
 100
AcDbCircle
  10
 4550.3954345617
  20
 5001.4185393260
  30
0.0
  40
 35.000000000000
 100
AcDbArc
  50
 150.00000000000
  51
 240.00000000000
   0
ARC
   5
1CD
 100
AcDbEntity
   8
LEVEL001
 370
13
   6
CONTINUOUS
  62
6
 100
AcDbCircle
  10
 4550.3954345617
  20
 5001.4185393263
  30
0.0
  40
 35.000000000000
 100
AcDbArc
  50
 59.999999999965
  51
 150.00000000000
   0
ARC
   5
1CE
 100
AcDbEntity
   8
LEVEL001
 370
13
   6
CONTINUOUS
  62
7
 100
AcDbCircle
  10
 4550.3954345615
  20
 4708.9185393260
  30
0.0
  40
 14.999999999942
 100
AcDbArc
  50
 210.00000000004
  51
 299.99999999999
   0
ARC
   5
1CF
 100
AcDbEntity
   8
LEVEL001
 370
13
   6
CONTINUOUS
  62
7
 100
AcDbCircle
  10
 4550.3954345615
  20
 4708.9185393260
  30
0.0
  40
 14.999999999942
 100
AcDbArc
  50
 120.00000000002
  51
 210.00000000004
   0
ARC
   5
1D0
 100
AcDbEntity
   8
LEVEL001
 370
13
   6
CONTINUOUS
  62
6
 100
AcDbCircle
  10
 4550.3954345615
  20
 4708.9185393260
  30
0.0
  40
 35.000000000000
 100
AcDbArc
  50
 210.00000000000
  51
 300.00000000000
   0
ARC
   5
1D1
 100
AcDbEntity
   8
LEVEL001
 370
13
   6
CONTINUOUS
  62
6
 100
AcDbCircle
  10
 4550.3954345615
  20
 4708.9185393260
  30
0.0
  40
 35.000000000000
 100
AcDbArc
  50
 120.00000000000
  51
 210.00000000000
   0
ARC
   5
1D2
 100
AcDbEntity
   8
LEVEL001
 370
13
   6
CONTINUOUS
  62
7
 100
AcDbCircle
  10
 4803.7078651685
  20
 4562.6685393260
  30
0.0
  40
 14.999999999942
 100
AcDbArc
  50
 270.00000000000
  51
0.0
   0
ARC
   5
1D3
 100
AcDbEntity
   8
LEVEL001
 370
13
   6
CONTINUOUS
  62
7
 100
AcDbCircle
  10
 4803.7078651685
  20
 4562.6685393260
  30
0.0
  40
 14.999999999942
 100
AcDbArc
  50
 180.00000000000
  51
 270.00000000000
   0
ARC
   5
1D4
 100
AcDbEntity
   8
LEVEL001
 370
13
   6
CONTINUOUS
  62
6
 100
AcDbCircle
  10
 4803.7078651685
  20
 4562.6685393260
  30
0.0
  40
 35.000000000000
 100
AcDbArc
  50
 270.00000000000
  51
0.0
   0
ARC
   5
1D5
 100
AcDbEntity
   8
LEVEL001
 370
13
   6
CONTINUOUS
  62
6
 100
AcDbCircle
  10
 4803.7078651685
  20
 4562.6685393260
  30
0.0
  40
 35.000000000000
 100
AcDbArc
  50
 180.00000000000
  51
 270.00000000002
   0
ARC
   5
1D6
 100
AcDbEntity
   8
LEVEL001
 370
13
   6
CONTINUOUS
  62
7
 100
AcDbCircle
  10
 5057.0202957756
  20
 4708.9185393258
  30
0.0
  40
 14.999999999942
 100
AcDbArc
  50
 329.99999999998
  51
 60.000000000006
   0
ARC
   5
1D7
 100
AcDbEntity
   8
LEVEL001
 370
13
   6
CONTINUOUS
  62
7
 100
AcDbCircle
  10
 5057.0202957756
  20
 4708.9185393258
  30
0.0
  40
 14.999999999942
 100
AcDbArc
  50
 239.99999999996
  51
 329.99999999998
   0
ARC
   5
1D8
 100
AcDbEntity
   8
LEVEL001
 370
13
   6
CONTINUOUS
  62
6
 100
AcDbCircle
  10
 5057.0202957756
  20
 4708.9185393258
  30
0.0
  40
 35.000000000000
 100
AcDbArc
  50
 330.00000000000
  51
 59.999999999997
   0
ARC
   5
1D9
 100
AcDbEntity
   8
LEVEL001
 370
13
   6
CONTINUOUS
  62
6
 100
AcDbCircle
  10
 5057.0202957756
  20
 4708.9185393258
  30
0.0
  40
 35.000000000000
 100
AcDbArc
  50
 240.00000000000
  51
 330.00000000000
   0
CIRCLE
   5
1DA
 100
AcDbEntity
   8
LEVEL001
 370
13
 100
AcDbCircle
   6
CONTINUOUS
  62
7
  10
 4803.7078651685
  20
 4855.1685393258
  30
0.0
  40
 532.50000000000
   0
CIRCLE
   5
1DB
 100
AcDbEntity
   8
LEVEL001
 370
13
 100
AcDbCircle
   6
CONTINUOUS
  62
7
  10
 4803.7078651685
  20
 4855.1685393258
  30
0.0
  40
 512.50000000000
   0
CIRCLE
   5
1DC
 100
AcDbEntity
   8
LEVEL001
 370
13
 100
AcDbCircle
   6
CONTINUOUS
  62
7
  10
 4803.7078651685
  20
 4855.1685393258
  30
0.0
  40
 505.00000000000
   0
CIRCLE
   5
1DD
 100
AcDbEntity
   8
LEVEL001
 370
13
 100
AcDbCircle
   6
CONTINUOUS
  62
7
  10
 4803.7078651685
  20
 4855.1685393258
  30
0.0
  40
 510.00000000000
   0
LINE
   5
1DE
 100
AcDbEntity
   8
LEVEL001
 370
13
 100
AcDbLine
   6
DASHDOT
  62
6
  10
 4916.2911676605
  20
 4920.1685393258
  30
0.0
  11
 4890.3104055469
  21
 4905.1685393258
  31
0.0
   0
LINE
   5
1DF
 100
AcDbEntity
   8
LEVEL001
 370
13
 100
AcDbLine
   6
DASHDOT
  62
6
  10
 4691.1245626765
  20
 4920.1685393258
  30
0.0
  11
 4717.1053247900
  21
 4905.1685393258
  31
0.0
   0
LINE
   5
1E0
 100
AcDbEntity
   8
LEVEL001
 370
13
 100
AcDbLine
   6
DASHDOT
  62
6
  10
 4691.1245626765
  20
 4790.1685393258
  30
0.0
  11
 4717.1053247900
  21
 4805.1685393258
  31
0.0
   0
LINE
   5
1E1
 100
AcDbEntity
   8
LEVEL001
 370
13
 100
AcDbLine
   6
DASHDOT
  62
6
  10
 4916.2911676605
  20
 4790.1685393258
  30
0.0
  11
 4890.3104055469
  21
 4805.1685393258
  31
0.0
   0
LINE
   5
1E2
 100
AcDbEntity
   8
LEVEL001
 370
13
 100
AcDbLine
   6
CONTINUOUS
  62
6
  10
 4838.7078651687
  20
 5147.6685393260
  30
0.0
  11
 4838.7078651687
  21
 5041.7710797057
  31
0.0
   0
ARC
   5
1E3
 100
AcDbEntity
   8
LEVEL001
 370
13
   6
CONTINUOUS
  62
6
 100
AcDbCircle
  10
 4853.7078651691
  20
 5041.7710797057
  30
0.0
  40
 15.000000000275
 100
AcDbArc
  50
 180.00000000000
  51
 329.99999999998
   0
LINE
   5
1E4
 100
AcDbEntity
   8
LEVEL001
 370
13
 100
AcDbLine
   6
CONTINUOUS
  62
6
  10
 4866.6982462261
  20
 5034.2710797055
  30
0.0
  11
 4990.8969760361
  21
 5249.3895899720
  31
0.0
   0
LINE
   5
1E5
 100
AcDbEntity
   8
LEVEL001
 370
13
 100
AcDbLine
   6
CONTINUOUS
  62
7
  10
 4818.7078651687
  20
 5147.6685393260
  30
0.0
  11
 4818.7078651687
  21
 5041.7710797057
  31
0.0
   0
ARC
   5
1E6
 100
AcDbEntity
   8
LEVEL001
 370
13
   6
CONTINUOUS
  62
7
 100
AcDbCircle
  10
 4853.7078651691
  20
 5041.7710797057
  30
0.0
  40
 35.000000000332
 100
AcDbArc
  50
 180.00000000000
  51
 330.00000000001
   0
LINE
   5
1E7
 100
AcDbEntity
   8
LEVEL001
 370
13
 100
AcDbLine
   6
CONTINUOUS
  62
7
  10
 4884.0187543017
  20
 5024.2710797057
  30
0.0
  11
 5008.2174841117
  21
 5239.3895899720
  31
0.0
   0
LINE
   5
1E8
 100
AcDbEntity
   8
LEVEL001
 370
13
 100
AcDbLine
   6
CONTINUOUS
  62
6
  10
 4768.7078651687
  20
 5041.7710797055
  30
0.0
  11
 4768.7078651687
  21
 5147.6685393260
  31
0.0
   0
ARC
   5
1E9
 100
AcDbEntity
   8
LEVEL001
 370
13
   6
CONTINUOUS
  62
6
 100
AcDbCircle
  10
 4753.7078651683
  20
 5041.7710797055
  30
0.0
  40
 15.000000000275
 100
AcDbArc
  50
 210.00000000004
  51
0.0
   0
LINE
   5
1EA
 100
AcDbEntity
   8
LEVEL001
 370
13
 100
AcDbLine
   6
CONTINUOUS
  62
6
  10
 4616.5187543011
  20
 5249.3895899720
  30
0.0
  11
 4740.7174841113
  21
 5034.2710797052
  31
0.0
   0
LINE
   5
1EB
 100
AcDbEntity
   8
LEVEL001
 370
13
 100
AcDbLine
   6
CONTINUOUS
  62
6
  10
 4680.0957058463
  20
 4999.2710797057
  30
0.0
  11
 4555.8969760364
  21
 5214.3895899720
  31
0.0
   0
ARC
   5
1EC
 100
AcDbEntity
   8
LEVEL001
 370
13
   6
CONTINUOUS
  62
6
 100
AcDbCircle
  10
 4667.1053247893
  20
 4991.7710797055
  30
0.0
  40
 15.000000000275
 100
AcDbArc
  50
 240.00000000003
  51
 29.999999999968
   0
LINE
   5
1ED
 100
AcDbEntity
   8
LEVEL001
 370
13
 100
AcDbLine
   6
CONTINUOUS
  62
6
  10
 4567.8954345617
  20
 5031.7294284586
  30
0.0
  11
 4659.6053247891
  21
 4978.7806986484
  31
0.0
   0
LINE
   5
1EE
 100
AcDbEntity
   8
LEVEL001
 370
13
 100
AcDbLine
   6
CONTINUOUS
  62
6
  10
 4624.6053247893
  20
 4918.1589203832
  30
0.0
  11
 4532.8954345617
  21
 4971.1076501936
  31
0.0
   0
ARC
   5
1EF
 100
AcDbEntity
   8
LEVEL001
 370
13
   6
CONTINUOUS
  62
6
 100
AcDbCircle
  10
 4617.1053247893
  20
 4905.1685393263
  30
0.0
  40
 15.000000000275
 100
AcDbArc
  50
 270.00000000000
  51
 59.999999999956
   0
LINE
   5
1F0
 100
AcDbEntity
   8
LEVEL001
 370
13
 100
AcDbLine
   6
CONTINUOUS
  62
6
  10
 4368.7078651687
  20
 4890.1685393260
  30
0.0
  11
 4617.1053247893
  21
 4890.1685393260
  31
0.0
   0
LINE
   5
1F1
 100
AcDbEntity
   8
LEVEL001
 370
13
 100
AcDbLine
   6
CONTINUOUS
  62
6
  10
 4617.1053247887
  20
 4820.1685393260
  30
0.0
  11
 4368.7078651687
  21
 4820.1685393260
  31
0.0
   0
ARC
   5
1F2
 100
AcDbEntity
   8
LEVEL001
 370
13
   6
CONTINUOUS
  62
6
 100
AcDbCircle
  10
 4617.1053247887
  20
 4805.1685393256
  30
0.0
  40
 15.000000000275
 100
AcDbArc
  50
 300.00000000000
  51
 90.000000000000
   0
LINE
   5
1F3
 100
AcDbEntity
   8
LEVEL001
 370
13
 100
AcDbLine
   6
CONTINUOUS
  62
6
  10
 4532.8954345615
  20
 4739.2294284586
  30
0.0
  11
 4624.6053247889
  21
 4792.1781582686
  31
0.0
   0
LINE
   5
1F4
 100
AcDbEntity
   8
LEVEL001
 370
13
 100
AcDbLine
   6
CONTINUOUS
  62
6
  10
 4659.6053247891
  20
 4731.5563800038
  30
0.0
  11
 4567.8954345615
  21
 4678.6076501936
  31
0.0
   0
ARC
   5
1F5
 100
AcDbEntity
   8
LEVEL001
 370
13
   6
CONTINUOUS
  62
6
 100
AcDbCircle
  10
 4667.1053247893
  20
 4718.5659989468
  30
0.0
  40
 15.000000000275
 100
AcDbArc
  50
 330.00000000005
  51
 120.00000000002
   0
LINE
   5
1F6
 100
AcDbEntity
   8
LEVEL001
 370
13
 100
AcDbLine
   6
CONTINUOUS
  62
6
  10
 4555.8969760361
  20
 4495.9474886798
  30
0.0
  11
 4680.0957058463
  21
 4711.0659989466
  31
0.0
   0
LINE
   5
1F7
 100
AcDbEntity
   8
LEVEL001
 370
13
 100
AcDbLine
   6
CONTINUOUS
  62
6
  10
 4740.7174841112
  20
 4676.0659989466
  30
0.0
  11
 4616.5187543009
  21
 4460.9474886798
  31
0.0
   0
ARC
   5
1F8
 100
AcDbEntity
   8
LEVEL001
 370
13
   6
CONTINUOUS
  62
6
 100
AcDbCircle
  10
 4753.7078651681
  20
 4668.5659989464
  30
0.0
  40
 15.000000000275
 100
AcDbArc
  50
 0.55584221760201E-10
  51
 149.99999999996
   0
LINE
   5
1F9
 100
AcDbEntity
   8
LEVEL001
 370
13
 100
AcDbLine
   6
CONTINUOUS
  62
6
  10
 4768.7078651685
  20
 4562.6685393260
  30
0.0
  11
 4768.7078651685
  21
 4668.5659989464
  31
0.0
   0
LINE
   5
1FA
 100
AcDbEntity
   8
LEVEL001
 370
13
 100
AcDbLine
   6
CONTINUOUS
  62
6
  10
 4838.7078651685
  20
 4668.5659989462
  30
0.0
  11
 4838.7078651685
  21
 4562.6685393260
  31
0.0
   0
ARC
   5
1FB
 100
AcDbEntity
   8
LEVEL001
 370
13
   6
CONTINUOUS
  62
6
 100
AcDbCircle
  10
 4853.7078651689
  20
 4668.5659989462
  30
0.0
  40
 15.000000000275
 100
AcDbArc
  50
 30.000000000044
  51
 180.00000000000
   0
LINE
   5
1FC
 100
AcDbEntity
   8
LEVEL001
 370
13
 100
AcDbLine
   6
CONTINUOUS
  62
6
  10
 4990.8969760359
  20
 4460.9474886798
  30
0.0
  11
 4866.6982462259
  21
 4676.0659989464
  31
0.0
   0
LINE
   5
1FD
 100
AcDbEntity
   8
LEVEL001
 370
13
 100
AcDbLine
   6
CONTINUOUS
  62
6
  10
 4927.3200244907
  20
 4711.0659989466
  30
0.0
  11
 5051.5187543009
  21
 4495.9474886798
  31
0.0
   0
ARC
   5
1FE
 100
AcDbEntity
   8
LEVEL001
 370
13
   6
CONTINUOUS
  62
6
 100
AcDbCircle
  10
 4940.3104055477
  20
 4718.5659989466
  30
0.0
  40
 15.000000000275
 100
AcDbArc
  50
 60.000000000032
  51
 209.99999999992
   0
LINE
   5
1FF
 100
AcDbEntity
   8
LEVEL001
 370
13
 100
AcDbLine
   6
CONTINUOUS
  62
6
  10
 5039.5202957756
  20
 4678.6076501934
  30
0.0
  11
 4947.8104055479
  21
 4731.5563800036
  31
0.0
   0
LINE
   5
200
 100
AcDbEntity
   8
LEVEL001
 370
13
 100
AcDbLine
   6
CONTINUOUS
  62
6
  10
 4982.8104055481
  20
 4792.1781582686
  30
0.0
  11
 5074.5202957756
  21
 4739.2294284584
  31
0.0
   0
ARC
   5
201
 100
AcDbEntity
   8
LEVEL001
 370
13
   6
CONTINUOUS
  62
6
 100
AcDbCircle
  10
 4990.3104055483
  20
 4805.1685393256
  30
0.0
  40
 15.000000000275
 100
AcDbArc
  50
 90.000000000000
  51
 240.00000000000
   0
LINE
   5
202
 100
AcDbEntity
   8
LEVEL001
 370
13
 100
AcDbLine
   6
CONTINUOUS
  62
6
  10
 5238.7078651685
  20
 4820.1685393258
  30
0.0
  11
 4990.3104055483
  21
 4820.1685393258
  31
0.0
   0
LINE
   5
203
 100
AcDbEntity
   8
LEVEL001
 370
13
 100
AcDbLine
   6
CONTINUOUS
  62
6
  10
 4990.3104055481
  20
 4890.1685393258
  30
0.0
  11
 5238.7078651685
  21
 4890.1685393258
  31
0.0
   0
ARC
   5
204
 100
AcDbEntity
   8
LEVEL001
 370
13
   6
CONTINUOUS
  62
6
 100
AcDbCircle
  10
 4990.3104055481
  20
 4905.1685393260
  30
0.0
  40
 15.000000000275
 100
AcDbArc
  50
 120.00000000004
  51
 270.00000000000
   0
LINE
   5
205
 100
AcDbEntity
   8
LEVEL001
 370
13
 100
AcDbLine
   6
CONTINUOUS
  62
6
  10
 5074.5202957757
  20
 4971.1076501934
  30
0.0
  11
 4982.8104055479
  21
 4918.1589203830
  31
0.0
   0
LINE
   5
206
 100
AcDbEntity
   8
LEVEL001
 370
13
 100
AcDbLine
   6
CONTINUOUS
  62
6
  10
 4947.8104055481
  20
 4978.7806986482
  30
0.0
  11
 5039.5202957757
  21
 5031.7294284584
  31
0.0
   0
ARC
   5
207
 100
AcDbEntity
   8
LEVEL001
 370
13
   6
CONTINUOUS
  62
6
 100
AcDbCircle
  10
 4940.3104055479
  20
 4991.7710797052
  30
0.0
  40
 15.000000000275
 100
AcDbArc
  50
 150.00000000000
  51
 300.00000000002
   0
LINE
   5
208
 100
AcDbEntity
   8
LEVEL001
 370
13
 100
AcDbLine
   6
CONTINUOUS
  62
6
  10
 5051.5187543011
  20
 5214.3895899720
  30
0.0
  11
 4927.3200244909
  21
 4999.2710797052
  31
0.0
   0
LINE
   5
209
 100
AcDbEntity
   8
LEVEL001
 370
13
 100
AcDbLine
   6
CONTINUOUS
  62
7
  10
 5034.1982462253
  20
 5224.3895899720
  30
0.0
  11
 4909.9995164143
  21
 5009.2710797036
  31
0.0
   0
ARC
   5
20A
 100
AcDbEntity
   8
LEVEL001
 370
13
   6
CONTINUOUS
  62
7
 100
AcDbCircle
  10
 4940.3104055465
  20
 4991.7710797039
  30
0.0
  40
 34.999999999784
 100
AcDbArc
  50
 150.00000000000
  51
 299.99999999998
   0
LINE
   5
20B
 100
AcDbEntity
   8
LEVEL001
 370
13
 100
AcDbLine
   6
CONTINUOUS
  62
7
  10
 4957.8104055463
  20
 4961.4601905714
  30
0.0
  11
 5049.5202957757
  21
 5014.4089203826
  31
0.0
   0
LINE
   5
20C
 100
AcDbEntity
   8
LEVEL001
 370
13
 100
AcDbLine
   6
CONTINUOUS
  62
7
  10
 5064.5202957757
  20
 4988.4281582692
  30
0.0
  11
 4972.8104055463
  21
 4935.4794284578
  31
0.0
   0
ARC
   5
20D
 100
AcDbEntity
   8
LEVEL001
 370
13
   6
CONTINUOUS
  62
7
 100
AcDbCircle
  10
 4990.3104055461
  20
 4905.1685393256
  30
0.0
  40
 34.999999999784
 100
AcDbArc
  50
 119.99999999998
  51
 270.00000000000
   0
LINE
   5
20E
 100
AcDbEntity
   8
LEVEL001
 370
13
 100
AcDbLine
   6
CONTINUOUS
  62
7
  10
 4990.3104055461
  20
 4870.1685393258
  30
0.0
  11
 5238.7078651685
  21
 4870.1685393258
  31
0.0
   0
LINE
   5
20F
 100
AcDbEntity
   8
LEVEL001
 370
13
 100
AcDbLine
   6
CONTINUOUS
  62
7
  10
 5238.7078651685
  20
 4840.1685393258
  30
0.0
  11
 4990.3104055463
  21
 4840.1685393258
  31
0.0
   0
ARC
   5
210
 100
AcDbEntity
   8
LEVEL001
 370
13
   6
CONTINUOUS
  62
7
 100
AcDbCircle
  10
 4990.3104055463
  20
 4805.1685393260
  30
0.0
  40
 34.999999999784
 100
AcDbArc
  50
 90.000000000000
  51
 240.00000000000
   0
LINE
   5
211
 100
AcDbEntity
   8
LEVEL001
 370
13
 100
AcDbLine
   6
CONTINUOUS
  62
7
  10
 4972.8104055465
  20
 4774.8576501938
  30
0.0
  11
 5064.5202957756
  21
 4721.9089203826
  31
0.0
   0
LINE
   5
212
 100
AcDbEntity
   8
LEVEL001
 370
13
 100
AcDbLine
   6
CONTINUOUS
  62
7
  10
 5049.5202957756
  20
 4695.9281582690
  30
0.0
  11
 4957.8104055461
  21
 4748.8768880804
  31
0.0
   0
ARC
   5
213
 100
AcDbEntity
   8
LEVEL001
 370
13
   6
CONTINUOUS
  62
7
 100
AcDbCircle
  10
 4940.3104055463
  20
 4718.5659989480
  30
0.0
  40
 34.999999999784
 100
AcDbArc
  50
 60.000000000007
  51
 209.99999999996
   0
LINE
   5
214
 100
AcDbEntity
   8
LEVEL001
 370
13
 100
AcDbLine
   6
CONTINUOUS
  62
7
  10
 4909.9995164139
  20
 4701.0659989482
  30
0.0
  11
 5034.1982462251
  21
 4485.9474886798
  31
0.0
   0
LINE
   5
215
 100
AcDbEntity
   8
LEVEL001
 370
13
 100
AcDbLine
   6
CONTINUOUS
  62
7
  10
 5008.2174841117
  20
 4470.9474886798
  30
0.0
  11
 4884.0187543005
  21
 4686.0659989480
  31
0.0
   0
ARC
   5
216
 100
AcDbEntity
   8
LEVEL001
 370
13
   6
CONTINUOUS
  62
7
 100
AcDbCircle
  10
 4853.7078651683
  20
 4668.5659989482
  30
0.0
  40
 34.999999999784
 100
AcDbArc
  50
 30.000000000001
  51
 180.00000000000
   0
LINE
   5
217
 100
AcDbEntity
   8
LEVEL001
 370
13
 100
AcDbLine
   6
CONTINUOUS
  62
7
  10
 4818.7078651685
  20
 4668.5659989482
  30
0.0
  11
 4818.7078651685
  21
 4562.6685393260
  31
0.0
   0
LINE
   5
218
 100
AcDbEntity
   8
LEVEL001
 370
13
 100
AcDbLine
   6
CONTINUOUS
  62
7
  10
 4788.7078651685
  20
 4562.6685393260
  30
0.0
  11
 4788.7078651685
  21
 4668.5659989484
  31
0.0
   0
ARC
   5
219
 100
AcDbEntity
   8
LEVEL001
 370
13
   6
CONTINUOUS
  62
7
 100
AcDbCircle
  10
 4753.7078651687
  20
 4668.5659989484
  30
0.0
  40
 34.999999999784
 100
AcDbArc
  50
0.0
  51
 150.00000000000
   0
LINE
   5
21A
 100
AcDbEntity
   8
LEVEL001
 370
13
 100
AcDbLine
   6
CONTINUOUS
  62
7
  10
 4723.3969760365
  20
 4686.0659989482
  30
0.0
  11
 4599.1982462253
  21
 4470.9474886798
  31
0.0
   0
LINE
   5
21B
 100
AcDbEntity
   8
LEVEL001
 370
13
 100
AcDbLine
   6
CONTINUOUS
  62
7
  10
 4573.2174841117
  20
 4485.9474886798
  30
0.0
  11
 4697.4162139229
  21
 4701.0659989484
  31
0.0
   0
ARC
   5
21C
 100
AcDbEntity
   8
LEVEL001
 370
13
   6
CONTINUOUS
  62
7
 100
AcDbCircle
  10
 4667.1053247907
  20
 4718.5659989482
  30
0.0
  40
 34.999999999784
 100
AcDbArc
  50
 330.00000000002
  51
 119.99999999998
   0
LINE
   5
21D
 100
AcDbEntity
   8
LEVEL001
 370
13
 100
AcDbLine
   6
CONTINUOUS
  62
7
  10
 4649.6053247909
  20
 4748.8768880807
  30
0.0
  11
 4557.8954345615
  21
 4695.9281582692
  31
0.0
   0
LINE
   5
21E
 100
AcDbEntity
   8
LEVEL001
 370
13
 100
AcDbLine
   6
CONTINUOUS
  62
7
  10
 4542.8954345615
  20
 4721.9089203829
  30
0.0
  11
 4634.6053247907
  21
 4774.8576501940
  31
0.0
   0
ARC
   5
21F
 100
AcDbEntity
   8
LEVEL001
 370
13
   6
CONTINUOUS
  62
7
 100
AcDbCircle
  10
 4617.1053247907
  20
 4805.1685393263
  30
0.0
  40
 34.999999999784
 100
AcDbArc
  50
 300.00000000000
  51
 90.000000000000
   0
LINE
   5
220
 100
AcDbEntity
   8
LEVEL001
 370
13
 100
AcDbLine
   6
CONTINUOUS
  62
7
  10
 4617.1053247907
  20
 4840.1685393260
  30
0.0
  11
 4368.7078651687
  21
 4840.1685393260
  31
0.0
   0
LINE
   5
221
 100
AcDbEntity
   8
LEVEL001
 370
13
 100
AcDbLine
   6
CONTINUOUS
  62
7
  10
 4368.7078651687
  20
 4870.1685393260
  30
0.0
  11
 4617.1053247913
  21
 4870.1685393260
  31
0.0
   0
ARC
   5
222
 100
AcDbEntity
   8
LEVEL001
 370
13
   6
CONTINUOUS
  62
7
 100
AcDbCircle
  10
 4617.1053247913
  20
 4905.1685393258
  30
0.0
  40
 34.999999999784
 100
AcDbArc
  50
 270.00000000000
  51
 60.000000000007
   0
LINE
   5
223
 100
AcDbEntity
   8
LEVEL001
 370
13
 100
AcDbLine
   6
CONTINUOUS
  62
7
  10
 4634.6053247911
  20
 4935.4794284580
  30
0.0
  11
 4542.8954345617
  21
 4988.4281582694
  31
0.0
   0
LINE
   5
224
 100
AcDbEntity
   8
LEVEL001
 370
13
 100
AcDbLine
   6
CONTINUOUS
  62
7
  10
 4557.8954345617
  20
 5014.4089203829
  30
0.0
  11
 4649.6053247907
  21
 4961.4601905718
  31
0.0
   0
ARC
   5
225
 100
AcDbEntity
   8
LEVEL001
 370
13
   6
CONTINUOUS
  62
7
 100
AcDbCircle
  10
 4667.1053247907
  20
 4991.7710797041
  30
0.0
  40
 34.999999999784
 100
AcDbArc
  50
 240.00000000002
  51
 29.999999999993
   0
LINE
   5
226
 100
AcDbEntity
   8
LEVEL001
 370
13
 100
AcDbLine
   6
CONTINUOUS
  62
7
  10
 4697.4162139229
  20
 5009.2710797041
  30
0.0
  11
 4573.2174841119
  21
 5224.3895899720
  31
0.0
   0
LINE
   5
227
 100
AcDbEntity
   8
LEVEL001
 370
13
 100
AcDbLine
   6
CONTINUOUS
  62
7
  10
 4599.1982462255
  20
 5239.3895899720
  30
0.0
  11
 4723.3969760367
  21
 5024.2710797036
  31
0.0
   0
ARC
   5
228
 100
AcDbEntity
   8
LEVEL001
 370
13
   6
CONTINUOUS
  62
7
 100
AcDbCircle
  10
 4753.7078651689
  20
 5041.7710797035
  30
0.0
  40
 34.999999999784
 100
AcDbArc
  50
 210.00000000000
  51
0.0
   0
LINE
   5
229
 100
AcDbEntity
   8
LEVEL001
 370
13
 100
AcDbLine
   6
CONTINUOUS
  62
7
  10
 4788.7078651687
  20
 5041.7710797035
  30
0.0
  11
 4788.7078651687
  21
 5147.6685393260
  31
0.0
   0
ARC
   5
22A
 100
AcDbEntity
   8
LEVEL001
 370
13
   6
CONTINUOUS
  62
7
 100
AcDbCircle
  10
 4368.7078651687
  20
 4855.1685393260
  30
0.0
  40
 15.000000000000
 100
AcDbArc
  50
 180.00000000000
  51
 270.00000000000
   0
ARC
   5
22B
 100
AcDbEntity
   8
LEVEL001
 370
13
   6
CONTINUOUS
  62
7
 100
AcDbCircle
  10
 4368.7078651687
  20
 4855.1685393260
  30
0.0
  40
 15.000000000000
 100
AcDbArc
  50
 90.000000000000
  51
 180.00000000000
   0
ARC
   5
22C
 100
AcDbEntity
   8
LEVEL001
 370
13
   6
CONTINUOUS
  62
6
 100
AcDbCircle
  10
 4368.7078651687
  20
 4855.1685393260
  30
0.0
  40
 35.000000000000
 100
AcDbArc
  50
 180.00000000000
  51
 270.00000000000
   0
ARC
   5
22D
 100
AcDbEntity
   8
LEVEL001
 370
13
   6
CONTINUOUS
  62
6
 100
AcDbCircle
  10
 4368.7078651687
  20
 4855.1685393260
  30
0.0
  40
 35.000000000000
 100
AcDbArc
  50
 90.000000000000
  51
 180.00000000000
   0
LINE
   5
22E
 100
AcDbEntity
   8
LEVEL001
 370
13
 100
AcDbLine
   6
DASHDOT
  62
6
  10
 5378.7078651685
  20
 4855.1685393258
  30
0.0
  11
 4228.7078651685
  21
 4855.1685393258
  31
0.0
   0
LINE
   5
22F
 100
AcDbEntity
   8
LEVEL001
 370
13
 100
AcDbLine
   6
DASHDOT
  62
6
  10
 4803.7078651685
  20
 5430.1685393258
  30
0.0
  11
 4803.7078651685
  21
 4280.1685393258
  31
0.0
   0
CIRCLE
   5
230
 100
AcDbEntity
   8
LEVEL001
 370
13
 100
AcDbCircle
   6
CONTINUOUS
  62
3
  10
 4803.7078651685
  20
 4970.1685393258
  30
0.0
  40
 7.0000000000000
   0
CIRCLE
   5
231
 100
AcDbEntity
   8
LEVEL001
 370
13
 100
AcDbCircle
   6
CONTINUOUS
  62
3
  10
 4704.1149437333
  20
 4912.6685393258
  30
0.0
  40
 7.0000000000000
   0
CIRCLE
   5
232
 100
AcDbEntity
   8
LEVEL001
 370
13
 100
AcDbCircle
   6
CONTINUOUS
  62
3
  10
 4704.1149437333
  20
 4797.6685393258
  30
0.0
  40
 7.0000000000000
   0
CIRCLE
   5
233
 100
AcDbEntity
   8
LEVEL001
 370
13
 100
AcDbCircle
   6
CONTINUOUS
  62
3
  10
 4803.7078651685
  20
 4740.1685393258
  30
0.0
  40
 7.0000000000000
   0
CIRCLE
   5
234
 100
AcDbEntity
   8
LEVEL001
 370
13
 100
AcDbCircle
   6
CONTINUOUS
  62
3
  10
 4903.3007866037
  20
 4797.6685393258
  30
0.0
  40
 7.0000000000000
   0
CIRCLE
   5
235
 100
AcDbEntity
   8
LEVEL001
 370
13
 100
AcDbCircle
   6
CONTINUOUS
  62
3
  10
 4903.3007866037
  20
 4912.6685393258
  30
0.0
  40
 7.0000000000000
   0
CIRCLE
   5
236
 100
AcDbEntity
   8
LEVEL001
 370
13
 100
AcDbCircle
   6
CONTINUOUS
  62
1
  10
 4403.7078651685
  20
 4355.1685393258
  30
0.0
  40
 69.999997913838
   0
MTEXT
   5
237
 100
AcDbEntity
   8
LEVEL001
 370
13
  62
1
 100
AcDbMText
  10
 4403.7078651685
  20
 4355.1685393258
  30
0.0
  40
 57.142857142858
  41
0.0
  71
5
  72
1
   1
\T1.000000;2
   7
GMM001
  44
 0.79999984000003
   0
LEADER
   5
238
 100
AcDbEntity
   8
LEVEL001
 370
13
   6
CONTINUOUS
  62
1
 100
AcDbLeader
   3
GMM001
  73
3
  74
1
  75
0
  40
 66.000000000000
  41
0.0
  76
2
  10
 4552.8386871985
  20
 4543.3816034794
  30
0.0
  10
 4447.1769175351
  20
 4410.0360269144
  30
0.0
  77
1
   0
CIRCLE
   5
239
 100
AcDbEntity
   8
LEVEL001
 370
13
 100
AcDbCircle
   6
CONTINUOUS
  62
1
  10
 1753.7078651685
  20
 3822.6685393258
  30
0.0
  40
 70.000000000000
   0
LEADER
   5
23A
 100
AcDbEntity
   8
LEVEL001
 370
13
   6
CONTINUOUS
  62
1
 100
AcDbLeader
   3
GMM002
  73
3
  74
1
  75
0
  40
 60.000000000000
  41
0.0
  76
2
  10
 1593.7075580574
  20
 3982.6688464375
  30
0.0
  10
 1704.2103904858
  20
 3872.1660140090
  30
0.0
  77
1
   0
MTEXT
   5
23B
 100
AcDbEntity
   8
LEVEL001
 370
13
  62
1
 100
AcDbMText
  10
 5703.7078651685
  20
 2765.1685393258
  30
0.0
  40
 51.428571428572
  41
0.0
  71
4
  72
1
   1
\T1.000000;鏡面　Ｒ＝３６００
   7
GMM001
  44
 0.79999984000003
   0
MTEXT
   5
23C
 100
AcDbEntity
   8
LEVEL001
 370
13
  62
1
 100
AcDbMText
  10
 7343.7078651685
  20
 2765.1685393258
  30
0.0
  40
 51.428571428572
  41
0.0
  71
4
  72
1
   1
\T1.000000;t=1.0mm\T1.000000;・表面研磨
   7
GMM001
  44
 0.79999984000003
   0
LINE
   5
23D
 100
AcDbEntity
   8
LEVEL001
 370
13
 100
AcDbLine
   6
CONTINUOUS
  62
7
  10
 5043.7078651685
  20
 4860.1685393258
  30
0.0
  11
 4968.2526918877
  21
 4860.1685393258
  31
0.0
   0
ARC
   5
23E
 100
AcDbEntity
   8
LEVEL001
 370
13
   6
CONTINUOUS
  62
7
 100
AcDbCircle
  10
 5043.7078651685
  20
 4855.1685393258
  30
0.0
  40
 5.0000000000000
 100
AcDbArc
  50
 270.00000000000
  51
 90.000000000000
   0
LINE
   5
23F
 100
AcDbEntity
   8
LEVEL001
 370
13
 100
AcDbLine
   6
CONTINUOUS
  62
7
  10
 4968.2526918877
  20
 4850.1685393258
  30
0.0
  11
 5043.7078651685
  21
 4850.1685393258
  31
0.0
   0
ARC
   5
240
 100
AcDbEntity
   8
LEVEL001
 370
13
   6
CONTINUOUS
  62
7
 100
AcDbCircle
  10
 4968.2526918877
  20
 4950.1685393258
  30
0.0
  40
 90.000000000000
 100
AcDbArc
  50
 150.00000000000
  51
 270.00000000000
   0
ARC
   5
241
 100
AcDbEntity
   8
LEVEL001
 370
13
   6
CONTINUOUS
  62
7
 100
AcDbCircle
  10
 4968.2526918877
  20
 4760.1685393258
  30
0.0
  40
 90.000000000000
 100
AcDbArc
  50
 90.000000000000
  51
 210.00000000000
   0
ARC
   5
242
 100
AcDbEntity
   8
LEVEL001
 370
13
   6
CONTINUOUS
  62
7
 100
AcDbCircle
  10
 4803.7078651687
  20
 5045.1685393258
  30
0.0
  40
 90.000000000000
 100
AcDbArc
  50
 210.00000000000
  51
 330.00000000000
   0
ARC
   5
243
 100
AcDbEntity
   8
LEVEL001
 370
13
   6
CONTINUOUS
  62
7
 100
AcDbCircle
  10
 4639.1630384497
  20
 4950.1685393258
  30
0.0
  40
 90.000000000000
 100
AcDbArc
  50
 270.00000000000
  51
 29.999999999998
   0
ARC
   5
244
 100
AcDbEntity
   8
LEVEL001
 370
13
   6
CONTINUOUS
  62
7
 100
AcDbCircle
  10
 4639.1630384495
  20
 4760.1685393258
  30
0.0
  40
 90.000000000000
 100
AcDbArc
  50
 330.00000000000
  51
 90.000000000000
   0
ARC
   5
245
 100
AcDbEntity
   8
LEVEL001
 370
13
   6
CONTINUOUS
  62
7
 100
AcDbCircle
  10
 4803.7078651687
  20
 4665.1685393258
  30
0.0
  40
 90.000000000000
 100
AcDbArc
  50
 30.000000000002
  51
 150.00000000000
   0
LINE
   5
246
 100
AcDbEntity
   8
LEVEL001
 370
13
 100
AcDbLine
   6
CONTINUOUS
  62
7
  10
 4919.3777381495
  20
 5065.5146362340
  30
0.0
  11
 4881.6501515091
  21
 5000.1685393260
  31
0.0
   0
ARC
   5
247
 100
AcDbEntity
   8
LEVEL001
 370
13
   6
CONTINUOUS
  62
7
 100
AcDbCircle
  10
 4923.7078651685
  20
 5063.0146362340
  30
0.0
  40
 5.0000000000000
 100
AcDbArc
  50
 330.00000000002
  51
 150.00000000002
   0
LINE
   5
248
 100
AcDbEntity
   8
LEVEL001
 370
13
 100
AcDbLine
   6
CONTINUOUS
  62
7
  10
 4890.3104055471
  20
 4995.1685393260
  30
0.0
  11
 4928.0379921874
  21
 5060.5146362340
  31
0.0
   0
LINE
   5
249
 100
AcDbEntity
   8
LEVEL001
 370
13
 100
AcDbLine
   6
CONTINUOUS
  62
7
  10
 4679.3777381495
  20
 5060.5146362340
  30
0.0
  11
 4717.1053247900
  21
 4995.1685393260
  31
0.0
   0
ARC
   5
24A
 100
AcDbEntity
   8
LEVEL001
 370
13
   6
CONTINUOUS
  62
7
 100
AcDbCircle
  10
 4683.7078651685
  20
 5063.0146362340
  30
0.0
  40
 5.0000000000000
 100
AcDbArc
  50
 29.999999999979
  51
 209.99999999998
   0
LINE
   5
24B
 100
AcDbEntity
   8
LEVEL001
 370
13
 100
AcDbLine
   6
CONTINUOUS
  62
7
  10
 4725.7655788277
  20
 5000.1685393260
  30
0.0
  11
 4688.0379921874
  21
 5065.5146362340
  31
0.0
   0
LINE
   5
24C
 100
AcDbEntity
   8
LEVEL001
 370
13
 100
AcDbLine
   6
CONTINUOUS
  62
7
  10
 4563.7078651685
  20
 4850.1685393258
  30
0.0
  11
 4639.1630384493
  21
 4850.1685393258
  31
0.0
   0
ARC
   5
24D
 100
AcDbEntity
   8
LEVEL001
 370
13
   6
CONTINUOUS
  62
7
 100
AcDbCircle
  10
 4563.7078651685
  20
 4855.1685393258
  30
0.0
  40
 5.0000000000000
 100
AcDbArc
  50
 90.000000000000
  51
 270.00000000000
   0
LINE
   5
24E
 100
AcDbEntity
   8
LEVEL001
 370
13
 100
AcDbLine
   6
CONTINUOUS
  62
7
  10
 4639.1630384491
  20
 4860.1685393258
  30
0.0
  11
 4563.7078651685
  21
 4860.1685393258
  31
0.0
   0
LINE
   5
24F
 100
AcDbEntity
   8
LEVEL001
 370
13
 100
AcDbLine
   6
CONTINUOUS
  62
7
  10
 4688.0379921874
  20
 4644.8224424176
  30
0.0
  11
 4725.7655788277
  21
 4710.1685393256
  31
0.0
   0
ARC
   5
250
 100
AcDbEntity
   8
LEVEL001
 370
13
   6
CONTINUOUS
  62
7
 100
AcDbCircle
  10
 4683.7078651685
  20
 4647.3224424176
  30
0.0
  40
 5.0000000000000
 100
AcDbArc
  50
 150.00000000002
  51
 330.00000000002
   0
LINE
   5
251
 100
AcDbEntity
   8
LEVEL001
 370
13
 100
AcDbLine
   6
CONTINUOUS
  62
7
  10
 4717.1053247900
  20
 4715.1685393256
  30
0.0
  11
 4679.3777381495
  21
 4649.8224424176
  31
0.0
   0
LINE
   5
252
 100
AcDbEntity
   8
LEVEL001
 370
13
 100
AcDbLine
   6
CONTINUOUS
  62
7
  10
 4928.0379921874
  20
 4649.8224424176
  30
0.0
  11
 4890.3104055469
  21
 4715.1685393256
  31
0.0
   0
ARC
   5
253
 100
AcDbEntity
   8
LEVEL001
 370
13
   6
CONTINUOUS
  62
7
 100
AcDbCircle
  10
 4923.7078651685
  20
 4647.3224424176
  30
0.0
  40
 5.0000000000000
 100
AcDbArc
  50
 209.99999999998
  51
 29.999999999979
   0
LINE
   5
254
 100
AcDbEntity
   8
LEVEL001
 370
13
 100
AcDbLine
   6
CONTINUOUS
  62
7
  10
 4881.6501515091
  20
 4710.1685393256
  30
0.0
  11
 4919.3777381495
  21
 4644.8224424176
  31
0.0
   0
MTEXT
   5
256
 100
AcDbEntity
   8
LEVEL001
 370
13
  62
1
 100
AcDbMText
  10
 1124.3564703780
  20
 1831.3984763661
  30
0.0
  40
 40.000000000000
  41
0.0
  71
7
  72
1
   1
\T1.000000;ＧＬ
   7
GMM003
  44
 0.79999984000003
   0
LINE
   5
257
 100
AcDbEntity
   8
LEVEL001
 370
13
 100
AcDbLine
   6
CONTINUOUS
  62
1
  10
 1096.2077999332
  20
 1822.6685393258
  30
0.0
  11
 1071.2077999332
  21
 1872.6685393258
  31
0.0
   0
LINE
   5
258
 100
AcDbEntity
   8
LEVEL001
 370
13
 100
AcDbLine
   6
CONTINUOUS
  62
1
  10
 1071.2077999332
  20
 1872.6685393258
  30
0.0
  11
 1121.2077999332
  21
 1872.6685393258
  31
0.0
   0
LINE
   5
259
 100
AcDbEntity
   8
LEVEL001
 370
13
 100
AcDbLine
   6
CONTINUOUS
  62
1
  10
 1121.2077999332
  20
 1872.6685393258
  30
0.0
  11
 1096.2077999332
  21
 1822.6685393258
  31
0.0
   0
CIRCLE
   5
25A
 100
AcDbEntity
   8
LEVEL001
 370
13
 100
AcDbCircle
   6
CONTINUOUS
  62
6
  10
 1503.7078651685
  20
 4855.1685393258
  30
0.0
  40
 505.00000000000
   0
CIRCLE
   5
25B
 100
AcDbEntity
   8
LEVEL001
 370
13
 100
AcDbCircle
   6
CONTINUOUS
  62
7
  10
 1503.7078651685
  20
 4855.1685393258
  30
0.0
  40
 532.50000000000
   0
CIRCLE
   5
25C
 100
AcDbEntity
   8
LEVEL001
 370
13
 100
AcDbCircle
   6
CONTINUOUS
  62
6
  10
 1503.7078651685
  20
 4855.1685393258
  30
0.0
  40
 510.00000000000
   0
CIRCLE
   5
25D
 100
AcDbEntity
   8
LEVEL001
 370
13
 100
AcDbCircle
   6
CONTINUOUS
  62
7
  10
 1503.7078651685
  20
 4855.1685393258
  30
0.0
  40
 512.50000000000
   0
ARC
   5
25E
 100
AcDbEntity
   8
LEVEL001
 370
13
   6
CONTINUOUS
  62
1
 100
AcDbCircle
  10
 1503.7078651685
  20
 4855.1685393258
  30
0.0
  40
 510.00000000000
 100
AcDbArc
  50
 22.559010865494
  51
 157.44098913451
   0
ARC
   5
25F
 100
AcDbEntity
   8
LEVEL001
 370
13
   6
CONTINUOUS
  62
1
 100
AcDbCircle
  10
 1503.7078651685
  20
 4855.1685393258
  30
0.0
  40
 511.50000000000
 100
AcDbArc
  50
 22.559010865493
  51
 157.44098913451
   0
LINE
   5
260
 100
AcDbEntity
   8
LEVEL001
 370
13
 100
AcDbLine
   6
CONTINUOUS
  62
1
  10
 1032.7305641627
  20
 5050.8222690046
  30
0.0
  11
 1031.3453368068
  21
 5051.3977211506
  31
0.0
   0
LINE
   5
261
 100
AcDbEntity
   8
LEVEL001
 370
13
 100
AcDbLine
   6
CONTINUOUS
  62
1
  10
 1974.6851661743
  20
 5050.8222690046
  30
0.0
  11
 1976.0703935303
  21
 5051.3977211506
  31
0.0
   0
LINE
   5
262
 100
AcDbEntity
   8
LEVEL001
 370
13
 100
AcDbLine
   6
DASHDOT
  62
6
  10
 928.70786516854
  20
 4855.1685393258
  30
0.0
  11
 2078.7078651685
  21
 4855.1685393258
  31
0.0
   0
LINE
   5
263
 100
AcDbEntity
   8
LEVEL001
 370
13
 100
AcDbLine
   6
CONTINUOUS
  62
7
  10
 1573.7074989576
  20
 4222.6685393258
  30
0.0
  11
 1433.7101845045
  21
 4222.6685393258
  31
0.0
   0
LINE
   5
264
 100
AcDbEntity
   8
LEVEL001
 370
13
 100
AcDbLine
   6
CONTINUOUS
  62
7
  10
 1459.1578773756
  20
 4324.5325529976
  30
0.0
  11
 1459.1578773756
  21
 4222.6685393258
  31
0.0
   0
LINE
   5
265
 100
AcDbEntity
   8
LEVEL001
 370
13
 100
AcDbLine
   6
CONTINUOUS
  62
7
  10
 1548.2579139967
  20
 4222.6685393258
  30
0.0
  11
 1548.2579139967
  21
 4324.5325529976
  31
0.0
   0
LINE
   5
266
 100
AcDbEntity
   8
LEVEL001
 370
13
 100
AcDbLine
   6
CONTINUOUS
  62
7
  10
 1459.1578773756
  20
 3622.6678069041
  30
0.0
  11
 1459.1578773756
  21
 722.66853932584
  31
0.0
   0
LINE
   5
267
 100
AcDbEntity
   8
LEVEL001
 370
13
 100
AcDbLine
   6
CONTINUOUS
  62
7
  10
 1459.1578773756
  20
 722.66853932584
  30
0.0
  11
 1548.2579139967
  21
 722.66853932584
  31
0.0
   0
LINE
   5
268
 100
AcDbEntity
   8
LEVEL001
 370
13
 100
AcDbLine
   6
CONTINUOUS
  62
7
  10
 1548.2579139967
  20
 722.66853932584
  30
0.0
  11
 1548.2579139967
  21
 3622.6678069041
  31
0.0
   0
CIRCLE
   5
269
 100
AcDbEntity
   8
LEVEL001
 370
13
 100
AcDbCircle
   6
CONTINUOUS
  62
7
  10
 1503.7078041334
  20
 1022.6685393258
  30
0.0
  40
 7.5000000000000
   0
LINE
   5
26A
 100
AcDbEntity
   8
LEVEL001
 370
13
 100
AcDbLine
   6
DASHDOT
  62
6
  10
 1473.7078041334
  20
 1022.6685393258
  30
0.0
  11
 1533.7078651685
  21
 1022.6685393258
  31
0.0
   0
LINE
   5
26B
 100
AcDbEntity
   8
LEVEL001
 370
13
 100
AcDbLine
   6
CONTINUOUS
  62
7
  10
 1459.1578773756
  20
 1130.1685393258
  30
0.0
  11
 1387.3078407545
  21
 1130.1685393258
  31
0.0
   0
LINE
   5
26C
 100
AcDbEntity
   8
LEVEL001
 370
13
 100
AcDbLine
   6
CONTINUOUS
  62
7
  10
 1387.3078407545
  20
 1130.1685393258
  30
0.0
  11
 1387.3078407545
  21
 1115.1685393258
  31
0.0
   0
LINE
   5
26D
 100
AcDbEntity
   8
LEVEL001
 370
13
 100
AcDbLine
   6
CONTINUOUS
  62
7
  10
 1387.3078407545
  20
 1115.1685393258
  30
0.0
  11
 1459.1578773756
  21
 1115.1685393258
  31
0.0
   0
LINE
   5
26E
 100
AcDbEntity
   8
LEVEL001
 370
13
 100
AcDbLine
   6
CONTINUOUS
  62
7
  10
 1548.2579139967
  20
 1130.1685393258
  30
0.0
  11
 1620.1078895826
  21
 1130.1685393258
  31
0.0
   0
LINE
   5
26F
 100
AcDbEntity
   8
LEVEL001
 370
13
 100
AcDbLine
   6
CONTINUOUS
  62
7
  10
 1620.1078895826
  20
 1130.1685393258
  30
0.0
  11
 1620.1078895826
  21
 1115.1685393258
  31
0.0
   0
LINE
   5
270
 100
AcDbEntity
   8
LEVEL001
 370
13
 100
AcDbLine
   6
CONTINUOUS
  62
7
  10
 1620.1078895826
  20
 1115.1685393258
  30
0.0
  11
 1548.2579139967
  21
 1115.1685393258
  31
0.0
   0
LINE
   5
271
 100
AcDbEntity
   8
LEVEL001
 370
13
 100
AcDbLine
   6
DASHDOT
  62
6
  10
 1437.3078407545
  20
 1122.6685393258
  30
0.0
  11
 1570.1078895826
  21
 1122.6685393258
  31
0.0
   0
LINE
   5
272
 100
AcDbEntity
   8
LEVEL001
 370
13
 100
AcDbLine
   6
DOT
  62
1
  10
 1548.2579139967
  20
 1115.1685393258
  30
0.0
  11
 1459.1578773756
  21
 1115.1685393258
  31
0.0
   0
LINE
   5
273
 100
AcDbEntity
   8
LEVEL001
 370
13
 100
AcDbLine
   6
DOT
  62
1
  10
 1459.1578773756
  20
 1130.1685393258
  30
0.0
  11
 1548.2579139967
  21
 1130.1685393258
  31
0.0
   0
CIRCLE
   5
274
 100
AcDbEntity
   8
LEVEL001
 370
13
 100
AcDbCircle
   6
CONTINUOUS
  62
1
  10
 3203.7078651685
  20
 3822.6685393258
  30
0.0
  40
 70.000000000000
   0
CIRCLE
   5
275
 100
AcDbEntity
   8
LEVEL001
 370
13
 100
AcDbCircle
   6
CONTINUOUS
  62
1
  10
 3343.7078651685
  20
 3822.6685393258
  30
0.0
  40
 70.000000000000
   0
MTEXT
   5
276
 100
AcDbEntity
   8
LEVEL001
 370
13
  62
1
 100
AcDbMText
  10
 3203.7078651685
  20
 3822.6685393258
  30
0.0
  40
 57.142857142858
  41
0.0
  71
5
  72
1
   1
\T1.000000;13
   7
GMM001
  44
 0.79999984000003
   0
MTEXT
   5
277
 100
AcDbEntity
   8
LEVEL001
 370
13
  62
1
 100
AcDbMText
  10
 3343.7078651685
  20
 3822.6685393258
  30
0.0
  40
 57.142857142858
  41
0.0
  71
5
  72
1
   1
\T1.000000;14
   7
GMM001
  44
 0.79999984000003
   0
CIRCLE
   5
278
 100
AcDbEntity
   8
LEVEL001
 370
13
 100
AcDbCircle
   6
CONTINUOUS
  62
1
  10
 2303.7078651685
  20
 4205.1685393258
  30
0.0
  40
 69.999997913838
   0
MTEXT
   5
279
 100
AcDbEntity
   8
LEVEL001
 370
13
  62
1
 100
AcDbMText
  10
 2303.7078651685
  20
 4205.1685393258
  30
0.0
  40
 57.142857142858
  41
0.0
  71
5
  72
1
   1
\T1.000000;1
   7
GMM001
  44
 0.79999984000003
   0
LEADER
   5
27A
 100
AcDbEntity
   8
LEVEL001
 370
13
   6
CONTINUOUS
  62
1
 100
AcDbLeader
   3
GMM002
  73
3
  74
1
  75
0
  40
 60.000000000000
  41
0.0
  76
2
  10
 1616.8385103056
  20
 4455.1685393258
  30
0.0
  10
 2238.0506021377
  20
 4229.4404061522
  30
0.0
  77
1
   0
CIRCLE
   5
27B
 100
AcDbEntity
   8
LEVEL001
 370
13
 100
AcDbCircle
   6
CONTINUOUS
  62
1
  10
 1753.7078651685
  20
 4205.1685393258
  30
0.0
  40
 69.999997913838
   0
MTEXT
   5
27C
 100
AcDbEntity
   8
LEVEL001
 370
13
  62
1
 100
AcDbMText
  10
 1753.7078651685
  20
 4205.1685393258
  30
0.0
  40
 57.142857142858
  41
0.0
  71
5
  72
1
   1
\T1.000000;4
   7
GMM001
  44
 0.79999984000003
   0
CIRCLE
   5
27D
 100
AcDbEntity
   8
LEVEL001
 370
13
 100
AcDbCircle
   6
CONTINUOUS
  62
1
  10
 2303.7078651685
  20
 5465.1685393258
  30
0.0
  40
 69.999997913838
   0
MTEXT
   5
27E
 100
AcDbEntity
   8
LEVEL001
 370
13
  62
1
 100
AcDbMText
  10
 2303.7078651685
  20
 5465.1685393258
  30
0.0
  40
 57.142857142858
  41
0.0
  71
5
  72
1
   1
\T1.000000;3
   7
GMM001
  44
 0.79999984000003
   0
CIRCLE
   5
27F
 100
AcDbEntity
   8
LEVEL001
 370
13
 100
AcDbCircle
   6
CONTINUOUS
  62
1
  10
 2713.7078693409
  20
 5465.1685393258
  30
0.0
  40
 69.999997913838
   0
CIRCLE
   5
280
 100
AcDbEntity
   8
LEVEL001
 370
13
 100
AcDbCircle
   6
CONTINUOUS
  62
1
  10
 2853.7078651685
  20
 5465.1685393258
  30
0.0
  40
 69.999997913838
   0
MTEXT
   5
281
 100
AcDbEntity
   8
LEVEL001
 370
13
  62
1
 100
AcDbMText
  10
 2853.7078651685
  20
 5465.1685393258
  30
0.0
  40
 57.142857142858
  41
0.0
  71
5
  72
1
   1
\T1.000000;7
   7
GMM001
  44
 0.79999984000003
   0
MTEXT
   5
282
 100
AcDbEntity
   8
LEVEL001
 370
13
  62
1
 100
AcDbMText
  10
 2713.7078693409
  20
 5465.1685393258
  30
0.0
  40
 57.142857142858
  41
0.0
  71
5
  72
1
   1
\T1.000000;5
   7
GMM001
  44
 0.79999984000003
   0
CIRCLE
   5
283
 100
AcDbEntity
   8
LEVEL001
 370
13
 100
AcDbCircle
   6
CONTINUOUS
  62
1
  10
 3363.2016832961
  20
 5465.1685393258
  30
0.0
  40
 69.999997913838
   0
CIRCLE
   5
284
 100
AcDbEntity
   8
LEVEL001
 370
13
 100
AcDbCircle
   6
CONTINUOUS
  62
1
  10
 3203.7078651685
  20
 5465.1685393258
  30
0.0
  40
 70.000000000000
   0
MTEXT
   5
285
 100
AcDbEntity
   8
LEVEL001
 370
13
  62
1
 100
AcDbMText
  10
 3363.2016832961
  20
 5465.1685393258
  30
0.0
  40
 57.142857142858
  41
0.0
  71
5
  72
1
   1
\T1.000000;6
   7
GMM001
  44
 0.79999984000003
   0
MTEXT
   5
286
 100
AcDbEntity
   8
LEVEL001
 370
13
  62
1
 100
AcDbMText
  10
 3203.7078651685
  20
 5465.1685393258
  30
0.0
  40
 57.142857142858
  41
0.0
  71
5
  72
1
   1
\T1.000000;11
   7
GMM001
  44
 0.79999984000003
   0
MTEXT
   5
287
 100
AcDbEntity
   8
LEVEL001
 370
13
  62
1
 100
AcDbMText
  10
 3503.2016791239
  20
 5465.1685393258
  30
0.0
  40
 57.142857142858
  41
0.0
  71
5
  72
1
   1
\T1.000000;8
   7
GMM001
  44
 0.79999984000003
   0
CIRCLE
   5
288
 100
AcDbEntity
   8
LEVEL001
 370
13
 100
AcDbCircle
   6
CONTINUOUS
  62
1
  10
 3503.2016791239
  20
 5465.1685393258
  30
0.0
  40
 69.999997913838
   0
ARC
   5
289
 100
AcDbEntity
   8
LEVEL001
 370
13
   6
CONTINUOUS
  62
7
 100
AcDbCircle
  10
 2803.3108574387
  20
 4325.1685393258
  30
0.0
  40
 2.5000000000000
 100
AcDbArc
  50
 180.00000000000
  51
 270.00000000000
   0
ARC
   5
28A
 100
AcDbEntity
   8
LEVEL001
 370
13
   6
CONTINUOUS
  62
7
 100
AcDbCircle
  10
 2803.3108574387
  20
 4325.1685393258
  30
0.0
  40
 2.5000000000000
 100
AcDbArc
  50
 270.00000000000
  51
0.0
   0
LINE
   5
28B
 100
AcDbEntity
   8
LEVEL001
 370
13
 100
AcDbLine
   6
CONTINUOUS
  62
7
  10
 2781.4380444927
  20
 4349.0431019150
  30
0.0
  11
 2800.8108574387
  21
 4345.1685393258
  31
0.0
   0
ARC
   5
28C
 100
AcDbEntity
   8
LEVEL001
 370
13
   6
CONTINUOUS
  62
7
 100
AcDbCircle
  10
 2782.8108574387
  20
 4355.9071666448
  30
0.0
  40
 7.0000000000000
 100
AcDbArc
  50
 180.00000000000
  51
 258.69006752600
   0
LINE
   5
28D
 100
AcDbEntity
   8
LEVEL001
 370
13
 100
AcDbLine
   6
CONTINUOUS
  62
7
  10
 2800.8108574387
  20
 5385.1685393258
  30
0.0
  11
 2800.8108574387
  21
 4325.1685393258
  31
0.0
   0
LINE
   5
28E
 100
AcDbEntity
   8
LEVEL001
 370
13
 100
AcDbLine
   6
CONTINUOUS
  62
7
  10
 2805.8108574387
  20
 4325.1685393258
  30
0.0
  11
 2805.8108574387
  21
 5385.1685393258
  31
0.0
   0
LINE
   5
28F
 100
AcDbEntity
   8
LEVEL001
 370
13
 100
AcDbLine
   6
CONTINUOUS
  62
3
  10
 2800.8108574387
  20
 5050.8222690046
  30
0.0
  11
 2780.8108574387
  21
 5050.8222690044
  31
0.0
   0
LINE
   5
290
 100
AcDbEntity
   8
LEVEL001
 370
13
 100
AcDbLine
   6
CONTINUOUS
  62
3
  10
 2780.8108574387
  20
 5050.8222690044
  30
0.0
  11
 2715.8108574387
  21
 5163.4055714964
  31
0.0
   0
LINE
   5
291
 100
AcDbEntity
   8
LEVEL001
 370
13
 100
AcDbLine
   6
CONTINUOUS
  62
3
  10
 2715.8108574387
  20
 5163.4055714964
  30
0.0
  11
 2715.8108574387
  21
 5366.6685393258
  31
0.0
   0
LINE
   5
292
 100
AcDbEntity
   8
LEVEL001
 370
13
 100
AcDbLine
   6
CONTINUOUS
  62
3
  10
 2715.8108574387
  20
 5366.6685393258
  30
0.0
  11
 2800.8108574387
  21
 5366.6685393258
  31
0.0
   0
ARC
   5
293
 100
AcDbEntity
   8
LEVEL001
 370
13
   6
HIDDEN
  62
6
 100
AcDbCircle
  10
 6340.9195514339
  20
 4855.1685393258
  30
0.0
  40
 3600.0000000000
 100
AcDbArc
  50
 172.01644385444
  51
 176.02227596322
   0
LINE
   5
294
 100
AcDbEntity
   8
LEVEL001
 370
13
 100
AcDbLine
   6
HIDDEN
  62
6
  10
 2775.8108574387
  20
 5354.4299120068
  30
0.0
  11
 2775.8108574387
  21
 5059.4825230422
  31
0.0
   0
ARC
   5
295
 100
AcDbEntity
   8
LEVEL001
 370
13
   6
CONTINUOUS
  62
7
 100
AcDbCircle
  10
 6340.9195514339
  20
 4855.1685393258
  30
0.0
  40
 3600.0000000000
 100
AcDbArc
  50
 176.02227596322
  51
 187.98355614556
   0
LINE
   5
296
 100
AcDbEntity
   8
LEVEL001
 370
13
 100
AcDbLine
   6
CONTINUOUS
  62
7
  10
 2775.8108574387
  20
 5059.4825230422
  30
0.0
  11
 2775.8108574387
  21
 4355.9071666448
  31
0.0
   0
ARC
   5
297
 100
AcDbEntity
   8
LEVEL001
 370
13
   6
CONTINUOUS
  62
7
 100
AcDbCircle
  10
 2803.3108574387
  20
 5385.1685393258
  30
0.0
  40
 2.5000000000000
 100
AcDbArc
  50
 90.000000000000
  51
 180.00000000000
   0
ARC
   5
298
 100
AcDbEntity
   8
LEVEL001
 370
13
   6
CONTINUOUS
  62
7
 100
AcDbCircle
  10
 2803.3108574387
  20
 5385.1685393258
  30
0.0
  40
 2.5000000000000
 100
AcDbArc
  50
0.0
  51
 90.000000000000
   0
LINE
   5
299
 100
AcDbEntity
   8
LEVEL001
 370
13
 100
AcDbLine
   6
HIDDEN
  62
6
  10
 2800.8108574387
  20
 5365.1685393258
  30
0.0
  11
 2781.4380444927
  21
 5361.2939767366
  31
0.0
   0
ARC
   5
29A
 100
AcDbEntity
   8
LEVEL001
 370
13
   6
HIDDEN
  62
6
 100
AcDbCircle
  10
 2782.8108574387
  20
 5354.4299120068
  30
0.0
  40
 7.0000000000000
 100
AcDbArc
  50
 101.30993247397
  51
 180.00000000000
   0
LINE
   5
29B
 100
AcDbEntity
   8
LEVEL001
 370
13
 100
AcDbLine
   6
DASHDOT
  62
6
  10
 3095.9119667311
  20
 4855.1685393258
  30
0.0
  11
 2692.8430840011
  21
 4855.1685393258
  31
0.0
   0
LINE
   5
29C
 100
AcDbEntity
   8
LEVEL001
 370
13
 100
AcDbLine
   6
CONTINUOUS
  62
7
  10
 2805.8108574387
  20
 4910.1685393258
  30
0.0
  11
 2899.0108574387
  21
 4910.1685393258
  31
0.0
   0
LINE
   5
29D
 100
AcDbEntity
   8
LEVEL001
 370
13
 100
AcDbLine
   6
CONTINUOUS
  62
7
  10
 2899.0108574387
  20
 4910.1685393258
  30
0.0
  11
 2899.0108574387
  21
 4800.1685393258
  31
0.0
   0
LINE
   5
29E
 100
AcDbEntity
   8
LEVEL001
 370
13
 100
AcDbLine
   6
CONTINUOUS
  62
7
  10
 2899.0108574387
  20
 4800.1685393258
  30
0.0
  11
 2805.8108574387
  21
 4800.1685393258
  31
0.0
   0
LINE
   5
29F
 100
AcDbEntity
   8
LEVEL001
 370
13
 100
AcDbLine
   6
CONTINUOUS
  62
7
  10
 3048.2579139967
  20
 5126.6685393258
  30
0.0
  11
 2959.1578163403
  21
 5126.6685393258
  31
0.0
   0
LINE
   5
2A0
 100
AcDbEntity
   8
LEVEL001
 370
13
 100
AcDbLine
   6
CONTINUOUS
  62
7
  10
 2959.1578163403
  20
 5126.6685393258
  30
0.0
  11
 2959.1578163403
  21
 5123.6685393258
  31
0.0
   0
LINE
   5
2A1
 100
AcDbEntity
   8
LEVEL001
 370
13
 100
AcDbLine
   6
CONTINUOUS
  62
7
  10
 2959.1578163403
  20
 5123.6685393258
  30
0.0
  11
 3048.2579139967
  21
 5123.6685393258
  31
0.0
   0
LINE
   5
2A2
 100
AcDbEntity
   8
LEVEL001
 370
13
 100
AcDbLine
   6
CONTINUOUS
  62
7
  10
 3048.2579139967
  20
 5123.6685393258
  30
0.0
  11
 3048.2579139967
  21
 5126.6685393258
  31
0.0
   0
LINE
   5
2A3
 100
AcDbEntity
   8
LEVEL001
 370
13
 100
AcDbLine
   6
DOT
  62
1
  10
 3043.2579139967
  20
 5123.6685393258
  30
0.0
  11
 3043.2579139967
  21
 5096.6685393258
  31
0.0
   0
LINE
   5
2A4
 100
AcDbEntity
   8
LEVEL001
 370
13
 100
AcDbLine
   6
DOT
  62
1
  10
 3043.2579139967
  20
 5096.6685393258
  30
0.0
  11
 2964.1578163403
  21
 5096.6685393258
  31
0.0
   0
LINE
   5
2A5
 100
AcDbEntity
   8
LEVEL001
 370
13
 100
AcDbLine
   6
DOT
  62
1
  10
 2964.1578163403
  20
 5096.6685393258
  30
0.0
  11
 2964.1578163403
  21
 5123.6685393258
  31
0.0
   0
LINE
   5
2A6
 100
AcDbEntity
   8
LEVEL001
 370
13
 100
AcDbLine
   6
CONTINUOUS
  62
7
  10
 3048.2579139967
  20
 4910.1685393258
  30
0.0
  11
 3048.2579139967
  21
 5122.6685393258
  31
0.0
   0
LINE
   5
2A7
 100
AcDbEntity
   8
LEVEL001
 370
13
 100
AcDbLine
   6
CONTINUOUS
  62
7
  10
 3048.2579139967
  20
 5122.6685393258
  30
0.0
  11
 2959.1578163403
  21
 5122.6685393258
  31
0.0
   0
LINE
   5
2A8
 100
AcDbEntity
   8
LEVEL001
 370
13
 100
AcDbLine
   6
CONTINUOUS
  62
7
  10
 2959.1578163403
  20
 5122.6685393258
  30
0.0
  11
 2959.1578163403
  21
 4910.1685393258
  31
0.0
   0
LINE
   5
2A9
 100
AcDbEntity
   8
LEVEL001
 370
13
 100
AcDbLine
   6
CONTINUOUS
  62
7
  10
 2959.1578163403
  20
 4800.1685393258
  30
0.0
  11
 2959.1578163403
  21
 4135.1678069041
  31
0.0
   0
LINE
   5
2AA
 100
AcDbEntity
   8
LEVEL001
 370
13
 100
AcDbLine
   6
CONTINUOUS
  62
7
  10
 3048.2579139967
  20
 4135.1678069041
  30
0.0
  11
 3048.2579139967
  21
 4800.1685393258
  31
0.0
   0
LINE
   5
2AB
 100
AcDbEntity
   8
LEVEL001
 370
13
 100
AcDbLine
   6
DASHDOT
  62
6
  10
 3003.7078651685
  20
 4920.1685393258
  30
0.0
  11
 3003.7078651685
  21
 4790.1685393258
  31
0.0
   0
LINE
   5
2AC
 100
AcDbEntity
   8
LEVEL001
 370
13
 100
AcDbLine
   6
DASHDOT
  62
6
  10
 2899.0108574387
  20
 4885.1685393258
  30
0.0
  11
 2859.0108574387
  21
 4885.1685393258
  31
0.0
   0
LINE
   5
2AD
 100
AcDbEntity
   8
LEVEL001
 370
13
 100
AcDbLine
   6
DASHDOT
  62
6
  10
 2879.0108574387
  20
 4905.1685393258
  30
0.0
  11
 2879.0108574387
  21
 4865.1685393258
  31
0.0
   0
LINE
   5
2AE
 100
AcDbEntity
   8
LEVEL001
 370
13
 100
AcDbLine
   6
DASHDOT
  62
6
  10
 2899.0108574387
  20
 4825.1685393258
  30
0.0
  11
 2859.0108574387
  21
 4825.1685393258
  31
0.0
   0
LINE
   5
2AF
 100
AcDbEntity
   8
LEVEL001
 370
13
 100
AcDbLine
   6
DASHDOT
  62
6
  10
 2879.0108574387
  20
 4845.1685393258
  30
0.0
  11
 2879.0108574387
  21
 4805.1685393258
  31
0.0
   0
LINE
   5
2B0
 100
AcDbEntity
   8
LEVEL001
 370
13
 100
AcDbLine
   6
DASHDOT
  62
6
  10
 2948.1599800961
  20
 4850.7539531448
  30
0.0
  11
 2908.1599800961
  21
 4850.7539531448
  31
0.0
   0
LINE
   5
2B1
 100
AcDbEntity
   8
LEVEL001
 370
13
 100
AcDbLine
   6
DASHDOT
  62
6
  10
 2928.1599800961
  20
 4870.7539531448
  30
0.0
  11
 2928.1599800961
  21
 4830.7539531448
  31
0.0
   0
LINE
   5
2B2
 100
AcDbEntity
   8
LEVEL001
 370
13
 100
AcDbLine
   6
CONTINUOUS
  62
7
  10
 2959.0108574387
  20
 4800.1685393258
  30
0.0
  11
 2959.0108574387
  21
 4910.1685393258
  31
0.0
   0
ARC
   5
2B3
 100
AcDbEntity
   8
LEVEL001
 370
13
   6
CONTINUOUS
  62
3
 100
AcDbCircle
  10
 2928.1599800961
  20
 4850.7539531448
  30
0.0
  40
 8.0000000000000
 100
AcDbArc
  50
 325.00000000001
  51
 144.99999999992
   0
LINE
   5
2B4
 100
AcDbEntity
   8
LEVEL001
 370
13
 100
AcDbLine
   6
CONTINUOUS
  62
6
  10
 3047.1358832423
  20
 4905.1685393258
  30
0.0
  11
 3047.1358832423
  21
 4805.1685393258
  31
0.0
   0
LINE
   5
2B5
 100
AcDbEntity
   8
LEVEL001
 370
13
 100
AcDbLine
   6
DASHDOT
  62
6
  10
 3086.7078736884
  20
 4885.1685391858
  30
0.0
  11
 3046.7078736884
  21
 4885.1685391858
  31
0.0
   0
LINE
   5
2B6
 100
AcDbEntity
   8
LEVEL001
 370
13
 100
AcDbLine
   6
DASHDOT
  62
6
  10
 3066.7078736884
  20
 4905.1685391858
  30
0.0
  11
 3066.7078736884
  21
 4865.1685391858
  31
0.0
   0
LINE
   5
2B7
 100
AcDbEntity
   8
LEVEL001
 370
13
 100
AcDbLine
   6
DASHDOT
  62
6
  10
 3086.7078736884
  20
 4825.1685391858
  30
0.0
  11
 3046.7078736884
  21
 4825.1685391858
  31
0.0
   0
LINE
   5
2B8
 100
AcDbEntity
   8
LEVEL001
 370
13
 100
AcDbLine
   6
DASHDOT
  62
6
  10
 3066.7078736884
  20
 4845.1685391858
  30
0.0
  11
 3066.7078736884
  21
 4805.1685391858
  31
0.0
   0
LINE
   5
2B9
 100
AcDbEntity
   8
LEVEL001
 370
13
 100
AcDbLine
   6
CONTINUOUS
  62
3
  10
 3059.7078736884
  20
 4878.1685393258
  30
0.0
  11
 3073.7078736883
  21
 4878.1685393258
  31
0.0
   0
LINE
   5
2BA
 100
AcDbEntity
   8
LEVEL001
 370
13
 100
AcDbLine
   6
CONTINUOUS
  62
3
  10
 3073.7078736883
  20
 4878.1685393258
  30
0.0
  11
 3073.7078736883
  21
 4892.1685393258
  31
0.0
   0
LINE
   5
2BB
 100
AcDbEntity
   8
LEVEL001
 370
13
 100
AcDbLine
   6
CONTINUOUS
  62
3
  10
 3073.7078736883
  20
 4892.1685393258
  30
0.0
  11
 3059.7078736884
  21
 4892.1685393258
  31
0.0
   0
LINE
   5
2BC
 100
AcDbEntity
   8
LEVEL001
 370
13
 100
AcDbLine
   6
CONTINUOUS
  62
3
  10
 3059.7078736884
  20
 4892.1685393258
  30
0.0
  11
 3059.7078736884
  21
 4878.1685393258
  31
0.0
   0
LINE
   5
2BD
 100
AcDbEntity
   8
LEVEL001
 370
13
 100
AcDbLine
   6
CONTINUOUS
  62
3
  10
 3059.7078736884
  20
 4818.1685393258
  30
0.0
  11
 3073.7078736883
  21
 4818.1685393258
  31
0.0
   0
LINE
   5
2BE
 100
AcDbEntity
   8
LEVEL001
 370
13
 100
AcDbLine
   6
CONTINUOUS
  62
3
  10
 3073.7078736883
  20
 4818.1685393258
  30
0.0
  11
 3073.7078736883
  21
 4832.1685393258
  31
0.0
   0
LINE
   5
2BF
 100
AcDbEntity
   8
LEVEL001
 370
13
 100
AcDbLine
   6
CONTINUOUS
  62
3
  10
 3073.7078736883
  20
 4832.1685393258
  30
0.0
  11
 3059.7078736884
  21
 4832.1685393258
  31
0.0
   0
LINE
   5
2C0
 100
AcDbEntity
   8
LEVEL001
 370
13
 100
AcDbLine
   6
CONTINUOUS
  62
3
  10
 3059.7078736884
  20
 4832.1685393258
  30
0.0
  11
 3059.7078736884
  21
 4818.1685393258
  31
0.0
   0
LINE
   5
2C1
 100
AcDbEntity
   8
LEVEL001
 370
13
 100
AcDbLine
   6
DASHDOT
  62
6
  10
 2879.0108574387
  20
 4900.1685393258
  30
0.0
  11
 2879.0108574387
  21
 4870.1685393258
  31
0.0
   0
LINE
   5
2C2
 100
AcDbEntity
   8
LEVEL001
 370
13
 100
AcDbLine
   6
DASHDOT
  62
6
  10
 2864.0108574387
  20
 4885.1685393258
  30
0.0
  11
 2894.0108574387
  21
 4885.1685393258
  31
0.0
   0
LINE
   5
2C3
 100
AcDbEntity
   8
LEVEL001
 370
13
 100
AcDbLine
   6
DASHDOT
  62
6
  10
 2879.0108574387
  20
 4840.1685393258
  30
0.0
  11
 2879.0108574387
  21
 4810.1685393258
  31
0.0
   0
LINE
   5
2C4
 100
AcDbEntity
   8
LEVEL001
 370
13
 100
AcDbLine
   6
DASHDOT
  62
6
  10
 2864.0108574387
  20
 4825.1685393258
  30
0.0
  11
 2894.0108574387
  21
 4825.1685393258
  31
0.0
   0
LINE
   5
2C5
 100
AcDbEntity
   8
LEVEL001
 370
13
 100
AcDbLine
   6
CONTINUOUS
  62
3
  10
 2872.0108574387
  20
 4892.1685393258
  30
0.0
  11
 2886.0108574387
  21
 4892.1685393258
  31
0.0
   0
LINE
   5
2C6
 100
AcDbEntity
   8
LEVEL001
 370
13
 100
AcDbLine
   6
CONTINUOUS
  62
3
  10
 2886.0108574387
  20
 4892.1685393258
  30
0.0
  11
 2886.0108574387
  21
 4878.1685393258
  31
0.0
   0
LINE
   5
2C7
 100
AcDbEntity
   8
LEVEL001
 370
13
 100
AcDbLine
   6
CONTINUOUS
  62
3
  10
 2886.0108574387
  20
 4878.1685393258
  30
0.0
  11
 2872.0108574387
  21
 4878.1685393258
  31
0.0
   0
LINE
   5
2C8
 100
AcDbEntity
   8
LEVEL001
 370
13
 100
AcDbLine
   6
CONTINUOUS
  62
3
  10
 2872.0108574387
  20
 4878.1685393258
  30
0.0
  11
 2872.0108574387
  21
 4892.1685393258
  31
0.0
   0
LINE
   5
2C9
 100
AcDbEntity
   8
LEVEL001
 370
13
 100
AcDbLine
   6
CONTINUOUS
  62
3
  10
 2872.0108574387
  20
 4832.1685393258
  30
0.0
  11
 2886.0108574387
  21
 4832.1685393258
  31
0.0
   0
LINE
   5
2CA
 100
AcDbEntity
   8
LEVEL001
 370
13
 100
AcDbLine
   6
CONTINUOUS
  62
3
  10
 2886.0108574387
  20
 4832.1685393258
  30
0.0
  11
 2886.0108574387
  21
 4818.1685393258
  31
0.0
   0
LINE
   5
2CB
 100
AcDbEntity
   8
LEVEL001
 370
13
 100
AcDbLine
   6
CONTINUOUS
  62
3
  10
 2886.0108574387
  20
 4818.1685393258
  30
0.0
  11
 2872.0108574387
  21
 4818.1685393258
  31
0.0
   0
LINE
   5
2CC
 100
AcDbEntity
   8
LEVEL001
 370
13
 100
AcDbLine
   6
CONTINUOUS
  62
3
  10
 2872.0108574387
  20
 4818.1685393258
  30
0.0
  11
 2872.0108574387
  21
 4832.1685393258
  31
0.0
   0
ARC
   5
2CD
 100
AcDbEntity
   8
LEVEL001
 370
13
   6
CONTINUOUS
  62
3
 100
AcDbCircle
  10
 2879.0108574387
  20
 4885.1685393258
  30
0.0
  40
 52.000000000000
 100
AcDbArc
  50
 292.61986494804
  51
 325.00000000001
   0
ARC
   5
2CE
 100
AcDbEntity
   8
LEVEL001
 370
13
   6
CONTINUOUS
  62
3
 100
AcDbCircle
  10
 2879.0108574387
  20
 4885.1685393258
  30
0.0
  40
 68.000000000000
 100
AcDbArc
  50
 287.10463517664
  51
 325.00000000001
   0
LINE
   5
2CF
 100
AcDbEntity
   8
LEVEL001
 370
13
 100
AcDbLine
   6
CONTINUOUS
  62
7
  10
 2899.0108574387
  20
 4800.1685393258
  30
0.0
  11
 3086.7078736884
  21
 4800.1685393258
  31
0.0
   0
LINE
   5
2D0
 100
AcDbEntity
   8
LEVEL001
 370
13
 100
AcDbLine
   6
CONTINUOUS
  62
7
  10
 3086.7078736884
  20
 4800.1685393258
  30
0.0
  11
 3086.7078736884
  21
 4910.1685393258
  31
0.0
   0
LINE
   5
2D1
 100
AcDbEntity
   8
LEVEL001
 370
13
 100
AcDbLine
   6
CONTINUOUS
  62
7
  10
 3086.7078736884
  20
 4910.1685393258
  30
0.0
  11
 2899.0108574387
  21
 4910.1685393258
  31
0.0
   0
ARC
   5
2D2
 100
AcDbEntity
   8
LEVEL001
 370
13
   6
CONTINUOUS
  62
7
 100
AcDbCircle
  10
 2948.6565956352
  20
 3631.3095519300
  30
0.0
  40
 5.0000000000000
 100
AcDbArc
  50
 180.00164397084
  51
 201.80293588369
   0
LINE
   5
2D3
 100
AcDbEntity
   8
LEVEL001
 370
13
 100
AcDbLine
   6
CONTINUOUS
  62
7
  10
 2946.7281288403
  20
 3622.6678069041
  30
0.0
  11
 2944.0142616529
  21
 3629.4524748726
  31
0.0
   0
LINE
   5
2D4
 100
AcDbEntity
   8
LEVEL001
 370
13
 100
AcDbLine
   6
CONTINUOUS
  62
7
  10
 2946.7281288403
  20
 4222.6678069041
  30
0.0
  11
 2944.0142616529
  21
 4215.8828947947
  31
0.0
   0
ARC
   5
2D5
 100
AcDbEntity
   8
LEVEL001
 370
13
   6
CONTINUOUS
  62
7
 100
AcDbCircle
  10
 2948.6565956352
  20
 4214.0258177372
  30
0.0
  40
 5.0000000000000
 100
AcDbArc
  50
 158.19706411631
  51
 179.99835602916
   0
LINE
   5
2D6
 100
AcDbEntity
   8
LEVEL001
 370
13
 100
AcDbLine
   6
CONTINUOUS
  62
7
  10
 2943.6565956373
  20
 4214.0259612008
  30
0.0
  11
 2943.6565956373
  21
 3631.3094084664
  31
0.0
   0
LINE
   5
2D7
 100
AcDbEntity
   8
LEVEL001
 370
13
 100
AcDbLine
   6
CONTINUOUS
  62
6
  10
 2950.6565956373
  20
 3693.6678069041
  30
0.0
  11
 2950.6565956373
  21
 3692.6678069041
  31
0.0
   0
LINE
   5
2D8
 100
AcDbEntity
   8
LEVEL001
 370
13
 100
AcDbLine
   6
CONTINUOUS
  62
7
  10
 2951.1121620435
  20
 3707.6680510446
  30
0.0
  11
 2951.1126503247
  21
 3749.6680510447
  31
0.0
   0
LINE
   5
2D9
 100
AcDbEntity
   8
LEVEL001
 370
13
 100
AcDbLine
   6
CONTINUOUS
  62
6
  10
 2950.6565956373
  20
 4151.6678069040
  30
0.0
  11
 2950.6565956373
  21
 4152.6678069041
  31
0.0
   0
LINE
   5
2DA
 100
AcDbEntity
   8
LEVEL001
 370
13
 100
AcDbLine
   6
CONTINUOUS
  62
7
  10
 2951.1121620435
  20
 4137.6673186226
  30
0.0
  11
 2951.1126503247
  21
 4095.6675627634
  31
0.0
   0
ARC
   5
2DB
 100
AcDbEntity
   8
LEVEL001
 370
13
   6
CONTINUOUS
  62
7
 100
AcDbCircle
  10
 2942.6565956591
  20
 3638.5149962460
  30
0.0
  40
 5.0000000000000
 100
AcDbArc
  50
 338.20459713441
  51
 0.53503701639183E-2
   0
LINE
   5
2DC
 100
AcDbEntity
   8
LEVEL001
 370
13
 100
AcDbLine
   6
CONTINUOUS
  62
7
  10
 2945.4966835279
  20
 3632.1526701852
  30
0.0
  11
 2947.2991737623
  21
 3636.6585295602
  31
0.0
   0
ARC
   5
2DD
 100
AcDbEntity
   8
LEVEL001
 370
13
   6
CONTINUOUS
  62
7
 100
AcDbCircle
  10
 2950.1390748975
  20
 3630.2957365914
  30
0.0
  40
 5.0000000000000
 100
AcDbArc
  50
 158.19883473495
  51
 201.80116526490
   0
LINE
   5
2DE
 100
AcDbEntity
   8
LEVEL001
 370
13
 100
AcDbLine
   6
CONTINUOUS
  62
7
  10
 2946.7281288403
  20
 3622.6678069041
  30
0.0
  11
 2947.6565956373
  21
 3623.0391447946
  31
0.0
   0
LINE
   5
2DF
 100
AcDbEntity
   8
LEVEL001
 370
13
 100
AcDbLine
   6
CONTINUOUS
  62
7
  10
 2947.6565956373
  20
 3623.0391447946
  30
0.0
  11
 2945.4966835279
  21
 3628.4388029976
  31
0.0
   0
ARC
   5
2E0
 100
AcDbEntity
   8
LEVEL001
 370
13
   6
CONTINUOUS
  62
7
 100
AcDbCircle
  10
 2942.6565956591
  20
 4206.8206175618
  30
0.0
  40
 5.0000000000000
 100
AcDbArc
  50
 359.99464962967
  51
 21.795402865594
   0
LINE
   5
2E1
 100
AcDbEntity
   8
LEVEL001
 370
13
 100
AcDbLine
   6
CONTINUOUS
  62
7
  10
 2945.4966835279
  20
 4213.1826994820
  30
0.0
  11
 2947.2991737623
  21
 4208.6770842476
  31
0.0
   0
ARC
   5
2E2
 100
AcDbEntity
   8
LEVEL001
 370
13
   6
CONTINUOUS
  62
7
 100
AcDbCircle
  10
 2950.1390748975
  20
 4215.0396330758
  30
0.0
  40
 5.0000000000000
 100
AcDbArc
  50
 158.19883473495
  51
 201.80116526505
   0
LINE
   5
2E3
 100
AcDbEntity
   8
LEVEL001
 370
13
 100
AcDbLine
   6
CONTINUOUS
  62
7
  10
 2946.7281288403
  20
 4222.6678069041
  30
0.0
  11
 2947.6565956373
  21
 4222.2964690134
  31
0.0
   0
LINE
   5
2E4
 100
AcDbEntity
   8
LEVEL001
 370
13
 100
AcDbLine
   6
CONTINUOUS
  62
7
  10
 2947.6565956373
  20
 4222.2964690134
  30
0.0
  11
 2945.4966835279
  21
 4216.8965666696
  31
0.0
   0
LINE
   5
2E5
 100
AcDbEntity
   8
LEVEL001
 370
13
 100
AcDbLine
   6
CONTINUOUS
  62
7
  10
 2947.6565956373
  20
 4206.8201506540
  30
0.0
  11
 2947.6565956373
  21
 3638.5154631540
  31
0.0
   0
LINE
   5
2E6
 100
AcDbEntity
   8
LEVEL001
 370
13
 100
AcDbLine
   6
CONTINUOUS
  62
7
  10
 2950.6565956373
  20
 4152.6678069041
  30
0.0
  11
 2947.6565956373
  21
 4152.6678069041
  31
0.0
   0
LINE
   5
2E7
 100
AcDbEntity
   8
LEVEL001
 370
13
 100
AcDbLine
   6
CONTINUOUS
  62
6
  10
 2947.6565956373
  20
 4151.6678069040
  30
0.0
  11
 2950.6565956373
  21
 4151.6678069040
  31
0.0
   0
LINE
   5
2E8
 100
AcDbEntity
   8
LEVEL001
 370
13
 100
AcDbLine
   6
CONTINUOUS
  62
6
  10
 2950.6565956373
  20
 4080.6678069040
  30
0.0
  11
 2950.6565956373
  21
 4081.6678069040
  31
0.0
   0
LINE
   5
2E9
 100
AcDbEntity
   8
LEVEL001
 370
13
 100
AcDbLine
   6
CONTINUOUS
  62
6
  10
 2950.6565956373
  20
 4081.6678069040
  30
0.0
  11
 2947.6565956373
  21
 4081.6678069040
  31
0.0
   0
ELLIPSE
   5
2EA
 100
AcDbEntity
   8
LEVEL001
 370
13
   6
CONTINUOUS
  62
7
 100
AcDbEllipse
  10
 2947.1126503247
  20
 4095.6675627634
  30
0.0
  11
-4.0000023841858
  21
0.0
  31
0.0
  40
 0.99999940395391
  41
 1.7072035060216
  42
 3.1415925661655
   0
LINE
   5
2EB
 100
AcDbEntity
   8
LEVEL001
 370
13
 100
AcDbLine
   6
CONTINUOUS
  62
7
  10
 2947.6565956373
  20
 4080.6678069040
  30
0.0
  11
 2950.6565956373
  21
 4080.6678069040
  31
0.0
   0
ELLIPSE
   5
2EC
 100
AcDbEntity
   8
LEVEL001
 370
13
   6
CONTINUOUS
  62
7
 100
AcDbEllipse
  10
 2947.1121620435
  20
 4137.6675627634
  30
0.0
  11
-4.0000023841858
  21
0.0
  31
0.0
  40
 0.99999940395391
  41
 3.1415315309765
  42
-1.7073329211755
   0
LINE
   5
2ED
 100
AcDbEntity
   8
LEVEL001
 370
13
 100
AcDbLine
   6
CONTINUOUS
  62
7
  10
 2947.6565956373
  20
 3764.6678069040
  30
0.0
  11
 2950.6565956373
  21
 3764.6678069040
  31
0.0
   0
LINE
   5
2EE
 100
AcDbEntity
   8
LEVEL001
 370
13
 100
AcDbLine
   6
CONTINUOUS
  62
6
  10
 2950.6565956373
  20
 3764.6678069040
  30
0.0
  11
 2950.6565956373
  21
 3763.6678069041
  31
0.0
   0
LINE
   5
2EF
 100
AcDbEntity
   8
LEVEL001
 370
13
 100
AcDbLine
   6
CONTINUOUS
  62
6
  10
 2950.6565956373
  20
 3763.6678069041
  30
0.0
  11
 2947.6565956373
  21
 3763.6678069041
  31
0.0
   0
ELLIPSE
   5
2F0
 100
AcDbEntity
   8
LEVEL001
 370
13
   6
CONTINUOUS
  62
7
 100
AcDbEllipse
  10
 2947.1126503247
  20
 3749.6680510447
  30
0.0
  11
-4.0000023841858
  21
0.0
  31
0.0
  40
 0.99999940395391
  41
 3.1415925661619
  42
-1.7072119811149
   0
LINE
   5
2F1
 100
AcDbEntity
   8
LEVEL001
 370
13
 100
AcDbLine
   6
CONTINUOUS
  62
6
  10
 2947.6565956373
  20
 3693.6678069041
  30
0.0
  11
 2950.6565956373
  21
 3693.6678069041
  31
0.0
   0
ELLIPSE
   5
2F2
 100
AcDbEntity
   8
LEVEL001
 370
13
   6
CONTINUOUS
  62
7
 100
AcDbEllipse
  10
 2947.1121620435
  20
 3707.6680510446
  30
0.0
  11
-4.0000023841858
  21
0.0
  31
0.0
  40
 0.99999940395391
  41
 1.7073244389100
  42
 3.1415925661692
   0
LINE
   5
2F3
 100
AcDbEntity
   8
LEVEL001
 370
13
 100
AcDbLine
   6
CONTINUOUS
  62
7
  10
 2950.6565956373
  20
 3692.6678069041
  30
0.0
  11
 2947.6565956373
  21
 3692.6678069041
  31
0.0
   0
LINE
   5
2F4
 100
AcDbEntity
   8
LEVEL001
 370
13
 100
AcDbLine
   6
CONTINUOUS
  62
6
  10
 3047.4847206373
  20
 4100.1678069041
  30
0.0
  11
 3047.4847206373
  21
 4109.1678069040
  31
0.0
   0
LINE
   5
2F5
 100
AcDbEntity
   8
LEVEL001
 370
13
 100
AcDbLine
   6
CONTINUOUS
  62
6
  10
 3047.4847206373
  20
 4124.1678069040
  30
0.0
  11
 3047.4847206373
  21
 4133.1678069040
  31
0.0
   0
LINE
   5
2F6
 100
AcDbEntity
   8
LEVEL001
 370
13
 100
AcDbLine
   6
CONTINUOUS
  62
6
  10
 3049.8030800123
  20
 4110.1678069041
  30
0.0
  11
 3049.8030800123
  21
 4123.1678069040
  31
0.0
   0
LINE
   5
2F7
 100
AcDbEntity
   8
LEVEL001
 370
13
 100
AcDbLine
   6
CONTINUOUS
  62
6
  10
 2960.1429237623
  20
 4111.1678069040
  30
0.0
  11
 2960.1429237623
  21
 4122.1678069040
  31
0.0
   0
LINE
   5
2F8
 100
AcDbEntity
   8
LEVEL001
 370
13
 100
AcDbLine
   6
CONTINUOUS
  62
6
  10
 2960.1429237623
  20
 4124.1678069040
  30
0.0
  11
 2960.1429237623
  21
 4133.1678069040
  31
0.0
   0
LINE
   5
2F9
 100
AcDbEntity
   8
LEVEL001
 370
13
 100
AcDbLine
   6
CONTINUOUS
  62
6
  10
 2960.1429237623
  20
 4100.1678069041
  30
0.0
  11
 2960.1429237623
  21
 4109.1678069040
  31
0.0
   0
LINE
   5
2FA
 100
AcDbEntity
   8
LEVEL001
 370
13
 100
AcDbLine
   6
CONTINUOUS
  62
6
  10
 3047.4847206373
  20
 4123.1678069040
  30
0.0
  11
 2961.4039100903
  21
 4123.1678069040
  31
0.0
   0
LINE
   5
2FB
 100
AcDbEntity
   8
LEVEL001
 370
13
 100
AcDbLine
   6
CONTINUOUS
  62
6
  10
 2961.4039100903
  20
 4110.1678069041
  30
0.0
  11
 3047.4847206373
  21
 4110.1678069041
  31
0.0
   0
LINE
   5
2FC
 100
AcDbEntity
   8
LEVEL001
 370
13
 100
AcDbLine
   6
CONTINUOUS
  62
7
  10
 2951.1126503247
  20
 4098.1678069040
  30
0.0
  11
 3068.6565956373
  21
 4098.1678069040
  31
0.0
   0
LINE
   5
2FD
 100
AcDbEntity
   8
LEVEL001
 370
13
 100
AcDbLine
   6
CONTINUOUS
  62
7
  10
 3068.6565956373
  20
 4098.1678069040
  30
0.0
  11
 3068.6565956373
  21
 4135.1678069041
  31
0.0
   0
LINE
   5
2FE
 100
AcDbEntity
   8
LEVEL001
 370
13
 100
AcDbLine
   6
CONTINUOUS
  62
7
  10
 3068.6565956373
  20
 4135.1678069041
  30
0.0
  11
 2951.1121620435
  21
 4135.1678069041
  31
0.0
   0
LINE
   5
2FF
 100
AcDbEntity
   8
LEVEL001
 370
13
 100
AcDbLine
   6
CONTINUOUS
  62
6
  10
 3047.4847206373
  20
 3712.1678069040
  30
0.0
  11
 3047.4847206373
  21
 3721.1678069040
  31
0.0
   0
LINE
   5
300
 100
AcDbEntity
   8
LEVEL001
 370
13
 100
AcDbLine
   6
CONTINUOUS
  62
6
  10
 3047.4847206373
  20
 3736.1678069040
  30
0.0
  11
 3047.4847206373
  21
 3745.1678069041
  31
0.0
   0
LINE
   5
301
 100
AcDbEntity
   8
LEVEL001
 370
13
 100
AcDbLine
   6
CONTINUOUS
  62
6
  10
 3049.8030800123
  20
 3722.1678069040
  30
0.0
  11
 3049.8030800123
  21
 3735.1678069041
  31
0.0
   0
LINE
   5
302
 100
AcDbEntity
   8
LEVEL001
 370
13
 100
AcDbLine
   6
CONTINUOUS
  62
6
  10
 3047.4847206373
  20
 3735.1678069041
  30
0.0
  11
 2961.4039100903
  21
 3735.1678069041
  31
0.0
   0
LINE
   5
303
 100
AcDbEntity
   8
LEVEL001
 370
13
 100
AcDbLine
   6
CONTINUOUS
  62
6
  10
 2961.4039100903
  20
 3722.1678069040
  30
0.0
  11
 3047.4847206373
  21
 3722.1678069040
  31
0.0
   0
LINE
   5
304
 100
AcDbEntity
   8
LEVEL001
 370
13
 100
AcDbLine
   6
CONTINUOUS
  62
7
  10
 2951.1126503247
  20
 3710.1678069041
  30
0.0
  11
 3068.6565956373
  21
 3710.1678069041
  31
0.0
   0
LINE
   5
305
 100
AcDbEntity
   8
LEVEL001
 370
13
 100
AcDbLine
   6
CONTINUOUS
  62
7
  10
 3068.6565956373
  20
 3710.1678069041
  30
0.0
  11
 3068.6565956373
  21
 3747.1678069040
  31
0.0
   0
LINE
   5
306
 100
AcDbEntity
   8
LEVEL001
 370
13
 100
AcDbLine
   6
CONTINUOUS
  62
7
  10
 3068.6565956373
  20
 3747.1678069040
  30
0.0
  11
 2951.1121620435
  21
 3747.1678069040
  31
0.0
   0
LINE
   5
307
 100
AcDbEntity
   8
LEVEL001
 370
13
 100
AcDbLine
   6
CONTINUOUS
  62
6
  10
 2960.1429237623
  20
 3723.1678069040
  30
0.0
  11
 2960.1429237623
  21
 3734.1678069040
  31
0.0
   0
LINE
   5
308
 100
AcDbEntity
   8
LEVEL001
 370
13
 100
AcDbLine
   6
CONTINUOUS
  62
6
  10
 2960.1429237623
  20
 3736.1678069040
  30
0.0
  11
 2960.1429237623
  21
 3745.1678069041
  31
0.0
   0
LINE
   5
309
 100
AcDbEntity
   8
LEVEL001
 370
13
 100
AcDbLine
   6
CONTINUOUS
  62
6
  10
 2960.1429237623
  20
 3712.1678069040
  30
0.0
  11
 2960.1429237623
  21
 3721.1678069040
  31
0.0
   0
LINE
   5
30A
 100
AcDbEntity
   8
LEVEL001
 370
13
 100
AcDbLine
   6
CONTINUOUS
  62
7
  10
 2959.1578163403
  20
 4098.1678069040
  30
0.0
  11
 2959.1578163403
  21
 3747.1678069040
  31
0.0
   0
LINE
   5
30B
 100
AcDbEntity
   8
LEVEL001
 370
13
 100
AcDbLine
   6
CONTINUOUS
  62
7
  10
 3048.2579139967
  20
 3747.1678069040
  30
0.0
  11
 3048.2579139967
  21
 4098.1678069040
  31
0.0
   0
LINE
   5
30C
 100
AcDbEntity
   8
LEVEL001
 370
13
 100
AcDbLine
   6
CONTINUOUS
  62
7
  10
 3053.6565956373
  20
 3723.6678069041
  30
0.0
  11
 3063.6565956373
  21
 3723.6678069041
  31
0.0
   0
LINE
   5
30D
 100
AcDbEntity
   8
LEVEL001
 370
13
 100
AcDbLine
   6
CONTINUOUS
  62
7
  10
 3063.6565956373
  20
 3723.6678069041
  30
0.0
  11
 3063.6565956373
  21
 3733.6678069041
  31
0.0
   0
LINE
   5
30E
 100
AcDbEntity
   8
LEVEL001
 370
13
 100
AcDbLine
   6
CONTINUOUS
  62
7
  10
 3063.6565956373
  20
 3733.6678069041
  30
0.0
  11
 3053.6565956373
  21
 3733.6678069041
  31
0.0
   0
LINE
   5
30F
 100
AcDbEntity
   8
LEVEL001
 370
13
 100
AcDbLine
   6
CONTINUOUS
  62
7
  10
 3053.6565956373
  20
 3733.6678069041
  30
0.0
  11
 3053.6565956373
  21
 3723.6678069041
  31
0.0
   0
LINE
   5
310
 100
AcDbEntity
   8
LEVEL001
 370
13
 100
AcDbLine
   6
CONTINUOUS
  62
7
  10
 3053.6565956373
  20
 4111.6678069040
  30
0.0
  11
 3063.6565956373
  21
 4111.6678069040
  31
0.0
   0
LINE
   5
311
 100
AcDbEntity
   8
LEVEL001
 370
13
 100
AcDbLine
   6
CONTINUOUS
  62
7
  10
 3063.6565956373
  20
 4111.6678069040
  30
0.0
  11
 3063.6565956373
  21
 4121.6678069040
  31
0.0
   0
LINE
   5
312
 100
AcDbEntity
   8
LEVEL001
 370
13
 100
AcDbLine
   6
CONTINUOUS
  62
7
  10
 3063.6565956373
  20
 4121.6678069040
  30
0.0
  11
 3053.6565956373
  21
 4121.6678069040
  31
0.0
   0
LINE
   5
313
 100
AcDbEntity
   8
LEVEL001
 370
13
 100
AcDbLine
   6
CONTINUOUS
  62
7
  10
 3053.6565956373
  20
 4121.6678069040
  30
0.0
  11
 3053.6565956373
  21
 4111.6678069040
  31
0.0
   0
LEADER
   5
314
 100
AcDbEntity
   8
LEVEL001
 370
13
   6
CONTINUOUS
  62
1
 100
AcDbLeader
   3
GMM002
  73
3
  74
1
  75
0
  40
 60.000000000000
  41
0.0
  76
2
  10
 2763.9504694111
  20
 4448.6071217606
  30
0.0
  10
 2365.9582529753
  20
 4237.1824257790
  30
0.0
  77
1
   0
LEADER
   5
315
 100
AcDbEntity
   8
LEVEL001
 370
13
   6
CONTINUOUS
  62
1
 100
AcDbLeader
   3
GMM002
  73
3
  74
1
  75
0
  40
 60.000000000000
  41
0.0
  76
2
  10
 1622.8181983609
  20
 4336.1608529407
  30
0.0
  10
 1704.2103919610
  20
 4254.6660125343
  30
0.0
  77
1
   0
LEADER
   5
316
 100
AcDbEntity
   8
LEVEL001
 370
13
   6
CONTINUOUS
  62
1
 100
AcDbLeader
   3
GMM002
  73
3
  74
1
  75
0
  40
 60.000000000000
  41
0.0
  76
2
  10
 1701.9121692505
  20
 5326.7057105471
  30
0.0
  10
 2235.5324700269
  20
 5449.2904032511
  30
0.0
  77
1
   0
LEADER
   5
317
 100
AcDbEntity
   8
LEVEL001
 370
13
   6
CONTINUOUS
  62
1
 100
AcDbLeader
   3
GMM002
  73
3
  74
1
  75
0
  40
 60.000000000000
  41
0.0
  76
2
  10
 2715.8108574387
  20
 5313.9705729667
  30
0.0
  10
 2369.1394110599
  20
 5440.2946069832
  30
0.0
  77
1
   0
LEADER
   5
318
 100
AcDbEntity
   8
LEVEL001
 370
13
   6
CONTINUOUS
  62
1
 100
AcDbLeader
   3
GMM002
  73
3
  74
1
  75
0
  40
 60.000000000000
  41
0.0
  76
2
  10
 2839.8482853579
  20
 4910.1685393258
  30
0.0
  10
 2852.4084021751
  20
 5395.1806039092
  30
0.0
  77
1
   0
LEADER
   5
319
 100
AcDbEntity
   8
LEVEL001
 370
13
   6
CONTINUOUS
  62
1
 100
AcDbLeader
   3
GMM002
  73
3
  74
1
  75
0
  40
 60.000000000000
  41
0.0
  76
2
  10
 3003.7078651685
  20
 5126.6685393258
  30
0.0
  10
 3168.1237035037
  20
 5404.8878007884
  30
0.0
  77
1
   0
LEADER
   5
31A
 100
AcDbEntity
   8
LEVEL001
 370
13
   6
CONTINUOUS
  62
1
 100
AcDbLeader
   3
GMM002
  73
3
  74
1
  75
0
  40
 60.000000000000
  41
0.0
  76
2
  10
 3086.7078736884
  20
 4910.1685393258
  30
0.0
  10
 3332.2230145382
  20
 5402.3965568024
  30
0.0
  77
1
   0
LEADER
   5
31B
 100
AcDbEntity
   8
LEVEL001
 370
13
   6
CONTINUOUS
  62
1
 100
AcDbLeader
   3
GMM002
  73
3
  74
1
  75
0
  40
 60.000000000000
  41
0.0
  76
2
  10
 3068.6565956373
  20
 3747.1678069040
  30
0.0
  10
 3142.6536844153
  20
 3788.4284018764
  30
0.0
  77
1
   0
LINE
   5
31C
 100
AcDbEntity
   8
LEVEL001
 370
13
 100
AcDbLine
   6
CONTINUOUS
  62
7
  10
 8103.7078651685
  20
 5705.1685393258
  30
0.0
  11
 303.70786516854
  21
 5705.1685393258
  31
0.0
   0
LINE
   5
31D
 100
AcDbEntity
   8
LEVEL001
 370
13
 100
AcDbLine
   6
CONTINUOUS
  62
7
  10
 303.70786516854
  20
 5705.1685393258
  30
0.0
  11
 303.70786516854
  21
 205.16853932584
  31
0.0
   0
LINE
   5
31E
 100
AcDbEntity
   8
LEVEL001
 370
13
 100
AcDbLine
   6
CONTINUOUS
  62
7
  10
 303.70786516854
  20
 205.16853932584
  30
0.0
  11
 8103.7078651685
  21
 205.16853932584
  31
0.0
   0
LINE
   5
31F
 100
AcDbEntity
   8
LEVEL001
 370
13
 100
AcDbLine
   6
CONTINUOUS
  62
7
  10
 8103.7078651685
  20
 205.16853932584
  30
0.0
  11
 8103.7078651685
  21
 5705.1685393258
  31
0.0
   0
MTEXT
   5
320
 100
AcDbEntity
   8
LEVEL001
 370
13
  62
1
 100
AcDbMText
  10
 1753.7078651685
  20
 3822.6685393258
  30
0.0
  40
 57.142857142858
  41
0.0
  71
5
  72
1
   1
\T1.000000;12
   7
GMM001
  44
 0.79999984000003
   0
MTEXT
   5
321
 100
AcDbEntity
   8
LEVEL001
 370
13
  62
1
 100
AcDbMText
  10
 7343.7078651685
  20
 1805.1685393258
  30
0.0
  40
 51.428571428572
  41
0.0
  71
4
  72
1
   1
\T1.000000;静電粉体塗装
   7
GMM001
  44
 0.79999984000003
   0
MTEXT
   5
322
 100
AcDbEntity
   8
LEVEL001
 370
13
  62
1
 100
AcDbMText
  10
 6783.7078651685
  20
 1805.1685393258
  30
0.0
  40
 51.428571428572
  41
0.0
  71
4
  72
1
   1
\T1.000000;ＳＴＫ４００
   7
GMM001
  44
 0.79999984000003
   0
MTEXT
   5
323
 100
AcDbEntity
   8
LEVEL001
 370
13
  62
1
 100
AcDbMText
  10
 6715.7078651685
  20
 1805.1685393258
  30
0.0
  40
 51.428571428572
  41
0.0
  71
6
  72
1
   1
\T1.000000;１
   7
GMM001
  44
 0.79999984000003
   0
MTEXT
   5
324
 100
AcDbEntity
   8
LEVEL001
 370
13
  62
1
 100
AcDbMText
  10
 5703.7078651685
  20
 1805.1685393258
  30
0.0
  40
 51.428571428572
  41
0.0
  71
4
  72
1
   1
\T1.000000;支柱
   7
GMM001
  44
 0.79999984000003
   0
MTEXT
   5
325
 100
AcDbEntity
   8
LEVEL001
 370
13
  62
1
 100
AcDbMText
  10
 6715.7078651685
  20
 2165.1685393258
  30
0.0
  40
 51.428571428572
  41
0.0
  71
6
  72
1
   1
\T1.000000;１
   7
GMM001
  44
 0.79999984000003
   0
MTEXT
   5
326
 100
AcDbEntity
   8
LEVEL001
 370
13
  62
1
 100
AcDbMText
  10
 6715.7078651685
  20
 2285.1685393258
  30
0.0
  40
 51.428571428572
  41
0.0
  71
6
  72
1
   1
\T1.000000;１
   7
GMM001
  44
 0.79999984000003
   0
MTEXT
   5
327
 100
AcDbEntity
   8
LEVEL001
 370
13
  62
1
 100
AcDbMText
  10
 6715.7078651685
  20
 2405.1685393258
  30
0.0
  40
 51.428571428572
  41
0.0
  71
6
  72
1
   1
\T1.000000;１
   7
GMM001
  44
 0.79999984000003
   0
MTEXT
   5
328
 100
AcDbEntity
   8
LEVEL001
 370
13
  62
1
 100
AcDbMText
  10
 6715.7078651685
  20
 2525.1685393258
  30
0.0
  40
 51.428571428572
  41
0.0
  71
6
  72
1
   1
\T1.000000;１
   7
GMM001
  44
 0.79999984000003
   0
MTEXT
   5
329
 100
AcDbEntity
   8
LEVEL001
 370
13
  62
1
 100
AcDbMText
  10
 6715.7078651685
  20
 2645.1685393258
  30
0.0
  40
 51.428571428572
  41
0.0
  71
6
  72
1
   1
\T1.000000;１
   7
GMM001
  44
 0.79999984000003
   0
MTEXT
   5
32A
 100
AcDbEntity
   8
LEVEL001
 370
13
  62
1
 100
AcDbMText
  10
 6715.7078651685
  20
 2765.1685393258
  30
0.0
  40
 51.428571428572
  41
0.0
  71
6
  72
1
   1
\T1.000000;１
   7
GMM001
  44
 0.79999984000003
   0
MTEXT
   5
32B
 100
AcDbEntity
   8
LEVEL001
 370
13
  62
1
 100
AcDbMText
  10
 6715.7078651685
  20
 2045.1685393258
  30
0.0
  40
 51.428571428572
  41
0.0
  71
6
  72
1
   1
\T1.000000;６
   7
GMM001
  44
 0.79999984000003
   0
MTEXT
   5
32C
 100
AcDbEntity
   8
LEVEL001
 370
13
  62
1
 100
AcDbMText
  10
 6715.7078651685
  20
 1925.1685393258
  30
0.0
  40
 51.428571428572
  41
0.0
  71
6
  72
1
   1
\T1.000000;４
   7
GMM001
  44
 0.79999984000003
   0
MTEXT
   5
32E
 100
AcDbEntity
   8
LEVEL001
 370
13
  62
1
 100
AcDbMText
  10
 2224.3564703779
  20
 1831.3984763661
  30
0.0
  40
 40.000000000000
  41
0.0
  71
7
  72
1
   1
\T1.000000;ＧＬ
   7
GMM003
  44
 0.79999984000003
   0
LINE
   5
32F
 100
AcDbEntity
   8
LEVEL001
 370
13
 100
AcDbLine
   6
CONTINUOUS
  62
1
  10
 2196.2077999331
  20
 1822.6685393258
  30
0.0
  11
 2171.2077999331
  21
 1872.6685393258
  31
0.0
   0
LINE
   5
330
 100
AcDbEntity
   8
LEVEL001
 370
13
 100
AcDbLine
   6
CONTINUOUS
  62
1
  10
 2171.2077999331
  20
 1872.6685393258
  30
0.0
  11
 2221.2077999331
  21
 1872.6685393258
  31
0.0
   0
LINE
   5
331
 100
AcDbEntity
   8
LEVEL001
 370
13
 100
AcDbLine
   6
CONTINUOUS
  62
1
  10
 2221.2077999331
  20
 1872.6685393258
  30
0.0
  11
 2196.2077999331
  21
 1822.6685393258
  31
0.0
   0
CIRCLE
   5
332
 100
AcDbEntity
   8
LEVEL001
 370
13
 100
AcDbCircle
   6
CONTINUOUS
  62
1
  10
 2213.7078651685
  20
 872.66853932584
  30
0.0
  40
 70.000000000000
   0
LEADER
   5
333
 100
AcDbEntity
   8
LEVEL001
 370
13
   6
CONTINUOUS
  62
1
 100
AcDbLeader
   3
GMM002
  73
3
  74
1
  75
0
  40
 60.000000000000
  41
0.0
  76
2
  10
 2487.3079628247
  20
 1015.1685393258
  30
0.0
  10
 2275.7124145823
  20
 905.15601155728
  30
0.0
  77
1
   0
MTEXT
   5
334
 100
AcDbEntity
   8
LEVEL001
 370
13
  62
1
 100
AcDbMText
  10
 2213.7078651685
  20
 872.66853932584
  30
0.0
  40
 57.142857142858
  41
0.0
  71
5
  72
1
   1
\T1.000000;10
   7
GMM001
  44
 0.79999984000003
   0
CIRCLE
   5
335
 100
AcDbEntity
   8
LEVEL001
 370
13
 100
AcDbCircle
   6
CONTINUOUS
  62
7
  10
 2603.7078651685
  20
 1122.6685393258
  30
0.0
  40
 7.5000000000000
   0
LINE
   5
336
 100
AcDbEntity
   8
LEVEL001
 370
13
 100
AcDbLine
   6
DASHDOT
  62
6
  10
 2573.7078651685
  20
 1122.6685393258
  30
0.0
  11
 2633.7078651685
  21
 1122.6685393258
  31
0.0
   0
LINE
   5
337
 100
AcDbEntity
   8
LEVEL001
 370
13
 100
AcDbLine
   6
CONTINUOUS
  62
7
  10
 2559.1578163403
  20
 1030.1685393258
  30
0.0
  11
 2487.3079628247
  21
 1030.1685393258
  31
0.0
   0
LINE
   5
338
 100
AcDbEntity
   8
LEVEL001
 370
13
 100
AcDbLine
   6
CONTINUOUS
  62
7
  10
 2487.3079628247
  20
 1030.1685393258
  30
0.0
  11
 2487.3079628247
  21
 1015.1685393258
  31
0.0
   0
LINE
   5
339
 100
AcDbEntity
   8
LEVEL001
 370
13
 100
AcDbLine
   6
CONTINUOUS
  62
7
  10
 2487.3079628247
  20
 1015.1685393258
  30
0.0
  11
 2559.1578163403
  21
 1015.1685393258
  31
0.0
   0
LINE
   5
33A
 100
AcDbEntity
   8
LEVEL001
 370
13
 100
AcDbLine
   6
CONTINUOUS
  62
7
  10
 2648.2579139967
  20
 1030.1685393258
  30
0.0
  11
 2720.1077675123
  21
 1030.1685393258
  31
0.0
   0
LINE
   5
33B
 100
AcDbEntity
   8
LEVEL001
 370
13
 100
AcDbLine
   6
CONTINUOUS
  62
7
  10
 2720.1077675123
  20
 1030.1685393258
  30
0.0
  11
 2720.1077675123
  21
 1015.1685393258
  31
0.0
   0
LINE
   5
33C
 100
AcDbEntity
   8
LEVEL001
 370
13
 100
AcDbLine
   6
CONTINUOUS
  62
7
  10
 2720.1077675123
  20
 1015.1685393258
  30
0.0
  11
 2648.2579139967
  21
 1015.1685393258
  31
0.0
   0
LINE
   5
33D
 100
AcDbEntity
   8
LEVEL001
 370
13
 100
AcDbLine
   6
DASHDOT
  62
6
  10
 2537.3079628247
  20
 1022.6685393258
  30
0.0
  11
 2670.1077675123
  21
 1022.6685393258
  31
0.0
   0
LINE
   5
33E
 100
AcDbEntity
   8
LEVEL001
 370
13
 100
AcDbLine
   6
DOT
  62
1
  10
 2648.2579139967
  20
 1015.1685393258
  30
0.0
  11
 2559.1578163403
  21
 1015.1685393258
  31
0.0
   0
LINE
   5
33F
 100
AcDbEntity
   8
LEVEL001
 370
13
 100
AcDbLine
   6
DOT
  62
1
  10
 2559.1578163403
  20
 1030.1685393258
  30
0.0
  11
 2648.2579139967
  21
 1030.1685393258
  31
0.0
   0
ARC
   5
340
 100
AcDbEntity
   8
LEVEL001
 370
13
   6
CONTINUOUS
  62
7
 100
AcDbCircle
  10
 2559.1578651685
  20
 2478.6082592636
  30
0.0
  40
 400.00000000000
 100
AcDbArc
  50
 321.34019174591
  51
0.0
   0
ARC
   5
341
 100
AcDbEntity
   8
LEVEL001
 370
13
   6
DASHDOT
  62
6
 100
AcDbCircle
  10
 2559.1578651685
  20
 2478.6082592634
  30
0.0
  40
 444.55000000000
 100
AcDbArc
  50
 321.34019174591
  51
0.0
   0
ARC
   5
342
 100
AcDbEntity
   8
LEVEL001
 370
13
   6
CONTINUOUS
  62
7
 100
AcDbCircle
  10
 2559.1578651685
  20
 2478.6082592636
  30
0.0
  40
 489.10000000000
 100
AcDbArc
  50
 321.34019174591
  51
0.0
   0
LINE
   5
343
 100
AcDbEntity
   8
LEVEL001
 370
13
 100
AcDbLine
   6
CONTINUOUS
  62
7
  10
 2735.9103413914
  20
 1916.6068384101
  30
0.0
  11
 2941.0807998671
  21
 2173.0699115049
  31
0.0
   0
LINE
   5
344
 100
AcDbEntity
   8
LEVEL001
 370
13
 100
AcDbLine
   6
DASHDOT
  62
6
  10
 2701.1226359307
  20
 1944.4370027785
  30
0.0
  11
 2906.2930944065
  21
 2200.9000758732
  31
0.0
   0
ARC
   5
345
 100
AcDbEntity
   8
LEVEL001
 370
13
   6
DASHDOT
  62
6
 100
AcDbCircle
  10
 3048.2578651685
  20
 1666.7288193881
  30
0.0
  40
 444.55000000000
 100
AcDbArc
  50
 141.34019174591
  51
 180.00000000000
   0
LINE
   5
346
 100
AcDbEntity
   8
LEVEL001
 370
13
 100
AcDbLine
   6
CONTINUOUS
  62
7
  10
 3048.2578651685
  20
 2478.6082592636
  30
0.0
  11
 3048.2578651685
  21
 3710.1678069041
  31
0.0
   0
LINE
   5
347
 100
AcDbEntity
   8
LEVEL001
 370
13
 100
AcDbLine
   6
CONTINUOUS
  62
7
  10
 2959.1578651685
  20
 3710.1678069041
  30
0.0
  11
 2959.1578651685
  21
 2478.6082592636
  31
0.0
   0
LINE
   5
348
 100
AcDbEntity
   8
LEVEL001
 370
13
 100
AcDbLine
   6
DASHDOT
  62
6
  10
 3003.7078651685
  20
 2478.6082592634
  30
0.0
  11
 3003.7078651685
  21
 5176.6685393258
  31
0.0
   0
LINE
   5
349
 100
AcDbEntity
   8
LEVEL001
 370
13
 100
AcDbLine
   6
CONTINUOUS
  62
7
  10
 2559.1578163403
  20
 1666.7287583532
  30
0.0
  11
 2559.1578163403
  21
 722.66853932584
  31
0.0
   0
LINE
   5
34A
 100
AcDbEntity
   8
LEVEL001
 370
13
 100
AcDbLine
   6
CONTINUOUS
  62
7
  10
 2559.1578163403
  20
 722.66853932584
  30
0.0
  11
 2648.2579139967
  21
 722.66853932584
  31
0.0
   0
LINE
   5
34B
 100
AcDbEntity
   8
LEVEL001
 370
13
 100
AcDbLine
   6
CONTINUOUS
  62
7
  10
 2648.2579139967
  20
 722.66853932584
  30
0.0
  11
 2648.2579139967
  21
 1666.9264617384
  31
0.0
   0
ARC
   5
34C
 100
AcDbEntity
   8
LEVEL001
 370
13
   6
CONTINUOUS
  62
7
 100
AcDbCircle
  10
 3048.2578651685
  20
 1666.7288193883
  30
0.0
  40
 400.00000000000
 100
AcDbArc
  50
 141.34019174591
  51
 179.97168981756
   0
ARC
   5
34D
 100
AcDbEntity
   8
LEVEL001
 370
13
   6
CONTINUOUS
  62
7
 100
AcDbCircle
  10
 3048.2578163403
  20
 1666.7287583532
  30
0.0
  40
 489.10000000000
 100
AcDbArc
  50
 141.34019174591
  51
 180.00000000000
   0
LINE
   5
34E
 100
AcDbEntity
   8
LEVEL001
 370
13
 100
AcDbLine
   6
CONTINUOUS
  62
7
  10
 2871.5053889457
  20
 2228.7302402420
  30
0.0
  11
 2666.3348816417
  21
 1972.2671061121
  31
0.0
   0
POINT
   5
34F
 100
AcDbEntity
   8
LEVEL001
 100
AcDbPoint
  62
2
  10
 3003.7078651685
  20
 2322.6685393240
  30
0.0
   0
POINT
   5
350
 100
AcDbEntity
   8
LEVEL001
 100
AcDbPoint
  62
2
  10
 2603.7078651685
  20
 1822.6685393241
  30
0.0
   0
LINE
   5
351
 100
AcDbEntity
   8
LEVEL001
 370
13
 100
AcDbLine
   6
DASHDOT
  62
6
  10
 2603.7078651685
  20
 1666.7288193883
  30
0.0
  11
 2603.7078651685
  21
 622.66853932584
  31
0.0
   0
LINE
   5
352
 100
AcDbEntity
   8
LEVEL001
 370
13
 100
AcDbLine
   6
DASHDOT
  62
6
  10
 1503.7078651685
  20
 5430.1685393258
  30
0.0
  11
 1503.7078651685
  21
 622.66853932584
  31
0.0
   0
CIRCLE
   5
353
 100
AcDbEntity
   8
LEVEL001
 370
13
 100
AcDbCircle
   6
CONTINUOUS
  62
1
  10
 1747.4579139967
  20
 2622.6685393258
  30
0.0
  40
 69.999997913838
   0
LEADER
   5
354
 100
AcDbEntity
   8
LEVEL001
 370
13
   6
CONTINUOUS
  62
1
 100
AcDbLeader
   3
GMM002
  73
3
  74
1
  75
0
  40
 60.000000000000
  41
0.0
  76
2
  10
 1548.2579139967
  20
 2497.6685393258
  30
0.0
  10
 1688.3376509262
  20
 2585.1879549864
  30
0.0
  77
1
   0
MTEXT
   5
355
 100
AcDbEntity
   8
LEVEL001
 370
13
  62
1
 100
AcDbMText
  10
 1747.4579139967
  20
 2622.6685393258
  30
0.0
  40
 57.142857142858
  41
0.0
  71
5
  72
1
   1
\T1.000000;9
   7
GMM001
  44
 0.79999984000003
   0
MTEXT
   5
356
 100
AcDbEntity
   8
LEVEL001
 370
13
  62
1
 100
AcDbMText
  10
 5563.7078651685
  20
 3065.1685393258
  30
0.0
  40
 57.142857142858
  41
0.0
  71
4
  72
1
   1
%%c\T1.000000;１０００（シングル）
   7
GMM001
  44
 0.79999984000003
   0
MTEXT
   5
357
 100
AcDbEntity
   8
LEVEL001
 370
13
  62
1
 100
AcDbMText
  10
 4803.7078651685
  20
 5605.1685393258
  30
0.0
  40
 57.142857142858
  41
0.0
  71
5
  72
1
   1
\T1.000000;背　面　図
   7
GMM001
  44
 0.79999984000003
   0
MTEXT
   5
358
 100
AcDbEntity
   8
LEVEL001
 370
13
  62
1
 100
AcDbMText
  10
 3003.7078651685
  20
 5605.1685393258
  30
0.0
  40
 57.142857142858
  41
0.0
  71
5
  72
1
   1
\T1.000000;側　面　図
   7
GMM001
  44
 0.79999984000003
   0
MTEXT
   5
359
 100
AcDbEntity
   8
LEVEL001
 370
13
  62
1
 100
AcDbMText
  10
 1503.7078651685
  20
 5605.1685393258
  30
0.0
  40
 57.142857142858
  41
0.0
  71
5
  72
1
   1
\T1.000000;正　面　図
   7
GMM001
  44
 0.79999984000003
   0
MTEXT
   5
35A
 100
AcDbEntity
   8
LEVEL001
 370
13
  62
1
 100
AcDbMText
  10
 5563.7078651685
  20
 3225.1685393258
  30
0.0
  40
 57.142857142858
  41
0.0
  71
4
  72
1
   1
\T1.000000;ステンレスミラー　＜Ｚタイプ＞
   7
GMM001
  44
 0.79999984000003
   0
MTEXT
   5
35B
 100
AcDbEntity
   8
LEVEL001
 370
13
  62
1
 100
AcDbMText
  10
 6783.7078651685
  20
 2645.1685393258
  30
0.0
  40
 51.428571428572
  41
0.0
  71
4
  72
1
   1
\T1.000000;高耐食溶融めっき鋼板
   7
GMM004
  44
 0.79999984000003
   0
LINE
   5
35C
 100
AcDbEntity
   8
LEVEL001
 370
13
 100
AcDbLine
   6
CONTINUOUS
  62
5
  10
 1814.3880600152
  20
 1822.6685393258
  30
0.0
  11
 1761.8880600152
  21
 1770.1685393258
  31
0.0
   0
LINE
   5
35D
 100
AcDbEntity
   8
LEVEL001
 370
13
 100
AcDbLine
   6
CONTINUOUS
  62
5
  10
 1777.7979625913
  20
 1770.1685393258
  30
0.0
  11
 1830.2979625913
  21
 1822.6685393258
  31
0.0
   0
LINE
   5
35E
 100
AcDbEntity
   8
LEVEL001
 370
13
 100
AcDbLine
   6
CONTINUOUS
  62
5
  10
 1846.2078651689
  20
 1822.6685393258
  30
0.0
  11
 1793.7078651689
  21
 1770.1685393258
  31
0.0
   0
LINE
   5
35F
 100
AcDbEntity
   8
LEVEL001
 370
13
 100
AcDbLine
   6
CONTINUOUS
  62
5
  10
 1809.6177677449
  20
 1770.1685393258
  30
0.0
  11
 1862.1177677449
  21
 1822.6685393258
  31
0.0
   0
LINE
   5
360
 100
AcDbEntity
   8
LEVEL001
 370
13
 100
AcDbLine
   6
CONTINUOUS
  62
5
  10
 1866.8880600155
  20
 1770.1685393258
  30
0.0
  11
 1838.2529138802
  21
 1798.8036854611
  31
0.0
   0
LINE
   5
361
 100
AcDbEntity
   8
LEVEL001
 370
13
 100
AcDbLine
   6
CONTINUOUS
  62
5
  10
 1846.2078651684
  20
 1806.7586367493
  30
0.0
  11
 1882.7979625919
  21
 1770.1685393258
  31
0.0
   0
LINE
   5
362
 100
AcDbEntity
   8
LEVEL001
 370
13
 100
AcDbLine
   6
CONTINUOUS
  62
5
  10
 1898.7078651684
  20
 1770.1685393258
  30
0.0
  11
 1854.1628164566
  21
 1814.7135880375
  31
0.0
   0
LINE
   5
363
 100
AcDbEntity
   8
LEVEL001
 370
13
 100
AcDbLine
   6
CONTINUOUS
  62
5
  10
 1862.1177677449
  20
 1822.6685393258
  30
0.0
  11
 1914.6177677451
  21
 1770.1685393258
  31
0.0
   0
LINE
   5
364
 100
AcDbEntity
   8
LEVEL001
 370
13
 100
AcDbLine
   6
CONTINUOUS
  62
5
  10
 1914.6177677451
  20
 1770.1685393258
  30
0.0
  11
 1967.1177677451
  21
 1822.6685393258
  31
0.0
   0
LINE
   5
365
 100
AcDbEntity
   8
LEVEL001
 370
13
 100
AcDbLine
   6
CONTINUOUS
  62
5
  10
 1919.3880600154
  20
 1822.6685393258
  30
0.0
  11
 1890.7529138802
  21
 1794.0333931906
  31
0.0
   0
LINE
   5
366
 100
AcDbEntity
   8
LEVEL001
 370
13
 100
AcDbLine
   6
CONTINUOUS
  62
5
  10
 1898.7078651682
  20
 1786.0784419026
  30
0.0
  11
 1935.2979625915
  21
 1822.6685393258
  31
0.0
   0
LINE
   5
367
 100
AcDbEntity
   8
LEVEL001
 370
13
 100
AcDbLine
   6
CONTINUOUS
  62
5
  10
 1951.2078651691
  20
 1822.6685393258
  30
0.0
  11
 1906.6628164571
  21
 1778.1234906138
  31
0.0
   0
LINE
   5
368
 100
AcDbEntity
   8
LEVEL001
 370
13
 100
AcDbLine
   6
CONTINUOUS
  62
5
  10
 1971.8880600157
  20
 1770.1685393258
  30
0.0
  11
 1943.2529138803
  21
 1798.8036854611
  31
0.0
   0
LINE
   5
369
 100
AcDbEntity
   8
LEVEL001
 370
13
 100
AcDbLine
   6
CONTINUOUS
  62
5
  10
 1951.2078651685
  20
 1806.7586367493
  30
0.0
  11
 1987.7979625921
  21
 1770.1685393258
  31
0.0
   0
LINE
   5
36A
 100
AcDbEntity
   8
LEVEL001
 370
13
 100
AcDbLine
   6
CONTINUOUS
  62
5
  10
 2003.7078651685
  20
 1770.1685393258
  30
0.0
  11
 1959.1628164567
  21
 1814.7135880375
  31
0.0
   0
LINE
   5
36B
 100
AcDbEntity
   8
LEVEL001
 370
13
 100
AcDbLine
   6
CONTINUOUS
  62
5
  10
 1967.1177677451
  20
 1822.6685393258
  30
0.0
  11
 2003.7078651685
  21
 1786.0784419025
  31
0.0
   0
LINE
   5
36C
 100
AcDbEntity
   8
LEVEL001
 370
13
 100
AcDbLine
   6
CONTINUOUS
  62
5
  10
 1753.7078651685
  20
 1608.0238783852
  30
0.0
  11
 1548.2579139967
  21
 1402.5739272133
  31
0.0
   0
LINE
   5
36D
 100
AcDbEntity
   8
LEVEL001
 370
13
 100
AcDbLine
   6
CONTINUOUS
  62
5
  10
 1548.2579139967
  20
 1367.2185881540
  30
0.0
  11
 1753.7078651685
  21
 1572.6685393259
  31
0.0
   0
LINE
   5
36E
 100
AcDbEntity
   8
LEVEL001
 370
13
 100
AcDbLine
   6
CONTINUOUS
  62
5
  10
 1753.7078651685
  20
 1537.3132002666
  30
0.0
  11
 1548.2579139967
  21
 1331.8632490947
  31
0.0
   0
LINE
   5
36F
 100
AcDbEntity
   8
LEVEL001
 370
13
 100
AcDbLine
   6
CONTINUOUS
  62
5
  10
 1753.7078651685
  20
 722.66853932584
  30
0.0
  11
 1753.7078651685
  21
 1822.6685393258
  31
0.0
   0
LINE
   5
370
 100
AcDbEntity
   8
LEVEL001
 370
13
 100
AcDbLine
   6
CONTINUOUS
  62
5
  10
 1548.2579139967
  20
 1822.6685393258
  30
0.0
  11
 2003.7078651685
  21
 1822.6685393258
  31
0.0
   0
LINE
   5
371
 100
AcDbEntity
   8
LEVEL001
 370
13
 100
AcDbLine
   6
CONTINUOUS
  62
5
  10
 2353.7078651685
  20
 1822.6685393258
  30
0.0
  11
 2353.7078651685
  21
 722.66853932584
  31
0.0
   0
LINE
   5
372
 100
AcDbEntity
   8
LEVEL001
 370
13
 100
AcDbLine
   6
CONTINUOUS
  62
5
  10
 2264.6177677451
  20
 1770.1685393258
  30
0.0
  11
 2317.1177677451
  21
 1822.6685393258
  31
0.0
   0
LINE
   5
373
 100
AcDbEntity
   8
LEVEL001
 370
13
 100
AcDbLine
   6
CONTINUOUS
  62
5
  10
 2248.7078651683
  20
 1786.0784419026
  30
0.0
  11
 2285.2979625915
  21
 1822.6685393258
  31
0.0
   0
LINE
   5
374
 100
AcDbEntity
   8
LEVEL001
 370
13
 100
AcDbLine
   6
CONTINUOUS
  62
5
  10
 2301.2078651691
  20
 1822.6685393258
  30
0.0
  11
 2256.6628164571
  21
 1778.1234906138
  31
0.0
   0
LINE
   5
375
 100
AcDbEntity
   8
LEVEL001
 370
13
 100
AcDbLine
   6
CONTINUOUS
  62
5
  10
 2321.8880600157
  20
 1770.1685393258
  30
0.0
  11
 2293.2529138803
  21
 1798.8036854611
  31
0.0
   0
LINE
   5
376
 100
AcDbEntity
   8
LEVEL001
 370
13
 100
AcDbLine
   6
CONTINUOUS
  62
5
  10
 2301.2078651685
  20
 1806.7586367493
  30
0.0
  11
 2337.7979625921
  21
 1770.1685393258
  31
0.0
   0
LINE
   5
377
 100
AcDbEntity
   8
LEVEL001
 370
13
 100
AcDbLine
   6
CONTINUOUS
  62
5
  10
 2353.7078651685
  20
 1770.1685393258
  30
0.0
  11
 2309.1628164567
  21
 1814.7135880375
  31
0.0
   0
LINE
   5
378
 100
AcDbEntity
   8
LEVEL001
 370
13
 100
AcDbLine
   6
CONTINUOUS
  62
5
  10
 2164.3880600151
  20
 1822.6685393258
  30
0.0
  11
 2111.8880600151
  21
 1770.1685393258
  31
0.0
   0
LINE
   5
379
 100
AcDbEntity
   8
LEVEL001
 370
13
 100
AcDbLine
   6
CONTINUOUS
  62
5
  10
 2127.7979625914
  20
 1770.1685393258
  30
0.0
  11
 2180.2979625914
  21
 1822.6685393258
  31
0.0
   0
LINE
   5
37A
 100
AcDbEntity
   8
LEVEL001
 370
13
 100
AcDbLine
   6
CONTINUOUS
  62
5
  10
 2196.2078651689
  20
 1822.6685393258
  30
0.0
  11
 2143.7078651689
  21
 1770.1685393258
  31
0.0
   0
LINE
   5
37B
 100
AcDbEntity
   8
LEVEL001
 370
13
 100
AcDbLine
   6
CONTINUOUS
  62
5
  10
 2159.6177677449
  20
 1770.1685393258
  30
0.0
  11
 2212.1177677449
  21
 1822.6685393258
  31
0.0
   0
LINE
   5
37C
 100
AcDbEntity
   8
LEVEL001
 370
13
 100
AcDbLine
   6
CONTINUOUS
  62
5
  10
 2216.8880600155
  20
 1770.1685393258
  30
0.0
  11
 2188.2529138801
  21
 1798.8036854611
  31
0.0
   0
LINE
   5
37D
 100
AcDbEntity
   8
LEVEL001
 370
13
 100
AcDbLine
   6
CONTINUOUS
  62
5
  10
 2196.2078651683
  20
 1806.7586367493
  30
0.0
  11
 2232.7979625920
  21
 1770.1685393258
  31
0.0
   0
LINE
   5
37E
 100
AcDbEntity
   8
LEVEL001
 370
13
 100
AcDbLine
   6
CONTINUOUS
  62
5
  10
 2248.7078651683
  20
 1770.1685393258
  30
0.0
  11
 2204.1628164565
  21
 1814.7135880375
  31
0.0
   0
LINE
   5
37F
 100
AcDbEntity
   8
LEVEL001
 370
13
 100
AcDbLine
   6
CONTINUOUS
  62
5
  10
 2212.1177677449
  20
 1822.6685393258
  30
0.0
  11
 2264.6177677451
  21
 1770.1685393258
  31
0.0
   0
LINE
   5
380
 100
AcDbEntity
   8
LEVEL001
 370
13
 100
AcDbLine
   6
CONTINUOUS
  62
5
  10
 2269.3880600153
  20
 1822.6685393258
  30
0.0
  11
 2240.7529138801
  21
 1794.0333931906
  31
0.0
   0
LINE
   5
381
 100
AcDbEntity
   8
LEVEL001
 370
13
 100
AcDbLine
   6
CONTINUOUS
  62
5
  10
 2317.1177677451
  20
 1822.6685393258
  30
0.0
  11
 2353.7078651685
  21
 1786.0784419025
  31
0.0
   0
LINE
   5
382
 100
AcDbEntity
   8
LEVEL001
 370
13
 100
AcDbLine
   6
CONTINUOUS
  62
5
  10
 2584.6830168633
  20
 1822.6685393258
  30
0.0
  11
 2103.7078651685
  21
 1822.6685393258
  31
0.0
   0
LINE
   5
383
 100
AcDbEntity
   8
LEVEL001
 370
13
 100
AcDbLine
   6
CONTINUOUS
  62
5
  10
 2914.3880600151
  20
 1822.6685393258
  30
0.0
  11
 2861.8880600151
  21
 1770.1685393258
  31
0.0
   0
LINE
   5
384
 100
AcDbEntity
   8
LEVEL001
 370
13
 100
AcDbLine
   6
CONTINUOUS
  62
5
  10
 2877.7979625913
  20
 1770.1685393258
  30
0.0
  11
 2930.2979625913
  21
 1822.6685393258
  31
0.0
   0
LINE
   5
385
 100
AcDbEntity
   8
LEVEL001
 370
13
 100
AcDbLine
   6
CONTINUOUS
  62
5
  10
 2946.2078651689
  20
 1822.6685393258
  30
0.0
  11
 2893.7078651689
  21
 1770.1685393258
  31
0.0
   0
LINE
   5
386
 100
AcDbEntity
   8
LEVEL001
 370
13
 100
AcDbLine
   6
CONTINUOUS
  62
5
  10
 2909.6177677449
  20
 1770.1685393258
  30
0.0
  11
 2962.1177677449
  21
 1822.6685393258
  31
0.0
   0
LINE
   5
387
 100
AcDbEntity
   8
LEVEL001
 370
13
 100
AcDbLine
   6
CONTINUOUS
  62
5
  10
 2966.8880600155
  20
 1770.1685393258
  30
0.0
  11
 2938.2529138801
  21
 1798.8036854611
  31
0.0
   0
LINE
   5
388
 100
AcDbEntity
   8
LEVEL001
 370
13
 100
AcDbLine
   6
CONTINUOUS
  62
5
  10
 2946.2078651683
  20
 1806.7586367493
  30
0.0
  11
 2982.7979625919
  21
 1770.1685393258
  31
0.0
   0
LINE
   5
389
 100
AcDbEntity
   8
LEVEL001
 370
13
 100
AcDbLine
   6
CONTINUOUS
  62
5
  10
 2998.7078651683
  20
 1770.1685393258
  30
0.0
  11
 2954.1628164565
  21
 1814.7135880375
  31
0.0
   0
LINE
   5
38A
 100
AcDbEntity
   8
LEVEL001
 370
13
 100
AcDbLine
   6
CONTINUOUS
  62
5
  10
 2962.1177677449
  20
 1822.6685393258
  30
0.0
  11
 3014.6177677451
  21
 1770.1685393258
  31
0.0
   0
LINE
   5
38B
 100
AcDbEntity
   8
LEVEL001
 370
13
 100
AcDbLine
   6
CONTINUOUS
  62
5
  10
 3014.6177677451
  20
 1770.1685393258
  30
0.0
  11
 3067.1177677451
  21
 1822.6685393258
  31
0.0
   0
LINE
   5
38C
 100
AcDbEntity
   8
LEVEL001
 370
13
 100
AcDbLine
   6
CONTINUOUS
  62
5
  10
 3019.3880600153
  20
 1822.6685393258
  30
0.0
  11
 2990.7529138801
  21
 1794.0333931906
  31
0.0
   0
LINE
   5
38D
 100
AcDbEntity
   8
LEVEL001
 370
13
 100
AcDbLine
   6
CONTINUOUS
  62
5
  10
 2998.7078651683
  20
 1786.0784419026
  30
0.0
  11
 3035.2979625915
  21
 1822.6685393258
  31
0.0
   0
LINE
   5
38E
 100
AcDbEntity
   8
LEVEL001
 370
13
 100
AcDbLine
   6
CONTINUOUS
  62
5
  10
 3051.2078651691
  20
 1822.6685393258
  30
0.0
  11
 3006.6628164571
  21
 1778.1234906138
  31
0.0
   0
LINE
   5
38F
 100
AcDbEntity
   8
LEVEL001
 370
13
 100
AcDbLine
   6
CONTINUOUS
  62
5
  10
 3071.8880600157
  20
 1770.1685393258
  30
0.0
  11
 3043.2529138803
  21
 1798.8036854611
  31
0.0
   0
LINE
   5
390
 100
AcDbEntity
   8
LEVEL001
 370
13
 100
AcDbLine
   6
CONTINUOUS
  62
5
  10
 3051.2078651685
  20
 1806.7586367493
  30
0.0
  11
 3087.7979625921
  21
 1770.1685393258
  31
0.0
   0
LINE
   5
391
 100
AcDbEntity
   8
LEVEL001
 370
13
 100
AcDbLine
   6
CONTINUOUS
  62
5
  10
 3103.7078651685
  20
 1770.1685393258
  30
0.0
  11
 3059.1628164567
  21
 1814.7135880375
  31
0.0
   0
LINE
   5
392
 100
AcDbEntity
   8
LEVEL001
 370
13
 100
AcDbLine
   6
CONTINUOUS
  62
5
  10
 3067.1177677451
  20
 1822.6685393258
  30
0.0
  11
 3103.7078651685
  21
 1786.0784419025
  31
0.0
   0
LINE
   5
393
 100
AcDbEntity
   8
LEVEL001
 370
13
 100
AcDbLine
   6
CONTINUOUS
  62
5
  10
 2853.7078651685
  20
 1608.0238783852
  30
0.0
  11
 2648.2579139967
  21
 1402.5739272133
  31
0.0
   0
LINE
   5
394
 100
AcDbEntity
   8
LEVEL001
 370
13
 100
AcDbLine
   6
CONTINUOUS
  62
5
  10
 2648.2579139967
  20
 1367.2185881540
  30
0.0
  11
 2853.7078651685
  21
 1572.6685393259
  31
0.0
   0
LINE
   5
395
 100
AcDbEntity
   8
LEVEL001
 370
13
 100
AcDbLine
   6
CONTINUOUS
  62
5
  10
 2853.7078651685
  20
 1537.3132002666
  30
0.0
  11
 2648.2579139967
  21
 1331.8632490947
  31
0.0
   0
LINE
   5
396
 100
AcDbEntity
   8
LEVEL001
 370
13
 100
AcDbLine
   6
CONTINUOUS
  62
5
  10
 2853.7078651685
  20
 722.66853932584
  30
0.0
  11
 2853.7078651685
  21
 1822.6685393258
  31
0.0
   0
LINE
   5
397
 100
AcDbEntity
   8
LEVEL001
 370
13
 100
AcDbLine
   6
CONTINUOUS
  62
5
  10
 2679.9063974834
  20
 1822.6685393258
  30
0.0
  11
 3103.7078651685
  21
 1822.6685393258
  31
0.0
   0
LINE
   5
398
 100
AcDbEntity
   8
LEVEL001
 370
13
 100
AcDbLine
   6
CONTINUOUS
  62
5
  10
 2559.1578163403
  20
 1242.7631514384
  30
0.0
  11
 2353.7078651685
  21
 1037.3132002666
  31
0.0
   0
LINE
   5
399
 100
AcDbEntity
   8
LEVEL001
 370
13
 100
AcDbLine
   6
CONTINUOUS
  62
5
  10
 2353.7078651685
  20
 1072.6685393259
  30
0.0
  11
 2559.1578163403
  21
 1278.1184904978
  31
0.0
   0
LINE
   5
39A
 100
AcDbEntity
   8
LEVEL001
 370
13
 100
AcDbLine
   6
CONTINUOUS
  62
5
  10
 2559.1578163403
  20
 1313.4738295571
  30
0.0
  11
 2353.7078651685
  21
 1108.0238783852
  31
0.0
   0
LINE
   5
39B
 100
AcDbEntity
   8
LEVEL001
 370
13
 100
AcDbLine
   6
CONTINUOUS
  62
5
  10
 2853.7078651685
  20
 722.66853932584
  30
0.0
  11
 2353.7078651685
  21
 722.66853932584
  31
0.0
   0
LINE
   5
39C
 100
AcDbEntity
   8
LEVEL001
 370
13
 100
AcDbLine
   6
CONTINUOUS
  62
5
  10
 2353.7078651685
  20
 722.66853932584
  30
0.0
  11
 2353.7078651685
  21
 622.66853932584
  31
0.0
   0
LINE
   5
39D
 100
AcDbEntity
   8
LEVEL001
 370
13
 100
AcDbLine
   6
CONTINUOUS
  62
5
  10
 2353.7078651685
  20
 622.66853932584
  30
0.0
  11
 2853.7078651685
  21
 622.66853932584
  31
0.0
   0
LINE
   5
39E
 100
AcDbEntity
   8
LEVEL001
 370
13
 100
AcDbLine
   6
CONTINUOUS
  62
5
  10
 2353.7078651685
  20
 722.66853932584
  30
0.0
  11
 2853.7078651685
  21
 722.66853932584
  31
0.0
   0
LINE
   5
39F
 100
AcDbEntity
   8
LEVEL001
 370
13
 100
AcDbLine
   6
CONTINUOUS
  62
5
  10
 2403.7078651685
  20
 722.66853932584
  30
0.0
  11
 2353.7078651685
  21
 622.66853932584
  31
0.0
   0
LINE
   5
3A0
 100
AcDbEntity
   8
LEVEL001
 370
13
 100
AcDbLine
   6
CONTINUOUS
  62
5
  10
 2353.7078651685
  20
 722.66853932584
  30
0.0
  11
 2393.7078651685
  21
 702.66853932584
  31
0.0
   0
LINE
   5
3A1
 100
AcDbEntity
   8
LEVEL001
 370
13
 100
AcDbLine
   6
CONTINUOUS
  62
5
  10
 2403.7078651685
  20
 622.66853932584
  30
0.0
  11
 2363.7078651685
  21
 642.66853932584
  31
0.0
   0
LINE
   5
3A2
 100
AcDbEntity
   8
LEVEL001
 370
13
 100
AcDbLine
   6
CONTINUOUS
  62
5
  10
 2503.7078651685
  20
 722.66853932584
  30
0.0
  11
 2453.7078651685
  21
 622.66853932584
  31
0.0
   0
LINE
   5
3A3
 100
AcDbEntity
   8
LEVEL001
 370
13
 100
AcDbLine
   6
CONTINUOUS
  62
5
  10
 2453.7078651685
  20
 722.66853932584
  30
0.0
  11
 2493.7078651685
  21
 702.66853932584
  31
0.0
   0
LINE
   5
3A4
 100
AcDbEntity
   8
LEVEL001
 370
13
 100
AcDbLine
   6
CONTINUOUS
  62
5
  10
 2453.7078651685
  20
 722.66853932584
  30
0.0
  11
 2403.7078651685
  21
 622.66853932584
  31
0.0
   0
LINE
   5
3A5
 100
AcDbEntity
   8
LEVEL001
 370
13
 100
AcDbLine
   6
CONTINUOUS
  62
5
  10
 2403.7078651685
  20
 722.66853932584
  30
0.0
  11
 2443.7078651685
  21
 702.66853932584
  31
0.0
   0
LINE
   5
3A6
 100
AcDbEntity
   8
LEVEL001
 370
13
 100
AcDbLine
   6
CONTINUOUS
  62
5
  10
 2503.7078651685
  20
 622.66853932584
  30
0.0
  11
 2463.7078651685
  21
 642.66853932584
  31
0.0
   0
LINE
   5
3A7
 100
AcDbEntity
   8
LEVEL001
 370
13
 100
AcDbLine
   6
CONTINUOUS
  62
5
  10
 2453.7078651685
  20
 622.66853932584
  30
0.0
  11
 2413.7078651685
  21
 642.66853932584
  31
0.0
   0
LINE
   5
3A8
 100
AcDbEntity
   8
LEVEL001
 370
13
 100
AcDbLine
   6
CONTINUOUS
  62
5
  10
 2853.7078651685
  20
 722.66853932584
  30
0.0
  11
 2803.7078651685
  21
 622.66853932584
  31
0.0
   0
LINE
   5
3A9
 100
AcDbEntity
   8
LEVEL001
 370
13
 100
AcDbLine
   6
CONTINUOUS
  62
5
  10
 2803.7078651685
  20
 722.66853932584
  30
0.0
  11
 2843.7078651685
  21
 702.66853932584
  31
0.0
   0
LINE
   5
3AA
 100
AcDbEntity
   8
LEVEL001
 370
13
 100
AcDbLine
   6
CONTINUOUS
  62
5
  10
 2853.7078651685
  20
 622.66853932584
  30
0.0
  11
 2813.7078651685
  21
 642.66853932584
  31
0.0
   0
LINE
   5
3AB
 100
AcDbEntity
   8
LEVEL001
 370
13
 100
AcDbLine
   6
CONTINUOUS
  62
5
  10
 2853.7078651685
  20
 622.66853932584
  30
0.0
  11
 2853.7078651685
  21
 722.66853932584
  31
0.0
   0
LINE
   5
3AC
 100
AcDbEntity
   8
LEVEL001
 370
13
 100
AcDbLine
   6
CONTINUOUS
  62
5
  10
 2803.7078651685
  20
 722.66853932584
  30
0.0
  11
 2753.7078651685
  21
 622.66853932584
  31
0.0
   0
LINE
   5
3AD
 100
AcDbEntity
   8
LEVEL001
 370
13
 100
AcDbLine
   6
CONTINUOUS
  62
5
  10
 2753.7078651685
  20
 722.66853932584
  30
0.0
  11
 2793.7078651685
  21
 702.66853932584
  31
0.0
   0
LINE
   5
3AE
 100
AcDbEntity
   8
LEVEL001
 370
13
 100
AcDbLine
   6
CONTINUOUS
  62
5
  10
 2753.7078651685
  20
 722.66853932584
  30
0.0
  11
 2703.7078651685
  21
 622.66853932584
  31
0.0
   0
LINE
   5
3AF
 100
AcDbEntity
   8
LEVEL001
 370
13
 100
AcDbLine
   6
CONTINUOUS
  62
5
  10
 2703.7078651685
  20
 722.66853932584
  30
0.0
  11
 2743.7078651685
  21
 702.66853932584
  31
0.0
   0
LINE
   5
3B0
 100
AcDbEntity
   8
LEVEL001
 370
13
 100
AcDbLine
   6
CONTINUOUS
  62
5
  10
 2803.7078651685
  20
 622.66853932584
  30
0.0
  11
 2763.7078651685
  21
 642.66853932584
  31
0.0
   0
LINE
   5
3B1
 100
AcDbEntity
   8
LEVEL001
 370
13
 100
AcDbLine
   6
CONTINUOUS
  62
5
  10
 2753.7078651685
  20
 622.66853932584
  30
0.0
  11
 2713.7078651685
  21
 642.66853932584
  31
0.0
   0
LINE
   5
3B2
 100
AcDbEntity
   8
LEVEL001
 370
13
 100
AcDbLine
   6
CONTINUOUS
  62
5
  10
 1753.7078651685
  20
 722.66853932584
  30
0.0
  11
 1703.7078651685
  21
 622.66853932584
  31
0.0
   0
LINE
   5
3B3
 100
AcDbEntity
   8
LEVEL001
 370
13
 100
AcDbLine
   6
CONTINUOUS
  62
5
  10
 1703.7078651685
  20
 722.66853932584
  30
0.0
  11
 1743.7078651685
  21
 702.66853932584
  31
0.0
   0
LINE
   5
3B4
 100
AcDbEntity
   8
LEVEL001
 370
13
 100
AcDbLine
   6
CONTINUOUS
  62
5
  10
 1703.7078651685
  20
 722.66853932584
  30
0.0
  11
 1653.7078651685
  21
 622.66853932584
  31
0.0
   0
LINE
   5
3B5
 100
AcDbEntity
   8
LEVEL001
 370
13
 100
AcDbLine
   6
CONTINUOUS
  62
5
  10
 1653.7078651685
  20
 722.66853932584
  30
0.0
  11
 1693.7078651685
  21
 702.66853932584
  31
0.0
   0
LINE
   5
3B6
 100
AcDbEntity
   8
LEVEL001
 370
13
 100
AcDbLine
   6
CONTINUOUS
  62
5
  10
 1653.7078651685
  20
 722.66853932584
  30
0.0
  11
 1603.7078651685
  21
 622.66853932584
  31
0.0
   0
LINE
   5
3B7
 100
AcDbEntity
   8
LEVEL001
 370
13
 100
AcDbLine
   6
CONTINUOUS
  62
5
  10
 1603.7078651685
  20
 722.66853932584
  30
0.0
  11
 1643.7078651685
  21
 702.66853932584
  31
0.0
   0
LINE
   5
3B8
 100
AcDbEntity
   8
LEVEL001
 370
13
 100
AcDbLine
   6
CONTINUOUS
  62
5
  10
 1753.7078651685
  20
 622.66853932584
  30
0.0
  11
 1713.7078651685
  21
 642.66853932584
  31
0.0
   0
LINE
   5
3B9
 100
AcDbEntity
   8
LEVEL001
 370
13
 100
AcDbLine
   6
CONTINUOUS
  62
5
  10
 1703.7078651685
  20
 622.66853932584
  30
0.0
  11
 1663.7078651685
  21
 642.66853932584
  31
0.0
   0
LINE
   5
3BA
 100
AcDbEntity
   8
LEVEL001
 370
13
 100
AcDbLine
   6
CONTINUOUS
  62
5
  10
 1653.7078651685
  20
 622.66853932584
  30
0.0
  11
 1613.7078651685
  21
 642.66853932584
  31
0.0
   0
LINE
   5
3BB
 100
AcDbEntity
   8
LEVEL001
 370
13
 100
AcDbLine
   6
CONTINUOUS
  62
5
  10
 1753.7078651685
  20
 722.66853932584
  30
0.0
  11
 1253.7078651685
  21
 722.66853932584
  31
0.0
   0
LINE
   5
3BC
 100
AcDbEntity
   8
LEVEL001
 370
13
 100
AcDbLine
   6
CONTINUOUS
  62
5
  10
 1253.7078651685
  20
 622.66853932584
  30
0.0
  11
 1753.7078651685
  21
 622.66853932584
  31
0.0
   0
LINE
   5
3BD
 100
AcDbEntity
   8
LEVEL001
 370
13
 100
AcDbLine
   6
CONTINUOUS
  62
5
  10
 1753.7078651685
  20
 622.66853932584
  30
0.0
  11
 1753.7078651685
  21
 722.66853932584
  31
0.0
   0
LINE
   5
3BE
 100
AcDbEntity
   8
LEVEL001
 370
13
 100
AcDbLine
   6
CONTINUOUS
  62
5
  10
 1253.7078651685
  20
 722.66853932584
  30
0.0
  11
 1753.7078651685
  21
 722.66853932584
  31
0.0
   0
LINE
   5
3BF
 100
AcDbEntity
   8
LEVEL001
 370
13
 100
AcDbLine
   6
CONTINUOUS
  62
5
  10
 1403.7078651685
  20
 722.66853932584
  30
0.0
  11
 1353.7078651685
  21
 622.66853932584
  31
0.0
   0
LINE
   5
3C0
 100
AcDbEntity
   8
LEVEL001
 370
13
 100
AcDbLine
   6
CONTINUOUS
  62
5
  10
 1353.7078651685
  20
 722.66853932584
  30
0.0
  11
 1393.7078651685
  21
 702.66853932584
  31
0.0
   0
LINE
   5
3C1
 100
AcDbEntity
   8
LEVEL001
 370
13
 100
AcDbLine
   6
CONTINUOUS
  62
5
  10
 1353.7078651685
  20
 722.66853932584
  30
0.0
  11
 1303.7078651685
  21
 622.66853932584
  31
0.0
   0
LINE
   5
3C2
 100
AcDbEntity
   8
LEVEL001
 370
13
 100
AcDbLine
   6
CONTINUOUS
  62
5
  10
 1303.7078651685
  20
 722.66853932584
  30
0.0
  11
 1343.7078651685
  21
 702.66853932584
  31
0.0
   0
LINE
   5
3C3
 100
AcDbEntity
   8
LEVEL001
 370
13
 100
AcDbLine
   6
CONTINUOUS
  62
5
  10
 1303.7078651685
  20
 722.66853932584
  30
0.0
  11
 1253.7078651685
  21
 622.66853932584
  31
0.0
   0
LINE
   5
3C4
 100
AcDbEntity
   8
LEVEL001
 370
13
 100
AcDbLine
   6
CONTINUOUS
  62
5
  10
 1253.7078651685
  20
 722.66853932584
  30
0.0
  11
 1293.7078651685
  21
 702.66853932584
  31
0.0
   0
LINE
   5
3C5
 100
AcDbEntity
   8
LEVEL001
 370
13
 100
AcDbLine
   6
CONTINUOUS
  62
5
  10
 1403.7078651685
  20
 622.66853932584
  30
0.0
  11
 1363.7078651685
  21
 642.66853932584
  31
0.0
   0
LINE
   5
3C6
 100
AcDbEntity
   8
LEVEL001
 370
13
 100
AcDbLine
   6
CONTINUOUS
  62
5
  10
 1353.7078651685
  20
 622.66853932584
  30
0.0
  11
 1313.7078651685
  21
 642.66853932584
  31
0.0
   0
LINE
   5
3C7
 100
AcDbEntity
   8
LEVEL001
 370
13
 100
AcDbLine
   6
CONTINUOUS
  62
5
  10
 1303.7078651685
  20
 622.66853932584
  30
0.0
  11
 1263.7078651685
  21
 642.66853932584
  31
0.0
   0
LINE
   5
3C8
 100
AcDbEntity
   8
LEVEL001
 370
13
 100
AcDbLine
   6
CONTINUOUS
  62
5
  10
 1253.7078651685
  20
 722.66853932584
  30
0.0
  11
 1253.7078651685
  21
 622.66853932584
  31
0.0
   0
LINE
   5
3C9
 100
AcDbEntity
   8
LEVEL001
 370
13
 100
AcDbLine
   6
CONTINUOUS
  62
5
  10
 1253.7078651685
  20
 1822.6685393258
  30
0.0
  11
 1253.7078651685
  21
 722.66853932584
  31
0.0
   0
LINE
   5
3CA
 100
AcDbEntity
   8
LEVEL001
 370
13
 100
AcDbLine
   6
CONTINUOUS
  62
5
  10
 1164.6177677451
  20
 1770.1685393258
  30
0.0
  11
 1217.1177677451
  21
 1822.6685393258
  31
0.0
   0
LINE
   5
3CB
 100
AcDbEntity
   8
LEVEL001
 370
13
 100
AcDbLine
   6
CONTINUOUS
  62
5
  10
 1148.7078651682
  20
 1786.0784419026
  30
0.0
  11
 1185.2979625914
  21
 1822.6685393258
  31
0.0
   0
LINE
   5
3CC
 100
AcDbEntity
   8
LEVEL001
 370
13
 100
AcDbLine
   6
CONTINUOUS
  62
5
  10
 1201.2078651691
  20
 1822.6685393258
  30
0.0
  11
 1156.6628164571
  21
 1778.1234906138
  31
0.0
   0
LINE
   5
3CD
 100
AcDbEntity
   8
LEVEL001
 370
13
 100
AcDbLine
   6
CONTINUOUS
  62
5
  10
 1221.8880600157
  20
 1770.1685393258
  30
0.0
  11
 1193.2529138804
  21
 1798.8036854611
  31
0.0
   0
LINE
   5
3CE
 100
AcDbEntity
   8
LEVEL001
 370
13
 100
AcDbLine
   6
CONTINUOUS
  62
5
  10
 1201.2078651686
  20
 1806.7586367493
  30
0.0
  11
 1237.7979625921
  21
 1770.1685393258
  31
0.0
   0
LINE
   5
3CF
 100
AcDbEntity
   8
LEVEL001
 370
13
 100
AcDbLine
   6
CONTINUOUS
  62
5
  10
 1253.7078651685
  20
 1770.1685393258
  30
0.0
  11
 1209.1628164568
  21
 1814.7135880375
  31
0.0
   0
LINE
   5
3D0
 100
AcDbEntity
   8
LEVEL001
 370
13
 100
AcDbLine
   6
CONTINUOUS
  62
5
  10
 1064.3880600152
  20
 1822.6685393258
  30
0.0
  11
 1011.8880600152
  21
 1770.1685393258
  31
0.0
   0
LINE
   5
3D1
 100
AcDbEntity
   8
LEVEL001
 370
13
 100
AcDbLine
   6
CONTINUOUS
  62
5
  10
 1027.7979625913
  20
 1770.1685393258
  30
0.0
  11
 1080.2979625913
  21
 1822.6685393258
  31
0.0
   0
LINE
   5
3D2
 100
AcDbEntity
   8
LEVEL001
 370
13
 100
AcDbLine
   6
CONTINUOUS
  62
5
  10
 1096.2078651689
  20
 1822.6685393258
  30
0.0
  11
 1043.7078651689
  21
 1770.1685393258
  31
0.0
   0
LINE
   5
3D3
 100
AcDbEntity
   8
LEVEL001
 370
13
 100
AcDbLine
   6
CONTINUOUS
  62
5
  10
 1059.6177677449
  20
 1770.1685393258
  30
0.0
  11
 1112.1177677449
  21
 1822.6685393258
  31
0.0
   0
LINE
   5
3D4
 100
AcDbEntity
   8
LEVEL001
 370
13
 100
AcDbLine
   6
CONTINUOUS
  62
5
  10
 1116.8880600155
  20
 1770.1685393258
  30
0.0
  11
 1088.2529138802
  21
 1798.8036854611
  31
0.0
   0
LINE
   5
3D5
 100
AcDbEntity
   8
LEVEL001
 370
13
 100
AcDbLine
   6
CONTINUOUS
  62
5
  10
 1096.2078651684
  20
 1806.7586367493
  30
0.0
  11
 1132.7979625919
  21
 1770.1685393258
  31
0.0
   0
LINE
   5
3D6
 100
AcDbEntity
   8
LEVEL001
 370
13
 100
AcDbLine
   6
CONTINUOUS
  62
5
  10
 1148.7078651684
  20
 1770.1685393258
  30
0.0
  11
 1104.1628164566
  21
 1814.7135880375
  31
0.0
   0
LINE
   5
3D7
 100
AcDbEntity
   8
LEVEL001
 370
13
 100
AcDbLine
   6
CONTINUOUS
  62
5
  10
 1112.1177677449
  20
 1822.6685393258
  30
0.0
  11
 1164.6177677451
  21
 1770.1685393258
  31
0.0
   0
LINE
   5
3D8
 100
AcDbEntity
   8
LEVEL001
 370
13
 100
AcDbLine
   6
CONTINUOUS
  62
5
  10
 1217.1177677451
  20
 1822.6685393258
  30
0.0
  11
 1253.7078651685
  21
 1786.0784419025
  31
0.0
   0
LINE
   5
3D9
 100
AcDbEntity
   8
LEVEL001
 370
13
 100
AcDbLine
   6
CONTINUOUS
  62
5
  10
 1459.1578773756
  20
 1242.7632124736
  30
0.0
  11
 1253.7078651685
  21
 1037.3132002666
  31
0.0
   0
LINE
   5
3DA
 100
AcDbEntity
   8
LEVEL001
 370
13
 100
AcDbLine
   6
CONTINUOUS
  62
5
  10
 1253.7078651685
  20
 1072.6685393259
  30
0.0
  11
 1459.1578773756
  21
 1278.1185515329
  31
0.0
   0
LINE
   5
3DB
 100
AcDbEntity
   8
LEVEL001
 370
13
 100
AcDbLine
   6
CONTINUOUS
  62
5
  10
 1459.1578773756
  20
 1313.4738905922
  30
0.0
  11
 1253.7078651685
  21
 1108.0238783852
  31
0.0
   0
LINE
   5
3DC
 100
AcDbEntity
   8
LEVEL001
 370
13
 100
AcDbLine
   6
CONTINUOUS
  62
5
  10
 1459.1578773756
  20
 1822.6685393258
  30
0.0
  11
 1003.7078651685
  21
 1822.6685393258
  31
0.0
   0
LINE
   5
3DD
 100
AcDbEntity
   8
LEVEL001
 370
13
 100
AcDbLine
   6
CONTINUOUS
  62
5
  10
 1169.3880600154
  20
 1822.6685393258
  30
0.0
  11
 1140.7529138802
  21
 1794.0333931906
  31
0.0
   0
DIMENSION
   5
3DE
 100
AcDbEntity
   8
0
 370
13
   6
CONTINUOUS
  62
1
 100
AcDbDimension
   2
*D14
  10
 1753.7078651685
  20
 422.66853932585
  30
0.0
  11
 1503.7078651685
  21
 422.66853932585
  31
0.0
  70
0
   3
GMM003
 100
AcDbAlignedDimension
  13
 1253.7078651685
  23
 622.66853932585
  33
0.0
  14
 1753.7078651685
  24
 622.66853932585
  34
0.0
 100
AcDbRotatedDimension
   0
DIMENSION
   5
3DF
 100
AcDbEntity
   8
0
 370
13
   6
CONTINUOUS
  62
1
 100
AcDbDimension
   2
*D15
  10
 2853.7078651685
  20
 422.66853932585
  30
0.0
  11
 2603.7078651685
  21
 422.66853932585
  31
0.0
  70
0
   3
GMM003
 100
AcDbAlignedDimension
  13
 2353.7078651685
  23
 622.66853932585
  33
0.0
  14
 2853.7078651685
  24
 622.66853932585
  34
0.0
 100
AcDbRotatedDimension
   0
DIMENSION
   5
3E0
 100
AcDbEntity
   8
0
 370
13
   6
CONTINUOUS
  62
1
 100
AcDbDimension
   2
*D16
  10
 603.70786516854
  20
 622.66853932585
  30
0.0
  11
 603.70786516854
  21
 672.66853932585
  31
0.0
  70
0
   3
GMM004
 100
AcDbAlignedDimension
  13
 1253.7078651685
  23
 722.66853932585
  33
0.0
  14
 1253.7078651685
  24
 622.66853932585
  34
0.0
  50
 270.00000000000
 100
AcDbRotatedDimension
   0
DIMENSION
   5
3E1
 100
AcDbEntity
   8
0
 370
13
   6
CONTINUOUS
  62
1
 100
AcDbDimension
   2
*D17
  10
 603.70786516854
  20
 1822.6685393258
  30
0.0
  11
 603.70786516854
  21
 1272.6685393258
  31
0.0
  70
0
   3
GMM004
 100
AcDbAlignedDimension
  13
 1253.7078651685
  23
 722.66853932585
  33
0.0
  14
 1003.7078651685
  24
 1822.6685393258
  34
0.0
  50
 90.000000000000
 100
AcDbRotatedDimension
   0
DIMENSION
   5
3E2
 100
AcDbEntity
   8
0
 370
13
   6
CONTINUOUS
  62
1
 100
AcDbDimension
   2
*D18
  10
 603.70786516854
  20
 1822.6685393258
  30
0.0
  11
 603.70786516854
  21
 3072.6685393258
  31
0.0
  70
0
   1
\A1;2500(標準設置高さ)
   3
GMM005
 100
AcDbAlignedDimension
  13
 1459.1578773756
  23
 4322.6685393259
  33
0.0
  14
 1003.7078651685
  24
 1822.6685393258
  34
0.0
  50
 270.00000000000
 100
AcDbRotatedDimension
   0
DIMENSION
   5
3E3
 100
AcDbEntity
   8
0
 370
13
   6
CONTINUOUS
  62
1
 100
AcDbDimension
   2
*D19
  10
 1066.3650362574
  20
 4602.6685393259
  30
0.0
  11
 1490.8507223114
  21
 4877.4377639946
  31
0.0
  70
3
   1
\A1;%%c1000
   3
GMM006
 100
AcDbDiametricDimension
  15
 1941.0506940797
  25
 5107.6685393258
  35
0.0
   0
INSERT
   5
3E4
 100
AcDbEntity
   8
0
 100
AcDbBlockReference
   2
BLOCK001
  10
0.0
  20
0.0
  30
0.0
   0
ARC
   5
3E5
 100
AcDbEntity
   8
LEVEL001
 370
13
   6
CONTINUOUS
  62
7
 100
AcDbCircle
  10
 1433.7101845045
  20
 4202.6685393258
  30
0.0
  40
 20.000000000000
 100
AcDbArc
  50
 90.000000000000
  51
 180.00000000000
   0
ARC
   5
3E6
 100
AcDbEntity
   8
LEVEL001
 370
13
   6
CONTINUOUS
  62
7
 100
AcDbCircle
  10
 1433.7101845045
  20
 3642.6678069038
  30
0.0
  40
 20.000000000000
 100
AcDbArc
  50
 180.00000000000
  51
 270.00000000000
   0
LINE
   5
3E7
 100
AcDbEntity
   8
LEVEL001
 370
13
 100
AcDbLine
   6
CONTINUOUS
  62
7
  10
 1413.7101845045
  20
 4202.6685393258
  30
0.0
  11
 1413.7101845045
  21
 3642.6678069038
  31
0.0
   0
INSERT
   5
3E8
 100
AcDbEntity
   8
0
 100
AcDbBlockReference
   2
BLOCK002
  10
0.0
  20
0.0
  30
0.0
   0
ARC
   5
3E9
 100
AcDbEntity
   8
LEVEL001
 370
13
   6
CONTINUOUS
  62
7
 100
AcDbCircle
  10
 1573.7074989576
  20
 4202.6685393258
  30
0.0
  40
 20.000000000000
 100
AcDbArc
  50
0.0
  51
 90.000000000000
   0
LINE
   5
3EA
 100
AcDbEntity
   8
LEVEL001
 370
13
 100
AcDbLine
   6
CONTINUOUS
  62
7
  10
 1593.7074989576
  20
 3642.6678069038
  30
0.0
  11
 1593.7074989576
  21
 4202.6685393258
  31
0.0
   0
LINE
   5
3EB
 100
AcDbEntity
   8
LEVEL001
 370
13
 100
AcDbLine
   6
CONTINUOUS
  62
7
  10
 1433.7101845045
  20
 3622.6678069038
  30
0.0
  11
 1573.7074989576
  21
 3622.6678069038
  31
0.0
   0
ARC
   5
3EC
 100
AcDbEntity
   8
LEVEL001
 370
13
   6
CONTINUOUS
  62
7
 100
AcDbCircle
  10
 1573.7074989576
  20
 3642.6678069038
  30
0.0
  40
 20.000000000000
 100
AcDbArc
  50
 270.00000000000
  51
0.0
   0
MTEXT
   5
3ED
 100
AcDbEntity
   8
LEVEL001
 370
13
  62
1
 100
AcDbMText
  10
 5635.7078651685
  20
 1085.1685393258
  30
0.0
  40
 51.428571428572
  41
0.0
  71
6
  72
1
   1
\T1.000000;１４
   7
GMM001
  44
 0.79999984000003
   0
MTEXT
   5
3EE
 100
AcDbEntity
   8
LEVEL001
 370
13
  62
1
 100
AcDbMText
  10
 5635.7078651685
  20
 1205.1685393258
  30
0.0
  40
 51.428571428572
  41
0.0
  71
6
  72
1
   1
\T1.000000;１３
   7
GMM001
  44
 0.79999984000003
   0
MTEXT
   5
3EF
 100
AcDbEntity
   8
LEVEL001
 370
13
  62
1
 100
AcDbMText
  10
 5635.7078651685
  20
 1325.1685393258
  30
0.0
  40
 51.428571428572
  41
0.0
  71
6
  72
1
   1
\T1.000000;１２
   7
GMM001
  44
 0.79999984000003
   0
MTEXT
   5
3F0
 100
AcDbEntity
   8
LEVEL001
 370
13
  62
1
 100
AcDbMText
  10
 5635.7078651685
  20
 1445.1685393258
  30
0.0
  40
 51.428571428572
  41
0.0
  71
6
  72
1
   1
\T1.000000;１１
   7
GMM001
  44
 0.79999984000003
   0
MTEXT
   5
3F1
 100
AcDbEntity
   8
LEVEL001
 370
13
  62
1
 100
AcDbMText
  10
 5635.7078651685
  20
 1565.1685393258
  30
0.0
  40
 51.428571428572
  41
0.0
  71
6
  72
1
   1
\T1.000000;１０
   7
GMM001
  44
 0.79999984000003
   0
MTEXT
   5
3F2
 100
AcDbEntity
   8
LEVEL001
 370
13
  62
1
 100
AcDbMText
  10
 6793.7078651685
  20
 1442.3157547176
  30
0.0
  40
 51.428571428572
  41
0.0
  71
4
  72
1
   1
\T1.000000;ＰＥ
   7
GMM001
  44
 0.79999984000003
   0
MTEXT
   5
3F3
 100
AcDbEntity
   8
LEVEL001
 370
13
  62
1
 100
AcDbMText
  10
 5703.7078651685
  20
 1085.1685393258
  30
0.0
  40
 51.428571428572
  41
0.0
  71
4
  72
1
   1
\T1.000000;同上ボルトナット
   7
GMM001
  44
 0.79999984000003
   0
MTEXT
   5
3F4
 100
AcDbEntity
   8
LEVEL001
 370
13
  62
1
 100
AcDbMText
  10
 5703.7078651685
  20
 1205.1685393258
  30
0.0
  40
 51.428571428572
  41
0.0
  71
4
  72
1
   1
\T1.000000;注意板取付バンド
   7
GMM001
  44
 0.79999984000003
   0
MTEXT
   5
3F5
 100
AcDbEntity
   8
LEVEL001
 370
13
  62
1
 100
AcDbMText
  10
 6715.7078651685
  20
 1325.1685393258
  30
0.0
  40
 51.428571428572
  41
0.0
  71
6
  72
1
   1
\T1.000000;１
   7
GMM001
  44
 0.79999984000003
   0
MTEXT
   5
3F6
 100
AcDbEntity
   8
LEVEL001
 370
13
  62
1
 100
AcDbMText
  10
 5703.7078651685
  20
 1445.1685393258
  30
0.0
  40
 51.428571428572
  41
0.0
  71
4
  72
1
   1
\T1.000000;キャップ
   7
GMM001
  44
 0.79999984000003
   0
MTEXT
   5
3F7
 100
AcDbEntity
   8
LEVEL001
 370
13
  62
1
 100
AcDbMText
  10
 6715.7078651685
  20
 1445.1685393258
  30
0.0
  40
 51.428571428572
  41
0.0
  71
6
  72
1
   1
\T1.000000;１
   7
GMM001
  44
 0.79999984000003
   0
MTEXT
   5
3F8
 100
AcDbEntity
   8
LEVEL001
 370
13
  62
1
 100
AcDbMText
  10
 5703.7078651685
  20
 1565.1685393258
  30
0.0
  40
 51.428571428572
  41
0.0
  71
4
  72
1
   1
\T1.000000;根入れ鉄筋
   7
GMM001
  44
 0.79999984000003
   0
MTEXT
   5
3F9
 100
AcDbEntity
   8
LEVEL001
 370
13
  62
1
 100
AcDbMText
  10
 6783.7078651685
  20
 1565.1685393258
  30
0.0
  40
 51.428571428572
  41
0.0
  71
4
  72
1
   1
\T1.000000;ＳＤ２９５Ａ
   7
GMM001
  44
 0.79999984000003
   0
MTEXT
   5
3FA
 100
AcDbEntity
   8
LEVEL001
 370
13
  62
1
 100
AcDbMText
  10
 6715.7078651685
  20
 1565.1685393258
  30
0.0
  40
 51.428571428572
  41
0.0
  71
6
  72
1
   1
\T1.000000;２
   7
GMM001
  44
 0.79999984000003
   0
LWPOLYLINE
   5
3FB
 100
AcDbEntity
   8
0
 370
13
   6
CONTINUOUS
  62
2
 100
AcDbPolyline
  90
4
  70
1
  10
 5463.7078651685
  20
 3305.1685393258
  10
 5463.7078651685
  20
 905.16853932584
  10
 8103.7078651685
  20
 905.16853932584
  10
 8103.7078651685
  20
 3305.1685393258
   0
MTEXT
   5
3FC
 100
AcDbEntity
   8
LEVEL001
 370
13
  62
1
 100
AcDbMText
  10
 6303.7078651685
  20
 749.38728932584
  30
0.0
  40
 42.857142857142
  41
0.0
  71
5
  72
1
   1
\T1.000000;ＭＺＨ１００ＳＣＰ
   7
GMM001
  44
 0.79999984000003
   0
MTEXT
   5
3FD
 100
AcDbEntity
   8
LEVEL001
 370
13
  62
1
 100
AcDbMText
  10
 5703.7078651685
  20
 3485.1685393258
  30
0.0
  40
 51.428580000000
  41
0.0
  71
1
  72
1
   1
{\T1.000000;※構成部材は改良のため、変更する場合があります。}\P{\T1.000000;※本図は道路反射鏡ハンドブックに基づいています。}
   7
GMM001
  44
 0.79999984000003
   0
MTEXT
   5
3FE
 100
AcDbEntity
   8
0
 370
13
  62
1
 100
AcDbMText
  10
 6714.6868389226
  20
 1651.4373890803
  30
0.0
  40
 51.428571428571
  41
0.0
  71
9
  72
1
   1
\T1.000000;１
   7
GMM001
  44
 0.79999984000003
   0
MTEXT
   5
3FF
 100
AcDbEntity
   8
0
 370
13
  62
1
 100
AcDbMText
  10
 6783.2912563000
  20
 1651.4373890803
  30
0.0
  40
 51.428571428571
  41
0.0
  71
7
  72
1
   1
\T1.000000;ＳＴＫ４００
   7
GMM001
  44
 0.79999984000003
   0
MTEXT
   5
400
 100
AcDbEntity
   8
0
 370
13
  62
1
 100
AcDbMText
  10
 7345.0893944185
  20
 1691.0286102967
  30
0.0
  40
 34.285720000000
  41
0.0
  71
4
  72
1
   1
{\T1.000000;下地亜鉛メッキ}\P{\T1.000000;＋静電粉体塗装}
   7
GMM005
  44
 0.79999984000003
   0
LINE
   5
401
 100
AcDbEntity
   8
0
 370
13
 100
AcDbLine
   6
CONTINUOUS
  62
6
  10
 6543.7078651685
  20
 1745.1685393258
  30
0.0
  11
 8103.7078651685
  21
 1745.1685393258
  31
0.0
   0
MTEXT
   5
402
 100
AcDbEntity
   8
LEVEL001
 370
13
  62
1
 100
AcDbMText
  10
 6715.7078651685
  20
 1205.1685393258
  30
0.0
  40
 51.428571428572
  41
0.0
  71
6
  72
1
   1
\T1.000000;１式
   7
GMM001
  44
 0.79999984000003
   0
MTEXT
   5
403
 100
AcDbEntity
   8
LEVEL001
 370
13
  62
1
 100
AcDbMText
  10
 6715.7078651685
  20
 1085.1685393258
  30
0.0
  40
 51.428571428572
  41
0.0
  71
6
  72
1
   1
\T1.000000;１式
   7
GMM001
  44
 0.79999984000003
   0
MTEXT
   5
404
 100
AcDbEntity
   8
LEVEL001
 370
13
  62
1
 100
AcDbMText
  10
 6783.7078651685
  20
 1085.1685393258
  30
0.0
  40
 51.428571428572
  41
0.0
  71
4
  72
1
   1
\T1.000000;―
   7
GMM001
  44
 0.79999984000003
   0
MTEXT
   5
405
 100
AcDbEntity
   8
LEVEL001
 370
13
  62
1
 100
AcDbMText
  10
 6783.7078651685
  20
 1205.1685393258
  30
0.0
  40
 51.428571428572
  41
0.0
  71
4
  72
1
   1
\T1.000000;―
   7
GMM001
  44
 0.79999984000003
   0
MTEXT
   5
406
 100
AcDbEntity
   8
LEVEL001
 370
13
  62
1
 100
AcDbMText
  10
 7343.7078651685
  20
 1205.1685393258
  30
0.0
  40
 51.428571428572
  41
0.0
  71
4
  72
1
   1
\T1.000000;―
   7
GMM001
  44
 0.79999984000003
   0
MTEXT
   5
407
 100
AcDbEntity
   8
LEVEL001
 370
13
  62
1
 100
AcDbMText
  10
 7343.7078651685
  20
 1085.1685393258
  30
0.0
  40
 51.428571428572
  41
0.0
  71
4
  72
1
   1
\T1.000000;―
   7
GMM001
  44
 0.79999984000003
   0
MTEXT
   5
408
 100
AcDbEntity
   8
LEVEL001
 370
13
  62
1
 100
AcDbMText
  10
 6783.7078651685
  20
 1325.1685393258
  30
0.0
  40
 51.428571428572
  41
0.0
  71
4
  72
1
   1
\T1.000000;―
   7
GMM001
  44
 0.79999984000003
   0
MTEXT
   5
409
 100
AcDbEntity
   8
LEVEL001
 370
13
  62
1
 100
AcDbMText
  10
 5703.7078651685
  20
 1325.1685393258
  30
0.0
  40
 51.428571428572
  41
0.0
  71
4
  72
1
   1
\T1.000000;注意板
   7
GMM001
  44
 0.79999984000003
   0
MTEXT
   5
40A
 100
AcDbEntity
   8
LEVEL001
 370
13
  62
1
 100
AcDbMText
  10
 7343.7078651685
  20
 2697.8297403333
  30
0.0
  40
 34.285714285714
  41
0.0
  71
1
  72
1
   1
{\T1.000000;ＺＡＭ処理鋼板}\P{\T1.000000;プレス成型}
   7
GMM005
  44
 1.0099997980000
   0
MTEXT
   5
40B
 100
AcDbEntity
   8
LEVEL001
 370
13
  62
1
 100
AcDbMText
  10
 1847.4579139967
  20
 2644.0971107545
  30
0.0
  40
 42.857142857142
  41
0.0
  71
1
  72
1
   1
{\T1.000000;支柱}\P%%c{\T1.000000;８９．１×３}{\T1.000000;.}{\T1.000000;２ｔ}\P{\T1.000000;×４４００Ｌ}
   7
GMM001
  44
 0.79999984000003
   0
DIMENSION
   5
40C
 100
AcDbEntity
   8
0
 370
13
   6
CONTINUOUS
  62
1
 100
AcDbDimension
   2
*D20
  10
 2603.7078651685
  20
 2622.6685393258
  30
0.0
  11
 2803.7078651685
  21
 2622.6685393258
  31
0.0
  70
0
   3
GMM007
 100
AcDbAlignedDimension
  13
 3003.7078651685
  23
 2322.6685393240
  33
0.0
  14
 2603.7078651685
  24
 1822.6685393241
  34
0.0
  50
 180.00000000000
 100
AcDbRotatedDimension
   0
MTEXT
   5
40D
 100
AcDbEntity
   8
LEVEL001
 370
13
  62
2
 100
AcDbMText
  10
 5473.7078651685
  20
 875.16853932584
  30
0.0
  40
 38.571428571428
  41
0.0
  71
4
  72
1
   1
\T1.370378;図面番号
   7
GMM001
  44
 0.79999984000003
   0
ENDSEC
  0
SECTION
  2
OBJECTS
  0
DICTIONARY
  5
C
100
AcDbDictionary
  3
ACAD_GROUP
350
D
  3
ACAD_MLINESTYLE
350
1B
  3
DWGPROPS
350
1C
  0
DICTIONARY
  5
D
102
{ACAD_REACTORS
330
C
102
}
100
AcDbDictionary
  0
DICTIONARY
  5
1B
102
{ACAD_REACTORS
330
C
102
}
100
AcDbDictionary
  3
STANDARD
350
1D
  0
MLINESTYLE
  5
1D
102
{ACAD_REACTORS
330
1B
102
}
100
AcDbMlineStyle
  2
STANDARD
 70
     0
  3

 62
   256
 51
90.0
 52
90.0
 71
     2
 49
0.5
 62
   256
  6
BYLAYER
 49
-0.5
 62
   256
  6
BYLAYER
   0
XRECORD
   5
1C
 102
{ACAD_REACTORS
 330
C
 102
}
 330
C
 100
AcDbXrecord
 280
1
   1
DWGPROPS COOKIE
   2
 
   3
 
   4
 
   6
 
   7
MZH100SCP
   8
 
   9

 300
 = 
 301
 = 
 302
 = 
 303
 = 
 304
 = 
 305
 = 
 306
 = 
 307
 = 
 308
 = 
 309
 = 
  40
0.0
  41
 2460340.5000000
  42
 2460340.5000000
   1

  90
10
   0
ENDSEC
   0
EOF
