   0
SECTION
   2
HEADER
   9
$ACADVER
   1
AC1015
   9
$DWGCODEPAGE
   3
ANSI_932
   9
$LIMMIN
  10
0.0
  20
0.0
   9
$LIMMAX
  10
 8400.0000000000
  20
 5940.0000000000
   9
$EXTMIN
  10
0.0
  20
0.0
  30
0.0
   9
$EXTMAX
  10
 8400.0000000000
  20
 5940.0000000000
  30
0.0
   9
$LTSCALE
  40
 168.00000000000
   9
$HANDSEED
   5
3FB
   0
ENDSEC
   0
SECTION
   2
TABLES
  0
TABLE
  2
VPORT
  5
8
100
AcDbSymbolTable
 70
     1
  0
VPORT
  5
3FA
100
AcDbSymbolTableRecord
100
AcDbViewportTableRecord
  2
*ACTIVE
 70
     0
 10
0.0
 20
0.0
 11
1.0
 21
1.0
  12
 4200.0000000000
  22
 2970.0000000000
 13
0.0
 23
0.0
 14
1.0
 24
1.0
 15
0.0
 25
0.0
 16
0.0
 26
0.0
 36
1.0
 17
0.0
 27
0.0
 37
0.0
  40
 8400.0000000000
  41
 1.4787878787879
 42
50.0
 43
0.0
 44
0.0
 50
0.0
 51
0.0
 71
     0
 72
   100
 73
     1
 74
     1
 75
     0
 76
     0
 77
     0
 78
     0
  0
ENDTAB
  0
TABLE
  2
LTYPE
  5
5
100
AcDbSymbolTable
 70
    25
  0
LTYPE
  5
12
100
AcDbSymbolTableRecord
100
AcDbLinetypeTableRecord
  2
BYBLOCK
 70
     0
  3

 72
    65
 73
     0
 40
0.0
  0
LTYPE
  5
13
100
AcDbSymbolTableRecord
100
AcDbLinetypeTableRecord
  2
BYLAYER
 70
     0
  3

 72
    65
 73
     0
 40
0.0
  0
LTYPE
  5
14
100
AcDbSymbolTableRecord
100
AcDbLinetypeTableRecord
  2
CONTINUOUS
 70
     0
  3
Solid line
 72
    65
 73
     0
 40
0.0
  0
LTYPE
  5
20
100
AcDbSymbolTableRecord
100
AcDbLinetypeTableRecord
  2
BORDER
 70
     0
  3
__ __ . __ __ . __ __ . __ __ . __ __ . __ __ .
 72
    65
 73
     6
 40
1.75
 49
0.5
 74
     0
 49
-0.25
 74
     0
 49
0.5
 74
     0
 49
-0.25
 74
     0
 49
0.0
 74
     0
 49
-0.25
 74
     0
  0
LTYPE
  5
21
100
AcDbSymbolTableRecord
100
AcDbLinetypeTableRecord
  2
BORDER2
 70
     0
  3
__.__.__.__.__.__.__.__.__.__.__.__.__.__.__.__
 72
    65
 73
     6
 40
0.875
 49
0.25
 74
     0
 49
-0.125
 74
     0
 49
0.25
 74
     0
 49
-0.125
 74
     0
 49
0.0
 74
     0
 49
-0.125
 74
     0
  0
LTYPE
  5
22
100
AcDbSymbolTableRecord
100
AcDbLinetypeTableRecord
  2
BORDERX2
 70
     0
  3
____  ____  .  ____  ____  .  ____  ____  .  __
 72
    65
 73
     6
 40
3.5
 49
1.0
 74
     0
 49
-0.5
 74
     0
 49
1.0
 74
     0
 49
-0.5
 74
     0
 49
0.0
 74
     0
 49
-0.5
 74
     0
  0
LTYPE
  5
23
100
AcDbSymbolTableRecord
100
AcDbLinetypeTableRecord
  2
CENTER
 70
     0
  3
____ _ ____ _ ____ _ ____ _ ____ _ ____ _ ____ 
 72
    65
 73
     4
 40
2.0
 49
1.25
 74
     0
 49
-0.25
 74
     0
 49
0.25
 74
     0
 49
-0.25
 74
     0
  0
LTYPE
  5
24
100
AcDbSymbolTableRecord
100
AcDbLinetypeTableRecord
  2
CENTER2
 70
     0
  3
___ _ ___ _ ___ _ ___ _ ___ _ ___ _ ___ _ ___ _
 72
    65
 73
     4
 40
1.125
 49
0.75
 74
     0
 49
-0.125
 74
     0
 49
0.125
 74
     0
 49
-0.125
 74
     0
  0
LTYPE
  5
25
100
AcDbSymbolTableRecord
100
AcDbLinetypeTableRecord
  2
CENTERX2
 70
     0
  3
________  __  ________  __  ________  __  _____
 72
    65
 73
     4
 40
4.0
 49
2.5
 74
     0
 49
-0.5
 74
     0
 49
0.5
 74
     0
 49
-0.5
 74
     0
  0
LTYPE
  5
26
100
AcDbSymbolTableRecord
100
AcDbLinetypeTableRecord
  2
DASHDOT
 70
     0
  3
__ . __ . __ . __ . __ . __ . __ . __ . __ . __
 72
    65
 73
     4
 40
1.0
 49
0.5
 74
     0
 49
-0.25
 74
     0
 49
0.0
 74
     0
 49
-0.25
 74
     0
  0
LTYPE
  5
27
100
AcDbSymbolTableRecord
100
AcDbLinetypeTableRecord
  2
DASHDOT2
 70
     0
  3
_._._._._._._._._._._._._._._._._._._._._._._._
 72
    65
 73
     4
 40
0.5
 49
0.25
 74
     0
 49
-0.125
 74
     0
 49
0.0
 74
     0
 49
-0.125
 74
     0
  0
LTYPE
  5
28
100
AcDbSymbolTableRecord
100
AcDbLinetypeTableRecord
  2
DASHDOTX2
 70
     0
  3
____  .  ____  .  ____  .  ____  .  ____  .  __
 72
    65
 73
     4
 40
2.0
 49
1.0
 74
     0
 49
-0.5
 74
     0
 49
0.0
 74
     0
 49
-0.5
 74
     0
  0
LTYPE
  5
29
100
AcDbSymbolTableRecord
100
AcDbLinetypeTableRecord
  2
DASHED
 70
     0
  3
__ __ __ __ __ __ __ __ __ __ __ __ __ __ __ __
 72
    65
 73
     2
 40
0.75
 49
0.5
 74
     0
 49
-0.25
 74
     0
  0
LTYPE
  5
2A
100
AcDbSymbolTableRecord
100
AcDbLinetypeTableRecord
  2
DASHED2
 70
     0
  3
_ _ _ _ _ _ _ _ _ _ _ _ _ _ _ _ _ _ _ _ _ _ _ _
 72
    65
 73
     2
 40
0.375
 49
0.25
 74
     0
 49
-0.125
 74
     0
  0
LTYPE
  5
2B
100
AcDbSymbolTableRecord
100
AcDbLinetypeTableRecord
  2
DASHEDX2
 70
     0
  3
____  ____  ____  ____  ____  ____  ____  ____ 
 72
    65
 73
     2
 40
1.5
 49
1.0
 74
     0
 49
-0.5
 74
     0
  0
LTYPE
  5
2C
100
AcDbSymbolTableRecord
100
AcDbLinetypeTableRecord
  2
DIVIDE
 70
     0
  3
____ . . ____ . . ____ . . ____ . . ____ . . __
 72
    65
 73
     6
 40
1.25
 49
0.5
 74
     0
 49
-0.25
 74
     0
 49
0.0
 74
     0
 49
-0.25
 74
     0
 49
0.0
 74
     0
 49
-0.25
 74
     0
  0
LTYPE
  5
2D
100
AcDbSymbolTableRecord
100
AcDbLinetypeTableRecord
  2
DIVIDE2
 70
     0
  3
__..__..__..__..__..__..__..__..__..__..__..__.
 72
    65
 73
     6
 40
0.625
 49
0.25
 74
     0
 49
-0.125
 74
     0
 49
0.0
 74
     0
 49
-0.125
 74
     0
 49
0.0
 74
     0
 49
-0.125
 74
     0
  0
LTYPE
  5
2E
100
AcDbSymbolTableRecord
100
AcDbLinetypeTableRecord
  2
DIVIDEX2
 70
     0
  3
________  .  .  ________  .  .  ________  .  . 
 72
    65
 73
     6
 40
2.5
 49
1.0
 74
     0
 49
-0.5
 74
     0
 49
0.0
 74
     0
 49
-0.5
 74
     0
 49
0.0
 74
     0
 49
-0.5
 74
     0
  0
LTYPE
  5
2F
100
AcDbSymbolTableRecord
100
AcDbLinetypeTableRecord
  2
DOT
 70
     0
  3
. . . . . . . . . . . . . . . . . . . . . . . .
 72
    65
 73
     2
 40
0.25
 49
0.0
 74
     0
 49
-0.25
 74
     0
  0
LTYPE
  5
30
100
AcDbSymbolTableRecord
100
AcDbLinetypeTableRecord
  2
DOT2
 70
     0
  3
...............................................
 72
    65
 73
     2
 40
0.125
 49
0.0
 74
     0
 49
-0.125
 74
     0
  0
LTYPE
  5
31
100
AcDbSymbolTableRecord
100
AcDbLinetypeTableRecord
  2
DOTX2
 70
     0
  3
.  .  .  .  .  .  .  .  .  .  .  .  .  .  .  . 
 72
    65
 73
     2
 40
0.5
 49
0.0
 74
     0
 49
-0.5
 74
     0
  0
LTYPE
  5
32
100
AcDbSymbolTableRecord
100
AcDbLinetypeTableRecord
  2
HIDDEN
 70
     0
  3
__ __ __ __ __ __ __ __ __ __ __ __ __ __ __ __
 72
    65
 73
     2
 40
0.375
 49
0.25
 74
     0
 49
-0.125
 74
     0
  0
LTYPE
  5
33
100
AcDbSymbolTableRecord
100
AcDbLinetypeTableRecord
  2
HIDDEN2
 70
     0
  3
_ _ _ _ _ _ _ _ _ _ _ _ _ _ _ _ _ _ _ _ _ _ _ _
 72
    65
 73
     2
 40
0.1875
 49
0.125
 74
     0
 49
-0.0625
 74
     0
  0
LTYPE
  5
34
100
AcDbSymbolTableRecord
100
AcDbLinetypeTableRecord
  2
HIDDENX2
 70
     0
  3
____ ____ ____ ____ ____ ____ ____ ____ ____ __
 72
    65
 73
     2
 40
0.75
 49
0.5
 74
     0
 49
-0.25
 74
     0
  0
LTYPE
  5
35
100
AcDbSymbolTableRecord
100
AcDbLinetypeTableRecord
  2
PHANTOM
 70
     0
  3
______  __  __  ______  __  __  ______  __  __ 
 72
    65
 73
     6
 40
2.5
 49
1.25
 74
     0
 49
-0.25
 74
     0
 49
0.25
 74
     0
 49
-0.25
 74
     0
 49
0.25
 74
     0
 49
-0.25
 74
     0
  0
LTYPE
  5
36
100
AcDbSymbolTableRecord
100
AcDbLinetypeTableRecord
  2
PHANTOM2
 70
     0
  3
___ _ _ ___ _ _ ___ _ _ ___ _ _ ___ _ _ ___ _ _
 72
    65
 73
     6
 40
1.25
 49
0.625
 74
     0
 49
-0.125
 74
     0
 49
0.125
 74
     0
 49
-0.125
 74
     0
 49
0.125
 74
     0
 49
-0.125
 74
     0
  0
LTYPE
  5
37
100
AcDbSymbolTableRecord
100
AcDbLinetypeTableRecord
  2
PHANTOMX2
 70
     0
  3
____________    ____    ____    ____________   
 72
    65
 73
     6
 40
5.0
 49
2.5
 74
     0
 49
-0.5
 74
     0
 49
0.5
 74
     0
 49
-0.5
 74
     0
 49
0.5
 74
     0
 49
-0.5
 74
     0
  0
ENDTAB
   0
TABLE
   2
LAYER
   5
2
 100
AcDbSymbolTable
  70
2
   0
LAYER
   5
E
 100
AcDbSymbolTableRecord
 100
AcDbLayerTableRecord
   2
0
  70
0
  62
7
   6
CONTINUOUS
 390
30
   0
LAYER
   5
39
 100
AcDbSymbolTableRecord
 100
AcDbLayerTableRecord
   2
LEVEL001
  70
0
  62
7
   6
CONTINUOUS
 390
30
   0
ENDTAB
  0
TABLE
  2
STYLE
  5
3
100
AcDbSymbolTable
  70
8
  0
STYLE
  5
F
100
AcDbSymbolTableRecord
100
AcDbTextStyleTableRecord
  2
STANDARD
 70
     0
 40
0.0
 41
1.0
 50
0.0
 71
     0
 42
0.2
  3
TXT
  4
BIGFONT
  0
STYLE
  5
38
100
AcDbSymbolTableRecord
100
AcDbTextStyleTableRecord
  2
STANDARD1
 70
     4
 40
0.0
 41
1.0
 50
0.0
 71
     0
 42
0.2
  3
TXT
  4
BIGFONT
   0
STYLE
   5
3A
 100
AcDbSymbolTableRecord
 100
AcDbTextStyleTableRecord
   2
GMM001
  70
0
  40
0.0
  41
 1.0000000000000
  50
0.0
  71
     0
  42
1.0
   3

   4

1001
ACAD
1000
ＭＳ ゴシック
1071
32817
   0
STYLE
   5
3B
 100
AcDbSymbolTableRecord
 100
AcDbTextStyleTableRecord
   2
GMM002
  70
0
  40
0.0
  41
 1.0000000000000
  50
0.0
  71
     0
  42
1.0
   3
txt.shx
   4
bigfont.shx
   0
STYLE
   5
3C
 100
AcDbSymbolTableRecord
 100
AcDbTextStyleTableRecord
   2
GMM003
  70
0
  40
0.0
  41
 0.75000000000000
  50
0.0
  71
     0
  42
1.0
   3
txt.shx
   4
bigfont.shx
   0
STYLE
   5
3D
 100
AcDbSymbolTableRecord
 100
AcDbTextStyleTableRecord
   2
GMM004
  70
0
  40
0.0
  41
 0.66666666666667
  50
0.0
  71
     0
  42
1.0
   3

   4

1001
ACAD
1000
ＭＳ ゴシック
1071
32817
   0
STYLE
   5
3E
 100
AcDbSymbolTableRecord
 100
AcDbTextStyleTableRecord
   2
GMM005
  70
0
  40
0.0
  41
 1.5000000000000
  50
0.0
  71
     0
  42
1.0
   3

   4

1001
ACAD
1000
ＭＳ ゴシック
1071
32817
   0
STYLE
   5
3F
 100
AcDbSymbolTableRecord
 100
AcDbTextStyleTableRecord
   2
GMM006
  70
0
  40
0.0
  41
 1.0000000000000
  50
0.0
  71
     0
  42
1.0
   3

   4

1001
ACAD
1000
ＭＳ 明朝
1071
32785
   0
ENDTAB
  0
TABLE
  2
VIEW
  5
6
100
AcDbSymbolTable
 70
     0
  0
ENDTAB
  0
TABLE
  2
UCS
  5
7
100
AcDbSymbolTable
 70
     0
  0
ENDTAB
  0
TABLE
  2
APPID
  5
9
100
AcDbSymbolTable
 70
     1
  0
APPID
  5
10
100
AcDbSymbolTableRecord
100
AcDbRegAppTableRecord
  2
ACAD
 70
     0
  0
ENDTAB
   0
TABLE
   2
DIMSTYLE
   5
A
 100
AcDbSymbolTable
  70
8
 100
AcDbDimStyleTable
  0
DIMSTYLE
105
1D
100
AcDbSymbolTableRecord
100
AcDbDimStyleTableRecord
  2
STANDARD
 70
     0
  3

  4

  5

  6

  7

 40
1.0
 41
0.18
 42
0.0625
 43
0.38
 44
0.18
 45
0.0
 46
0.0
 47
0.0
 48
0.0
140
0.18
141
0.09
142
0.0
143
25.4
144
1.0
145
0.0
146
1.0
147
0.09
 71
     0
 72
     0
 73
     1
 74
     1
 75
     0
 76
     0
 77
     0
 78
     0
170
     0
171
     2
172
     0
173
     0
174
     0
175
     0
176
     0
177
     0
178
     0
270
     2
271
     4
272
     4
273
     2
274
     2
340
F
275
     0
280
     0
281
     0
282
     0
283
     1
284
     0
285
     0
286
     0
287
     3
288
     0
   0
DIMSTYLE
 105
40
 100
AcDbSymbolTableRecord
 100
AcDbDimStyleTableRecord
   2
GMM001
  70
0
   3

   4

   5

   6
_OPEN
   7
_OPEN
  40
 1.0000000000000
  41
 30.000000000000
  42
 30.000000000000
  43
 160.00000000000
  44
 30.000000000000
  45
0.0
  46
0.0
  47
0.0
  48
0.0
 140
 66.000000000000
 141
 20.000000000000
 142
0.0
 143
 0.39400000000000E-1
 144
 1.0000000000000
 145
0.0
 146
 0.75757575757576
 147
0.0
  71
0
  72
0
  73
0
  74
0
  75
0
  76
0
  77
0
  78
8
 170
0
 171
2
 172
1
 173
1
 174
0
 175
0
 176
1
 177
1
 178
7
 270
2
 271
1
 272
0
 273
2
 274
2
 340
3B
 275
0
 280
0
 281
0
 282
0
 283
1
 284
0
 285
0
 286
0
 287
3
 288
1
   0
DIMSTYLE
 105
41
 100
AcDbSymbolTableRecord
 100
AcDbDimStyleTableRecord
   2
GMM002
  70
0
   3

   4

   5

   6
_OPEN
   7
_OPEN
  40
 1.0000000000000
  41
 42.000000000000
  42
 30.000000000000
  43
 160.00000000000
  44
 30.000000000000
  45
0.0
  46
0.0
  47
0.0
  48
0.0
 140
 60.000000000000
 141
 20.000000000000
 142
0.0
 143
 0.39400000000000E-1
 144
 1.0000000000000
 145
0.0
 146
 0.83333333333333
 147
0.0
  71
0
  72
0
  73
0
  74
0
  75
0
  76
0
  77
0
  78
8
 170
0
 171
2
 172
1
 173
1
 174
0
 175
0
 176
1
 177
1
 178
7
 270
2
 271
1
 272
0
 273
2
 274
2
 340
3B
 275
0
 280
0
 281
0
 282
0
 283
1
 284
0
 285
0
 286
0
 287
3
 288
1
   0
DIMSTYLE
 105
42
 100
AcDbSymbolTableRecord
 100
AcDbDimStyleTableRecord
   2
GMM003
  70
0
   3

   4

   5

   6
_OPEN
   7
_OPEN
  40
 1.0000000000000
  41
 42.000000000000
  42
 30.000000000000
  43
 160.00000000000
  44
 30.000000000000
  45
0.0
  46
0.0
  47
0.0
  48
0.0
 140
 60.000000000000
 141
 20.000000000000
 142
0.0
 143
 0.39400000000000E-1
 144
 1.0000000000000
 145
0.0
 146
 0.83333333333333
 147
 25.714285714286
  71
0
  72
0
  73
0
  74
0
  75
0
  76
0
  77
3
  78
8
 170
0
 171
2
 172
1
 173
1
 174
0
 175
0
 176
6
 177
6
 178
1
 270
2
 271
6
 272
0
 273
2
 274
2
 340
3B
 275
1
 280
0
 281
0
 282
0
 283
1
 284
0
 285
0
 286
0
 287
3
 288
0
   0
DIMSTYLE
 105
43
 100
AcDbSymbolTableRecord
 100
AcDbDimStyleTableRecord
   2
GMM004
  70
0
   3

   4

   5

   6
_OPEN
   7
_OPEN
  40
 1.0000000000000
  41
 42.000000000000
  42
 30.000000000000
  43
 160.00000000000
  44
 30.000000000000
  45
0.0
  46
0.0
  47
0.0
  48
0.0
 140
 60.000000000000
 141
 20.000000000000
 142
0.0
 143
 0.39400000000000E-1
 144
 1.0000000000000
 145
0.0
 146
 0.83333333333333
 147
 25.714285714286
  71
0
  72
0
  73
0
  74
0
  75
0
  76
0
  77
3
  78
8
 170
0
 171
2
 172
1
 173
1
 174
0
 175
0
 176
6
 177
6
 178
1
 270
2
 271
6
 272
0
 273
2
 274
2
 340
3B
 275
1
 280
0
 281
0
 282
0
 283
1
 284
0
 285
0
 286
0
 287
3
 288
0
   0
DIMSTYLE
 105
44
 100
AcDbSymbolTableRecord
 100
AcDbDimStyleTableRecord
   2
GMM005
  70
0
   3
□<>
   4

   5

   6
_OPEN
   7
_OPEN
  40
 1.0000000000000
  41
 42.000000000000
  42
 30.000000000000
  43
 160.00000000000
  44
 30.000000000000
  45
0.0
  46
0.0
  47
0.0
  48
0.0
 140
 60.000000000000
 141
 20.000000000000
 142
0.0
 143
 0.39400000000000E-1
 144
 1.0000000000000
 145
0.0
 146
 0.83333333333333
 147
 25.714285714286
  71
0
  72
0
  73
0
  74
0
  75
0
  76
0
  77
3
  78
8
 170
0
 171
2
 172
1
 173
1
 174
0
 175
0
 176
6
 177
6
 178
1
 270
2
 271
6
 272
0
 273
2
 274
2
 340
3B
 275
1
 280
0
 281
0
 282
0
 283
1
 284
0
 285
0
 286
0
 287
3
 288
0
   0
DIMSTYLE
 105
45
 100
AcDbSymbolTableRecord
 100
AcDbDimStyleTableRecord
   2
GMM006
  70
0
   3
%%c<>
   4

   5

   6
_OPEN
   7
_OPEN
  40
 1.0000000000000
  41
 42.000000000000
  42
 30.000000000000
  43
 160.00000000000
  44
 30.000000000000
  45
0.0
  46
0.0
  47
0.0
  48
0.0
 140
 60.000000000000
 141
 20.000000000000
 142
0.0
 143
 0.39400000000000E-1
 144
 1.0000000000000
 145
0.0
 146
 0.83333333333333
 147
 25.714285714286
  71
0
  72
0
  73
0
  74
0
  75
0
  76
0
  77
3
  78
8
 170
0
 171
2
 172
1
 173
1
 174
0
 175
0
 176
6
 177
6
 178
1
 270
2
 271
6
 272
0
 273
2
 274
2
 340
3B
 275
1
 280
0
 281
0
 282
0
 283
1
 284
0
 285
0
 286
0
 287
0
 288
0
   0
ENDTAB
  0
TABLE
  2
BLOCK_RECORD
  5
1
100
AcDbSymbolTable
 70
     0
  0
BLOCK_RECORD
  5
18
100
AcDbSymbolTableRecord
100
AcDbBlockTableRecord
  2
*MODEL_SPACE
  0
BLOCK_RECORD
  5
15
100
AcDbSymbolTableRecord
100
AcDbBlockTableRecord
  2
*PAPER_SPACE
   0
BLOCK_RECORD
   5
46
 100
AcDbSymbolTableRecord
 100
AcDbBlockTableRecord
   2
BLOCK001
   0
BLOCK_RECORD
   5
47
 100
AcDbSymbolTableRecord
 100
AcDbBlockTableRecord
   2
BLOCK002
   0
BLOCK_RECORD
   5
48
 100
AcDbSymbolTableRecord
 100
AcDbBlockTableRecord
   2
BLOCK003
   0
BLOCK_RECORD
   5
49
 100
AcDbSymbolTableRecord
 100
AcDbBlockTableRecord
   2
*D14
   0
BLOCK_RECORD
   5
4A
 100
AcDbSymbolTableRecord
 100
AcDbBlockTableRecord
   2
*D15
   0
BLOCK_RECORD
   5
4B
 100
AcDbSymbolTableRecord
 100
AcDbBlockTableRecord
   2
*D16
   0
BLOCK_RECORD
   5
4C
 100
AcDbSymbolTableRecord
 100
AcDbBlockTableRecord
   2
*D17
   0
BLOCK_RECORD
   5
4D
 100
AcDbSymbolTableRecord
 100
AcDbBlockTableRecord
   2
*D18
   0
BLOCK_RECORD
   5
4E
 100
AcDbSymbolTableRecord
 100
AcDbBlockTableRecord
   2
*D19
   0
BLOCK_RECORD
   5
4F
 100
AcDbSymbolTableRecord
 100
AcDbBlockTableRecord
   2
_ARCHTICK
   0
BLOCK_RECORD
   5
50
 100
AcDbSymbolTableRecord
 100
AcDbBlockTableRecord
   2
_BOXBLANK
   0
BLOCK_RECORD
   5
51
 100
AcDbSymbolTableRecord
 100
AcDbBlockTableRecord
   2
_BOXFILLED
   0
BLOCK_RECORD
   5
52
 100
AcDbSymbolTableRecord
 100
AcDbBlockTableRecord
   2
_CLOSED
   0
BLOCK_RECORD
   5
53
 100
AcDbSymbolTableRecord
 100
AcDbBlockTableRecord
   2
_CLOSEDBLANK
   0
BLOCK_RECORD
   5
54
 100
AcDbSymbolTableRecord
 100
AcDbBlockTableRecord
   2
_DATUMBLANK
   0
BLOCK_RECORD
   5
55
 100
AcDbSymbolTableRecord
 100
AcDbBlockTableRecord
   2
_DATUMFILLED
   0
BLOCK_RECORD
   5
56
 100
AcDbSymbolTableRecord
 100
AcDbBlockTableRecord
   2
_DOT
   0
BLOCK_RECORD
   5
57
 100
AcDbSymbolTableRecord
 100
AcDbBlockTableRecord
   2
_DOTBLANK
   0
BLOCK_RECORD
   5
58
 100
AcDbSymbolTableRecord
 100
AcDbBlockTableRecord
   2
_DOTSMALL
   0
BLOCK_RECORD
   5
59
 100
AcDbSymbolTableRecord
 100
AcDbBlockTableRecord
   2
_INTEGRAL
   0
BLOCK_RECORD
   5
5A
 100
AcDbSymbolTableRecord
 100
AcDbBlockTableRecord
   2
_NONE
   0
BLOCK_RECORD
   5
5B
 100
AcDbSymbolTableRecord
 100
AcDbBlockTableRecord
   2
_OBLIQUE
   0
BLOCK_RECORD
   5
5C
 100
AcDbSymbolTableRecord
 100
AcDbBlockTableRecord
   2
_OPEN
   0
BLOCK_RECORD
   5
5D
 100
AcDbSymbolTableRecord
 100
AcDbBlockTableRecord
   2
_OPEN30
   0
BLOCK_RECORD
   5
5E
 100
AcDbSymbolTableRecord
 100
AcDbBlockTableRecord
   2
_OPEN90
   0
BLOCK_RECORD
   5
5F
 100
AcDbSymbolTableRecord
 100
AcDbBlockTableRecord
   2
_ORIGIN
   0
ENDTAB
   0
ENDSEC
  0
SECTION
  2
BLOCKS
  0
BLOCK
  5
19
100
AcDbEntity
  8
0
100
AcDbBlockBegin
  2
*MODEL_SPACE
 70
     0
 10
0.0
 20
0.0
 30
0.0
  3
*MODEL_SPACE
  1

  0
ENDBLK
  5
1A
100
AcDbEntity
  8
0
100
AcDbBlockEnd
  0
BLOCK
  5
16
100
AcDbEntity
 67
     1
  8
0
100
AcDbBlockBegin
  2
*PAPER_SPACE
 70
     0
 10
0.0
 20
0.0
 30
0.0
  3
*PAPER_SPACE
  1

  0
ENDBLK
  5
17
100
AcDbEntity
 67
     1
  8
0
100
AcDbBlockEnd
   0
BLOCK
   5
60
 100
AcDbEntity
   8
0
 100
AcDbBlockBegin
   2
_ARCHTICK
  70
0
  10
0.0
  20
0.0
  30
0.0
   3
_ARCHTICK
   0
POLYLINE
   5
61
 100
AcDbEntity
   8
0
 370
-2
   6
BYBLOCK
  62
0
 100
AcDb2dPolyline
  66
1
  10
0.0
  20
0.0
  30
0.0
  70
1
  40
 0.15000000000000
  41
 0.15000000000000
   0
VERTEX
   5
62
 100
AcDbEntity
   8
0
   6
BYBLOCK
  62
0
 100
AcDbVertex
 100
AcDb2dVertex
  10
-0.50000000000000
  20
-0.50000000000000
  30
0.0
  40
 0.15000000000000
  41
 0.15000000000000
   0
VERTEX
   5
63
 100
AcDbEntity
   8
0
   6
BYBLOCK
  62
0
 100
AcDbVertex
 100
AcDb2dVertex
  10
 0.50000000000000
  20
 0.50000000000000
  30
0.0
  40
 0.15000000000000
  41
 0.15000000000000
   0
SEQEND
   5
64
 100
AcDbEntity
   8
0
   6
BYBLOCK
  62
0
   0
ENDBLK
   5
65
 100
AcDbEntity
   8
0
 100
AcDbBlockEnd
   0
BLOCK
   5
66
 100
AcDbEntity
   8
0
 100
AcDbBlockBegin
   2
_OBLIQUE
  70
0
  10
0.0
  20
0.0
  30
0.0
   3
_OBLIQUE
   0
LINE
   5
67
 100
AcDbEntity
   8
0
 370
-2
 100
AcDbLine
   6
BYBLOCK
  62
0
  10
-0.50000000000000
  20
-0.50000000000000
  30
0.0
  11
 0.50000000000000
  21
 0.50000000000000
  31
0.0
   0
ENDBLK
   5
68
 100
AcDbEntity
   8
0
 100
AcDbBlockEnd
   0
BLOCK
   5
69
 100
AcDbEntity
   8
0
 100
AcDbBlockBegin
   2
_BOXBLANK
  70
0
  10
0.0
  20
0.0
  30
0.0
   3
_BOXBLANK
   0
LINE
   5
6A
 100
AcDbEntity
   8
0
 370
-2
 100
AcDbLine
   6
BYBLOCK
  62
0
  10
-0.50000000000000
  20
-0.50000000000000
  30
0.0
  11
 0.50000000000000
  21
-0.50000000000000
  31
0.0
   0
LINE
   5
6B
 100
AcDbEntity
   8
0
 370
-2
 100
AcDbLine
   6
BYBLOCK
  62
0
  10
 0.50000000000000
  20
-0.50000000000000
  30
0.0
  11
 0.50000000000000
  21
 0.50000000000000
  31
0.0
   0
LINE
   5
6C
 100
AcDbEntity
   8
0
 370
-2
 100
AcDbLine
   6
BYBLOCK
  62
0
  10
 0.50000000000000
  20
 0.50000000000000
  30
0.0
  11
-0.50000000000000
  21
 0.50000000000000
  31
0.0
   0
LINE
   5
6D
 100
AcDbEntity
   8
0
 370
-2
 100
AcDbLine
   6
BYBLOCK
  62
0
  10
-0.50000000000000
  20
 0.50000000000000
  30
0.0
  11
-0.50000000000000
  21
-0.50000000000000
  31
0.0
   0
LINE
   5
6E
 100
AcDbEntity
   8
0
 370
-2
 100
AcDbLine
   6
BYBLOCK
  62
0
  10
-0.50000000000000
  20
0.0
  30
0.0
  11
-1.0000000000000
  21
0.0
  31
0.0
   0
ENDBLK
   5
6F
 100
AcDbEntity
   8
0
 100
AcDbBlockEnd
   0
BLOCK
   5
70
 100
AcDbEntity
   8
0
 100
AcDbBlockBegin
   2
_BOXFILLED
  70
0
  10
0.0
  20
0.0
  30
0.0
   3
_BOXFILLED
   0
SOLID
   5
71
 100
AcDbEntity
   8
0
 100
AcDbTrace
   6
BYBLOCK
  62
0
  10
-0.50000000000000
  20
 0.50000000000000
  30
0.0
  11
 0.50000000000000
  21
 0.50000000000000
  31
0.0
  12
-0.50000000000000
  22
-0.50000000000000
  32
0.0
  13
 0.50000000000000
  23
-0.50000000000000
  33
0.0
   0
LINE
   5
72
 100
AcDbEntity
   8
0
 370
-2
 100
AcDbLine
   6
BYBLOCK
  62
0
  10
-0.50000000000000
  20
0.0
  30
0.0
  11
-1.0000000000000
  21
0.0
  31
0.0
   0
ENDBLK
   5
73
 100
AcDbEntity
   8
0
 100
AcDbBlockEnd
   0
BLOCK
   5
74
 100
AcDbEntity
   8
0
 100
AcDbBlockBegin
   2
_CLOSED
  70
0
  10
0.0
  20
0.0
  30
0.0
   3
_CLOSED
   0
LINE
   5
75
 100
AcDbEntity
   8
0
 370
-2
 100
AcDbLine
   6
BYBLOCK
  62
0
  10
-1.0000000000000
  20
 0.16666666666667
  30
0.0
  11
0.0
  21
0.0
  31
0.0
   0
LINE
   5
76
 100
AcDbEntity
   8
0
 370
-2
 100
AcDbLine
   6
BYBLOCK
  62
0
  10
0.0
  20
0.0
  30
0.0
  11
-1.0000000000000
  21
-0.16666666666667
  31
0.0
   0
LINE
   5
77
 100
AcDbEntity
   8
0
 370
-2
 100
AcDbLine
   6
BYBLOCK
  62
0
  10
-1.0000000000000
  20
 0.16666666666667
  30
0.0
  11
-1.0000000000000
  21
-0.16666666666667
  31
0.0
   0
LINE
   5
78
 100
AcDbEntity
   8
0
 370
-2
 100
AcDbLine
   6
BYBLOCK
  62
0
  10
0.0
  20
0.0
  30
0.0
  11
-1.0000000000000
  21
0.0
  31
0.0
   0
ENDBLK
   5
79
 100
AcDbEntity
   8
0
 100
AcDbBlockEnd
   0
BLOCK
   5
7A
 100
AcDbEntity
   8
0
 100
AcDbBlockBegin
   2
_OPEN
  70
0
  10
0.0
  20
0.0
  30
0.0
   3
_OPEN
   0
LINE
   5
7B
 100
AcDbEntity
   8
0
 370
-2
 100
AcDbLine
   6
BYBLOCK
  62
0
  10
-1.0000000000000
  20
 0.16666666666667
  30
0.0
  11
0.0
  21
0.0
  31
0.0
   0
LINE
   5
7C
 100
AcDbEntity
   8
0
 370
-2
 100
AcDbLine
   6
BYBLOCK
  62
0
  10
0.0
  20
0.0
  30
0.0
  11
-1.0000000000000
  21
-0.16666666666667
  31
0.0
   0
LINE
   5
7D
 100
AcDbEntity
   8
0
 370
-2
 100
AcDbLine
   6
BYBLOCK
  62
0
  10
0.0
  20
0.0
  30
0.0
  11
-1.0000000000000
  21
0.0
  31
0.0
   0
ENDBLK
   5
7E
 100
AcDbEntity
   8
0
 100
AcDbBlockEnd
   0
BLOCK
   5
7F
 100
AcDbEntity
   8
0
 100
AcDbBlockBegin
   2
_OPEN30
  70
0
  10
0.0
  20
0.0
  30
0.0
   3
_OPEN30
   0
LINE
   5
80
 100
AcDbEntity
   8
0
 370
-2
 100
AcDbLine
   6
BYBLOCK
  62
0
  10
-1.0000000000000
  20
 0.26794919243110
  30
0.0
  11
0.0
  21
0.0
  31
0.0
   0
LINE
   5
81
 100
AcDbEntity
   8
0
 370
-2
 100
AcDbLine
   6
BYBLOCK
  62
0
  10
0.0
  20
0.0
  30
0.0
  11
-1.0000000000000
  21
-0.26794919243110
  31
0.0
   0
LINE
   5
82
 100
AcDbEntity
   8
0
 370
-2
 100
AcDbLine
   6
BYBLOCK
  62
0
  10
0.0
  20
0.0
  30
0.0
  11
-1.0000000000000
  21
0.0
  31
0.0
   0
ENDBLK
   5
83
 100
AcDbEntity
   8
0
 100
AcDbBlockEnd
   0
BLOCK
   5
84
 100
AcDbEntity
   8
0
 100
AcDbBlockBegin
   2
_OPEN90
  70
0
  10
0.0
  20
0.0
  30
0.0
   3
_OPEN90
   0
LINE
   5
85
 100
AcDbEntity
   8
0
 370
-2
 100
AcDbLine
   6
BYBLOCK
  62
0
  10
-0.50000000000000
  20
 0.50000000000000
  30
0.0
  11
0.0
  21
0.0
  31
0.0
   0
LINE
   5
86
 100
AcDbEntity
   8
0
 370
-2
 100
AcDbLine
   6
BYBLOCK
  62
0
  10
0.0
  20
0.0
  30
0.0
  11
-0.50000000000000
  21
-0.50000000000000
  31
0.0
   0
LINE
   5
87
 100
AcDbEntity
   8
0
 370
-2
 100
AcDbLine
   6
BYBLOCK
  62
0
  10
0.0
  20
0.0
  30
0.0
  11
-1.0000000000000
  21
0.0
  31
0.0
   0
ENDBLK
   5
88
 100
AcDbEntity
   8
0
 100
AcDbBlockEnd
   0
BLOCK
   5
89
 100
AcDbEntity
   8
0
 100
AcDbBlockBegin
   2
_CLOSEDBLANK
  70
0
  10
0.0
  20
0.0
  30
0.0
   3
_CLOSEDBLANK
   0
LINE
   5
8A
 100
AcDbEntity
   8
0
 370
-2
 100
AcDbLine
   6
BYBLOCK
  62
0
  10
-1.0000000000000
  20
 0.16666666666667
  30
0.0
  11
0.0
  21
0.0
  31
0.0
   0
LINE
   5
8B
 100
AcDbEntity
   8
0
 370
-2
 100
AcDbLine
   6
BYBLOCK
  62
0
  10
0.0
  20
0.0
  30
0.0
  11
-1.0000000000000
  21
-0.16666666666667
  31
0.0
   0
LINE
   5
8C
 100
AcDbEntity
   8
0
 370
-2
 100
AcDbLine
   6
BYBLOCK
  62
0
  10
-1.0000000000000
  20
 0.16666666666667
  30
0.0
  11
-1.0000000000000
  21
-0.16666666666667
  31
0.0
   0
ENDBLK
   5
8D
 100
AcDbEntity
   8
0
 100
AcDbBlockEnd
   0
BLOCK
   5
8E
 100
AcDbEntity
   8
0
 100
AcDbBlockBegin
   2
_DOT
  70
0
  10
0.0
  20
0.0
  30
0.0
   3
_DOT
   0
POLYLINE
   5
8F
 100
AcDbEntity
   8
0
 370
-2
   6
BYBLOCK
  62
0
 100
AcDb2dPolyline
  66
1
  10
0.0
  20
0.0
  30
0.0
  70
1
  40
 0.50000000000000
  41
 0.50000000000000
   0
VERTEX
   5
90
 100
AcDbEntity
   8
0
   6
BYBLOCK
  62
0
 100
AcDbVertex
 100
AcDb2dVertex
  10
-0.25000000000000
  20
0.0
  30
0.0
  42
 1.0000000000000
  40
 0.50000000000000
  41
 0.50000000000000
   0
VERTEX
   5
91
 100
AcDbEntity
   8
0
   6
BYBLOCK
  62
0
 100
AcDbVertex
 100
AcDb2dVertex
  10
 0.25000000000000
  20
0.0
  30
0.0
  42
 1.0000000000000
  40
 0.50000000000000
  41
 0.50000000000000
   0
SEQEND
   5
92
 100
AcDbEntity
   8
0
   6
BYBLOCK
  62
0
   0
LINE
   5
93
 100
AcDbEntity
   8
0
 370
-2
 100
AcDbLine
   6
BYBLOCK
  62
0
  10
-0.50000000000000
  20
0.0
  30
0.0
  11
-1.0000000000000
  21
0.0
  31
0.0
   0
ENDBLK
   5
94
 100
AcDbEntity
   8
0
 100
AcDbBlockEnd
   0
BLOCK
   5
95
 100
AcDbEntity
   8
0
 100
AcDbBlockBegin
   2
_DOTSMALL
  70
0
  10
0.0
  20
0.0
  30
0.0
   3
_DOTSMALL
   0
POLYLINE
   5
96
 100
AcDbEntity
   8
0
 370
-2
   6
BYBLOCK
  62
0
 100
AcDb2dPolyline
  66
1
  10
0.0
  20
0.0
  30
0.0
  70
1
  40
 0.50000000000000
  41
 0.50000000000000
   0
VERTEX
   5
97
 100
AcDbEntity
   8
0
   6
BYBLOCK
  62
0
 100
AcDbVertex
 100
AcDb2dVertex
  10
-0.62500000000000E-1
  20
0.0
  30
0.0
  42
 1.0000000000000
  40
 0.50000000000000
  41
 0.50000000000000
   0
VERTEX
   5
98
 100
AcDbEntity
   8
0
   6
BYBLOCK
  62
0
 100
AcDbVertex
 100
AcDb2dVertex
  10
 0.62500000000000E-1
  20
0.0
  30
0.0
  42
 1.0000000000000
  40
 0.50000000000000
  41
 0.50000000000000
   0
SEQEND
   5
99
 100
AcDbEntity
   8
0
   6
BYBLOCK
  62
0
   0
ENDBLK
   5
9A
 100
AcDbEntity
   8
0
 100
AcDbBlockEnd
   0
BLOCK
   5
9B
 100
AcDbEntity
   8
0
 100
AcDbBlockBegin
   2
_DATUMBLANK
  70
0
  10
0.0
  20
0.0
  30
0.0
   3
_DATUMBLANK
   0
LINE
   5
9C
 100
AcDbEntity
   8
0
 370
-2
 100
AcDbLine
   6
BYBLOCK
  62
0
  10
0.0
  20
 0.57735027000000
  30
0.0
  11
-1.0000000000000
  21
0.0
  31
0.0
   0
LINE
   5
9D
 100
AcDbEntity
   8
0
 370
-2
 100
AcDbLine
   6
BYBLOCK
  62
0
  10
-1.0000000000000
  20
0.0
  30
0.0
  11
0.0
  21
-0.57735027000000
  31
0.0
   0
LINE
   5
9E
 100
AcDbEntity
   8
0
 370
-2
 100
AcDbLine
   6
BYBLOCK
  62
0
  10
0.0
  20
-0.57735027000000
  30
0.0
  11
0.0
  21
 0.57735027000000
  31
0.0
   0
ENDBLK
   5
9F
 100
AcDbEntity
   8
0
 100
AcDbBlockEnd
   0
BLOCK
   5
A0
 100
AcDbEntity
   8
0
 100
AcDbBlockBegin
   2
_DATUMFILLED
  70
0
  10
0.0
  20
0.0
  30
0.0
   3
_DATUMFILLED
   0
SOLID
   5
A1
 100
AcDbEntity
   8
0
 100
AcDbTrace
   6
BYBLOCK
  62
0
  10
0.0
  20
 0.57735027000000
  30
0.0
  11
-1.0000000000000
  21
0.0
  31
0.0
  12
0.0
  22
-0.57735027000000
  32
0.0
  13
0.0
  23
-0.57735027000000
  33
0.0
   0
ENDBLK
   5
A2
 100
AcDbEntity
   8
0
 100
AcDbBlockEnd
   0
BLOCK
   5
A3
 100
AcDbEntity
   8
0
 100
AcDbBlockBegin
   2
_ORIGIN
  70
0
  10
0.0
  20
0.0
  30
0.0
   3
_ORIGIN
   0
CIRCLE
   5
A4
 100
AcDbEntity
   8
0
 370
-2
 100
AcDbCircle
   6
BYBLOCK
  62
0
  10
0.0
  20
0.0
  30
0.0
  40
 0.50000000000000
   0
LINE
   5
A5
 100
AcDbEntity
   8
0
 370
-2
 100
AcDbLine
   6
BYBLOCK
  62
0
  10
0.0
  20
0.0
  30
0.0
  11
-1.0000000000000
  21
0.0
  31
0.0
   0
ENDBLK
   5
A6
 100
AcDbEntity
   8
0
 100
AcDbBlockEnd
   0
BLOCK
   5
A7
 100
AcDbEntity
   8
0
 100
AcDbBlockBegin
   2
_NONE
  70
0
  10
0.0
  20
0.0
  30
0.0
   3
_NONE
   0
CIRCLE
   5
A8
 100
AcDbEntity
   8
0
 370
-2
 100
AcDbCircle
   6
BYBLOCK
  62
0
  10
0.0
  20
0.0
  30
0.0
  40
 0.25000000000000
   0
ENDBLK
   5
A9
 100
AcDbEntity
   8
0
 100
AcDbBlockEnd
   0
BLOCK
   5
AA
 100
AcDbEntity
   8
0
 100
AcDbBlockBegin
   2
_DOTBLANK
  70
0
  10
0.0
  20
0.0
  30
0.0
   3
_DOTBLANK
   0
CIRCLE
   5
AB
 100
AcDbEntity
   8
0
 370
-2
 100
AcDbCircle
   6
BYBLOCK
  62
0
  10
0.0
  20
0.0
  30
0.0
  40
 0.50000000000000
   0
LINE
   5
AC
 100
AcDbEntity
   8
0
 370
-2
 100
AcDbLine
   6
BYBLOCK
  62
0
  10
-0.50000000000000
  20
0.0
  30
0.0
  11
-1.0000000000000
  21
0.0
  31
0.0
   0
ENDBLK
   5
AD
 100
AcDbEntity
   8
0
 100
AcDbBlockEnd
   0
BLOCK
   5
AE
 100
AcDbEntity
   8
0
 100
AcDbBlockBegin
   2
_INTEGRAL
  70
0
  10
0.0
  20
0.0
  30
0.0
   3
_INTEGRAL
   0
ARC
   5
AF
 100
AcDbEntity
   8
0
 370
-2
   6
BYBLOCK
  62
0
 100
AcDbCircle
  10
 0.44488800000000
  20
-0.91335000000000E-1
  30
0.0
  40
 0.45416700000000
 100
AcDbArc
  50
 102.00000000000
  51
 168.00000000000
   0
ARC
   5
B0
 100
AcDbEntity
   8
0
 370
-2
   6
BYBLOCK
  62
0
 100
AcDbCircle
  10
-0.44488800000000
  20
 0.91335000000000E-1
  30
0.0
  40
 0.45416700000000
 100
AcDbArc
  50
 282.00000000000
  51
 348.00000000000
   0
ENDBLK
   5
B1
 100
AcDbEntity
   8
0
 100
AcDbBlockEnd
   0
BLOCK
   5
B2
 100
AcDbEntity
   8
0
 100
AcDbBlockBegin
   2
BLOCK001
  70
64
  10
0.0
  20
0.0
  30
0.0
   3
BLOCK001
   0
LINE
   5
B3
 100
AcDbEntity
   8
LEVEL001
 370
13
 100
AcDbLine
   6
CONTINUOUS
  62
5
  10
 1527.6983631572
  20
 4235.7513446304
  30
0.0
  11
 1472.6983631572
  21
 4165.7513446304
  31
0.0
   0
LINE
   5
B4
 100
AcDbEntity
   8
LEVEL001
 370
13
 100
AcDbLine
   6
CONTINUOUS
  62
5
  10
 1472.6983631572
  20
 4165.7513446304
  30
0.0
  11
 1502.6983631572
  21
 4165.7513446304
  31
0.0
   0
LINE
   5
B5
 100
AcDbEntity
   8
LEVEL001
 370
13
 100
AcDbLine
   6
CONTINUOUS
  62
5
  10
 1502.6983631572
  20
 4165.7513446304
  30
0.0
  11
 1502.6983631572
  21
 4135.7513446304
  31
0.0
   0
LINE
   5
B6
 100
AcDbEntity
   8
LEVEL001
 370
13
 100
AcDbLine
   6
CONTINUOUS
  62
5
  10
 1502.6983631572
  20
 4135.7513446304
  30
0.0
  11
 1552.6983631572
  21
 4135.7513446304
  31
0.0
   0
LINE
   5
B7
 100
AcDbEntity
   8
LEVEL001
 370
13
 100
AcDbLine
   6
CONTINUOUS
  62
5
  10
 1582.6983631572
  20
 4165.7513446304
  30
0.0
  11
 1527.6983631572
  21
 4235.7513446304
  31
0.0
   0
LINE
   5
B8
 100
AcDbEntity
   8
LEVEL001
 370
13
 100
AcDbLine
   6
CONTINUOUS
  62
5
  10
 1552.6983631572
  20
 4165.7513446304
  30
0.0
  11
 1582.6983631572
  21
 4165.7513446304
  31
0.0
   0
LINE
   5
B9
 100
AcDbEntity
   8
LEVEL001
 370
13
 100
AcDbLine
   6
CONTINUOUS
  62
5
  10
 1552.6983631572
  20
 4135.7513446304
  30
0.0
  11
 1552.6983631572
  21
 4165.7513446304
  31
0.0
   0
ENDBLK
   5
BA
 100
AcDbEntity
   8
0
 100
AcDbBlockEnd
   0
BLOCK
   5
BB
 100
AcDbEntity
   8
0
 100
AcDbBlockBegin
   2
BLOCK002
  70
64
  10
0.0
  20
0.0
  30
0.0
   3
BLOCK002
   0
LINE
   5
BC
 100
AcDbEntity
   8
LEVEL001
 370
13
 100
AcDbLine
   6
CONTINUOUS
  62
1
  10
 1458.0554188212
  20
 4069.7423114274
  30
0.0
  11
 1473.3245838603
  21
 4067.4876727554
  31
0.0
   0
ARC
   5
BD
 100
AcDbEntity
   8
LEVEL001
 370
13
   6
CONTINUOUS
  62
1
 100
AcDbCircle
  10
 1471.9419004300
  20
 4046.9544642752
  30
0.0
  40
 20.579710006714
 100
AcDbArc
  50
 10.432655985709
  51
 86.147581847721
   0
ARC
   5
BE
 100
AcDbEntity
   8
LEVEL001
 370
13
   6
CONTINUOUS
  62
1
 100
AcDbCircle
  10
 1478.2975374455
  20
 4050.3788522710
  30
0.0
  40
 13.887145996094
 100
AcDbArc
  50
 284.73810286312
  51
 1.2468362600466
   0
LINE
   5
BF
 100
AcDbEntity
   8
LEVEL001
 370
13
 100
AcDbLine
   6
CONTINUOUS
  62
1
  10
 1481.8304432353
  20
 4036.9486102554
  30
0.0
  11
 1458.0554188212
  21
 4069.7423114274
  31
0.0
   0
ARC
   5
C0
 100
AcDbEntity
   8
LEVEL001
 370
13
   6
CONTINUOUS
  62
1
 100
AcDbCircle
  10
 1465.6026307200
  20
 4010.1372803554
  30
0.0
  40
 20.228109359742
 100
AcDbArc
  50
 1.0520107710499
  51
 78.795797145824
   0
ARC
   5
C1
 100
AcDbEntity
   8
LEVEL001
 370
13
   6
CONTINUOUS
  62
1
 100
AcDbCircle
  10
 1470.8590674693
  20
 4012.2872216150
  30
0.0
  40
 15.073557853699
 100
AcDbArc
  50
 288.65953719945
  51
 353.22379545230
   0
LINE
   5
C2
 100
AcDbEntity
   8
LEVEL001
 370
13
 100
AcDbLine
   6
CONTINUOUS
  62
1
  10
 1460.4122913798
  20
 3983.9661883804
  30
0.0
  11
 1467.3809803447
  21
 3945.1258563492
  31
0.0
   0
ARC
   5
C3
 100
AcDbEntity
   8
LEVEL001
 370
13
   6
CONTINUOUS
  62
1
 100
AcDbCircle
  10
 1477.3634017282
  20
 3948.7577906002
  30
0.0
  40
 10.622602462769
 100
AcDbArc
  50
 199.99305619357
  51
 1.9685270930298
   0
LINE
   5
C4
 100
AcDbEntity
   8
LEVEL001
 370
13
 100
AcDbLine
   6
CONTINUOUS
  62
1
  10
 1487.9797352275
  20
 3949.1226825212
  30
0.0
  11
 1484.8025501689
  21
 3966.2369403336
  31
0.0
   0
LINE
   5
C5
 100
AcDbEntity
   8
LEVEL001
 370
13
 100
AcDbLine
   6
CONTINUOUS
  62
1
  10
 1484.8025501689
  20
 3966.2369403336
  30
0.0
  11
 1497.1002186259
  21
 4025.6756610368
  31
0.0
   0
LINE
   5
C6
 100
AcDbEntity
   8
LEVEL001
 370
13
 100
AcDbLine
   6
CONTINUOUS
  62
1
  10
 1497.1002186259
  20
 4025.6756610368
  30
0.0
  11
 1474.2471302470
  21
 3975.7677020524
  31
0.0
   0
LINE
   5
C7
 100
AcDbEntity
   8
LEVEL001
 370
13
 100
AcDbLine
   6
CONTINUOUS
  62
1
  10
 1474.2471302470
  20
 3975.7677020524
  30
0.0
  11
 1460.4122913798
  21
 3983.9661883804
  31
0.0
   0
LINE
   5
C8
 100
AcDbEntity
   8
LEVEL001
 370
13
 100
AcDbLine
   6
CONTINUOUS
  62
1
  10
 1524.3600452861
  20
 4052.9356708024
  30
0.0
  11
 1494.9481190165
  21
 4052.9356708024
  31
0.0
   0
LINE
   5
C9
 100
AcDbEntity
   8
LEVEL001
 370
13
 100
AcDbLine
   6
CONTINUOUS
  62
1
  10
 1494.9481190165
  20
 4052.9356708024
  30
0.0
  11
 1499.3548572978
  21
 4041.9700946304
  31
0.0
   0
LINE
   5
CA
 100
AcDbEntity
   8
LEVEL001
 370
13
 100
AcDbLine
   6
CONTINUOUS
  62
1
  10
 1499.3548572978
  20
 4041.9700946304
  30
0.0
  11
 1524.3600452861
  21
 4041.9700946304
  31
0.0
   0
LINE
   5
CB
 100
AcDbEntity
   8
LEVEL001
 370
13
 100
AcDbLine
   6
CONTINUOUS
  62
1
  10
 1524.3600452861
  20
 4011.4307879898
  30
0.0
  11
 1496.5878284892
  21
 4011.4307879898
  31
0.0
   0
LINE
   5
CC
 100
AcDbEntity
   8
LEVEL001
 370
13
 100
AcDbLine
   6
CONTINUOUS
  62
1
  10
 1496.5878284892
  20
 4011.4307879898
  30
0.0
  11
 1501.5069569072
  21
 3999.3382586930
  31
0.0
   0
LINE
   5
CD
 100
AcDbEntity
   8
LEVEL001
 370
13
 100
AcDbLine
   6
CONTINUOUS
  62
1
  10
 1501.5069569072
  20
 3999.3382586930
  30
0.0
  11
 1524.3600452861
  21
 3999.3382586930
  31
0.0
   0
LINE
   5
CE
 100
AcDbEntity
   8
LEVEL001
 370
13
 100
AcDbLine
   6
CONTINUOUS
  62
1
  10
 1524.3600452861
  20
 3954.4517840836
  30
0.0
  11
 1491.8737781962
  21
 3954.4517840836
  31
0.0
   0
LINE
   5
CF
 100
AcDbEntity
   8
LEVEL001
 370
13
 100
AcDbLine
   6
CONTINUOUS
  62
1
  10
 1491.8737781962
  20
 3954.4517840836
  30
0.0
  11
 1497.3052967509
  21
 3942.3590106462
  31
0.0
   0
LINE
   5
D0
 100
AcDbEntity
   8
LEVEL001
 370
13
 100
AcDbLine
   6
CONTINUOUS
  62
1
  10
 1497.3052967509
  20
 3942.3590106462
  30
0.0
  11
 1587.6831043681
  21
 3942.3590106462
  31
0.0
   0
ARC
   5
D1
 100
AcDbEntity
   8
LEVEL001
 370
13
   6
CONTINUOUS
  62
1
 100
AcDbCircle
  10
 1498.2967798400
  20
 3841.8124757404
  30
0.0
  40
 22.293228149414
 100
AcDbArc
  50
 35.161467069537
  51
 78.641482600079
   0
ARC
   5
D2
 100
AcDbEntity
   8
LEVEL001
 370
13
   6
CONTINUOUS
  62
1
 100
AcDbCircle
  10
 1510.1767800505
  20
 3852.8691720774
  30
0.0
  40
 6.5907969474792
 100
AcDbArc
  50
 312.23496141855
  51
 15.682969951834
   0
LINE
   5
D3
 100
AcDbEntity
   8
LEVEL001
 370
13
 100
AcDbLine
   6
CONTINUOUS
  62
1
  10
 1514.6069324931
  20
 3847.9893817398
  30
0.0
  11
 1533.5339344462
  21
 3847.9893817398
  31
0.0
   0
LINE
   5
D4
 100
AcDbEntity
   8
LEVEL001
 370
13
 100
AcDbLine
   6
CONTINUOUS
  62
1
  10
 1543.9871204814
  20
 3863.6690692398
  30
0.0
  11
 1502.6873768290
  21
 3863.6690692398
  31
0.0
   0
LINE
   5
D5
 100
AcDbEntity
   8
LEVEL001
 370
13
 100
AcDbLine
   6
CONTINUOUS
  62
1
  10
 1540.2700794658
  20
 3885.4034442398
  30
0.0
  11
 1515.4974354228
  21
 3886.0096454118
  31
0.0
   0
LINE
   5
D6
 100
AcDbEntity
   8
LEVEL001
 370
13
 100
AcDbLine
   6
CONTINUOUS
  62
1
  10
 1515.4974354228
  20
 3886.0096454118
  30
0.0
  11
 1515.4974354228
  21
 3873.6094989274
  31
0.0
   0
LINE
   5
D7
 100
AcDbEntity
   8
LEVEL001
 370
13
 100
AcDbLine
   6
CONTINUOUS
  62
1
  10
 1515.4974354228
  20
 3873.6094989274
  30
0.0
  11
 1466.0351551493
  21
 3873.6094989274
  31
0.0
   0
LINE
   5
D8
 100
AcDbEntity
   8
LEVEL001
 370
13
 100
AcDbLine
   6
CONTINUOUS
  62
1
  10
 1466.0351551493
  20
 3873.6094989274
  30
0.0
  11
 1470.5084217509
  21
 3863.6690692398
  31
0.0
   0
LINE
   5
D9
 100
AcDbEntity
   8
LEVEL001
 370
13
 100
AcDbLine
   6
CONTINUOUS
  62
1
  10
 1470.5084217509
  20
 3863.6690692398
  30
0.0
  11
 1488.1353748759
  21
 3863.6690692398
  31
0.0
   0
LINE
   5
DA
 100
AcDbEntity
   8
LEVEL001
 370
13
 100
AcDbLine
   6
CONTINUOUS
  62
1
  10
 1488.1353748759
  20
 3863.6690692398
  30
0.0
  11
 1498.0758655986
  21
 3847.9893817398
  31
0.0
   0
LINE
   5
DB
 100
AcDbEntity
   8
LEVEL001
 370
13
 100
AcDbLine
   6
CONTINUOUS
  62
1
  10
 1498.0758655986
  20
 3847.9893817398
  30
0.0
  11
 1463.3605946025
  21
 3847.9893817398
  31
0.0
   0
LINE
   5
DC
 100
AcDbEntity
   8
LEVEL001
 370
13
 100
AcDbLine
   6
CONTINUOUS
  62
1
  10
 1463.3605946025
  20
 3847.9893817398
  30
0.0
  11
 1468.2611072978
  21
 3837.4339618180
  31
0.0
   0
LINE
   5
DD
 100
AcDbEntity
   8
LEVEL001
 370
13
 100
AcDbLine
   6
CONTINUOUS
  62
1
  10
 1468.2611072978
  20
 3837.4339618180
  30
0.0
  11
 1591.8457020243
  21
 3837.4339618180
  31
0.0
   0
ARC
   5
DE
 100
AcDbEntity
   8
LEVEL001
 370
13
   6
CONTINUOUS
  62
1
 100
AcDbCircle
  10
 1487.6350186712
  20
 3813.4034156562
  30
0.0
  40
 31.206602096558
 100
AcDbArc
  50
 246.86715997187
  51
 289.54649732736
   0
LINE
   5
DF
 100
AcDbEntity
   8
LEVEL001
 370
13
 100
AcDbLine
   6
CONTINUOUS
  62
1
  10
 1498.0758655986
  20
 3813.3509540054
  30
0.0
  11
 1498.0758655986
  21
 3819.8072528336
  31
0.0
   0
LINE
   5
E0
 100
AcDbEntity
   8
LEVEL001
 370
13
 100
AcDbLine
   6
CONTINUOUS
  62
1
  10
 1498.0758655986
  20
 3819.8072528336
  30
0.0
  11
 1554.6450184306
  21
 3819.8072528336
  31
0.0
   0
LINE
   5
E1
 100
AcDbEntity
   8
LEVEL001
 370
13
 100
AcDbLine
   6
CONTINUOUS
  62
1
  10
 1554.6450184306
  20
 3813.3509540054
  30
0.0
  11
 1498.0758655986
  21
 3813.3509540054
  31
0.0
   0
LINE
   5
E2
 100
AcDbEntity
   8
LEVEL001
 370
13
 100
AcDbLine
   6
CONTINUOUS
  62
1
  10
 1554.6450184306
  20
 3828.1080340836
  30
0.0
  11
 1498.0758655986
  21
 3828.1080340836
  31
0.0
   0
LINE
   5
E3
 100
AcDbEntity
   8
LEVEL001
 370
13
 100
AcDbLine
   6
CONTINUOUS
  62
1
  10
 1498.0758655986
  20
 3828.1080340836
  30
0.0
  11
 1498.0758655986
  21
 3829.8504657242
  31
0.0
   0
LINE
   5
E4
 100
AcDbEntity
   8
LEVEL001
 370
13
 100
AcDbLine
   6
CONTINUOUS
  62
1
  10
 1498.0758655986
  20
 3829.8504657242
  30
0.0
  11
 1475.4278553447
  21
 3834.4617938492
  31
0.0
   0
LINE
   5
E5
 100
AcDbEntity
   8
LEVEL001
 370
13
 100
AcDbLine
   6
CONTINUOUS
  62
1
  10
 1475.4278553447
  20
 3834.4617938492
  30
0.0
  11
 1475.3750599345
  21
 3784.7059344742
  31
0.0
   0
LINE
   5
E6
 100
AcDbEntity
   8
LEVEL001
 370
13
 100
AcDbLine
   6
CONTINUOUS
  62
1
  10
 1498.0758655986
  20
 3797.3638934586
  30
0.0
  11
 1498.0758655986
  21
 3804.2266864274
  31
0.0
   0
LINE
   5
E7
 100
AcDbEntity
   8
LEVEL001
 370
13
 100
AcDbLine
   6
CONTINUOUS
  62
1
  10
 1498.0758655986
  20
 3804.2266864274
  30
0.0
  11
 1554.6450184306
  21
 3804.2266864274
  31
0.0
   0
LINE
   5
E8
 100
AcDbEntity
   8
LEVEL001
 370
13
 100
AcDbLine
   6
CONTINUOUS
  62
1
  10
 1554.6450184306
  20
 3797.3638934586
  30
0.0
  11
 1498.0758655986
  21
 3797.3638934586
  31
0.0
   0
LINE
   5
E9
 100
AcDbEntity
   8
LEVEL001
 370
13
 100
AcDbLine
   6
CONTINUOUS
  62
1
  10
 1498.0758655986
  20
 3783.9952411148
  30
0.0
  11
 1498.0758655986
  21
 3788.7557391618
  31
0.0
   0
LINE
   5
EA
 100
AcDbEntity
   8
LEVEL001
 370
13
 100
AcDbLine
   6
CONTINUOUS
  62
1
  10
 1498.0758655986
  20
 3788.7557391618
  30
0.0
  11
 1554.6450184306
  21
 3788.7557391618
  31
0.0
   0
LINE
   5
EB
 100
AcDbEntity
   8
LEVEL001
 370
13
 100
AcDbLine
   6
CONTINUOUS
  62
1
  10
 1481.6082752665
  20
 3778.4051532242
  30
0.0
  11
 1481.0958851298
  21
 3773.2811297868
  31
0.0
   0
LINE
   5
EC
 100
AcDbEntity
   8
LEVEL001
 370
13
 100
AcDbLine
   6
CONTINUOUS
  62
1
  10
 1481.0958851298
  20
 3773.2811297868
  30
0.0
  11
 1479.1485584697
  21
 3769.6942157242
  31
0.0
   0
LINE
   5
ED
 100
AcDbEntity
   8
LEVEL001
 370
13
 100
AcDbLine
   6
CONTINUOUS
  62
1
  10
 1479.1485584697
  20
 3769.6942157242
  30
0.0
  11
 1468.0807484111
  21
 3755.9617938492
  31
0.0
   0
ARC
   5
EE
 100
AcDbEntity
   8
LEVEL001
 370
13
   6
CONTINUOUS
  62
1
 100
AcDbCircle
  10
 1476.6125670481
  20
 3750.3493663034
  30
0.0
  40
 10.212309837341
 100
AcDbArc
  50
 146.66215660278
  51
 331.70689669711
   0
ARC
   5
EF
 100
AcDbEntity
   8
LEVEL001
 370
13
   6
CONTINUOUS
  62
1
 100
AcDbCircle
  10
 1462.6249150782
  20
 3759.4079609458
  30
0.0
  40
 26.856307983398
 100
AcDbArc
  50
 328.83302933365
  51
 45.020866477524
   0
ARC
   5
F0
 100
AcDbEntity
   8
LEVEL001
 370
13
   6
CONTINUOUS
  62
1
 100
AcDbCircle
  10
 1503.7629192789
  20
 3746.4820296500
  30
0.0
  40
 6.6096000671386
 100
AcDbArc
  50
 179.99975839708
  51
 269.90651680925
   0
LINE
   5
F1
 100
AcDbEntity
   8
LEVEL001
 370
13
 100
AcDbLine
   6
CONTINUOUS
  62
1
  10
 1503.7521351298
  20
 3739.8724383804
  30
0.0
  11
 1570.6636951884
  21
 3739.8724383804
  31
0.0
   0
LINE
   5
F2
 100
AcDbEntity
   8
LEVEL001
 370
13
 100
AcDbLine
   6
CONTINUOUS
  62
1
  10
 1559.7637928447
  20
 3757.3963641618
  30
0.0
  11
 1519.9041737040
  21
 3757.3963641618
  31
0.0
   0
LINE
   5
F3
 100
AcDbEntity
   8
LEVEL001
 370
13
 100
AcDbLine
   6
CONTINUOUS
  62
1
  10
 1519.9041737040
  20
 3757.3963641618
  30
0.0
  11
 1519.9041737040
  21
 3773.2811297868
  31
0.0
   0
LINE
   5
F4
 100
AcDbEntity
   8
LEVEL001
 370
13
 100
AcDbLine
   6
CONTINUOUS
  62
1
  10
 1519.9041737040
  20
 3773.2811297868
  30
0.0
  11
 1521.9537342509
  21
 3776.2530536148
  31
0.0
   0
LINE
   5
F5
 100
AcDbEntity
   8
LEVEL001
 370
13
 100
AcDbLine
   6
CONTINUOUS
  62
1
  10
 1520.1092518290
  20
 3778.4051532242
  30
0.0
  11
 1497.1533192118
  21
 3781.4793719742
  31
0.0
   0
LINE
   5
F6
 100
AcDbEntity
   8
LEVEL001
 370
13
 100
AcDbLine
   6
CONTINUOUS
  62
1
  10
 1497.1533192118
  20
 3781.4793719742
  30
0.0
  11
 1497.1533192118
  21
 3746.4820575212
  31
0.0
   0
LINE
   5
F7
 100
AcDbEntity
   8
LEVEL001
 370
13
 100
AcDbLine
   6
CONTINUOUS
  62
1
  10
 1454.6259754618
  20
 4032.3089618180
  30
0.0
  11
 1469.5330799540
  21
 4029.9798602554
  31
0.0
   0
LINE
   5
F8
 100
AcDbEntity
   8
LEVEL001
 370
13
 100
AcDbLine
   6
CONTINUOUS
  62
1
  10
 1475.6817615947
  20
 3998.0059833024
  30
0.0
  11
 1454.6259754618
  21
 4030.2594012712
  31
0.0
   0
LINE
   5
F9
 100
AcDbEntity
   8
LEVEL001
 370
13
 100
AcDbLine
   6
CONTINUOUS
  62
1
  10
 1553.2595203837
  20
 4072.9193133804
  30
0.0
  11
 1524.3600452861
  21
 4077.4283465836
  31
0.0
   0
LINE
   5
FA
 100
AcDbEntity
   8
LEVEL001
 370
13
 100
AcDbLine
   6
CONTINUOUS
  62
1
  10
 1524.3600452861
  20
 4077.4283465836
  30
0.0
  11
 1524.3600452861
  21
 4052.9356708024
  31
0.0
   0
LINE
   5
FB
 100
AcDbEntity
   8
LEVEL001
 370
13
 100
AcDbLine
   6
CONTINUOUS
  62
1
  10
 1524.3600452861
  20
 4041.9700946304
  30
0.0
  11
 1524.3600452861
  21
 4011.4307879898
  31
0.0
   0
LINE
   5
FC
 100
AcDbEntity
   8
LEVEL001
 370
13
 100
AcDbLine
   6
CONTINUOUS
  62
1
  10
 1524.3600452861
  20
 3999.3382586930
  30
0.0
  11
 1524.3600452861
  21
 3954.4517840836
  31
0.0
   0
ARC
   5
FD
 100
AcDbEntity
   8
LEVEL001
 370
13
   6
CONTINUOUS
  62
1
 100
AcDbCircle
  10
 1527.3544429730
  20
 3745.1168822772
  30
0.0
  40
 37.929008483886
 100
AcDbArc
  50
 46.131357984443
  51
 92.247049960183
   0
LINE
   5
FE
 100
AcDbEntity
   8
LEVEL001
 370
13
 100
AcDbLine
   6
CONTINUOUS
  62
1
  10
 1521.9537342509
  20
 3776.2530536148
  30
0.0
  11
 1520.1092518290
  21
 3778.4051532242
  31
0.0
   0
LINE
   5
FF
 100
AcDbEntity
   8
LEVEL001
 370
13
 100
AcDbLine
   6
CONTINUOUS
  62
1
  10
 1540.0094593486
  20
 3761.7005633804
  30
0.0
  11
 1525.8673084697
  21
 3783.0167254898
  31
0.0
   0
ARC
   5
100
 100
AcDbEntity
   8
LEVEL001
 370
13
   6
CONTINUOUS
  62
1
 100
AcDbCircle
  10
 1582.4594040102
  20
 4004.3842191516
  30
0.0
  40
 5.0631766319274
 100
AcDbArc
  50
 274.72625926493
  51
 43.105627832225
   0
ARC
   5
101
 100
AcDbEntity
   8
LEVEL001
 370
13
   6
CONTINUOUS
  62
1
 100
AcDbCircle
  10
 1586.0991422225
  20
 4047.5331906606
  30
0.0
  40
 5.5826339721680
 100
AcDbArc
  50
 274.79495132883
  51
 36.912748479785
   0
LINE
   5
102
 100
AcDbEntity
   8
LEVEL001
 370
13
 100
AcDbLine
   6
CONTINUOUS
  62
1
  10
 1586.1560047587
  20
 4007.8441180680
  30
0.0
  11
 1569.7589100322
  21
 4020.8592547868
  31
0.0
   0
LINE
   5
103
 100
AcDbEntity
   8
LEVEL001
 370
13
 100
AcDbLine
   6
CONTINUOUS
  62
1
  10
 1569.7589100322
  20
 4020.8592547868
  30
0.0
  11
 1562.1752918681
  21
 4011.4307879898
  31
0.0
   0
LINE
   5
104
 100
AcDbEntity
   8
LEVEL001
 370
13
 100
AcDbLine
   6
CONTINUOUS
  62
1
  10
 1562.1752918681
  20
 4011.4307879898
  30
0.0
  11
 1549.3652332743
  21
 4011.4307879898
  31
0.0
   0
LINE
   5
105
 100
AcDbEntity
   8
LEVEL001
 370
13
 100
AcDbLine
   6
CONTINUOUS
  62
1
  10
 1549.3652332743
  20
 4011.4307879898
  30
0.0
  11
 1549.3652332743
  21
 4041.9700946304
  31
0.0
   0
LINE
   5
106
 100
AcDbEntity
   8
LEVEL001
 370
13
 100
AcDbLine
   6
CONTINUOUS
  62
1
  10
 1549.3652332743
  20
 4041.9700946304
  30
0.0
  11
 1586.5657947978
  21
 4041.9700946304
  31
0.0
   0
LINE
   5
107
 100
AcDbEntity
   8
LEVEL001
 370
13
 100
AcDbLine
   6
CONTINUOUS
  62
1
  10
 1590.5627430400
  20
 4050.8861102554
  30
0.0
  11
 1576.7275379618
  21
 4062.9786395524
  31
0.0
   0
LINE
   5
108
 100
AcDbEntity
   8
LEVEL001
 370
13
 100
AcDbLine
   6
CONTINUOUS
  62
1
  10
 1576.7275379618
  20
 4062.9786395524
  30
0.0
  11
 1564.8400867900
  21
 4052.9356708024
  31
0.0
   0
LINE
   5
109
 100
AcDbEntity
   8
LEVEL001
 370
13
 100
AcDbLine
   6
CONTINUOUS
  62
1
  10
 1564.8400867900
  20
 4052.9356708024
  30
0.0
  11
 1549.3652332743
  21
 4052.9356708024
  31
0.0
   0
LINE
   5
10A
 100
AcDbEntity
   8
LEVEL001
 370
13
 100
AcDbLine
   6
CONTINUOUS
  62
1
  10
 1549.3652332743
  20
 4052.9356708024
  30
0.0
  11
 1549.3652332743
  21
 4068.4100360368
  31
0.0
   0
LINE
   5
10B
 100
AcDbEntity
   8
LEVEL001
 370
13
 100
AcDbLine
   6
CONTINUOUS
  62
1
  10
 1549.3652332743
  20
 4068.4100360368
  30
0.0
  11
 1552.9522694072
  21
 4070.2547625992
  31
0.0
   0
LINE
   5
10C
 100
AcDbEntity
   8
LEVEL001
 370
13
 100
AcDbLine
   6
CONTINUOUS
  62
1
  10
 1552.9522694072
  20
 4070.2547625992
  30
0.0
  11
 1553.2595203837
  21
 4072.9193133804
  31
0.0
   0
LINE
   5
10D
 100
AcDbEntity
   8
LEVEL001
 370
13
 100
AcDbLine
   6
CONTINUOUS
  62
1
  10
 1591.1376942118
  20
 3953.8817157242
  30
0.0
  11
 1575.8052967509
  21
 3963.9825458024
  31
0.0
   0
LINE
   5
10E
 100
AcDbEntity
   8
LEVEL001
 370
13
 100
AcDbLine
   6
CONTINUOUS
  62
1
  10
 1575.8052967509
  20
 3963.9825458024
  30
0.0
  11
 1567.9144276103
  21
 3954.4517840836
  31
0.0
   0
LINE
   5
10F
 100
AcDbEntity
   8
LEVEL001
 370
13
 100
AcDbLine
   6
CONTINUOUS
  62
1
  10
 1567.9144276103
  20
 3954.4517840836
  30
0.0
  11
 1549.3652332743
  21
 3954.4517840836
  31
0.0
   0
LINE
   5
110
 100
AcDbEntity
   8
LEVEL001
 370
13
 100
AcDbLine
   6
CONTINUOUS
  62
1
  10
 1549.3652332743
  20
 3954.4517840836
  30
0.0
  11
 1549.3652332743
  21
 3999.3382586930
  31
0.0
   0
LINE
   5
111
 100
AcDbEntity
   8
LEVEL001
 370
13
 100
AcDbLine
   6
CONTINUOUS
  62
1
  10
 1549.3652332743
  20
 3999.3382586930
  30
0.0
  11
 1582.8765858134
  21
 3999.3382586930
  31
0.0
   0
ARC
   5
112
 100
AcDbEntity
   8
LEVEL001
 370
13
   6
CONTINUOUS
  62
1
 100
AcDbCircle
  10
 1587.6833995352
  20
 3948.6381301308
  30
0.0
  40
 6.2791194915772
 100
AcDbArc
  50
 269.99730665616
  51
 56.624475922392
   0
ARC
   5
113
 100
AcDbEntity
   8
LEVEL001
 370
13
   6
CONTINUOUS
  62
1
 100
AcDbCircle
  10
 1591.4561200195
  20
 3842.1694949332
  30
0.0
  40
 4.7515311241150
 100
AcDbArc
  50
 274.70300820746
  51
 59.113555838231
   0
LINE
   5
114
 100
AcDbEntity
   8
LEVEL001
 370
13
 100
AcDbLine
   6
CONTINUOUS
  62
1
  10
 1533.5339344462
  20
 3847.9893817398
  30
0.0
  11
 1543.9871204814
  21
 3863.6690692398
  31
0.0
   0
ARC
   5
115
 100
AcDbEntity
   8
LEVEL001
 370
13
   6
CONTINUOUS
  62
1
 100
AcDbCircle
  10
 1582.0147935985
  20
 3868.8252429548
  30
0.0
  40
 5.1561789512634
 100
AcDbArc
  50
 269.91834398461
  51
 52.069476722727
   0
LINE
   5
116
 100
AcDbEntity
   8
LEVEL001
 370
13
 100
AcDbLine
   6
CONTINUOUS
  62
1
  10
 1593.8952625712
  20
 3846.2471942398
  30
0.0
  11
 1575.9613026103
  21
 3856.7003192398
  31
0.0
   0
LINE
   5
117
 100
AcDbEntity
   8
LEVEL001
 370
13
 100
AcDbLine
   6
CONTINUOUS
  62
1
  10
 1575.9613026103
  20
 3856.7003192398
  30
0.0
  11
 1569.4024647197
  21
 3847.9893817398
  31
0.0
   0
LINE
   5
118
 100
AcDbEntity
   8
LEVEL001
 370
13
 100
AcDbLine
   6
CONTINUOUS
  62
1
  10
 1569.4024647197
  20
 3847.9893817398
  30
0.0
  11
 1553.6535633525
  21
 3847.9893817398
  31
0.0
   0
LINE
   5
119
 100
AcDbEntity
   8
LEVEL001
 370
13
 100
AcDbLine
   6
CONTINUOUS
  62
1
  10
 1553.6535633525
  20
 3847.9893817398
  30
0.0
  11
 1562.7410877665
  21
 3856.1878680680
  31
0.0
   0
LINE
   5
11A
 100
AcDbEntity
   8
LEVEL001
 370
13
 100
AcDbLine
   6
CONTINUOUS
  62
1
  10
 1562.7410877665
  20
 3856.1878680680
  30
0.0
  11
 1566.5328358134
  21
 3856.7003192398
  31
0.0
   0
LINE
   5
11B
 100
AcDbEntity
   8
LEVEL001
 370
13
 100
AcDbLine
   6
CONTINUOUS
  62
1
  10
 1566.5328358134
  20
 3856.7003192398
  30
0.0
  11
 1568.1726063212
  21
 3859.0572528336
  31
0.0
   0
LINE
   5
11C
 100
AcDbEntity
   8
LEVEL001
 370
13
 100
AcDbLine
   6
CONTINUOUS
  62
1
  10
 1568.1726063212
  20
 3859.0572528336
  30
0.0
  11
 1565.5080555400
  21
 3863.6690692398
  31
0.0
   0
LINE
   5
11D
 100
AcDbEntity
   8
LEVEL001
 370
13
 100
AcDbLine
   6
CONTINUOUS
  62
1
  10
 1565.5080555400
  20
 3863.6690692398
  30
0.0
  11
 1582.0074451884
  21
 3863.6690692398
  31
0.0
   0
LINE
   5
11E
 100
AcDbEntity
   8
LEVEL001
 370
13
 100
AcDbLine
   6
CONTINUOUS
  62
1
  10
 1585.1843250712
  20
 3872.8922137712
  30
0.0
  11
 1566.5328358134
  21
 3883.1402606462
  31
0.0
   0
LINE
   5
11F
 100
AcDbEntity
   8
LEVEL001
 370
13
 100
AcDbLine
   6
CONTINUOUS
  62
1
  10
 1566.5328358134
  20
 3883.1402606462
  30
0.0
  11
 1560.3839100322
  21
 3873.6094989274
  31
0.0
   0
LINE
   5
120
 100
AcDbEntity
   8
LEVEL001
 370
13
 100
AcDbLine
   6
CONTINUOUS
  62
1
  10
 1560.3839100322
  20
 3873.6094989274
  30
0.0
  11
 1538.9654530009
  21
 3873.6094989274
  31
0.0
   0
LINE
   5
121
 100
AcDbEntity
   8
LEVEL001
 370
13
 100
AcDbLine
   6
CONTINUOUS
  62
1
  10
 1554.6450184306
  20
 3819.8072528336
  30
0.0
  11
 1554.6450184306
  21
 3813.3509540054
  31
0.0
   0
LINE
   5
122
 100
AcDbEntity
   8
LEVEL001
 370
13
 100
AcDbLine
   6
CONTINUOUS
  62
1
  10
 1581.1877430400
  20
 3826.7760028336
  30
0.0
  11
 1561.2038563212
  21
 3835.7943133804
  31
0.0
   0
LINE
   5
123
 100
AcDbEntity
   8
LEVEL001
 370
13
 100
AcDbLine
   6
CONTINUOUS
  62
1
  10
 1561.2038563212
  20
 3835.7943133804
  30
0.0
  11
 1554.6450184306
  21
 3828.1080340836
  31
0.0
   0
LINE
   5
124
 100
AcDbEntity
   8
LEVEL001
 370
13
 100
AcDbLine
   6
CONTINUOUS
  62
1
  10
 1554.6450184306
  20
 3804.2266864274
  30
0.0
  11
 1554.6450184306
  21
 3797.3638934586
  31
0.0
   0
ARC
   5
125
 100
AcDbEntity
   8
LEVEL001
 370
13
   6
CONTINUOUS
  62
1
 100
AcDbCircle
  10
 1577.6888155120
  20
 3824.1638456192
  30
0.0
  40
 4.3664469718934
 100
AcDbArc
  50
 266.14995656848
  51
 36.743524531018
   0
LINE
   5
126
 100
AcDbEntity
   8
LEVEL001
 370
13
 100
AcDbLine
   6
CONTINUOUS
  62
1
  10
 1554.6450184306
  20
 3788.7557391618
  30
0.0
  11
 1554.6450184306
  21
 3783.8365497086
  31
0.0
   0
LINE
   5
127
 100
AcDbEntity
   8
LEVEL001
 370
13
 100
AcDbLine
   6
CONTINUOUS
  62
1
  10
 1554.6450184306
  20
 3783.8365497086
  30
0.0
  11
 1571.5545643290
  21
 3783.8365497086
  31
0.0
   0
LINE
   5
128
 100
AcDbEntity
   8
LEVEL001
 370
13
 100
AcDbLine
   6
CONTINUOUS
  62
1
  10
 1571.5545643290
  20
 3783.8365497086
  30
0.0
  11
 1575.2435291728
  21
 3785.8861102554
  31
0.0
   0
LINE
   5
129
 100
AcDbEntity
   8
LEVEL001
 370
13
 100
AcDbLine
   6
CONTINUOUS
  62
1
  10
 1575.2435291728
  20
 3785.8861102554
  30
0.0
  11
 1577.3956287822
  21
 3790.2928485368
  31
0.0
   0
LINE
   5
12A
 100
AcDbEntity
   8
LEVEL001
 370
13
 100
AcDbLine
   6
CONTINUOUS
  62
1
  10
 1577.3956287822
  20
 3790.2928485368
  30
0.0
  11
 1577.3889149150
  21
 3819.8072528336
  31
0.0
   0
LINE
   5
12B
 100
AcDbEntity
   8
LEVEL001
 370
13
 100
AcDbLine
   6
CONTINUOUS
  62
1
  10
 1565.2325428447
  20
 3781.1719989274
  30
0.0
  11
 1578.6572254618
  21
 3758.8314227554
  31
0.0
   0
ARC
   5
12C
 100
AcDbEntity
   8
LEVEL001
 370
13
   6
CONTINUOUS
  62
1
 100
AcDbCircle
  10
 1570.9651645742
  20
 3748.6557660818
  30
0.0
  40
 8.7884998321534
 100
AcDbArc
  50
 268.03421368568
  51
 95.984851979590
   0
LINE
   5
12D
 100
AcDbEntity
   8
LEVEL001
 370
13
 100
AcDbLine
   6
CONTINUOUS
  62
1
  10
 1570.0488270243
  20
 3757.3963641618
  30
0.0
  11
 1562.6702869853
  21
 3775.8431415054
  31
0.0
   0
LINE
   5
12E
 100
AcDbEntity
   8
LEVEL001
 370
13
 100
AcDbLine
   6
CONTINUOUS
  62
1
  10
 1562.6702869853
  20
 3775.8431415054
  30
0.0
  11
 1562.4652088603
  21
 3765.5950946304
  31
0.0
   0
LINE
   5
12F
 100
AcDbEntity
   8
LEVEL001
 370
13
 100
AcDbLine
   6
CONTINUOUS
  62
1
  10
 1562.4652088603
  20
 3765.5950946304
  30
0.0
  11
 1559.7637928447
  21
 3757.3963641618
  31
0.0
   0
ARC
   5
130
 100
AcDbEntity
   8
LEVEL001
 370
13
   6
CONTINUOUS
  62
1
 100
AcDbCircle
  10
 1544.8898117792
  20
 3769.4200468032
  30
0.0
  40
 9.1328125000000
 100
AcDbArc
  50
 237.69842193839
  51
 18.768745074031
   0
ARC
   5
131
 100
AcDbEntity
   8
LEVEL001
 370
13
   6
CONTINUOUS
  62
1
 100
AcDbCircle
  10
 1584.4497623449
  20
 3765.6397007296
  30
0.0
  40
 8.9390230178834
 100
AcDbArc
  50
 229.60859987453
  51
 6.7921555436510
   0
ARC
   5
132
 100
AcDbEntity
   8
LEVEL001
 370
13
   6
CONTINUOUS
  62
1
 100
AcDbCircle
  10
 1569.1409763341
  20
 3754.6083085502
  30
0.0
  40
 27.037969589234
 100
AcDbArc
  50
 26.557576861274
  51
 98.091890389852
   0
LINE
   5
133
 100
AcDbEntity
   8
LEVEL001
 370
13
 100
AcDbLine
   6
CONTINUOUS
  62
1
  10
 1538.9654530009
  20
 3873.6094989274
  30
0.0
  11
 1538.9654530009
  21
 3879.9632586930
  31
0.0
   0
LINE
   5
134
 100
AcDbEntity
   8
LEVEL001
 370
13
 100
AcDbLine
   6
CONTINUOUS
  62
1
  10
 1538.9654530009
  20
 3879.9632586930
  30
0.0
  11
 1541.0900867900
  21
 3883.6612567398
  31
0.0
   0
LINE
   5
135
 100
AcDbEntity
   8
LEVEL001
 370
13
 100
AcDbLine
   6
CONTINUOUS
  62
1
  10
 1541.0900867900
  20
 3883.6612567398
  30
0.0
  11
 1540.2700794658
  21
 3885.4034442398
  31
0.0
   0
ENDBLK
   5
136
 100
AcDbEntity
   8
0
 100
AcDbBlockEnd
   0
BLOCK
   5
137
 100
AcDbEntity
   8
0
 100
AcDbBlockBegin
   2
BLOCK003
  70
64
  10
0.0
  20
0.0
  30
0.0
   3
BLOCK003
   0
LINE
   5
138
 100
AcDbEntity
   8
LEVEL001
 370
13
 100
AcDbLine
   6
CONTINUOUS
  62
7
  10
 1457.7006824931
  20
 3685.7479266618
  30
0.0
  11
 1597.6979969462
  21
 3685.7479266618
  31
0.0
   0
ARC
   5
139
 100
AcDbEntity
   8
LEVEL001
 370
13
   6
CONTINUOUS
  62
7
 100
AcDbCircle
  10
 1597.6979969462
  20
 3705.7479266618
  30
0.0
  40
 20.000000000000
 100
AcDbArc
  50
 270.00000000000
  51
0.0
   0
LINE
   5
13A
 100
AcDbEntity
   8
LEVEL001
 370
13
 100
AcDbLine
   6
CONTINUOUS
  62
7
  10
 1617.6979969462
  20
 3705.7479266618
  30
0.0
  11
 1617.6979969462
  21
 4265.7486590836
  31
0.0
   0
ARC
   5
13B
 100
AcDbEntity
   8
LEVEL001
 370
13
   6
CONTINUOUS
  62
7
 100
AcDbCircle
  10
 1457.7006824931
  20
 3705.7479266618
  30
0.0
  40
 20.000000000000
 100
AcDbArc
  50
 180.00000000000
  51
 270.00000000000
   0
LINE
   5
13C
 100
AcDbEntity
   8
LEVEL001
 370
13
 100
AcDbLine
   6
CONTINUOUS
  62
7
  10
 1437.7006824931
  20
 4265.7486590836
  30
0.0
  11
 1437.7006824931
  21
 3705.7479266618
  31
0.0
   0
LINE
   5
13D
 100
AcDbEntity
   8
LEVEL001
 370
13
 100
AcDbLine
   6
CONTINUOUS
  62
7
  10
 1597.6979969462
  20
 4285.7486590836
  30
0.0
  11
 1457.7006824931
  21
 4285.7486590836
  31
0.0
   0
ARC
   5
13E
 100
AcDbEntity
   8
LEVEL001
 370
13
   6
CONTINUOUS
  62
7
 100
AcDbCircle
  10
 1457.7006824931
  20
 4265.7486590836
  30
0.0
  40
 20.000000000000
 100
AcDbArc
  50
 90.000000000000
  51
 180.00000000000
   0
ARC
   5
13F
 100
AcDbEntity
   8
LEVEL001
 370
13
   6
CONTINUOUS
  62
7
 100
AcDbCircle
  10
 1597.6979969462
  20
 4265.7486590836
  30
0.0
  40
 20.000000000000
 100
AcDbArc
  50
0.0
  51
 90.000000000003
   0
ENDBLK
   5
140
 100
AcDbEntity
   8
0
 100
AcDbBlockEnd
   0
BLOCK
   5
141
 100
AcDbEntity
   8
0
 100
AcDbBlockBegin
   2
*D14
  70
65
  10
0.0
  20
0.0
  30
0.0
   3
*D14
   0
LINE
   5
142
 100
AcDbEntity
   8
0
 370
13
 100
AcDbLine
   6
CONTINUOUS
  62
6
  10
 1247.6983631572
  20
 785.74865908356
  30
0.0
  11
 597.69836315715
  21
 785.74865908356
  31
0.0
   0
LINE
   5
143
 100
AcDbEntity
   8
0
 370
13
 100
AcDbLine
   6
CONTINUOUS
  62
6
  10
 1247.6983631572
  20
 685.74865908356
  30
0.0
  11
 597.69836315715
  21
 685.74865908356
  31
0.0
   0
LINE
   5
144
 100
AcDbEntity
   8
0
 370
13
 100
AcDbLine
   6
CONTINUOUS
  62
6
  10
 627.69836315715
  20
 785.74865908356
  30
0.0
  11
 627.69836315715
  21
 735.74865908356
  31
0.0
   0
LINE
   5
145
 100
AcDbEntity
   8
0
 370
13
 100
AcDbLine
   6
CONTINUOUS
  62
6
  10
 627.69836315715
  20
 685.74865908356
  30
0.0
  11
 627.69836315715
  21
 735.74865908356
  31
0.0
   0
INSERT
   5
146
 100
AcDbEntity
   8
0
   6
CONTINUOUS
  62
6
 100
AcDbBlockReference
   2
_OPEN
  10
 627.69836315715
  20
 785.74865908356
  30
0.0
  41
 42.000000000000
  42
 42.000000000000
  43
 42.000000000000
  50
 90.000000000000
   0
INSERT
   5
147
 100
AcDbEntity
   8
0
   6
CONTINUOUS
  62
6
 100
AcDbBlockReference
   2
_OPEN
  10
 627.69836315715
  20
 685.74865908356
  30
0.0
  41
 42.000000000000
  42
 42.000000000000
  43
 42.000000000000
  50
 270.00000000000
   0
MTEXT
   5
148
 100
AcDbEntity
   8
0
 370
13
  62
1
 100
AcDbMText
  10
 601.98407744287
  20
 735.74865908356
  30
0.0
  40
 60.000000000000
  41
0.0
  71
8
  72
1
   1
\A1;100
   7
GMM002
  11
0.0
  21
 1.0000000000000
  31
0.0
   0
ENDBLK
   5
149
 100
AcDbEntity
   8
0
 100
AcDbBlockEnd
   0
BLOCK
   5
14A
 100
AcDbEntity
   8
0
 100
AcDbBlockBegin
   2
*D15
  70
65
  10
0.0
  20
0.0
  30
0.0
   3
*D15
   0
LINE
   5
14B
 100
AcDbEntity
   8
0
 370
13
 100
AcDbLine
   6
CONTINUOUS
  62
6
  10
 1247.6983631572
  20
 785.74865908356
  30
0.0
  11
 597.69836315715
  21
 785.74865908356
  31
0.0
   0
LINE
   5
14C
 100
AcDbEntity
   8
0
 370
13
 100
AcDbLine
   6
CONTINUOUS
  62
6
  10
 997.69836315715
  20
 1885.7486590835
  30
0.0
  11
 597.69836315715
  21
 1885.7486590835
  31
0.0
   0
LINE
   5
14D
 100
AcDbEntity
   8
0
 370
13
 100
AcDbLine
   6
CONTINUOUS
  62
6
  10
 627.69836315715
  20
 785.74865908356
  30
0.0
  11
 627.69836315715
  21
 1335.7486590835
  31
0.0
   0
LINE
   5
14E
 100
AcDbEntity
   8
0
 370
13
 100
AcDbLine
   6
CONTINUOUS
  62
6
  10
 627.69836315715
  20
 1885.7486590835
  30
0.0
  11
 627.69836315715
  21
 1335.7486590835
  31
0.0
   0
INSERT
   5
14F
 100
AcDbEntity
   8
0
   6
CONTINUOUS
  62
6
 100
AcDbBlockReference
   2
_OPEN
  10
 627.69836315715
  20
 785.74865908356
  30
0.0
  41
 42.000000000000
  42
 42.000000000000
  43
 42.000000000000
  50
 270.00000000000
   0
INSERT
   5
150
 100
AcDbEntity
   8
0
   6
CONTINUOUS
  62
6
 100
AcDbBlockReference
   2
_OPEN
  10
 627.69836315715
  20
 1885.7486590835
  30
0.0
  41
 42.000000000000
  42
 42.000000000000
  43
 42.000000000000
  50
 90.000000000000
   0
MTEXT
   5
151
 100
AcDbEntity
   8
0
 370
13
  62
1
 100
AcDbMText
  10
 601.98407744287
  20
 1335.7486590835
  30
0.0
  40
 60.000000000000
  41
0.0
  71
8
  72
1
   1
\A1;1100
   7
GMM002
  11
0.0
  21
 1.0000000000000
  31
0.0
   0
ENDBLK
   5
152
 100
AcDbEntity
   8
0
 100
AcDbBlockEnd
   0
BLOCK
   5
153
 100
AcDbEntity
   8
0
 100
AcDbBlockBegin
   2
*D16
  70
65
  10
0.0
  20
0.0
  30
0.0
   3
*D16
   0
LINE
   5
154
 100
AcDbEntity
   8
0
 370
13
 100
AcDbLine
   6
CONTINUOUS
  62
6
  10
 1453.1483753642
  20
 4385.7486590836
  30
0.0
  11
 597.69836315715
  21
 4385.7486590836
  31
0.0
   0
LINE
   5
155
 100
AcDbEntity
   8
0
 370
13
 100
AcDbLine
   6
CONTINUOUS
  62
6
  10
 997.69836315715
  20
 1885.7486590835
  30
0.0
  11
 597.69836315715
  21
 1885.7486590835
  31
0.0
   0
LINE
   5
156
 100
AcDbEntity
   8
0
 370
13
 100
AcDbLine
   6
CONTINUOUS
  62
6
  10
 627.69836315715
  20
 4385.7486590836
  30
0.0
  11
 627.69836315715
  21
 3135.7486590835
  31
0.0
   0
LINE
   5
157
 100
AcDbEntity
   8
0
 370
13
 100
AcDbLine
   6
CONTINUOUS
  62
6
  10
 627.69836315715
  20
 1885.7486590835
  30
0.0
  11
 627.69836315715
  21
 3135.7486590835
  31
0.0
   0
INSERT
   5
158
 100
AcDbEntity
   8
0
   6
CONTINUOUS
  62
6
 100
AcDbBlockReference
   2
_OPEN
  10
 627.69836315715
  20
 4385.7486590836
  30
0.0
  41
 42.000000000000
  42
 42.000000000000
  43
 42.000000000000
  50
 90.000000000000
   0
INSERT
   5
159
 100
AcDbEntity
   8
0
   6
CONTINUOUS
  62
6
 100
AcDbBlockReference
   2
_OPEN
  10
 627.69836315715
  20
 1885.7486590835
  30
0.0
  41
 42.000000000000
  42
 42.000000000000
  43
 42.000000000000
  50
 270.00000000000
   0
MTEXT
   5
15A
 100
AcDbEntity
   8
0
 370
13
  62
1
 100
AcDbMText
  10
 601.98407744287
  20
 3135.7486590835
  30
0.0
  40
 60.000000000000
  41
0.0
  71
8
  72
1
   1
\A1;2500(標準設置高さ)
   7
GMM002
  11
0.0
  21
 1.0000000000000
  31
0.0
   0
ENDBLK
   5
15B
 100
AcDbEntity
   8
0
 100
AcDbBlockEnd
   0
BLOCK
   5
15C
 100
AcDbEntity
   8
0
 100
AcDbBlockBegin
   2
*D17
  70
65
  10
0.0
  20
0.0
  30
0.0
   3
*D17
   0
LINE
   5
15D
 100
AcDbEntity
   8
0
 370
13
 100
AcDbLine
   6
CONTINUOUS
  62
6
  10
 1277.6983631572
  20
 655.74865908356
  30
0.0
  11
 1277.6983631572
  21
 455.74865908356
  31
0.0
   0
LINE
   5
15E
 100
AcDbEntity
   8
0
 370
13
 100
AcDbLine
   6
CONTINUOUS
  62
6
  10
 1777.6983631572
  20
 655.74865908356
  30
0.0
  11
 1777.6983631572
  21
 455.74865908356
  31
0.0
   0
LINE
   5
15F
 100
AcDbEntity
   8
0
 370
13
 100
AcDbLine
   6
CONTINUOUS
  62
6
  10
 1277.6983631572
  20
 485.74865908356
  30
0.0
  11
 1527.6983631572
  21
 485.74865908356
  31
0.0
   0
LINE
   5
160
 100
AcDbEntity
   8
0
 370
13
 100
AcDbLine
   6
CONTINUOUS
  62
6
  10
 1777.6983631572
  20
 485.74865908356
  30
0.0
  11
 1527.6983631572
  21
 485.74865908356
  31
0.0
   0
INSERT
   5
161
 100
AcDbEntity
   8
0
   6
CONTINUOUS
  62
6
 100
AcDbBlockReference
   2
_OPEN
  10
 1277.6983631572
  20
 485.74865908356
  30
0.0
  41
 42.000000000000
  42
 42.000000000000
  43
 42.000000000000
  50
 180.00000000000
   0
INSERT
   5
162
 100
AcDbEntity
   8
0
   6
CONTINUOUS
  62
6
 100
AcDbBlockReference
   2
_OPEN
  10
 1777.6983631572
  20
 485.74865908356
  30
0.0
  41
 42.000000000000
  42
 42.000000000000
  43
 42.000000000000
  50
0.0
   0
MTEXT
   5
163
 100
AcDbEntity
   8
0
 370
13
  62
1
 100
AcDbMText
  10
 1527.6983631572
  20
 511.46294479784
  30
0.0
  40
 60.000000000000
  41
0.0
  71
8
  72
1
   1
\A1;□500
   7
GMM002
   0
ENDBLK
   5
164
 100
AcDbEntity
   8
0
 100
AcDbBlockEnd
   0
BLOCK
   5
165
 100
AcDbEntity
   8
0
 100
AcDbBlockBegin
   2
*D18
  70
65
  10
0.0
  20
0.0
  30
0.0
   3
*D18
   0
LINE
   5
166
 100
AcDbEntity
   8
0
 370
13
 100
AcDbLine
   6
CONTINUOUS
  62
6
  10
 2777.6983631572
  20
 655.74865908356
  30
0.0
  11
 2777.6983631572
  21
 455.74865908356
  31
0.0
   0
LINE
   5
167
 100
AcDbEntity
   8
0
 370
13
 100
AcDbLine
   6
CONTINUOUS
  62
6
  10
 3277.6983631572
  20
 655.74865908356
  30
0.0
  11
 3277.6983631572
  21
 455.74865908356
  31
0.0
   0
LINE
   5
168
 100
AcDbEntity
   8
0
 370
13
 100
AcDbLine
   6
CONTINUOUS
  62
6
  10
 2777.6983631572
  20
 485.74865908356
  30
0.0
  11
 3027.6983631572
  21
 485.74865908356
  31
0.0
   0
LINE
   5
169
 100
AcDbEntity
   8
0
 370
13
 100
AcDbLine
   6
CONTINUOUS
  62
6
  10
 3277.6983631572
  20
 485.74865908356
  30
0.0
  11
 3027.6983631572
  21
 485.74865908356
  31
0.0
   0
INSERT
   5
16A
 100
AcDbEntity
   8
0
   6
CONTINUOUS
  62
6
 100
AcDbBlockReference
   2
_OPEN
  10
 2777.6983631572
  20
 485.74865908356
  30
0.0
  41
 42.000000000000
  42
 42.000000000000
  43
 42.000000000000
  50
 180.00000000000
   0
INSERT
   5
16B
 100
AcDbEntity
   8
0
   6
CONTINUOUS
  62
6
 100
AcDbBlockReference
   2
_OPEN
  10
 3277.6983631572
  20
 485.74865908356
  30
0.0
  41
 42.000000000000
  42
 42.000000000000
  43
 42.000000000000
  50
0.0
   0
MTEXT
   5
16C
 100
AcDbEntity
   8
0
 370
13
  62
1
 100
AcDbMText
  10
 3027.6983631572
  20
 511.46294479784
  30
0.0
  40
 60.000000000000
  41
0.0
  71
8
  72
1
   1
\A1;□500
   7
GMM002
   0
ENDBLK
   5
16D
 100
AcDbEntity
   8
0
 100
AcDbBlockEnd
   0
BLOCK
   5
16E
 100
AcDbEntity
   8
0
 100
AcDbBlockBegin
   2
*D19
  70
65
  10
0.0
  20
0.0
  30
0.0
   3
*D19
   0
LINE
   5
16F
 100
AcDbEntity
   8
0
 370
13
 100
AcDbLine
   6
CONTINUOUS
  62
6
  10
 1090.3555342460
  20
 4665.7486590836
  30
0.0
  11
 1527.6983631572
  21
 4918.2486590836
  31
0.0
   0
LINE
   5
170
 100
AcDbEntity
   8
0
 370
13
 100
AcDbLine
   6
CONTINUOUS
  62
6
  10
 1527.6983631572
  20
 4918.2486590836
  30
0.0
  11
 1965.0411920683
  21
 5170.7486590835
  31
0.0
   0
INSERT
   5
171
 100
AcDbEntity
   8
0
   6
CONTINUOUS
  62
6
 100
AcDbBlockReference
   2
_OPEN
  10
 1090.3555342460
  20
 4665.7486590836
  30
0.0
  41
 42.000000000000
  42
 42.000000000000
  43
 42.000000000000
  50
 210.00000000000
   0
INSERT
   5
172
 100
AcDbEntity
   8
0
   6
CONTINUOUS
  62
6
 100
AcDbBlockReference
   2
_OPEN
  10
 1965.0411920683
  20
 5170.7486590835
  30
0.0
  41
 42.000000000000
  42
 42.000000000000
  43
 42.000000000000
  50
 29.999999999997
   0
MTEXT
   5
173
 100
AcDbEntity
   8
0
 370
13
  62
1
 100
AcDbMText
  10
 1514.8412203000
  20
 4940.5178837523
  30
0.0
  40
 60.000000000000
  41
0.0
  71
8
  72
1
   1
\A1;%%c1000
   7
GMM002
  11
 0.86602540378446
  21
 0.49999999999996
  31
0.0
   0
ENDBLK
   5
174
 100
AcDbEntity
   8
0
 100
AcDbBlockEnd
   0
ENDSEC
   0
SECTION
   2
ENTITIES
   0
LINE
   5
175
 100
AcDbEntity
   8
LEVEL001
 370
13
 100
AcDbLine
   6
CONTINUOUS
  62
2
  10
 5487.6983631572
  20
 748.24865908356
  30
0.0
  11
 7167.6983631572
  21
 748.24865908356
  31
0.0
   0
POINT
   5
176
 100
AcDbEntity
   8
LEVEL001
 100
AcDbPoint
  62
3
  10
 6427.6983631572
  20
 808.24865908356
  30
0.0
   0
POINT
   5
177
 100
AcDbEntity
   8
LEVEL001
 100
AcDbPoint
  62
3
  10
 6327.6983631572
  20
 808.24865908356
  30
0.0
   0
POINT
   5
178
 100
AcDbEntity
   8
LEVEL001
 100
AcDbPoint
  62
3
  10
 6427.6983631572
  20
 908.24865908356
  30
0.0
   0
LINE
   5
179
 100
AcDbEntity
   8
LEVEL001
 370
13
 100
AcDbLine
   6
CONTINUOUS
  62
6
  10
 5487.6983631572
  20
 2528.2486590836
  30
0.0
  11
 8127.6983631572
  21
 2528.2486590836
  31
0.0
   0
LINE
   5
17A
 100
AcDbEntity
   8
LEVEL001
 370
13
 100
AcDbLine
   6
CONTINUOUS
  62
6
  10
 5487.6983631572
  20
 1088.2486590836
  30
0.0
  11
 8127.6983631572
  21
 1088.2486590836
  31
0.0
   0
LINE
   5
17B
 100
AcDbEntity
   8
LEVEL001
 370
13
 100
AcDbLine
   6
CONTINUOUS
  62
6
  10
 5487.6983631572
  20
 1208.2486590836
  30
0.0
  11
 8127.6983631572
  21
 1208.2486590836
  31
0.0
   0
LINE
   5
17C
 100
AcDbEntity
   8
LEVEL001
 370
13
 100
AcDbLine
   6
CONTINUOUS
  62
6
  10
 5487.6983631572
  20
 1328.2486590836
  30
0.0
  11
 8127.6983631572
  21
 1328.2486590836
  31
0.0
   0
LINE
   5
17D
 100
AcDbEntity
   8
LEVEL001
 370
13
 100
AcDbLine
   6
CONTINUOUS
  62
6
  10
 5487.6983631572
  20
 1448.2486590836
  30
0.0
  11
 8127.6983631572
  21
 1448.2486590836
  31
0.0
   0
LINE
   5
17E
 100
AcDbEntity
   8
LEVEL001
 370
13
 100
AcDbLine
   6
CONTINUOUS
  62
6
  10
 5487.6983631572
  20
 1568.2486590836
  30
0.0
  11
 8127.6983631572
  21
 1568.2486590836
  31
0.0
   0
MTEXT
   5
17F
 100
AcDbEntity
   8
LEVEL001
 370
13
  62
1
 100
AcDbMText
  10
 7367.6983631572
  20
 1988.2486590836
  30
0.0
  40
 51.428571428572
  41
0.0
  71
4
  72
1
   1
\T1.000000;溶融亜鉛メッキ
   7
GMM001
  44
 0.79999984000003
   0
MTEXT
   5
180
 100
AcDbEntity
   8
LEVEL001
 370
13
  62
1
 100
AcDbMText
  10
 7367.6983631572
  20
 2108.2486590836
  30
0.0
  40
 51.428571428572
  41
0.0
  71
4
  72
1
   1
\T1.000000;溶融亜鉛メッキ
   7
GMM001
  44
 0.79999984000003
   0
MTEXT
   5
181
 100
AcDbEntity
   8
LEVEL001
 370
13
  62
1
 100
AcDbMText
  10
 6807.6983631572
  20
 1988.2486590836
  30
0.0
  40
 51.428571428572
  41
0.0
  71
4
  72
1
   1
\T1.000000;ＳＳ４００
   7
GMM001
  44
 0.79999984000003
   0
MTEXT
   5
182
 100
AcDbEntity
   8
LEVEL001
 370
13
  62
1
 100
AcDbMText
  10
 6807.6983631572
  20
 2108.2486590836
  30
0.0
  40
 51.428571428572
  41
0.0
  71
4
  72
1
   1
\T1.000000;ＳＳ４００
   7
GMM001
  44
 0.79999984000003
   0
MTEXT
   5
183
 100
AcDbEntity
   8
LEVEL001
 370
13
  62
1
 100
AcDbMText
  10
 5659.6983631572
  20
 1868.2486590836
  30
0.0
  40
 51.428571428572
  41
0.0
  71
6
  72
1
   1
\T1.000000;９
   7
GMM001
  44
 0.79999984000003
   0
MTEXT
   5
184
 100
AcDbEntity
   8
LEVEL001
 370
13
  62
1
 100
AcDbMText
  10
 5659.6983631572
  20
 1988.2486590836
  30
0.0
  40
 51.428571428572
  41
0.0
  71
6
  72
1
   1
\T1.000000;８
   7
GMM001
  44
 0.79999984000003
   0
MTEXT
   5
185
 100
AcDbEntity
   8
LEVEL001
 370
13
  62
1
 100
AcDbMText
  10
 5727.6983631572
  20
 1988.2486590836
  30
0.0
  40
 51.428571428572
  41
0.0
  71
4
  72
1
   1
\T1.000000;金具締付ボルトナット
   7
GMM001
  44
 0.79999984000003
   0
MTEXT
   5
186
 100
AcDbEntity
   8
LEVEL001
 370
13
  62
1
 100
AcDbMText
  10
 5659.6983631572
  20
 2108.2486590836
  30
0.0
  40
 51.428571428572
  41
0.0
  71
6
  72
1
   1
\T1.000000;７
   7
GMM001
  44
 0.79999984000003
   0
MTEXT
   5
187
 100
AcDbEntity
   8
LEVEL001
 370
13
  62
1
 100
AcDbMText
  10
 5727.6983631572
  20
 2108.2486590836
  30
0.0
  40
 51.428571428572
  41
0.0
  71
4
  72
1
   1
\T1.000000;裏板金具取付ボルト
   7
GMM001
  44
 0.79999984000003
   0
LINE
   5
188
 100
AcDbEntity
   8
LEVEL001
 370
13
 100
AcDbLine
   6
CONTINUOUS
  62
6
  10
 5487.6983631572
  20
 1688.2486590836
  30
0.0
  11
 8127.6983631572
  21
 1688.2486590836
  31
0.0
   0
LINE
   5
189
 100
AcDbEntity
   8
LEVEL001
 370
13
 100
AcDbLine
   6
CONTINUOUS
  62
6
  10
 5487.6983631572
  20
 1928.2486590836
  30
0.0
  11
 8127.6983631572
  21
 1928.2486590836
  31
0.0
   0
LINE
   5
18A
 100
AcDbEntity
   8
LEVEL001
 370
13
 100
AcDbLine
   6
CONTINUOUS
  62
6
  10
 5487.6983631572
  20
 2048.2486590836
  30
0.0
  11
 8127.6983631572
  21
 2048.2486590836
  31
0.0
   0
MTEXT
   5
18B
 100
AcDbEntity
   8
LEVEL001
 370
13
  62
1
 100
AcDbMText
  10
 5727.6983631572
  20
 2228.2486590836
  30
0.0
  40
 51.428571428572
  41
0.0
  71
4
  72
1
   1
\T1.000000;支柱取付金具
   7
GMM001
  44
 0.79999984000003
   0
MTEXT
   5
18C
 100
AcDbEntity
   8
LEVEL001
 370
13
  62
1
 100
AcDbMText
  10
 5659.6983631572
  20
 2228.2486590836
  30
0.0
  40
 51.428571428572
  41
0.0
  71
6
  72
1
   1
\T1.000000;６
   7
GMM001
  44
 0.79999984000003
   0
MTEXT
   5
18D
 100
AcDbEntity
   8
LEVEL001
 370
13
  62
1
 100
AcDbMText
  10
 6807.6983631572
  20
 2228.2486590836
  30
0.0
  40
 51.428571428572
  41
0.0
  71
4
  72
1
   1
\T1.000000;ＳＳ４００
   7
GMM001
  44
 0.79999984000003
   0
MTEXT
   5
18E
 100
AcDbEntity
   8
LEVEL001
 370
13
  62
1
 100
AcDbMText
  10
 5659.6983631572
  20
 2348.2486590836
  30
0.0
  40
 51.428571428572
  41
0.0
  71
6
  72
1
   1
\T1.000000;５
   7
GMM001
  44
 0.79999984000003
   0
MTEXT
   5
18F
 100
AcDbEntity
   8
LEVEL001
 370
13
  62
1
 100
AcDbMText
  10
 5727.6983631572
  20
 2348.2486590836
  30
0.0
  40
 51.428571428572
  41
0.0
  71
4
  72
1
   1
\T1.000000;裏板取付金具
   7
GMM001
  44
 0.79999984000003
   0
MTEXT
   5
190
 100
AcDbEntity
   8
LEVEL001
 370
13
  62
1
 100
AcDbMText
  10
 5659.6983631572
  20
 2468.2486590836
  30
0.0
  40
 51.428571428572
  41
0.0
  71
6
  72
1
   1
\T1.000000;４
   7
GMM001
  44
 0.79999984000003
   0
MTEXT
   5
191
 100
AcDbEntity
   8
LEVEL001
 370
13
  62
1
 100
AcDbMText
  10
 5727.6983631572
  20
 2468.2486590836
  30
0.0
  40
 51.428571428572
  41
0.0
  71
4
  72
1
   1
\T1.000000;リング
   7
GMM001
  44
 0.79999984000003
   0
MTEXT
   5
192
 100
AcDbEntity
   8
LEVEL001
 370
13
  62
1
 100
AcDbMText
  10
 5659.6983631572
  20
 2588.2486590836
  30
0.0
  40
 51.428571428572
  41
0.0
  71
6
  72
1
   1
\T1.000000;３
   7
GMM001
  44
 0.79999984000003
   0
MTEXT
   5
193
 100
AcDbEntity
   8
LEVEL001
 370
13
  62
1
 100
AcDbMText
  10
 5727.6983631572
  20
 2588.2486590836
  30
0.0
  40
 51.428571428572
  41
0.0
  71
4
  72
1
   1
\T1.000000;フード
   7
GMM001
  44
 0.79999984000003
   0
MTEXT
   5
194
 100
AcDbEntity
   8
LEVEL001
 370
13
  62
1
 100
AcDbMText
  10
 5659.6983631572
  20
 2708.2486590836
  30
0.0
  40
 51.428571428572
  41
0.0
  71
6
  72
1
   1
\T1.000000;２
   7
GMM001
  44
 0.79999984000003
   0
MTEXT
   5
195
 100
AcDbEntity
   8
LEVEL001
 370
13
  62
1
 100
AcDbMText
  10
 5659.6983631572
  20
 2828.2486590836
  30
0.0
  40
 51.428571428572
  41
0.0
  71
6
  72
1
   1
\T1.000000;１
   7
GMM001
  44
 0.79999984000003
   0
MTEXT
   5
196
 100
AcDbEntity
   8
LEVEL001
 370
13
  62
1
 100
AcDbMText
  10
 5727.6983631572
  20
 2708.2486590836
  30
0.0
  40
 51.428571428572
  41
0.0
  71
4
  72
1
   1
\T1.000000;バックプレート
   7
GMM001
  44
 0.79999984000003
   0
MTEXT
   5
197
 100
AcDbEntity
   8
LEVEL001
 370
13
  62
1
 100
AcDbMText
  10
 6807.6983631572
  20
 2348.2486590836
  30
0.0
  40
 51.428571428572
  41
0.0
  71
4
  72
1
   1
\T1.000000;ＳＳ４００
   7
GMM001
  44
 0.79999984000003
   0
MTEXT
   5
198
 100
AcDbEntity
   8
LEVEL001
 370
13
  62
1
 100
AcDbMText
  10
 6807.6983631572
  20
 2468.2486590836
  30
0.0
  40
 51.428571428572
  41
0.0
  71
4
  72
1
   1
\T1.000000;軟質ＰＶＣ
   7
GMM001
  44
 0.79999984000003
   0
MTEXT
   5
199
 100
AcDbEntity
   8
LEVEL001
 370
13
  62
1
 100
AcDbMText
  10
 6807.6983631572
  20
 2588.2486590836
  30
0.0
  40
 51.428571428572
  41
0.0
  71
4
  72
1
   1
\T1.000000;ＰＣ
   7
GMM001
  44
 0.79999984000003
   0
MTEXT
   5
19A
 100
AcDbEntity
   8
LEVEL001
 370
13
  62
1
 100
AcDbMText
  10
 6807.6983631572
  20
 2828.2486590836
  30
0.0
  40
 51.428571428572
  41
0.0
  71
4
  72
1
   1
\T1.000000;ＳＵＳ３０４
   7
GMM001
  44
 0.79999984000003
   0
MTEXT
   5
19B
 100
AcDbEntity
   8
LEVEL001
 370
13
  62
1
 100
AcDbMText
  10
 7367.6983631572
  20
 2228.2486590836
  30
0.0
  40
 51.428571428572
  41
0.0
  71
4
  72
1
   1
\T1.000000;溶融亜鉛メッキ
   7
GMM001
  44
 0.79999984000003
   0
MTEXT
   5
19C
 100
AcDbEntity
   8
LEVEL001
 370
13
  62
1
 100
AcDbMText
  10
 7367.6983631572
  20
 2348.2486590836
  30
0.0
  40
 51.428571428572
  41
0.0
  71
4
  72
1
   1
\T1.000000;溶融亜鉛メッキ
   7
GMM001
  44
 0.79999984000003
   0
MTEXT
   5
19D
 100
AcDbEntity
   8
LEVEL001
 370
13
  62
1
 100
AcDbMText
  10
 7367.6983631572
  20
 2588.2486590836
  30
0.0
  40
 51.428571428572
  41
0.0
  71
4
  72
1
   1
\T1.000000;ＵＶグレ－ド
   7
GMM001
  44
 0.79999984000003
   0
LINE
   5
19E
 100
AcDbEntity
   8
LEVEL001
 370
13
 100
AcDbLine
   6
CONTINUOUS
  62
6
  10
 5487.6983631572
  20
 2168.2486590836
  30
0.0
  11
 8127.6983631572
  21
 2168.2486590836
  31
0.0
   0
LINE
   5
19F
 100
AcDbEntity
   8
LEVEL001
 370
13
 100
AcDbLine
   6
CONTINUOUS
  62
6
  10
 5487.6983631572
  20
 2288.2486590836
  30
0.0
  11
 8127.6983631572
  21
 2288.2486590836
  31
0.0
   0
LINE
   5
1A0
 100
AcDbEntity
   8
LEVEL001
 370
13
 100
AcDbLine
   6
CONTINUOUS
  62
6
  10
 5487.6983631572
  20
 2648.2486590836
  30
0.0
  11
 8127.6983631572
  21
 2648.2486590836
  31
0.0
   0
LINE
   5
1A1
 100
AcDbEntity
   8
LEVEL001
 370
13
 100
AcDbLine
   6
CONTINUOUS
  62
6
  10
 5487.6983631572
  20
 2408.2486590836
  30
0.0
  11
 8127.6983631572
  21
 2408.2486590836
  31
0.0
   0
LINE
   5
1A2
 100
AcDbEntity
   8
LEVEL001
 370
13
 100
AcDbLine
   6
CONTINUOUS
  62
6
  10
 5487.6983631572
  20
 2768.2486590836
  30
0.0
  11
 8127.6983631572
  21
 2768.2486590836
  31
0.0
   0
MTEXT
   5
1A3
 100
AcDbEntity
   8
LEVEL001
 370
13
  62
1
 100
AcDbMText
  10
 6127.6983631572
  20
 2968.2486590836
  30
0.0
  40
 51.428571428572
  41
0.0
  71
5
  72
1
   1
\T1.000000;名　　称
   7
GMM001
  44
 0.79999984000003
   0
MTEXT
   5
1A4
 100
AcDbEntity
   8
LEVEL001
 370
13
  62
1
 100
AcDbMText
  10
 6667.6983631572
  20
 2968.2486590836
  30
0.0
  40
 51.428571428572
  41
0.0
  71
5
  72
1
   1
\T1.000000;個数
   7
GMM001
  44
 0.79999984000003
   0
MTEXT
   5
1A5
 100
AcDbEntity
   8
LEVEL001
 370
13
  62
1
 100
AcDbMText
  10
 7047.6983631572
  20
 2968.2486590836
  30
0.0
  40
 51.428571428572
  41
0.0
  71
5
  72
1
   1
\T1.000000;材　　質
   7
GMM001
  44
 0.79999984000003
   0
MTEXT
   5
1A6
 100
AcDbEntity
   8
LEVEL001
 370
13
  62
1
 100
AcDbMText
  10
 7727.6983631572
  20
 2968.2486590836
  30
0.0
  40
 51.428571428572
  41
0.0
  71
5
  72
1
   1
\T1.000000;規格仕様
   7
GMM001
  44
 0.79999984000003
   0
LINE
   5
1A7
 100
AcDbEntity
   8
LEVEL001
 370
13
 100
AcDbLine
   6
CONTINUOUS
  62
6
  10
 5687.6983631572
  20
 3048.2486590836
  30
0.0
  11
 5687.6983631572
  21
 968.24865908356
  31
0.0
   0
LINE
   5
1A8
 100
AcDbEntity
   8
LEVEL001
 370
13
 100
AcDbLine
   6
CONTINUOUS
  62
6
  10
 6567.6983631572
  20
 3048.2486590836
  30
0.0
  11
 6567.6983631572
  21
 968.24865908356
  31
0.0
   0
LINE
   5
1A9
 100
AcDbEntity
   8
LEVEL001
 370
13
 100
AcDbLine
   6
CONTINUOUS
  62
6
  10
 6767.6983631572
  20
 3048.2486590836
  30
0.0
  11
 6767.6983631572
  21
 968.24865908356
  31
0.0
   0
LINE
   5
1AA
 100
AcDbEntity
   8
LEVEL001
 370
13
 100
AcDbLine
   6
CONTINUOUS
  62
6
  10
 7327.6983631572
  20
 3048.2486590836
  30
0.0
  11
 7327.6983631572
  21
 968.24865908356
  31
0.0
   0
LINE
   5
1AB
 100
AcDbEntity
   8
LEVEL001
 370
13
 100
AcDbLine
   6
CONTINUOUS
  62
2
  10
 5487.6983631572
  20
 3368.2486590836
  30
0.0
  11
 8127.6983631572
  21
 3368.2486590836
  31
0.0
   0
LINE
   5
1AC
 100
AcDbEntity
   8
LEVEL001
 370
13
 100
AcDbLine
   6
CONTINUOUS
  62
2
  10
 5487.6983631572
  20
 3048.2486590836
  30
0.0
  11
 8127.6983631572
  21
 3048.2486590836
  31
0.0
   0
LINE
   5
1AD
 100
AcDbEntity
   8
LEVEL001
 370
13
 100
AcDbLine
   6
CONTINUOUS
  62
2
  10
 5487.6983631572
  20
 2888.2486590836
  30
0.0
  11
 8127.6983631572
  21
 2888.2486590836
  31
0.0
   0
CIRCLE
   5
1AE
 100
AcDbEntity
   8
LEVEL001
 370
13
 100
AcDbCircle
   6
DASHDOT
  62
6
  10
 4827.6983631572
  20
 4918.2486590836
  30
0.0
  40
 115.00000000000
   0
ARC
   5
1AF
 100
AcDbEntity
   8
LEVEL001
 370
13
   6
CONTINUOUS
  62
7
 100
AcDbCircle
  10
 5262.6983631572
  20
 4918.2486590836
  30
0.0
  40
 15.000000000000
 100
AcDbArc
  50
0.0
  51
 90.000000000000
   0
ARC
   5
1B0
 100
AcDbEntity
   8
LEVEL001
 370
13
   6
CONTINUOUS
  62
7
 100
AcDbCircle
  10
 5262.6983631572
  20
 4918.2486590836
  30
0.0
  40
 15.000000000000
 100
AcDbArc
  50
 270.00000000000
  51
0.0
   0
ARC
   5
1B1
 100
AcDbEntity
   8
LEVEL001
 370
13
   6
CONTINUOUS
  62
6
 100
AcDbCircle
  10
 5262.6983631572
  20
 4918.2486590836
  30
0.0
  40
 35.000000000000
 100
AcDbArc
  50
0.0
  51
 90.000000000000
   0
ARC
   5
1B2
 100
AcDbEntity
   8
LEVEL001
 370
13
   6
CONTINUOUS
  62
6
 100
AcDbCircle
  10
 5262.6983631572
  20
 4918.2486590836
  30
0.0
  40
 35.000000000000
 100
AcDbArc
  50
 270.00000000000
  51
0.0
   0
ARC
   5
1B3
 100
AcDbEntity
   8
LEVEL001
 370
13
   6
CONTINUOUS
  62
7
 100
AcDbCircle
  10
 5045.1983631572
  20
 5294.9697097298
  30
0.0
  40
 15.000000000000
 100
AcDbArc
  50
 60.000000000006
  51
 150.00000000000
   0
ARC
   5
1B4
 100
AcDbEntity
   8
LEVEL001
 370
13
   6
CONTINUOUS
  62
7
 100
AcDbCircle
  10
 5045.1983631572
  20
 5294.9697097298
  30
0.0
  40
 15.000000000000
 100
AcDbArc
  50
 330.00000000000
  51
 59.999999999992
   0
ARC
   5
1B5
 100
AcDbEntity
   8
LEVEL001
 370
13
   6
CONTINUOUS
  62
6
 100
AcDbCircle
  10
 5045.1983631572
  20
 5294.9697097298
  30
0.0
  40
 35.000000000000
 100
AcDbArc
  50
 60.000000000000
  51
 150.00000000000
   0
ARC
   5
1B6
 100
AcDbEntity
   8
LEVEL001
 370
13
   6
CONTINUOUS
  62
6
 100
AcDbCircle
  10
 5045.1983631572
  20
 5294.9697097298
  30
0.0
  40
 35.000000000000
 100
AcDbArc
  50
 330.00000000000
  51
 59.999999999997
   0
ARC
   5
1B7
 100
AcDbEntity
   8
LEVEL001
 370
13
   6
CONTINUOUS
  62
7
 100
AcDbCircle
  10
 4610.1983631574
  20
 5294.9697097298
  30
0.0
  40
 15.000000000000
 100
AcDbArc
  50
 119.99999999999
  51
 210.00000000000
   0
ARC
   5
1B8
 100
AcDbEntity
   8
LEVEL001
 370
13
   6
CONTINUOUS
  62
7
 100
AcDbCircle
  10
 4610.1983631574
  20
 5294.9697097298
  30
0.0
  40
 15.000000000000
 100
AcDbArc
  50
 30.000000000000
  51
 120.00000000000
   0
ARC
   5
1B9
 100
AcDbEntity
   8
LEVEL001
 370
13
   6
CONTINUOUS
  62
6
 100
AcDbCircle
  10
 4610.1983631574
  20
 5294.9697097298
  30
0.0
  40
 35.000000000000
 100
AcDbArc
  50
 120.00000000000
  51
 210.00000000000
   0
ARC
   5
1BA
 100
AcDbEntity
   8
LEVEL001
 370
13
   6
CONTINUOUS
  62
6
 100
AcDbCircle
  10
 4610.1983631574
  20
 5294.9697097298
  30
0.0
  40
 35.000000000000
 100
AcDbArc
  50
 29.999999999999
  51
 120.00000000000
   0
ARC
   5
1BB
 100
AcDbEntity
   8
LEVEL001
 370
13
   6
CONTINUOUS
  62
7
 100
AcDbCircle
  10
 4610.1983631572
  20
 4541.5276084376
  30
0.0
  40
 15.000000000000
 100
AcDbArc
  50
 239.99999999999
  51
 330.00000000000
   0
ARC
   5
1BC
 100
AcDbEntity
   8
LEVEL001
 370
13
   6
CONTINUOUS
  62
7
 100
AcDbCircle
  10
 4610.1983631572
  20
 4541.5276084376
  30
0.0
  40
 15.000000000000
 100
AcDbArc
  50
 150.00000000001
  51
 240.00000000000
   0
ARC
   5
1BD
 100
AcDbEntity
   8
LEVEL001
 370
13
   6
CONTINUOUS
  62
6
 100
AcDbCircle
  10
 4610.1983631572
  20
 4541.5276084376
  30
0.0
  40
 35.000000000000
 100
AcDbArc
  50
 240.00000000000
  51
 330.00000000000
   0
ARC
   5
1BE
 100
AcDbEntity
   8
LEVEL001
 370
13
   6
CONTINUOUS
  62
6
 100
AcDbCircle
  10
 4610.1983631572
  20
 4541.5276084376
  30
0.0
  40
 35.000000000000
 100
AcDbArc
  50
 150.00000000000
  51
 240.00000000000
   0
ARC
   5
1BF
 100
AcDbEntity
   8
LEVEL001
 370
13
   6
CONTINUOUS
  62
7
 100
AcDbCircle
  10
 5045.1983631572
  20
 4541.5276084376
  30
0.0
  40
 15.000000000000
 100
AcDbArc
  50
 299.99999999999
  51
 29.999999999997
   0
ARC
   5
1C0
 100
AcDbEntity
   8
LEVEL001
 370
13
   6
CONTINUOUS
  62
7
 100
AcDbCircle
  10
 5045.1983631572
  20
 4541.5276084376
  30
0.0
  40
 15.000000000000
 100
AcDbArc
  50
 210.00000000001
  51
 300.00000000000
   0
ARC
   5
1C1
 100
AcDbEntity
   8
LEVEL001
 370
13
   6
CONTINUOUS
  62
6
 100
AcDbCircle
  10
 5045.1983631572
  20
 4541.5276084376
  30
0.0
  40
 35.000000000000
 100
AcDbArc
  50
 300.00000000000
  51
 30.000000000001
   0
ARC
   5
1C2
 100
AcDbEntity
   8
LEVEL001
 370
13
   6
CONTINUOUS
  62
6
 100
AcDbCircle
  10
 5045.1983631572
  20
 4541.5276084376
  30
0.0
  40
 35.000000000000
 100
AcDbArc
  50
 210.00000000000
  51
 300.00000000000
   0
ARC
   5
1C3
 100
AcDbEntity
   8
LEVEL001
 370
13
   6
CONTINUOUS
  62
7
 100
AcDbCircle
  10
 5081.0107937644
  20
 5064.4986590838
  30
0.0
  40
 14.999999999942
 100
AcDbArc
  50
 30.000000000007
  51
 120.00000000000
   0
ARC
   5
1C4
 100
AcDbEntity
   8
LEVEL001
 370
13
   6
CONTINUOUS
  62
7
 100
AcDbCircle
  10
 5081.0107937644
  20
 5064.4986590836
  30
0.0
  40
 14.999999999942
 100
AcDbArc
  50
 300.00000000000
  51
 30.000000000010
   0
ARC
   5
1C5
 100
AcDbEntity
   8
LEVEL001
 370
13
   6
CONTINUOUS
  62
6
 100
AcDbCircle
  10
 5081.0107937644
  20
 5064.4986590838
  30
0.0
  40
 35.000000000000
 100
AcDbArc
  50
 29.999999999999
  51
 120.00000000000
   0
ARC
   5
1C6
 100
AcDbEntity
   8
LEVEL001
 370
13
   6
CONTINUOUS
  62
6
 100
AcDbCircle
  10
 5081.0107937644
  20
 5064.4986590836
  30
0.0
  40
 35.000000000000
 100
AcDbArc
  50
 300.00000000000
  51
 30.000000000003
   0
ARC
   5
1C7
 100
AcDbEntity
   8
LEVEL001
 370
13
   6
CONTINUOUS
  62
7
 100
AcDbCircle
  10
 4827.6983631574
  20
 5210.7486590838
  30
0.0
  40
 14.999999999942
 100
AcDbArc
  50
 89.999999999993
  51
 180.00000000000
   0
ARC
   5
1C8
 100
AcDbEntity
   8
LEVEL001
 370
13
   6
CONTINUOUS
  62
7
 100
AcDbCircle
  10
 4827.6983631574
  20
 5210.7486590838
  30
0.0
  40
 14.999999999942
 100
AcDbArc
  50
 0.34740138600867E-11
  51
 90.000000000000
   0
ARC
   5
1C9
 100
AcDbEntity
   8
LEVEL001
 370
13
   6
CONTINUOUS
  62
6
 100
AcDbCircle
  10
 4827.6983631574
  20
 5210.7486590838
  30
0.0
  40
 35.000000000000
 100
AcDbArc
  50
 90.000000000000
  51
 180.00000000000
   0
ARC
   5
1CA
 100
AcDbEntity
   8
LEVEL001
 370
13
   6
CONTINUOUS
  62
6
 100
AcDbCircle
  10
 4827.6983631574
  20
 5210.7486590838
  30
0.0
  40
 35.000000000000
 100
AcDbArc
  50
0.0
  51
 90.000000000000
   0
ARC
   5
1CB
 100
AcDbEntity
   8
LEVEL001
 370
13
   6
CONTINUOUS
  62
7
 100
AcDbCircle
  10
 4574.3859325504
  20
 5064.4986590838
  30
0.0
  40
 14.999999999942
 100
AcDbArc
  50
 150.00000000000
  51
 240.00000000001
   0
ARC
   5
1CC
 100
AcDbEntity
   8
LEVEL001
 370
13
   6
CONTINUOUS
  62
7
 100
AcDbCircle
  10
 4574.3859325504
  20
 5064.4986590840
  30
0.0
  40
 14.999999999942
 100
AcDbArc
  50
 59.999999999999
  51
 150.00000000001
   0
ARC
   5
1CD
 100
AcDbEntity
   8
LEVEL001
 370
13
   6
CONTINUOUS
  62
6
 100
AcDbCircle
  10
 4574.3859325504
  20
 5064.4986590838
  30
0.0
  40
 35.000000000000
 100
AcDbArc
  50
 150.00000000000
  51
 240.00000000000
   0
ARC
   5
1CE
 100
AcDbEntity
   8
LEVEL001
 370
13
   6
CONTINUOUS
  62
6
 100
AcDbCircle
  10
 4574.3859325504
  20
 5064.4986590840
  30
0.0
  40
 35.000000000000
 100
AcDbArc
  50
 59.999999999989
  51
 150.00000000000
   0
ARC
   5
1CF
 100
AcDbEntity
   8
LEVEL001
 370
13
   6
CONTINUOUS
  62
7
 100
AcDbCircle
  10
 4574.3859325502
  20
 4771.9986590838
  30
0.0
  40
 14.999999999942
 100
AcDbArc
  50
 210.00000000001
  51
 300.00000000000
   0
ARC
   5
1D0
 100
AcDbEntity
   8
LEVEL001
 370
13
   6
CONTINUOUS
  62
7
 100
AcDbCircle
  10
 4574.3859325502
  20
 4771.9986590838
  30
0.0
  40
 14.999999999942
 100
AcDbArc
  50
 120.00000000000
  51
 210.00000000001
   0
ARC
   5
1D1
 100
AcDbEntity
   8
LEVEL001
 370
13
   6
CONTINUOUS
  62
6
 100
AcDbCircle
  10
 4574.3859325502
  20
 4771.9986590838
  30
0.0
  40
 35.000000000000
 100
AcDbArc
  50
 210.00000000000
  51
 300.00000000000
   0
ARC
   5
1D2
 100
AcDbEntity
   8
LEVEL001
 370
13
   6
CONTINUOUS
  62
6
 100
AcDbCircle
  10
 4574.3859325502
  20
 4771.9986590838
  30
0.0
  40
 35.000000000000
 100
AcDbArc
  50
 120.00000000000
  51
 210.00000000000
   0
ARC
   5
1D3
 100
AcDbEntity
   8
LEVEL001
 370
13
   6
CONTINUOUS
  62
7
 100
AcDbCircle
  10
 4827.6983631572
  20
 4625.7486590838
  30
0.0
  40
 14.999999999942
 100
AcDbArc
  50
 270.00000000000
  51
 359.99999999999
   0
ARC
   5
1D4
 100
AcDbEntity
   8
LEVEL001
 370
13
   6
CONTINUOUS
  62
7
 100
AcDbCircle
  10
 4827.6983631572
  20
 4625.7486590838
  30
0.0
  40
 14.999999999942
 100
AcDbArc
  50
 180.00000000001
  51
 270.00000000000
   0
ARC
   5
1D5
 100
AcDbEntity
   8
LEVEL001
 370
13
   6
CONTINUOUS
  62
6
 100
AcDbCircle
  10
 4827.6983631572
  20
 4625.7486590838
  30
0.0
  40
 35.000000000000
 100
AcDbArc
  50
 270.00000000000
  51
0.0
   0
ARC
   5
1D6
 100
AcDbEntity
   8
LEVEL001
 370
13
   6
CONTINUOUS
  62
6
 100
AcDbCircle
  10
 4827.6983631572
  20
 4625.7486590838
  30
0.0
  40
 35.000000000000
 100
AcDbArc
  50
 180.00000000000
  51
 270.00000000001
   0
ARC
   5
1D7
 100
AcDbEntity
   8
LEVEL001
 370
13
   6
CONTINUOUS
  62
7
 100
AcDbCircle
  10
 5081.0107937642
  20
 4771.9986590836
  30
0.0
  40
 14.999999999942
 100
AcDbArc
  50
 330.00000000001
  51
 59.999999999990
   0
ARC
   5
1D8
 100
AcDbEntity
   8
LEVEL001
 370
13
   6
CONTINUOUS
  62
7
 100
AcDbCircle
  10
 5081.0107937642
  20
 4771.9986590836
  30
0.0
  40
 14.999999999942
 100
AcDbArc
  50
 240.00000000001
  51
 330.00000000000
   0
ARC
   5
1D9
 100
AcDbEntity
   8
LEVEL001
 370
13
   6
CONTINUOUS
  62
6
 100
AcDbCircle
  10
 5081.0107937642
  20
 4771.9986590836
  30
0.0
  40
 35.000000000000
 100
AcDbArc
  50
 330.00000000000
  51
 60.000000000003
   0
ARC
   5
1DA
 100
AcDbEntity
   8
LEVEL001
 370
13
   6
CONTINUOUS
  62
6
 100
AcDbCircle
  10
 5081.0107937642
  20
 4771.9986590836
  30
0.0
  40
 35.000000000000
 100
AcDbArc
  50
 240.00000000000
  51
 329.99999999999
   0
CIRCLE
   5
1DB
 100
AcDbEntity
   8
LEVEL001
 370
13
 100
AcDbCircle
   6
CONTINUOUS
  62
7
  10
 4827.6983631572
  20
 4918.2486590836
  30
0.0
  40
 532.50000000000
   0
CIRCLE
   5
1DC
 100
AcDbEntity
   8
LEVEL001
 370
13
 100
AcDbCircle
   6
CONTINUOUS
  62
7
  10
 4827.6983631572
  20
 4918.2486590836
  30
0.0
  40
 512.50000000000
   0
CIRCLE
   5
1DD
 100
AcDbEntity
   8
LEVEL001
 370
13
 100
AcDbCircle
   6
CONTINUOUS
  62
7
  10
 4827.6983631572
  20
 4918.2486590836
  30
0.0
  40
 505.00000000000
   0
CIRCLE
   5
1DE
 100
AcDbEntity
   8
LEVEL001
 370
13
 100
AcDbCircle
   6
CONTINUOUS
  62
7
  10
 4827.6983631572
  20
 4918.2486590836
  30
0.0
  40
 510.00000000000
   0
LINE
   5
1DF
 100
AcDbEntity
   8
LEVEL001
 370
13
 100
AcDbLine
   6
DASHDOT
  62
6
  10
 4940.2816656492
  20
 4983.2486590836
  30
0.0
  11
 4914.3009035356
  21
 4968.2486590836
  31
0.0
   0
LINE
   5
1E0
 100
AcDbEntity
   8
LEVEL001
 370
13
 100
AcDbLine
   6
DASHDOT
  62
6
  10
 4715.1150606652
  20
 4983.2486590836
  30
0.0
  11
 4741.0958227786
  21
 4968.2486590836
  31
0.0
   0
LINE
   5
1E1
 100
AcDbEntity
   8
LEVEL001
 370
13
 100
AcDbLine
   6
DASHDOT
  62
6
  10
 4715.1150606652
  20
 4853.2486590836
  30
0.0
  11
 4741.0958227786
  21
 4868.2486590836
  31
0.0
   0
LINE
   5
1E2
 100
AcDbEntity
   8
LEVEL001
 370
13
 100
AcDbLine
   6
DASHDOT
  62
6
  10
 4940.2816656492
  20
 4853.2486590836
  30
0.0
  11
 4914.3009035356
  21
 4868.2486590836
  31
0.0
   0
LINE
   5
1E3
 100
AcDbEntity
   8
LEVEL001
 370
13
 100
AcDbLine
   6
CONTINUOUS
  62
6
  10
 4862.6983631574
  20
 5210.7486590838
  30
0.0
  11
 4862.6983631574
  21
 5104.8511994634
  31
0.0
   0
ARC
   5
1E4
 100
AcDbEntity
   8
LEVEL001
 370
13
   6
CONTINUOUS
  62
6
 100
AcDbCircle
  10
 4877.6983631578
  20
 5104.8511994634
  30
0.0
  40
 15.000000000275
 100
AcDbArc
  50
 180.00000000000
  51
 330.00000000000
   0
LINE
   5
1E5
 100
AcDbEntity
   8
LEVEL001
 370
13
 100
AcDbLine
   6
CONTINUOUS
  62
6
  10
 4890.6887442148
  20
 5097.3511994632
  30
0.0
  11
 5014.8874740248
  21
 5312.4697097298
  31
0.0
   0
LINE
   5
1E6
 100
AcDbEntity
   8
LEVEL001
 370
13
 100
AcDbLine
   6
CONTINUOUS
  62
7
  10
 4842.6983631574
  20
 5210.7486590838
  30
0.0
  11
 4842.6983631574
  21
 5104.8511994634
  31
0.0
   0
ARC
   5
1E7
 100
AcDbEntity
   8
LEVEL001
 370
13
   6
CONTINUOUS
  62
7
 100
AcDbCircle
  10
 4877.6983631578
  20
 5104.8511994634
  30
0.0
  40
 35.000000000332
 100
AcDbArc
  50
 180.00000000000
  51
 330.00000000001
   0
LINE
   5
1E8
 100
AcDbEntity
   8
LEVEL001
 370
13
 100
AcDbLine
   6
CONTINUOUS
  62
7
  10
 4908.0092522904
  20
 5087.3511994634
  30
0.0
  11
 5032.2079821004
  21
 5302.4697097298
  31
0.0
   0
LINE
   5
1E9
 100
AcDbEntity
   8
LEVEL001
 370
13
 100
AcDbLine
   6
CONTINUOUS
  62
6
  10
 4792.6983631574
  20
 5104.8511994632
  30
0.0
  11
 4792.6983631574
  21
 5210.7486590838
  31
0.0
   0
ARC
   5
1EA
 100
AcDbEntity
   8
LEVEL001
 370
13
   6
CONTINUOUS
  62
6
 100
AcDbCircle
  10
 4777.6983631570
  20
 5104.8511994632
  30
0.0
  40
 15.000000000275
 100
AcDbArc
  50
 210.00000000000
  51
 0.17370069300048E-10
   0
LINE
   5
1EB
 100
AcDbEntity
   8
LEVEL001
 370
13
 100
AcDbLine
   6
CONTINUOUS
  62
6
  10
 4640.5092522898
  20
 5312.4697097298
  30
0.0
  11
 4764.7079821000
  21
 5097.3511994630
  31
0.0
   0
LINE
   5
1EC
 100
AcDbEntity
   8
LEVEL001
 370
13
 100
AcDbLine
   6
CONTINUOUS
  62
6
  10
 4704.0862038350
  20
 5062.3511994634
  30
0.0
  11
 4579.8874740250
  21
 5277.4697097298
  31
0.0
   0
ARC
   5
1ED
 100
AcDbEntity
   8
LEVEL001
 370
13
   6
CONTINUOUS
  62
6
 100
AcDbCircle
  10
 4691.0958227780
  20
 5054.8511994632
  30
0.0
  40
 15.000000000275
 100
AcDbArc
  50
 240.00000000002
  51
 29.999999999996
   0
LINE
   5
1EE
 100
AcDbEntity
   8
LEVEL001
 370
13
 100
AcDbLine
   6
CONTINUOUS
  62
6
  10
 4591.8859325504
  20
 5094.8095482164
  30
0.0
  11
 4683.5958227778
  21
 5041.8608184062
  31
0.0
   0
LINE
   5
1EF
 100
AcDbEntity
   8
LEVEL001
 370
13
 100
AcDbLine
   6
CONTINUOUS
  62
6
  10
 4648.5958227780
  20
 4981.2390401410
  30
0.0
  11
 4556.8859325504
  21
 5034.1877699514
  31
0.0
   0
ARC
   5
1F0
 100
AcDbEntity
   8
LEVEL001
 370
13
   6
CONTINUOUS
  62
6
 100
AcDbCircle
  10
 4641.0958227780
  20
 4968.2486590840
  30
0.0
  40
 15.000000000275
 100
AcDbArc
  50
 270.00000000000
  51
 60.000000000004
   0
LINE
   5
1F1
 100
AcDbEntity
   8
LEVEL001
 370
13
 100
AcDbLine
   6
CONTINUOUS
  62
6
  10
 4392.6983631574
  20
 4953.2486590838
  30
0.0
  11
 4641.0958227780
  21
 4953.2486590838
  31
0.0
   0
LINE
   5
1F2
 100
AcDbEntity
   8
LEVEL001
 370
13
 100
AcDbLine
   6
CONTINUOUS
  62
6
  10
 4641.0958227774
  20
 4883.2486590838
  30
0.0
  11
 4392.6983631574
  21
 4883.2486590838
  31
0.0
   0
ARC
   5
1F3
 100
AcDbEntity
   8
LEVEL001
 370
13
   6
CONTINUOUS
  62
6
 100
AcDbCircle
  10
 4641.0958227774
  20
 4868.2486590834
  30
0.0
  40
 15.000000000275
 100
AcDbArc
  50
 300.00000000000
  51
 90.000000000000
   0
LINE
   5
1F4
 100
AcDbEntity
   8
LEVEL001
 370
13
 100
AcDbLine
   6
CONTINUOUS
  62
6
  10
 4556.8859325502
  20
 4802.3095482164
  30
0.0
  11
 4648.5958227776
  21
 4855.2582780264
  31
0.0
   0
LINE
   5
1F5
 100
AcDbEntity
   8
LEVEL001
 370
13
 100
AcDbLine
   6
CONTINUOUS
  62
6
  10
 4683.5958227778
  20
 4794.6364997616
  30
0.0
  11
 4591.8859325502
  21
 4741.6877699514
  31
0.0
   0
ARC
   5
1F6
 100
AcDbEntity
   8
LEVEL001
 370
13
   6
CONTINUOUS
  62
6
 100
AcDbCircle
  10
 4691.0958227780
  20
 4781.6461187046
  30
0.0
  40
 15.000000000275
 100
AcDbArc
  50
 329.99999999998
  51
 120.00000000002
   0
LINE
   5
1F7
 100
AcDbEntity
   8
LEVEL001
 370
13
 100
AcDbLine
   6
CONTINUOUS
  62
6
  10
 4579.8874740248
  20
 4559.0276084376
  30
0.0
  11
 4704.0862038350
  21
 4774.1461187044
  31
0.0
   0
LINE
   5
1F8
 100
AcDbEntity
   8
LEVEL001
 370
13
 100
AcDbLine
   6
CONTINUOUS
  62
6
  10
 4764.7079820998
  20
 4739.1461187044
  30
0.0
  11
 4640.5092522896
  21
 4524.0276084376
  31
0.0
   0
ARC
   5
1F9
 100
AcDbEntity
   8
LEVEL001
 370
13
   6
CONTINUOUS
  62
6
 100
AcDbCircle
  10
 4777.6983631568
  20
 4731.6461187042
  30
0.0
  40
 15.000000000275
 100
AcDbArc
  50
 0.24318097020067E-10
  51
 149.99999999998
   0
LINE
   5
1FA
 100
AcDbEntity
   8
LEVEL001
 370
13
 100
AcDbLine
   6
CONTINUOUS
  62
6
  10
 4792.6983631572
  20
 4625.7486590838
  30
0.0
  11
 4792.6983631572
  21
 4731.6461187042
  31
0.0
   0
LINE
   5
1FB
 100
AcDbEntity
   8
LEVEL001
 370
13
 100
AcDbLine
   6
CONTINUOUS
  62
6
  10
 4862.6983631572
  20
 4731.6461187040
  30
0.0
  11
 4862.6983631572
  21
 4625.7486590838
  31
0.0
   0
ARC
   5
1FC
 100
AcDbEntity
   8
LEVEL001
 370
13
   6
CONTINUOUS
  62
6
 100
AcDbCircle
  10
 4877.6983631576
  20
 4731.6461187040
  30
0.0
  40
 15.000000000275
 100
AcDbArc
  50
 29.999999999996
  51
 180.00000000000
   0
LINE
   5
1FD
 100
AcDbEntity
   8
LEVEL001
 370
13
 100
AcDbLine
   6
CONTINUOUS
  62
6
  10
 5014.8874740246
  20
 4524.0276084376
  30
0.0
  11
 4890.6887442146
  21
 4739.1461187042
  31
0.0
   0
LINE
   5
1FE
 100
AcDbEntity
   8
LEVEL001
 370
13
 100
AcDbLine
   6
CONTINUOUS
  62
6
  10
 4951.3105224794
  20
 4774.1461187044
  30
0.0
  11
 5075.5092522896
  21
 4559.0276084376
  31
0.0
   0
ARC
   5
1FF
 100
AcDbEntity
   8
LEVEL001
 370
13
   6
CONTINUOUS
  62
6
 100
AcDbCircle
  10
 4964.3009035364
  20
 4781.6461187044
  30
0.0
  40
 15.000000000275
 100
AcDbArc
  50
 60.000000000004
  51
 209.99999999998
   0
LINE
   5
200
 100
AcDbEntity
   8
LEVEL001
 370
13
 100
AcDbLine
   6
CONTINUOUS
  62
6
  10
 5063.5107937642
  20
 4741.6877699512
  30
0.0
  11
 4971.8009035366
  21
 4794.6364997614
  31
0.0
   0
LINE
   5
201
 100
AcDbEntity
   8
LEVEL001
 370
13
 100
AcDbLine
   6
CONTINUOUS
  62
6
  10
 5006.8009035368
  20
 4855.2582780264
  30
0.0
  11
 5098.5107937642
  21
 4802.3095482162
  31
0.0
   0
ARC
   5
202
 100
AcDbEntity
   8
LEVEL001
 370
13
   6
CONTINUOUS
  62
6
 100
AcDbCircle
  10
 5014.3009035370
  20
 4868.2486590834
  30
0.0
  40
 15.000000000275
 100
AcDbArc
  50
 89.999999999993
  51
 240.00000000000
   0
LINE
   5
203
 100
AcDbEntity
   8
LEVEL001
 370
13
 100
AcDbLine
   6
CONTINUOUS
  62
6
  10
 5262.6983631572
  20
 4883.2486590836
  30
0.0
  11
 5014.3009035370
  21
 4883.2486590836
  31
0.0
   0
LINE
   5
204
 100
AcDbEntity
   8
LEVEL001
 370
13
 100
AcDbLine
   6
CONTINUOUS
  62
6
  10
 5014.3009035368
  20
 4953.2486590836
  30
0.0
  11
 5262.6983631572
  21
 4953.2486590836
  31
0.0
   0
ARC
   5
205
 100
AcDbEntity
   8
LEVEL001
 370
13
   6
CONTINUOUS
  62
6
 100
AcDbCircle
  10
 5014.3009035368
  20
 4968.2486590838
  30
0.0
  40
 15.000000000275
 100
AcDbArc
  50
 120.00000000003
  51
 269.99999999999
   0
LINE
   5
206
 100
AcDbEntity
   8
LEVEL001
 370
13
 100
AcDbLine
   6
CONTINUOUS
  62
6
  10
 5098.5107937644
  20
 5034.1877699512
  30
0.0
  11
 5006.8009035366
  21
 4981.2390401408
  31
0.0
   0
LINE
   5
207
 100
AcDbEntity
   8
LEVEL001
 370
13
 100
AcDbLine
   6
CONTINUOUS
  62
6
  10
 4971.8009035368
  20
 5041.8608184060
  30
0.0
  11
 5063.5107937644
  21
 5094.8095482162
  31
0.0
   0
ARC
   5
208
 100
AcDbEntity
   8
LEVEL001
 370
13
   6
CONTINUOUS
  62
6
 100
AcDbCircle
  10
 4964.3009035366
  20
 5054.8511994630
  30
0.0
  40
 15.000000000275
 100
AcDbArc
  50
 149.99999999998
  51
 300.00000000002
   0
LINE
   5
209
 100
AcDbEntity
   8
LEVEL001
 370
13
 100
AcDbLine
   6
CONTINUOUS
  62
6
  10
 5075.5092522898
  20
 5277.4697097298
  30
0.0
  11
 4951.3105224796
  21
 5062.3511994630
  31
0.0
   0
LINE
   5
20A
 100
AcDbEntity
   8
LEVEL001
 370
13
 100
AcDbLine
   6
CONTINUOUS
  62
7
  10
 5058.1887442140
  20
 5287.4697097298
  30
0.0
  11
 4933.9900144030
  21
 5072.3511994614
  31
0.0
   0
ARC
   5
20B
 100
AcDbEntity
   8
LEVEL001
 370
13
   6
CONTINUOUS
  62
7
 100
AcDbCircle
  10
 4964.3009035352
  20
 5054.8511994616
  30
0.0
  40
 34.999999999784
 100
AcDbArc
  50
 150.00000000000
  51
 300.00000000000
   0
LINE
   5
20C
 100
AcDbEntity
   8
LEVEL001
 370
13
 100
AcDbLine
   6
CONTINUOUS
  62
7
  10
 4981.8009035350
  20
 5024.5403103292
  30
0.0
  11
 5073.5107937644
  21
 5077.4890401404
  31
0.0
   0
LINE
   5
20D
 100
AcDbEntity
   8
LEVEL001
 370
13
 100
AcDbLine
   6
CONTINUOUS
  62
7
  10
 5088.5107937644
  20
 5051.5082780270
  30
0.0
  11
 4996.8009035350
  21
 4998.5595482156
  31
0.0
   0
ARC
   5
20E
 100
AcDbEntity
   8
LEVEL001
 370
13
   6
CONTINUOUS
  62
7
 100
AcDbCircle
  10
 5014.3009035348
  20
 4968.2486590834
  30
0.0
  40
 34.999999999784
 100
AcDbArc
  50
 120.00000000000
  51
 270.00000000000
   0
LINE
   5
20F
 100
AcDbEntity
   8
LEVEL001
 370
13
 100
AcDbLine
   6
CONTINUOUS
  62
7
  10
 5014.3009035348
  20
 4933.2486590836
  30
0.0
  11
 5262.6983631572
  21
 4933.2486590836
  31
0.0
   0
LINE
   5
210
 100
AcDbEntity
   8
LEVEL001
 370
13
 100
AcDbLine
   6
CONTINUOUS
  62
7
  10
 5262.6983631572
  20
 4903.2486590836
  30
0.0
  11
 5014.3009035350
  21
 4903.2486590836
  31
0.0
   0
ARC
   5
211
 100
AcDbEntity
   8
LEVEL001
 370
13
   6
CONTINUOUS
  62
7
 100
AcDbCircle
  10
 5014.3009035350
  20
 4868.2486590838
  30
0.0
  40
 34.999999999784
 100
AcDbArc
  50
 90.000000000000
  51
 240.00000000000
   0
LINE
   5
212
 100
AcDbEntity
   8
LEVEL001
 370
13
 100
AcDbLine
   6
CONTINUOUS
  62
7
  10
 4996.8009035352
  20
 4837.9377699516
  30
0.0
  11
 5088.5107937642
  21
 4784.9890401404
  31
0.0
   0
LINE
   5
213
 100
AcDbEntity
   8
LEVEL001
 370
13
 100
AcDbLine
   6
CONTINUOUS
  62
7
  10
 5073.5107937642
  20
 4759.0082780268
  30
0.0
  11
 4981.8009035348
  21
 4811.9570078382
  31
0.0
   0
ARC
   5
214
 100
AcDbEntity
   8
LEVEL001
 370
13
   6
CONTINUOUS
  62
7
 100
AcDbCircle
  10
 4964.3009035350
  20
 4781.6461187058
  30
0.0
  40
 34.999999999784
 100
AcDbArc
  50
 60.000000000006
  51
 209.99999999999
   0
LINE
   5
215
 100
AcDbEntity
   8
LEVEL001
 370
13
 100
AcDbLine
   6
CONTINUOUS
  62
7
  10
 4933.9900144026
  20
 4764.1461187060
  30
0.0
  11
 5058.1887442138
  21
 4549.0276084376
  31
0.0
   0
LINE
   5
216
 100
AcDbEntity
   8
LEVEL001
 370
13
 100
AcDbLine
   6
CONTINUOUS
  62
7
  10
 5032.2079821004
  20
 4534.0276084376
  30
0.0
  11
 4908.0092522892
  21
 4749.1461187058
  31
0.0
   0
ARC
   5
217
 100
AcDbEntity
   8
LEVEL001
 370
13
   6
CONTINUOUS
  62
7
 100
AcDbCircle
  10
 4877.6983631570
  20
 4731.6461187060
  30
0.0
  40
 34.999999999784
 100
AcDbArc
  50
 30.000000000000
  51
 180.00000000001
   0
LINE
   5
218
 100
AcDbEntity
   8
LEVEL001
 370
13
 100
AcDbLine
   6
CONTINUOUS
  62
7
  10
 4842.6983631572
  20
 4731.6461187060
  30
0.0
  11
 4842.6983631572
  21
 4625.7486590838
  31
0.0
   0
LINE
   5
219
 100
AcDbEntity
   8
LEVEL001
 370
13
 100
AcDbLine
   6
CONTINUOUS
  62
7
  10
 4812.6983631572
  20
 4625.7486590838
  30
0.0
  11
 4812.6983631572
  21
 4731.6461187062
  31
0.0
   0
ARC
   5
21A
 100
AcDbEntity
   8
LEVEL001
 370
13
   6
CONTINUOUS
  62
7
 100
AcDbCircle
  10
 4777.6983631574
  20
 4731.6461187062
  30
0.0
  40
 34.999999999784
 100
AcDbArc
  50
 0.14888630828977E-11
  51
 150.00000000000
   0
LINE
   5
21B
 100
AcDbEntity
   8
LEVEL001
 370
13
 100
AcDbLine
   6
CONTINUOUS
  62
7
  10
 4747.3874740252
  20
 4749.1461187060
  30
0.0
  11
 4623.1887442140
  21
 4534.0276084376
  31
0.0
   0
LINE
   5
21C
 100
AcDbEntity
   8
LEVEL001
 370
13
 100
AcDbLine
   6
CONTINUOUS
  62
7
  10
 4597.2079821004
  20
 4549.0276084376
  30
0.0
  11
 4721.4067119116
  21
 4764.1461187062
  31
0.0
   0
ARC
   5
21D
 100
AcDbEntity
   8
LEVEL001
 370
13
   6
CONTINUOUS
  62
7
 100
AcDbCircle
  10
 4691.0958227794
  20
 4781.6461187060
  30
0.0
  40
 34.999999999784
 100
AcDbArc
  50
 330.00000000000
  51
 119.99999999999
   0
LINE
   5
21E
 100
AcDbEntity
   8
LEVEL001
 370
13
 100
AcDbLine
   6
CONTINUOUS
  62
7
  10
 4673.5958227796
  20
 4811.9570078384
  30
0.0
  11
 4581.8859325502
  21
 4759.0082780270
  31
0.0
   0
LINE
   5
21F
 100
AcDbEntity
   8
LEVEL001
 370
13
 100
AcDbLine
   6
CONTINUOUS
  62
7
  10
 4566.8859325502
  20
 4784.9890401406
  30
0.0
  11
 4658.5958227794
  21
 4837.9377699518
  31
0.0
   0
ARC
   5
220
 100
AcDbEntity
   8
LEVEL001
 370
13
   6
CONTINUOUS
  62
7
 100
AcDbCircle
  10
 4641.0958227794
  20
 4868.2486590840
  30
0.0
  40
 34.999999999784
 100
AcDbArc
  50
 300.00000000000
  51
 90.000000000006
   0
LINE
   5
221
 100
AcDbEntity
   8
LEVEL001
 370
13
 100
AcDbLine
   6
CONTINUOUS
  62
7
  10
 4641.0958227794
  20
 4903.2486590838
  30
0.0
  11
 4392.6983631574
  21
 4903.2486590838
  31
0.0
   0
LINE
   5
222
 100
AcDbEntity
   8
LEVEL001
 370
13
 100
AcDbLine
   6
CONTINUOUS
  62
7
  10
 4392.6983631574
  20
 4933.2486590838
  30
0.0
  11
 4641.0958227800
  21
 4933.2486590838
  31
0.0
   0
ARC
   5
223
 100
AcDbEntity
   8
LEVEL001
 370
13
   6
CONTINUOUS
  62
7
 100
AcDbCircle
  10
 4641.0958227800
  20
 4968.2486590836
  30
0.0
  40
 34.999999999784
 100
AcDbArc
  50
 270.00000000000
  51
 59.999999999999
   0
LINE
   5
224
 100
AcDbEntity
   8
LEVEL001
 370
13
 100
AcDbLine
   6
CONTINUOUS
  62
7
  10
 4658.5958227798
  20
 4998.5595482158
  30
0.0
  11
 4566.8859325504
  21
 5051.5082780272
  31
0.0
   0
LINE
   5
225
 100
AcDbEntity
   8
LEVEL001
 370
13
 100
AcDbLine
   6
CONTINUOUS
  62
7
  10
 4581.8859325504
  20
 5077.4890401406
  30
0.0
  11
 4673.5958227794
  21
 5024.5403103296
  31
0.0
   0
ARC
   5
226
 100
AcDbEntity
   8
LEVEL001
 370
13
   6
CONTINUOUS
  62
7
 100
AcDbCircle
  10
 4691.0958227794
  20
 5054.8511994618
  30
0.0
  40
 34.999999999784
 100
AcDbArc
  50
 240.00000000000
  51
 30.000000000002
   0
LINE
   5
227
 100
AcDbEntity
   8
LEVEL001
 370
13
 100
AcDbLine
   6
CONTINUOUS
  62
7
  10
 4721.4067119116
  20
 5072.3511994618
  30
0.0
  11
 4597.2079821006
  21
 5287.4697097298
  31
0.0
   0
LINE
   5
228
 100
AcDbEntity
   8
LEVEL001
 370
13
 100
AcDbLine
   6
CONTINUOUS
  62
7
  10
 4623.1887442142
  20
 5302.4697097298
  30
0.0
  11
 4747.3874740254
  21
 5087.3511994614
  31
0.0
   0
ARC
   5
229
 100
AcDbEntity
   8
LEVEL001
 370
13
   6
CONTINUOUS
  62
7
 100
AcDbCircle
  10
 4777.6983631576
  20
 5104.8511994612
  30
0.0
  40
 34.999999999784
 100
AcDbArc
  50
 210.00000000000
  51
0.0
   0
LINE
   5
22A
 100
AcDbEntity
   8
LEVEL001
 370
13
 100
AcDbLine
   6
CONTINUOUS
  62
7
  10
 4812.6983631574
  20
 5104.8511994612
  30
0.0
  11
 4812.6983631574
  21
 5210.7486590838
  31
0.0
   0
ARC
   5
22B
 100
AcDbEntity
   8
LEVEL001
 370
13
   6
CONTINUOUS
  62
7
 100
AcDbCircle
  10
 4392.6983631574
  20
 4918.2486590838
  30
0.0
  40
 15.000000000000
 100
AcDbArc
  50
 180.00000000000
  51
 270.00000000000
   0
ARC
   5
22C
 100
AcDbEntity
   8
LEVEL001
 370
13
   6
CONTINUOUS
  62
7
 100
AcDbCircle
  10
 4392.6983631574
  20
 4918.2486590838
  30
0.0
  40
 15.000000000000
 100
AcDbArc
  50
 90.000000000000
  51
 180.00000000000
   0
ARC
   5
22D
 100
AcDbEntity
   8
LEVEL001
 370
13
   6
CONTINUOUS
  62
6
 100
AcDbCircle
  10
 4392.6983631574
  20
 4918.2486590838
  30
0.0
  40
 35.000000000000
 100
AcDbArc
  50
 180.00000000000
  51
 270.00000000000
   0
ARC
   5
22E
 100
AcDbEntity
   8
LEVEL001
 370
13
   6
CONTINUOUS
  62
6
 100
AcDbCircle
  10
 4392.6983631574
  20
 4918.2486590838
  30
0.0
  40
 35.000000000000
 100
AcDbArc
  50
 90.000000000000
  51
 180.00000000000
   0
LINE
   5
22F
 100
AcDbEntity
   8
LEVEL001
 370
13
 100
AcDbLine
   6
DASHDOT
  62
6
  10
 5402.6983631572
  20
 4918.2486590836
  30
0.0
  11
 4252.6983631572
  21
 4918.2486590836
  31
0.0
   0
LINE
   5
230
 100
AcDbEntity
   8
LEVEL001
 370
13
 100
AcDbLine
   6
DASHDOT
  62
6
  10
 4827.6983631572
  20
 5493.2486590836
  30
0.0
  11
 4827.6983631572
  21
 4343.2486590836
  31
0.0
   0
CIRCLE
   5
231
 100
AcDbEntity
   8
LEVEL001
 370
13
 100
AcDbCircle
   6
CONTINUOUS
  62
3
  10
 4827.6983631572
  20
 5033.2486590836
  30
0.0
  40
 7.0000000000000
   0
CIRCLE
   5
232
 100
AcDbEntity
   8
LEVEL001
 370
13
 100
AcDbCircle
   6
CONTINUOUS
  62
3
  10
 4728.1054417220
  20
 4975.7486590836
  30
0.0
  40
 7.0000000000000
   0
CIRCLE
   5
233
 100
AcDbEntity
   8
LEVEL001
 370
13
 100
AcDbCircle
   6
CONTINUOUS
  62
3
  10
 4728.1054417220
  20
 4860.7486590836
  30
0.0
  40
 7.0000000000000
   0
CIRCLE
   5
234
 100
AcDbEntity
   8
LEVEL001
 370
13
 100
AcDbCircle
   6
CONTINUOUS
  62
3
  10
 4827.6983631572
  20
 4803.2486590836
  30
0.0
  40
 7.0000000000000
   0
CIRCLE
   5
235
 100
AcDbEntity
   8
LEVEL001
 370
13
 100
AcDbCircle
   6
CONTINUOUS
  62
3
  10
 4927.2912845924
  20
 4860.7486590836
  30
0.0
  40
 7.0000000000000
   0
CIRCLE
   5
236
 100
AcDbEntity
   8
LEVEL001
 370
13
 100
AcDbCircle
   6
CONTINUOUS
  62
3
  10
 4927.2912845924
  20
 4975.7486590836
  30
0.0
  40
 7.0000000000000
   0
CIRCLE
   5
237
 100
AcDbEntity
   8
LEVEL001
 370
13
 100
AcDbCircle
   6
CONTINUOUS
  62
1
  10
 4427.6983631572
  20
 4418.2486590836
  30
0.0
  40
 69.999997913838
   0
MTEXT
   5
238
 100
AcDbEntity
   8
LEVEL001
 370
13
  62
1
 100
AcDbMText
  10
 4427.6983631572
  20
 4418.2486590836
  30
0.0
  40
 57.142857142858
  41
0.0
  71
5
  72
1
   1
\T1.000000;2
   7
GMM001
  44
 0.79999984000003
   0
LEADER
   5
239
 100
AcDbEntity
   8
LEVEL001
 370
13
   6
CONTINUOUS
  62
1
 100
AcDbLeader
   3
GMM001
  73
3
  74
1
  75
0
  40
 66.000000000000
  41
0.0
  76
2
  10
 4576.8291851872
  20
 4606.4617232372
  30
0.0
  10
 4471.1674155238
  20
 4473.1161466722
  30
0.0
  77
1
   0
CIRCLE
   5
23A
 100
AcDbEntity
   8
LEVEL001
 370
13
 100
AcDbCircle
   6
CONTINUOUS
  62
1
  10
 1777.6983631572
  20
 3885.7486590836
  30
0.0
  40
 70.000000000000
   0
MTEXT
   5
23B
 100
AcDbEntity
   8
LEVEL001
 370
13
  62
1
 100
AcDbMText
  10
 5727.6983631572
  20
 2828.2486590836
  30
0.0
  40
 51.428571428572
  41
0.0
  71
4
  72
1
   1
\T1.000000;鏡面　Ｒ＝３６００
   7
GMM001
  44
 0.79999984000003
   0
MTEXT
   5
23C
 100
AcDbEntity
   8
LEVEL001
 370
13
  62
1
 100
AcDbMText
  10
 7367.6983631572
  20
 2828.2486590836
  30
0.0
  40
 51.428571428572
  41
0.0
  71
4
  72
1
   1
\T1.000000;t=1.0mm\T1.000000;・表面研磨
   7
GMM001
  44
 0.79999984000003
   0
LINE
   5
23D
 100
AcDbEntity
   8
LEVEL001
 370
13
 100
AcDbLine
   6
CONTINUOUS
  62
7
  10
 5067.6983631572
  20
 4923.2486590836
  30
0.0
  11
 4992.2431898764
  21
 4923.2486590836
  31
0.0
   0
ARC
   5
23E
 100
AcDbEntity
   8
LEVEL001
 370
13
   6
CONTINUOUS
  62
7
 100
AcDbCircle
  10
 5067.6983631572
  20
 4918.2486590836
  30
0.0
  40
 5.0000000000000
 100
AcDbArc
  50
 270.00000000000
  51
 90.000000000000
   0
LINE
   5
23F
 100
AcDbEntity
   8
LEVEL001
 370
13
 100
AcDbLine
   6
CONTINUOUS
  62
7
  10
 4992.2431898764
  20
 4913.2486590836
  30
0.0
  11
 5067.6983631572
  21
 4913.2486590836
  31
0.0
   0
ARC
   5
240
 100
AcDbEntity
   8
LEVEL001
 370
13
   6
CONTINUOUS
  62
7
 100
AcDbCircle
  10
 4992.2431898764
  20
 5013.2486590836
  30
0.0
  40
 90.000000000000
 100
AcDbArc
  50
 150.00000000000
  51
 270.00000000000
   0
ARC
   5
241
 100
AcDbEntity
   8
LEVEL001
 370
13
   6
CONTINUOUS
  62
7
 100
AcDbCircle
  10
 4992.2431898764
  20
 4823.2486590836
  30
0.0
  40
 90.000000000000
 100
AcDbArc
  50
 90.000000000003
  51
 210.00000000000
   0
ARC
   5
242
 100
AcDbEntity
   8
LEVEL001
 370
13
   6
CONTINUOUS
  62
7
 100
AcDbCircle
  10
 4827.6983631574
  20
 5108.2486590836
  30
0.0
  40
 90.000000000000
 100
AcDbArc
  50
 210.00000000000
  51
 330.00000000000
   0
ARC
   5
243
 100
AcDbEntity
   8
LEVEL001
 370
13
   6
CONTINUOUS
  62
7
 100
AcDbCircle
  10
 4663.1535364384
  20
 5013.2486590836
  30
0.0
  40
 90.000000000000
 100
AcDbArc
  50
 270.00000000000
  51
 30.000000000000
   0
ARC
   5
244
 100
AcDbEntity
   8
LEVEL001
 370
13
   6
CONTINUOUS
  62
7
 100
AcDbCircle
  10
 4663.1535364382
  20
 4823.2486590836
  30
0.0
  40
 90.000000000000
 100
AcDbArc
  50
 330.00000000000
  51
 89.999999999999
   0
ARC
   5
245
 100
AcDbEntity
   8
LEVEL001
 370
13
   6
CONTINUOUS
  62
7
 100
AcDbCircle
  10
 4827.6983631574
  20
 4728.2486590836
  30
0.0
  40
 90.000000000000
 100
AcDbArc
  50
 30.000000000001
  51
 150.00000000000
   0
LINE
   5
246
 100
AcDbEntity
   8
LEVEL001
 370
13
 100
AcDbLine
   6
CONTINUOUS
  62
7
  10
 4943.3682361382
  20
 5128.5947559918
  30
0.0
  11
 4905.6406494978
  21
 5063.2486590838
  31
0.0
   0
ARC
   5
247
 100
AcDbEntity
   8
LEVEL001
 370
13
   6
CONTINUOUS
  62
7
 100
AcDbCircle
  10
 4947.6983631572
  20
 5126.0947559918
  30
0.0
  40
 5.0000000000000
 100
AcDbArc
  50
 329.99999999998
  51
 149.99999999999
   0
LINE
   5
248
 100
AcDbEntity
   8
LEVEL001
 370
13
 100
AcDbLine
   6
CONTINUOUS
  62
7
  10
 4914.3009035358
  20
 5058.2486590838
  30
0.0
  11
 4952.0284901760
  21
 5123.5947559918
  31
0.0
   0
LINE
   5
249
 100
AcDbEntity
   8
LEVEL001
 370
13
 100
AcDbLine
   6
CONTINUOUS
  62
7
  10
 4703.3682361382
  20
 5123.5947559918
  30
0.0
  11
 4741.0958227786
  21
 5058.2486590838
  31
0.0
   0
ARC
   5
24A
 100
AcDbEntity
   8
LEVEL001
 370
13
   6
CONTINUOUS
  62
7
 100
AcDbCircle
  10
 4707.6983631572
  20
 5126.0947559918
  30
0.0
  40
 5.0000000000000
 100
AcDbArc
  50
 30.000000000019
  51
 210.00000000000
   0
LINE
   5
24B
 100
AcDbEntity
   8
LEVEL001
 370
13
 100
AcDbLine
   6
CONTINUOUS
  62
7
  10
 4749.7560768164
  20
 5063.2486590838
  30
0.0
  11
 4712.0284901760
  21
 5128.5947559918
  31
0.0
   0
LINE
   5
24C
 100
AcDbEntity
   8
LEVEL001
 370
13
 100
AcDbLine
   6
CONTINUOUS
  62
7
  10
 4587.6983631572
  20
 4913.2486590836
  30
0.0
  11
 4663.1535364380
  21
 4913.2486590836
  31
0.0
   0
ARC
   5
24D
 100
AcDbEntity
   8
LEVEL001
 370
13
   6
CONTINUOUS
  62
7
 100
AcDbCircle
  10
 4587.6983631572
  20
 4918.2486590836
  30
0.0
  40
 5.0000000000000
 100
AcDbArc
  50
 90.000000000000
  51
 270.00000000000
   0
LINE
   5
24E
 100
AcDbEntity
   8
LEVEL001
 370
13
 100
AcDbLine
   6
CONTINUOUS
  62
7
  10
 4663.1535364378
  20
 4923.2486590836
  30
0.0
  11
 4587.6983631572
  21
 4923.2486590836
  31
0.0
   0
LINE
   5
24F
 100
AcDbEntity
   8
LEVEL001
 370
13
 100
AcDbLine
   6
CONTINUOUS
  62
7
  10
 4712.0284901760
  20
 4707.9025621754
  30
0.0
  11
 4749.7560768164
  21
 4773.2486590834
  31
0.0
   0
ARC
   5
250
 100
AcDbEntity
   8
LEVEL001
 370
13
   6
CONTINUOUS
  62
7
 100
AcDbCircle
  10
 4707.6983631572
  20
 4710.4025621754
  30
0.0
  40
 5.0000000000000
 100
AcDbArc
  50
 150.00000000000
  51
 330.00000000000
   0
LINE
   5
251
 100
AcDbEntity
   8
LEVEL001
 370
13
 100
AcDbLine
   6
CONTINUOUS
  62
7
  10
 4741.0958227786
  20
 4778.2486590834
  30
0.0
  11
 4703.3682361382
  21
 4712.9025621754
  31
0.0
   0
LINE
   5
252
 100
AcDbEntity
   8
LEVEL001
 370
13
 100
AcDbLine
   6
CONTINUOUS
  62
7
  10
 4952.0284901760
  20
 4712.9025621754
  30
0.0
  11
 4914.3009035356
  21
 4778.2486590834
  31
0.0
   0
ARC
   5
253
 100
AcDbEntity
   8
LEVEL001
 370
13
   6
CONTINUOUS
  62
7
 100
AcDbCircle
  10
 4947.6983631572
  20
 4710.4025621754
  30
0.0
  40
 5.0000000000000
 100
AcDbArc
  50
 210.00000000000
  51
 30.000000000000
   0
LINE
   5
254
 100
AcDbEntity
   8
LEVEL001
 370
13
 100
AcDbLine
   6
CONTINUOUS
  62
7
  10
 4905.6406494978
  20
 4773.2486590834
  30
0.0
  11
 4943.3682361382
  21
 4707.9025621754
  31
0.0
   0
MTEXT
   5
256
 100
AcDbEntity
   8
LEVEL001
 370
13
  62
1
 100
AcDbMText
  10
 1148.3469683666
  20
 1894.4785961238
  30
0.0
  40
 40.000000000000
  41
0.0
  71
7
  72
1
   1
\T1.000000;ＧＬ
   7
GMM003
  44
 0.79999984000003
   0
LINE
   5
257
 100
AcDbEntity
   8
LEVEL001
 370
13
 100
AcDbLine
   6
CONTINUOUS
  62
1
  10
 1120.1982979218
  20
 1885.7486590835
  30
0.0
  11
 1095.1982979218
  21
 1935.7486590835
  31
0.0
   0
LINE
   5
258
 100
AcDbEntity
   8
LEVEL001
 370
13
 100
AcDbLine
   6
CONTINUOUS
  62
1
  10
 1095.1982979218
  20
 1935.7486590835
  30
0.0
  11
 1145.1982979218
  21
 1935.7486590835
  31
0.0
   0
LINE
   5
259
 100
AcDbEntity
   8
LEVEL001
 370
13
 100
AcDbLine
   6
CONTINUOUS
  62
1
  10
 1145.1982979218
  20
 1935.7486590835
  30
0.0
  11
 1120.1982979218
  21
 1885.7486590835
  31
0.0
   0
CIRCLE
   5
25A
 100
AcDbEntity
   8
LEVEL001
 370
13
 100
AcDbCircle
   6
CONTINUOUS
  62
6
  10
 1527.6983631572
  20
 4918.2486590836
  30
0.0
  40
 505.00000000000
   0
CIRCLE
   5
25B
 100
AcDbEntity
   8
LEVEL001
 370
13
 100
AcDbCircle
   6
CONTINUOUS
  62
7
  10
 1527.6983631572
  20
 4918.2486590836
  30
0.0
  40
 532.50000000000
   0
CIRCLE
   5
25C
 100
AcDbEntity
   8
LEVEL001
 370
13
 100
AcDbCircle
   6
CONTINUOUS
  62
6
  10
 1527.6983631572
  20
 4918.2486590836
  30
0.0
  40
 510.00000000000
   0
CIRCLE
   5
25D
 100
AcDbEntity
   8
LEVEL001
 370
13
 100
AcDbCircle
   6
CONTINUOUS
  62
7
  10
 1527.6983631572
  20
 4918.2486590836
  30
0.0
  40
 512.50000000000
   0
ARC
   5
25E
 100
AcDbEntity
   8
LEVEL001
 370
13
   6
CONTINUOUS
  62
1
 100
AcDbCircle
  10
 1527.6983631572
  20
 4918.2486590836
  30
0.0
  40
 510.00000000000
 100
AcDbArc
  50
 22.559010865493
  51
 157.44098913451
   0
ARC
   5
25F
 100
AcDbEntity
   8
LEVEL001
 370
13
   6
CONTINUOUS
  62
1
 100
AcDbCircle
  10
 1527.6983631572
  20
 4918.2486590836
  30
0.0
  40
 511.50000000000
 100
AcDbArc
  50
 22.559010865494
  51
 157.44098913451
   0
LINE
   5
260
 100
AcDbEntity
   8
LEVEL001
 370
13
 100
AcDbLine
   6
CONTINUOUS
  62
1
  10
 1056.7210621513
  20
 5113.9023887624
  30
0.0
  11
 1055.3358347954
  21
 5114.4778409084
  31
0.0
   0
LINE
   5
261
 100
AcDbEntity
   8
LEVEL001
 370
13
 100
AcDbLine
   6
CONTINUOUS
  62
1
  10
 1998.6756641630
  20
 5113.9023887624
  30
0.0
  11
 2000.0608915190
  21
 5114.4778409084
  31
0.0
   0
LINE
   5
262
 100
AcDbEntity
   8
LEVEL001
 370
13
 100
AcDbLine
   6
DASHDOT
  62
6
  10
 952.69836315715
  20
 4918.2486590836
  30
0.0
  11
 2102.6983631572
  21
 4918.2486590836
  31
0.0
   0
LINE
   5
263
 100
AcDbEntity
   8
LEVEL001
 370
13
 100
AcDbLine
   6
CONTINUOUS
  62
7
  10
 1483.1483753642
  20
 4387.6126727554
  30
0.0
  11
 1483.1483753642
  21
 4285.7486590836
  31
0.0
   0
LINE
   5
264
 100
AcDbEntity
   8
LEVEL001
 370
13
 100
AcDbLine
   6
CONTINUOUS
  62
7
  10
 1572.2484119853
  20
 4285.7486590836
  30
0.0
  11
 1572.2484119853
  21
 4387.6126727554
  31
0.0
   0
LINE
   5
265
 100
AcDbEntity
   8
LEVEL001
 370
13
 100
AcDbLine
   6
CONTINUOUS
  62
7
  10
 1483.1483753642
  20
 3685.7479266618
  30
0.0
  11
 1483.1483753642
  21
 785.74865908356
  31
0.0
   0
LINE
   5
266
 100
AcDbEntity
   8
LEVEL001
 370
13
 100
AcDbLine
   6
CONTINUOUS
  62
7
  10
 1483.1483753642
  20
 785.74865908356
  30
0.0
  11
 1572.2484119853
  21
 785.74865908356
  31
0.0
   0
LINE
   5
267
 100
AcDbEntity
   8
LEVEL001
 370
13
 100
AcDbLine
   6
CONTINUOUS
  62
7
  10
 1572.2484119853
  20
 785.74865908356
  30
0.0
  11
 1572.2484119853
  21
 3685.7479266618
  31
0.0
   0
CIRCLE
   5
268
 100
AcDbEntity
   8
LEVEL001
 370
13
 100
AcDbCircle
   6
CONTINUOUS
  62
7
  10
 1527.6983021220
  20
 1085.7486590836
  30
0.0
  40
 7.5000000000000
   0
LINE
   5
269
 100
AcDbEntity
   8
LEVEL001
 370
13
 100
AcDbLine
   6
DASHDOT
  62
6
  10
 1497.6983021220
  20
 1085.7486590836
  30
0.0
  11
 1557.6983631572
  21
 1085.7486590836
  31
0.0
   0
LINE
   5
26A
 100
AcDbEntity
   8
LEVEL001
 370
13
 100
AcDbLine
   6
CONTINUOUS
  62
7
  10
 1483.1483753642
  20
 1193.2486590836
  30
0.0
  11
 1411.2983387431
  21
 1193.2486590836
  31
0.0
   0
LINE
   5
26B
 100
AcDbEntity
   8
LEVEL001
 370
13
 100
AcDbLine
   6
CONTINUOUS
  62
7
  10
 1411.2983387431
  20
 1193.2486590836
  30
0.0
  11
 1411.2983387431
  21
 1178.2486590836
  31
0.0
   0
LINE
   5
26C
 100
AcDbEntity
   8
LEVEL001
 370
13
 100
AcDbLine
   6
CONTINUOUS
  62
7
  10
 1411.2983387431
  20
 1178.2486590836
  30
0.0
  11
 1483.1483753642
  21
 1178.2486590836
  31
0.0
   0
LINE
   5
26D
 100
AcDbEntity
   8
LEVEL001
 370
13
 100
AcDbLine
   6
CONTINUOUS
  62
7
  10
 1572.2484119853
  20
 1193.2486590836
  30
0.0
  11
 1644.0983875712
  21
 1193.2486590836
  31
0.0
   0
LINE
   5
26E
 100
AcDbEntity
   8
LEVEL001
 370
13
 100
AcDbLine
   6
CONTINUOUS
  62
7
  10
 1644.0983875712
  20
 1193.2486590836
  30
0.0
  11
 1644.0983875712
  21
 1178.2486590836
  31
0.0
   0
LINE
   5
26F
 100
AcDbEntity
   8
LEVEL001
 370
13
 100
AcDbLine
   6
CONTINUOUS
  62
7
  10
 1644.0983875712
  20
 1178.2486590836
  30
0.0
  11
 1572.2484119853
  21
 1178.2486590836
  31
0.0
   0
LINE
   5
270
 100
AcDbEntity
   8
LEVEL001
 370
13
 100
AcDbLine
   6
DASHDOT
  62
6
  10
 1461.2983387431
  20
 1185.7486590836
  30
0.0
  11
 1594.0983875712
  21
 1185.7486590836
  31
0.0
   0
LINE
   5
271
 100
AcDbEntity
   8
LEVEL001
 370
13
 100
AcDbLine
   6
DOT
  62
1
  10
 1572.2484119853
  20
 1178.2486590836
  30
0.0
  11
 1483.1483753642
  21
 1178.2486590836
  31
0.0
   0
LINE
   5
272
 100
AcDbEntity
   8
LEVEL001
 370
13
 100
AcDbLine
   6
DOT
  62
1
  10
 1483.1483753642
  20
 1193.2486590836
  30
0.0
  11
 1572.2484119853
  21
 1193.2486590836
  31
0.0
   0
CIRCLE
   5
273
 100
AcDbEntity
   8
LEVEL001
 370
13
 100
AcDbCircle
   6
CONTINUOUS
  62
1
  10
 3227.6983631572
  20
 3885.7486590836
  30
0.0
  40
 70.000000000000
   0
CIRCLE
   5
274
 100
AcDbEntity
   8
LEVEL001
 370
13
 100
AcDbCircle
   6
CONTINUOUS
  62
1
  10
 3367.6983631572
  20
 3885.7486590836
  30
0.0
  40
 70.000000000000
   0
MTEXT
   5
275
 100
AcDbEntity
   8
LEVEL001
 370
13
  62
1
 100
AcDbMText
  10
 3227.6983631572
  20
 3885.7486590836
  30
0.0
  40
 57.142857142858
  41
0.0
  71
5
  72
1
   1
\T1.000000;13
   7
GMM001
  44
 0.79999984000003
   0
MTEXT
   5
276
 100
AcDbEntity
   8
LEVEL001
 370
13
  62
1
 100
AcDbMText
  10
 3367.6983631572
  20
 3885.7486590836
  30
0.0
  40
 57.142857142858
  41
0.0
  71
5
  72
1
   1
\T1.000000;14
   7
GMM001
  44
 0.79999984000003
   0
CIRCLE
   5
277
 100
AcDbEntity
   8
LEVEL001
 370
13
 100
AcDbCircle
   6
CONTINUOUS
  62
1
  10
 2327.6983631572
  20
 4268.2486590836
  30
0.0
  40
 69.999997913838
   0
MTEXT
   5
278
 100
AcDbEntity
   8
LEVEL001
 370
13
  62
1
 100
AcDbMText
  10
 2327.6983631572
  20
 4268.2486590836
  30
0.0
  40
 57.142857142858
  41
0.0
  71
5
  72
1
   1
\T1.000000;1
   7
GMM001
  44
 0.79999984000003
   0
LEADER
   5
279
 100
AcDbEntity
   8
LEVEL001
 370
13
   6
CONTINUOUS
  62
1
 100
AcDbLeader
   3
GMM002
  73
3
  74
1
  75
0
  40
 60.000000000000
  41
0.0
  76
2
  10
 1640.8290082942
  20
 4518.2486590836
  30
0.0
  10
 2262.0411001264
  20
 4292.5205259100
  30
0.0
  77
1
   0
CIRCLE
   5
27A
 100
AcDbEntity
   8
LEVEL001
 370
13
 100
AcDbCircle
   6
CONTINUOUS
  62
1
  10
 1777.6983631572
  20
 4268.2486590836
  30
0.0
  40
 69.999997913838
   0
MTEXT
   5
27B
 100
AcDbEntity
   8
LEVEL001
 370
13
  62
1
 100
AcDbMText
  10
 1777.6983631572
  20
 4268.2486590836
  30
0.0
  40
 57.142857142858
  41
0.0
  71
5
  72
1
   1
\T1.000000;4
   7
GMM001
  44
 0.79999984000003
   0
CIRCLE
   5
27C
 100
AcDbEntity
   8
LEVEL001
 370
13
 100
AcDbCircle
   6
CONTINUOUS
  62
1
  10
 2327.6983631572
  20
 5528.2486590836
  30
0.0
  40
 69.999997913838
   0
MTEXT
   5
27D
 100
AcDbEntity
   8
LEVEL001
 370
13
  62
1
 100
AcDbMText
  10
 2327.6983631572
  20
 5528.2486590836
  30
0.0
  40
 57.142857142858
  41
0.0
  71
5
  72
1
   1
\T1.000000;3
   7
GMM001
  44
 0.79999984000003
   0
CIRCLE
   5
27E
 100
AcDbEntity
   8
LEVEL001
 370
13
 100
AcDbCircle
   6
CONTINUOUS
  62
1
  10
 2737.6983673296
  20
 5528.2486590836
  30
0.0
  40
 69.999997913838
   0
CIRCLE
   5
27F
 100
AcDbEntity
   8
LEVEL001
 370
13
 100
AcDbCircle
   6
CONTINUOUS
  62
1
  10
 2877.6983631572
  20
 5528.2486590836
  30
0.0
  40
 69.999997913838
   0
MTEXT
   5
280
 100
AcDbEntity
   8
LEVEL001
 370
13
  62
1
 100
AcDbMText
  10
 2877.6983631572
  20
 5528.2486590836
  30
0.0
  40
 57.142857142858
  41
0.0
  71
5
  72
1
   1
\T1.000000;7
   7
GMM001
  44
 0.79999984000003
   0
MTEXT
   5
281
 100
AcDbEntity
   8
LEVEL001
 370
13
  62
1
 100
AcDbMText
  10
 2737.6983673296
  20
 5528.2486590836
  30
0.0
  40
 57.142857142858
  41
0.0
  71
5
  72
1
   1
\T1.000000;5
   7
GMM001
  44
 0.79999984000003
   0
CIRCLE
   5
282
 100
AcDbEntity
   8
LEVEL001
 370
13
 100
AcDbCircle
   6
CONTINUOUS
  62
1
  10
 3387.1921812848
  20
 5528.2486590836
  30
0.0
  40
 69.999997913838
   0
CIRCLE
   5
283
 100
AcDbEntity
   8
LEVEL001
 370
13
 100
AcDbCircle
   6
CONTINUOUS
  62
1
  10
 3227.6983631572
  20
 5528.2486590836
  30
0.0
  40
 70.000000000000
   0
MTEXT
   5
284
 100
AcDbEntity
   8
LEVEL001
 370
13
  62
1
 100
AcDbMText
  10
 3387.1921812848
  20
 5528.2486590836
  30
0.0
  40
 57.142857142858
  41
0.0
  71
5
  72
1
   1
\T1.000000;6
   7
GMM001
  44
 0.79999984000003
   0
MTEXT
   5
285
 100
AcDbEntity
   8
LEVEL001
 370
13
  62
1
 100
AcDbMText
  10
 3227.6983631572
  20
 5528.2486590836
  30
0.0
  40
 57.142857142858
  41
0.0
  71
5
  72
1
   1
\T1.000000;11
   7
GMM001
  44
 0.79999984000003
   0
MTEXT
   5
286
 100
AcDbEntity
   8
LEVEL001
 370
13
  62
1
 100
AcDbMText
  10
 3527.1921771126
  20
 5528.2486590836
  30
0.0
  40
 57.142857142858
  41
0.0
  71
5
  72
1
   1
\T1.000000;8
   7
GMM001
  44
 0.79999984000003
   0
CIRCLE
   5
287
 100
AcDbEntity
   8
LEVEL001
 370
13
 100
AcDbCircle
   6
CONTINUOUS
  62
1
  10
 3527.1921771126
  20
 5528.2486590836
  30
0.0
  40
 69.999997913838
   0
MTEXT
   5
289
 100
AcDbEntity
   8
LEVEL001
 370
13
  62
1
 100
AcDbMText
  10
 2648.3469683666
  20
 1894.4785961238
  30
0.0
  40
 40.000000000000
  41
0.0
  71
7
  72
1
   1
\T1.000000;ＧＬ
   7
GMM003
  44
 0.79999984000003
   0
LINE
   5
28A
 100
AcDbEntity
   8
LEVEL001
 370
13
 100
AcDbLine
   6
CONTINUOUS
  62
1
  10
 2620.1982979218
  20
 1885.7486590835
  30
0.0
  11
 2595.1982979218
  21
 1935.7486590835
  31
0.0
   0
LINE
   5
28B
 100
AcDbEntity
   8
LEVEL001
 370
13
 100
AcDbLine
   6
CONTINUOUS
  62
1
  10
 2595.1982979218
  20
 1935.7486590835
  30
0.0
  11
 2645.1982979218
  21
 1935.7486590835
  31
0.0
   0
LINE
   5
28C
 100
AcDbEntity
   8
LEVEL001
 370
13
 100
AcDbLine
   6
CONTINUOUS
  62
1
  10
 2645.1982979218
  20
 1935.7486590835
  30
0.0
  11
 2620.1982979218
  21
 1885.7486590835
  31
0.0
   0
ARC
   5
28D
 100
AcDbEntity
   8
LEVEL001
 370
13
   6
CONTINUOUS
  62
7
 100
AcDbCircle
  10
 2827.3013554274
  20
 4388.2486590836
  30
0.0
  40
 2.5000000000000
 100
AcDbArc
  50
 180.00000000000
  51
 270.00000000000
   0
ARC
   5
28E
 100
AcDbEntity
   8
LEVEL001
 370
13
   6
CONTINUOUS
  62
7
 100
AcDbCircle
  10
 2827.3013554274
  20
 4388.2486590836
  30
0.0
  40
 2.5000000000000
 100
AcDbArc
  50
 270.00000000000
  51
0.0
   0
LINE
   5
28F
 100
AcDbEntity
   8
LEVEL001
 370
13
 100
AcDbLine
   6
CONTINUOUS
  62
7
  10
 2805.4285424814
  20
 4412.1232216728
  30
0.0
  11
 2824.8013554274
  21
 4408.2486590836
  31
0.0
   0
ARC
   5
290
 100
AcDbEntity
   8
LEVEL001
 370
13
   6
CONTINUOUS
  62
7
 100
AcDbCircle
  10
 2806.8013554274
  20
 4418.9872864026
  30
0.0
  40
 7.0000000000000
 100
AcDbArc
  50
 180.00000000000
  51
 258.69006752598
   0
LINE
   5
291
 100
AcDbEntity
   8
LEVEL001
 370
13
 100
AcDbLine
   6
CONTINUOUS
  62
7
  10
 2824.8013554274
  20
 5448.2486590836
  30
0.0
  11
 2824.8013554274
  21
 4388.2486590836
  31
0.0
   0
LINE
   5
292
 100
AcDbEntity
   8
LEVEL001
 370
13
 100
AcDbLine
   6
CONTINUOUS
  62
7
  10
 2829.8013554274
  20
 4388.2486590836
  30
0.0
  11
 2829.8013554274
  21
 5448.2486590836
  31
0.0
   0
LINE
   5
293
 100
AcDbEntity
   8
LEVEL001
 370
13
 100
AcDbLine
   6
CONTINUOUS
  62
3
  10
 2824.8013554274
  20
 5113.9023887624
  30
0.0
  11
 2804.8013554274
  21
 5113.9023887622
  31
0.0
   0
LINE
   5
294
 100
AcDbEntity
   8
LEVEL001
 370
13
 100
AcDbLine
   6
CONTINUOUS
  62
3
  10
 2804.8013554274
  20
 5113.9023887622
  30
0.0
  11
 2739.8013554274
  21
 5226.4856912542
  31
0.0
   0
LINE
   5
295
 100
AcDbEntity
   8
LEVEL001
 370
13
 100
AcDbLine
   6
CONTINUOUS
  62
3
  10
 2739.8013554274
  20
 5226.4856912542
  30
0.0
  11
 2739.8013554274
  21
 5429.7486590836
  31
0.0
   0
LINE
   5
296
 100
AcDbEntity
   8
LEVEL001
 370
13
 100
AcDbLine
   6
CONTINUOUS
  62
3
  10
 2739.8013554274
  20
 5429.7486590836
  30
0.0
  11
 2824.8013554274
  21
 5429.7486590836
  31
0.0
   0
ARC
   5
297
 100
AcDbEntity
   8
LEVEL001
 370
13
   6
HIDDEN
  62
6
 100
AcDbCircle
  10
 6364.9100494226
  20
 4918.2486590836
  30
0.0
  40
 3600.0000000000
 100
AcDbArc
  50
 172.01644385444
  51
 176.02227596322
   0
LINE
   5
298
 100
AcDbEntity
   8
LEVEL001
 370
13
 100
AcDbLine
   6
HIDDEN
  62
6
  10
 2799.8013554274
  20
 5417.5100317646
  30
0.0
  11
 2799.8013554274
  21
 5122.5626428000
  31
0.0
   0
ARC
   5
299
 100
AcDbEntity
   8
LEVEL001
 370
13
   6
CONTINUOUS
  62
7
 100
AcDbCircle
  10
 6364.9100494226
  20
 4918.2486590836
  30
0.0
  40
 3600.0000000000
 100
AcDbArc
  50
 176.02227596322
  51
 187.98355614556
   0
LINE
   5
29A
 100
AcDbEntity
   8
LEVEL001
 370
13
 100
AcDbLine
   6
CONTINUOUS
  62
7
  10
 2799.8013554274
  20
 5122.5626428000
  30
0.0
  11
 2799.8013554274
  21
 4418.9872864026
  31
0.0
   0
ARC
   5
29B
 100
AcDbEntity
   8
LEVEL001
 370
13
   6
CONTINUOUS
  62
7
 100
AcDbCircle
  10
 2827.3013554274
  20
 5448.2486590836
  30
0.0
  40
 2.5000000000000
 100
AcDbArc
  50
 90.000000000000
  51
 180.00000000000
   0
ARC
   5
29C
 100
AcDbEntity
   8
LEVEL001
 370
13
   6
CONTINUOUS
  62
7
 100
AcDbCircle
  10
 2827.3013554274
  20
 5448.2486590836
  30
0.0
  40
 2.5000000000000
 100
AcDbArc
  50
0.0
  51
 90.000000000000
   0
LINE
   5
29D
 100
AcDbEntity
   8
LEVEL001
 370
13
 100
AcDbLine
   6
HIDDEN
  62
6
  10
 2824.8013554274
  20
 5428.2486590836
  30
0.0
  11
 2805.4285424814
  21
 5424.3740964944
  31
0.0
   0
ARC
   5
29E
 100
AcDbEntity
   8
LEVEL001
 370
13
   6
HIDDEN
  62
6
 100
AcDbCircle
  10
 2806.8013554274
  20
 5417.5100317646
  30
0.0
  40
 7.0000000000000
 100
AcDbArc
  50
 101.30993247402
  51
 180.00000000002
   0
LINE
   5
29F
 100
AcDbEntity
   8
LEVEL001
 370
13
 100
AcDbLine
   6
DASHDOT
  62
6
  10
 3119.9024647198
  20
 4918.2486590836
  30
0.0
  11
 2716.8335819898
  21
 4918.2486590836
  31
0.0
   0
LINE
   5
2A0
 100
AcDbEntity
   8
LEVEL001
 370
13
 100
AcDbLine
   6
CONTINUOUS
  62
7
  10
 2829.8013554274
  20
 4973.2486590836
  30
0.0
  11
 2923.0013554274
  21
 4973.2486590836
  31
0.0
   0
LINE
   5
2A1
 100
AcDbEntity
   8
LEVEL001
 370
13
 100
AcDbLine
   6
CONTINUOUS
  62
7
  10
 2923.0013554274
  20
 4973.2486590836
  30
0.0
  11
 2923.0013554274
  21
 4863.2486590836
  31
0.0
   0
LINE
   5
2A2
 100
AcDbEntity
   8
LEVEL001
 370
13
 100
AcDbLine
   6
CONTINUOUS
  62
7
  10
 2923.0013554274
  20
 4863.2486590836
  30
0.0
  11
 2829.8013554274
  21
 4863.2486590836
  31
0.0
   0
LINE
   5
2A3
 100
AcDbEntity
   8
LEVEL001
 370
13
 100
AcDbLine
   6
CONTINUOUS
  62
7
  10
 3072.2484119854
  20
 5189.7486590836
  30
0.0
  11
 2983.1483143290
  21
 5189.7486590836
  31
0.0
   0
LINE
   5
2A4
 100
AcDbEntity
   8
LEVEL001
 370
13
 100
AcDbLine
   6
CONTINUOUS
  62
7
  10
 2983.1483143290
  20
 5189.7486590836
  30
0.0
  11
 2983.1483143290
  21
 5186.7486590836
  31
0.0
   0
LINE
   5
2A5
 100
AcDbEntity
   8
LEVEL001
 370
13
 100
AcDbLine
   6
CONTINUOUS
  62
7
  10
 2983.1483143290
  20
 5186.7486590836
  30
0.0
  11
 3072.2484119854
  21
 5186.7486590836
  31
0.0
   0
LINE
   5
2A6
 100
AcDbEntity
   8
LEVEL001
 370
13
 100
AcDbLine
   6
CONTINUOUS
  62
7
  10
 3072.2484119854
  20
 5186.7486590836
  30
0.0
  11
 3072.2484119854
  21
 5189.7486590836
  31
0.0
   0
LINE
   5
2A7
 100
AcDbEntity
   8
LEVEL001
 370
13
 100
AcDbLine
   6
DOT
  62
1
  10
 3067.2484119854
  20
 5186.7486590836
  30
0.0
  11
 3067.2484119854
  21
 5159.7486590836
  31
0.0
   0
LINE
   5
2A8
 100
AcDbEntity
   8
LEVEL001
 370
13
 100
AcDbLine
   6
DOT
  62
1
  10
 3067.2484119854
  20
 5159.7486590836
  30
0.0
  11
 2988.1483143290
  21
 5159.7486590836
  31
0.0
   0
LINE
   5
2A9
 100
AcDbEntity
   8
LEVEL001
 370
13
 100
AcDbLine
   6
DOT
  62
1
  10
 2988.1483143290
  20
 5159.7486590836
  30
0.0
  11
 2988.1483143290
  21
 5186.7486590836
  31
0.0
   0
LINE
   5
2AA
 100
AcDbEntity
   8
LEVEL001
 370
13
 100
AcDbLine
   6
CONTINUOUS
  62
7
  10
 3072.2484119854
  20
 4973.2486590836
  30
0.0
  11
 3072.2484119854
  21
 5185.7486590836
  31
0.0
   0
LINE
   5
2AB
 100
AcDbEntity
   8
LEVEL001
 370
13
 100
AcDbLine
   6
CONTINUOUS
  62
7
  10
 3072.2484119854
  20
 5185.7486590836
  30
0.0
  11
 2983.1483143290
  21
 5185.7486590836
  31
0.0
   0
LINE
   5
2AC
 100
AcDbEntity
   8
LEVEL001
 370
13
 100
AcDbLine
   6
CONTINUOUS
  62
7
  10
 2983.1483143290
  20
 5185.7486590836
  30
0.0
  11
 2983.1483143290
  21
 4973.2486590836
  31
0.0
   0
LINE
   5
2AD
 100
AcDbEntity
   8
LEVEL001
 370
13
 100
AcDbLine
   6
CONTINUOUS
  62
7
  10
 2983.1483143290
  20
 4863.2486590836
  30
0.0
  11
 2983.1483143290
  21
 4198.2479266618
  31
0.0
   0
LINE
   5
2AE
 100
AcDbEntity
   8
LEVEL001
 370
13
 100
AcDbLine
   6
CONTINUOUS
  62
7
  10
 3072.2484119854
  20
 4198.2479266618
  30
0.0
  11
 3072.2484119854
  21
 4863.2486590836
  31
0.0
   0
LINE
   5
2AF
 100
AcDbEntity
   8
LEVEL001
 370
13
 100
AcDbLine
   6
DASHDOT
  62
6
  10
 3027.6983631572
  20
 4983.2486590836
  30
0.0
  11
 3027.6983631572
  21
 4853.2486590836
  31
0.0
   0
LINE
   5
2B0
 100
AcDbEntity
   8
LEVEL001
 370
13
 100
AcDbLine
   6
DASHDOT
  62
6
  10
 2923.0013554274
  20
 4948.2486590836
  30
0.0
  11
 2883.0013554274
  21
 4948.2486590836
  31
0.0
   0
LINE
   5
2B1
 100
AcDbEntity
   8
LEVEL001
 370
13
 100
AcDbLine
   6
DASHDOT
  62
6
  10
 2903.0013554274
  20
 4968.2486590836
  30
0.0
  11
 2903.0013554274
  21
 4928.2486590836
  31
0.0
   0
LINE
   5
2B2
 100
AcDbEntity
   8
LEVEL001
 370
13
 100
AcDbLine
   6
DASHDOT
  62
6
  10
 2923.0013554274
  20
 4888.2486590836
  30
0.0
  11
 2883.0013554274
  21
 4888.2486590836
  31
0.0
   0
LINE
   5
2B3
 100
AcDbEntity
   8
LEVEL001
 370
13
 100
AcDbLine
   6
DASHDOT
  62
6
  10
 2903.0013554274
  20
 4908.2486590836
  30
0.0
  11
 2903.0013554274
  21
 4868.2486590836
  31
0.0
   0
LINE
   5
2B4
 100
AcDbEntity
   8
LEVEL001
 370
13
 100
AcDbLine
   6
DASHDOT
  62
6
  10
 2972.1504780848
  20
 4913.8340729026
  30
0.0
  11
 2932.1504780848
  21
 4913.8340729026
  31
0.0
   0
LINE
   5
2B5
 100
AcDbEntity
   8
LEVEL001
 370
13
 100
AcDbLine
   6
DASHDOT
  62
6
  10
 2952.1504780848
  20
 4933.8340729026
  30
0.0
  11
 2952.1504780848
  21
 4893.8340729026
  31
0.0
   0
LINE
   5
2B6
 100
AcDbEntity
   8
LEVEL001
 370
13
 100
AcDbLine
   6
CONTINUOUS
  62
7
  10
 2983.0013554274
  20
 4863.2486590836
  30
0.0
  11
 2983.0013554274
  21
 4973.2486590836
  31
0.0
   0
ARC
   5
2B7
 100
AcDbEntity
   8
LEVEL001
 370
13
   6
CONTINUOUS
  62
3
 100
AcDbCircle
  10
 2952.1504780848
  20
 4913.8340729026
  30
0.0
  40
 8.0000000000000
 100
AcDbArc
  50
 325.00000000000
  51
 145.00000000000
   0
LINE
   5
2B8
 100
AcDbEntity
   8
LEVEL001
 370
13
 100
AcDbLine
   6
CONTINUOUS
  62
6
  10
 3071.1263812310
  20
 4968.2486590836
  30
0.0
  11
 3071.1263812310
  21
 4868.2486590836
  31
0.0
   0
LINE
   5
2B9
 100
AcDbEntity
   8
LEVEL001
 370
13
 100
AcDbLine
   6
DASHDOT
  62
6
  10
 3110.6983716770
  20
 4948.2486589436
  30
0.0
  11
 3070.6983716770
  21
 4948.2486589436
  31
0.0
   0
LINE
   5
2BA
 100
AcDbEntity
   8
LEVEL001
 370
13
 100
AcDbLine
   6
DASHDOT
  62
6
  10
 3090.6983716770
  20
 4968.2486589436
  30
0.0
  11
 3090.6983716770
  21
 4928.2486589436
  31
0.0
   0
LINE
   5
2BB
 100
AcDbEntity
   8
LEVEL001
 370
13
 100
AcDbLine
   6
DASHDOT
  62
6
  10
 3110.6983716770
  20
 4888.2486589436
  30
0.0
  11
 3070.6983716770
  21
 4888.2486589436
  31
0.0
   0
LINE
   5
2BC
 100
AcDbEntity
   8
LEVEL001
 370
13
 100
AcDbLine
   6
DASHDOT
  62
6
  10
 3090.6983716770
  20
 4908.2486589436
  30
0.0
  11
 3090.6983716770
  21
 4868.2486589436
  31
0.0
   0
LINE
   5
2BD
 100
AcDbEntity
   8
LEVEL001
 370
13
 100
AcDbLine
   6
CONTINUOUS
  62
3
  10
 3083.6983716770
  20
 4941.2486590836
  30
0.0
  11
 3097.6983716770
  21
 4941.2486590836
  31
0.0
   0
LINE
   5
2BE
 100
AcDbEntity
   8
LEVEL001
 370
13
 100
AcDbLine
   6
CONTINUOUS
  62
3
  10
 3097.6983716770
  20
 4941.2486590836
  30
0.0
  11
 3097.6983716770
  21
 4955.2486590836
  31
0.0
   0
LINE
   5
2BF
 100
AcDbEntity
   8
LEVEL001
 370
13
 100
AcDbLine
   6
CONTINUOUS
  62
3
  10
 3097.6983716770
  20
 4955.2486590836
  30
0.0
  11
 3083.6983716770
  21
 4955.2486590836
  31
0.0
   0
LINE
   5
2C0
 100
AcDbEntity
   8
LEVEL001
 370
13
 100
AcDbLine
   6
CONTINUOUS
  62
3
  10
 3083.6983716770
  20
 4955.2486590836
  30
0.0
  11
 3083.6983716770
  21
 4941.2486590836
  31
0.0
   0
LINE
   5
2C1
 100
AcDbEntity
   8
LEVEL001
 370
13
 100
AcDbLine
   6
CONTINUOUS
  62
3
  10
 3083.6983716770
  20
 4881.2486590836
  30
0.0
  11
 3097.6983716770
  21
 4881.2486590836
  31
0.0
   0
LINE
   5
2C2
 100
AcDbEntity
   8
LEVEL001
 370
13
 100
AcDbLine
   6
CONTINUOUS
  62
3
  10
 3097.6983716770
  20
 4881.2486590836
  30
0.0
  11
 3097.6983716770
  21
 4895.2486590836
  31
0.0
   0
LINE
   5
2C3
 100
AcDbEntity
   8
LEVEL001
 370
13
 100
AcDbLine
   6
CONTINUOUS
  62
3
  10
 3097.6983716770
  20
 4895.2486590836
  30
0.0
  11
 3083.6983716770
  21
 4895.2486590836
  31
0.0
   0
LINE
   5
2C4
 100
AcDbEntity
   8
LEVEL001
 370
13
 100
AcDbLine
   6
CONTINUOUS
  62
3
  10
 3083.6983716770
  20
 4895.2486590836
  30
0.0
  11
 3083.6983716770
  21
 4881.2486590836
  31
0.0
   0
LINE
   5
2C5
 100
AcDbEntity
   8
LEVEL001
 370
13
 100
AcDbLine
   6
DASHDOT
  62
6
  10
 2903.0013554274
  20
 4963.2486590836
  30
0.0
  11
 2903.0013554274
  21
 4933.2486590836
  31
0.0
   0
LINE
   5
2C6
 100
AcDbEntity
   8
LEVEL001
 370
13
 100
AcDbLine
   6
DASHDOT
  62
6
  10
 2888.0013554274
  20
 4948.2486590836
  30
0.0
  11
 2918.0013554274
  21
 4948.2486590836
  31
0.0
   0
LINE
   5
2C7
 100
AcDbEntity
   8
LEVEL001
 370
13
 100
AcDbLine
   6
DASHDOT
  62
6
  10
 2903.0013554274
  20
 4903.2486590836
  30
0.0
  11
 2903.0013554274
  21
 4873.2486590836
  31
0.0
   0
LINE
   5
2C8
 100
AcDbEntity
   8
LEVEL001
 370
13
 100
AcDbLine
   6
DASHDOT
  62
6
  10
 2888.0013554274
  20
 4888.2486590836
  30
0.0
  11
 2918.0013554274
  21
 4888.2486590836
  31
0.0
   0
LINE
   5
2C9
 100
AcDbEntity
   8
LEVEL001
 370
13
 100
AcDbLine
   6
CONTINUOUS
  62
3
  10
 2896.0013554274
  20
 4955.2486590836
  30
0.0
  11
 2910.0013554274
  21
 4955.2486590836
  31
0.0
   0
LINE
   5
2CA
 100
AcDbEntity
   8
LEVEL001
 370
13
 100
AcDbLine
   6
CONTINUOUS
  62
3
  10
 2910.0013554274
  20
 4955.2486590836
  30
0.0
  11
 2910.0013554274
  21
 4941.2486590836
  31
0.0
   0
LINE
   5
2CB
 100
AcDbEntity
   8
LEVEL001
 370
13
 100
AcDbLine
   6
CONTINUOUS
  62
3
  10
 2910.0013554274
  20
 4941.2486590836
  30
0.0
  11
 2896.0013554274
  21
 4941.2486590836
  31
0.0
   0
LINE
   5
2CC
 100
AcDbEntity
   8
LEVEL001
 370
13
 100
AcDbLine
   6
CONTINUOUS
  62
3
  10
 2896.0013554274
  20
 4941.2486590836
  30
0.0
  11
 2896.0013554274
  21
 4955.2486590836
  31
0.0
   0
LINE
   5
2CD
 100
AcDbEntity
   8
LEVEL001
 370
13
 100
AcDbLine
   6
CONTINUOUS
  62
3
  10
 2896.0013554274
  20
 4895.2486590836
  30
0.0
  11
 2910.0013554274
  21
 4895.2486590836
  31
0.0
   0
LINE
   5
2CE
 100
AcDbEntity
   8
LEVEL001
 370
13
 100
AcDbLine
   6
CONTINUOUS
  62
3
  10
 2910.0013554274
  20
 4895.2486590836
  30
0.0
  11
 2910.0013554274
  21
 4881.2486590836
  31
0.0
   0
LINE
   5
2CF
 100
AcDbEntity
   8
LEVEL001
 370
13
 100
AcDbLine
   6
CONTINUOUS
  62
3
  10
 2910.0013554274
  20
 4881.2486590836
  30
0.0
  11
 2896.0013554274
  21
 4881.2486590836
  31
0.0
   0
LINE
   5
2D0
 100
AcDbEntity
   8
LEVEL001
 370
13
 100
AcDbLine
   6
CONTINUOUS
  62
3
  10
 2896.0013554274
  20
 4881.2486590836
  30
0.0
  11
 2896.0013554274
  21
 4895.2486590836
  31
0.0
   0
ARC
   5
2D1
 100
AcDbEntity
   8
LEVEL001
 370
13
   6
CONTINUOUS
  62
3
 100
AcDbCircle
  10
 2903.0013554274
  20
 4948.2486590836
  30
0.0
  40
 52.000000000000
 100
AcDbArc
  50
 292.61986494804
  51
 325.00000000000
   0
ARC
   5
2D2
 100
AcDbEntity
   8
LEVEL001
 370
13
   6
CONTINUOUS
  62
3
 100
AcDbCircle
  10
 2903.0013554274
  20
 4948.2486590836
  30
0.0
  40
 68.000000000000
 100
AcDbArc
  50
 287.10463517664
  51
 325.00000000000
   0
LINE
   5
2D3
 100
AcDbEntity
   8
LEVEL001
 370
13
 100
AcDbLine
   6
CONTINUOUS
  62
7
  10
 2923.0013554274
  20
 4863.2486590836
  30
0.0
  11
 3110.6983716770
  21
 4863.2486590836
  31
0.0
   0
LINE
   5
2D4
 100
AcDbEntity
   8
LEVEL001
 370
13
 100
AcDbLine
   6
CONTINUOUS
  62
7
  10
 3110.6983716770
  20
 4863.2486590836
  30
0.0
  11
 3110.6983716770
  21
 4973.2486590836
  31
0.0
   0
LINE
   5
2D5
 100
AcDbEntity
   8
LEVEL001
 370
13
 100
AcDbLine
   6
CONTINUOUS
  62
7
  10
 3110.6983716770
  20
 4973.2486590836
  30
0.0
  11
 2923.0013554274
  21
 4973.2486590836
  31
0.0
   0
ARC
   5
2D6
 100
AcDbEntity
   8
LEVEL001
 370
13
   6
CONTINUOUS
  62
7
 100
AcDbCircle
  10
 2972.6470936238
  20
 3694.3896716878
  30
0.0
  40
 5.0000000000000
 100
AcDbArc
  50
 180.00164397080
  51
 201.80293588369
   0
LINE
   5
2D7
 100
AcDbEntity
   8
LEVEL001
 370
13
 100
AcDbLine
   6
CONTINUOUS
  62
7
  10
 2970.7186268290
  20
 3685.7479266618
  30
0.0
  11
 2968.0047596416
  21
 3692.5325946304
  31
0.0
   0
LINE
   5
2D8
 100
AcDbEntity
   8
LEVEL001
 370
13
 100
AcDbLine
   6
CONTINUOUS
  62
7
  10
 2970.7186268290
  20
 4285.7479266618
  30
0.0
  11
 2968.0047596416
  21
 4278.9630145524
  31
0.0
   0
ARC
   5
2D9
 100
AcDbEntity
   8
LEVEL001
 370
13
   6
CONTINUOUS
  62
7
 100
AcDbCircle
  10
 2972.6470936238
  20
 4277.1059374950
  30
0.0
  40
 5.0000000000000
 100
AcDbArc
  50
 158.19706411632
  51
 179.99835602920
   0
LINE
   5
2DA
 100
AcDbEntity
   8
LEVEL001
 370
13
 100
AcDbLine
   6
CONTINUOUS
  62
7
  10
 2967.6470936260
  20
 4277.1060809586
  30
0.0
  11
 2967.6470936260
  21
 3694.3895282242
  31
0.0
   0
LINE
   5
2DB
 100
AcDbEntity
   8
LEVEL001
 370
13
 100
AcDbLine
   6
CONTINUOUS
  62
6
  10
 2974.6470936260
  20
 3756.7479266618
  30
0.0
  11
 2974.6470936260
  21
 3755.7479266618
  31
0.0
   0
LINE
   5
2DC
 100
AcDbEntity
   8
LEVEL001
 370
13
 100
AcDbLine
   6
CONTINUOUS
  62
7
  10
 2975.1026600322
  20
 3770.7481708024
  30
0.0
  11
 2975.1031483134
  21
 3812.7481708024
  31
0.0
   0
LINE
   5
2DD
 100
AcDbEntity
   8
LEVEL001
 370
13
 100
AcDbLine
   6
CONTINUOUS
  62
6
  10
 2974.6470936260
  20
 4214.7479266618
  30
0.0
  11
 2974.6470936260
  21
 4215.7479266618
  31
0.0
   0
LINE
   5
2DE
 100
AcDbEntity
   8
LEVEL001
 370
13
 100
AcDbLine
   6
CONTINUOUS
  62
7
  10
 2975.1026600322
  20
 4200.7474383804
  30
0.0
  11
 2975.1031483134
  21
 4158.7476825212
  31
0.0
   0
ARC
   5
2DF
 100
AcDbEntity
   8
LEVEL001
 370
13
   6
CONTINUOUS
  62
7
 100
AcDbCircle
  10
 2966.6470936478
  20
 3701.5951160038
  30
0.0
  40
 5.0000000000000
 100
AcDbArc
  50
 338.20459713452
  51
 0.53503703775716E-2
   0
LINE
   5
2E0
 100
AcDbEntity
   8
LEVEL001
 370
13
 100
AcDbLine
   6
CONTINUOUS
  62
7
  10
 2969.4871815166
  20
 3695.2327899430
  30
0.0
  11
 2971.2896717510
  21
 3699.7386493180
  31
0.0
   0
ARC
   5
2E1
 100
AcDbEntity
   8
LEVEL001
 370
13
   6
CONTINUOUS
  62
7
 100
AcDbCircle
  10
 2974.1295728862
  20
 3693.3758563492
  30
0.0
  40
 5.0000000000000
 100
AcDbArc
  50
 158.19883473500
  51
 201.80116526499
   0
LINE
   5
2E2
 100
AcDbEntity
   8
LEVEL001
 370
13
 100
AcDbLine
   6
CONTINUOUS
  62
7
  10
 2970.7186268290
  20
 3685.7479266618
  30
0.0
  11
 2971.6470936260
  21
 3686.1192645524
  31
0.0
   0
LINE
   5
2E3
 100
AcDbEntity
   8
LEVEL001
 370
13
 100
AcDbLine
   6
CONTINUOUS
  62
7
  10
 2971.6470936260
  20
 3686.1192645524
  30
0.0
  11
 2969.4871815166
  21
 3691.5189227554
  31
0.0
   0
ARC
   5
2E4
 100
AcDbEntity
   8
LEVEL001
 370
13
   6
CONTINUOUS
  62
7
 100
AcDbCircle
  10
 2966.6470936478
  20
 4269.9007373196
  30
0.0
  40
 5.0000000000000
 100
AcDbArc
  50
 359.99464962961
  51
 21.795402865477
   0
LINE
   5
2E5
 100
AcDbEntity
   8
LEVEL001
 370
13
 100
AcDbLine
   6
CONTINUOUS
  62
7
  10
 2969.4871815166
  20
 4276.2628192398
  30
0.0
  11
 2971.2896717510
  21
 4271.7572040054
  31
0.0
   0
ARC
   5
2E6
 100
AcDbEntity
   8
LEVEL001
 370
13
   6
CONTINUOUS
  62
7
 100
AcDbCircle
  10
 2974.1295728862
  20
 4278.1197528336
  30
0.0
  40
 5.0000000000000
 100
AcDbArc
  50
 158.19883473499
  51
 201.80116526501
   0
LINE
   5
2E7
 100
AcDbEntity
   8
LEVEL001
 370
13
 100
AcDbLine
   6
CONTINUOUS
  62
7
  10
 2970.7186268290
  20
 4285.7479266618
  30
0.0
  11
 2971.6470936260
  21
 4285.3765887712
  31
0.0
   0
LINE
   5
2E8
 100
AcDbEntity
   8
LEVEL001
 370
13
 100
AcDbLine
   6
CONTINUOUS
  62
7
  10
 2971.6470936260
  20
 4285.3765887712
  30
0.0
  11
 2969.4871815166
  21
 4279.9766864274
  31
0.0
   0
LINE
   5
2E9
 100
AcDbEntity
   8
LEVEL001
 370
13
 100
AcDbLine
   6
CONTINUOUS
  62
7
  10
 2971.6470936260
  20
 4269.9002704118
  30
0.0
  11
 2971.6470936260
  21
 3701.5955829118
  31
0.0
   0
LINE
   5
2EA
 100
AcDbEntity
   8
LEVEL001
 370
13
 100
AcDbLine
   6
CONTINUOUS
  62
7
  10
 2974.6470936260
  20
 4215.7479266618
  30
0.0
  11
 2971.6470936260
  21
 4215.7479266618
  31
0.0
   0
LINE
   5
2EB
 100
AcDbEntity
   8
LEVEL001
 370
13
 100
AcDbLine
   6
CONTINUOUS
  62
6
  10
 2971.6470936260
  20
 4214.7479266618
  30
0.0
  11
 2974.6470936260
  21
 4214.7479266618
  31
0.0
   0
LINE
   5
2EC
 100
AcDbEntity
   8
LEVEL001
 370
13
 100
AcDbLine
   6
CONTINUOUS
  62
6
  10
 2974.6470936260
  20
 4143.7479266618
  30
0.0
  11
 2974.6470936260
  21
 4144.7479266618
  31
0.0
   0
LINE
   5
2ED
 100
AcDbEntity
   8
LEVEL001
 370
13
 100
AcDbLine
   6
CONTINUOUS
  62
6
  10
 2974.6470936260
  20
 4144.7479266618
  30
0.0
  11
 2971.6470936260
  21
 4144.7479266618
  31
0.0
   0
ELLIPSE
   5
2EE
 100
AcDbEntity
   8
LEVEL001
 370
13
   6
CONTINUOUS
  62
7
 100
AcDbEllipse
  10
 2971.1031483134
  20
 4158.7476825212
  30
0.0
  11
-4.0000023841858
  21
0.0
  31
0.0
  40
 0.99999940395391
  41
 1.7072035060234
  42
 3.1415925661669
   0
LINE
   5
2EF
 100
AcDbEntity
   8
LEVEL001
 370
13
 100
AcDbLine
   6
CONTINUOUS
  62
7
  10
 2971.6470936260
  20
 4143.7479266618
  30
0.0
  11
 2974.6470936260
  21
 4143.7479266618
  31
0.0
   0
ELLIPSE
   5
2F0
 100
AcDbEntity
   8
LEVEL001
 370
13
   6
CONTINUOUS
  62
7
 100
AcDbEllipse
  10
 2971.1026600322
  20
 4200.7476825212
  30
0.0
  11
-4.0000023841858
  21
0.0
  31
0.0
  40
 0.99999940395391
  41
 3.1415315309742
  42
-1.7073329211766
   0
LINE
   5
2F1
 100
AcDbEntity
   8
LEVEL001
 370
13
 100
AcDbLine
   6
CONTINUOUS
  62
7
  10
 2971.6470936260
  20
 3827.7479266618
  30
0.0
  11
 2974.6470936260
  21
 3827.7479266618
  31
0.0
   0
LINE
   5
2F2
 100
AcDbEntity
   8
LEVEL001
 370
13
 100
AcDbLine
   6
CONTINUOUS
  62
6
  10
 2974.6470936260
  20
 3827.7479266618
  30
0.0
  11
 2974.6470936260
  21
 3826.7479266618
  31
0.0
   0
LINE
   5
2F3
 100
AcDbEntity
   8
LEVEL001
 370
13
 100
AcDbLine
   6
CONTINUOUS
  62
6
  10
 2974.6470936260
  20
 3826.7479266618
  30
0.0
  11
 2971.6470936260
  21
 3826.7479266618
  31
0.0
   0
ELLIPSE
   5
2F4
 100
AcDbEntity
   8
LEVEL001
 370
13
   6
CONTINUOUS
  62
7
 100
AcDbEllipse
  10
 2971.1031483134
  20
 3812.7481708024
  30
0.0
  11
-4.0000023841858
  21
0.0
  31
0.0
  40
 0.99999940395391
  41
 3.1415925661669
  42
-1.7072119811164
   0
LINE
   5
2F5
 100
AcDbEntity
   8
LEVEL001
 370
13
 100
AcDbLine
   6
CONTINUOUS
  62
6
  10
 2971.6470936260
  20
 3756.7479266618
  30
0.0
  11
 2974.6470936260
  21
 3756.7479266618
  31
0.0
   0
ELLIPSE
   5
2F6
 100
AcDbEntity
   8
LEVEL001
 370
13
   6
CONTINUOUS
  62
7
 100
AcDbEllipse
  10
 2971.1026600322
  20
 3770.7481708024
  30
0.0
  11
-4.0000023841858
  21
0.0
  31
0.0
  40
 0.99999940395391
  41
 1.7073244389085
  42
 3.1415925661669
   0
LINE
   5
2F7
 100
AcDbEntity
   8
LEVEL001
 370
13
 100
AcDbLine
   6
CONTINUOUS
  62
7
  10
 2974.6470936260
  20
 3755.7479266618
  30
0.0
  11
 2971.6470936260
  21
 3755.7479266618
  31
0.0
   0
LINE
   5
2F8
 100
AcDbEntity
   8
LEVEL001
 370
13
 100
AcDbLine
   6
CONTINUOUS
  62
6
  10
 3071.4752186260
  20
 4163.2479266618
  30
0.0
  11
 3071.4752186260
  21
 4172.2479266618
  31
0.0
   0
LINE
   5
2F9
 100
AcDbEntity
   8
LEVEL001
 370
13
 100
AcDbLine
   6
CONTINUOUS
  62
6
  10
 3071.4752186260
  20
 4187.2479266618
  30
0.0
  11
 3071.4752186260
  21
 4196.2479266618
  31
0.0
   0
LINE
   5
2FA
 100
AcDbEntity
   8
LEVEL001
 370
13
 100
AcDbLine
   6
CONTINUOUS
  62
6
  10
 3073.7935780010
  20
 4173.2479266618
  30
0.0
  11
 3073.7935780010
  21
 4186.2479266618
  31
0.0
   0
LINE
   5
2FB
 100
AcDbEntity
   8
LEVEL001
 370
13
 100
AcDbLine
   6
CONTINUOUS
  62
6
  10
 2984.1334217510
  20
 4174.2479266618
  30
0.0
  11
 2984.1334217510
  21
 4185.2479266618
  31
0.0
   0
LINE
   5
2FC
 100
AcDbEntity
   8
LEVEL001
 370
13
 100
AcDbLine
   6
CONTINUOUS
  62
6
  10
 2984.1334217510
  20
 4187.2479266618
  30
0.0
  11
 2984.1334217510
  21
 4196.2479266618
  31
0.0
   0
LINE
   5
2FD
 100
AcDbEntity
   8
LEVEL001
 370
13
 100
AcDbLine
   6
CONTINUOUS
  62
6
  10
 2984.1334217510
  20
 4163.2479266618
  30
0.0
  11
 2984.1334217510
  21
 4172.2479266618
  31
0.0
   0
LINE
   5
2FE
 100
AcDbEntity
   8
LEVEL001
 370
13
 100
AcDbLine
   6
CONTINUOUS
  62
6
  10
 3071.4752186260
  20
 4186.2479266618
  30
0.0
  11
 2985.3944080790
  21
 4186.2479266618
  31
0.0
   0
LINE
   5
2FF
 100
AcDbEntity
   8
LEVEL001
 370
13
 100
AcDbLine
   6
CONTINUOUS
  62
6
  10
 2985.3944080790
  20
 4173.2479266618
  30
0.0
  11
 3071.4752186260
  21
 4173.2479266618
  31
0.0
   0
LINE
   5
300
 100
AcDbEntity
   8
LEVEL001
 370
13
 100
AcDbLine
   6
CONTINUOUS
  62
7
  10
 2975.1031483134
  20
 4161.2479266618
  30
0.0
  11
 3092.6470936260
  21
 4161.2479266618
  31
0.0
   0
LINE
   5
301
 100
AcDbEntity
   8
LEVEL001
 370
13
 100
AcDbLine
   6
CONTINUOUS
  62
7
  10
 3092.6470936260
  20
 4161.2479266618
  30
0.0
  11
 3092.6470936260
  21
 4198.2479266618
  31
0.0
   0
LINE
   5
302
 100
AcDbEntity
   8
LEVEL001
 370
13
 100
AcDbLine
   6
CONTINUOUS
  62
7
  10
 3092.6470936260
  20
 4198.2479266618
  30
0.0
  11
 2975.1026600322
  21
 4198.2479266618
  31
0.0
   0
LINE
   5
303
 100
AcDbEntity
   8
LEVEL001
 370
13
 100
AcDbLine
   6
CONTINUOUS
  62
6
  10
 3071.4752186260
  20
 3775.2479266618
  30
0.0
  11
 3071.4752186260
  21
 3784.2479266618
  31
0.0
   0
LINE
   5
304
 100
AcDbEntity
   8
LEVEL001
 370
13
 100
AcDbLine
   6
CONTINUOUS
  62
6
  10
 3071.4752186260
  20
 3799.2479266618
  30
0.0
  11
 3071.4752186260
  21
 3808.2479266618
  31
0.0
   0
LINE
   5
305
 100
AcDbEntity
   8
LEVEL001
 370
13
 100
AcDbLine
   6
CONTINUOUS
  62
6
  10
 3073.7935780010
  20
 3785.2479266618
  30
0.0
  11
 3073.7935780010
  21
 3798.2479266618
  31
0.0
   0
LINE
   5
306
 100
AcDbEntity
   8
LEVEL001
 370
13
 100
AcDbLine
   6
CONTINUOUS
  62
6
  10
 3071.4752186260
  20
 3798.2479266618
  30
0.0
  11
 2985.3944080790
  21
 3798.2479266618
  31
0.0
   0
LINE
   5
307
 100
AcDbEntity
   8
LEVEL001
 370
13
 100
AcDbLine
   6
CONTINUOUS
  62
6
  10
 2985.3944080790
  20
 3785.2479266618
  30
0.0
  11
 3071.4752186260
  21
 3785.2479266618
  31
0.0
   0
LINE
   5
308
 100
AcDbEntity
   8
LEVEL001
 370
13
 100
AcDbLine
   6
CONTINUOUS
  62
7
  10
 2975.1031483134
  20
 3773.2479266618
  30
0.0
  11
 3092.6470936260
  21
 3773.2479266618
  31
0.0
   0
LINE
   5
309
 100
AcDbEntity
   8
LEVEL001
 370
13
 100
AcDbLine
   6
CONTINUOUS
  62
7
  10
 3092.6470936260
  20
 3773.2479266618
  30
0.0
  11
 3092.6470936260
  21
 3810.2479266618
  31
0.0
   0
LINE
   5
30A
 100
AcDbEntity
   8
LEVEL001
 370
13
 100
AcDbLine
   6
CONTINUOUS
  62
7
  10
 3092.6470936260
  20
 3810.2479266618
  30
0.0
  11
 2975.1026600322
  21
 3810.2479266618
  31
0.0
   0
LINE
   5
30B
 100
AcDbEntity
   8
LEVEL001
 370
13
 100
AcDbLine
   6
CONTINUOUS
  62
6
  10
 2984.1334217510
  20
 3786.2479266618
  30
0.0
  11
 2984.1334217510
  21
 3797.2479266618
  31
0.0
   0
LINE
   5
30C
 100
AcDbEntity
   8
LEVEL001
 370
13
 100
AcDbLine
   6
CONTINUOUS
  62
6
  10
 2984.1334217510
  20
 3799.2479266618
  30
0.0
  11
 2984.1334217510
  21
 3808.2479266618
  31
0.0
   0
LINE
   5
30D
 100
AcDbEntity
   8
LEVEL001
 370
13
 100
AcDbLine
   6
CONTINUOUS
  62
6
  10
 2984.1334217510
  20
 3775.2479266618
  30
0.0
  11
 2984.1334217510
  21
 3784.2479266618
  31
0.0
   0
LINE
   5
30E
 100
AcDbEntity
   8
LEVEL001
 370
13
 100
AcDbLine
   6
CONTINUOUS
  62
7
  10
 2983.1483143290
  20
 4161.2479266618
  30
0.0
  11
 2983.1483143290
  21
 3810.2479266618
  31
0.0
   0
LINE
   5
30F
 100
AcDbEntity
   8
LEVEL001
 370
13
 100
AcDbLine
   6
CONTINUOUS
  62
7
  10
 3072.2484119854
  20
 3810.2479266618
  30
0.0
  11
 3072.2484119854
  21
 4161.2479266618
  31
0.0
   0
LINE
   5
310
 100
AcDbEntity
   8
LEVEL001
 370
13
 100
AcDbLine
   6
CONTINUOUS
  62
7
  10
 3077.6470936260
  20
 3786.7479266618
  30
0.0
  11
 3087.6470936260
  21
 3786.7479266618
  31
0.0
   0
LINE
   5
311
 100
AcDbEntity
   8
LEVEL001
 370
13
 100
AcDbLine
   6
CONTINUOUS
  62
7
  10
 3087.6470936260
  20
 3786.7479266618
  30
0.0
  11
 3087.6470936260
  21
 3796.7479266618
  31
0.0
   0
LINE
   5
312
 100
AcDbEntity
   8
LEVEL001
 370
13
 100
AcDbLine
   6
CONTINUOUS
  62
7
  10
 3087.6470936260
  20
 3796.7479266618
  30
0.0
  11
 3077.6470936260
  21
 3796.7479266618
  31
0.0
   0
LINE
   5
313
 100
AcDbEntity
   8
LEVEL001
 370
13
 100
AcDbLine
   6
CONTINUOUS
  62
7
  10
 3077.6470936260
  20
 3796.7479266618
  30
0.0
  11
 3077.6470936260
  21
 3786.7479266618
  31
0.0
   0
LINE
   5
314
 100
AcDbEntity
   8
LEVEL001
 370
13
 100
AcDbLine
   6
CONTINUOUS
  62
7
  10
 3077.6470936260
  20
 4174.7479266618
  30
0.0
  11
 3087.6470936260
  21
 4174.7479266618
  31
0.0
   0
LINE
   5
315
 100
AcDbEntity
   8
LEVEL001
 370
13
 100
AcDbLine
   6
CONTINUOUS
  62
7
  10
 3087.6470936260
  20
 4174.7479266618
  30
0.0
  11
 3087.6470936260
  21
 4184.7479266618
  31
0.0
   0
LINE
   5
316
 100
AcDbEntity
   8
LEVEL001
 370
13
 100
AcDbLine
   6
CONTINUOUS
  62
7
  10
 3087.6470936260
  20
 4184.7479266618
  30
0.0
  11
 3077.6470936260
  21
 4184.7479266618
  31
0.0
   0
LINE
   5
317
 100
AcDbEntity
   8
LEVEL001
 370
13
 100
AcDbLine
   6
CONTINUOUS
  62
7
  10
 3077.6470936260
  20
 4184.7479266618
  30
0.0
  11
 3077.6470936260
  21
 4174.7479266618
  31
0.0
   0
LINE
   5
318
 100
AcDbEntity
   8
LEVEL001
 370
13
 100
AcDbLine
   6
CONTINUOUS
  62
7
  10
 2983.1483143290
  20
 3773.2479266618
  30
0.0
  11
 2983.1483143290
  21
 785.74865908356
  31
0.0
   0
LINE
   5
319
 100
AcDbEntity
   8
LEVEL001
 370
13
 100
AcDbLine
   6
CONTINUOUS
  62
7
  10
 2983.1483143290
  20
 785.74865908356
  30
0.0
  11
 3072.2484119854
  21
 785.74865908356
  31
0.0
   0
LINE
   5
31A
 100
AcDbEntity
   8
LEVEL001
 370
13
 100
AcDbLine
   6
CONTINUOUS
  62
7
  10
 3072.2484119854
  20
 785.74865908356
  30
0.0
  11
 3072.2484119854
  21
 3773.2479266618
  31
0.0
   0
CIRCLE
   5
31B
 100
AcDbEntity
   8
LEVEL001
 370
13
 100
AcDbCircle
   6
CONTINUOUS
  62
7
  10
 3027.6983631572
  20
 1185.7486590836
  30
0.0
  40
 7.5000000000000
   0
LINE
   5
31C
 100
AcDbEntity
   8
LEVEL001
 370
13
 100
AcDbLine
   6
DASHDOT
  62
6
  10
 2997.6983631572
  20
 1185.7486590836
  30
0.0
  11
 3057.6983631572
  21
 1185.7486590836
  31
0.0
   0
LINE
   5
31D
 100
AcDbEntity
   8
LEVEL001
 370
13
 100
AcDbLine
   6
CONTINUOUS
  62
7
  10
 2983.1483143290
  20
 1093.2486590836
  30
0.0
  11
 2911.2984608134
  21
 1093.2486590836
  31
0.0
   0
LINE
   5
31E
 100
AcDbEntity
   8
LEVEL001
 370
13
 100
AcDbLine
   6
CONTINUOUS
  62
7
  10
 2911.2984608134
  20
 1093.2486590836
  30
0.0
  11
 2911.2984608134
  21
 1078.2486590836
  31
0.0
   0
LINE
   5
31F
 100
AcDbEntity
   8
LEVEL001
 370
13
 100
AcDbLine
   6
CONTINUOUS
  62
7
  10
 2911.2984608134
  20
 1078.2486590836
  30
0.0
  11
 2983.1483143290
  21
 1078.2486590836
  31
0.0
   0
LINE
   5
320
 100
AcDbEntity
   8
LEVEL001
 370
13
 100
AcDbLine
   6
CONTINUOUS
  62
7
  10
 3072.2484119854
  20
 1093.2486590836
  30
0.0
  11
 3144.0982655010
  21
 1093.2486590836
  31
0.0
   0
LINE
   5
321
 100
AcDbEntity
   8
LEVEL001
 370
13
 100
AcDbLine
   6
CONTINUOUS
  62
7
  10
 3144.0982655010
  20
 1093.2486590836
  30
0.0
  11
 3144.0982655010
  21
 1078.2486590836
  31
0.0
   0
LINE
   5
322
 100
AcDbEntity
   8
LEVEL001
 370
13
 100
AcDbLine
   6
CONTINUOUS
  62
7
  10
 3144.0982655010
  20
 1078.2486590836
  30
0.0
  11
 3072.2484119854
  21
 1078.2486590836
  31
0.0
   0
LINE
   5
323
 100
AcDbEntity
   8
LEVEL001
 370
13
 100
AcDbLine
   6
DASHDOT
  62
6
  10
 2961.2984608134
  20
 1085.7486590836
  30
0.0
  11
 3094.0982655010
  21
 1085.7486590836
  31
0.0
   0
LINE
   5
324
 100
AcDbEntity
   8
LEVEL001
 370
13
 100
AcDbLine
   6
DOT
  62
1
  10
 3072.2484119854
  20
 1078.2486590836
  30
0.0
  11
 2983.1483143290
  21
 1078.2486590836
  31
0.0
   0
LINE
   5
325
 100
AcDbEntity
   8
LEVEL001
 370
13
 100
AcDbLine
   6
DOT
  62
1
  10
 2983.1483143290
  20
 1093.2486590836
  30
0.0
  11
 3072.2484119854
  21
 1093.2486590836
  31
0.0
   0
CIRCLE
   5
326
 100
AcDbEntity
   8
LEVEL001
 370
13
 100
AcDbCircle
   6
CONTINUOUS
  62
1
  10
 2637.6983631572
  20
 935.74865908356
  30
0.0
  40
 70.000000000000
   0
LEADER
   5
327
 100
AcDbEntity
   8
LEVEL001
 370
13
   6
CONTINUOUS
  62
1
 100
AcDbLeader
   3
GMM002
  73
3
  74
1
  75
0
  40
 60.000000000000
  41
0.0
  76
2
  10
 2911.2984608134
  20
 1078.2486590836
  30
0.0
  10
 2699.7029125710
  20
 968.23613131500
  30
0.0
  77
1
   0
LEADER
   5
328
 100
AcDbEntity
   8
LEVEL001
 370
13
   6
CONTINUOUS
  62
1
 100
AcDbLeader
   3
GMM002
  73
3
  74
1
  75
0
  40
 60.000000000000
  41
0.0
  76
2
  10
 2787.9409673998
  20
 4511.6872415184
  30
0.0
  10
 2389.9487509640
  20
 4300.2625455368
  30
0.0
  77
1
   0
LEADER
   5
329
 100
AcDbEntity
   8
LEVEL001
 370
13
   6
CONTINUOUS
  62
1
 100
AcDbLeader
   3
GMM002
  73
3
  74
1
  75
0
  40
 60.000000000000
  41
0.0
  76
2
  10
 1646.8086963495
  20
 4399.2409726984
  30
0.0
  10
 1728.2008899497
  20
 4317.7461322920
  30
0.0
  77
1
   0
LEADER
   5
32A
 100
AcDbEntity
   8
LEVEL001
 370
13
   6
CONTINUOUS
  62
1
 100
AcDbLeader
   3
GMM002
  73
3
  74
1
  75
0
  40
 60.000000000000
  41
0.0
  76
2
  10
 1725.9026672391
  20
 5389.7858303048
  30
0.0
  10
 2259.5229680156
  20
 5512.3705230088
  30
0.0
  77
1
   0
LEADER
   5
32B
 100
AcDbEntity
   8
LEVEL001
 370
13
   6
CONTINUOUS
  62
1
 100
AcDbLeader
   3
GMM002
  73
3
  74
1
  75
0
  40
 60.000000000000
  41
0.0
  76
2
  10
 2739.8013554274
  20
 5377.0506927244
  30
0.0
  10
 2393.1299090486
  20
 5503.3747267410
  30
0.0
  77
1
   0
LEADER
   5
32C
 100
AcDbEntity
   8
LEVEL001
 370
13
   6
CONTINUOUS
  62
1
 100
AcDbLeader
   3
GMM002
  73
3
  74
1
  75
0
  40
 60.000000000000
  41
0.0
  76
2
  10
 2863.8387833466
  20
 4973.2486590836
  30
0.0
  10
 2876.3989001638
  20
 5458.2607236670
  30
0.0
  77
1
   0
LEADER
   5
32D
 100
AcDbEntity
   8
LEVEL001
 370
13
   6
CONTINUOUS
  62
1
 100
AcDbLeader
   3
GMM002
  73
3
  74
1
  75
0
  40
 60.000000000000
  41
0.0
  76
2
  10
 3027.6983631572
  20
 5189.7486590836
  30
0.0
  10
 3192.1142014924
  20
 5467.9679205462
  30
0.0
  77
1
   0
LEADER
   5
32E
 100
AcDbEntity
   8
LEVEL001
 370
13
   6
CONTINUOUS
  62
1
 100
AcDbLeader
   3
GMM002
  73
3
  74
1
  75
0
  40
 60.000000000000
  41
0.0
  76
2
  10
 3110.6983716770
  20
 4973.2486590836
  30
0.0
  10
 3356.2135125268
  20
 5465.4766765602
  30
0.0
  77
1
   0
LEADER
   5
32F
 100
AcDbEntity
   8
LEVEL001
 370
13
   6
CONTINUOUS
  62
1
 100
AcDbLeader
   3
GMM002
  73
3
  74
1
  75
0
  40
 60.000000000000
  41
0.0
  76
2
  10
 3092.6470936260
  20
 3810.2479266618
  30
0.0
  10
 3166.6441824040
  20
 3851.5085216342
  30
0.0
  77
1
   0
LINE
   5
330
 100
AcDbEntity
   8
LEVEL001
 370
13
 100
AcDbLine
   6
CONTINUOUS
  62
7
  10
 8127.6983631572
  20
 5768.2486590836
  30
0.0
  11
 327.69836315715
  21
 5768.2486590836
  31
0.0
   0
LINE
   5
331
 100
AcDbEntity
   8
LEVEL001
 370
13
 100
AcDbLine
   6
CONTINUOUS
  62
7
  10
 327.69836315715
  20
 5768.2486590836
  30
0.0
  11
 327.69836315715
  21
 268.24865908356
  31
0.0
   0
LINE
   5
332
 100
AcDbEntity
   8
LEVEL001
 370
13
 100
AcDbLine
   6
CONTINUOUS
  62
7
  10
 327.69836315715
  20
 268.24865908356
  30
0.0
  11
 8127.6983631572
  21
 268.24865908356
  31
0.0
   0
LINE
   5
333
 100
AcDbEntity
   8
LEVEL001
 370
13
 100
AcDbLine
   6
CONTINUOUS
  62
7
  10
 8127.6983631572
  20
 268.24865908356
  30
0.0
  11
 8127.6983631572
  21
 5768.2486590836
  31
0.0
   0
MTEXT
   5
334
 100
AcDbEntity
   8
LEVEL001
 370
13
  62
1
 100
AcDbMText
  10
 1777.6983631572
  20
 3885.7486590836
  30
0.0
  40
 57.142857142858
  41
0.0
  71
5
  72
1
   1
\T1.000000;12
   7
GMM001
  44
 0.79999984000003
   0
MTEXT
   5
335
 100
AcDbEntity
   8
LEVEL001
 370
13
  62
1
 100
AcDbMText
  10
 2637.6983631572
  20
 935.74865908356
  30
0.0
  40
 57.142857142858
  41
0.0
  71
5
  72
1
   1
\T1.000000;10
   7
GMM001
  44
 0.79999984000003
   0
MTEXT
   5
336
 100
AcDbEntity
   8
LEVEL001
 370
13
  62
1
 100
AcDbMText
  10
 7367.6983631572
  20
 1868.2486590836
  30
0.0
  40
 51.428571428572
  41
0.0
  71
4
  72
1
   1
\T1.000000;静電粉体塗装
   7
GMM001
  44
 0.79999984000003
   0
MTEXT
   5
337
 100
AcDbEntity
   8
LEVEL001
 370
13
  62
1
 100
AcDbMText
  10
 6807.6983631572
  20
 1868.2486590836
  30
0.0
  40
 51.428571428572
  41
0.0
  71
4
  72
1
   1
\T1.000000;ＳＴＫ４００
   7
GMM001
  44
 0.79999984000003
   0
MTEXT
   5
338
 100
AcDbEntity
   8
LEVEL001
 370
13
  62
1
 100
AcDbMText
  10
 6739.6983631572
  20
 1868.2486590836
  30
0.0
  40
 51.428571428572
  41
0.0
  71
6
  72
1
   1
\T1.000000;１
   7
GMM001
  44
 0.79999984000003
   0
MTEXT
   5
339
 100
AcDbEntity
   8
LEVEL001
 370
13
  62
1
 100
AcDbMText
  10
 5727.6983631572
  20
 1868.2486590836
  30
0.0
  40
 51.428571428572
  41
0.0
  71
4
  72
1
   1
\T1.000000;支柱
   7
GMM001
  44
 0.79999984000003
   0
MTEXT
   5
33A
 100
AcDbEntity
   8
LEVEL001
 370
13
  62
1
 100
AcDbMText
  10
 6739.6983631572
  20
 2228.2486590836
  30
0.0
  40
 51.428571428572
  41
0.0
  71
6
  72
1
   1
\T1.000000;１
   7
GMM001
  44
 0.79999984000003
   0
MTEXT
   5
33B
 100
AcDbEntity
   8
LEVEL001
 370
13
  62
1
 100
AcDbMText
  10
 6739.6983631572
  20
 2348.2486590836
  30
0.0
  40
 51.428571428572
  41
0.0
  71
6
  72
1
   1
\T1.000000;１
   7
GMM001
  44
 0.79999984000003
   0
MTEXT
   5
33C
 100
AcDbEntity
   8
LEVEL001
 370
13
  62
1
 100
AcDbMText
  10
 6739.6983631572
  20
 2468.2486590836
  30
0.0
  40
 51.428571428572
  41
0.0
  71
6
  72
1
   1
\T1.000000;１
   7
GMM001
  44
 0.79999984000003
   0
MTEXT
   5
33D
 100
AcDbEntity
   8
LEVEL001
 370
13
  62
1
 100
AcDbMText
  10
 6739.6983631572
  20
 2588.2486590836
  30
0.0
  40
 51.428571428572
  41
0.0
  71
6
  72
1
   1
\T1.000000;１
   7
GMM001
  44
 0.79999984000003
   0
MTEXT
   5
33E
 100
AcDbEntity
   8
LEVEL001
 370
13
  62
1
 100
AcDbMText
  10
 6739.6983631572
  20
 2708.2486590836
  30
0.0
  40
 51.428571428572
  41
0.0
  71
6
  72
1
   1
\T1.000000;１
   7
GMM001
  44
 0.79999984000003
   0
MTEXT
   5
33F
 100
AcDbEntity
   8
LEVEL001
 370
13
  62
1
 100
AcDbMText
  10
 6739.6983631572
  20
 2828.2486590836
  30
0.0
  40
 51.428571428572
  41
0.0
  71
6
  72
1
   1
\T1.000000;１
   7
GMM001
  44
 0.79999984000003
   0
MTEXT
   5
340
 100
AcDbEntity
   8
LEVEL001
 370
13
  62
1
 100
AcDbMText
  10
 6739.6983631572
  20
 2108.2486590836
  30
0.0
  40
 51.428571428572
  41
0.0
  71
6
  72
1
   1
\T1.000000;６
   7
GMM001
  44
 0.79999984000003
   0
MTEXT
   5
341
 100
AcDbEntity
   8
LEVEL001
 370
13
  62
1
 100
AcDbMText
  10
 6739.6983631572
  20
 1988.2486590836
  30
0.0
  40
 51.428571428572
  41
0.0
  71
6
  72
1
   1
\T1.000000;４
   7
GMM001
  44
 0.79999984000003
   0
LINE
   5
342
 100
AcDbEntity
   8
LEVEL001
 370
13
 100
AcDbLine
   6
DASHDOT
  62
6
  10
 1527.6983631572
  20
 5493.2486590836
  30
0.0
  11
 1527.6983631572
  21
 685.74865908356
  31
0.0
   0
LINE
   5
343
 100
AcDbEntity
   8
LEVEL001
 370
13
 100
AcDbLine
   6
DASHDOT
  62
6
  10
 3027.6983631572
  20
 5239.7486590836
  30
0.0
  11
 3027.6983631572
  21
 685.74865908356
  31
0.0
   0
CIRCLE
   5
344
 100
AcDbEntity
   8
LEVEL001
 370
13
 100
AcDbCircle
   6
CONTINUOUS
  62
1
  10
 1771.4484119853
  20
 2685.7486590836
  30
0.0
  40
 69.999997913838
   0
LEADER
   5
345
 100
AcDbEntity
   8
LEVEL001
 370
13
   6
CONTINUOUS
  62
1
 100
AcDbLeader
   3
GMM002
  73
3
  74
1
  75
0
  40
 60.000000000000
  41
0.0
  76
2
  10
 1572.2484119853
  20
 2560.7486590836
  30
0.0
  10
 1712.3281489148
  20
 2648.2680747442
  30
0.0
  77
1
   0
MTEXT
   5
346
 100
AcDbEntity
   8
LEVEL001
 370
13
  62
1
 100
AcDbMText
  10
 1771.4484119853
  20
 2685.7486590836
  30
0.0
  40
 57.142857142858
  41
0.0
  71
5
  72
1
   1
\T1.000000;9
   7
GMM001
  44
 0.79999984000003
   0
MTEXT
   5
347
 100
AcDbEntity
   8
LEVEL001
 370
13
  62
1
 100
AcDbMText
  10
 5587.6983631572
  20
 3128.2486590836
  30
0.0
  40
 57.142857142858
  41
0.0
  71
4
  72
1
   1
%%c\T1.000000;１０００（シングル）
   7
GMM001
  44
 0.79999984000003
   0
MTEXT
   5
348
 100
AcDbEntity
   8
LEVEL001
 370
13
  62
1
 100
AcDbMText
  10
 4827.6983631572
  20
 5668.2486590836
  30
0.0
  40
 57.142857142858
  41
0.0
  71
5
  72
1
   1
\T1.000000;背　面　図
   7
GMM001
  44
 0.79999984000003
   0
MTEXT
   5
349
 100
AcDbEntity
   8
LEVEL001
 370
13
  62
1
 100
AcDbMText
  10
 1527.6983631572
  20
 5668.2486590836
  30
0.0
  40
 57.142857142858
  41
0.0
  71
5
  72
1
   1
\T1.000000;正　面　図
   7
GMM001
  44
 0.79999984000003
   0
MTEXT
   5
34A
 100
AcDbEntity
   8
LEVEL001
 370
13
  62
1
 100
AcDbMText
  10
 3027.6983631572
  20
 5668.2486590836
  30
0.0
  40
 57.142857142858
  41
0.0
  71
5
  72
1
   1
\T1.000000;側　面　図
   7
GMM001
  44
 0.79999984000003
   0
MTEXT
   5
34B
 100
AcDbEntity
   8
LEVEL001
 370
13
  62
1
 100
AcDbMText
  10
 5587.6983631572
  20
 3288.2486590836
  30
0.0
  40
 57.142857142858
  41
0.0
  71
4
  72
1
   1
\T1.000000;ステンレスミラー　＜Ｚタイプ＞
   7
GMM001
  44
 0.79999984000003
   0
MTEXT
   5
34C
 100
AcDbEntity
   8
LEVEL001
 370
13
  62
1
 100
AcDbMText
  10
 6807.6983631572
  20
 2708.2486590836
  30
0.0
  40
 51.428571428572
  41
0.0
  71
4
  72
1
   1
\T1.000000;高耐食溶融めっき鋼板
   7
GMM004
  44
 0.79999984000003
   0
LEADER
   5
34D
 100
AcDbEntity
   8
LEVEL001
 370
13
   6
CONTINUOUS
  62
1
 100
AcDbLeader
   3
GMM002
  73
3
  74
1
  75
0
  40
 60.000000000000
  41
0.0
  76
2
  10
 1617.6979969462
  20
 3985.7486590836
  30
0.0
  10
 1718.1372149823
  20
 3922.5245972510
  30
0.0
  77
1
   0
MTEXT
   5
34E
 100
AcDbEntity
   8
LEVEL001
 370
13
  62
1
 100
AcDbMText
  10
 5659.6983631572
  20
 1148.2486590836
  30
0.0
  40
 51.428571428572
  41
0.0
  71
6
  72
1
   1
\T1.000000;１４
   7
GMM001
  44
 0.79999984000003
   0
MTEXT
   5
34F
 100
AcDbEntity
   8
LEVEL001
 370
13
  62
1
 100
AcDbMText
  10
 5659.6983631572
  20
 1268.2486590836
  30
0.0
  40
 51.428571428572
  41
0.0
  71
6
  72
1
   1
\T1.000000;１３
   7
GMM001
  44
 0.79999984000003
   0
MTEXT
   5
350
 100
AcDbEntity
   8
LEVEL001
 370
13
  62
1
 100
AcDbMText
  10
 5659.6983631572
  20
 1388.2486590836
  30
0.0
  40
 51.428571428572
  41
0.0
  71
6
  72
1
   1
\T1.000000;１２
   7
GMM001
  44
 0.79999984000003
   0
MTEXT
   5
351
 100
AcDbEntity
   8
LEVEL001
 370
13
  62
1
 100
AcDbMText
  10
 5659.6983631572
  20
 1508.2486590836
  30
0.0
  40
 51.428571428572
  41
0.0
  71
6
  72
1
   1
\T1.000000;１１
   7
GMM001
  44
 0.79999984000003
   0
MTEXT
   5
352
 100
AcDbEntity
   8
LEVEL001
 370
13
  62
1
 100
AcDbMText
  10
 5659.6983631572
  20
 1628.2486590836
  30
0.0
  40
 51.428571428572
  41
0.0
  71
6
  72
1
   1
\T1.000000;１０
   7
GMM001
  44
 0.79999984000003
   0
MTEXT
   5
353
 100
AcDbEntity
   8
LEVEL001
 370
13
  62
1
 100
AcDbMText
  10
 5727.6983631572
  20
 1148.2486590836
  30
0.0
  40
 51.428571428572
  41
0.0
  71
4
  72
1
   1
\T1.000000;同上ボルトナット
   7
GMM001
  44
 0.79999984000003
   0
MTEXT
   5
354
 100
AcDbEntity
   8
LEVEL001
 370
13
  62
1
 100
AcDbMText
  10
 5727.6983631572
  20
 1268.2486590836
  30
0.0
  40
 51.428571428572
  41
0.0
  71
4
  72
1
   1
\T1.000000;注意板取付バンド
   7
GMM001
  44
 0.79999984000003
   0
MTEXT
   5
355
 100
AcDbEntity
   8
LEVEL001
 370
13
  62
1
 100
AcDbMText
  10
 5727.6983631572
  20
 1508.2486590836
  30
0.0
  40
 51.428571428572
  41
0.0
  71
4
  72
1
   1
\T1.000000;キャップ
   7
GMM001
  44
 0.79999984000003
   0
MTEXT
   5
356
 100
AcDbEntity
   8
LEVEL001
 370
13
  62
1
 100
AcDbMText
  10
 5727.6983631572
  20
 1628.2486590836
  30
0.0
  40
 51.428571428572
  41
0.0
  71
4
  72
1
   1
\T1.000000;根入れ鉄筋
   7
GMM001
  44
 0.79999984000003
   0
MTEXT
   5
357
 100
AcDbEntity
   8
LEVEL001
 370
13
  62
1
 100
AcDbMText
  10
 6739.6983631572
  20
 1388.2486590836
  30
0.0
  40
 51.428571428572
  41
0.0
  71
6
  72
1
   1
\T1.000000;１
   7
GMM001
  44
 0.79999984000003
   0
MTEXT
   5
358
 100
AcDbEntity
   8
LEVEL001
 370
13
  62
1
 100
AcDbMText
  10
 6739.6983631572
  20
 1508.2486590836
  30
0.0
  40
 51.428571428572
  41
0.0
  71
6
  72
1
   1
\T1.000000;１
   7
GMM001
  44
 0.79999984000003
   0
MTEXT
   5
359
 100
AcDbEntity
   8
LEVEL001
 370
13
  62
1
 100
AcDbMText
  10
 6739.6983631572
  20
 1628.2486590836
  30
0.0
  40
 51.428571428572
  41
0.0
  71
6
  72
1
   1
\T1.000000;２
   7
GMM001
  44
 0.79999984000003
   0
MTEXT
   5
35A
 100
AcDbEntity
   8
LEVEL001
 370
13
  62
1
 100
AcDbMText
  10
 6817.6983631572
  20
 1505.3958744753
  30
0.0
  40
 51.428571428572
  41
0.0
  71
4
  72
1
   1
\T1.000000;ＰＥ
   7
GMM001
  44
 0.79999984000003
   0
MTEXT
   5
35B
 100
AcDbEntity
   8
LEVEL001
 370
13
  62
1
 100
AcDbMText
  10
 6807.6983631572
  20
 1628.2486590836
  30
0.0
  40
 51.428571428572
  41
0.0
  71
4
  72
1
   1
\T1.000000;ＳＤ２９５Ａ
   7
GMM001
  44
 0.79999984000003
   0
MTEXT
   5
35C
 100
AcDbEntity
   8
LEVEL001
 370
13
  62
1
 100
AcDbMText
  10
 7367.6983631572
  20
 2761.8864171725
  30
0.0
  40
 34.285714285714
  41
0.0
  71
1
  72
1
   1
{\T1.000000;ＺＡＭ処理鋼板}\P{\T1.000000;プレス成型}
   7
GMM005
  44
 1.0099997980000
   0
LINE
   5
35D
 100
AcDbEntity
   8
LEVEL001
 370
13
 100
AcDbLine
   6
CONTINUOUS
  62
5
  10
 1838.3785580038
  20
 1885.7486590835
  30
0.0
  11
 1785.8785580038
  21
 1833.2486590835
  31
0.0
   0
LINE
   5
35E
 100
AcDbEntity
   8
LEVEL001
 370
13
 100
AcDbLine
   6
CONTINUOUS
  62
5
  10
 1801.7884605799
  20
 1833.2486590835
  30
0.0
  11
 1854.2884605799
  21
 1885.7486590835
  31
0.0
   0
LINE
   5
35F
 100
AcDbEntity
   8
LEVEL001
 370
13
 100
AcDbLine
   6
CONTINUOUS
  62
5
  10
 1870.1983631575
  20
 1885.7486590835
  30
0.0
  11
 1817.6983631575
  21
 1833.2486590835
  31
0.0
   0
LINE
   5
360
 100
AcDbEntity
   8
LEVEL001
 370
13
 100
AcDbLine
   6
CONTINUOUS
  62
5
  10
 1833.6082657335
  20
 1833.2486590835
  30
0.0
  11
 1886.1082657335
  21
 1885.7486590835
  31
0.0
   0
LINE
   5
361
 100
AcDbEntity
   8
LEVEL001
 370
13
 100
AcDbLine
   6
CONTINUOUS
  62
5
  10
 1890.8785580041
  20
 1833.2486590835
  30
0.0
  11
 1862.2434118688
  21
 1861.8838052188
  31
0.0
   0
LINE
   5
362
 100
AcDbEntity
   8
LEVEL001
 370
13
 100
AcDbLine
   6
CONTINUOUS
  62
5
  10
 1870.1983631570
  20
 1869.8387565070
  30
0.0
  11
 1906.7884605805
  21
 1833.2486590835
  31
0.0
   0
LINE
   5
363
 100
AcDbEntity
   8
LEVEL001
 370
13
 100
AcDbLine
   6
CONTINUOUS
  62
5
  10
 1922.6983631570
  20
 1833.2486590835
  30
0.0
  11
 1878.1533144453
  21
 1877.7937077952
  31
0.0
   0
LINE
   5
364
 100
AcDbEntity
   8
LEVEL001
 370
13
 100
AcDbLine
   6
CONTINUOUS
  62
5
  10
 1886.1082657335
  20
 1885.7486590835
  30
0.0
  11
 1938.6082657337
  21
 1833.2486590835
  31
0.0
   0
LINE
   5
365
 100
AcDbEntity
   8
LEVEL001
 370
13
 100
AcDbLine
   6
CONTINUOUS
  62
5
  10
 1938.6082657337
  20
 1833.2486590835
  30
0.0
  11
 1991.1082657338
  21
 1885.7486590835
  31
0.0
   0
LINE
   5
366
 100
AcDbEntity
   8
LEVEL001
 370
13
 100
AcDbLine
   6
CONTINUOUS
  62
5
  10
 1943.3785580040
  20
 1885.7486590835
  30
0.0
  11
 1914.7434118688
  21
 1857.1135129483
  31
0.0
   0
LINE
   5
367
 100
AcDbEntity
   8
LEVEL001
 370
13
 100
AcDbLine
   6
CONTINUOUS
  62
5
  10
 1922.6983631569
  20
 1849.1585616603
  30
0.0
  11
 1959.2884605802
  21
 1885.7486590835
  31
0.0
   0
LINE
   5
368
 100
AcDbEntity
   8
LEVEL001
 370
13
 100
AcDbLine
   6
CONTINUOUS
  62
5
  10
 1975.1983631578
  20
 1885.7486590835
  30
0.0
  11
 1930.6533144457
  21
 1841.2036103715
  31
0.0
   0
LINE
   5
369
 100
AcDbEntity
   8
LEVEL001
 370
13
 100
AcDbLine
   6
CONTINUOUS
  62
5
  10
 1995.8785580044
  20
 1833.2486590835
  30
0.0
  11
 1967.2434118690
  21
 1861.8838052188
  31
0.0
   0
LINE
   5
36A
 100
AcDbEntity
   8
LEVEL001
 370
13
 100
AcDbLine
   6
CONTINUOUS
  62
5
  10
 1975.1983631572
  20
 1869.8387565070
  30
0.0
  11
 2011.7884605808
  21
 1833.2486590835
  31
0.0
   0
LINE
   5
36B
 100
AcDbEntity
   8
LEVEL001
 370
13
 100
AcDbLine
   6
CONTINUOUS
  62
5
  10
 2027.6983631572
  20
 1833.2486590835
  30
0.0
  11
 1983.1533144454
  21
 1877.7937077952
  31
0.0
   0
LINE
   5
36C
 100
AcDbEntity
   8
LEVEL001
 370
13
 100
AcDbLine
   6
CONTINUOUS
  62
5
  10
 1991.1082657338
  20
 1885.7486590835
  30
0.0
  11
 2027.6983631572
  21
 1849.1585616602
  31
0.0
   0
LINE
   5
36D
 100
AcDbEntity
   8
LEVEL001
 370
13
 100
AcDbLine
   6
CONTINUOUS
  62
5
  10
 1777.6983631572
  20
 785.74865908356
  30
0.0
  11
 1727.6983631572
  21
 685.74865908356
  31
0.0
   0
LINE
   5
36E
 100
AcDbEntity
   8
LEVEL001
 370
13
 100
AcDbLine
   6
CONTINUOUS
  62
5
  10
 1727.6983631572
  20
 785.74865908356
  30
0.0
  11
 1767.6983631572
  21
 765.74865908356
  31
0.0
   0
LINE
   5
36F
 100
AcDbEntity
   8
LEVEL001
 370
13
 100
AcDbLine
   6
CONTINUOUS
  62
5
  10
 1777.6983631572
  20
 685.74865908356
  30
0.0
  11
 1737.6983631572
  21
 705.74865908356
  31
0.0
   0
LINE
   5
370
 100
AcDbEntity
   8
LEVEL001
 370
13
 100
AcDbLine
   6
CONTINUOUS
  62
5
  10
 1777.6983631572
  20
 785.74865908356
  30
0.0
  11
 1277.6983631572
  21
 785.74865908356
  31
0.0
   0
LINE
   5
371
 100
AcDbEntity
   8
LEVEL001
 370
13
 100
AcDbLine
   6
CONTINUOUS
  62
5
  10
 1277.6983631572
  20
 685.74865908356
  30
0.0
  11
 1777.6983631572
  21
 685.74865908356
  31
0.0
   0
LINE
   5
372
 100
AcDbEntity
   8
LEVEL001
 370
13
 100
AcDbLine
   6
CONTINUOUS
  62
5
  10
 1777.6983631572
  20
 685.74865908356
  30
0.0
  11
 1777.6983631572
  21
 785.74865908356
  31
0.0
   0
LINE
   5
373
 100
AcDbEntity
   8
LEVEL001
 370
13
 100
AcDbLine
   6
CONTINUOUS
  62
5
  10
 1777.6983631572
  20
 1671.1039981429
  30
0.0
  11
 1572.2484119853
  21
 1465.6540469711
  31
0.0
   0
LINE
   5
374
 100
AcDbEntity
   8
LEVEL001
 370
13
 100
AcDbLine
   6
CONTINUOUS
  62
5
  10
 1572.2484119853
  20
 1430.2987079117
  30
0.0
  11
 1777.6983631572
  21
 1635.7486590836
  31
0.0
   0
LINE
   5
375
 100
AcDbEntity
   8
LEVEL001
 370
13
 100
AcDbLine
   6
CONTINUOUS
  62
5
  10
 1777.6983631572
  20
 1600.3933200243
  30
0.0
  11
 1572.2484119853
  21
 1394.9433688524
  31
0.0
   0
LINE
   5
376
 100
AcDbEntity
   8
LEVEL001
 370
13
 100
AcDbLine
   6
CONTINUOUS
  62
5
  10
 1277.6983631572
  20
 785.74865908356
  30
0.0
  11
 1777.6983631572
  21
 785.74865908356
  31
0.0
   0
LINE
   5
377
 100
AcDbEntity
   8
LEVEL001
 370
13
 100
AcDbLine
   6
CONTINUOUS
  62
5
  10
 1777.6983631572
  20
 785.74865908356
  30
0.0
  11
 1777.6983631572
  21
 1885.7486590836
  31
0.0
   0
LINE
   5
378
 100
AcDbEntity
   8
LEVEL001
 370
13
 100
AcDbLine
   6
CONTINUOUS
  62
5
  10
 1572.2484119853
  20
 1885.7486590835
  30
0.0
  11
 2027.6983631572
  21
 1885.7486590835
  31
0.0
   0
LINE
   5
379
 100
AcDbEntity
   8
LEVEL001
 370
13
 100
AcDbLine
   6
CONTINUOUS
  62
5
  10
 1727.6983631572
  20
 785.74865908356
  30
0.0
  11
 1677.6983631572
  21
 685.74865908356
  31
0.0
   0
LINE
   5
37A
 100
AcDbEntity
   8
LEVEL001
 370
13
 100
AcDbLine
   6
CONTINUOUS
  62
5
  10
 1677.6983631572
  20
 785.74865908356
  30
0.0
  11
 1717.6983631572
  21
 765.74865908356
  31
0.0
   0
LINE
   5
37B
 100
AcDbEntity
   8
LEVEL001
 370
13
 100
AcDbLine
   6
CONTINUOUS
  62
5
  10
 1677.6983631572
  20
 785.74865908356
  30
0.0
  11
 1627.6983631572
  21
 685.74865908356
  31
0.0
   0
LINE
   5
37C
 100
AcDbEntity
   8
LEVEL001
 370
13
 100
AcDbLine
   6
CONTINUOUS
  62
5
  10
 1627.6983631572
  20
 785.74865908356
  30
0.0
  11
 1667.6983631572
  21
 765.74865908356
  31
0.0
   0
LINE
   5
37D
 100
AcDbEntity
   8
LEVEL001
 370
13
 100
AcDbLine
   6
CONTINUOUS
  62
5
  10
 1727.6983631572
  20
 685.74865908356
  30
0.0
  11
 1687.6983631572
  21
 705.74865908356
  31
0.0
   0
LINE
   5
37E
 100
AcDbEntity
   8
LEVEL001
 370
13
 100
AcDbLine
   6
CONTINUOUS
  62
5
  10
 1677.6983631572
  20
 685.74865908356
  30
0.0
  11
 1637.6983631572
  21
 705.74865908356
  31
0.0
   0
LINE
   5
37F
 100
AcDbEntity
   8
LEVEL001
 370
13
 100
AcDbLine
   6
CONTINUOUS
  62
5
  10
 1427.6983631572
  20
 785.74865908356
  30
0.0
  11
 1377.6983631572
  21
 685.74865908356
  31
0.0
   0
LINE
   5
380
 100
AcDbEntity
   8
LEVEL001
 370
13
 100
AcDbLine
   6
CONTINUOUS
  62
5
  10
 1377.6983631572
  20
 785.74865908356
  30
0.0
  11
 1417.6983631572
  21
 765.74865908356
  31
0.0
   0
LINE
   5
381
 100
AcDbEntity
   8
LEVEL001
 370
13
 100
AcDbLine
   6
CONTINUOUS
  62
5
  10
 1377.6983631572
  20
 785.74865908356
  30
0.0
  11
 1327.6983631572
  21
 685.74865908356
  31
0.0
   0
LINE
   5
382
 100
AcDbEntity
   8
LEVEL001
 370
13
 100
AcDbLine
   6
CONTINUOUS
  62
5
  10
 1327.6983631572
  20
 785.74865908356
  30
0.0
  11
 1367.6983631572
  21
 765.74865908356
  31
0.0
   0
LINE
   5
383
 100
AcDbEntity
   8
LEVEL001
 370
13
 100
AcDbLine
   6
CONTINUOUS
  62
5
  10
 1327.6983631572
  20
 785.74865908356
  30
0.0
  11
 1277.6983631572
  21
 685.74865908356
  31
0.0
   0
LINE
   5
384
 100
AcDbEntity
   8
LEVEL001
 370
13
 100
AcDbLine
   6
CONTINUOUS
  62
5
  10
 1277.6983631572
  20
 785.74865908356
  30
0.0
  11
 1317.6983631572
  21
 765.74865908356
  31
0.0
   0
LINE
   5
385
 100
AcDbEntity
   8
LEVEL001
 370
13
 100
AcDbLine
   6
CONTINUOUS
  62
5
  10
 1427.6983631572
  20
 685.74865908356
  30
0.0
  11
 1387.6983631572
  21
 705.74865908356
  31
0.0
   0
LINE
   5
386
 100
AcDbEntity
   8
LEVEL001
 370
13
 100
AcDbLine
   6
CONTINUOUS
  62
5
  10
 1377.6983631572
  20
 685.74865908356
  30
0.0
  11
 1337.6983631572
  21
 705.74865908356
  31
0.0
   0
LINE
   5
387
 100
AcDbEntity
   8
LEVEL001
 370
13
 100
AcDbLine
   6
CONTINUOUS
  62
5
  10
 1327.6983631572
  20
 685.74865908356
  30
0.0
  11
 1287.6983631572
  21
 705.74865908356
  31
0.0
   0
LINE
   5
388
 100
AcDbEntity
   8
LEVEL001
 370
13
 100
AcDbLine
   6
CONTINUOUS
  62
5
  10
 1277.6983631572
  20
 785.74865908356
  30
0.0
  11
 1277.6983631572
  21
 685.74865908356
  31
0.0
   0
LINE
   5
389
 100
AcDbEntity
   8
LEVEL001
 370
13
 100
AcDbLine
   6
CONTINUOUS
  62
5
  10
 1277.6983631572
  20
 1885.7486590836
  30
0.0
  11
 1277.6983631572
  21
 785.74865908356
  31
0.0
   0
LINE
   5
38A
 100
AcDbEntity
   8
LEVEL001
 370
13
 100
AcDbLine
   6
CONTINUOUS
  62
5
  10
 1188.6082657337
  20
 1833.2486590835
  30
0.0
  11
 1241.1082657337
  21
 1885.7486590835
  31
0.0
   0
LINE
   5
38B
 100
AcDbEntity
   8
LEVEL001
 370
13
 100
AcDbLine
   6
CONTINUOUS
  62
5
  10
 1172.6983631569
  20
 1849.1585616603
  30
0.0
  11
 1209.2884605801
  21
 1885.7486590835
  31
0.0
   0
LINE
   5
38C
 100
AcDbEntity
   8
LEVEL001
 370
13
 100
AcDbLine
   6
CONTINUOUS
  62
5
  10
 1225.1983631577
  20
 1885.7486590835
  30
0.0
  11
 1180.6533144457
  21
 1841.2036103715
  31
0.0
   0
LINE
   5
38D
 100
AcDbEntity
   8
LEVEL001
 370
13
 100
AcDbLine
   6
CONTINUOUS
  62
5
  10
 1245.8785580043
  20
 1833.2486590835
  30
0.0
  11
 1217.2434118690
  21
 1861.8838052188
  31
0.0
   0
LINE
   5
38E
 100
AcDbEntity
   8
LEVEL001
 370
13
 100
AcDbLine
   6
CONTINUOUS
  62
5
  10
 1225.1983631572
  20
 1869.8387565070
  30
0.0
  11
 1261.7884605807
  21
 1833.2486590835
  31
0.0
   0
LINE
   5
38F
 100
AcDbEntity
   8
LEVEL001
 370
13
 100
AcDbLine
   6
CONTINUOUS
  62
5
  10
 1277.6983631572
  20
 1833.2486590835
  30
0.0
  11
 1233.1533144454
  21
 1877.7937077952
  31
0.0
   0
LINE
   5
390
 100
AcDbEntity
   8
LEVEL001
 370
13
 100
AcDbLine
   6
CONTINUOUS
  62
5
  10
 1088.3785580038
  20
 1885.7486590835
  30
0.0
  11
 1035.8785580038
  21
 1833.2486590835
  31
0.0
   0
LINE
   5
391
 100
AcDbEntity
   8
LEVEL001
 370
13
 100
AcDbLine
   6
CONTINUOUS
  62
5
  10
 1051.7884605799
  20
 1833.2486590835
  30
0.0
  11
 1104.2884605799
  21
 1885.7486590835
  31
0.0
   0
LINE
   5
392
 100
AcDbEntity
   8
LEVEL001
 370
13
 100
AcDbLine
   6
CONTINUOUS
  62
5
  10
 1120.1983631575
  20
 1885.7486590835
  30
0.0
  11
 1067.6983631575
  21
 1833.2486590835
  31
0.0
   0
LINE
   5
393
 100
AcDbEntity
   8
LEVEL001
 370
13
 100
AcDbLine
   6
CONTINUOUS
  62
5
  10
 1083.6082657335
  20
 1833.2486590835
  30
0.0
  11
 1136.1082657335
  21
 1885.7486590835
  31
0.0
   0
LINE
   5
394
 100
AcDbEntity
   8
LEVEL001
 370
13
 100
AcDbLine
   6
CONTINUOUS
  62
5
  10
 1140.8785580041
  20
 1833.2486590835
  30
0.0
  11
 1112.2434118688
  21
 1861.8838052188
  31
0.0
   0
LINE
   5
395
 100
AcDbEntity
   8
LEVEL001
 370
13
 100
AcDbLine
   6
CONTINUOUS
  62
5
  10
 1120.1983631570
  20
 1869.8387565070
  30
0.0
  11
 1156.7884605805
  21
 1833.2486590835
  31
0.0
   0
LINE
   5
396
 100
AcDbEntity
   8
LEVEL001
 370
13
 100
AcDbLine
   6
CONTINUOUS
  62
5
  10
 1172.6983631570
  20
 1833.2486590835
  30
0.0
  11
 1128.1533144453
  21
 1877.7937077952
  31
0.0
   0
LINE
   5
397
 100
AcDbEntity
   8
LEVEL001
 370
13
 100
AcDbLine
   6
CONTINUOUS
  62
5
  10
 1136.1082657335
  20
 1885.7486590835
  30
0.0
  11
 1188.6082657337
  21
 1833.2486590835
  31
0.0
   0
LINE
   5
398
 100
AcDbEntity
   8
LEVEL001
 370
13
 100
AcDbLine
   6
CONTINUOUS
  62
5
  10
 1193.3785580040
  20
 1885.7486590835
  30
0.0
  11
 1164.7434118688
  21
 1857.1135129483
  31
0.0
   0
LINE
   5
399
 100
AcDbEntity
   8
LEVEL001
 370
13
 100
AcDbLine
   6
CONTINUOUS
  62
5
  10
 1241.1082657337
  20
 1885.7486590835
  30
0.0
  11
 1277.6983631572
  21
 1849.1585616602
  31
0.0
   0
LINE
   5
39A
 100
AcDbEntity
   8
LEVEL001
 370
13
 100
AcDbLine
   6
CONTINUOUS
  62
5
  10
 1483.1483753642
  20
 1305.8433322313
  30
0.0
  11
 1277.6983631572
  21
 1100.3933200243
  31
0.0
   0
LINE
   5
39B
 100
AcDbEntity
   8
LEVEL001
 370
13
 100
AcDbLine
   6
CONTINUOUS
  62
5
  10
 1277.6983631572
  20
 1135.7486590836
  30
0.0
  11
 1483.1483753642
  21
 1341.1986712906
  31
0.0
   0
LINE
   5
39C
 100
AcDbEntity
   8
LEVEL001
 370
13
 100
AcDbLine
   6
CONTINUOUS
  62
5
  10
 1483.1483753642
  20
 1376.5540103500
  30
0.0
  11
 1277.6983631572
  21
 1171.1039981429
  31
0.0
   0
LINE
   5
39D
 100
AcDbEntity
   8
LEVEL001
 370
13
 100
AcDbLine
   6
CONTINUOUS
  62
5
  10
 1483.1483753642
  20
 1885.7486590835
  30
0.0
  11
 1027.6983631572
  21
 1885.7486590835
  31
0.0
   0
LINE
   5
39E
 100
AcDbEntity
   8
LEVEL001
 370
13
 100
AcDbLine
   6
CONTINUOUS
  62
5
  10
 2688.6082657338
  20
 1833.2486590835
  30
0.0
  11
 2741.1082657338
  21
 1885.7486590835
  31
0.0
   0
LINE
   5
39F
 100
AcDbEntity
   8
LEVEL001
 370
13
 100
AcDbLine
   6
CONTINUOUS
  62
5
  10
 2672.6983631570
  20
 1849.1585616603
  30
0.0
  11
 2709.2884605802
  21
 1885.7486590835
  31
0.0
   0
LINE
   5
3A0
 100
AcDbEntity
   8
LEVEL001
 370
13
 100
AcDbLine
   6
CONTINUOUS
  62
5
  10
 2725.1983631578
  20
 1885.7486590835
  30
0.0
  11
 2680.6533144458
  21
 1841.2036103715
  31
0.0
   0
LINE
   5
3A1
 100
AcDbEntity
   8
LEVEL001
 370
13
 100
AcDbLine
   6
CONTINUOUS
  62
5
  10
 2745.8785580044
  20
 1833.2486590835
  30
0.0
  11
 2717.2434118690
  21
 1861.8838052188
  31
0.0
   0
LINE
   5
3A2
 100
AcDbEntity
   8
LEVEL001
 370
13
 100
AcDbLine
   6
CONTINUOUS
  62
5
  10
 2725.1983631572
  20
 1869.8387565070
  30
0.0
  11
 2761.7884605808
  21
 1833.2486590835
  31
0.0
   0
LINE
   5
3A3
 100
AcDbEntity
   8
LEVEL001
 370
13
 100
AcDbLine
   6
CONTINUOUS
  62
5
  10
 2777.6983631572
  20
 1833.2486590835
  30
0.0
  11
 2733.1533144454
  21
 1877.7937077952
  31
0.0
   0
LINE
   5
3A4
 100
AcDbEntity
   8
LEVEL001
 370
13
 100
AcDbLine
   6
CONTINUOUS
  62
5
  10
 2588.3785580038
  20
 1885.7486590835
  30
0.0
  11
 2535.8785580038
  21
 1833.2486590835
  31
0.0
   0
LINE
   5
3A5
 100
AcDbEntity
   8
LEVEL001
 370
13
 100
AcDbLine
   6
CONTINUOUS
  62
5
  10
 2551.7884605800
  20
 1833.2486590835
  30
0.0
  11
 2604.2884605800
  21
 1885.7486590835
  31
0.0
   0
LINE
   5
3A6
 100
AcDbEntity
   8
LEVEL001
 370
13
 100
AcDbLine
   6
CONTINUOUS
  62
5
  10
 2620.1983631576
  20
 1885.7486590835
  30
0.0
  11
 2567.6983631576
  21
 1833.2486590835
  31
0.0
   0
LINE
   5
3A7
 100
AcDbEntity
   8
LEVEL001
 370
13
 100
AcDbLine
   6
CONTINUOUS
  62
5
  10
 2583.6082657336
  20
 1833.2486590835
  30
0.0
  11
 2636.1082657336
  21
 1885.7486590835
  31
0.0
   0
LINE
   5
3A8
 100
AcDbEntity
   8
LEVEL001
 370
13
 100
AcDbLine
   6
CONTINUOUS
  62
5
  10
 2640.8785580042
  20
 1833.2486590835
  30
0.0
  11
 2612.2434118688
  21
 1861.8838052188
  31
0.0
   0
LINE
   5
3A9
 100
AcDbEntity
   8
LEVEL001
 370
13
 100
AcDbLine
   6
CONTINUOUS
  62
5
  10
 2620.1983631570
  20
 1869.8387565070
  30
0.0
  11
 2656.7884605806
  21
 1833.2486590835
  31
0.0
   0
LINE
   5
3AA
 100
AcDbEntity
   8
LEVEL001
 370
13
 100
AcDbLine
   6
CONTINUOUS
  62
5
  10
 2672.6983631570
  20
 1833.2486590835
  30
0.0
  11
 2628.1533144452
  21
 1877.7937077952
  31
0.0
   0
LINE
   5
3AB
 100
AcDbEntity
   8
LEVEL001
 370
13
 100
AcDbLine
   6
CONTINUOUS
  62
5
  10
 2636.1082657336
  20
 1885.7486590835
  30
0.0
  11
 2688.6082657338
  21
 1833.2486590835
  31
0.0
   0
LINE
   5
3AC
 100
AcDbEntity
   8
LEVEL001
 370
13
 100
AcDbLine
   6
CONTINUOUS
  62
5
  10
 2693.3785580040
  20
 1885.7486590835
  30
0.0
  11
 2664.7434118688
  21
 1857.1135129483
  31
0.0
   0
LINE
   5
3AD
 100
AcDbEntity
   8
LEVEL001
 370
13
 100
AcDbLine
   6
CONTINUOUS
  62
5
  10
 2741.1082657338
  20
 1885.7486590835
  30
0.0
  11
 2777.6983631572
  21
 1849.1585616602
  31
0.0
   0
LINE
   5
3AE
 100
AcDbEntity
   8
LEVEL001
 370
13
 100
AcDbLine
   6
CONTINUOUS
  62
5
  10
 2983.1483143290
  20
 1305.8432711961
  30
0.0
  11
 2777.6983631572
  21
 1100.3933200243
  31
0.0
   0
LINE
   5
3AF
 100
AcDbEntity
   8
LEVEL001
 370
13
 100
AcDbLine
   6
CONTINUOUS
  62
5
  10
 2777.6983631572
  20
 1135.7486590836
  30
0.0
  11
 2983.1483143290
  21
 1341.1986102555
  31
0.0
   0
LINE
   5
3B0
 100
AcDbEntity
   8
LEVEL001
 370
13
 100
AcDbLine
   6
CONTINUOUS
  62
5
  10
 2983.1483143290
  20
 1376.5539493148
  30
0.0
  11
 2777.6983631572
  21
 1171.1039981429
  31
0.0
   0
LINE
   5
3B1
 100
AcDbEntity
   8
LEVEL001
 370
13
 100
AcDbLine
   6
CONTINUOUS
  62
5
  10
 2777.6983631572
  20
 1885.7486590836
  30
0.0
  11
 2777.6983631572
  21
 785.74865908356
  31
0.0
   0
LINE
   5
3B2
 100
AcDbEntity
   8
LEVEL001
 370
13
 100
AcDbLine
   6
CONTINUOUS
  62
5
  10
 2983.1483143290
  20
 1885.7486590835
  30
0.0
  11
 2527.6983631572
  21
 1885.7486590835
  31
0.0
   0
LINE
   5
3B3
 100
AcDbEntity
   8
LEVEL001
 370
13
 100
AcDbLine
   6
CONTINUOUS
  62
5
  10
 3338.3785580038
  20
 1885.7486590835
  30
0.0
  11
 3285.8785580038
  21
 1833.2486590835
  31
0.0
   0
LINE
   5
3B4
 100
AcDbEntity
   8
LEVEL001
 370
13
 100
AcDbLine
   6
CONTINUOUS
  62
5
  10
 3301.7884605800
  20
 1833.2486590835
  30
0.0
  11
 3354.2884605800
  21
 1885.7486590835
  31
0.0
   0
LINE
   5
3B5
 100
AcDbEntity
   8
LEVEL001
 370
13
 100
AcDbLine
   6
CONTINUOUS
  62
5
  10
 3370.1983631576
  20
 1885.7486590835
  30
0.0
  11
 3317.6983631576
  21
 1833.2486590835
  31
0.0
   0
LINE
   5
3B6
 100
AcDbEntity
   8
LEVEL001
 370
13
 100
AcDbLine
   6
CONTINUOUS
  62
5
  10
 3333.6082657336
  20
 1833.2486590835
  30
0.0
  11
 3386.1082657336
  21
 1885.7486590835
  31
0.0
   0
LINE
   5
3B7
 100
AcDbEntity
   8
LEVEL001
 370
13
 100
AcDbLine
   6
CONTINUOUS
  62
5
  10
 3390.8785580042
  20
 1833.2486590835
  30
0.0
  11
 3362.2434118688
  21
 1861.8838052188
  31
0.0
   0
LINE
   5
3B8
 100
AcDbEntity
   8
LEVEL001
 370
13
 100
AcDbLine
   6
CONTINUOUS
  62
5
  10
 3370.1983631570
  20
 1869.8387565070
  30
0.0
  11
 3406.7884605806
  21
 1833.2486590835
  31
0.0
   0
LINE
   5
3B9
 100
AcDbEntity
   8
LEVEL001
 370
13
 100
AcDbLine
   6
CONTINUOUS
  62
5
  10
 3422.6983631570
  20
 1833.2486590835
  30
0.0
  11
 3378.1533144452
  21
 1877.7937077952
  31
0.0
   0
LINE
   5
3BA
 100
AcDbEntity
   8
LEVEL001
 370
13
 100
AcDbLine
   6
CONTINUOUS
  62
5
  10
 3386.1082657336
  20
 1885.7486590835
  30
0.0
  11
 3438.6082657338
  21
 1833.2486590835
  31
0.0
   0
LINE
   5
3BB
 100
AcDbEntity
   8
LEVEL001
 370
13
 100
AcDbLine
   6
CONTINUOUS
  62
5
  10
 3438.6082657338
  20
 1833.2486590835
  30
0.0
  11
 3491.1082657338
  21
 1885.7486590835
  31
0.0
   0
LINE
   5
3BC
 100
AcDbEntity
   8
LEVEL001
 370
13
 100
AcDbLine
   6
CONTINUOUS
  62
5
  10
 3443.3785580040
  20
 1885.7486590835
  30
0.0
  11
 3414.7434118688
  21
 1857.1135129483
  31
0.0
   0
LINE
   5
3BD
 100
AcDbEntity
   8
LEVEL001
 370
13
 100
AcDbLine
   6
CONTINUOUS
  62
5
  10
 3422.6983631570
  20
 1849.1585616603
  30
0.0
  11
 3459.2884605802
  21
 1885.7486590835
  31
0.0
   0
LINE
   5
3BE
 100
AcDbEntity
   8
LEVEL001
 370
13
 100
AcDbLine
   6
CONTINUOUS
  62
5
  10
 3475.1983631578
  20
 1885.7486590835
  30
0.0
  11
 3430.6533144458
  21
 1841.2036103715
  31
0.0
   0
LINE
   5
3BF
 100
AcDbEntity
   8
LEVEL001
 370
13
 100
AcDbLine
   6
CONTINUOUS
  62
5
  10
 3495.8785580044
  20
 1833.2486590835
  30
0.0
  11
 3467.2434118690
  21
 1861.8838052188
  31
0.0
   0
LINE
   5
3C0
 100
AcDbEntity
   8
LEVEL001
 370
13
 100
AcDbLine
   6
CONTINUOUS
  62
5
  10
 3475.1983631572
  20
 1869.8387565070
  30
0.0
  11
 3511.7884605808
  21
 1833.2486590835
  31
0.0
   0
LINE
   5
3C1
 100
AcDbEntity
   8
LEVEL001
 370
13
 100
AcDbLine
   6
CONTINUOUS
  62
5
  10
 3527.6983631572
  20
 1833.2486590835
  30
0.0
  11
 3483.1533144454
  21
 1877.7937077952
  31
0.0
   0
LINE
   5
3C2
 100
AcDbEntity
   8
LEVEL001
 370
13
 100
AcDbLine
   6
CONTINUOUS
  62
5
  10
 3491.1082657338
  20
 1885.7486590835
  30
0.0
  11
 3527.6983631572
  21
 1849.1585616602
  31
0.0
   0
LINE
   5
3C3
 100
AcDbEntity
   8
LEVEL001
 370
13
 100
AcDbLine
   6
CONTINUOUS
  62
5
  10
 3277.6983631572
  20
 1671.1039981429
  30
0.0
  11
 3072.2484119854
  21
 1465.6540469711
  31
0.0
   0
LINE
   5
3C4
 100
AcDbEntity
   8
LEVEL001
 370
13
 100
AcDbLine
   6
CONTINUOUS
  62
5
  10
 3072.2484119854
  20
 1430.2987079117
  30
0.0
  11
 3277.6983631572
  21
 1635.7486590836
  31
0.0
   0
LINE
   5
3C5
 100
AcDbEntity
   8
LEVEL001
 370
13
 100
AcDbLine
   6
CONTINUOUS
  62
5
  10
 3277.6983631572
  20
 1600.3933200243
  30
0.0
  11
 3072.2484119854
  21
 1394.9433688524
  31
0.0
   0
LINE
   5
3C6
 100
AcDbEntity
   8
LEVEL001
 370
13
 100
AcDbLine
   6
CONTINUOUS
  62
5
  10
 3277.6983631572
  20
 785.74865908356
  30
0.0
  11
 3227.6983631572
  21
 685.74865908356
  31
0.0
   0
LINE
   5
3C7
 100
AcDbEntity
   8
LEVEL001
 370
13
 100
AcDbLine
   6
CONTINUOUS
  62
5
  10
 3227.6983631572
  20
 785.74865908356
  30
0.0
  11
 3267.6983631572
  21
 765.74865908356
  31
0.0
   0
LINE
   5
3C8
 100
AcDbEntity
   8
LEVEL001
 370
13
 100
AcDbLine
   6
CONTINUOUS
  62
5
  10
 3277.6983631572
  20
 685.74865908356
  30
0.0
  11
 3237.6983631572
  21
 705.74865908356
  31
0.0
   0
LINE
   5
3C9
 100
AcDbEntity
   8
LEVEL001
 370
13
 100
AcDbLine
   6
CONTINUOUS
  62
5
  10
 3277.6983631572
  20
 785.74865908356
  30
0.0
  11
 2777.6983631572
  21
 785.74865908356
  31
0.0
   0
LINE
   5
3CA
 100
AcDbEntity
   8
LEVEL001
 370
13
 100
AcDbLine
   6
CONTINUOUS
  62
5
  10
 2777.6983631572
  20
 685.74865908356
  30
0.0
  11
 3277.6983631572
  21
 685.74865908356
  31
0.0
   0
LINE
   5
3CB
 100
AcDbEntity
   8
LEVEL001
 370
13
 100
AcDbLine
   6
CONTINUOUS
  62
5
  10
 3277.6983631572
  20
 685.74865908356
  30
0.0
  11
 3277.6983631572
  21
 785.74865908356
  31
0.0
   0
LINE
   5
3CC
 100
AcDbEntity
   8
LEVEL001
 370
13
 100
AcDbLine
   6
CONTINUOUS
  62
5
  10
 2777.6983631572
  20
 785.74865908356
  30
0.0
  11
 3277.6983631572
  21
 785.74865908356
  31
0.0
   0
LINE
   5
3CD
 100
AcDbEntity
   8
LEVEL001
 370
13
 100
AcDbLine
   6
CONTINUOUS
  62
5
  10
 3277.6983631572
  20
 785.74865908356
  30
0.0
  11
 3277.6983631572
  21
 1885.7486590836
  31
0.0
   0
LINE
   5
3CE
 100
AcDbEntity
   8
LEVEL001
 370
13
 100
AcDbLine
   6
CONTINUOUS
  62
5
  10
 3072.2484119854
  20
 1885.7486590835
  30
0.0
  11
 3527.6983631572
  21
 1885.7486590835
  31
0.0
   0
LINE
   5
3CF
 100
AcDbEntity
   8
LEVEL001
 370
13
 100
AcDbLine
   6
CONTINUOUS
  62
5
  10
 3227.6983631572
  20
 785.74865908356
  30
0.0
  11
 3177.6983631572
  21
 685.74865908356
  31
0.0
   0
LINE
   5
3D0
 100
AcDbEntity
   8
LEVEL001
 370
13
 100
AcDbLine
   6
CONTINUOUS
  62
5
  10
 3177.6983631572
  20
 785.74865908356
  30
0.0
  11
 3217.6983631572
  21
 765.74865908356
  31
0.0
   0
LINE
   5
3D1
 100
AcDbEntity
   8
LEVEL001
 370
13
 100
AcDbLine
   6
CONTINUOUS
  62
5
  10
 3177.6983631572
  20
 785.74865908356
  30
0.0
  11
 3127.6983631572
  21
 685.74865908356
  31
0.0
   0
LINE
   5
3D2
 100
AcDbEntity
   8
LEVEL001
 370
13
 100
AcDbLine
   6
CONTINUOUS
  62
5
  10
 3127.6983631572
  20
 785.74865908356
  30
0.0
  11
 3167.6983631572
  21
 765.74865908356
  31
0.0
   0
LINE
   5
3D3
 100
AcDbEntity
   8
LEVEL001
 370
13
 100
AcDbLine
   6
CONTINUOUS
  62
5
  10
 3227.6983631572
  20
 685.74865908356
  30
0.0
  11
 3187.6983631572
  21
 705.74865908356
  31
0.0
   0
LINE
   5
3D4
 100
AcDbEntity
   8
LEVEL001
 370
13
 100
AcDbLine
   6
CONTINUOUS
  62
5
  10
 3177.6983631572
  20
 685.74865908356
  30
0.0
  11
 3137.6983631572
  21
 705.74865908356
  31
0.0
   0
LINE
   5
3D5
 100
AcDbEntity
   8
LEVEL001
 370
13
 100
AcDbLine
   6
CONTINUOUS
  62
5
  10
 2777.6983631572
  20
 785.74865908356
  30
0.0
  11
 2777.6983631572
  21
 685.74865908356
  31
0.0
   0
LINE
   5
3D6
 100
AcDbEntity
   8
LEVEL001
 370
13
 100
AcDbLine
   6
CONTINUOUS
  62
5
  10
 2927.6983631572
  20
 785.74865908356
  30
0.0
  11
 2877.6983631572
  21
 685.74865908356
  31
0.0
   0
LINE
   5
3D7
 100
AcDbEntity
   8
LEVEL001
 370
13
 100
AcDbLine
   6
CONTINUOUS
  62
5
  10
 2877.6983631572
  20
 785.74865908356
  30
0.0
  11
 2917.6983631572
  21
 765.74865908356
  31
0.0
   0
LINE
   5
3D8
 100
AcDbEntity
   8
LEVEL001
 370
13
 100
AcDbLine
   6
CONTINUOUS
  62
5
  10
 2877.6983631572
  20
 785.74865908356
  30
0.0
  11
 2827.6983631572
  21
 685.74865908356
  31
0.0
   0
LINE
   5
3D9
 100
AcDbEntity
   8
LEVEL001
 370
13
 100
AcDbLine
   6
CONTINUOUS
  62
5
  10
 2827.6983631572
  20
 785.74865908356
  30
0.0
  11
 2867.6983631572
  21
 765.74865908356
  31
0.0
   0
LINE
   5
3DA
 100
AcDbEntity
   8
LEVEL001
 370
13
 100
AcDbLine
   6
CONTINUOUS
  62
5
  10
 2827.6983631572
  20
 785.74865908356
  30
0.0
  11
 2777.6983631572
  21
 685.74865908356
  31
0.0
   0
LINE
   5
3DB
 100
AcDbEntity
   8
LEVEL001
 370
13
 100
AcDbLine
   6
CONTINUOUS
  62
5
  10
 2777.6983631572
  20
 785.74865908356
  30
0.0
  11
 2817.6983631572
  21
 765.74865908356
  31
0.0
   0
LINE
   5
3DC
 100
AcDbEntity
   8
LEVEL001
 370
13
 100
AcDbLine
   6
CONTINUOUS
  62
5
  10
 2927.6983631572
  20
 685.74865908356
  30
0.0
  11
 2887.6983631572
  21
 705.74865908356
  31
0.0
   0
LINE
   5
3DD
 100
AcDbEntity
   8
LEVEL001
 370
13
 100
AcDbLine
   6
CONTINUOUS
  62
5
  10
 2877.6983631572
  20
 685.74865908356
  30
0.0
  11
 2837.6983631572
  21
 705.74865908356
  31
0.0
   0
LINE
   5
3DE
 100
AcDbEntity
   8
LEVEL001
 370
13
 100
AcDbLine
   6
CONTINUOUS
  62
5
  10
 2827.6983631572
  20
 685.74865908356
  30
0.0
  11
 2787.6983631572
  21
 705.74865908356
  31
0.0
   0
POINT
   5
3DF
 100
AcDbEntity
   8
0
 100
AcDbPoint
  62
7
  10
 5487.6983631572
  20
 3368.2486590836
  30
0.0
   0
MTEXT
   5
3E0
 100
AcDbEntity
   8
LEVEL001
 370
13
  62
1
 100
AcDbMText
  10
 5727.6983631572
  20
 3548.2486590836
  30
0.0
  40
 51.428580000000
  41
0.0
  71
1
  72
1
   1
{\T1.000000;※構成部材は改良のため、変更する場合があります。}\P{\T1.000000;※本図は道路反射鏡ハンドブックに基づいています。}
   7
GMM001
  44
 0.79999984000003
   0
MTEXT
   5
3E1
 100
AcDbEntity
   8
LEVEL001
 370
13
  62
1
 100
AcDbMText
  10
 6327.6983631572
  20
 812.46740908356
  30
0.0
  40
 42.857142857142
  41
0.0
  71
5
  72
1
   1
\T1.000000;ＭＺＨ１００Ｓ
   7
GMM001
  44
 0.79999984000003
   0
MTEXT
   5
3E2
 100
AcDbEntity
   8
LEVEL001
 370
13
  62
2
 100
AcDbMText
  10
 5497.6983631572
  20
 938.24865908356
  30
0.0
  40
 38.571428571428
  41
0.0
  71
4
  72
1
   1
\T1.370378;図面番号
   7
GMM006
  44
 0.79999984000003
   0
LWPOLYLINE
   5
3E3
 100
AcDbEntity
   8
0
 370
13
   6
CONTINUOUS
  62
6
 100
AcDbPolyline
  90
4
  70
1
  10
 5487.6983631572
  20
 968.24865908356
  10
 8127.6983631572
  20
 968.24865908356
  10
 8127.6983631572
  20
 3368.2486590836
  10
 5487.6983631572
  20
 3368.2486590836
   0
MTEXT
   5
3E4
 100
AcDbEntity
   8
LEVEL001
 370
13
  62
1
 100
AcDbMText
  10
 6739.6983631572
  20
 1268.2486590836
  30
0.0
  40
 51.428571428572
  41
0.0
  71
6
  72
1
   1
\T1.000000;１式
   7
GMM001
  44
 0.79999984000003
   0
MTEXT
   5
3E5
 100
AcDbEntity
   8
LEVEL001
 370
13
  62
1
 100
AcDbMText
  10
 6739.6983631572
  20
 1148.2486590836
  30
0.0
  40
 51.428571428572
  41
0.0
  71
6
  72
1
   1
\T1.000000;１式
   7
GMM001
  44
 0.79999984000003
   0
MTEXT
   5
3E6
 100
AcDbEntity
   8
LEVEL001
 370
13
  62
1
 100
AcDbMText
  10
 6807.6983631572
  20
 1148.2486590836
  30
0.0
  40
 51.428571428572
  41
0.0
  71
4
  72
1
   1
\T1.000000;―
   7
GMM001
  44
 0.79999984000003
   0
MTEXT
   5
3E7
 100
AcDbEntity
   8
LEVEL001
 370
13
  62
1
 100
AcDbMText
  10
 6807.6983631572
  20
 1268.2486590836
  30
0.0
  40
 51.428571428572
  41
0.0
  71
4
  72
1
   1
\T1.000000;―
   7
GMM001
  44
 0.79999984000003
   0
MTEXT
   5
3E8
 100
AcDbEntity
   8
LEVEL001
 370
13
  62
1
 100
AcDbMText
  10
 6807.6983631572
  20
 1388.2486590836
  30
0.0
  40
 51.428571428572
  41
0.0
  71
4
  72
1
   1
\T1.000000;―
   7
GMM001
  44
 0.79999984000003
   0
MTEXT
   5
3E9
 100
AcDbEntity
   8
LEVEL001
 370
13
  62
1
 100
AcDbMText
  10
 7367.6983631572
  20
 1268.2486590836
  30
0.0
  40
 51.428571428572
  41
0.0
  71
4
  72
1
   1
\T1.000000;―
   7
GMM001
  44
 0.79999984000003
   0
MTEXT
   5
3EA
 100
AcDbEntity
   8
LEVEL001
 370
13
  62
1
 100
AcDbMText
  10
 7367.6983631572
  20
 1148.2486590836
  30
0.0
  40
 51.428571428572
  41
0.0
  71
4
  72
1
   1
\T1.000000;―
   7
GMM001
  44
 0.79999984000003
   0
MTEXT
   5
3EB
 100
AcDbEntity
   8
0
 370
13
  62
1
 100
AcDbMText
  10
 7369.0798924071
  20
 1754.1087300545
  30
0.0
  40
 34.285720000000
  41
0.0
  71
4
  72
1
   1
{\T1.000000;下地亜鉛メッキ}\P{\T1.000000;＋静電粉体塗装}
   7
GMM005
  44
 0.79999984000003
   0
MTEXT
   5
3EC
 100
AcDbEntity
   8
0
 370
13
  62
1
 100
AcDbMText
  10
 6807.2817542886
  20
 1714.5175088380
  30
0.0
  40
 51.428571428571
  41
0.0
  71
7
  72
1
   1
\T1.000000;ＳＴＫ４００
   7
GMM001
  44
 0.79999984000003
   0
MTEXT
   5
3ED
 100
AcDbEntity
   8
0
 370
13
  62
1
 100
AcDbMText
  10
 6738.6773369112
  20
 1714.5175088380
  30
0.0
  40
 51.428571428571
  41
0.0
  71
9
  72
1
   1
\T1.000000;１
   7
GMM001
  44
 0.79999984000003
   0
LINE
   5
3EE
 100
AcDbEntity
   8
0
 370
13
 100
AcDbLine
   6
CONTINUOUS
  62
6
  10
 6567.6983631572
  20
 1808.2486590836
  30
0.0
  11
 8127.6983631572
  21
 1808.2486590836
  31
0.0
   0
MTEXT
   5
3EF
 100
AcDbEntity
   8
LEVEL001
 370
13
  62
1
 100
AcDbMText
  10
 5727.6983631572
  20
 1388.2486590836
  30
0.0
  40
 51.428571428572
  41
0.0
  71
4
  72
1
   1
\T1.000000;注意板
   7
GMM001
  44
 0.79999984000003
   0
INSERT
   5
3F0
 100
AcDbEntity
   8
0
 100
AcDbBlockReference
   2
BLOCK001
  10
0.0
  20
0.0
  30
0.0
   0
INSERT
   5
3F1
 100
AcDbEntity
   8
0
 100
AcDbBlockReference
   2
BLOCK002
  10
0.0
  20
0.0
  30
0.0
   0
INSERT
   5
3F2
 100
AcDbEntity
   8
0
 100
AcDbBlockReference
   2
BLOCK003
  10
0.0
  20
0.0
  30
0.0
   0
DIMENSION
   5
3F3
 100
AcDbEntity
   8
0
 370
13
   6
CONTINUOUS
  62
1
 100
AcDbDimension
   2
*D14
  10
 627.69836315715
  20
 685.74865908356
  30
0.0
  11
 627.69836315715
  21
 735.74865908356
  31
0.0
  70
0
   3
GMM003
 100
AcDbAlignedDimension
  13
 1277.6983631572
  23
 785.74865908356
  33
0.0
  14
 1277.6983631572
  24
 685.74865908356
  34
0.0
  50
 270.00000000000
 100
AcDbRotatedDimension
   0
DIMENSION
   5
3F4
 100
AcDbEntity
   8
0
 370
13
   6
CONTINUOUS
  62
1
 100
AcDbDimension
   2
*D15
  10
 627.69836315715
  20
 1885.7486590835
  30
0.0
  11
 627.69836315715
  21
 1335.7486590835
  31
0.0
  70
0
   3
GMM003
 100
AcDbAlignedDimension
  13
 1277.6983631572
  23
 785.74865908356
  33
0.0
  14
 1027.6983631572
  24
 1885.7486590835
  34
0.0
  50
 90.000000000000
 100
AcDbRotatedDimension
   0
DIMENSION
   5
3F5
 100
AcDbEntity
   8
0
 370
13
   6
CONTINUOUS
  62
1
 100
AcDbDimension
   2
*D16
  10
 627.69836315715
  20
 1885.7486590835
  30
0.0
  11
 627.69836315715
  21
 3135.7486590835
  31
0.0
  70
0
   1
\A1;2500(標準設置高さ)
   3
GMM004
 100
AcDbAlignedDimension
  13
 1483.1483753642
  23
 4385.7486590836
  33
0.0
  14
 1027.6983631572
  24
 1885.7486590835
  34
0.0
  50
 270.00000000000
 100
AcDbRotatedDimension
   0
DIMENSION
   5
3F6
 100
AcDbEntity
   8
0
 370
13
   6
CONTINUOUS
  62
1
 100
AcDbDimension
   2
*D17
  10
 1777.6983631572
  20
 485.74865908356
  30
0.0
  11
 1527.6983631572
  21
 485.74865908356
  31
0.0
  70
0
   3
GMM005
 100
AcDbAlignedDimension
  13
 1277.6983631572
  23
 685.74865908356
  33
0.0
  14
 1777.6983631572
  24
 685.74865908356
  34
0.0
 100
AcDbRotatedDimension
   0
DIMENSION
   5
3F7
 100
AcDbEntity
   8
0
 370
13
   6
CONTINUOUS
  62
1
 100
AcDbDimension
   2
*D18
  10
 3277.6983631572
  20
 485.74865908356
  30
0.0
  11
 3027.6983631572
  21
 485.74865908356
  31
0.0
  70
0
   3
GMM005
 100
AcDbAlignedDimension
  13
 2777.6983631572
  23
 685.74865908356
  33
0.0
  14
 3277.6983631572
  24
 685.74865908356
  34
0.0
 100
AcDbRotatedDimension
   0
DIMENSION
   5
3F8
 100
AcDbEntity
   8
0
 370
13
   6
CONTINUOUS
  62
1
 100
AcDbDimension
   2
*D19
  10
 1090.3555342460
  20
 4665.7486590836
  30
0.0
  11
 1514.8412203000
  21
 4940.5178837523
  31
0.0
  70
3
   1
\A1;%%c1000
   3
GMM006
 100
AcDbDiametricDimension
  15
 1965.0411920683
  25
 5170.7486590835
  35
0.0
   0
MTEXT
   5
3F9
 100
AcDbEntity
   8
LEVEL001
 370
13
  62
1
 100
AcDbMText
  10
 1871.4484119853
  20
 2707.1772305122
  30
0.0
  40
 42.857142857142
  41
0.0
  71
1
  72
1
   1
{\T1.000000;支柱}\P%%c{\T1.000000;８９．１×３}{\T1.000000;.}{\T1.000000;２ｔ}\P{\T1.000000;×４４００Ｌ}
   7
GMM001
  44
 0.79999984000003
   0
ENDSEC
  0
SECTION
  2
OBJECTS
  0
DICTIONARY
  5
C
100
AcDbDictionary
  3
ACAD_GROUP
350
D
  3
ACAD_MLINESTYLE
350
1B
  3
DWGPROPS
350
1C
  0
DICTIONARY
  5
D
102
{ACAD_REACTORS
330
C
102
}
100
AcDbDictionary
  0
DICTIONARY
  5
1B
102
{ACAD_REACTORS
330
C
102
}
100
AcDbDictionary
  3
STANDARD
350
1D
  0
MLINESTYLE
  5
1D
102
{ACAD_REACTORS
330
1B
102
}
100
AcDbMlineStyle
  2
STANDARD
 70
     0
  3

 62
   256
 51
90.0
 52
90.0
 71
     2
 49
0.5
 62
   256
  6
BYLAYER
 49
-0.5
 62
   256
  6
BYLAYER
   0
XRECORD
   5
1C
 102
{ACAD_REACTORS
 330
C
 102
}
 330
C
 100
AcDbXrecord
 280
1
   1
DWGPROPS COOKIE
   2
 
   3
 
   4
 
   6
 
   7
MZH100S
   8
 
   9

 300
 = 
 301
 = 
 302
 = 
 303
 = 
 304
 = 
 305
 = 
 306
 = 
 307
 = 
 308
 = 
 309
 = 
  40
0.0
  41
 2460340.5000000
  42
 2460340.5000000
   1

  90
10
   0
ENDSEC
   0
EOF
