   0
SECTION
   2
HEADER
   9
$ACADVER
   1
AC1015
   9
$DWGCODEPAGE
   3
ANSI_932
   9
$LIMMIN
  10
0.0
  20
0.0
   9
$LIMMAX
  10
 8400.0000000000
  20
 5940.0000000000
   9
$EXTMIN
  10
0.0
  20
0.0
  30
0.0
   9
$EXTMAX
  10
 8400.0000000000
  20
 5940.0000000000
  30
0.0
   9
$LTSCALE
  40
 168.00000000000
   9
$HANDSEED
   5
474
   0
ENDSEC
   0
SECTION
   2
TABLES
  0
TABLE
  2
VPORT
  5
8
100
AcDbSymbolTable
 70
     1
  0
VPORT
  5
473
100
AcDbSymbolTableRecord
100
AcDbViewportTableRecord
  2
*ACTIVE
 70
     0
 10
0.0
 20
0.0
 11
1.0
 21
1.0
  12
 4200.0000000000
  22
 2970.0000000000
 13
0.0
 23
0.0
 14
1.0
 24
1.0
 15
0.0
 25
0.0
 16
0.0
 26
0.0
 36
1.0
 17
0.0
 27
0.0
 37
0.0
  40
 8400.0000000000
  41
 1.4787878787879
 42
50.0
 43
0.0
 44
0.0
 50
0.0
 51
0.0
 71
     0
 72
   100
 73
     1
 74
     1
 75
     0
 76
     0
 77
     0
 78
     0
  0
ENDTAB
  0
TABLE
  2
LTYPE
  5
5
100
AcDbSymbolTable
 70
    25
  0
LTYPE
  5
12
100
AcDbSymbolTableRecord
100
AcDbLinetypeTableRecord
  2
BYBLOCK
 70
     0
  3

 72
    65
 73
     0
 40
0.0
  0
LTYPE
  5
13
100
AcDbSymbolTableRecord
100
AcDbLinetypeTableRecord
  2
BYLAYER
 70
     0
  3

 72
    65
 73
     0
 40
0.0
  0
LTYPE
  5
14
100
AcDbSymbolTableRecord
100
AcDbLinetypeTableRecord
  2
CONTINUOUS
 70
     0
  3
Solid line
 72
    65
 73
     0
 40
0.0
  0
LTYPE
  5
20
100
AcDbSymbolTableRecord
100
AcDbLinetypeTableRecord
  2
BORDER
 70
     0
  3
__ __ . __ __ . __ __ . __ __ . __ __ . __ __ .
 72
    65
 73
     6
 40
1.75
 49
0.5
 74
     0
 49
-0.25
 74
     0
 49
0.5
 74
     0
 49
-0.25
 74
     0
 49
0.0
 74
     0
 49
-0.25
 74
     0
  0
LTYPE
  5
21
100
AcDbSymbolTableRecord
100
AcDbLinetypeTableRecord
  2
BORDER2
 70
     0
  3
__.__.__.__.__.__.__.__.__.__.__.__.__.__.__.__
 72
    65
 73
     6
 40
0.875
 49
0.25
 74
     0
 49
-0.125
 74
     0
 49
0.25
 74
     0
 49
-0.125
 74
     0
 49
0.0
 74
     0
 49
-0.125
 74
     0
  0
LTYPE
  5
22
100
AcDbSymbolTableRecord
100
AcDbLinetypeTableRecord
  2
BORDERX2
 70
     0
  3
____  ____  .  ____  ____  .  ____  ____  .  __
 72
    65
 73
     6
 40
3.5
 49
1.0
 74
     0
 49
-0.5
 74
     0
 49
1.0
 74
     0
 49
-0.5
 74
     0
 49
0.0
 74
     0
 49
-0.5
 74
     0
  0
LTYPE
  5
23
100
AcDbSymbolTableRecord
100
AcDbLinetypeTableRecord
  2
CENTER
 70
     0
  3
____ _ ____ _ ____ _ ____ _ ____ _ ____ _ ____ 
 72
    65
 73
     4
 40
2.0
 49
1.25
 74
     0
 49
-0.25
 74
     0
 49
0.25
 74
     0
 49
-0.25
 74
     0
  0
LTYPE
  5
24
100
AcDbSymbolTableRecord
100
AcDbLinetypeTableRecord
  2
CENTER2
 70
     0
  3
___ _ ___ _ ___ _ ___ _ ___ _ ___ _ ___ _ ___ _
 72
    65
 73
     4
 40
1.125
 49
0.75
 74
     0
 49
-0.125
 74
     0
 49
0.125
 74
     0
 49
-0.125
 74
     0
  0
LTYPE
  5
25
100
AcDbSymbolTableRecord
100
AcDbLinetypeTableRecord
  2
CENTERX2
 70
     0
  3
________  __  ________  __  ________  __  _____
 72
    65
 73
     4
 40
4.0
 49
2.5
 74
     0
 49
-0.5
 74
     0
 49
0.5
 74
     0
 49
-0.5
 74
     0
  0
LTYPE
  5
26
100
AcDbSymbolTableRecord
100
AcDbLinetypeTableRecord
  2
DASHDOT
 70
     0
  3
__ . __ . __ . __ . __ . __ . __ . __ . __ . __
 72
    65
 73
     4
 40
1.0
 49
0.5
 74
     0
 49
-0.25
 74
     0
 49
0.0
 74
     0
 49
-0.25
 74
     0
  0
LTYPE
  5
27
100
AcDbSymbolTableRecord
100
AcDbLinetypeTableRecord
  2
DASHDOT2
 70
     0
  3
_._._._._._._._._._._._._._._._._._._._._._._._
 72
    65
 73
     4
 40
0.5
 49
0.25
 74
     0
 49
-0.125
 74
     0
 49
0.0
 74
     0
 49
-0.125
 74
     0
  0
LTYPE
  5
28
100
AcDbSymbolTableRecord
100
AcDbLinetypeTableRecord
  2
DASHDOTX2
 70
     0
  3
____  .  ____  .  ____  .  ____  .  ____  .  __
 72
    65
 73
     4
 40
2.0
 49
1.0
 74
     0
 49
-0.5
 74
     0
 49
0.0
 74
     0
 49
-0.5
 74
     0
  0
LTYPE
  5
29
100
AcDbSymbolTableRecord
100
AcDbLinetypeTableRecord
  2
DASHED
 70
     0
  3
__ __ __ __ __ __ __ __ __ __ __ __ __ __ __ __
 72
    65
 73
     2
 40
0.75
 49
0.5
 74
     0
 49
-0.25
 74
     0
  0
LTYPE
  5
2A
100
AcDbSymbolTableRecord
100
AcDbLinetypeTableRecord
  2
DASHED2
 70
     0
  3
_ _ _ _ _ _ _ _ _ _ _ _ _ _ _ _ _ _ _ _ _ _ _ _
 72
    65
 73
     2
 40
0.375
 49
0.25
 74
     0
 49
-0.125
 74
     0
  0
LTYPE
  5
2B
100
AcDbSymbolTableRecord
100
AcDbLinetypeTableRecord
  2
DASHEDX2
 70
     0
  3
____  ____  ____  ____  ____  ____  ____  ____ 
 72
    65
 73
     2
 40
1.5
 49
1.0
 74
     0
 49
-0.5
 74
     0
  0
LTYPE
  5
2C
100
AcDbSymbolTableRecord
100
AcDbLinetypeTableRecord
  2
DIVIDE
 70
     0
  3
____ . . ____ . . ____ . . ____ . . ____ . . __
 72
    65
 73
     6
 40
1.25
 49
0.5
 74
     0
 49
-0.25
 74
     0
 49
0.0
 74
     0
 49
-0.25
 74
     0
 49
0.0
 74
     0
 49
-0.25
 74
     0
  0
LTYPE
  5
2D
100
AcDbSymbolTableRecord
100
AcDbLinetypeTableRecord
  2
DIVIDE2
 70
     0
  3
__..__..__..__..__..__..__..__..__..__..__..__.
 72
    65
 73
     6
 40
0.625
 49
0.25
 74
     0
 49
-0.125
 74
     0
 49
0.0
 74
     0
 49
-0.125
 74
     0
 49
0.0
 74
     0
 49
-0.125
 74
     0
  0
LTYPE
  5
2E
100
AcDbSymbolTableRecord
100
AcDbLinetypeTableRecord
  2
DIVIDEX2
 70
     0
  3
________  .  .  ________  .  .  ________  .  . 
 72
    65
 73
     6
 40
2.5
 49
1.0
 74
     0
 49
-0.5
 74
     0
 49
0.0
 74
     0
 49
-0.5
 74
     0
 49
0.0
 74
     0
 49
-0.5
 74
     0
  0
LTYPE
  5
2F
100
AcDbSymbolTableRecord
100
AcDbLinetypeTableRecord
  2
DOT
 70
     0
  3
. . . . . . . . . . . . . . . . . . . . . . . .
 72
    65
 73
     2
 40
0.25
 49
0.0
 74
     0
 49
-0.25
 74
     0
  0
LTYPE
  5
30
100
AcDbSymbolTableRecord
100
AcDbLinetypeTableRecord
  2
DOT2
 70
     0
  3
...............................................
 72
    65
 73
     2
 40
0.125
 49
0.0
 74
     0
 49
-0.125
 74
     0
  0
LTYPE
  5
31
100
AcDbSymbolTableRecord
100
AcDbLinetypeTableRecord
  2
DOTX2
 70
     0
  3
.  .  .  .  .  .  .  .  .  .  .  .  .  .  .  . 
 72
    65
 73
     2
 40
0.5
 49
0.0
 74
     0
 49
-0.5
 74
     0
  0
LTYPE
  5
32
100
AcDbSymbolTableRecord
100
AcDbLinetypeTableRecord
  2
HIDDEN
 70
     0
  3
__ __ __ __ __ __ __ __ __ __ __ __ __ __ __ __
 72
    65
 73
     2
 40
0.375
 49
0.25
 74
     0
 49
-0.125
 74
     0
  0
LTYPE
  5
33
100
AcDbSymbolTableRecord
100
AcDbLinetypeTableRecord
  2
HIDDEN2
 70
     0
  3
_ _ _ _ _ _ _ _ _ _ _ _ _ _ _ _ _ _ _ _ _ _ _ _
 72
    65
 73
     2
 40
0.1875
 49
0.125
 74
     0
 49
-0.0625
 74
     0
  0
LTYPE
  5
34
100
AcDbSymbolTableRecord
100
AcDbLinetypeTableRecord
  2
HIDDENX2
 70
     0
  3
____ ____ ____ ____ ____ ____ ____ ____ ____ __
 72
    65
 73
     2
 40
0.75
 49
0.5
 74
     0
 49
-0.25
 74
     0
  0
LTYPE
  5
35
100
AcDbSymbolTableRecord
100
AcDbLinetypeTableRecord
  2
PHANTOM
 70
     0
  3
______  __  __  ______  __  __  ______  __  __ 
 72
    65
 73
     6
 40
2.5
 49
1.25
 74
     0
 49
-0.25
 74
     0
 49
0.25
 74
     0
 49
-0.25
 74
     0
 49
0.25
 74
     0
 49
-0.25
 74
     0
  0
LTYPE
  5
36
100
AcDbSymbolTableRecord
100
AcDbLinetypeTableRecord
  2
PHANTOM2
 70
     0
  3
___ _ _ ___ _ _ ___ _ _ ___ _ _ ___ _ _ ___ _ _
 72
    65
 73
     6
 40
1.25
 49
0.625
 74
     0
 49
-0.125
 74
     0
 49
0.125
 74
     0
 49
-0.125
 74
     0
 49
0.125
 74
     0
 49
-0.125
 74
     0
  0
LTYPE
  5
37
100
AcDbSymbolTableRecord
100
AcDbLinetypeTableRecord
  2
PHANTOMX2
 70
     0
  3
____________    ____    ____    ____________   
 72
    65
 73
     6
 40
5.0
 49
2.5
 74
     0
 49
-0.5
 74
     0
 49
0.5
 74
     0
 49
-0.5
 74
     0
 49
0.5
 74
     0
 49
-0.5
 74
     0
  0
ENDTAB
   0
TABLE
   2
LAYER
   5
2
 100
AcDbSymbolTable
  70
3
   0
LAYER
   5
E
 100
AcDbSymbolTableRecord
 100
AcDbLayerTableRecord
   2
0
  70
0
  62
7
   6
CONTINUOUS
 390
30
   0
LAYER
   5
39
 100
AcDbSymbolTableRecord
 100
AcDbLayerTableRecord
   2
LEVEL001
  70
0
  62
7
   6
CONTINUOUS
 390
30
   0
LAYER
   5
3A
 100
AcDbSymbolTableRecord
 100
AcDbLayerTableRecord
   2
LEVEL002
  70
0
  62
7
   6
CONTINUOUS
 390
30
   0
ENDTAB
  0
TABLE
  2
STYLE
  5
3
100
AcDbSymbolTable
  70
7
  0
STYLE
  5
F
100
AcDbSymbolTableRecord
100
AcDbTextStyleTableRecord
  2
STANDARD
 70
     0
 40
0.0
 41
1.0
 50
0.0
 71
     0
 42
0.2
  3
TXT
  4
BIGFONT
  0
STYLE
  5
38
100
AcDbSymbolTableRecord
100
AcDbTextStyleTableRecord
  2
STANDARD1
 70
     4
 40
0.0
 41
1.0
 50
0.0
 71
     0
 42
0.2
  3
TXT
  4
BIGFONT
   0
STYLE
   5
3B
 100
AcDbSymbolTableRecord
 100
AcDbTextStyleTableRecord
   2
GMM001
  70
0
  40
0.0
  41
 1.0000000000000
  50
0.0
  71
     0
  42
1.0
   3

   4

1001
ACAD
1000
ＭＳ ゴシック
1071
32817
   0
STYLE
   5
3C
 100
AcDbSymbolTableRecord
 100
AcDbTextStyleTableRecord
   2
GMM002
  70
0
  40
0.0
  41
 1.0000000000000
  50
0.0
  71
     0
  42
1.0
   3
txt.shx
   4
bigfont.shx
   0
STYLE
   5
3D
 100
AcDbSymbolTableRecord
 100
AcDbTextStyleTableRecord
   2
GMM003
  70
0
  40
0.0
  41
 0.75000000000000
  50
0.0
  71
     0
  42
1.0
   3
txt.shx
   4
bigfont.shx
   0
STYLE
   5
3E
 100
AcDbSymbolTableRecord
 100
AcDbTextStyleTableRecord
   2
GMM004
  70
0
  40
0.0
  41
 0.66666666666667
  50
0.0
  71
     0
  42
1.0
   3

   4

1001
ACAD
1000
ＭＳ ゴシック
1071
32817
   0
STYLE
   5
3F
 100
AcDbSymbolTableRecord
 100
AcDbTextStyleTableRecord
   2
GMM005
  70
0
  40
0.0
  41
 1.5000000000000
  50
0.0
  71
     0
  42
1.0
   3

   4

1001
ACAD
1000
ＭＳ ゴシック
1071
32817
   0
ENDTAB
  0
TABLE
  2
VIEW
  5
6
100
AcDbSymbolTable
 70
     0
  0
ENDTAB
  0
TABLE
  2
UCS
  5
7
100
AcDbSymbolTable
 70
     0
  0
ENDTAB
  0
TABLE
  2
APPID
  5
9
100
AcDbSymbolTable
 70
     1
  0
APPID
  5
10
100
AcDbSymbolTableRecord
100
AcDbRegAppTableRecord
  2
ACAD
 70
     0
  0
ENDTAB
   0
TABLE
   2
DIMSTYLE
   5
A
 100
AcDbSymbolTable
  70
9
 100
AcDbDimStyleTable
  0
DIMSTYLE
105
1D
100
AcDbSymbolTableRecord
100
AcDbDimStyleTableRecord
  2
STANDARD
 70
     0
  3

  4

  5

  6

  7

 40
1.0
 41
0.18
 42
0.0625
 43
0.38
 44
0.18
 45
0.0
 46
0.0
 47
0.0
 48
0.0
140
0.18
141
0.09
142
0.0
143
25.4
144
1.0
145
0.0
146
1.0
147
0.09
 71
     0
 72
     0
 73
     1
 74
     1
 75
     0
 76
     0
 77
     0
 78
     0
170
     0
171
     2
172
     0
173
     0
174
     0
175
     0
176
     0
177
     0
178
     0
270
     2
271
     4
272
     4
273
     2
274
     2
340
F
275
     0
280
     0
281
     0
282
     0
283
     1
284
     0
285
     0
286
     0
287
     3
288
     0
   0
DIMSTYLE
 105
40
 100
AcDbSymbolTableRecord
 100
AcDbDimStyleTableRecord
   2
GMM001
  70
0
   3

   4

   5

   6
_OPEN
   7
_OPEN
  40
 1.0000000000000
  41
 30.000000000000
  42
 30.000000000000
  43
 160.00000000000
  44
 30.000000000000
  45
0.0
  46
0.0
  47
0.0
  48
0.0
 140
 66.000000000000
 141
 20.000000000000
 142
0.0
 143
 0.39400000000000E-1
 144
 1.0000000000000
 145
0.0
 146
 0.75757575757576
 147
0.0
  71
0
  72
0
  73
0
  74
0
  75
0
  76
0
  77
0
  78
8
 170
0
 171
2
 172
1
 173
1
 174
0
 175
0
 176
1
 177
1
 178
7
 270
2
 271
1
 272
0
 273
2
 274
2
 340
3C
 275
0
 280
0
 281
0
 282
0
 283
1
 284
0
 285
0
 286
0
 287
3
 288
1
   0
DIMSTYLE
 105
41
 100
AcDbSymbolTableRecord
 100
AcDbDimStyleTableRecord
   2
GMM002
  70
0
   3

   4

   5

   6
_OPEN
   7
_OPEN
  40
 1.0000000000000
  41
 42.000000000000
  42
 30.000000000000
  43
 160.00000000000
  44
 30.000000000000
  45
0.0
  46
0.0
  47
0.0
  48
0.0
 140
 60.000000000000
 141
 20.000000000000
 142
0.0
 143
 0.39400000000000E-1
 144
 1.0000000000000
 145
0.0
 146
 0.83333333333333
 147
0.0
  71
0
  72
0
  73
0
  74
0
  75
0
  76
0
  77
0
  78
8
 170
0
 171
2
 172
1
 173
1
 174
0
 175
0
 176
1
 177
1
 178
7
 270
2
 271
1
 272
0
 273
2
 274
2
 340
3C
 275
0
 280
0
 281
0
 282
0
 283
1
 284
0
 285
0
 286
0
 287
3
 288
1
   0
DIMSTYLE
 105
42
 100
AcDbSymbolTableRecord
 100
AcDbDimStyleTableRecord
   2
GMM003
  70
0
   3

   4

   5

   6
_OPEN
   7
_OPEN
  40
 1.0000000000000
  41
 42.000000000000
  42
 30.000000000000
  43
 160.00000000000
  44
 30.000000000000
  45
0.0
  46
0.0
  47
0.0
  48
0.0
 140
 60.000000000000
 141
 20.000000000000
 142
0.0
 143
 0.39400000000000E-1
 144
 1.0000000000000
 145
0.0
 146
 0.83333333333333
 147
 25.714285714286
  71
0
  72
0
  73
0
  74
0
  75
0
  76
0
  77
3
  78
8
 170
0
 171
2
 172
1
 173
1
 174
0
 175
0
 176
6
 177
6
 178
1
 270
2
 271
6
 272
0
 273
2
 274
2
 340
3C
 275
1
 280
0
 281
0
 282
0
 283
1
 284
0
 285
0
 286
0
 287
3
 288
0
   0
DIMSTYLE
 105
43
 100
AcDbSymbolTableRecord
 100
AcDbDimStyleTableRecord
   2
GMM004
  70
0
   3

   4

   5

   6
_OPEN
   7
_OPEN
  40
 1.0000000000000
  41
 42.000000000000
  42
 30.000000000000
  43
 160.00000000000
  44
 30.000000000000
  45
0.0
  46
0.0
  47
0.0
  48
0.0
 140
 60.000000000000
 141
 20.000000000000
 142
0.0
 143
 0.39400000000000E-1
 144
 1.0000000000000
 145
0.0
 146
 0.83333333333333
 147
 25.714285714286
  71
0
  72
0
  73
0
  74
0
  75
0
  76
0
  77
3
  78
8
 170
0
 171
2
 172
1
 173
1
 174
0
 175
0
 176
6
 177
6
 178
1
 270
2
 271
6
 272
0
 273
2
 274
2
 340
3C
 275
1
 280
0
 281
0
 282
0
 283
1
 284
0
 285
0
 286
0
 287
3
 288
0
   0
DIMSTYLE
 105
44
 100
AcDbSymbolTableRecord
 100
AcDbDimStyleTableRecord
   2
GMM005
  70
0
   3
□<>
   4

   5

   6
_OPEN
   7
_OPEN
  40
 1.0000000000000
  41
 42.000000000000
  42
 30.000000000000
  43
 160.00000000000
  44
 30.000000000000
  45
0.0
  46
0.0
  47
0.0
  48
0.0
 140
 60.000000000000
 141
 20.000000000000
 142
0.0
 143
 0.39400000000000E-1
 144
 1.0000000000000
 145
0.0
 146
 0.83333333333333
 147
 14.000000000000
  71
0
  72
0
  73
0
  74
0
  75
0
  76
0
  77
3
  78
8
 170
0
 171
2
 172
1
 173
1
 174
0
 175
0
 176
6
 177
6
 178
1
 270
2
 271
1
 272
0
 273
2
 274
2
 340
3C
 275
0
 280
0
 281
0
 282
0
 283
1
 284
0
 285
0
 286
0
 287
3
 288
1
   0
DIMSTYLE
 105
45
 100
AcDbSymbolTableRecord
 100
AcDbDimStyleTableRecord
   2
GMM006
  70
0
   3
%%c<>
   4

   5

   6
_OPEN
   7
_OPEN
  40
 1.0000000000000
  41
 42.000000000000
  42
 30.000000000000
  43
 160.00000000000
  44
 30.000000000000
  45
0.0
  46
0.0
  47
0.0
  48
0.0
 140
 60.000000000000
 141
 20.000000000000
 142
0.0
 143
 0.39400000000000E-1
 144
 1.0000000000000
 145
0.0
 146
 0.83333333333333
 147
 14.000000000000
  71
0
  72
0
  73
0
  74
0
  75
0
  76
0
  77
3
  78
8
 170
0
 171
2
 172
1
 173
1
 174
0
 175
0
 176
6
 177
6
 178
1
 270
2
 271
1
 272
0
 273
2
 274
2
 340
3C
 275
0
 280
0
 281
0
 282
0
 283
1
 284
0
 285
0
 286
0
 287
0
 288
1
   0
DIMSTYLE
 105
46
 100
AcDbSymbolTableRecord
 100
AcDbDimStyleTableRecord
   2
GMM007
  70
0
   3

   4

   5

   6
_OPEN
   7
_OPEN
  40
 1.0000000000000
  41
 42.000000000000
  42
 30.000000000000
  43
 160.00000000000
  44
 30.000000000000
  45
0.0
  46
0.0
  47
0.0
  48
0.0
 140
 60.000000000000
 141
 20.000000000000
 142
0.0
 143
 0.39400000000000E-1
 144
 1.0000000000000
 145
0.0
 146
 0.83333333333333
 147
 25.714285714286
  71
0
  72
0
  73
0
  74
0
  75
1
  76
0
  77
3
  78
8
 170
0
 171
2
 172
1
 173
1
 174
0
 175
0
 176
6
 177
6
 178
1
 270
2
 271
6
 272
0
 273
2
 274
2
 340
3C
 275
1
 280
0
 281
0
 282
0
 283
1
 284
0
 285
0
 286
0
 287
3
 288
0
   0
ENDTAB
  0
TABLE
  2
BLOCK_RECORD
  5
1
100
AcDbSymbolTable
 70
     0
  0
BLOCK_RECORD
  5
18
100
AcDbSymbolTableRecord
100
AcDbBlockTableRecord
  2
*MODEL_SPACE
  0
BLOCK_RECORD
  5
15
100
AcDbSymbolTableRecord
100
AcDbBlockTableRecord
  2
*PAPER_SPACE
   0
BLOCK_RECORD
   5
47
 100
AcDbSymbolTableRecord
 100
AcDbBlockTableRecord
   2
*D15
   0
BLOCK_RECORD
   5
48
 100
AcDbSymbolTableRecord
 100
AcDbBlockTableRecord
   2
*D16
   0
BLOCK_RECORD
   5
49
 100
AcDbSymbolTableRecord
 100
AcDbBlockTableRecord
   2
*D17
   0
BLOCK_RECORD
   5
4A
 100
AcDbSymbolTableRecord
 100
AcDbBlockTableRecord
   2
*D18
   0
BLOCK_RECORD
   5
4B
 100
AcDbSymbolTableRecord
 100
AcDbBlockTableRecord
   2
*D19
   0
BLOCK_RECORD
   5
4C
 100
AcDbSymbolTableRecord
 100
AcDbBlockTableRecord
   2
*D20
   0
BLOCK_RECORD
   5
4D
 100
AcDbSymbolTableRecord
 100
AcDbBlockTableRecord
   2
*D21
   0
BLOCK_RECORD
   5
4E
 100
AcDbSymbolTableRecord
 100
AcDbBlockTableRecord
   2
*D22
   0
BLOCK_RECORD
   5
4F
 100
AcDbSymbolTableRecord
 100
AcDbBlockTableRecord
   2
_ARCHTICK
   0
BLOCK_RECORD
   5
50
 100
AcDbSymbolTableRecord
 100
AcDbBlockTableRecord
   2
_BOXBLANK
   0
BLOCK_RECORD
   5
51
 100
AcDbSymbolTableRecord
 100
AcDbBlockTableRecord
   2
_BOXFILLED
   0
BLOCK_RECORD
   5
52
 100
AcDbSymbolTableRecord
 100
AcDbBlockTableRecord
   2
_CLOSED
   0
BLOCK_RECORD
   5
53
 100
AcDbSymbolTableRecord
 100
AcDbBlockTableRecord
   2
_CLOSEDBLANK
   0
BLOCK_RECORD
   5
54
 100
AcDbSymbolTableRecord
 100
AcDbBlockTableRecord
   2
_DATUMBLANK
   0
BLOCK_RECORD
   5
55
 100
AcDbSymbolTableRecord
 100
AcDbBlockTableRecord
   2
_DATUMFILLED
   0
BLOCK_RECORD
   5
56
 100
AcDbSymbolTableRecord
 100
AcDbBlockTableRecord
   2
_DOT
   0
BLOCK_RECORD
   5
57
 100
AcDbSymbolTableRecord
 100
AcDbBlockTableRecord
   2
_DOTBLANK
   0
BLOCK_RECORD
   5
58
 100
AcDbSymbolTableRecord
 100
AcDbBlockTableRecord
   2
_DOTSMALL
   0
BLOCK_RECORD
   5
59
 100
AcDbSymbolTableRecord
 100
AcDbBlockTableRecord
   2
_INTEGRAL
   0
BLOCK_RECORD
   5
5A
 100
AcDbSymbolTableRecord
 100
AcDbBlockTableRecord
   2
_NONE
   0
BLOCK_RECORD
   5
5B
 100
AcDbSymbolTableRecord
 100
AcDbBlockTableRecord
   2
_OBLIQUE
   0
BLOCK_RECORD
   5
5C
 100
AcDbSymbolTableRecord
 100
AcDbBlockTableRecord
   2
_OPEN
   0
BLOCK_RECORD
   5
5D
 100
AcDbSymbolTableRecord
 100
AcDbBlockTableRecord
   2
_OPEN30
   0
BLOCK_RECORD
   5
5E
 100
AcDbSymbolTableRecord
 100
AcDbBlockTableRecord
   2
_OPEN90
   0
BLOCK_RECORD
   5
5F
 100
AcDbSymbolTableRecord
 100
AcDbBlockTableRecord
   2
_ORIGIN
   0
ENDTAB
   0
ENDSEC
  0
SECTION
  2
BLOCKS
  0
BLOCK
  5
19
100
AcDbEntity
  8
0
100
AcDbBlockBegin
  2
*MODEL_SPACE
 70
     0
 10
0.0
 20
0.0
 30
0.0
  3
*MODEL_SPACE
  1

  0
ENDBLK
  5
1A
100
AcDbEntity
  8
0
100
AcDbBlockEnd
  0
BLOCK
  5
16
100
AcDbEntity
 67
     1
  8
0
100
AcDbBlockBegin
  2
*PAPER_SPACE
 70
     0
 10
0.0
 20
0.0
 30
0.0
  3
*PAPER_SPACE
  1

  0
ENDBLK
  5
17
100
AcDbEntity
 67
     1
  8
0
100
AcDbBlockEnd
   0
BLOCK
   5
60
 100
AcDbEntity
   8
0
 100
AcDbBlockBegin
   2
_ARCHTICK
  70
0
  10
0.0
  20
0.0
  30
0.0
   3
_ARCHTICK
   0
POLYLINE
   5
61
 100
AcDbEntity
   8
0
 370
-2
   6
BYBLOCK
  62
0
 100
AcDb2dPolyline
  66
1
  10
0.0
  20
0.0
  30
0.0
  70
1
  40
 0.15000000000000
  41
 0.15000000000000
   0
VERTEX
   5
62
 100
AcDbEntity
   8
0
   6
BYBLOCK
  62
0
 100
AcDbVertex
 100
AcDb2dVertex
  10
-0.50000000000000
  20
-0.50000000000000
  30
0.0
  40
 0.15000000000000
  41
 0.15000000000000
   0
VERTEX
   5
63
 100
AcDbEntity
   8
0
   6
BYBLOCK
  62
0
 100
AcDbVertex
 100
AcDb2dVertex
  10
 0.50000000000000
  20
 0.50000000000000
  30
0.0
  40
 0.15000000000000
  41
 0.15000000000000
   0
SEQEND
   5
64
 100
AcDbEntity
   8
0
   6
BYBLOCK
  62
0
   0
ENDBLK
   5
65
 100
AcDbEntity
   8
0
 100
AcDbBlockEnd
   0
BLOCK
   5
66
 100
AcDbEntity
   8
0
 100
AcDbBlockBegin
   2
_OBLIQUE
  70
0
  10
0.0
  20
0.0
  30
0.0
   3
_OBLIQUE
   0
LINE
   5
67
 100
AcDbEntity
   8
0
 370
-2
 100
AcDbLine
   6
BYBLOCK
  62
0
  10
-0.50000000000000
  20
-0.50000000000000
  30
0.0
  11
 0.50000000000000
  21
 0.50000000000000
  31
0.0
   0
ENDBLK
   5
68
 100
AcDbEntity
   8
0
 100
AcDbBlockEnd
   0
BLOCK
   5
69
 100
AcDbEntity
   8
0
 100
AcDbBlockBegin
   2
_BOXBLANK
  70
0
  10
0.0
  20
0.0
  30
0.0
   3
_BOXBLANK
   0
LINE
   5
6A
 100
AcDbEntity
   8
0
 370
-2
 100
AcDbLine
   6
BYBLOCK
  62
0
  10
-0.50000000000000
  20
-0.50000000000000
  30
0.0
  11
 0.50000000000000
  21
-0.50000000000000
  31
0.0
   0
LINE
   5
6B
 100
AcDbEntity
   8
0
 370
-2
 100
AcDbLine
   6
BYBLOCK
  62
0
  10
 0.50000000000000
  20
-0.50000000000000
  30
0.0
  11
 0.50000000000000
  21
 0.50000000000000
  31
0.0
   0
LINE
   5
6C
 100
AcDbEntity
   8
0
 370
-2
 100
AcDbLine
   6
BYBLOCK
  62
0
  10
 0.50000000000000
  20
 0.50000000000000
  30
0.0
  11
-0.50000000000000
  21
 0.50000000000000
  31
0.0
   0
LINE
   5
6D
 100
AcDbEntity
   8
0
 370
-2
 100
AcDbLine
   6
BYBLOCK
  62
0
  10
-0.50000000000000
  20
 0.50000000000000
  30
0.0
  11
-0.50000000000000
  21
-0.50000000000000
  31
0.0
   0
LINE
   5
6E
 100
AcDbEntity
   8
0
 370
-2
 100
AcDbLine
   6
BYBLOCK
  62
0
  10
-0.50000000000000
  20
0.0
  30
0.0
  11
-1.0000000000000
  21
0.0
  31
0.0
   0
ENDBLK
   5
6F
 100
AcDbEntity
   8
0
 100
AcDbBlockEnd
   0
BLOCK
   5
70
 100
AcDbEntity
   8
0
 100
AcDbBlockBegin
   2
_BOXFILLED
  70
0
  10
0.0
  20
0.0
  30
0.0
   3
_BOXFILLED
   0
SOLID
   5
71
 100
AcDbEntity
   8
0
 100
AcDbTrace
   6
BYBLOCK
  62
0
  10
-0.50000000000000
  20
 0.50000000000000
  30
0.0
  11
 0.50000000000000
  21
 0.50000000000000
  31
0.0
  12
-0.50000000000000
  22
-0.50000000000000
  32
0.0
  13
 0.50000000000000
  23
-0.50000000000000
  33
0.0
   0
LINE
   5
72
 100
AcDbEntity
   8
0
 370
-2
 100
AcDbLine
   6
BYBLOCK
  62
0
  10
-0.50000000000000
  20
0.0
  30
0.0
  11
-1.0000000000000
  21
0.0
  31
0.0
   0
ENDBLK
   5
73
 100
AcDbEntity
   8
0
 100
AcDbBlockEnd
   0
BLOCK
   5
74
 100
AcDbEntity
   8
0
 100
AcDbBlockBegin
   2
_CLOSED
  70
0
  10
0.0
  20
0.0
  30
0.0
   3
_CLOSED
   0
LINE
   5
75
 100
AcDbEntity
   8
0
 370
-2
 100
AcDbLine
   6
BYBLOCK
  62
0
  10
-1.0000000000000
  20
 0.16666666666667
  30
0.0
  11
0.0
  21
0.0
  31
0.0
   0
LINE
   5
76
 100
AcDbEntity
   8
0
 370
-2
 100
AcDbLine
   6
BYBLOCK
  62
0
  10
0.0
  20
0.0
  30
0.0
  11
-1.0000000000000
  21
-0.16666666666667
  31
0.0
   0
LINE
   5
77
 100
AcDbEntity
   8
0
 370
-2
 100
AcDbLine
   6
BYBLOCK
  62
0
  10
-1.0000000000000
  20
 0.16666666666667
  30
0.0
  11
-1.0000000000000
  21
-0.16666666666667
  31
0.0
   0
LINE
   5
78
 100
AcDbEntity
   8
0
 370
-2
 100
AcDbLine
   6
BYBLOCK
  62
0
  10
0.0
  20
0.0
  30
0.0
  11
-1.0000000000000
  21
0.0
  31
0.0
   0
ENDBLK
   5
79
 100
AcDbEntity
   8
0
 100
AcDbBlockEnd
   0
BLOCK
   5
7A
 100
AcDbEntity
   8
0
 100
AcDbBlockBegin
   2
_OPEN
  70
0
  10
0.0
  20
0.0
  30
0.0
   3
_OPEN
   0
LINE
   5
7B
 100
AcDbEntity
   8
0
 370
-2
 100
AcDbLine
   6
BYBLOCK
  62
0
  10
-1.0000000000000
  20
 0.16666666666667
  30
0.0
  11
0.0
  21
0.0
  31
0.0
   0
LINE
   5
7C
 100
AcDbEntity
   8
0
 370
-2
 100
AcDbLine
   6
BYBLOCK
  62
0
  10
0.0
  20
0.0
  30
0.0
  11
-1.0000000000000
  21
-0.16666666666667
  31
0.0
   0
LINE
   5
7D
 100
AcDbEntity
   8
0
 370
-2
 100
AcDbLine
   6
BYBLOCK
  62
0
  10
0.0
  20
0.0
  30
0.0
  11
-1.0000000000000
  21
0.0
  31
0.0
   0
ENDBLK
   5
7E
 100
AcDbEntity
   8
0
 100
AcDbBlockEnd
   0
BLOCK
   5
7F
 100
AcDbEntity
   8
0
 100
AcDbBlockBegin
   2
_OPEN30
  70
0
  10
0.0
  20
0.0
  30
0.0
   3
_OPEN30
   0
LINE
   5
80
 100
AcDbEntity
   8
0
 370
-2
 100
AcDbLine
   6
BYBLOCK
  62
0
  10
-1.0000000000000
  20
 0.26794919243110
  30
0.0
  11
0.0
  21
0.0
  31
0.0
   0
LINE
   5
81
 100
AcDbEntity
   8
0
 370
-2
 100
AcDbLine
   6
BYBLOCK
  62
0
  10
0.0
  20
0.0
  30
0.0
  11
-1.0000000000000
  21
-0.26794919243110
  31
0.0
   0
LINE
   5
82
 100
AcDbEntity
   8
0
 370
-2
 100
AcDbLine
   6
BYBLOCK
  62
0
  10
0.0
  20
0.0
  30
0.0
  11
-1.0000000000000
  21
0.0
  31
0.0
   0
ENDBLK
   5
83
 100
AcDbEntity
   8
0
 100
AcDbBlockEnd
   0
BLOCK
   5
84
 100
AcDbEntity
   8
0
 100
AcDbBlockBegin
   2
_OPEN90
  70
0
  10
0.0
  20
0.0
  30
0.0
   3
_OPEN90
   0
LINE
   5
85
 100
AcDbEntity
   8
0
 370
-2
 100
AcDbLine
   6
BYBLOCK
  62
0
  10
-0.50000000000000
  20
 0.50000000000000
  30
0.0
  11
0.0
  21
0.0
  31
0.0
   0
LINE
   5
86
 100
AcDbEntity
   8
0
 370
-2
 100
AcDbLine
   6
BYBLOCK
  62
0
  10
0.0
  20
0.0
  30
0.0
  11
-0.50000000000000
  21
-0.50000000000000
  31
0.0
   0
LINE
   5
87
 100
AcDbEntity
   8
0
 370
-2
 100
AcDbLine
   6
BYBLOCK
  62
0
  10
0.0
  20
0.0
  30
0.0
  11
-1.0000000000000
  21
0.0
  31
0.0
   0
ENDBLK
   5
88
 100
AcDbEntity
   8
0
 100
AcDbBlockEnd
   0
BLOCK
   5
89
 100
AcDbEntity
   8
0
 100
AcDbBlockBegin
   2
_CLOSEDBLANK
  70
0
  10
0.0
  20
0.0
  30
0.0
   3
_CLOSEDBLANK
   0
LINE
   5
8A
 100
AcDbEntity
   8
0
 370
-2
 100
AcDbLine
   6
BYBLOCK
  62
0
  10
-1.0000000000000
  20
 0.16666666666667
  30
0.0
  11
0.0
  21
0.0
  31
0.0
   0
LINE
   5
8B
 100
AcDbEntity
   8
0
 370
-2
 100
AcDbLine
   6
BYBLOCK
  62
0
  10
0.0
  20
0.0
  30
0.0
  11
-1.0000000000000
  21
-0.16666666666667
  31
0.0
   0
LINE
   5
8C
 100
AcDbEntity
   8
0
 370
-2
 100
AcDbLine
   6
BYBLOCK
  62
0
  10
-1.0000000000000
  20
 0.16666666666667
  30
0.0
  11
-1.0000000000000
  21
-0.16666666666667
  31
0.0
   0
ENDBLK
   5
8D
 100
AcDbEntity
   8
0
 100
AcDbBlockEnd
   0
BLOCK
   5
8E
 100
AcDbEntity
   8
0
 100
AcDbBlockBegin
   2
_DOT
  70
0
  10
0.0
  20
0.0
  30
0.0
   3
_DOT
   0
POLYLINE
   5
8F
 100
AcDbEntity
   8
0
 370
-2
   6
BYBLOCK
  62
0
 100
AcDb2dPolyline
  66
1
  10
0.0
  20
0.0
  30
0.0
  70
1
  40
 0.50000000000000
  41
 0.50000000000000
   0
VERTEX
   5
90
 100
AcDbEntity
   8
0
   6
BYBLOCK
  62
0
 100
AcDbVertex
 100
AcDb2dVertex
  10
-0.25000000000000
  20
0.0
  30
0.0
  42
 1.0000000000000
  40
 0.50000000000000
  41
 0.50000000000000
   0
VERTEX
   5
91
 100
AcDbEntity
   8
0
   6
BYBLOCK
  62
0
 100
AcDbVertex
 100
AcDb2dVertex
  10
 0.25000000000000
  20
0.0
  30
0.0
  42
 1.0000000000000
  40
 0.50000000000000
  41
 0.50000000000000
   0
SEQEND
   5
92
 100
AcDbEntity
   8
0
   6
BYBLOCK
  62
0
   0
LINE
   5
93
 100
AcDbEntity
   8
0
 370
-2
 100
AcDbLine
   6
BYBLOCK
  62
0
  10
-0.50000000000000
  20
0.0
  30
0.0
  11
-1.0000000000000
  21
0.0
  31
0.0
   0
ENDBLK
   5
94
 100
AcDbEntity
   8
0
 100
AcDbBlockEnd
   0
BLOCK
   5
95
 100
AcDbEntity
   8
0
 100
AcDbBlockBegin
   2
_DOTSMALL
  70
0
  10
0.0
  20
0.0
  30
0.0
   3
_DOTSMALL
   0
POLYLINE
   5
96
 100
AcDbEntity
   8
0
 370
-2
   6
BYBLOCK
  62
0
 100
AcDb2dPolyline
  66
1
  10
0.0
  20
0.0
  30
0.0
  70
1
  40
 0.50000000000000
  41
 0.50000000000000
   0
VERTEX
   5
97
 100
AcDbEntity
   8
0
   6
BYBLOCK
  62
0
 100
AcDbVertex
 100
AcDb2dVertex
  10
-0.62500000000000E-1
  20
0.0
  30
0.0
  42
 1.0000000000000
  40
 0.50000000000000
  41
 0.50000000000000
   0
VERTEX
   5
98
 100
AcDbEntity
   8
0
   6
BYBLOCK
  62
0
 100
AcDbVertex
 100
AcDb2dVertex
  10
 0.62500000000000E-1
  20
0.0
  30
0.0
  42
 1.0000000000000
  40
 0.50000000000000
  41
 0.50000000000000
   0
SEQEND
   5
99
 100
AcDbEntity
   8
0
   6
BYBLOCK
  62
0
   0
ENDBLK
   5
9A
 100
AcDbEntity
   8
0
 100
AcDbBlockEnd
   0
BLOCK
   5
9B
 100
AcDbEntity
   8
0
 100
AcDbBlockBegin
   2
_DATUMBLANK
  70
0
  10
0.0
  20
0.0
  30
0.0
   3
_DATUMBLANK
   0
LINE
   5
9C
 100
AcDbEntity
   8
0
 370
-2
 100
AcDbLine
   6
BYBLOCK
  62
0
  10
0.0
  20
 0.57735027000000
  30
0.0
  11
-1.0000000000000
  21
0.0
  31
0.0
   0
LINE
   5
9D
 100
AcDbEntity
   8
0
 370
-2
 100
AcDbLine
   6
BYBLOCK
  62
0
  10
-1.0000000000000
  20
0.0
  30
0.0
  11
0.0
  21
-0.57735027000000
  31
0.0
   0
LINE
   5
9E
 100
AcDbEntity
   8
0
 370
-2
 100
AcDbLine
   6
BYBLOCK
  62
0
  10
0.0
  20
-0.57735027000000
  30
0.0
  11
0.0
  21
 0.57735027000000
  31
0.0
   0
ENDBLK
   5
9F
 100
AcDbEntity
   8
0
 100
AcDbBlockEnd
   0
BLOCK
   5
A0
 100
AcDbEntity
   8
0
 100
AcDbBlockBegin
   2
_DATUMFILLED
  70
0
  10
0.0
  20
0.0
  30
0.0
   3
_DATUMFILLED
   0
SOLID
   5
A1
 100
AcDbEntity
   8
0
 100
AcDbTrace
   6
BYBLOCK
  62
0
  10
0.0
  20
 0.57735027000000
  30
0.0
  11
-1.0000000000000
  21
0.0
  31
0.0
  12
0.0
  22
-0.57735027000000
  32
0.0
  13
0.0
  23
-0.57735027000000
  33
0.0
   0
ENDBLK
   5
A2
 100
AcDbEntity
   8
0
 100
AcDbBlockEnd
   0
BLOCK
   5
A3
 100
AcDbEntity
   8
0
 100
AcDbBlockBegin
   2
_ORIGIN
  70
0
  10
0.0
  20
0.0
  30
0.0
   3
_ORIGIN
   0
CIRCLE
   5
A4
 100
AcDbEntity
   8
0
 370
-2
 100
AcDbCircle
   6
BYBLOCK
  62
0
  10
0.0
  20
0.0
  30
0.0
  40
 0.50000000000000
   0
LINE
   5
A5
 100
AcDbEntity
   8
0
 370
-2
 100
AcDbLine
   6
BYBLOCK
  62
0
  10
0.0
  20
0.0
  30
0.0
  11
-1.0000000000000
  21
0.0
  31
0.0
   0
ENDBLK
   5
A6
 100
AcDbEntity
   8
0
 100
AcDbBlockEnd
   0
BLOCK
   5
A7
 100
AcDbEntity
   8
0
 100
AcDbBlockBegin
   2
_NONE
  70
0
  10
0.0
  20
0.0
  30
0.0
   3
_NONE
   0
CIRCLE
   5
A8
 100
AcDbEntity
   8
0
 370
-2
 100
AcDbCircle
   6
BYBLOCK
  62
0
  10
0.0
  20
0.0
  30
0.0
  40
 0.25000000000000
   0
ENDBLK
   5
A9
 100
AcDbEntity
   8
0
 100
AcDbBlockEnd
   0
BLOCK
   5
AA
 100
AcDbEntity
   8
0
 100
AcDbBlockBegin
   2
_DOTBLANK
  70
0
  10
0.0
  20
0.0
  30
0.0
   3
_DOTBLANK
   0
CIRCLE
   5
AB
 100
AcDbEntity
   8
0
 370
-2
 100
AcDbCircle
   6
BYBLOCK
  62
0
  10
0.0
  20
0.0
  30
0.0
  40
 0.50000000000000
   0
LINE
   5
AC
 100
AcDbEntity
   8
0
 370
-2
 100
AcDbLine
   6
BYBLOCK
  62
0
  10
-0.50000000000000
  20
0.0
  30
0.0
  11
-1.0000000000000
  21
0.0
  31
0.0
   0
ENDBLK
   5
AD
 100
AcDbEntity
   8
0
 100
AcDbBlockEnd
   0
BLOCK
   5
AE
 100
AcDbEntity
   8
0
 100
AcDbBlockBegin
   2
_INTEGRAL
  70
0
  10
0.0
  20
0.0
  30
0.0
   3
_INTEGRAL
   0
ARC
   5
AF
 100
AcDbEntity
   8
0
 370
-2
   6
BYBLOCK
  62
0
 100
AcDbCircle
  10
 0.44488800000000
  20
-0.91335000000000E-1
  30
0.0
  40
 0.45416700000000
 100
AcDbArc
  50
 102.00000000000
  51
 168.00000000000
   0
ARC
   5
B0
 100
AcDbEntity
   8
0
 370
-2
   6
BYBLOCK
  62
0
 100
AcDbCircle
  10
-0.44488800000000
  20
 0.91335000000000E-1
  30
0.0
  40
 0.45416700000000
 100
AcDbArc
  50
 282.00000000000
  51
 348.00000000000
   0
ENDBLK
   5
B1
 100
AcDbEntity
   8
0
 100
AcDbBlockEnd
   0
BLOCK
   5
B2
 100
AcDbEntity
   8
0
 100
AcDbBlockBegin
   2
*D15
  70
65
  10
0.0
  20
0.0
  30
0.0
   3
*D15
   0
LINE
   5
B3
 100
AcDbEntity
   8
LEVEL001
 370
13
 100
AcDbLine
   6
CONTINUOUS
  62
6
  10
 956.13766230025
  20
 1798.1070204130
  30
0.0
  11
 706.13766230025
  21
 1798.1070204130
  31
0.0
   0
LINE
   5
B4
 100
AcDbEntity
   8
LEVEL001
 370
13
 100
AcDbLine
   6
CONTINUOUS
  62
6
  10
 1206.1376623002
  20
 598.10702041299
  30
0.0
  11
 706.13766230025
  21
 598.10702041299
  31
0.0
   0
LINE
   5
B5
 100
AcDbEntity
   8
LEVEL001
 370
13
 100
AcDbLine
   6
CONTINUOUS
  62
6
  10
 736.13766230025
  20
 1798.1070204130
  30
0.0
  11
 736.13766230025
  21
 1198.1070204130
  31
0.0
   0
LINE
   5
B6
 100
AcDbEntity
   8
LEVEL001
 370
13
 100
AcDbLine
   6
CONTINUOUS
  62
6
  10
 736.13766230025
  20
 598.10702041299
  30
0.0
  11
 736.13766230025
  21
 1198.1070204130
  31
0.0
   0
INSERT
   5
B7
 100
AcDbEntity
   8
LEVEL001
   6
CONTINUOUS
  62
6
 100
AcDbBlockReference
   2
_OPEN
  10
 736.13766230025
  20
 1798.1070204130
  30
0.0
  41
 42.000000000000
  42
 42.000000000000
  43
 42.000000000000
  50
 90.000000000000
   0
INSERT
   5
B8
 100
AcDbEntity
   8
LEVEL001
   6
CONTINUOUS
  62
6
 100
AcDbBlockReference
   2
_OPEN
  10
 736.13766230025
  20
 598.10702041299
  30
0.0
  41
 42.000000000000
  42
 42.000000000000
  43
 42.000000000000
  50
 270.00000000000
   0
MTEXT
   5
B9
 100
AcDbEntity
   8
LEVEL001
 370
13
  62
1
 100
AcDbMText
  10
 710.42337658596
  20
 1198.1070204130
  30
0.0
  40
 60.000000000000
  41
0.0
  71
8
  72
1
   1
\A1;1200
   7
GMM002
  11
0.0
  21
 1.0000000000000
  31
0.0
   0
ENDBLK
   5
BA
 100
AcDbEntity
   8
0
 100
AcDbBlockEnd
   0
BLOCK
   5
BB
 100
AcDbEntity
   8
0
 100
AcDbBlockBegin
   2
*D16
  70
65
  10
0.0
  20
0.0
  30
0.0
   3
*D16
   0
LINE
   5
BC
 100
AcDbEntity
   8
LEVEL001
 370
13
 100
AcDbLine
   6
CONTINUOUS
  62
6
  10
 956.13766230025
  20
 1798.1070204130
  30
0.0
  11
 706.13766230025
  21
 1798.1070204130
  31
0.0
   0
LINE
   5
BD
 100
AcDbEntity
   8
LEVEL001
 370
13
 100
AcDbLine
   6
CONTINUOUS
  62
6
  10
 981.13766230025
  20
 4298.1070204130
  30
0.0
  11
 706.13766230025
  21
 4298.1070204130
  31
0.0
   0
LINE
   5
BE
 100
AcDbEntity
   8
LEVEL001
 370
13
 100
AcDbLine
   6
CONTINUOUS
  62
6
  10
 736.13766230025
  20
 1798.1070204130
  30
0.0
  11
 736.13766230025
  21
 3048.1070204130
  31
0.0
   0
LINE
   5
BF
 100
AcDbEntity
   8
LEVEL001
 370
13
 100
AcDbLine
   6
CONTINUOUS
  62
6
  10
 736.13766230025
  20
 4298.1070204130
  30
0.0
  11
 736.13766230025
  21
 3048.1070204130
  31
0.0
   0
INSERT
   5
C0
 100
AcDbEntity
   8
LEVEL001
   6
CONTINUOUS
  62
6
 100
AcDbBlockReference
   2
_OPEN
  10
 736.13766230025
  20
 1798.1070204130
  30
0.0
  41
 42.000000000000
  42
 42.000000000000
  43
 42.000000000000
  50
 270.00000000000
   0
INSERT
   5
C1
 100
AcDbEntity
   8
LEVEL001
   6
CONTINUOUS
  62
6
 100
AcDbBlockReference
   2
_OPEN
  10
 736.13766230025
  20
 4298.1070204130
  30
0.0
  41
 42.000000000000
  42
 42.000000000000
  43
 42.000000000000
  50
 90.000000000000
   0
MTEXT
   5
C2
 100
AcDbEntity
   8
LEVEL001
 370
13
  62
1
 100
AcDbMText
  10
 710.42337658596
  20
 3048.1070204130
  30
0.0
  40
 60.000000000000
  41
0.0
  71
8
  72
1
   1
\A1;2500(標準設置高さ)
   7
GMM002
  11
0.0
  21
 1.0000000000000
  31
0.0
   0
ENDBLK
   5
C3
 100
AcDbEntity
   8
0
 100
AcDbBlockEnd
   0
BLOCK
   5
C4
 100
AcDbEntity
   8
0
 100
AcDbBlockBegin
   2
*D17
  70
65
  10
0.0
  20
0.0
  30
0.0
   3
*D17
   0
LINE
   5
C5
 100
AcDbEntity
   8
LEVEL001
 370
13
 100
AcDbLine
   6
CONTINUOUS
  62
6
  10
 1206.1376623002
  20
 598.10702041299
  30
0.0
  11
 706.13766230025
  21
 598.10702041299
  31
0.0
   0
LINE
   5
C6
 100
AcDbEntity
   8
LEVEL001
 370
13
 100
AcDbLine
   6
CONTINUOUS
  62
6
  10
 1206.1376623002
  20
 498.10702041299
  30
0.0
  11
 706.13766230025
  21
 498.10702041299
  31
0.0
   0
LINE
   5
C7
 100
AcDbEntity
   8
LEVEL001
 370
13
 100
AcDbLine
   6
CONTINUOUS
  62
6
  10
 736.13766230025
  20
 598.10702041299
  30
0.0
  11
 736.13766230025
  21
 548.10702041299
  31
0.0
   0
LINE
   5
C8
 100
AcDbEntity
   8
LEVEL001
 370
13
 100
AcDbLine
   6
CONTINUOUS
  62
6
  10
 736.13766230025
  20
 498.10702041299
  30
0.0
  11
 736.13766230025
  21
 548.10702041299
  31
0.0
   0
INSERT
   5
C9
 100
AcDbEntity
   8
LEVEL001
   6
CONTINUOUS
  62
6
 100
AcDbBlockReference
   2
_OPEN
  10
 736.13766230025
  20
 598.10702041299
  30
0.0
  41
 42.000000000000
  42
 42.000000000000
  43
 42.000000000000
  50
 90.000000000000
   0
INSERT
   5
CA
 100
AcDbEntity
   8
LEVEL001
   6
CONTINUOUS
  62
6
 100
AcDbBlockReference
   2
_OPEN
  10
 736.13766230025
  20
 498.10702041299
  30
0.0
  41
 42.000000000000
  42
 42.000000000000
  43
 42.000000000000
  50
 270.00000000000
   0
MTEXT
   5
CB
 100
AcDbEntity
   8
LEVEL001
 370
13
  62
1
 100
AcDbMText
  10
 710.42337658596
  20
 548.10702041299
  30
0.0
  40
 60.000000000000
  41
0.0
  71
8
  72
1
   1
\A1;100
   7
GMM002
  11
0.0
  21
 1.0000000000000
  31
0.0
   0
ENDBLK
   5
CC
 100
AcDbEntity
   8
0
 100
AcDbBlockEnd
   0
BLOCK
   5
CD
 100
AcDbEntity
   8
0
 100
AcDbBlockBegin
   2
*D18
  70
65
  10
0.0
  20
0.0
  30
0.0
   3
*D18
   0
LINE
   5
CE
 100
AcDbEntity
   8
LEVEL002
 370
13
 100
AcDbLine
   6
CONTINUOUS
  62
6
  10
 1236.1376623002
  20
 468.10702041299
  30
0.0
  11
 1236.1376623002
  21
 268.10702041299
  31
0.0
   0
LINE
   5
CF
 100
AcDbEntity
   8
LEVEL002
 370
13
 100
AcDbLine
   6
CONTINUOUS
  62
6
  10
 1736.1376623002
  20
 468.10702041299
  30
0.0
  11
 1736.1376623002
  21
 268.10702041299
  31
0.0
   0
LINE
   5
D0
 100
AcDbEntity
   8
LEVEL002
 370
13
 100
AcDbLine
   6
CONTINUOUS
  62
6
  10
 1236.1376623002
  20
 298.10702041299
  30
0.0
  11
 1486.1376623002
  21
 298.10702041299
  31
0.0
   0
LINE
   5
D1
 100
AcDbEntity
   8
LEVEL002
 370
13
 100
AcDbLine
   6
CONTINUOUS
  62
6
  10
 1736.1376623002
  20
 298.10702041299
  30
0.0
  11
 1486.1376623002
  21
 298.10702041299
  31
0.0
   0
INSERT
   5
D2
 100
AcDbEntity
   8
LEVEL002
   6
CONTINUOUS
  62
6
 100
AcDbBlockReference
   2
_OPEN
  10
 1236.1376623002
  20
 298.10702041299
  30
0.0
  41
 42.000000000000
  42
 42.000000000000
  43
 42.000000000000
  50
 180.00000000000
   0
INSERT
   5
D3
 100
AcDbEntity
   8
LEVEL002
   6
CONTINUOUS
  62
6
 100
AcDbBlockReference
   2
_OPEN
  10
 1736.1376623002
  20
 298.10702041299
  30
0.0
  41
 42.000000000000
  42
 42.000000000000
  43
 42.000000000000
  50
0.0
   0
MTEXT
   5
D4
 100
AcDbEntity
   8
LEVEL002
 370
13
  62
1
 100
AcDbMText
  10
 1486.1376623002
  20
 312.10702041299
  30
0.0
  40
 60.000000000000
  41
0.0
  71
8
  72
1
   1
\A1;□500
   7
GMM002
   0
ENDBLK
   5
D5
 100
AcDbEntity
   8
0
 100
AcDbBlockEnd
   0
BLOCK
   5
D6
 100
AcDbEntity
   8
0
 100
AcDbBlockBegin
   2
*D19
  70
65
  10
0.0
  20
0.0
  30
0.0
   3
*D19
   0
LINE
   5
D7
 100
AcDbEntity
   8
LEVEL002
 370
13
 100
AcDbLine
   6
CONTINUOUS
  62
6
  10
 660.39730614761
  20
 4528.1070204130
  30
0.0
  11
 1011.1375946803
  21
 4730.6070204130
  31
0.0
   0
LINE
   5
D8
 100
AcDbEntity
   8
LEVEL002
 370
13
 100
AcDbLine
   6
CONTINUOUS
  62
6
  10
 1011.1375946803
  20
 4730.6070204130
  30
0.0
  11
 1361.8778832130
  21
 4933.1070204130
  31
0.0
   0
INSERT
   5
D9
 100
AcDbEntity
   8
LEVEL002
   6
CONTINUOUS
  62
6
 100
AcDbBlockReference
   2
_OPEN
  10
 660.39730614761
  20
 4528.1070204130
  30
0.0
  41
 42.000000000000
  42
 42.000000000000
  43
 42.000000000000
  50
 210.00000000000
   0
INSERT
   5
DA
 100
AcDbEntity
   8
LEVEL002
   6
CONTINUOUS
  62
6
 100
AcDbBlockReference
   2
_OPEN
  10
 1361.8778832130
  20
 4933.1070204130
  30
0.0
  41
 42.000000000000
  42
 42.000000000000
  43
 42.000000000000
  50
 30.000000000001
   0
MTEXT
   5
DB
 100
AcDbEntity
   8
LEVEL002
 370
13
  62
1
 100
AcDbMText
  10
 1004.1375946803
  20
 4742.7313760660
  30
0.0
  40
 60.000000000000
  41
0.0
  71
8
  72
1
   1
\A1;%%c800
   7
GMM002
  11
 0.86602540378443
  21
 0.50000000000001
  31
0.0
   0
ENDBLK
   5
DC
 100
AcDbEntity
   8
0
 100
AcDbBlockEnd
   0
BLOCK
   5
DD
 100
AcDbEntity
   8
0
 100
AcDbBlockBegin
   2
*D20
  70
65
  10
0.0
  20
0.0
  30
0.0
   3
*D20
   0
LINE
   5
DE
 100
AcDbEntity
   8
LEVEL002
 370
13
 100
AcDbLine
   6
CONTINUOUS
  62
6
  10
 1610.3973061476
  20
 4528.1070204130
  30
0.0
  11
 1961.1375946803
  21
 4730.6070204130
  31
0.0
   0
LINE
   5
DF
 100
AcDbEntity
   8
LEVEL002
 370
13
 100
AcDbLine
   6
CONTINUOUS
  62
6
  10
 1961.1375946803
  20
 4730.6070204130
  30
0.0
  11
 2311.8778832130
  21
 4933.1070204130
  31
0.0
   0
INSERT
   5
E0
 100
AcDbEntity
   8
LEVEL002
   6
CONTINUOUS
  62
6
 100
AcDbBlockReference
   2
_OPEN
  10
 1610.3973061476
  20
 4528.1070204130
  30
0.0
  41
 42.000000000000
  42
 42.000000000000
  43
 42.000000000000
  50
 210.00000000000
   0
INSERT
   5
E1
 100
AcDbEntity
   8
LEVEL002
   6
CONTINUOUS
  62
6
 100
AcDbBlockReference
   2
_OPEN
  10
 2311.8778832130
  20
 4933.1070204130
  30
0.0
  41
 42.000000000000
  42
 42.000000000000
  43
 42.000000000000
  50
 29.999999999997
   0
MTEXT
   5
E2
 100
AcDbEntity
   8
LEVEL002
 370
13
  62
1
 100
AcDbMText
  10
 1954.1375946803
  20
 4742.7313760659
  30
0.0
  40
 60.000000000000
  41
0.0
  71
8
  72
1
   1
\A1;%%c800
   7
GMM002
  11
 0.86602540378446
  21
 0.49999999999996
  31
0.0
   0
ENDBLK
   5
E3
 100
AcDbEntity
   8
0
 100
AcDbBlockEnd
   0
BLOCK
   5
E4
 100
AcDbEntity
   8
0
 100
AcDbBlockBegin
   2
*D21
  70
65
  10
0.0
  20
0.0
  30
0.0
   3
*D21
   0
LINE
   5
E5
 100
AcDbEntity
   8
LEVEL001
 370
13
 100
AcDbLine
   6
CONTINUOUS
  62
6
  10
 3186.1376623002
  20
 3868.1070204110
  30
0.0
  11
 3186.1376623002
  21
 2568.1070204130
  31
0.0
   0
LINE
   5
E6
 100
AcDbEntity
   8
LEVEL001
 370
13
 100
AcDbLine
   6
CONTINUOUS
  62
6
  10
 2786.1376623002
  20
 2598.1070204130
  30
0.0
  11
 2986.1376623002
  21
 2598.1070204130
  31
0.0
   0
LINE
   5
E7
 100
AcDbEntity
   8
LEVEL001
 370
13
 100
AcDbLine
   6
CONTINUOUS
  62
6
  10
 3186.1376623002
  20
 2598.1070204130
  30
0.0
  11
 2986.1376623002
  21
 2598.1070204130
  31
0.0
   0
INSERT
   5
E8
 100
AcDbEntity
   8
LEVEL001
   6
CONTINUOUS
  62
6
 100
AcDbBlockReference
   2
_OPEN
  10
 2786.1376623002
  20
 2598.1070204130
  30
0.0
  41
 42.000000000000
  42
 42.000000000000
  43
 42.000000000000
  50
 180.00000000000
   0
INSERT
   5
E9
 100
AcDbEntity
   8
LEVEL001
   6
CONTINUOUS
  62
6
 100
AcDbBlockReference
   2
_OPEN
  10
 3186.1376623002
  20
 2598.1070204130
  30
0.0
  41
 42.000000000000
  42
 42.000000000000
  43
 42.000000000000
  50
0.0
   0
MTEXT
   5
EA
 100
AcDbEntity
   8
LEVEL001
 370
13
  62
1
 100
AcDbMText
  10
 2986.1376623002
  20
 2623.8213061273
  30
0.0
  40
 60.000000000000
  41
0.0
  71
8
  72
1
   1
\A1;400
   7
GMM002
   0
ENDBLK
   5
EB
 100
AcDbEntity
   8
0
 100
AcDbBlockEnd
   0
BLOCK
   5
EC
 100
AcDbEntity
   8
0
 100
AcDbBlockBegin
   2
*D22
  70
65
  10
0.0
  20
0.0
  30
0.0
   3
*D22
   0
LINE
   5
ED
 100
AcDbEntity
   8
LEVEL002
 370
13
 100
AcDbLine
   6
CONTINUOUS
  62
6
  10
 2536.1376623002
  20
 468.10702041299
  30
0.0
  11
 2536.1376623002
  21
 268.10702041299
  31
0.0
   0
LINE
   5
EE
 100
AcDbEntity
   8
LEVEL002
 370
13
 100
AcDbLine
   6
CONTINUOUS
  62
6
  10
 3036.1376623002
  20
 468.10702041299
  30
0.0
  11
 3036.1376623002
  21
 268.10702041299
  31
0.0
   0
LINE
   5
EF
 100
AcDbEntity
   8
LEVEL002
 370
13
 100
AcDbLine
   6
CONTINUOUS
  62
6
  10
 2536.1376623002
  20
 298.10702041299
  30
0.0
  11
 2786.1376623002
  21
 298.10702041299
  31
0.0
   0
LINE
   5
F0
 100
AcDbEntity
   8
LEVEL002
 370
13
 100
AcDbLine
   6
CONTINUOUS
  62
6
  10
 3036.1376623002
  20
 298.10702041299
  30
0.0
  11
 2786.1376623002
  21
 298.10702041299
  31
0.0
   0
INSERT
   5
F1
 100
AcDbEntity
   8
LEVEL002
   6
CONTINUOUS
  62
6
 100
AcDbBlockReference
   2
_OPEN
  10
 2536.1376623002
  20
 298.10702041299
  30
0.0
  41
 42.000000000000
  42
 42.000000000000
  43
 42.000000000000
  50
 180.00000000000
   0
INSERT
   5
F2
 100
AcDbEntity
   8
LEVEL002
   6
CONTINUOUS
  62
6
 100
AcDbBlockReference
   2
_OPEN
  10
 3036.1376623002
  20
 298.10702041299
  30
0.0
  41
 42.000000000000
  42
 42.000000000000
  43
 42.000000000000
  50
0.0
   0
MTEXT
   5
F3
 100
AcDbEntity
   8
LEVEL002
 370
13
  62
1
 100
AcDbMText
  10
 2786.1376623002
  20
 312.10702041299
  30
0.0
  40
 60.000000000000
  41
0.0
  71
8
  72
1
   1
\A1;□500
   7
GMM002
   0
ENDBLK
   5
F4
 100
AcDbEntity
   8
0
 100
AcDbBlockEnd
   0
ENDSEC
   0
SECTION
   2
ENTITIES
   0
LINE
   5
F5
 100
AcDbEntity
   8
LEVEL002
 370
13
 100
AcDbLine
   6
CONTINUOUS
  62
7
  10
 8086.1376623002
  20
 5730.6070204130
  30
0.0
  11
 286.13766230025
  21
 5730.6070204130
  31
0.0
   0
LINE
   5
F6
 100
AcDbEntity
   8
LEVEL002
 370
13
 100
AcDbLine
   6
CONTINUOUS
  62
7
  10
 286.13766230025
  20
 5730.6070204130
  30
0.0
  11
 286.13766230025
  21
 230.60702041299
  31
0.0
   0
LINE
   5
F7
 100
AcDbEntity
   8
LEVEL002
 370
13
 100
AcDbLine
   6
CONTINUOUS
  62
7
  10
 286.13766230025
  20
 230.60702041299
  30
0.0
  11
 8086.1376623002
  21
 230.60702041299
  31
0.0
   0
LINE
   5
F8
 100
AcDbEntity
   8
LEVEL002
 370
13
 100
AcDbLine
   6
CONTINUOUS
  62
7
  10
 8086.1376623002
  20
 230.60702041299
  30
0.0
  11
 8086.1376623002
  21
 5730.6070204130
  31
0.0
   0
LINE
   5
F9
 100
AcDbEntity
   8
LEVEL002
 370
13
 100
AcDbLine
   6
CONTINUOUS
  62
2
  10
 5446.1376623002
  20
 710.60702041299
  30
0.0
  11
 7126.1376623002
  21
 710.60702041299
  31
0.0
   0
POINT
   5
FA
 100
AcDbEntity
   8
LEVEL002
 100
AcDbPoint
  62
3
  10
 6386.1376623002
  20
 770.60702041299
  30
0.0
   0
POINT
   5
FB
 100
AcDbEntity
   8
LEVEL002
 100
AcDbPoint
  62
3
  10
 6286.1376623002
  20
 770.60702041299
  30
0.0
   0
POINT
   5
FC
 100
AcDbEntity
   8
LEVEL002
 100
AcDbPoint
  62
3
  10
 6386.1376623002
  20
 870.60702041299
  30
0.0
   0
MTEXT
   5
FD
 100
AcDbEntity
   8
LEVEL002
 370
13
  62
1
 100
AcDbMText
  10
 5618.1376623002
  20
 990.60702041299
  30
0.0
  40
 51.428571428572
  41
0.0
  71
6
  72
1
   1
\T1.000000;１６
   7
GMM001
  44
 0.79999984000003
   0
MTEXT
   5
FE
 100
AcDbEntity
   8
LEVEL002
 370
13
  62
1
 100
AcDbMText
  10
 6776.1376623002
  20
 1347.7542358048
  30
0.0
  40
 51.428571428572
  41
0.0
  71
4
  72
1
   1
\T1.000000;ＰＥ
   7
GMM001
  44
 0.79999984000003
   0
MTEXT
   5
FF
 100
AcDbEntity
   8
LEVEL002
 370
13
  62
1
 100
AcDbMText
  10
 5686.1376623002
  20
 990.60702041299
  30
0.0
  40
 51.428571428572
  41
0.0
  71
4
  72
1
   1
\T1.000000;同上ボルトナット
   7
GMM001
  44
 0.79999984000003
   0
MTEXT
   5
100
 100
AcDbEntity
   8
LEVEL002
 370
13
  62
1
 100
AcDbMText
  10
 5618.1376623002
  20
 1110.6070204130
  30
0.0
  40
 51.428571428572
  41
0.0
  71
6
  72
1
   1
\T1.000000;１５
   7
GMM001
  44
 0.79999984000003
   0
MTEXT
   5
101
 100
AcDbEntity
   8
LEVEL002
 370
13
  62
1
 100
AcDbMText
  10
 5686.1376623002
  20
 1110.6070204130
  30
0.0
  40
 51.428571428572
  41
0.0
  71
4
  72
1
   1
\T1.000000;注意板取付バンド
   7
GMM001
  44
 0.79999984000003
   0
LINE
   5
102
 100
AcDbEntity
   8
LEVEL002
 370
13
 100
AcDbLine
   6
CONTINUOUS
  62
6
  10
 5446.1376623002
  20
 1050.6070204130
  30
0.0
  11
 8086.1376623002
  21
 1050.6070204130
  31
0.0
   0
MTEXT
   5
103
 100
AcDbEntity
   8
LEVEL002
 370
13
  62
1
 100
AcDbMText
  10
 5618.1376623002
  20
 1230.6070204130
  30
0.0
  40
 51.428571428572
  41
0.0
  71
6
  72
1
   1
\T1.000000;１４
   7
GMM001
  44
 0.79999984000003
   0
MTEXT
   5
104
 100
AcDbEntity
   8
LEVEL002
 370
13
  62
1
 100
AcDbMText
  10
 6698.1376623002
  20
 1230.6070204130
  30
0.0
  40
 51.428571428572
  41
0.0
  71
6
  72
1
   1
\T1.000000;１
   7
GMM001
  44
 0.79999984000003
   0
LINE
   5
105
 100
AcDbEntity
   8
LEVEL002
 370
13
 100
AcDbLine
   6
CONTINUOUS
  62
6
  10
 5446.1376623002
  20
 1170.6070204130
  30
0.0
  11
 8086.1376623002
  21
 1170.6070204130
  31
0.0
   0
LINE
   5
106
 100
AcDbEntity
   8
LEVEL002
 370
13
 100
AcDbLine
   6
CONTINUOUS
  62
6
  10
 5446.1376623002
  20
 1290.6070204130
  30
0.0
  11
 8086.1376623002
  21
 1290.6070204130
  31
0.0
   0
MTEXT
   5
107
 100
AcDbEntity
   8
LEVEL002
 370
13
  62
1
 100
AcDbMText
  10
 5618.1376623002
  20
 1350.6070204130
  30
0.0
  40
 51.428571428572
  41
0.0
  71
6
  72
1
   1
\T1.000000;１３
   7
GMM001
  44
 0.79999984000003
   0
MTEXT
   5
108
 100
AcDbEntity
   8
LEVEL002
 370
13
  62
1
 100
AcDbMText
  10
 5686.1376623002
  20
 1350.6070204130
  30
0.0
  40
 51.428571428572
  41
0.0
  71
4
  72
1
   1
\T1.000000;キャップ
   7
GMM001
  44
 0.79999984000003
   0
MTEXT
   5
109
 100
AcDbEntity
   8
LEVEL002
 370
13
  62
1
 100
AcDbMText
  10
 6698.1376623002
  20
 1350.6070204130
  30
0.0
  40
 51.428571428572
  41
0.0
  71
6
  72
1
   1
\T1.000000;１
   7
GMM001
  44
 0.79999984000003
   0
MTEXT
   5
10A
 100
AcDbEntity
   8
LEVEL002
 370
13
  62
1
 100
AcDbMText
  10
 5618.1376623002
  20
 1470.6070204130
  30
0.0
  40
 51.428571428572
  41
0.0
  71
6
  72
1
   1
\T1.000000;１２
   7
GMM001
  44
 0.79999984000003
   0
MTEXT
   5
10B
 100
AcDbEntity
   8
LEVEL002
 370
13
  62
1
 100
AcDbMText
  10
 5686.1376623002
  20
 1470.6070204130
  30
0.0
  40
 51.428571428572
  41
0.0
  71
4
  72
1
   1
\T1.000000;根入れ鉄筋
   7
GMM001
  44
 0.79999984000003
   0
MTEXT
   5
10C
 100
AcDbEntity
   8
LEVEL002
 370
13
  62
1
 100
AcDbMText
  10
 6766.1376623002
  20
 1470.6070204130
  30
0.0
  40
 51.428571428572
  41
0.0
  71
4
  72
1
   1
\T1.000000;ＳＤ２９５Ａ
   7
GMM001
  44
 0.79999984000003
   0
LINE
   5
10D
 100
AcDbEntity
   8
LEVEL002
 370
13
 100
AcDbLine
   6
CONTINUOUS
  62
6
  10
 5446.1376623002
  20
 1410.6070204130
  30
0.0
  11
 8086.1376623002
  21
 1410.6070204130
  31
0.0
   0
LINE
   5
10E
 100
AcDbEntity
   8
LEVEL002
 370
13
 100
AcDbLine
   6
CONTINUOUS
  62
6
  10
 5446.1376623002
  20
 1530.6070204130
  30
0.0
  11
 8086.1376623002
  21
 1530.6070204130
  31
0.0
   0
CIRCLE
   5
10F
 100
AcDbEntity
   8
LEVEL002
 370
13
 100
AcDbCircle
   6
CONTINUOUS
  62
7
  10
 4486.1376623002
  20
 4730.6070204130
  30
0.0
  40
 432.50000000000
   0
CIRCLE
   5
110
 100
AcDbEntity
   8
LEVEL002
 370
13
 100
AcDbCircle
   6
CONTINUOUS
  62
7
  10
 4309.3609670036
  20
 4907.3837157096
  30
0.0
  40
 47.500000000000
   0
CIRCLE
   5
111
 100
AcDbEntity
   8
LEVEL002
 370
13
 100
AcDbCircle
   6
CONTINUOUS
  62
6
  10
 4309.3609670036
  20
 4907.3837157096
  30
0.0
  40
 65.000000000000
   0
CIRCLE
   5
112
 100
AcDbEntity
   8
LEVEL002
 370
13
 100
AcDbCircle
   6
CONTINUOUS
  62
7
  10
 4662.9143575969
  20
 4907.3837157096
  30
0.0
  40
 47.500000000000
   0
CIRCLE
   5
113
 100
AcDbEntity
   8
LEVEL002
 370
13
 100
AcDbCircle
   6
CONTINUOUS
  62
6
  10
 4662.9143575969
  20
 4907.3837157096
  30
0.0
  40
 65.000000000000
   0
CIRCLE
   5
114
 100
AcDbEntity
   8
LEVEL002
 370
13
 100
AcDbCircle
   6
CONTINUOUS
  62
7
  10
 4662.9143575969
  20
 4553.8303251162
  30
0.0
  40
 47.500000000000
   0
CIRCLE
   5
115
 100
AcDbEntity
   8
LEVEL002
 370
13
 100
AcDbCircle
   6
CONTINUOUS
  62
6
  10
 4662.9143575969
  20
 4553.8303251162
  30
0.0
  40
 65.000000000000
   0
CIRCLE
   5
116
 100
AcDbEntity
   8
LEVEL002
 370
13
 100
AcDbCircle
   6
CONTINUOUS
  62
7
  10
 4309.3609670036
  20
 4553.8303251162
  30
0.0
  40
 47.500000000000
   0
CIRCLE
   5
117
 100
AcDbEntity
   8
LEVEL002
 370
13
 100
AcDbCircle
   6
CONTINUOUS
  62
6
  10
 4309.3609670036
  20
 4553.8303251162
  30
0.0
  40
 65.000000000000
   0
ARC
   5
118
 100
AcDbEntity
   8
LEVEL002
 370
13
   6
CONTINUOUS
  62
7
 100
AcDbCircle
  10
 4828.6376623002
  20
 4730.6070204130
  30
0.0
  40
 17.500000000000
 100
AcDbArc
  50
0.0
  51
 90.000000000000
   0
POINT
   5
119
 100
AcDbEntity
   8
LEVEL002
 100
AcDbPoint
  62
7
  10
 4846.1376623002
  20
 4748.1070204130
  30
0.0
   0
ARC
   5
11A
 100
AcDbEntity
   8
LEVEL002
 370
13
   6
CONTINUOUS
  62
7
 100
AcDbCircle
  10
 4828.6376623002
  20
 4730.6070204130
  30
0.0
  40
 17.500000000000
 100
AcDbArc
  50
 270.00000000000
  51
0.0
   0
POINT
   5
11B
 100
AcDbEntity
   8
LEVEL002
 100
AcDbPoint
  62
7
  10
 4846.1376623002
  20
 4713.1070204130
  30
0.0
   0
ARC
   5
11C
 100
AcDbEntity
   8
LEVEL002
 370
13
   6
CONTINUOUS
  62
6
 100
AcDbCircle
  10
 4828.6376623002
  20
 4730.6070204130
  30
0.0
  40
 35.000000000000
 100
AcDbArc
  50
0.0
  51
 90.000000000000
   0
POINT
   5
11D
 100
AcDbEntity
   8
LEVEL002
 100
AcDbPoint
  62
6
  10
 4863.6376623002
  20
 4765.6070204130
  30
0.0
   0
ARC
   5
11E
 100
AcDbEntity
   8
LEVEL002
 370
13
   6
CONTINUOUS
  62
6
 100
AcDbCircle
  10
 4828.6376623002
  20
 4730.6070204130
  30
0.0
  40
 35.000000000000
 100
AcDbArc
  50
 270.00000000000
  51
0.0
   0
POINT
   5
11F
 100
AcDbEntity
   8
LEVEL002
 100
AcDbPoint
  62
6
  10
 4863.6376623002
  20
 4695.6070204130
  30
0.0
   0
ARC
   5
120
 100
AcDbEntity
   8
LEVEL002
 370
13
   6
CONTINUOUS
  62
7
 100
AcDbCircle
  10
 4486.1376623002
  20
 5073.1070204130
  30
0.0
  40
 17.500000000000
 100
AcDbArc
  50
 90.000000000000
  51
 180.00000000000
   0
POINT
   5
121
 100
AcDbEntity
   8
LEVEL002
 100
AcDbPoint
  62
7
  10
 4468.6376623002
  20
 5090.6070204130
  30
0.0
   0
ARC
   5
122
 100
AcDbEntity
   8
LEVEL002
 370
13
   6
CONTINUOUS
  62
7
 100
AcDbCircle
  10
 4486.1376623002
  20
 5073.1070204130
  30
0.0
  40
 17.500000000000
 100
AcDbArc
  50
0.0
  51
 90.000000000000
   0
POINT
   5
123
 100
AcDbEntity
   8
LEVEL002
 100
AcDbPoint
  62
7
  10
 4503.6376623002
  20
 5090.6070204130
  30
0.0
   0
ARC
   5
124
 100
AcDbEntity
   8
LEVEL002
 370
13
   6
CONTINUOUS
  62
6
 100
AcDbCircle
  10
 4486.1376623002
  20
 5073.1070204130
  30
0.0
  40
 35.000000000000
 100
AcDbArc
  50
 90.000000000000
  51
 180.00000000000
   0
POINT
   5
125
 100
AcDbEntity
   8
LEVEL002
 100
AcDbPoint
  62
6
  10
 4451.1376623002
  20
 5108.1070204130
  30
0.0
   0
ARC
   5
126
 100
AcDbEntity
   8
LEVEL002
 370
13
   6
CONTINUOUS
  62
6
 100
AcDbCircle
  10
 4486.1376623002
  20
 5073.1070204130
  30
0.0
  40
 35.000000000000
 100
AcDbArc
  50
0.0
  51
 90.000000000000
   0
POINT
   5
127
 100
AcDbEntity
   8
LEVEL002
 100
AcDbPoint
  62
6
  10
 4521.1376623002
  20
 5108.1070204130
  30
0.0
   0
ARC
   5
128
 100
AcDbEntity
   8
LEVEL002
 370
13
   6
CONTINUOUS
  62
7
 100
AcDbCircle
  10
 4143.6376623002
  20
 4730.6070204128
  30
0.0
  40
 17.500000000000
 100
AcDbArc
  50
 180.00000000000
  51
 270.00000000000
   0
POINT
   5
129
 100
AcDbEntity
   8
LEVEL002
 100
AcDbPoint
  62
7
  10
 4126.1376623002
  20
 4713.1070204128
  30
0.0
   0
ARC
   5
12A
 100
AcDbEntity
   8
LEVEL002
 370
13
   6
CONTINUOUS
  62
7
 100
AcDbCircle
  10
 4143.6376623002
  20
 4730.6070204128
  30
0.0
  40
 17.500000000000
 100
AcDbArc
  50
 90.000000000000
  51
 180.00000000000
   0
POINT
   5
12B
 100
AcDbEntity
   8
LEVEL002
 100
AcDbPoint
  62
7
  10
 4126.1376623002
  20
 4748.1070204128
  30
0.0
   0
ARC
   5
12C
 100
AcDbEntity
   8
LEVEL002
 370
13
   6
CONTINUOUS
  62
6
 100
AcDbCircle
  10
 4143.6376623002
  20
 4730.6070204128
  30
0.0
  40
 35.000000000000
 100
AcDbArc
  50
 180.00000000000
  51
 270.00000000000
   0
POINT
   5
12D
 100
AcDbEntity
   8
LEVEL002
 100
AcDbPoint
  62
6
  10
 4108.6376623002
  20
 4695.6070204128
  30
0.0
   0
ARC
   5
12E
 100
AcDbEntity
   8
LEVEL002
 370
13
   6
CONTINUOUS
  62
6
 100
AcDbCircle
  10
 4143.6376623002
  20
 4730.6070204128
  30
0.0
  40
 35.000000000000
 100
AcDbArc
  50
 90.000000000000
  51
 180.00000000000
   0
POINT
   5
12F
 100
AcDbEntity
   8
LEVEL002
 100
AcDbPoint
  62
6
  10
 4108.6376623002
  20
 4765.6070204128
  30
0.0
   0
ARC
   5
130
 100
AcDbEntity
   8
LEVEL002
 370
13
   6
CONTINUOUS
  62
7
 100
AcDbCircle
  10
 4486.1376623002
  20
 4388.1070204130
  30
0.0
  40
 17.500000000000
 100
AcDbArc
  50
 270.00000000000
  51
0.0
   0
POINT
   5
131
 100
AcDbEntity
   8
LEVEL002
 100
AcDbPoint
  62
7
  10
 4503.6376623002
  20
 4370.6070204130
  30
0.0
   0
ARC
   5
132
 100
AcDbEntity
   8
LEVEL002
 370
13
   6
CONTINUOUS
  62
7
 100
AcDbCircle
  10
 4486.1376623002
  20
 4388.1070204130
  30
0.0
  40
 17.500000000000
 100
AcDbArc
  50
 180.00000000000
  51
 270.00000000000
   0
POINT
   5
133
 100
AcDbEntity
   8
LEVEL002
 100
AcDbPoint
  62
7
  10
 4468.6376623002
  20
 4370.6070204130
  30
0.0
   0
ARC
   5
134
 100
AcDbEntity
   8
LEVEL002
 370
13
   6
CONTINUOUS
  62
6
 100
AcDbCircle
  10
 4486.1376623002
  20
 4388.1070204130
  30
0.0
  40
 35.000000000000
 100
AcDbArc
  50
 270.00000000000
  51
0.0
   0
POINT
   5
135
 100
AcDbEntity
   8
LEVEL002
 100
AcDbPoint
  62
6
  10
 4521.1376623002
  20
 4353.1070204130
  30
0.0
   0
ARC
   5
136
 100
AcDbEntity
   8
LEVEL002
 370
13
   6
CONTINUOUS
  62
6
 100
AcDbCircle
  10
 4486.1376623002
  20
 4388.1070204130
  30
0.0
  40
 35.000000000000
 100
AcDbArc
  50
 180.00000000000
  51
 270.00000000000
   0
POINT
   5
137
 100
AcDbEntity
   8
LEVEL002
 100
AcDbPoint
  62
6
  10
 4451.1376623002
  20
 4353.1070204130
  30
0.0
   0
LINE
   5
138
 100
AcDbEntity
   8
LEVEL002
 370
13
 100
AcDbLine
   6
CONTINUOUS
  62
6
  10
 4451.1376623002
  20
 4856.6278520242
  30
0.0
  11
 4451.1376623002
  21
 5073.1070204130
  31
0.0
   0
ARC
   5
139
 100
AcDbEntity
   8
LEVEL002
 370
13
   6
CONTINUOUS
  62
6
 100
AcDbCircle
  10
 4431.1376623002
  20
 4856.6278520242
  30
0.0
  40
 20.000000000000
 100
AcDbArc
  50
 293.57817847825
  51
 359.99999999998
   0
LINE
   5
13A
 100
AcDbEntity
   8
LEVEL002
 370
13
 100
AcDbLine
   6
CONTINUOUS
  62
6
  10
 4143.6376623002
  20
 4765.6070204128
  30
0.0
  11
 4360.1168306888
  21
 4765.6070204128
  31
0.0
   0
ARC
   5
13B
 100
AcDbEntity
   8
LEVEL002
 370
13
   6
CONTINUOUS
  62
6
 100
AcDbCircle
  10
 4360.1168306888
  20
 4785.6070204128
  30
0.0
  40
 20.000000000000
 100
AcDbArc
  50
 270.00000000000
  51
 336.42182152180
   0
ARC
   5
13C
 100
AcDbEntity
   8
LEVEL002
 370
13
   6
CONTINUOUS
  62
6
 100
AcDbCircle
  10
 4486.1376623002
  20
 4730.6070204130
  30
0.0
  40
 117.50000000000
 100
AcDbArc
  50
 113.57817847823
  51
 156.42182152183
   0
LINE
   5
13D
 100
AcDbEntity
   8
LEVEL002
 370
13
 100
AcDbLine
   6
CONTINUOUS
  62
6
  10
 4360.1168306890
  20
 4695.6070204128
  30
0.0
  11
 4143.6376623002
  21
 4695.6070204128
  31
0.0
   0
ARC
   5
13E
 100
AcDbEntity
   8
LEVEL002
 370
13
   6
CONTINUOUS
  62
6
 100
AcDbCircle
  10
 4360.1168306890
  20
 4675.6070204128
  30
0.0
  40
 20.000000000000
 100
AcDbArc
  50
 23.578178478201
  51
 89.999999999961
   0
LINE
   5
13F
 100
AcDbEntity
   8
LEVEL002
 370
13
 100
AcDbLine
   6
CONTINUOUS
  62
6
  10
 4451.1376623002
  20
 4388.1070204130
  30
0.0
  11
 4451.1376623002
  21
 4604.5861888016
  31
0.0
   0
ARC
   5
140
 100
AcDbEntity
   8
LEVEL002
 370
13
   6
CONTINUOUS
  62
6
 100
AcDbCircle
  10
 4431.1376623002
  20
 4604.5861888016
  30
0.0
  40
 20.000000000000
 100
AcDbArc
  50
 0.15633062370329E-10
  51
 66.421821521844
   0
ARC
   5
141
 100
AcDbEntity
   8
LEVEL002
 370
13
   6
CONTINUOUS
  62
6
 100
AcDbCircle
  10
 4486.1376623002
  20
 4730.6070204130
  30
0.0
  40
 117.50000000000
 100
AcDbArc
  50
 203.57817847825
  51
 246.42182152184
   0
LINE
   5
142
 100
AcDbEntity
   8
LEVEL002
 370
13
 100
AcDbLine
   6
CONTINUOUS
  62
6
  10
 4521.1376623002
  20
 4604.5861888016
  30
0.0
  11
 4521.1376623002
  21
 4388.1070204130
  31
0.0
   0
ARC
   5
143
 100
AcDbEntity
   8
LEVEL002
 370
13
   6
CONTINUOUS
  62
6
 100
AcDbCircle
  10
 4541.1376623002
  20
 4604.5861888016
  30
0.0
  40
 20.000000000000
 100
AcDbArc
  50
 113.57817847825
  51
 180.00000000002
   0
LINE
   5
144
 100
AcDbEntity
   8
LEVEL002
 370
13
 100
AcDbLine
   6
CONTINUOUS
  62
6
  10
 4828.6376623002
  20
 4695.6070204130
  30
0.0
  11
 4612.1584939116
  21
 4695.6070204130
  31
0.0
   0
ARC
   5
145
 100
AcDbEntity
   8
LEVEL002
 370
13
   6
CONTINUOUS
  62
6
 100
AcDbCircle
  10
 4612.1584939116
  20
 4675.6070204130
  30
0.0
  40
 20.000000000000
 100
AcDbArc
  50
 89.999999999977
  51
 156.42182152180
   0
ARC
   5
146
 100
AcDbEntity
   8
LEVEL002
 370
13
   6
CONTINUOUS
  62
6
 100
AcDbCircle
  10
 4486.1376623002
  20
 4730.6070204130
  30
0.0
  40
 117.50000000000
 100
AcDbArc
  50
 293.57817847824
  51
 336.42182152185
   0
LINE
   5
147
 100
AcDbEntity
   8
LEVEL002
 370
13
 100
AcDbLine
   6
CONTINUOUS
  62
6
  10
 4612.1584939115
  20
 4765.6070204130
  30
0.0
  11
 4828.6376623002
  21
 4765.6070204130
  31
0.0
   0
ARC
   5
148
 100
AcDbEntity
   8
LEVEL002
 370
13
   6
CONTINUOUS
  62
6
 100
AcDbCircle
  10
 4612.1584939114
  20
 4785.6070204130
  30
0.0
  40
 20.000000000000
 100
AcDbArc
  50
 203.57817847825
  51
 270.00000000002
   0
LINE
   5
149
 100
AcDbEntity
   8
LEVEL002
 370
13
 100
AcDbLine
   6
CONTINUOUS
  62
7
  10
 4612.1584939115
  20
 4748.1070204130
  30
0.0
  11
 4828.6376623002
  21
 4748.1070204130
  31
0.0
   0
ARC
   5
14A
 100
AcDbEntity
   8
LEVEL002
 370
13
   6
CONTINUOUS
  62
7
 100
AcDbCircle
  10
 4612.1584939114
  20
 4785.6070204130
  30
0.0
  40
 37.500000000000
 100
AcDbArc
  50
 203.57817847823
  51
 270.00000000001
   0
LINE
   5
14B
 100
AcDbEntity
   8
LEVEL002
 370
13
 100
AcDbLine
   6
CONTINUOUS
  62
7
  10
 4828.6376623002
  20
 4713.1070204130
  30
0.0
  11
 4612.1584939116
  21
 4713.1070204130
  31
0.0
   0
ARC
   5
14C
 100
AcDbEntity
   8
LEVEL002
 370
13
   6
CONTINUOUS
  62
7
 100
AcDbCircle
  10
 4612.1584939116
  20
 4675.6070204130
  30
0.0
  40
 37.500000000000
 100
AcDbArc
  50
 90.000000000000
  51
 156.42182152182
   0
LINE
   5
14D
 100
AcDbEntity
   8
LEVEL002
 370
13
 100
AcDbLine
   6
CONTINUOUS
  62
7
  10
 4503.6376623002
  20
 4604.5861888016
  30
0.0
  11
 4503.6376623002
  21
 4388.1070204130
  31
0.0
   0
ARC
   5
14E
 100
AcDbEntity
   8
LEVEL002
 370
13
   6
CONTINUOUS
  62
7
 100
AcDbCircle
  10
 4541.1376623002
  20
 4604.5861888016
  30
0.0
  40
 37.500000000000
 100
AcDbArc
  50
 113.57817847825
  51
 180.00000000003
   0
ARC
   5
14F
 100
AcDbEntity
   8
LEVEL002
 370
13
   6
CONTINUOUS
  62
7
 100
AcDbCircle
  10
 4486.1376623003
  20
 4730.6070204130
  30
0.0
  40
 100.00000000000
 100
AcDbArc
  50
 293.57817847823
  51
 336.42182152183
   0
LINE
   5
150
 100
AcDbEntity
   8
LEVEL002
 370
13
 100
AcDbLine
   6
CONTINUOUS
  62
7
  10
 4468.6376623002
  20
 4388.1070204130
  30
0.0
  11
 4468.6376623002
  21
 4604.5861888016
  31
0.0
   0
ARC
   5
151
 100
AcDbEntity
   8
LEVEL002
 370
13
   6
CONTINUOUS
  62
7
 100
AcDbCircle
  10
 4431.1376623002
  20
 4604.5861888016
  30
0.0
  40
 37.500000000000
 100
AcDbArc
  50
 359.99999999999
  51
 66.421821521847
   0
LINE
   5
152
 100
AcDbEntity
   8
LEVEL002
 370
13
 100
AcDbLine
   6
CONTINUOUS
  62
7
  10
 4360.1168306890
  20
 4713.1070204128
  30
0.0
  11
 4143.6376623002
  21
 4713.1070204128
  31
0.0
   0
ARC
   5
153
 100
AcDbEntity
   8
LEVEL002
 370
13
   6
CONTINUOUS
  62
7
 100
AcDbCircle
  10
 4360.1168306890
  20
 4675.6070204128
  30
0.0
  40
 37.500000000000
 100
AcDbArc
  50
 23.578178478226
  51
 89.999999999997
   0
ARC
   5
154
 100
AcDbEntity
   8
LEVEL002
 370
13
   6
CONTINUOUS
  62
7
 100
AcDbCircle
  10
 4486.1376623003
  20
 4730.6070204130
  30
0.0
  40
 100.00000000000
 100
AcDbArc
  50
 203.57817847823
  51
 246.42182152183
   0
LINE
   5
155
 100
AcDbEntity
   8
LEVEL002
 370
13
 100
AcDbLine
   6
CONTINUOUS
  62
7
  10
 4143.6376623002
  20
 4748.1070204128
  30
0.0
  11
 4360.1168306888
  21
 4748.1070204128
  31
0.0
   0
ARC
   5
156
 100
AcDbEntity
   8
LEVEL002
 370
13
   6
CONTINUOUS
  62
7
 100
AcDbCircle
  10
 4360.1168306888
  20
 4785.6070204128
  30
0.0
  40
 37.500000000000
 100
AcDbArc
  50
 270.00000000000
  51
 336.42182152182
   0
LINE
   5
157
 100
AcDbEntity
   8
LEVEL002
 370
13
 100
AcDbLine
   6
CONTINUOUS
  62
7
  10
 4468.6376623002
  20
 4856.6278520242
  30
0.0
  11
 4468.6376623002
  21
 5073.1070204130
  31
0.0
   0
ARC
   5
158
 100
AcDbEntity
   8
LEVEL002
 370
13
   6
CONTINUOUS
  62
7
 100
AcDbCircle
  10
 4431.1376623002
  20
 4856.6278520242
  30
0.0
  40
 37.500000000000
 100
AcDbArc
  50
 293.57817847825
  51
 0.29181716424615E-10
   0
ARC
   5
159
 100
AcDbEntity
   8
LEVEL002
 370
13
   6
CONTINUOUS
  62
7
 100
AcDbCircle
  10
 4486.1376623002
  20
 4730.6070204130
  30
0.0
  40
 100.00000000000
 100
AcDbArc
  50
 113.57817847824
  51
 156.42182152185
   0
LINE
   5
15A
 100
AcDbEntity
   8
LEVEL002
 370
13
 100
AcDbLine
   6
CONTINUOUS
  62
7
  10
 4503.6376623002
  20
 5073.1070204130
  30
0.0
  11
 4503.6376623002
  21
 4856.6278520242
  31
0.0
   0
ARC
   5
15B
 100
AcDbEntity
   8
LEVEL002
 370
13
   6
CONTINUOUS
  62
7
 100
AcDbCircle
  10
 4541.1376623002
  20
 4856.6278520242
  30
0.0
  40
 37.500000000000
 100
AcDbArc
  50
 179.99999999999
  51
 246.42182152185
   0
ARC
   5
15C
 100
AcDbEntity
   8
LEVEL002
 370
13
   6
CONTINUOUS
  62
7
 100
AcDbCircle
  10
 4486.1376623003
  20
 4730.6070204130
  30
0.0
  40
 100.00000000000
 100
AcDbArc
  50
 23.578178478254
  51
 66.421821521843
   0
LINE
   5
15D
 100
AcDbEntity
   8
LEVEL002
 370
13
 100
AcDbLine
   6
CONTINUOUS
  62
6
  10
 4521.1376623002
  20
 5073.1070204130
  30
0.0
  11
 4521.1376623002
  21
 4856.6278520242
  31
0.0
   0
ARC
   5
15E
 100
AcDbEntity
   8
LEVEL002
 370
13
   6
CONTINUOUS
  62
6
 100
AcDbCircle
  10
 4541.1376623002
  20
 4856.6278520242
  30
0.0
  40
 20.000000000000
 100
AcDbArc
  50
 179.99999999996
  51
 246.42182152182
   0
ARC
   5
15F
 100
AcDbEntity
   8
LEVEL002
 370
13
   6
CONTINUOUS
  62
6
 100
AcDbCircle
  10
 4486.1376623002
  20
 4730.6070204130
  30
0.0
  40
 117.50000000000
 100
AcDbArc
  50
 23.578178478246
  51
 66.421821521843
   0
CIRCLE
   5
160
 100
AcDbEntity
   8
LEVEL002
 370
13
 100
AcDbCircle
   6
CONTINUOUS
  62
7
  10
 4486.1376623002
  20
 4730.6070204130
  30
0.0
  40
 407.50000000000
   0
CIRCLE
   5
161
 100
AcDbEntity
   8
LEVEL002
 370
13
 100
AcDbCircle
   6
CONTINUOUS
  62
7
  10
 4486.1376623002
  20
 4730.6070204130
  30
0.0
  40
 405.00000000000
   0
CIRCLE
   5
162
 100
AcDbEntity
   8
LEVEL002
 370
13
 100
AcDbCircle
   6
CONTINUOUS
  62
7
  10
 4486.1376623002
  20
 4730.6070204130
  30
0.0
  40
 412.50000000000
   0
LINE
   5
163
 100
AcDbEntity
   8
LEVEL002
 370
13
 100
AcDbLine
   6
DASHDOT
  62
6
  10
 4436.1376623002
  20
 4795.6070204130
  30
0.0
  11
 4436.1376623002
  21
 4765.6070204130
  31
0.0
   0
LINE
   5
164
 100
AcDbEntity
   8
LEVEL002
 370
13
 100
AcDbLine
   6
DASHDOT
  62
6
  10
 4421.1376623002
  20
 4780.6070204130
  30
0.0
  11
 4451.1376623002
  21
 4780.6070204130
  31
0.0
   0
LINE
   5
165
 100
AcDbEntity
   8
LEVEL002
 370
13
 100
AcDbLine
   6
DASHDOT
  62
6
  10
 4436.1376623002
  20
 4695.6070204130
  30
0.0
  11
 4436.1376623002
  21
 4665.6070204130
  31
0.0
   0
LINE
   5
166
 100
AcDbEntity
   8
LEVEL002
 370
13
 100
AcDbLine
   6
DASHDOT
  62
6
  10
 4421.1376623002
  20
 4680.6070204130
  30
0.0
  11
 4451.1376623002
  21
 4680.6070204130
  31
0.0
   0
LINE
   5
167
 100
AcDbEntity
   8
LEVEL002
 370
13
 100
AcDbLine
   6
DASHDOT
  62
6
  10
 4536.1376623002
  20
 4695.6070204130
  30
0.0
  11
 4536.1376623002
  21
 4665.6070204130
  31
0.0
   0
LINE
   5
168
 100
AcDbEntity
   8
LEVEL002
 370
13
 100
AcDbLine
   6
DASHDOT
  62
6
  10
 4521.1376623002
  20
 4680.6070204130
  30
0.0
  11
 4551.1376623002
  21
 4680.6070204130
  31
0.0
   0
LINE
   5
169
 100
AcDbEntity
   8
LEVEL002
 370
13
 100
AcDbLine
   6
DASHDOT
  62
6
  10
 4536.1376623002
  20
 4795.6070204130
  30
0.0
  11
 4536.1376623002
  21
 4765.6070204130
  31
0.0
   0
LINE
   5
16A
 100
AcDbEntity
   8
LEVEL002
 370
13
 100
AcDbLine
   6
DASHDOT
  62
6
  10
 4521.1376623002
  20
 4780.6070204130
  30
0.0
  11
 4551.1376623002
  21
 4780.6070204130
  31
0.0
   0
LINE
   5
16B
 100
AcDbEntity
   8
LEVEL002
 370
13
 100
AcDbLine
   6
DASHDOT
  62
6
  10
 4011.1376623002
  20
 4730.6070204130
  30
0.0
  11
 4961.1376623002
  21
 4730.6070204130
  31
0.0
   0
LINE
   5
16C
 100
AcDbEntity
   8
LEVEL002
 370
13
 100
AcDbLine
   6
DASHDOT
  62
6
  10
 4486.1376623002
  20
 5205.6070204130
  30
0.0
  11
 4486.1376623002
  21
 4255.6070204130
  31
0.0
   0
CIRCLE
   5
16D
 100
AcDbEntity
   8
LEVEL002
 370
13
 100
AcDbCircle
   6
CONTINUOUS
  62
3
  10
 4436.1376623002
  20
 4780.6070204130
  30
0.0
  40
 7.0000000000000
   0
CIRCLE
   5
16E
 100
AcDbEntity
   8
LEVEL002
 370
13
 100
AcDbCircle
   6
CONTINUOUS
  62
3
  10
 4436.1376623002
  20
 4680.6070204130
  30
0.0
  40
 7.0000000000000
   0
CIRCLE
   5
16F
 100
AcDbEntity
   8
LEVEL002
 370
13
 100
AcDbCircle
   6
CONTINUOUS
  62
3
  10
 4536.1376623002
  20
 4780.6070204130
  30
0.0
  40
 7.0000000000000
   0
CIRCLE
   5
170
 100
AcDbEntity
   8
LEVEL002
 370
13
 100
AcDbCircle
   6
CONTINUOUS
  62
3
  10
 4536.1376623002
  20
 4680.6070204130
  30
0.0
  40
 7.0000000000000
   0
CIRCLE
   5
171
 100
AcDbEntity
   8
LEVEL002
 370
13
 100
AcDbCircle
   6
CONTINUOUS
  62
1
  10
 4036.1376623002
  20
 4380.6070204130
  30
0.0
  40
 69.999997913838
   0
MTEXT
   5
172
 100
AcDbEntity
   8
LEVEL002
 370
13
  62
1
 100
AcDbMText
  10
 4036.1376623002
  20
 4380.6070204130
  30
0.0
  40
 57.142857142858
  41
0.0
  71
5
  72
1
   1
\T1.000000;2
   7
GMM001
  44
 0.79999984000003
   0
LEADER
   5
173
 100
AcDbEntity
   8
LEVEL002
 370
13
   6
CONTINUOUS
  62
1
 100
AcDbLeader
   3
GMM001
  73
3
  74
1
  75
0
  40
 66.000000000000
  41
0.0
  76
2
  10
 4209.0377082230
  20
 4556.0821797940
  30
0.0
  10
 4086.1376623002
  20
 4429.5968122878
  30
0.0
  77
1
   0
LINE
   5
174
 100
AcDbEntity
   8
LEVEL002
 370
13
 100
AcDbLine
   6
CONTINUOUS
  62
7
  10
 1441.5876623002
  20
 1005.6070204130
  30
0.0
  11
 1369.7376442146
  21
 1005.6070204130
  31
0.0
   0
LINE
   5
175
 100
AcDbEntity
   8
LEVEL002
 370
13
 100
AcDbLine
   6
CONTINUOUS
  62
7
  10
 1369.7376442146
  20
 1005.6070204130
  30
0.0
  11
 1369.7376442146
  21
 990.60702041299
  31
0.0
   0
LINE
   5
176
 100
AcDbEntity
   8
LEVEL002
 370
13
 100
AcDbLine
   6
CONTINUOUS
  62
7
  10
 1369.7376442146
  20
 990.60702041299
  30
0.0
  11
 1441.5876623002
  21
 990.60702041299
  31
0.0
   0
LINE
   5
177
 100
AcDbEntity
   8
LEVEL002
 370
13
 100
AcDbLine
   6
CONTINUOUS
  62
7
  10
 1530.6876623002
  20
 1005.6070204130
  30
0.0
  11
 1602.5376442146
  21
 1005.6070204130
  31
0.0
   0
LINE
   5
178
 100
AcDbEntity
   8
LEVEL002
 370
13
 100
AcDbLine
   6
CONTINUOUS
  62
7
  10
 1602.5376442146
  20
 1005.6070204130
  30
0.0
  11
 1602.5376442146
  21
 990.60702041299
  31
0.0
   0
LINE
   5
179
 100
AcDbEntity
   8
LEVEL002
 370
13
 100
AcDbLine
   6
CONTINUOUS
  62
7
  10
 1602.5376442146
  20
 990.60702041299
  30
0.0
  11
 1530.6876623002
  21
 990.60702041299
  31
0.0
   0
LINE
   5
17A
 100
AcDbEntity
   8
LEVEL002
 370
13
 100
AcDbLine
   6
DASHDOT
  62
6
  10
 1419.7376442146
  20
 998.10702041299
  30
0.0
  11
 1552.5376442146
  21
 998.10702041299
  31
0.0
   0
CIRCLE
   5
17B
 100
AcDbEntity
   8
LEVEL002
 370
13
 100
AcDbCircle
   6
CONTINUOUS
  62
7
  10
 1486.1376284982
  20
 898.10702041299
  30
0.0
  40
 7.5000000000000
   0
LINE
   5
17C
 100
AcDbEntity
   8
LEVEL002
 370
13
 100
AcDbLine
   6
DASHDOT
  62
6
  10
 1456.1376284982
  20
 898.10702041299
  30
0.0
  11
 1516.1376284982
  21
 898.10702041299
  31
0.0
   0
LINE
   5
17D
 100
AcDbEntity
   8
LEVEL002
 370
13
 100
AcDbLine
   6
CONTINUOUS
  62
7
  10
 3230.6876623002
  20
 5002.1070204130
  30
0.0
  11
 3141.5876623002
  21
 5002.1070204130
  31
0.0
   0
LINE
   5
17E
 100
AcDbEntity
   8
LEVEL002
 370
13
 100
AcDbLine
   6
CONTINUOUS
  62
7
  10
 3141.5876623002
  20
 5002.1070204130
  30
0.0
  11
 3141.5876623002
  21
 4999.1070204130
  31
0.0
   0
LINE
   5
17F
 100
AcDbEntity
   8
LEVEL002
 370
13
 100
AcDbLine
   6
CONTINUOUS
  62
7
  10
 3141.5876623002
  20
 4999.1070204130
  30
0.0
  11
 3230.6876623002
  21
 4999.1070204130
  31
0.0
   0
LINE
   5
180
 100
AcDbEntity
   8
LEVEL002
 370
13
 100
AcDbLine
   6
CONTINUOUS
  62
7
  10
 3230.6876623002
  20
 4999.1070204130
  30
0.0
  11
 3230.6876623002
  21
 5002.1070204130
  31
0.0
   0
LINE
   5
181
 100
AcDbEntity
   8
LEVEL002
 370
13
 100
AcDbLine
   6
DOT
  62
1
  10
 3225.6876623002
  20
 4999.1070204130
  30
0.0
  11
 3225.6876623002
  21
 4972.1070204130
  31
0.0
   0
LINE
   5
182
 100
AcDbEntity
   8
LEVEL002
 370
13
 100
AcDbLine
   6
DOT
  62
1
  10
 3225.6876623002
  20
 4972.1070204130
  30
0.0
  11
 3146.5876623002
  21
 4972.1070204130
  31
0.0
   0
LINE
   5
183
 100
AcDbEntity
   8
LEVEL002
 370
13
 100
AcDbLine
   6
DOT
  62
1
  10
 3146.5876623002
  20
 4972.1070204130
  30
0.0
  11
 3146.5876623002
  21
 4999.1070204130
  31
0.0
   0
LINE
   5
184
 100
AcDbEntity
   8
LEVEL002
 370
13
 100
AcDbLine
   6
CONTINUOUS
  62
7
  10
 3482.1677883048
  20
 4675.6070204130
  30
0.0
  11
 3232.1677883048
  21
 4675.6070204130
  31
0.0
   0
LINE
   5
185
 100
AcDbEntity
   8
LEVEL002
 370
13
 100
AcDbLine
   6
CONTINUOUS
  62
7
  10
 3232.1677883048
  20
 4675.6070204130
  30
0.0
  11
 3232.1677883048
  21
 4615.6070204130
  31
0.0
   0
LINE
   5
186
 100
AcDbEntity
   8
LEVEL002
 370
13
 100
AcDbLine
   6
CONTINUOUS
  62
7
  10
 3232.1677883048
  20
 4615.6070204130
  30
0.0
  11
 3482.1677883048
  21
 4615.6070204130
  31
0.0
   0
LINE
   5
187
 100
AcDbEntity
   8
LEVEL002
 370
13
 100
AcDbLine
   6
CONTINUOUS
  62
7
  10
 3482.1677883048
  20
 4615.6070204130
  30
0.0
  11
 3482.1677883048
  21
 4675.6070204130
  31
0.0
   0
LINE
   5
188
 100
AcDbEntity
   8
LEVEL002
 370
13
 100
AcDbLine
   6
DASHDOT
  62
6
  10
 3518.1418414542
  20
 4820.6070204130
  30
0.0
  11
 3518.1418414542
  21
 4580.6070204130
  31
0.0
   0
LINE
   5
189
 100
AcDbEntity
   8
LEVEL002
 370
13
 100
AcDbLine
   6
CONTINUOUS
  62
7
  10
 3479.9918414543
  20
 4785.6070204130
  30
0.0
  11
 3479.9918414543
  21
 4800.6070204130
  31
0.0
   0
LINE
   5
18A
 100
AcDbEntity
   8
LEVEL002
 370
13
 100
AcDbLine
   6
CONTINUOUS
  62
7
  10
 3479.9918414543
  20
 4800.6070204130
  30
0.0
  11
 3556.2918414542
  21
 4800.6070204130
  31
0.0
   0
LINE
   5
18B
 100
AcDbEntity
   8
LEVEL002
 370
13
 100
AcDbLine
   6
CONTINUOUS
  62
7
  10
 3556.2918414542
  20
 4800.6070204130
  30
0.0
  11
 3556.2918414542
  21
 4785.6070204130
  31
0.0
   0
LINE
   5
18C
 100
AcDbEntity
   8
LEVEL002
 370
13
 100
AcDbLine
   6
CONTINUOUS
  62
7
  10
 3556.2918414542
  20
 4675.6070204130
  30
0.0
  11
 3556.2918414542
  21
 4600.6070204130
  31
0.0
   0
LINE
   5
18D
 100
AcDbEntity
   8
LEVEL002
 370
13
 100
AcDbLine
   6
CONTINUOUS
  62
7
  10
 3556.2918414542
  20
 4600.6070204130
  30
0.0
  11
 3479.9918414543
  21
 4600.6070204130
  31
0.0
   0
LINE
   5
18E
 100
AcDbEntity
   8
LEVEL002
 370
13
 100
AcDbLine
   6
CONTINUOUS
  62
7
  10
 3479.9918414543
  20
 4600.6070204130
  30
0.0
  11
 3479.9918414543
  21
 4615.6070204130
  31
0.0
   0
LINE
   5
18F
 100
AcDbEntity
   8
LEVEL002
 370
13
 100
AcDbLine
   6
CONTINUOUS
  62
7
  10
 3233.8876623002
  20
 4615.6070204130
  30
0.0
  11
 3233.8876623002
  21
 4600.6070204130
  31
0.0
   0
LINE
   5
190
 100
AcDbEntity
   8
LEVEL002
 370
13
 100
AcDbLine
   6
CONTINUOUS
  62
7
  10
 3233.8876623002
  20
 4600.6070204130
  30
0.0
  11
 3103.1376537804
  21
 4600.6070204130
  31
0.0
   0
LINE
   5
191
 100
AcDbEntity
   8
LEVEL002
 370
13
 100
AcDbLine
   6
CONTINUOUS
  62
7
  10
 3103.1376537804
  20
 4600.6070204130
  30
0.0
  11
 3103.1376537804
  21
 4710.6070204130
  31
0.0
   0
LINE
   5
192
 100
AcDbEntity
   8
LEVEL002
 370
13
 100
AcDbLine
   6
CONTINUOUS
  62
7
  10
 3103.1376537804
  20
 4710.6070204130
  30
0.0
  11
 3233.8876623002
  21
 4710.6070204130
  31
0.0
   0
LINE
   5
193
 100
AcDbEntity
   8
LEVEL002
 370
13
 100
AcDbLine
   6
CONTINUOUS
  62
7
  10
 3233.8876623002
  20
 4710.6070204130
  30
0.0
  11
 3233.8876623002
  21
 4675.6070204130
  31
0.0
   0
LINE
   5
194
 100
AcDbEntity
   8
LEVEL002
 370
13
 100
AcDbLine
   6
CONTINUOUS
  62
7
  10
 3138.3876623002
  20
 4732.1120632160
  30
0.0
  11
 3138.3876623002
  21
 4710.6070204130
  31
0.0
   0
LINE
   5
195
 100
AcDbEntity
   8
LEVEL002
 370
13
 100
AcDbLine
   6
CONTINUOUS
  62
7
  10
 3138.3876623002
  20
 4710.6070204130
  30
0.0
  11
 3269.1376708200
  21
 4710.6070204130
  31
0.0
   0
LINE
   5
196
 100
AcDbEntity
   8
LEVEL002
 370
13
 100
AcDbLine
   6
CONTINUOUS
  62
7
  10
 3269.1376708200
  20
 4710.6070204130
  30
0.0
  11
 3269.1376708200
  21
 4820.6070204130
  31
0.0
   0
LINE
   5
197
 100
AcDbEntity
   8
LEVEL002
 370
13
 100
AcDbLine
   6
CONTINUOUS
  62
7
  10
 3269.1376708200
  20
 4820.6070204130
  30
0.0
  11
 3138.3876623002
  21
 4820.6070204130
  31
0.0
   0
LINE
   5
198
 100
AcDbEntity
   8
LEVEL002
 370
13
 100
AcDbLine
   6
CONTINUOUS
  62
7
  10
 3138.3876623002
  20
 4820.6070204130
  30
0.0
  11
 3138.3876623002
  21
 4799.4516374740
  31
0.0
   0
LINE
   5
199
 100
AcDbEntity
   8
LEVEL002
 370
13
 100
AcDbLine
   6
CONTINUOUS
  62
7
  10
 3140.1075362957
  20
 4800.3279570446
  30
0.0
  11
 3140.1075362957
  21
 4732.9883827866
  31
0.0
   0
LINE
   5
19A
 100
AcDbEntity
   8
LEVEL002
 370
13
 100
AcDbLine
   6
CONTINUOUS
  62
7
  10
 3140.1075362957
  20
 4732.9883827866
  30
0.0
  11
 2890.1075362957
  21
 4605.6070204130
  31
0.0
   0
LINE
   5
19B
 100
AcDbEntity
   8
LEVEL002
 370
13
 100
AcDbLine
   6
CONTINUOUS
  62
7
  10
 2890.1075362957
  20
 4605.6070204130
  30
0.0
  11
 2890.1075362957
  21
 4672.9465946710
  31
0.0
   0
LINE
   5
19C
 100
AcDbEntity
   8
LEVEL002
 370
13
 100
AcDbLine
   6
CONTINUOUS
  62
7
  10
 2890.1075362957
  20
 4672.9465946710
  30
0.0
  11
 3140.1075362957
  21
 4800.3279570446
  31
0.0
   0
LINE
   5
19D
 100
AcDbEntity
   8
LEVEL002
 370
13
 100
AcDbLine
   6
DASHDOT
  62
6
  10
 2854.1334831462
  20
 4820.6070204130
  30
0.0
  11
 2854.1334831462
  21
 4580.6070204130
  31
0.0
   0
LINE
   5
19E
 100
AcDbEntity
   8
LEVEL002
 370
13
 100
AcDbLine
   6
CONTINUOUS
  62
7
  10
 2815.9834831462
  20
 4675.6070204130
  30
0.0
  11
 2815.9834831462
  21
 4600.6070204130
  31
0.0
   0
LINE
   5
19F
 100
AcDbEntity
   8
LEVEL002
 370
13
 100
AcDbLine
   6
CONTINUOUS
  62
7
  10
 2815.9834831462
  20
 4600.6070204130
  30
0.0
  11
 2892.2834831462
  21
 4600.6070204130
  31
0.0
   0
LINE
   5
1A0
 100
AcDbEntity
   8
LEVEL002
 370
13
 100
AcDbLine
   6
CONTINUOUS
  62
7
  10
 2892.2834831462
  20
 4600.6070204130
  30
0.0
  11
 2892.2834831462
  21
 4606.7157207100
  31
0.0
   0
LINE
   5
1A1
 100
AcDbEntity
   8
LEVEL002
 370
13
 100
AcDbLine
   6
CONTINUOUS
  62
7
  10
 2892.2834831462
  20
 4674.0552949680
  30
0.0
  11
 2892.2834831462
  21
 4675.6070204130
  31
0.0
   0
LINE
   5
1A2
 100
AcDbEntity
   8
LEVEL002
 370
13
 100
AcDbLine
   6
CONTINUOUS
  62
7
  10
 2892.2834831462
  20
 4785.6070204130
  30
0.0
  11
 2892.2834831462
  21
 4800.6070204130
  31
0.0
   0
LINE
   5
1A3
 100
AcDbEntity
   8
LEVEL002
 370
13
 100
AcDbLine
   6
CONTINUOUS
  62
7
  10
 2892.2834831462
  20
 4800.6070204130
  30
0.0
  11
 2815.9834831462
  21
 4800.6070204130
  31
0.0
   0
LINE
   5
1A4
 100
AcDbEntity
   8
LEVEL002
 370
13
 100
AcDbLine
   6
CONTINUOUS
  62
7
  10
 2815.9834831462
  20
 4800.6070204130
  30
0.0
  11
 2815.9834831462
  21
 4785.6070204130
  31
0.0
   0
LINE
   5
1A5
 100
AcDbEntity
   8
LEVEL002
 370
13
 100
AcDbLine
   6
CONTINUOUS
  62
6
  10
 2889.5615098026
  20
 4780.6070204130
  30
0.0
  11
 2889.5615098026
  21
 4680.6070204130
  31
0.0
   0
LINE
   5
1A6
 100
AcDbEntity
   8
LEVEL002
 370
13
 100
AcDbLine
   6
DASHDOT
  62
6
  10
 2954.1335002488
  20
 4730.6070204130
  30
0.0
  11
 2555.3168801094
  21
 4730.6070204130
  31
0.0
   0
LINE
   5
1A7
 100
AcDbEntity
   8
LEVEL002
 370
13
 100
AcDbLine
   6
CONTINUOUS
  62
7
  10
 3141.5876623002
  20
 4820.6070204130
  30
0.0
  11
 3141.5876623002
  21
 4998.1070204130
  31
0.0
   0
LINE
   5
1A8
 100
AcDbEntity
   8
LEVEL002
 370
13
 100
AcDbLine
   6
CONTINUOUS
  62
7
  10
 3141.5876623002
  20
 4998.1070204130
  30
0.0
  11
 3230.6876623002
  21
 4998.1070204130
  31
0.0
   0
LINE
   5
1A9
 100
AcDbEntity
   8
LEVEL002
 370
13
 100
AcDbLine
   6
CONTINUOUS
  62
7
  10
 3230.6876623002
  20
 4998.1070204130
  30
0.0
  11
 3230.6876623002
  21
 4820.6070204130
  31
0.0
   0
LINE
   5
1AA
 100
AcDbEntity
   8
LEVEL002
 370
13
 100
AcDbLine
   6
DASHDOT
  62
6
  10
 2909.1335002488
  20
 4775.6070204130
  30
0.0
  11
 2909.1335002488
  21
 4745.6070204130
  31
0.0
   0
LINE
   5
1AB
 100
AcDbEntity
   8
LEVEL002
 370
13
 100
AcDbLine
   6
DASHDOT
  62
6
  10
 2924.1335002488
  20
 4760.6070204130
  30
0.0
  11
 2894.1335002488
  21
 4760.6070204130
  31
0.0
   0
LINE
   5
1AC
 100
AcDbEntity
   8
LEVEL002
 370
13
 100
AcDbLine
   6
DASHDOT
  62
6
  10
 2909.1335002488
  20
 4715.6070204130
  30
0.0
  11
 2909.1335002488
  21
 4685.6070204130
  31
0.0
   0
LINE
   5
1AD
 100
AcDbEntity
   8
LEVEL002
 370
13
 100
AcDbLine
   6
DASHDOT
  62
6
  10
 2924.1335002488
  20
 4700.6070204130
  30
0.0
  11
 2894.1335002488
  21
 4700.6070204130
  31
0.0
   0
LINE
   5
1AE
 100
AcDbEntity
   8
LEVEL002
 370
13
 100
AcDbLine
   6
DASHDOT
  62
6
  10
 3249.1376708200
  20
 4810.6070204130
  30
0.0
  11
 3249.1376708200
  21
 4780.6070204130
  31
0.0
   0
LINE
   5
1AF
 100
AcDbEntity
   8
LEVEL002
 370
13
 100
AcDbLine
   6
DASHDOT
  62
6
  10
 3264.1376708200
  20
 4795.6070204130
  30
0.0
  11
 3234.1376708200
  21
 4795.6070204130
  31
0.0
   0
LINE
   5
1B0
 100
AcDbEntity
   8
LEVEL002
 370
13
 100
AcDbLine
   6
DASHDOT
  62
6
  10
 3249.1376708200
  20
 4750.6070204130
  30
0.0
  11
 3249.1376708200
  21
 4720.6070204130
  31
0.0
   0
LINE
   5
1B1
 100
AcDbEntity
   8
LEVEL002
 370
13
 100
AcDbLine
   6
DASHDOT
  62
6
  10
 3264.1376708200
  20
 4735.6070204130
  30
0.0
  11
 3234.1376708200
  21
 4735.6070204130
  31
0.0
   0
LINE
   5
1B2
 100
AcDbEntity
   8
LEVEL002
 370
13
 100
AcDbLine
   6
DASHDOT
  62
6
  10
 3123.1376537804
  20
 4700.6070204130
  30
0.0
  11
 3123.1376537804
  21
 4670.6070204130
  31
0.0
   0
LINE
   5
1B3
 100
AcDbEntity
   8
LEVEL002
 370
13
 100
AcDbLine
   6
DASHDOT
  62
6
  10
 3138.1376537804
  20
 4685.6070204130
  30
0.0
  11
 3108.1376537804
  21
 4685.6070204130
  31
0.0
   0
LINE
   5
1B4
 100
AcDbEntity
   8
LEVEL002
 370
13
 100
AcDbLine
   6
DASHDOT
  62
6
  10
 3123.1376537804
  20
 4640.6070204130
  30
0.0
  11
 3123.1376537804
  21
 4610.6070204130
  31
0.0
   0
LINE
   5
1B5
 100
AcDbEntity
   8
LEVEL002
 370
13
 100
AcDbLine
   6
DASHDOT
  62
6
  10
 3138.1376537804
  20
 4625.6070204130
  30
0.0
  11
 3108.1376537804
  21
 4625.6070204130
  31
0.0
   0
LINE
   5
1B6
 100
AcDbEntity
   8
LEVEL002
 370
13
 100
AcDbLine
   6
DASHDOT
  62
6
  10
 2736.3501452818
  20
 4775.6070204130
  30
0.0
  11
 2736.3501452818
  21
 4745.6070204130
  31
0.0
   0
LINE
   5
1B7
 100
AcDbEntity
   8
LEVEL002
 370
13
 100
AcDbLine
   6
DASHDOT
  62
6
  10
 2751.3501452818
  20
 4760.6070204130
  30
0.0
  11
 2721.3501452818
  21
 4760.6070204130
  31
0.0
   0
LINE
   5
1B8
 100
AcDbEntity
   8
LEVEL002
 370
13
 100
AcDbLine
   6
DASHDOT
  62
6
  10
 2736.3501452818
  20
 4715.6070204130
  30
0.0
  11
 2736.3501452818
  21
 4685.6070204130
  31
0.0
   0
LINE
   5
1B9
 100
AcDbEntity
   8
LEVEL002
 370
13
 100
AcDbLine
   6
DASHDOT
  62
6
  10
 2751.3501452818
  20
 4700.6070204130
  30
0.0
  11
 2721.3501452818
  21
 4700.6070204130
  31
0.0
   0
ARC
   5
1BA
 100
AcDbEntity
   8
LEVEL002
 370
13
   6
CONTINUOUS
  62
7
 100
AcDbCircle
  10
 2665.6501452818
  20
 4300.6070204130
  30
0.0
  40
 2.5000000000000
 100
AcDbArc
  50
 180.00000000000
  51
 270.00000000000
   0
LINE
   5
1BB
 100
AcDbEntity
   8
LEVEL002
 370
13
 100
AcDbLine
   6
CONTINUOUS
  62
7
  10
 2663.1501452818
  20
 5160.6070204130
  30
0.0
  11
 2663.1501452818
  21
 4300.6070204130
  31
0.0
   0
ARC
   5
1BC
 100
AcDbEntity
   8
LEVEL002
 370
13
   6
CONTINUOUS
  62
7
 100
AcDbCircle
  10
 2665.6501452818
  20
 5160.6070204130
  30
0.0
  40
 2.5000000000000
 100
AcDbArc
  50
 90.000000000000
  51
 180.00000000000
   0
ARC
   5
1BD
 100
AcDbEntity
   8
LEVEL002
 370
13
   6
CONTINUOUS
  62
7
 100
AcDbCircle
  10
 2665.6501452818
  20
 4300.6070204130
  30
0.0
  40
 2.5000000000000
 100
AcDbArc
  50
 270.00000000000
  51
0.0
   0
LINE
   5
1BE
 100
AcDbEntity
   8
LEVEL002
 370
13
 100
AcDbLine
   6
CONTINUOUS
  62
7
  10
 2668.1501452818
  20
 4300.6070204130
  30
0.0
  11
 2668.1501452818
  21
 5160.6070204130
  31
0.0
   0
ARC
   5
1BF
 100
AcDbEntity
   8
LEVEL002
 370
13
   6
CONTINUOUS
  62
7
 100
AcDbCircle
  10
 2665.6501452818
  20
 5160.6070204130
  30
0.0
  40
 2.5000000000000
 100
AcDbArc
  50
0.0
  51
 90.000000000000
   0
LINE
   5
1C0
 100
AcDbEntity
   8
LEVEL002
 370
13
 100
AcDbLine
   6
CONTINUOUS
  62
7
  10
 2643.7773323360
  20
 4324.4815830022
  30
0.0
  11
 2663.1501452818
  21
 4320.6070204130
  31
0.0
   0
ARC
   5
1C1
 100
AcDbEntity
   8
LEVEL002
 370
13
   6
CONTINUOUS
  62
7
 100
AcDbCircle
  10
 2645.1501452818
  20
 4331.3456477320
  30
0.0
  40
 7.0000000000000
 100
AcDbArc
  50
 180.00000000004
  51
 258.69006752595
   0
LINE
   5
1C2
 100
AcDbEntity
   8
LEVEL002
 370
13
 100
AcDbLine
   6
CONTINUOUS
  62
7
  10
 2638.1501452818
  20
 4782.9066189906
  30
0.0
  11
 2638.1501452818
  21
 4331.3456477320
  31
0.0
   0
ARC
   5
1C3
 100
AcDbEntity
   8
LEVEL002
 370
13
   6
CONTINUOUS
  62
7
 100
AcDbCircle
  10
 5611.3638947456
  20
 4730.6070204130
  30
0.0
  40
 3000.0000000000
 100
AcDbArc
  50
 178.16561308138
  51
 187.66225566077
   0
ARC
   5
1C4
 100
AcDbEntity
   8
LEVEL002
 370
13
   6
HIDDEN
  62
6
 100
AcDbCircle
  10
 5611.3638947456
  20
 4730.6070204129
  30
0.0
  40
 3000.0000000000
 100
AcDbArc
  50
 172.33774433923
  51
 178.16561308138
   0
LINE
   5
1C5
 100
AcDbEntity
   8
LEVEL002
 370
13
 100
AcDbLine
   6
HIDDEN
  62
6
  10
 2638.1501452818
  20
 5129.8683930940
  30
0.0
  11
 2638.1501452818
  21
 4782.9066189906
  31
0.0
   0
LINE
   5
1C6
 100
AcDbEntity
   8
LEVEL002
 370
13
 100
AcDbLine
   6
HIDDEN
  62
6
  10
 2663.1501452818
  20
 5140.6070204130
  30
0.0
  11
 2643.7773323360
  21
 5136.7324578238
  31
0.0
   0
ARC
   5
1C7
 100
AcDbEntity
   8
LEVEL002
 370
13
   6
HIDDEN
  62
6
 100
AcDbCircle
  10
 2645.1501452818
  20
 5129.8683930940
  30
0.0
  40
 7.0000000000000
 100
AcDbArc
  50
 101.30993247405
  51
 179.99999999996
   0
LINE
   5
1C8
 100
AcDbEntity
   8
LEVEL002
 370
13
 100
AcDbLine
   6
CONTINUOUS
  62
3
  10
 2663.1501452818
  20
 4774.2463649528
  30
0.0
  11
 2643.1501452818
  21
 4774.2463649526
  31
0.0
   0
LINE
   5
1C9
 100
AcDbEntity
   8
LEVEL002
 370
13
 100
AcDbLine
   6
CONTINUOUS
  62
3
  10
 2643.1501452818
  20
 4774.2463649526
  30
0.0
  11
 2578.1501452818
  21
 4886.8296674448
  31
0.0
   0
LINE
   5
1CA
 100
AcDbEntity
   8
LEVEL002
 370
13
 100
AcDbLine
   6
CONTINUOUS
  62
3
  10
 2578.1501452818
  20
 4886.8296674448
  30
0.0
  11
 2578.1501452818
  21
 5142.1070204130
  31
0.0
   0
LINE
   5
1CB
 100
AcDbEntity
   8
LEVEL002
 370
13
 100
AcDbLine
   6
CONTINUOUS
  62
3
  10
 2578.1501452818
  20
 5142.1070204130
  30
0.0
  11
 2663.1501452818
  21
 5142.1070204130
  31
0.0
   0
LINE
   5
1CC
 100
AcDbEntity
   8
LEVEL002
 370
13
 100
AcDbLine
   6
CONTINUOUS
  62
7
  10
 2668.1501452818
  20
 4675.6070204130
  30
0.0
  11
 2761.3501452818
  21
 4675.6070204130
  31
0.0
   0
LINE
   5
1CD
 100
AcDbEntity
   8
LEVEL002
 370
13
 100
AcDbLine
   6
CONTINUOUS
  62
7
  10
 2761.3501452818
  20
 4675.6070204130
  30
0.0
  11
 2761.3501452818
  21
 4785.6070204130
  31
0.0
   0
LINE
   5
1CE
 100
AcDbEntity
   8
LEVEL002
 370
13
 100
AcDbLine
   6
CONTINUOUS
  62
7
  10
 2761.3501452818
  20
 4785.6070204130
  30
0.0
  11
 2668.1501452818
  21
 4785.6070204130
  31
0.0
   0
LINE
   5
1CF
 100
AcDbEntity
   8
LEVEL002
 370
13
 100
AcDbLine
   6
DASHDOT
  62
6
  10
 2800.4992679392
  20
 4726.1924342320
  30
0.0
  11
 2770.4992679392
  21
 4726.1924342320
  31
0.0
   0
LINE
   5
1D0
 100
AcDbEntity
   8
LEVEL002
 370
13
 100
AcDbLine
   6
DASHDOT
  62
6
  10
 2785.4992679392
  20
 4741.1924342320
  30
0.0
  11
 2785.4992679392
  21
 4711.1924342320
  31
0.0
   0
LINE
   5
1D1
 100
AcDbEntity
   8
LEVEL002
 370
13
 100
AcDbLine
   6
CONTINUOUS
  62
7
  10
 3709.1251793186
  20
 5160.6070204130
  30
0.0
  11
 3709.1251793186
  21
 4300.6070204130
  31
0.0
   0
ARC
   5
1D2
 100
AcDbEntity
   8
LEVEL002
 370
13
   6
CONTINUOUS
  62
7
 100
AcDbCircle
  10
 3706.6251793186
  20
 5160.6070204130
  30
0.0
  40
 2.5000000000000
 100
AcDbArc
  50
0.0
  51
 90.000000000000
   0
LINE
   5
1D3
 100
AcDbEntity
   8
LEVEL002
 370
13
 100
AcDbLine
   6
CONTINUOUS
  62
7
  10
 3704.1251793186
  20
 4300.6070204130
  30
0.0
  11
 3704.1251793186
  21
 5160.6070204130
  31
0.0
   0
ARC
   5
1D4
 100
AcDbEntity
   8
LEVEL002
 370
13
   6
CONTINUOUS
  62
7
 100
AcDbCircle
  10
 3706.6251793186
  20
 5160.6070204130
  30
0.0
  40
 2.5000000000000
 100
AcDbArc
  50
 90.000000000000
  51
 180.00000000000
   0
ARC
   5
1D5
 100
AcDbEntity
   8
LEVEL002
 370
13
   6
HIDDEN
  62
6
 100
AcDbCircle
  10
 760.91142985484
  20
 4730.6070204130
  30
0.0
  40
 3000.0000000000
 100
AcDbArc
  50
 1.8343869186168
  51
 7.6622556607656
   0
LINE
   5
1D6
 100
AcDbEntity
   8
LEVEL002
 370
13
 100
AcDbLine
   6
HIDDEN
  62
6
  10
 3734.1251793186
  20
 5129.8683930940
  30
0.0
  11
 3734.1251793186
  21
 4782.9066189906
  31
0.0
   0
LINE
   5
1D7
 100
AcDbEntity
   8
LEVEL002
 370
13
 100
AcDbLine
   6
HIDDEN
  62
6
  10
 3709.1251793186
  20
 5140.6070204130
  30
0.0
  11
 3728.4979922644
  21
 5136.7324578238
  31
0.0
   0
ARC
   5
1D8
 100
AcDbEntity
   8
LEVEL002
 370
13
   6
HIDDEN
  62
6
 100
AcDbCircle
  10
 3727.1251793186
  20
 5129.8683930940
  30
0.0
  40
 7.0000000000000
 100
AcDbArc
  50
 0.44665892486656E-10
  51
 78.690067525954
   0
LINE
   5
1D9
 100
AcDbEntity
   8
LEVEL002
 370
13
 100
AcDbLine
   6
CONTINUOUS
  62
3
  10
 3709.1251793186
  20
 4774.2463649528
  30
0.0
  11
 3729.1251793186
  21
 4774.2463649526
  31
0.0
   0
LINE
   5
1DA
 100
AcDbEntity
   8
LEVEL002
 370
13
 100
AcDbLine
   6
CONTINUOUS
  62
3
  10
 3729.1251793186
  20
 4774.2463649526
  30
0.0
  11
 3794.1251793186
  21
 4886.8296674448
  31
0.0
   0
LINE
   5
1DB
 100
AcDbEntity
   8
LEVEL002
 370
13
 100
AcDbLine
   6
CONTINUOUS
  62
3
  10
 3794.1251793186
  20
 4886.8296674448
  30
0.0
  11
 3794.1251793186
  21
 5142.1070204130
  31
0.0
   0
LINE
   5
1DC
 100
AcDbEntity
   8
LEVEL002
 370
13
 100
AcDbLine
   6
CONTINUOUS
  62
3
  10
 3794.1251793186
  20
 5142.1070204130
  30
0.0
  11
 3709.1251793186
  21
 5142.1070204130
  31
0.0
   0
ARC
   5
1DD
 100
AcDbEntity
   8
LEVEL002
 370
13
   6
CONTINUOUS
  62
7
 100
AcDbCircle
  10
 760.91142985484
  20
 4730.6070204130
  30
0.0
  40
 3000.0000000000
 100
AcDbArc
  50
 352.33774433923
  51
 1.8343869186172
   0
ARC
   5
1DE
 100
AcDbEntity
   8
LEVEL002
 370
13
   6
CONTINUOUS
  62
7
 100
AcDbCircle
  10
 3706.6251793186
  20
 4300.6070204130
  30
0.0
  40
 2.5000000000000
 100
AcDbArc
  50
 270.00000000000
  51
0.0
   0
ARC
   5
1DF
 100
AcDbEntity
   8
LEVEL002
 370
13
   6
CONTINUOUS
  62
7
 100
AcDbCircle
  10
 3706.6251793186
  20
 4300.6070204130
  30
0.0
  40
 2.5000000000000
 100
AcDbArc
  50
 180.00000000000
  51
 270.00000000000
   0
LINE
   5
1E0
 100
AcDbEntity
   8
LEVEL002
 370
13
 100
AcDbLine
   6
CONTINUOUS
  62
7
  10
 3728.4979922644
  20
 4324.4815830022
  30
0.0
  11
 3709.1251793186
  21
 4320.6070204130
  31
0.0
   0
ARC
   5
1E1
 100
AcDbEntity
   8
LEVEL002
 370
13
   6
CONTINUOUS
  62
7
 100
AcDbCircle
  10
 3727.1251793186
  20
 4331.3456477320
  30
0.0
  40
 7.0000000000000
 100
AcDbArc
  50
 281.30993247405
  51
 359.99999999996
   0
LINE
   5
1E2
 100
AcDbEntity
   8
LEVEL002
 370
13
 100
AcDbLine
   6
CONTINUOUS
  62
7
  10
 3734.1251793186
  20
 4782.9066189906
  30
0.0
  11
 3734.1251793186
  21
 4331.3456477320
  31
0.0
   0
LINE
   5
1E3
 100
AcDbEntity
   8
LEVEL002
 370
13
 100
AcDbLine
   6
CONTINUOUS
  62
7
  10
 2816.3501452818
  20
 4675.6070204130
  30
0.0
  11
 2929.1335002488
  21
 4675.6070204130
  31
0.0
   0
LINE
   5
1E4
 100
AcDbEntity
   8
LEVEL002
 370
13
 100
AcDbLine
   6
CONTINUOUS
  62
7
  10
 2929.1335002488
  20
 4675.6070204130
  30
0.0
  11
 2929.1335002488
  21
 4785.6070204130
  31
0.0
   0
LINE
   5
1E5
 100
AcDbEntity
   8
LEVEL002
 370
13
 100
AcDbLine
   6
CONTINUOUS
  62
7
  10
 2929.1335002488
  20
 4785.6070204130
  30
0.0
  11
 2816.3501452818
  21
 4785.6070204130
  31
0.0
   0
LINE
   5
1E6
 100
AcDbEntity
   8
LEVEL002
 370
13
 100
AcDbLine
   6
CONTINUOUS
  62
7
  10
 2761.3501452818
  20
 4785.6070204130
  30
0.0
  11
 2816.3501452818
  21
 4785.6070204130
  31
0.0
   0
LINE
   5
1E7
 100
AcDbEntity
   8
LEVEL002
 370
13
 100
AcDbLine
   6
CONTINUOUS
  62
7
  10
 2816.3501452818
  20
 4785.6070204130
  30
0.0
  11
 2816.3501452818
  21
 4675.6070204130
  31
0.0
   0
LINE
   5
1E8
 100
AcDbEntity
   8
LEVEL002
 370
13
 100
AcDbLine
   6
CONTINUOUS
  62
7
  10
 2816.3501452818
  20
 4675.6070204130
  30
0.0
  11
 2761.3501452818
  21
 4675.6070204130
  31
0.0
   0
LINE
   5
1E9
 100
AcDbEntity
   8
LEVEL002
 370
13
 100
AcDbLine
   6
CONTINUOUS
  62
3
  10
 2729.3501452818
  20
 4753.6070204130
  30
0.0
  11
 2743.3501452818
  21
 4753.6070204130
  31
0.0
   0
LINE
   5
1EA
 100
AcDbEntity
   8
LEVEL002
 370
13
 100
AcDbLine
   6
CONTINUOUS
  62
3
  10
 2743.3501452818
  20
 4753.6070204130
  30
0.0
  11
 2743.3501452818
  21
 4767.6070204130
  31
0.0
   0
LINE
   5
1EB
 100
AcDbEntity
   8
LEVEL002
 370
13
 100
AcDbLine
   6
CONTINUOUS
  62
3
  10
 2743.3501452818
  20
 4767.6070204130
  30
0.0
  11
 2729.3501452818
  21
 4767.6070204130
  31
0.0
   0
LINE
   5
1EC
 100
AcDbEntity
   8
LEVEL002
 370
13
 100
AcDbLine
   6
CONTINUOUS
  62
3
  10
 2729.3501452818
  20
 4767.6070204130
  30
0.0
  11
 2729.3501452818
  21
 4753.6070204130
  31
0.0
   0
LINE
   5
1ED
 100
AcDbEntity
   8
LEVEL002
 370
13
 100
AcDbLine
   6
CONTINUOUS
  62
3
  10
 2729.3501452818
  20
 4693.6070204130
  30
0.0
  11
 2743.3501452818
  21
 4693.6070204130
  31
0.0
   0
LINE
   5
1EE
 100
AcDbEntity
   8
LEVEL002
 370
13
 100
AcDbLine
   6
CONTINUOUS
  62
3
  10
 2743.3501452818
  20
 4693.6070204130
  30
0.0
  11
 2743.3501452818
  21
 4707.6070204130
  31
0.0
   0
LINE
   5
1EF
 100
AcDbEntity
   8
LEVEL002
 370
13
 100
AcDbLine
   6
CONTINUOUS
  62
3
  10
 2743.3501452818
  20
 4707.6070204130
  30
0.0
  11
 2729.3501452818
  21
 4707.6070204130
  31
0.0
   0
LINE
   5
1F0
 100
AcDbEntity
   8
LEVEL002
 370
13
 100
AcDbLine
   6
CONTINUOUS
  62
3
  10
 2729.3501452818
  20
 4707.6070204130
  30
0.0
  11
 2729.3501452818
  21
 4693.6070204130
  31
0.0
   0
ARC
   5
1F1
 100
AcDbEntity
   8
LEVEL002
 370
13
   6
CONTINUOUS
  62
3
 100
AcDbCircle
  10
 2736.3501452818
  20
 4760.6070204130
  30
0.0
  40
 52.000000000000
 100
AcDbArc
  50
 298.73565374501
  51
 325.00000000002
   0
ARC
   5
1F2
 100
AcDbEntity
   8
LEVEL002
 370
13
   6
CONTINUOUS
  62
3
 100
AcDbCircle
  10
 2785.4992679394
  20
 4726.1924342324
  30
0.0
  40
 8.0000000000000
 100
AcDbArc
  50
 324.99999999589
  51
 144.99999999589
   0
ARC
   5
1F3
 100
AcDbEntity
   8
LEVEL002
 370
13
   6
CONTINUOUS
  62
3
 100
AcDbCircle
  10
 2736.3501452818
  20
 4760.6070204130
  30
0.0
  40
 68.000000000000
 100
AcDbArc
  50
 291.57057830170
  51
 325.00000000003
   0
LINE
   5
1F4
 100
AcDbEntity
   8
LEVEL002
 370
13
 100
AcDbLine
   6
CONTINUOUS
  62
3
  10
 2902.1335002489
  20
 4753.6070204130
  30
0.0
  11
 2916.1335002488
  21
 4753.6070204130
  31
0.0
   0
LINE
   5
1F5
 100
AcDbEntity
   8
LEVEL002
 370
13
 100
AcDbLine
   6
CONTINUOUS
  62
3
  10
 2916.1335002488
  20
 4753.6070204130
  30
0.0
  11
 2916.1335002488
  21
 4767.6070204130
  31
0.0
   0
LINE
   5
1F6
 100
AcDbEntity
   8
LEVEL002
 370
13
 100
AcDbLine
   6
CONTINUOUS
  62
3
  10
 2916.1335002488
  20
 4767.6070204130
  30
0.0
  11
 2902.1335002489
  21
 4767.6070204130
  31
0.0
   0
LINE
   5
1F7
 100
AcDbEntity
   8
LEVEL002
 370
13
 100
AcDbLine
   6
CONTINUOUS
  62
3
  10
 2902.1335002489
  20
 4767.6070204130
  30
0.0
  11
 2902.1335002489
  21
 4753.6070204130
  31
0.0
   0
LINE
   5
1F8
 100
AcDbEntity
   8
LEVEL002
 370
13
 100
AcDbLine
   6
CONTINUOUS
  62
3
  10
 2902.1335002489
  20
 4693.6070204130
  30
0.0
  11
 2916.1335002488
  21
 4693.6070204130
  31
0.0
   0
LINE
   5
1F9
 100
AcDbEntity
   8
LEVEL002
 370
13
 100
AcDbLine
   6
CONTINUOUS
  62
3
  10
 2916.1335002488
  20
 4693.6070204130
  30
0.0
  11
 2916.1335002488
  21
 4707.6070204130
  31
0.0
   0
LINE
   5
1FA
 100
AcDbEntity
   8
LEVEL002
 370
13
 100
AcDbLine
   6
CONTINUOUS
  62
3
  10
 2916.1335002488
  20
 4707.6070204130
  30
0.0
  11
 2902.1335002489
  21
 4707.6070204130
  31
0.0
   0
LINE
   5
1FB
 100
AcDbEntity
   8
LEVEL002
 370
13
 100
AcDbLine
   6
CONTINUOUS
  62
3
  10
 2902.1335002489
  20
 4707.6070204130
  30
0.0
  11
 2902.1335002489
  21
 4693.6070204130
  31
0.0
   0
LINE
   5
1FC
 100
AcDbEntity
   8
LEVEL002
 370
13
 100
AcDbLine
   6
CONTINUOUS
  62
6
  10
 3482.7138147978
  20
 4780.6070204130
  30
0.0
  11
 3482.7138147978
  21
 4680.6070204130
  31
0.0
   0
LINE
   5
1FD
 100
AcDbEntity
   8
LEVEL002
 370
13
 100
AcDbLine
   6
DASHDOT
  62
6
  10
 3418.1418243516
  20
 4730.6070204130
  30
0.0
  11
 3816.9584444910
  21
 4730.6070204130
  31
0.0
   0
LINE
   5
1FE
 100
AcDbEntity
   8
LEVEL002
 370
13
 100
AcDbLine
   6
DASHDOT
  62
6
  10
 3463.1418243516
  20
 4775.6070204130
  30
0.0
  11
 3463.1418243516
  21
 4745.6070204130
  31
0.0
   0
LINE
   5
1FF
 100
AcDbEntity
   8
LEVEL002
 370
13
 100
AcDbLine
   6
DASHDOT
  62
6
  10
 3448.1418243516
  20
 4760.6070204130
  30
0.0
  11
 3478.1418243516
  21
 4760.6070204130
  31
0.0
   0
LINE
   5
200
 100
AcDbEntity
   8
LEVEL002
 370
13
 100
AcDbLine
   6
DASHDOT
  62
6
  10
 3463.1418243516
  20
 4715.6070204130
  30
0.0
  11
 3463.1418243516
  21
 4685.6070204130
  31
0.0
   0
LINE
   5
201
 100
AcDbEntity
   8
LEVEL002
 370
13
 100
AcDbLine
   6
CONTINUOUS
  62
3
  10
 3470.1418243516
  20
 4753.6070204130
  30
0.0
  11
 3456.1418243516
  21
 4753.6070204130
  31
0.0
   0
LINE
   5
202
 100
AcDbEntity
   8
LEVEL002
 370
13
 100
AcDbLine
   6
CONTINUOUS
  62
3
  10
 3456.1418243516
  20
 4753.6070204130
  30
0.0
  11
 3456.1418243516
  21
 4767.6070204130
  31
0.0
   0
LINE
   5
203
 100
AcDbEntity
   8
LEVEL002
 370
13
 100
AcDbLine
   6
CONTINUOUS
  62
3
  10
 3456.1418243516
  20
 4767.6070204130
  30
0.0
  11
 3470.1418243516
  21
 4767.6070204130
  31
0.0
   0
LINE
   5
204
 100
AcDbEntity
   8
LEVEL002
 370
13
 100
AcDbLine
   6
CONTINUOUS
  62
3
  10
 3470.1418243516
  20
 4767.6070204130
  30
0.0
  11
 3470.1418243516
  21
 4753.6070204130
  31
0.0
   0
LINE
   5
205
 100
AcDbEntity
   8
LEVEL002
 370
13
 100
AcDbLine
   6
CONTINUOUS
  62
3
  10
 3470.1418243516
  20
 4693.6070204130
  30
0.0
  11
 3456.1418243516
  21
 4693.6070204130
  31
0.0
   0
LINE
   5
206
 100
AcDbEntity
   8
LEVEL002
 370
13
 100
AcDbLine
   6
CONTINUOUS
  62
3
  10
 3456.1418243516
  20
 4693.6070204130
  30
0.0
  11
 3456.1418243516
  21
 4707.6070204130
  31
0.0
   0
LINE
   5
207
 100
AcDbEntity
   8
LEVEL002
 370
13
 100
AcDbLine
   6
CONTINUOUS
  62
3
  10
 3456.1418243516
  20
 4707.6070204130
  30
0.0
  11
 3470.1418243516
  21
 4707.6070204130
  31
0.0
   0
LINE
   5
208
 100
AcDbEntity
   8
LEVEL002
 370
13
 100
AcDbLine
   6
CONTINUOUS
  62
3
  10
 3470.1418243516
  20
 4707.6070204130
  30
0.0
  11
 3470.1418243516
  21
 4693.6070204130
  31
0.0
   0
LINE
   5
209
 100
AcDbEntity
   8
LEVEL002
 370
13
 100
AcDbLine
   6
DASHDOT
  62
6
  10
 3448.1418243516
  20
 4700.6070204130
  30
0.0
  11
 3478.1418243516
  21
 4700.6070204130
  31
0.0
   0
LINE
   5
20A
 100
AcDbEntity
   8
LEVEL002
 370
13
 100
AcDbLine
   6
DASHDOT
  62
6
  10
 3635.9251793186
  20
 4775.6070204130
  30
0.0
  11
 3635.9251793186
  21
 4745.6070204130
  31
0.0
   0
LINE
   5
20B
 100
AcDbEntity
   8
LEVEL002
 370
13
 100
AcDbLine
   6
DASHDOT
  62
6
  10
 3620.9251793186
  20
 4760.6070204130
  30
0.0
  11
 3650.9251793186
  21
 4760.6070204130
  31
0.0
   0
LINE
   5
20C
 100
AcDbEntity
   8
LEVEL002
 370
13
 100
AcDbLine
   6
DASHDOT
  62
6
  10
 3635.9251793186
  20
 4715.6070204130
  30
0.0
  11
 3635.9251793186
  21
 4685.6070204130
  31
0.0
   0
LINE
   5
20D
 100
AcDbEntity
   8
LEVEL002
 370
13
 100
AcDbLine
   6
DASHDOT
  62
6
  10
 3620.9251793186
  20
 4700.6070204130
  30
0.0
  11
 3650.9251793186
  21
 4700.6070204130
  31
0.0
   0
LINE
   5
20E
 100
AcDbEntity
   8
LEVEL002
 370
13
 100
AcDbLine
   6
CONTINUOUS
  62
7
  10
 3704.1251793186
  20
 4675.6070204130
  30
0.0
  11
 3610.9251793186
  21
 4675.6070204130
  31
0.0
   0
LINE
   5
20F
 100
AcDbEntity
   8
LEVEL002
 370
13
 100
AcDbLine
   6
CONTINUOUS
  62
7
  10
 3610.9251793186
  20
 4675.6070204130
  30
0.0
  11
 3610.9251793186
  21
 4785.6070204130
  31
0.0
   0
LINE
   5
210
 100
AcDbEntity
   8
LEVEL002
 370
13
 100
AcDbLine
   6
CONTINUOUS
  62
7
  10
 3610.9251793186
  20
 4785.6070204130
  30
0.0
  11
 3704.1251793186
  21
 4785.6070204130
  31
0.0
   0
LINE
   5
211
 100
AcDbEntity
   8
LEVEL002
 370
13
 100
AcDbLine
   6
DASHDOT
  62
6
  10
 3571.7760566612
  20
 4726.1924342320
  30
0.0
  11
 3601.7760566612
  21
 4726.1924342320
  31
0.0
   0
LINE
   5
212
 100
AcDbEntity
   8
LEVEL002
 370
13
 100
AcDbLine
   6
DASHDOT
  62
6
  10
 3586.7760566612
  20
 4741.1924342320
  30
0.0
  11
 3586.7760566612
  21
 4711.1924342320
  31
0.0
   0
LINE
   5
213
 100
AcDbEntity
   8
LEVEL002
 370
13
 100
AcDbLine
   6
CONTINUOUS
  62
7
  10
 3610.9251793186
  20
 4785.6070204130
  30
0.0
  11
 3555.9251793186
  21
 4785.6070204130
  31
0.0
   0
LINE
   5
214
 100
AcDbEntity
   8
LEVEL002
 370
13
 100
AcDbLine
   6
CONTINUOUS
  62
7
  10
 3555.9251793186
  20
 4785.6070204130
  30
0.0
  11
 3555.9251793186
  21
 4675.6070204130
  31
0.0
   0
LINE
   5
215
 100
AcDbEntity
   8
LEVEL002
 370
13
 100
AcDbLine
   6
CONTINUOUS
  62
7
  10
 3555.9251793186
  20
 4675.6070204130
  30
0.0
  11
 3610.9251793186
  21
 4675.6070204130
  31
0.0
   0
LINE
   5
216
 100
AcDbEntity
   8
LEVEL002
 370
13
 100
AcDbLine
   6
CONTINUOUS
  62
3
  10
 3642.9251793186
  20
 4753.6070204130
  30
0.0
  11
 3628.9251793186
  21
 4753.6070204130
  31
0.0
   0
LINE
   5
217
 100
AcDbEntity
   8
LEVEL002
 370
13
 100
AcDbLine
   6
CONTINUOUS
  62
3
  10
 3628.9251793186
  20
 4753.6070204130
  30
0.0
  11
 3628.9251793186
  21
 4767.6070204130
  31
0.0
   0
LINE
   5
218
 100
AcDbEntity
   8
LEVEL002
 370
13
 100
AcDbLine
   6
CONTINUOUS
  62
3
  10
 3628.9251793186
  20
 4767.6070204130
  30
0.0
  11
 3642.9251793186
  21
 4767.6070204130
  31
0.0
   0
LINE
   5
219
 100
AcDbEntity
   8
LEVEL002
 370
13
 100
AcDbLine
   6
CONTINUOUS
  62
3
  10
 3642.9251793186
  20
 4767.6070204130
  30
0.0
  11
 3642.9251793186
  21
 4753.6070204130
  31
0.0
   0
LINE
   5
21A
 100
AcDbEntity
   8
LEVEL002
 370
13
 100
AcDbLine
   6
CONTINUOUS
  62
3
  10
 3642.9251793186
  20
 4693.6070204130
  30
0.0
  11
 3628.9251793186
  21
 4693.6070204130
  31
0.0
   0
LINE
   5
21B
 100
AcDbEntity
   8
LEVEL002
 370
13
 100
AcDbLine
   6
CONTINUOUS
  62
3
  10
 3628.9251793186
  20
 4693.6070204130
  30
0.0
  11
 3628.9251793186
  21
 4707.6070204130
  31
0.0
   0
LINE
   5
21C
 100
AcDbEntity
   8
LEVEL002
 370
13
 100
AcDbLine
   6
CONTINUOUS
  62
3
  10
 3628.9251793186
  20
 4707.6070204130
  30
0.0
  11
 3642.9251793186
  21
 4707.6070204130
  31
0.0
   0
LINE
   5
21D
 100
AcDbEntity
   8
LEVEL002
 370
13
 100
AcDbLine
   6
CONTINUOUS
  62
3
  10
 3642.9251793186
  20
 4707.6070204130
  30
0.0
  11
 3642.9251793186
  21
 4693.6070204130
  31
0.0
   0
ARC
   5
21E
 100
AcDbEntity
   8
LEVEL002
 370
13
   6
CONTINUOUS
  62
3
 100
AcDbCircle
  10
 3635.9251793187
  20
 4760.6070204130
  30
0.0
  40
 52.000000000000
 100
AcDbArc
  50
 214.99999999998
  51
 241.26434625499
   0
ARC
   5
21F
 100
AcDbEntity
   8
LEVEL002
 370
13
   6
CONTINUOUS
  62
3
 100
AcDbCircle
  10
 3586.7760566610
  20
 4726.1924342324
  30
0.0
  40
 8.0000000000000
 100
AcDbArc
  50
 35.000000004129
  51
 215.00000000413
   0
ARC
   5
220
 100
AcDbEntity
   8
LEVEL002
 370
13
   6
CONTINUOUS
  62
3
 100
AcDbCircle
  10
 3635.9251793187
  20
 4760.6070204130
  30
0.0
  40
 68.000000000000
 100
AcDbArc
  50
 214.99999999996
  51
 248.42942169830
   0
LINE
   5
221
 100
AcDbEntity
   8
LEVEL002
 370
13
 100
AcDbLine
   6
CONTINUOUS
  62
7
  10
 3555.9251793186
  20
 4675.6070204130
  30
0.0
  11
 3443.1418243516
  21
 4675.6070204130
  31
0.0
   0
LINE
   5
222
 100
AcDbEntity
   8
LEVEL002
 370
13
 100
AcDbLine
   6
CONTINUOUS
  62
7
  10
 3443.1418243516
  20
 4675.6070204130
  30
0.0
  11
 3443.1418243516
  21
 4785.6070204130
  31
0.0
   0
LINE
   5
223
 100
AcDbEntity
   8
LEVEL002
 370
13
 100
AcDbLine
   6
CONTINUOUS
  62
7
  10
 3443.1418243516
  20
 4785.6070204130
  30
0.0
  11
 3555.9251793186
  21
 4785.6070204130
  31
0.0
   0
LINE
   5
224
 100
AcDbEntity
   8
LEVEL002
 370
13
 100
AcDbLine
   6
CONTINUOUS
  62
3
  10
 3242.1376708201
  20
 4788.6070204130
  30
0.0
  11
 3256.1376708200
  21
 4788.6070204130
  31
0.0
   0
LINE
   5
225
 100
AcDbEntity
   8
LEVEL002
 370
13
 100
AcDbLine
   6
CONTINUOUS
  62
3
  10
 3256.1376708200
  20
 4788.6070204130
  30
0.0
  11
 3256.1376708200
  21
 4802.6070204130
  31
0.0
   0
LINE
   5
226
 100
AcDbEntity
   8
LEVEL002
 370
13
 100
AcDbLine
   6
CONTINUOUS
  62
3
  10
 3256.1376708200
  20
 4802.6070204130
  30
0.0
  11
 3242.1376708201
  21
 4802.6070204130
  31
0.0
   0
LINE
   5
227
 100
AcDbEntity
   8
LEVEL002
 370
13
 100
AcDbLine
   6
CONTINUOUS
  62
3
  10
 3242.1376708201
  20
 4802.6070204130
  30
0.0
  11
 3242.1376708201
  21
 4788.6070204130
  31
0.0
   0
LINE
   5
228
 100
AcDbEntity
   8
LEVEL002
 370
13
 100
AcDbLine
   6
CONTINUOUS
  62
3
  10
 3242.1376708201
  20
 4728.6070204130
  30
0.0
  11
 3256.1376708200
  21
 4728.6070204130
  31
0.0
   0
LINE
   5
229
 100
AcDbEntity
   8
LEVEL002
 370
13
 100
AcDbLine
   6
CONTINUOUS
  62
3
  10
 3256.1376708200
  20
 4728.6070204130
  30
0.0
  11
 3256.1376708200
  21
 4742.6070204130
  31
0.0
   0
LINE
   5
22A
 100
AcDbEntity
   8
LEVEL002
 370
13
 100
AcDbLine
   6
CONTINUOUS
  62
3
  10
 3256.1376708200
  20
 4742.6070204130
  30
0.0
  11
 3242.1376708201
  21
 4742.6070204130
  31
0.0
   0
LINE
   5
22B
 100
AcDbEntity
   8
LEVEL002
 370
13
 100
AcDbLine
   6
CONTINUOUS
  62
3
  10
 3242.1376708201
  20
 4742.6070204130
  30
0.0
  11
 3242.1376708201
  21
 4728.6070204130
  31
0.0
   0
LINE
   5
22C
 100
AcDbEntity
   8
LEVEL002
 370
13
 100
AcDbLine
   6
CONTINUOUS
  62
3
  10
 3130.1376537804
  20
 4678.6070204130
  30
0.0
  11
 3116.1376537804
  21
 4678.6070204130
  31
0.0
   0
LINE
   5
22D
 100
AcDbEntity
   8
LEVEL002
 370
13
 100
AcDbLine
   6
CONTINUOUS
  62
3
  10
 3116.1376537804
  20
 4678.6070204130
  30
0.0
  11
 3116.1376537804
  21
 4692.6070204130
  31
0.0
   0
LINE
   5
22E
 100
AcDbEntity
   8
LEVEL002
 370
13
 100
AcDbLine
   6
CONTINUOUS
  62
3
  10
 3116.1376537804
  20
 4692.6070204130
  30
0.0
  11
 3130.1376537804
  21
 4692.6070204130
  31
0.0
   0
LINE
   5
22F
 100
AcDbEntity
   8
LEVEL002
 370
13
 100
AcDbLine
   6
CONTINUOUS
  62
3
  10
 3130.1376537804
  20
 4692.6070204130
  30
0.0
  11
 3130.1376537804
  21
 4678.6070204130
  31
0.0
   0
LINE
   5
230
 100
AcDbEntity
   8
LEVEL002
 370
13
 100
AcDbLine
   6
CONTINUOUS
  62
3
  10
 3130.1376537804
  20
 4618.6070204130
  30
0.0
  11
 3116.1376537804
  21
 4618.6070204130
  31
0.0
   0
LINE
   5
231
 100
AcDbEntity
   8
LEVEL002
 370
13
 100
AcDbLine
   6
CONTINUOUS
  62
3
  10
 3116.1376537804
  20
 4618.6070204130
  30
0.0
  11
 3116.1376537804
  21
 4632.6070204130
  31
0.0
   0
LINE
   5
232
 100
AcDbEntity
   8
LEVEL002
 370
13
 100
AcDbLine
   6
CONTINUOUS
  62
3
  10
 3116.1376537804
  20
 4632.6070204130
  30
0.0
  11
 3130.1376537804
  21
 4632.6070204130
  31
0.0
   0
LINE
   5
233
 100
AcDbEntity
   8
LEVEL002
 370
13
 100
AcDbLine
   6
CONTINUOUS
  62
3
  10
 3130.1376537804
  20
 4632.6070204130
  30
0.0
  11
 3130.1376537804
  21
 4618.6070204130
  31
0.0
   0
LINE
   5
234
 100
AcDbEntity
   8
LEVEL002
 370
13
 100
AcDbLine
   6
CONTINUOUS
  62
6
  10
 3228.7023876452
  20
 4815.6070204130
  30
0.0
  11
 3228.7023876452
  21
 4715.6070204130
  31
0.0
   0
LINE
   5
235
 100
AcDbEntity
   8
LEVEL002
 370
13
 100
AcDbLine
   6
CONTINUOUS
  62
6
  10
 3143.5729369552
  20
 4705.6070204130
  30
0.0
  11
 3143.5729369552
  21
 4605.6070204130
  31
0.0
   0
LEADER
   5
236
 100
AcDbEntity
   8
LEVEL002
 370
13
   6
CONTINUOUS
  62
1
 100
AcDbLeader
   3
GMM002
  73
3
  74
1
  75
0
  40
 60.000000000000
  41
0.0
  76
2
  10
 3186.1376623002
  20
 5002.1070204130
  30
0.0
  10
 3343.2185771074
  20
 5225.3082670254
  30
0.0
  77
1
   0
CIRCLE
   5
237
 100
AcDbEntity
   8
LEVEL002
 370
13
 100
AcDbCircle
   6
CONTINUOUS
  62
1
  10
 3545.6314804278
  20
 5280.6070204130
  30
0.0
  40
 69.999997913838
   0
CIRCLE
   5
238
 100
AcDbEntity
   8
LEVEL002
 370
13
 100
AcDbCircle
   6
CONTINUOUS
  62
1
  10
 3685.6314762556
  20
 5280.6070204130
  30
0.0
  40
 69.999997913838
   0
MTEXT
   5
239
 100
AcDbEntity
   8
LEVEL002
 370
13
  62
1
 100
AcDbMText
  10
 3386.1376623002
  20
 5280.6070204130
  30
0.0
  40
 57.142857142858
  41
0.0
  71
5
  72
1
   1
\T1.000000;13
   7
GMM001
  44
 0.79999984000003
   0
CIRCLE
   5
23A
 100
AcDbEntity
   8
LEVEL002
 370
13
 100
AcDbCircle
   6
CONTINUOUS
  62
1
  10
 3386.1376623002
  20
 5280.6070204130
  30
0.0
  40
 70.000000000000
   0
MTEXT
   5
23B
 100
AcDbEntity
   8
LEVEL002
 370
13
  62
1
 100
AcDbMText
  10
 3545.6314804278
  20
 5280.6070204130
  30
0.0
  40
 57.142857142858
  41
0.0
  71
5
  72
1
   1
\T1.000000;6
   7
GMM001
  44
 0.79999984000003
   0
MTEXT
   5
23C
 100
AcDbEntity
   8
LEVEL002
 370
13
  62
1
 100
AcDbMText
  10
 3685.6314762556
  20
 5280.6070204130
  30
0.0
  40
 57.142857142858
  41
0.0
  71
5
  72
1
   1
\T1.000000;8
   7
GMM001
  44
 0.79999984000003
   0
CIRCLE
   5
23D
 100
AcDbEntity
   8
LEVEL002
 370
13
 100
AcDbCircle
   6
CONTINUOUS
  62
1
  10
 2846.1376664726
  20
 5280.6070204130
  30
0.0
  40
 69.999997913838
   0
CIRCLE
   5
23E
 100
AcDbEntity
   8
LEVEL002
 370
13
 100
AcDbCircle
   6
CONTINUOUS
  62
1
  10
 2986.1376623002
  20
 5280.6070204130
  30
0.0
  40
 69.999997913838
   0
MTEXT
   5
23F
 100
AcDbEntity
   8
LEVEL002
 370
13
  62
1
 100
AcDbMText
  10
 2986.1376623002
  20
 5280.6070204130
  30
0.0
  40
 57.142857142858
  41
0.0
  71
5
  72
1
   1
\T1.000000;7
   7
GMM001
  44
 0.79999984000003
   0
MTEXT
   5
240
 100
AcDbEntity
   8
LEVEL002
 370
13
  62
1
 100
AcDbMText
  10
 2846.1376664726
  20
 5280.6070204130
  30
0.0
  40
 57.142857142858
  41
0.0
  71
5
  72
1
   1
\T1.000000;5
   7
GMM001
  44
 0.79999984000003
   0
CIRCLE
   5
241
 100
AcDbEntity
   8
LEVEL002
 370
13
 100
AcDbCircle
   6
CONTINUOUS
  62
1
  10
 2386.1376623002
  20
 5280.6070204130
  30
0.0
  40
 69.999997913838
   0
MTEXT
   5
242
 100
AcDbEntity
   8
LEVEL002
 370
13
  62
1
 100
AcDbMText
  10
 2386.1376623002
  20
 5280.6070204130
  30
0.0
  40
 57.142857142858
  41
0.0
  71
5
  72
1
   1
\T1.000000;3
   7
GMM001
  44
 0.79999984000003
   0
CIRCLE
   5
243
 100
AcDbEntity
   8
LEVEL002
 370
13
 100
AcDbCircle
   6
CONTINUOUS
  62
1
  10
 2386.1376623002
  20
 4180.6070204130
  30
0.0
  40
 69.999997913838
   0
MTEXT
   5
244
 100
AcDbEntity
   8
LEVEL002
 370
13
  62
1
 100
AcDbMText
  10
 2386.1376623002
  20
 4180.6070204130
  30
0.0
  40
 57.142857142858
  41
0.0
  71
5
  72
1
   1
\T1.000000;1
   7
GMM001
  44
 0.79999984000003
   0
LEADER
   5
245
 100
AcDbEntity
   8
LEVEL002
 370
13
   6
CONTINUOUS
  62
1
 100
AcDbLeader
   3
GMM002
  73
3
  74
1
  75
0
  40
 60.000000000000
  41
0.0
  76
2
  10
 2136.1376623052
  20
 4430.6070204130
  30
0.0
  10
 2336.6401890948
  20
 4230.1044936234
  30
0.0
  77
1
   0
CIRCLE
   5
246
 100
AcDbEntity
   8
LEVEL002
 370
13
 100
AcDbCircle
   6
CONTINUOUS
  62
1
  10
 2186.1376623002
  20
 4180.6070204130
  30
0.0
  40
 69.999997913838
   0
MTEXT
   5
247
 100
AcDbEntity
   8
LEVEL002
 370
13
  62
1
 100
AcDbMText
  10
 2186.1376623002
  20
 4180.6070204130
  30
0.0
  40
 57.142857142858
  41
0.0
  71
5
  72
1
   1
\T1.000000;4
   7
GMM001
  44
 0.79999984000003
   0
CIRCLE
   5
248
 100
AcDbEntity
   8
LEVEL002
 370
13
 100
AcDbCircle
   6
CONTINUOUS
  62
1
  10
 3533.0093728978
  20
 4180.6070204130
  30
0.0
  40
 70.000000000000
   0
MTEXT
   5
249
 100
AcDbEntity
   8
LEVEL002
 370
13
  62
1
 100
AcDbMText
  10
 3533.0093728978
  20
 4180.6070204130
  30
0.0
  40
 57.142857142858
  41
0.0
  71
5
  72
1
   1
\T1.000000;10
   7
GMM001
  44
 0.79999984000003
   0
MTEXT
   5
24A
 100
AcDbEntity
   8
LEVEL002
 370
13
  62
1
 100
AcDbMText
  10
 3393.0093749840
  20
 4180.6070204130
  30
0.0
  40
 57.142857142858
  41
0.0
  71
5
  72
1
   1
\T1.000000;9
   7
GMM001
  44
 0.79999984000003
   0
CIRCLE
   5
24B
 100
AcDbEntity
   8
LEVEL002
 370
13
 100
AcDbCircle
   6
CONTINUOUS
  62
1
  10
 3393.0093749840
  20
 4180.6070204130
  30
0.0
  40
 69.999997913838
   0
LEADER
   5
24C
 100
AcDbEntity
   8
LEVEL002
 370
13
   6
CONTINUOUS
  62
1
 100
AcDbLeader
   3
GMM002
  73
3
  74
1
  75
0
  40
 60.000000000000
  41
0.0
  76
2
  10
 3301.2751025746
  20
 4615.6070204130
  30
0.0
  10
 3378.6487882088
  20
 4249.1181381634
  30
0.0
  77
1
   0
LEADER
   5
24D
 100
AcDbEntity
   8
LEVEL002
 370
13
   6
CONTINUOUS
  62
1
 100
AcDbLeader
   3
GMM002
  73
3
  74
1
  75
0
  40
 60.000000000000
  41
0.0
  76
2
  10
 2627.3541769324
  20
 4421.2754766020
  30
0.0
  10
 2435.6541667550
  20
 4230.0854550540
  30
0.0
  77
1
   0
LEADER
   5
24E
 100
AcDbEntity
   8
LEVEL002
 370
13
   6
CONTINUOUS
  62
1
 100
AcDbLeader
   3
GMM002
  73
3
  74
1
  75
0
  40
 60.000000000000
  41
0.0
  76
2
  10
 2726.6824645176
  20
 4785.6070204130
  30
0.0
  10
 2829.9723230498
  20
 5212.4991546414
  30
0.0
  77
1
   0
LEADER
   5
24F
 100
AcDbEntity
   8
LEVEL002
 370
13
   6
CONTINUOUS
  62
1
 100
AcDbLeader
   3
GMM002
  73
3
  74
1
  75
0
  40
 60.000000000000
  41
0.0
  76
2
  10
 3443.1418243516
  20
 4785.6070204130
  30
0.0
  10
 3532.7338960472
  20
 5211.8054795504
  30
0.0
  77
1
   0
LEADER
   5
250
 100
AcDbEntity
   8
LEVEL002
 370
13
   6
CONTINUOUS
  62
1
 100
AcDbLeader
   3
GMM002
  73
3
  74
1
  75
0
  40
 60.000000000000
  41
0.0
  76
2
  10
 2578.1501452818
  20
 5142.1070204130
  30
0.0
  10
 2442.7103576558
  20
 5239.3816659798
  30
0.0
  77
1
   0
CIRCLE
   5
251
 100
AcDbEntity
   8
LEVEL002
 370
13
 100
AcDbCircle
   6
CONTINUOUS
  62
1
  10
 1736.1376623002
  20
 2598.1070204130
  30
0.0
  40
 70.000000000000
   0
MTEXT
   5
252
 100
AcDbEntity
   8
LEVEL002
 370
13
  62
1
 100
AcDbMText
  10
 1736.1376623002
  20
 2598.1070204130
  30
0.0
  40
 57.142857142858
  41
0.0
  71
5
  72
1
   1
\T1.000000;11
   7
GMM001
  44
 0.79999984000003
   0
LEADER
   5
253
 100
AcDbEntity
   8
LEVEL002
 370
13
   6
CONTINUOUS
  62
1
 100
AcDbLeader
   3
GMM002
  73
3
  74
1
  75
0
  40
 60.000000000000
  41
0.0
  76
2
  10
 1524.2876623002
  20
 2473.1070204130
  30
0.0
  10
 1675.8498729391
  20
 2562.5348057794
  30
0.0
  77
1
   0
MTEXT
   5
255
 100
AcDbEntity
   8
LEVEL002
 370
13
  62
1
 100
AcDbMText
  10
 1106.7862675097
  20
 1806.8369574533
  30
0.0
  40
 40.000000000000
  41
0.0
  71
7
  72
1
   1
\T1.000000;ＧＬ
   7
GMM003
  44
 0.79999984000003
   0
LINE
   5
256
 100
AcDbEntity
   8
LEVEL002
 370
13
 100
AcDbLine
   6
CONTINUOUS
  62
1
  10
 1078.6375970649
  20
 1798.1070204130
  30
0.0
  11
 1053.6375970649
  21
 1848.1070204130
  31
0.0
   0
LINE
   5
257
 100
AcDbEntity
   8
LEVEL002
 370
13
 100
AcDbLine
   6
CONTINUOUS
  62
1
  10
 1053.6375970649
  20
 1848.1070204130
  30
0.0
  11
 1103.6375970649
  21
 1848.1070204130
  31
0.0
   0
LINE
   5
258
 100
AcDbEntity
   8
LEVEL002
 370
13
 100
AcDbLine
   6
CONTINUOUS
  62
1
  10
 1103.6375970649
  20
 1848.1070204130
  30
0.0
  11
 1078.6375970649
  21
 1798.1070204130
  31
0.0
   0
LINE
   5
259
 100
AcDbEntity
   8
LEVEL002
 370
13
 100
AcDbLine
   6
DOT
  62
1
  10
 1441.5876623002
  20
 1005.6070204130
  30
0.0
  11
 1530.6876623002
  21
 1005.6070204130
  31
0.0
   0
LINE
   5
25A
 100
AcDbEntity
   8
LEVEL002
 370
13
 100
AcDbLine
   6
DOT
  62
1
  10
 1530.6876623002
  20
 990.60702041299
  30
0.0
  11
 1441.5876623002
  21
 990.60702041299
  31
0.0
   0
MTEXT
   5
25B
 100
AcDbEntity
   8
LEVEL002
 370
13
  62
1
 100
AcDbMText
  10
 3186.1376623002
  20
 5530.6070204130
  30
0.0
  40
 57.142857142858
  41
0.0
  71
5
  72
1
   1
\T1.000000;側　面　図
   7
GMM001
  44
 0.79999984000003
   0
MTEXT
   5
25C
 100
AcDbEntity
   8
LEVEL002
 370
13
  62
1
 100
AcDbMText
  10
 6698.1376623002
  20
 1470.6070204130
  30
0.0
  40
 51.428571428572
  41
0.0
  71
6
  72
1
   1
\T1.000000;２
   7
GMM001
  44
 0.79999984000003
   0
ARC
   5
25D
 100
AcDbEntity
   8
LEVEL002
 370
13
   6
CONTINUOUS
  62
7
 100
AcDbCircle
  10
 2741.5876623002
  20
 4054.0467403506
  30
0.0
  40
 400.00000000000
 100
AcDbArc
  50
 321.34019174591
  51
 360.00000000000
   0
ARC
   5
25E
 100
AcDbEntity
   8
LEVEL002
 370
13
   6
DASHDOT
  62
6
 100
AcDbCircle
  10
 2741.5876623002
  20
 4054.0467403506
  30
0.0
  40
 444.55000000000
 100
AcDbArc
  50
 321.34019174591
  51
 360.00000000000
   0
ARC
   5
25F
 100
AcDbEntity
   8
LEVEL002
 370
13
   6
CONTINUOUS
  62
7
 100
AcDbCircle
  10
 2741.5876623002
  20
 4054.0467403504
  30
0.0
  40
 489.10000000000
 100
AcDbArc
  50
 321.34019174591
  51
 0.14916027614299E-11
   0
ARC
   5
260
 100
AcDbEntity
   8
LEVEL002
 370
13
   6
CONTINUOUS
  62
7
 100
AcDbCircle
  10
 3230.6876623002
  20
 3242.1673004752
  30
0.0
  40
 400.00000000000
 100
AcDbArc
  50
 141.34019174591
  51
 180.00000000000
   0
ARC
   5
261
 100
AcDbEntity
   8
LEVEL002
 370
13
   6
DASHDOT
  62
6
 100
AcDbCircle
  10
 3230.6876623002
  20
 3242.1673004754
  30
0.0
  40
 444.55000000000
 100
AcDbArc
  50
 141.34019174591
  51
 180.00000000000
   0
ARC
   5
262
 100
AcDbEntity
   8
LEVEL002
 370
13
   6
CONTINUOUS
  62
7
 100
AcDbCircle
  10
 3230.6876623002
  20
 3242.1673004752
  30
0.0
  40
 489.10000000000
 100
AcDbArc
  50
 141.34019174591
  51
 180.00000000000
   0
LINE
   5
263
 100
AcDbEntity
   8
LEVEL002
 370
13
 100
AcDbLine
   6
CONTINUOUS
  62
7
  10
 3053.9351860774
  20
 3804.1687213288
  30
0.0
  11
 2848.7647276016
  21
 3547.7056482340
  31
0.0
   0
LINE
   5
264
 100
AcDbEntity
   8
LEVEL002
 370
13
 100
AcDbLine
   6
DASHDOT
  62
6
  10
 3088.7228915382
  20
 3776.3385569604
  30
0.0
  11
 2883.5524330624
  21
 3519.8754838656
  31
0.0
   0
LINE
   5
265
 100
AcDbEntity
   8
LEVEL002
 370
13
 100
AcDbLine
   6
CONTINUOUS
  62
7
  10
 2918.3401385230
  20
 3492.0453194968
  30
0.0
  11
 3123.5105969988
  21
 3748.5083925916
  31
0.0
   0
ARC
   5
266
 100
AcDbEntity
   8
LEVEL002
 370
13
   6
CONTINUOUS
  62
7
 100
AcDbCircle
  10
 2731.0863927668
  20
 2738.3090455012
  30
0.0
  40
 5.0000000000000
 100
AcDbArc
  50
 180.00164397081
  51
 201.80293588369
   0
LINE
   5
267
 100
AcDbEntity
   8
LEVEL002
 370
13
 100
AcDbLine
   6
CONTINUOUS
  62
7
  10
 2729.1579259720
  20
 2729.6673004752
  30
0.0
  11
 2726.4440587847
  21
 2736.4519684438
  31
0.0
   0
LINE
   5
268
 100
AcDbEntity
   8
LEVEL002
 370
13
 100
AcDbLine
   6
CONTINUOUS
  62
7
  10
 2729.1579259720
  20
 3329.6673004752
  30
0.0
  11
 2726.4440587847
  21
 3322.8823883658
  31
0.0
   0
ARC
   5
269
 100
AcDbEntity
   8
LEVEL002
 370
13
   6
CONTINUOUS
  62
7
 100
AcDbCircle
  10
 2731.0863927668
  20
 3321.0253113084
  30
0.0
  40
 5.0000000000000
 100
AcDbArc
  50
 158.19706411631
  51
 179.99835602936
   0
LINE
   5
26A
 100
AcDbEntity
   8
LEVEL002
 370
13
 100
AcDbLine
   6
CONTINUOUS
  62
7
  10
 2726.0863927690
  20
 3321.0254547720
  30
0.0
  11
 2726.0863927690
  21
 2738.3089020376
  31
0.0
   0
LINE
   5
26B
 100
AcDbEntity
   8
LEVEL002
 370
13
 100
AcDbLine
   6
CONTINUOUS
  62
6
  10
 2733.0863927690
  20
 2800.6673004752
  30
0.0
  11
 2733.0863927690
  21
 2799.6673004752
  31
0.0
   0
LINE
   5
26C
 100
AcDbEntity
   8
LEVEL002
 370
13
 100
AcDbLine
   6
CONTINUOUS
  62
7
  10
 2733.5419591752
  20
 2814.6675446158
  30
0.0
  11
 2733.5424474565
  21
 2856.6675446158
  31
0.0
   0
LINE
   5
26D
 100
AcDbEntity
   8
LEVEL002
 370
13
 100
AcDbLine
   6
CONTINUOUS
  62
6
  10
 2733.0863927690
  20
 3258.6673004752
  30
0.0
  11
 2733.0863927690
  21
 3259.6673004752
  31
0.0
   0
LINE
   5
26E
 100
AcDbEntity
   8
LEVEL002
 370
13
 100
AcDbLine
   6
CONTINUOUS
  62
7
  10
 2733.5419591752
  20
 3244.6668121938
  30
0.0
  11
 2733.5424474565
  21
 3202.6670563344
  31
0.0
   0
ARC
   5
26F
 100
AcDbEntity
   8
LEVEL002
 370
13
   6
CONTINUOUS
  62
7
 100
AcDbCircle
  10
 2725.0863927908
  20
 2745.5144898172
  30
0.0
  40
 5.0000000000000
 100
AcDbArc
  50
 338.20459713427
  51
 0.53503701587088E-2
   0
LINE
   5
270
 100
AcDbEntity
   8
LEVEL002
 370
13
 100
AcDbLine
   6
CONTINUOUS
  62
7
  10
 2727.9264806596
  20
 2739.1521637564
  30
0.0
  11
 2729.7289708940
  21
 2743.6580231314
  31
0.0
   0
ARC
   5
271
 100
AcDbEntity
   8
LEVEL002
 370
13
   6
CONTINUOUS
  62
7
 100
AcDbCircle
  10
 2732.5688720293
  20
 2737.2952301626
  30
0.0
  40
 5.0000000000000
 100
AcDbArc
  50
 158.19883473499
  51
 201.80116526501
   0
LINE
   5
272
 100
AcDbEntity
   8
LEVEL002
 370
13
 100
AcDbLine
   6
CONTINUOUS
  62
7
  10
 2729.1579259720
  20
 2729.6673004752
  30
0.0
  11
 2730.0863927690
  21
 2730.0386383658
  31
0.0
   0
LINE
   5
273
 100
AcDbEntity
   8
LEVEL002
 370
13
 100
AcDbLine
   6
CONTINUOUS
  62
7
  10
 2730.0863927690
  20
 2730.0386383658
  30
0.0
  11
 2727.9264806596
  21
 2735.4382965688
  31
0.0
   0
ARC
   5
274
 100
AcDbEntity
   8
LEVEL002
 370
13
   6
CONTINUOUS
  62
7
 100
AcDbCircle
  10
 2725.0863927908
  20
 3313.8201111330
  30
0.0
  40
 5.0000000000000
 100
AcDbArc
  50
 359.99464962984
  51
 21.795402865728
   0
LINE
   5
275
 100
AcDbEntity
   8
LEVEL002
 370
13
 100
AcDbLine
   6
CONTINUOUS
  62
7
  10
 2727.9264806596
  20
 3320.1821930532
  30
0.0
  11
 2729.7289708940
  21
 3315.6765778188
  31
0.0
   0
ARC
   5
276
 100
AcDbEntity
   8
LEVEL002
 370
13
   6
CONTINUOUS
  62
7
 100
AcDbCircle
  10
 2732.5688720293
  20
 3322.0391266470
  30
0.0
  40
 5.0000000000000
 100
AcDbArc
  50
 158.19883473499
  51
 201.80116526501
   0
LINE
   5
277
 100
AcDbEntity
   8
LEVEL002
 370
13
 100
AcDbLine
   6
CONTINUOUS
  62
7
  10
 2729.1579259720
  20
 3329.6673004752
  30
0.0
  11
 2730.0863927690
  21
 3329.2959625844
  31
0.0
   0
LINE
   5
278
 100
AcDbEntity
   8
LEVEL002
 370
13
 100
AcDbLine
   6
CONTINUOUS
  62
7
  10
 2730.0863927690
  20
 3329.2959625844
  30
0.0
  11
 2727.9264806596
  21
 3323.8960602408
  31
0.0
   0
LINE
   5
279
 100
AcDbEntity
   8
LEVEL002
 370
13
 100
AcDbLine
   6
CONTINUOUS
  62
7
  10
 2730.0863927690
  20
 3313.8196442252
  30
0.0
  11
 2730.0863927690
  21
 2745.5149567252
  31
0.0
   0
LINE
   5
27A
 100
AcDbEntity
   8
LEVEL002
 370
13
 100
AcDbLine
   6
CONTINUOUS
  62
7
  10
 2733.0863927690
  20
 3259.6673004752
  30
0.0
  11
 2730.0863927690
  21
 3259.6673004752
  31
0.0
   0
LINE
   5
27B
 100
AcDbEntity
   8
LEVEL002
 370
13
 100
AcDbLine
   6
CONTINUOUS
  62
6
  10
 2730.0863927690
  20
 3258.6673004752
  30
0.0
  11
 2733.0863927690
  21
 3258.6673004752
  31
0.0
   0
LINE
   5
27C
 100
AcDbEntity
   8
LEVEL002
 370
13
 100
AcDbLine
   6
CONTINUOUS
  62
6
  10
 2733.0863927690
  20
 3187.6673004752
  30
0.0
  11
 2733.0863927690
  21
 3188.6673004752
  31
0.0
   0
LINE
   5
27D
 100
AcDbEntity
   8
LEVEL002
 370
13
 100
AcDbLine
   6
CONTINUOUS
  62
6
  10
 2733.0863927690
  20
 3188.6673004752
  30
0.0
  11
 2730.0863927690
  21
 3188.6673004752
  31
0.0
   0
ELLIPSE
   5
27E
 100
AcDbEntity
   8
LEVEL002
 370
13
   6
CONTINUOUS
  62
7
 100
AcDbEllipse
  10
 2729.5424474564
  20
 3202.6670563344
  30
0.0
  11
-4.0000023841862
  21
0.0
  31
0.0
  40
 0.99999940395391
  41
 1.7072035060239
  42
 3.1415925661655
   0
LINE
   5
27F
 100
AcDbEntity
   8
LEVEL002
 370
13
 100
AcDbLine
   6
CONTINUOUS
  62
7
  10
 2730.0863927690
  20
 3187.6673004752
  30
0.0
  11
 2733.0863927690
  21
 3187.6673004752
  31
0.0
   0
ELLIPSE
   5
280
 100
AcDbEntity
   8
LEVEL002
 370
13
   6
CONTINUOUS
  62
7
 100
AcDbEllipse
  10
 2729.5419591752
  20
 3244.6670563344
  30
0.0
  11
-4.0000023841862
  21
0.0
  31
0.0
  40
 0.99999940395391
  41
 3.1415315309729
  42
-1.7073329211773
   0
LINE
   5
281
 100
AcDbEntity
   8
LEVEL002
 370
13
 100
AcDbLine
   6
CONTINUOUS
  62
7
  10
 2730.0863927690
  20
 2871.6673004752
  30
0.0
  11
 2733.0863927690
  21
 2871.6673004752
  31
0.0
   0
LINE
   5
282
 100
AcDbEntity
   8
LEVEL002
 370
13
 100
AcDbLine
   6
CONTINUOUS
  62
6
  10
 2733.0863927690
  20
 2871.6673004752
  30
0.0
  11
 2733.0863927690
  21
 2870.6673004752
  31
0.0
   0
LINE
   5
283
 100
AcDbEntity
   8
LEVEL002
 370
13
 100
AcDbLine
   6
CONTINUOUS
  62
6
  10
 2733.0863927690
  20
 2870.6673004752
  30
0.0
  11
 2730.0863927690
  21
 2870.6673004752
  31
0.0
   0
ELLIPSE
   5
284
 100
AcDbEntity
   8
LEVEL002
 370
13
   6
CONTINUOUS
  62
7
 100
AcDbEllipse
  10
 2729.5424474564
  20
 2856.6675446158
  30
0.0
  11
-4.0000023841862
  21
0.0
  31
0.0
  40
 0.99999940395391
  41
 3.1415925661655
  42
-1.7072119811149
   0
LINE
   5
285
 100
AcDbEntity
   8
LEVEL002
 370
13
 100
AcDbLine
   6
CONTINUOUS
  62
6
  10
 2730.0863927690
  20
 2800.6673004752
  30
0.0
  11
 2733.0863927690
  21
 2800.6673004752
  31
0.0
   0
ELLIPSE
   5
286
 100
AcDbEntity
   8
LEVEL002
 370
13
   6
CONTINUOUS
  62
7
 100
AcDbEllipse
  10
 2729.5419591752
  20
 2814.6675446158
  30
0.0
  11
-4.0000023841862
  21
0.0
  31
0.0
  40
 0.99999940395391
  41
 1.7073244389113
  42
 3.1415925661692
   0
LINE
   5
287
 100
AcDbEntity
   8
LEVEL002
 370
13
 100
AcDbLine
   6
CONTINUOUS
  62
7
  10
 2733.0863927690
  20
 2799.6673004752
  30
0.0
  11
 2730.0863927690
  21
 2799.6673004752
  31
0.0
   0
LINE
   5
288
 100
AcDbEntity
   8
LEVEL002
 370
13
 100
AcDbLine
   6
CONTINUOUS
  62
6
  10
 2829.9145177690
  20
 3207.1673004752
  30
0.0
  11
 2829.9145177690
  21
 3216.1673004752
  31
0.0
   0
LINE
   5
289
 100
AcDbEntity
   8
LEVEL002
 370
13
 100
AcDbLine
   6
CONTINUOUS
  62
6
  10
 2829.9145177690
  20
 3231.1673004752
  30
0.0
  11
 2829.9145177690
  21
 3240.1673004752
  31
0.0
   0
LINE
   5
28A
 100
AcDbEntity
   8
LEVEL002
 370
13
 100
AcDbLine
   6
CONTINUOUS
  62
6
  10
 2832.2328771440
  20
 3217.1673004752
  30
0.0
  11
 2832.2328771440
  21
 3230.1673004752
  31
0.0
   0
LINE
   5
28B
 100
AcDbEntity
   8
LEVEL002
 370
13
 100
AcDbLine
   6
CONTINUOUS
  62
6
  10
 2742.5727208940
  20
 3218.1673004752
  30
0.0
  11
 2742.5727208940
  21
 3229.1673004752
  31
0.0
   0
LINE
   5
28C
 100
AcDbEntity
   8
LEVEL002
 370
13
 100
AcDbLine
   6
CONTINUOUS
  62
6
  10
 2742.5727208940
  20
 3231.1673004752
  30
0.0
  11
 2742.5727208940
  21
 3240.1673004752
  31
0.0
   0
LINE
   5
28D
 100
AcDbEntity
   8
LEVEL002
 370
13
 100
AcDbLine
   6
CONTINUOUS
  62
6
  10
 2742.5727208940
  20
 3207.1673004752
  30
0.0
  11
 2742.5727208940
  21
 3216.1673004752
  31
0.0
   0
LINE
   5
28E
 100
AcDbEntity
   8
LEVEL002
 370
13
 100
AcDbLine
   6
CONTINUOUS
  62
6
  10
 2829.9145177690
  20
 3230.1673004752
  30
0.0
  11
 2743.8337072220
  21
 3230.1673004752
  31
0.0
   0
LINE
   5
28F
 100
AcDbEntity
   8
LEVEL002
 370
13
 100
AcDbLine
   6
CONTINUOUS
  62
6
  10
 2743.8337072220
  20
 3217.1673004752
  30
0.0
  11
 2829.9145177690
  21
 3217.1673004752
  31
0.0
   0
LINE
   5
290
 100
AcDbEntity
   8
LEVEL002
 370
13
 100
AcDbLine
   6
CONTINUOUS
  62
7
  10
 2733.5424474565
  20
 3205.1673004752
  30
0.0
  11
 2851.0863927690
  21
 3205.1673004752
  31
0.0
   0
LINE
   5
291
 100
AcDbEntity
   8
LEVEL002
 370
13
 100
AcDbLine
   6
CONTINUOUS
  62
7
  10
 2851.0863927690
  20
 3205.1673004752
  30
0.0
  11
 2851.0863927690
  21
 3242.1673004752
  31
0.0
   0
LINE
   5
292
 100
AcDbEntity
   8
LEVEL002
 370
13
 100
AcDbLine
   6
CONTINUOUS
  62
7
  10
 2851.0863927690
  20
 3242.1673004752
  30
0.0
  11
 2733.5419591752
  21
 3242.1673004752
  31
0.0
   0
LINE
   5
293
 100
AcDbEntity
   8
LEVEL002
 370
13
 100
AcDbLine
   6
CONTINUOUS
  62
6
  10
 2829.9145177690
  20
 2819.1673004752
  30
0.0
  11
 2829.9145177690
  21
 2828.1673004752
  31
0.0
   0
LINE
   5
294
 100
AcDbEntity
   8
LEVEL002
 370
13
 100
AcDbLine
   6
CONTINUOUS
  62
6
  10
 2829.9145177690
  20
 2843.1673004752
  30
0.0
  11
 2829.9145177690
  21
 2852.1673004752
  31
0.0
   0
LINE
   5
295
 100
AcDbEntity
   8
LEVEL002
 370
13
 100
AcDbLine
   6
CONTINUOUS
  62
6
  10
 2832.2328771440
  20
 2829.1673004752
  30
0.0
  11
 2832.2328771440
  21
 2842.1673004752
  31
0.0
   0
LINE
   5
296
 100
AcDbEntity
   8
LEVEL002
 370
13
 100
AcDbLine
   6
CONTINUOUS
  62
6
  10
 2829.9145177690
  20
 2842.1673004752
  30
0.0
  11
 2743.8337072220
  21
 2842.1673004752
  31
0.0
   0
LINE
   5
297
 100
AcDbEntity
   8
LEVEL002
 370
13
 100
AcDbLine
   6
CONTINUOUS
  62
6
  10
 2743.8337072220
  20
 2829.1673004752
  30
0.0
  11
 2829.9145177690
  21
 2829.1673004752
  31
0.0
   0
LINE
   5
298
 100
AcDbEntity
   8
LEVEL002
 370
13
 100
AcDbLine
   6
CONTINUOUS
  62
7
  10
 2733.5424474565
  20
 2817.1673004752
  30
0.0
  11
 2851.0863927690
  21
 2817.1673004752
  31
0.0
   0
LINE
   5
299
 100
AcDbEntity
   8
LEVEL002
 370
13
 100
AcDbLine
   6
CONTINUOUS
  62
7
  10
 2851.0863927690
  20
 2817.1673004752
  30
0.0
  11
 2851.0863927690
  21
 2854.1673004752
  31
0.0
   0
LINE
   5
29A
 100
AcDbEntity
   8
LEVEL002
 370
13
 100
AcDbLine
   6
CONTINUOUS
  62
7
  10
 2851.0863927690
  20
 2854.1673004752
  30
0.0
  11
 2733.5419591752
  21
 2854.1673004752
  31
0.0
   0
LINE
   5
29B
 100
AcDbEntity
   8
LEVEL002
 370
13
 100
AcDbLine
   6
CONTINUOUS
  62
6
  10
 2742.5727208940
  20
 2830.1673004752
  30
0.0
  11
 2742.5727208940
  21
 2841.1673004752
  31
0.0
   0
LINE
   5
29C
 100
AcDbEntity
   8
LEVEL002
 370
13
 100
AcDbLine
   6
CONTINUOUS
  62
6
  10
 2742.5727208940
  20
 2843.1673004752
  30
0.0
  11
 2742.5727208940
  21
 2852.1673004752
  31
0.0
   0
LINE
   5
29D
 100
AcDbEntity
   8
LEVEL002
 370
13
 100
AcDbLine
   6
CONTINUOUS
  62
6
  10
 2742.5727208940
  20
 2819.1673004752
  30
0.0
  11
 2742.5727208940
  21
 2828.1673004752
  31
0.0
   0
LINE
   5
29E
 100
AcDbEntity
   8
LEVEL002
 370
13
 100
AcDbLine
   6
CONTINUOUS
  62
7
  10
 2836.0863927690
  20
 2830.6673004752
  30
0.0
  11
 2846.0863927690
  21
 2830.6673004752
  31
0.0
   0
LINE
   5
29F
 100
AcDbEntity
   8
LEVEL002
 370
13
 100
AcDbLine
   6
CONTINUOUS
  62
7
  10
 2846.0863927690
  20
 2830.6673004752
  30
0.0
  11
 2846.0863927690
  21
 2840.6673004752
  31
0.0
   0
LINE
   5
2A0
 100
AcDbEntity
   8
LEVEL002
 370
13
 100
AcDbLine
   6
CONTINUOUS
  62
7
  10
 2846.0863927690
  20
 2840.6673004752
  30
0.0
  11
 2836.0863927690
  21
 2840.6673004752
  31
0.0
   0
LINE
   5
2A1
 100
AcDbEntity
   8
LEVEL002
 370
13
 100
AcDbLine
   6
CONTINUOUS
  62
7
  10
 2836.0863927690
  20
 2840.6673004752
  30
0.0
  11
 2836.0863927690
  21
 2830.6673004752
  31
0.0
   0
LINE
   5
2A2
 100
AcDbEntity
   8
LEVEL002
 370
13
 100
AcDbLine
   6
CONTINUOUS
  62
7
  10
 2836.0863927690
  20
 3218.6673004752
  30
0.0
  11
 2846.0863927690
  21
 3218.6673004752
  31
0.0
   0
LINE
   5
2A3
 100
AcDbEntity
   8
LEVEL002
 370
13
 100
AcDbLine
   6
CONTINUOUS
  62
7
  10
 2846.0863927690
  20
 3218.6673004752
  30
0.0
  11
 2846.0863927690
  21
 3228.6673004752
  31
0.0
   0
LINE
   5
2A4
 100
AcDbEntity
   8
LEVEL002
 370
13
 100
AcDbLine
   6
CONTINUOUS
  62
7
  10
 2846.0863927690
  20
 3228.6673004752
  30
0.0
  11
 2836.0863927690
  21
 3228.6673004752
  31
0.0
   0
LINE
   5
2A5
 100
AcDbEntity
   8
LEVEL002
 370
13
 100
AcDbLine
   6
CONTINUOUS
  62
7
  10
 2836.0863927690
  20
 3228.6673004752
  30
0.0
  11
 2836.0863927690
  21
 3218.6673004752
  31
0.0
   0
LINE
   5
2A6
 100
AcDbEntity
   8
LEVEL002
 370
13
 100
AcDbLine
   6
CONTINUOUS
  62
7
  10
 2741.5876623002
  20
 3205.1673004752
  30
0.0
  11
 2741.5876623002
  21
 2854.1673004752
  31
0.0
   0
LINE
   5
2A7
 100
AcDbEntity
   8
LEVEL002
 370
13
 100
AcDbLine
   6
CONTINUOUS
  62
7
  10
 2741.5876623002
  20
 2817.1673004752
  30
0.0
  11
 2741.5876623002
  21
 598.10702041299
  31
0.0
   0
LINE
   5
2A8
 100
AcDbEntity
   8
LEVEL002
 370
13
 100
AcDbLine
   6
CONTINUOUS
  62
7
  10
 2741.5876623002
  20
 598.10702041299
  30
0.0
  11
 2830.6876623002
  21
 598.10702041299
  31
0.0
   0
LINE
   5
2A9
 100
AcDbEntity
   8
LEVEL002
 370
13
 100
AcDbLine
   6
CONTINUOUS
  62
7
  10
 2830.6876623002
  20
 598.10702041299
  30
0.0
  11
 2830.6876623002
  21
 2817.1673004752
  31
0.0
   0
LINE
   5
2AA
 100
AcDbEntity
   8
LEVEL002
 370
13
 100
AcDbLine
   6
CONTINUOUS
  62
7
  10
 2830.6876623002
  20
 2854.1673004752
  30
0.0
  11
 2830.6876623002
  21
 3205.1673004752
  31
0.0
   0
POINT
   5
2AB
 100
AcDbEntity
   8
LEVEL002
 100
AcDbPoint
  62
2
  10
 2786.1376623002
  20
 3398.1070204110
  30
0.0
   0
POINT
   5
2AC
 100
AcDbEntity
   8
LEVEL002
 100
AcDbPoint
  62
2
  10
 3186.1376623002
  20
 3898.1070204110
  30
0.0
   0
CIRCLE
   5
2AD
 100
AcDbEntity
   8
LEVEL002
 370
13
 100
AcDbCircle
   6
CONTINUOUS
  62
1
  10
 3386.1376623002
  20
 3317.6680328970
  30
0.0
  40
 70.000000000000
   0
CIRCLE
   5
2AE
 100
AcDbEntity
   8
LEVEL002
 370
13
 100
AcDbCircle
   6
CONTINUOUS
  62
1
  10
 3526.1376623002
  20
 3317.6680328970
  30
0.0
  40
 70.000000000000
   0
LEADER
   5
2AF
 100
AcDbEntity
   8
LEVEL002
 370
13
   6
CONTINUOUS
  62
1
 100
AcDbLeader
   3
GMM002
  73
3
  74
1
  75
0
  40
 60.000000000000
  41
0.0
  76
2
  10
 2851.0863927690
  20
 3242.1673004752
  30
0.0
  10
 3316.8230339636
  20
 3307.8965284802
  30
0.0
  77
1
   0
LINE
   5
2B0
 100
AcDbEntity
   8
LEVEL002
 370
13
 100
AcDbLine
   6
DASHDOT
  62
6
  10
 2786.1376623002
  20
 3242.1673004754
  30
0.0
  11
 2786.1376623002
  21
 498.10702041299
  31
0.0
   0
CIRCLE
   5
2B1
 100
AcDbEntity
   8
LEVEL002
 370
13
 100
AcDbCircle
   6
CONTINUOUS
  62
1
  10
 2396.1376623002
  20
 748.10702041299
  30
0.0
  40
 70.000000000000
   0
LEADER
   5
2B2
 100
AcDbEntity
   8
LEVEL002
 370
13
   6
CONTINUOUS
  62
1
 100
AcDbLeader
   3
GMM002
  73
3
  74
1
  75
0
  40
 60.000000000000
  41
0.0
  76
2
  10
 2669.7377599564
  20
 890.60702041299
  30
0.0
  10
 2458.1422117140
  20
 780.59449264443
  30
0.0
  77
1
   0
MTEXT
   5
2B3
 100
AcDbEntity
   8
LEVEL002
 370
13
  62
1
 100
AcDbMText
  10
 2396.1376623002
  20
 748.10702041299
  30
0.0
  40
 57.142857142858
  41
0.0
  71
5
  72
1
   1
\T1.000000;10
   7
GMM001
  44
 0.79999984000003
   0
CIRCLE
   5
2B4
 100
AcDbEntity
   8
LEVEL002
 370
13
 100
AcDbCircle
   6
CONTINUOUS
  62
7
  10
 2786.1376623002
  20
 998.10702041299
  30
0.0
  40
 7.5000000000000
   0
LINE
   5
2B5
 100
AcDbEntity
   8
LEVEL002
 370
13
 100
AcDbLine
   6
DASHDOT
  62
6
  10
 2756.1376623002
  20
 998.10702041299
  30
0.0
  11
 2816.1376623002
  21
 998.10702041299
  31
0.0
   0
LINE
   5
2B6
 100
AcDbEntity
   8
LEVEL002
 370
13
 100
AcDbLine
   6
CONTINUOUS
  62
7
  10
 2741.5876134720
  20
 905.60702041299
  30
0.0
  11
 2669.7377599564
  21
 905.60702041299
  31
0.0
   0
LINE
   5
2B7
 100
AcDbEntity
   8
LEVEL002
 370
13
 100
AcDbLine
   6
CONTINUOUS
  62
7
  10
 2669.7377599564
  20
 905.60702041299
  30
0.0
  11
 2669.7377599564
  21
 890.60702041299
  31
0.0
   0
LINE
   5
2B8
 100
AcDbEntity
   8
LEVEL002
 370
13
 100
AcDbLine
   6
CONTINUOUS
  62
7
  10
 2669.7377599564
  20
 890.60702041299
  30
0.0
  11
 2741.5876134720
  21
 890.60702041299
  31
0.0
   0
LINE
   5
2B9
 100
AcDbEntity
   8
LEVEL002
 370
13
 100
AcDbLine
   6
CONTINUOUS
  62
7
  10
 2830.6877111284
  20
 905.60702041299
  30
0.0
  11
 2902.5375646440
  21
 905.60702041299
  31
0.0
   0
LINE
   5
2BA
 100
AcDbEntity
   8
LEVEL002
 370
13
 100
AcDbLine
   6
CONTINUOUS
  62
7
  10
 2902.5375646440
  20
 905.60702041299
  30
0.0
  11
 2902.5375646440
  21
 890.60702041299
  31
0.0
   0
LINE
   5
2BB
 100
AcDbEntity
   8
LEVEL002
 370
13
 100
AcDbLine
   6
CONTINUOUS
  62
7
  10
 2902.5375646440
  20
 890.60702041299
  30
0.0
  11
 2830.6877111284
  21
 890.60702041299
  31
0.0
   0
LINE
   5
2BC
 100
AcDbEntity
   8
LEVEL002
 370
13
 100
AcDbLine
   6
DASHDOT
  62
6
  10
 2719.7377599564
  20
 898.10702041299
  30
0.0
  11
 2852.5375646440
  21
 898.10702041299
  31
0.0
   0
LINE
   5
2BD
 100
AcDbEntity
   8
LEVEL002
 370
13
 100
AcDbLine
   6
DOT
  62
1
  10
 2830.6877111284
  20
 890.60702041299
  30
0.0
  11
 2741.5876134720
  21
 890.60702041299
  31
0.0
   0
LINE
   5
2BE
 100
AcDbEntity
   8
LEVEL002
 370
13
 100
AcDbLine
   6
DOT
  62
1
  10
 2741.5876134720
  20
 905.60702041299
  30
0.0
  11
 2830.6877111284
  21
 905.60702041299
  31
0.0
   0
MTEXT
   5
2C0
 100
AcDbEntity
   8
LEVEL002
 370
13
  62
1
 100
AcDbMText
  10
 2406.7862675096
  20
 1806.8369574533
  30
0.0
  40
 40.000000000000
  41
0.0
  71
7
  72
1
   1
\T1.000000;ＧＬ
   7
GMM003
  44
 0.79999984000003
   0
LINE
   5
2C1
 100
AcDbEntity
   8
LEVEL002
 370
13
 100
AcDbLine
   6
CONTINUOUS
  62
1
  10
 2378.6375970648
  20
 1798.1070204130
  30
0.0
  11
 2353.6375970648
  21
 1848.1070204130
  31
0.0
   0
LINE
   5
2C2
 100
AcDbEntity
   8
LEVEL002
 370
13
 100
AcDbLine
   6
CONTINUOUS
  62
1
  10
 2353.6375970648
  20
 1848.1070204130
  30
0.0
  11
 2403.6375970648
  21
 1848.1070204130
  31
0.0
   0
LINE
   5
2C3
 100
AcDbEntity
   8
LEVEL002
 370
13
 100
AcDbLine
   6
CONTINUOUS
  62
1
  10
 2403.6375970648
  20
 1848.1070204130
  30
0.0
  11
 2378.6375970648
  21
 1798.1070204130
  31
0.0
   0
LINE
   5
2C4
 100
AcDbEntity
   8
LEVEL002
 370
13
 100
AcDbLine
   6
CONTINUOUS
  62
7
  10
 3141.5876623002
  20
 4054.0467403506
  30
0.0
  11
 3141.5876623002
  21
 4600.6070204130
  31
0.0
   0
LINE
   5
2C5
 100
AcDbEntity
   8
LEVEL002
 370
13
 100
AcDbLine
   6
CONTINUOUS
  62
7
  10
 3230.6876623002
  20
 4600.6070204130
  30
0.0
  11
 3230.6876623002
  21
 4054.0467403504
  31
0.0
   0
LINE
   5
2C6
 100
AcDbEntity
   8
LEVEL002
 370
13
 100
AcDbLine
   6
DASHDOT
  62
6
  10
 3186.1376623002
  20
 4054.0467403506
  30
0.0
  11
 3186.1376623002
  21
 5062.6361681860
  31
0.0
   0
MTEXT
   5
2C7
 100
AcDbEntity
   8
LEVEL002
 370
13
  62
1
 100
AcDbMText
  10
 3386.1376623002
  20
 3317.6680328970
  30
0.0
  40
 57.142857142858
  41
0.0
  71
5
  72
1
   1
\T1.000000;15
   7
GMM001
  44
 0.79999984000003
   0
MTEXT
   5
2C8
 100
AcDbEntity
   8
LEVEL002
 370
13
  62
1
 100
AcDbMText
  10
 3526.1376623002
  20
 3317.6680328970
  30
0.0
  40
 57.142857142858
  41
0.0
  71
5
  72
1
   1
\T1.000000;16
   7
GMM001
  44
 0.79999984000003
   0
LINE
   5
2C9
 100
AcDbEntity
   8
LEVEL002
 370
13
 100
AcDbLine
   6
CONTINUOUS
  62
7
  10
 1530.6876623002
  20
 5002.1070204130
  30
0.0
  11
 1441.5876623002
  21
 5002.1070204130
  31
0.0
   0
LINE
   5
2CA
 100
AcDbEntity
   8
LEVEL002
 370
13
 100
AcDbLine
   6
CONTINUOUS
  62
7
  10
 1441.5876623002
  20
 5002.1070204130
  30
0.0
  11
 1441.5876623002
  21
 4999.1070204130
  31
0.0
   0
LINE
   5
2CB
 100
AcDbEntity
   8
LEVEL002
 370
13
 100
AcDbLine
   6
CONTINUOUS
  62
7
  10
 1441.5876623002
  20
 4999.1070204130
  30
0.0
  11
 1530.6876623002
  21
 4999.1070204130
  31
0.0
   0
LINE
   5
2CC
 100
AcDbEntity
   8
LEVEL002
 370
13
 100
AcDbLine
   6
CONTINUOUS
  62
7
  10
 1530.6876623002
  20
 4999.1070204130
  30
0.0
  11
 1530.6876623002
  21
 5002.1070204130
  31
0.0
   0
LINE
   5
2CD
 100
AcDbEntity
   8
LEVEL002
 370
13
 100
AcDbLine
   6
DOT
  62
1
  10
 1525.6876623002
  20
 4999.1070204130
  30
0.0
  11
 1525.6876623002
  21
 4972.1070204130
  31
0.0
   0
LINE
   5
2CE
 100
AcDbEntity
   8
LEVEL002
 370
13
 100
AcDbLine
   6
DOT
  62
1
  10
 1525.6876623002
  20
 4972.1070204130
  30
0.0
  11
 1446.5876623002
  21
 4972.1070204130
  31
0.0
   0
LINE
   5
2CF
 100
AcDbEntity
   8
LEVEL002
 370
13
 100
AcDbLine
   6
DOT
  62
1
  10
 1446.5876623002
  20
 4972.1070204130
  30
0.0
  11
 1446.5876623002
  21
 4999.1070204130
  31
0.0
   0
LINE
   5
2D0
 100
AcDbEntity
   8
LEVEL002
 370
13
 100
AcDbLine
   6
DASHDOT
  62
6
  10
 1486.1376623002
  20
 5054.3030647154
  30
0.0
  11
 1486.1376623002
  21
 498.10702041299
  31
0.0
   0
ARC
   5
2D1
 100
AcDbEntity
   8
LEVEL002
 370
13
   6
CONTINUOUS
  62
7
 100
AcDbCircle
  10
 1556.1373551891
  20
 3309.6680852208
  30
0.0
  40
 20.000000000000
 100
AcDbArc
  50
0.0
  51
 90.000000000000
   0
LINE
   5
2D2
 100
AcDbEntity
   8
LEVEL002
 370
13
 100
AcDbLine
   6
CONTINUOUS
  62
7
  10
 1556.1373551891
  20
 3329.6680852208
  30
0.0
  11
 1416.1399710289
  21
 3329.6680852208
  31
0.0
   0
ARC
   5
2D3
 100
AcDbEntity
   8
LEVEL002
 370
13
   6
CONTINUOUS
  62
7
 100
AcDbCircle
  10
 1416.1399710289
  20
 3309.6680852208
  30
0.0
  40
 20.000000000000
 100
AcDbArc
  50
 90.000000000000
  51
 180.00000000000
   0
LINE
   5
2D4
 100
AcDbEntity
   8
LEVEL002
 370
13
 100
AcDbLine
   6
CONTINUOUS
  62
7
  10
 1396.1399710289
  20
 3309.6680852208
  30
0.0
  11
 1396.1399710289
  21
 2749.6673004752
  31
0.0
   0
LINE
   5
2D5
 100
AcDbEntity
   8
LEVEL002
 370
13
 100
AcDbLine
   6
CONTINUOUS
  62
7
  10
 1576.1373551891
  20
 2749.6673004752
  30
0.0
  11
 1576.1373551891
  21
 3309.6680852208
  31
0.0
   0
ARC
   5
2D6
 100
AcDbEntity
   8
LEVEL002
 370
13
   6
CONTINUOUS
  62
7
 100
AcDbCircle
  10
 1549.8953273641
  20
 2886.0889593052
  30
0.0
  40
 4.7515310421130
 100
AcDbArc
  50
 274.70409570304
  51
 59.112293256633
   0
LINE
   5
2D7
 100
AcDbEntity
   8
LEVEL002
 370
13
 100
AcDbLine
   6
CONTINUOUS
  62
7
  10
 1416.1399710289
  20
 2729.6673004752
  30
0.0
  11
 1556.1373551891
  21
 2729.6673004752
  31
0.0
   0
ARC
   5
2D8
 100
AcDbEntity
   8
LEVEL002
 370
13
   6
CONTINUOUS
  62
7
 100
AcDbCircle
  10
 1556.1373551891
  20
 2749.6673004752
  30
0.0
  40
 20.000000000000
 100
AcDbArc
  50
 270.00000000000
  51
0.0
   0
ARC
   5
2D9
 100
AcDbEntity
   8
LEVEL002
 370
13
   6
CONTINUOUS
  62
7
 100
AcDbCircle
  10
 1416.1399710289
  20
 2749.6673004752
  30
0.0
  40
 20.000000000000
 100
AcDbArc
  50
 180.00000000000
  51
 270.00000000000
   0
LINE
   5
2DA
 100
AcDbEntity
   8
LEVEL002
 370
13
 100
AcDbLine
   6
CONTINUOUS
  62
7
  10
 1441.5876623002
  20
 2729.6673004752
  30
0.0
  11
 1441.5876623002
  21
 598.10702041299
  31
0.0
   0
LINE
   5
2DB
 100
AcDbEntity
   8
LEVEL002
 370
13
 100
AcDbLine
   6
CONTINUOUS
  62
7
  10
 1441.5876623002
  20
 598.10702041299
  30
0.0
  11
 1530.6876623002
  21
 598.10702041299
  31
0.0
   0
LINE
   5
2DC
 100
AcDbEntity
   8
LEVEL002
 370
13
 100
AcDbLine
   6
CONTINUOUS
  62
7
  10
 1530.6876623002
  20
 598.10702041299
  30
0.0
  11
 1530.6876623002
  21
 2729.6673004752
  31
0.0
   0
CIRCLE
   5
2DD
 100
AcDbEntity
   8
LEVEL002
 370
13
 100
AcDbCircle
   6
CONTINUOUS
  62
1
  10
 1736.1376623002
  20
 2929.6680852208
  30
0.0
  40
 70.000000000000
   0
MTEXT
   5
2DE
 100
AcDbEntity
   8
LEVEL002
 370
13
  62
1
 100
AcDbMText
  10
 1736.1376623002
  20
 2929.6680852208
  30
0.0
  40
 57.142857142858
  41
0.0
  71
5
  72
1
   1
\T1.000000;14
   7
GMM001
  44
 0.79999984000003
   0
LEADER
   5
2DF
 100
AcDbEntity
   8
LEVEL002
 370
13
   6
CONTINUOUS
  62
1
 100
AcDbLeader
   3
GMM002
  73
3
  74
1
  75
0
  40
 60.000000000000
  41
0.0
  76
2
  10
 1576.1373551891
  20
 3089.6683923324
  30
0.0
  10
 1686.6401876175
  20
 2979.1655599042
  30
0.0
  77
1
   0
CIRCLE
   5
2E0
 100
AcDbEntity
   8
LEVEL002
 370
13
 100
AcDbCircle
   6
CONTINUOUS
  62
7
  10
 1961.1375946802
  20
 4730.6070204130
  30
0.0
  40
 432.50000000000
   0
CIRCLE
   5
2E1
 100
AcDbEntity
   8
LEVEL002
 370
13
 100
AcDbCircle
   6
CONTINUOUS
  62
7
  10
 1961.1375946802
  20
 4730.6070204130
  30
0.0
  40
 412.50000000000
   0
CIRCLE
   5
2E2
 100
AcDbEntity
   8
LEVEL002
 370
13
 100
AcDbCircle
   6
CONTINUOUS
  62
6
  10
 1961.1375946802
  20
 4730.6070204130
  30
0.0
  40
 405.00000000000
   0
CIRCLE
   5
2E3
 100
AcDbEntity
   8
LEVEL002
 370
13
 100
AcDbCircle
   6
CONTINUOUS
  62
6
  10
 1961.1375946802
  20
 4730.6070204130
  30
0.0
  40
 410.00000000000
   0
ARC
   5
2E4
 100
AcDbEntity
   8
LEVEL002
 370
13
   6
CONTINUOUS
  62
1
 100
AcDbCircle
  10
 1961.1375946802
  20
 4730.6070204130
  30
0.0
  40
 410.00000000000
 100
AcDbArc
  50
 6.1099891253648
  51
 173.89001087464
   0
ARC
   5
2E5
 100
AcDbEntity
   8
LEVEL002
 370
13
   6
CONTINUOUS
  62
1
 100
AcDbCircle
  10
 1961.1375946802
  20
 4730.6070204130
  30
0.0
  40
 411.50000000000
 100
AcDbArc
  50
 6.1099891253674
  51
 173.89001087464
   0
LINE
   5
2E6
 100
AcDbEntity
   8
LEVEL002
 370
13
 100
AcDbLine
   6
CONTINUOUS
  62
1
  10
 1553.4666396098
  20
 4774.2463649528
  30
0.0
  11
 1551.9751605059
  21
 4774.4060210914
  31
0.0
   0
LINE
   5
2E7
 100
AcDbEntity
   8
LEVEL002
 370
13
 100
AcDbLine
   6
CONTINUOUS
  62
1
  10
 2368.8085497508
  20
 4774.2463649528
  30
0.0
  11
 2370.3000288548
  21
 4774.4060210914
  31
0.0
   0
LINE
   5
2E8
 100
AcDbEntity
   8
LEVEL002
 370
13
 100
AcDbLine
   6
DASHDOT
  62
6
  10
 2436.1375946802
  20
 4730.6070204130
  30
0.0
  11
 1486.1376623002
  21
 4730.6070204130
  31
0.0
   0
LINE
   5
2E9
 100
AcDbEntity
   8
LEVEL002
 370
13
 100
AcDbLine
   6
DASHDOT
  62
6
  10
 1961.1375946802
  20
 5205.6070204130
  30
0.0
  11
 1961.1375946802
  21
 4255.6070204130
  31
0.0
   0
CIRCLE
   5
2EA
 100
AcDbEntity
   8
LEVEL002
 370
13
 100
AcDbCircle
   6
CONTINUOUS
  62
7
  10
 1011.1375946803
  20
 4730.6070204130
  30
0.0
  40
 432.50000000000
   0
CIRCLE
   5
2EB
 100
AcDbEntity
   8
LEVEL002
 370
13
 100
AcDbCircle
   6
CONTINUOUS
  62
7
  10
 1011.1375946803
  20
 4730.6070204130
  30
0.0
  40
 412.50000000000
   0
CIRCLE
   5
2EC
 100
AcDbEntity
   8
LEVEL002
 370
13
 100
AcDbCircle
   6
CONTINUOUS
  62
6
  10
 1011.1375946803
  20
 4730.6070204130
  30
0.0
  40
 405.00000000000
   0
CIRCLE
   5
2ED
 100
AcDbEntity
   8
LEVEL002
 370
13
 100
AcDbCircle
   6
CONTINUOUS
  62
6
  10
 1011.1375946803
  20
 4730.6070204130
  30
0.0
  40
 410.00000000000
   0
ARC
   5
2EE
 100
AcDbEntity
   8
LEVEL002
 370
13
   6
CONTINUOUS
  62
1
 100
AcDbCircle
  10
 1011.1375946803
  20
 4730.6070204130
  30
0.0
  40
 410.00000000000
 100
AcDbArc
  50
 6.1099891253638
  51
 173.89001087464
   0
ARC
   5
2EF
 100
AcDbEntity
   8
LEVEL002
 370
13
   6
CONTINUOUS
  62
1
 100
AcDbCircle
  10
 1011.1375946803
  20
 4730.6070204130
  30
0.0
  40
 411.50000000000
 100
AcDbArc
  50
 6.1099891253664
  51
 173.89001087464
   0
LINE
   5
2F0
 100
AcDbEntity
   8
LEVEL002
 370
13
 100
AcDbLine
   6
CONTINUOUS
  62
1
  10
 603.46663960979
  20
 4774.2463649528
  30
0.0
  11
 601.97516050587
  21
 4774.4060210914
  31
0.0
   0
LINE
   5
2F1
 100
AcDbEntity
   8
LEVEL002
 370
13
 100
AcDbLine
   6
CONTINUOUS
  62
1
  10
 1418.8085497509
  20
 4774.2463649528
  30
0.0
  11
 1420.3000288548
  21
 4774.4060210914
  31
0.0
   0
LINE
   5
2F2
 100
AcDbEntity
   8
LEVEL002
 370
13
 100
AcDbLine
   6
DASHDOT
  62
6
  10
 536.13759468032
  20
 4730.6070204130
  30
0.0
  11
 1486.1375270604
  21
 4730.6070204130
  31
0.0
   0
LINE
   5
2F3
 100
AcDbEntity
   8
LEVEL002
 370
13
 100
AcDbLine
   6
DASHDOT
  62
6
  10
 1011.1375946803
  20
 5205.6070204130
  30
0.0
  11
 1011.1375946803
  21
 4255.6070204130
  31
0.0
   0
LINE
   5
2F4
 100
AcDbEntity
   8
LEVEL002
 370
13
 100
AcDbLine
   6
CONTINUOUS
  62
7
  10
 1533.8876623002
  20
 4615.6070204130
  30
0.0
  11
 1533.8876623002
  21
 4600.6070204130
  31
0.0
   0
LINE
   5
2F5
 100
AcDbEntity
   8
LEVEL002
 370
13
 100
AcDbLine
   6
CONTINUOUS
  62
7
  10
 1533.8876623002
  20
 4600.6070204130
  30
0.0
  11
 1423.6375946803
  21
 4600.6070204130
  31
0.0
   0
LINE
   5
2F6
 100
AcDbEntity
   8
LEVEL002
 370
13
 100
AcDbLine
   6
CONTINUOUS
  62
7
  10
 1532.1677883048
  20
 4675.4603503578
  30
0.0
  11
 1532.1677883048
  21
 4615.6070204130
  31
0.0
   0
LINE
   5
2F7
 100
AcDbEntity
   8
LEVEL002
 370
13
 100
AcDbLine
   6
CONTINUOUS
  62
7
  10
 1532.1677883048
  20
 4615.6070204130
  30
0.0
  11
 1544.2068450348
  21
 4615.6070204130
  31
0.0
   0
LINE
   5
2F8
 100
AcDbEntity
   8
LEVEL002
 370
13
 100
AcDbLine
   6
CONTINUOUS
  62
6
  10
 1443.5729369553
  20
 4705.6070204130
  30
0.0
  11
 1443.5729369553
  21
 4605.6070204130
  31
0.0
   0
LINE
   5
2F9
 100
AcDbEntity
   8
LEVEL002
 370
13
 100
AcDbLine
   6
CONTINUOUS
  62
7
  10
 1443.1749194568
  20
 4710.6070204130
  30
0.0
  11
 1529.1002699039
  21
 4710.6070204130
  31
0.0
   0
LINE
   5
2FA
 100
AcDbEntity
   8
LEVEL002
 370
13
 100
AcDbLine
   6
CONTINUOUS
  62
7
  10
 1443.1749194568
  20
 4710.6070204130
  30
0.0
  11
 1529.1002699039
  21
 4710.6070204130
  31
0.0
   0
LINE
   5
2FB
 100
AcDbEntity
   8
LEVEL002
 370
13
 100
AcDbLine
   6
CONTINUOUS
  62
7
  10
 1538.1053855047
  20
 4820.6070204130
  30
0.0
  11
 1438.3876623002
  21
 4820.6070204130
  31
0.0
   0
LINE
   5
2FC
 100
AcDbEntity
   8
LEVEL002
 370
13
 100
AcDbLine
   6
CONTINUOUS
  62
7
  10
 1438.3876623002
  20
 4820.6070204130
  30
0.0
  11
 1438.3876623002
  21
 4799.4516374740
  31
0.0
   0
LINE
   5
2FD
 100
AcDbEntity
   8
LEVEL002
 370
13
 100
AcDbLine
   6
CONTINUOUS
  62
6
  10
 1528.6761653956
  20
 4748.9400823552
  30
0.0
  11
 1528.9948713601
  21
 4748.1813835144
  31
0.0
   0
LINE
   5
2FE
 100
AcDbEntity
   8
LEVEL002
 370
13
 100
AcDbLine
   6
CONTINUOUS
  62
6
  10
 1528.7023876451
  20
 4815.6070204130
  30
0.0
  11
 1528.7023876451
  21
 4738.0931219648
  31
0.0
   0
LEADER
   5
2FF
 100
AcDbEntity
   8
LEVEL002
 370
13
   6
CONTINUOUS
  62
1
 100
AcDbLeader
   3
GMM002
  73
3
  74
1
  75
0
  40
 60.000000000000
  41
0.0
  76
2
  10
 2057.6276370293
  20
 4309.0077773782
  30
0.0
  10
 2136.6401214729
  20
 4230.1044936214
  30
0.0
  77
1
   0
LEADER
   5
300
 100
AcDbEntity
   8
LEVEL002
 370
13
   6
CONTINUOUS
  62
1
 100
AcDbLeader
   3
GMM002
  73
3
  74
1
  75
0
  40
 60.000000000000
  41
0.0
  76
2
  10
 2093.1342897840
  20
 5120.3622288216
  30
0.0
  10
 2324.9194920652
  20
 5246.6608332904
  30
0.0
  77
1
   0
LINE
   5
301
 100
AcDbEntity
   8
LEVEL002
 370
13
 100
AcDbLine
   6
CONTINUOUS
  62
7
  10
 1530.6876623002
  20
 4820.6070204130
  30
0.0
  11
 1530.6876623002
  21
 4998.1070204130
  31
0.0
   0
LINE
   5
302
 100
AcDbEntity
   8
LEVEL002
 370
13
 100
AcDbLine
   6
CONTINUOUS
  62
7
  10
 1530.6876623002
  20
 4998.1070204130
  30
0.0
  11
 1441.5876623002
  21
 4998.1070204130
  31
0.0
   0
LINE
   5
303
 100
AcDbEntity
   8
LEVEL002
 370
13
 100
AcDbLine
   6
CONTINUOUS
  62
7
  10
 1441.5876623002
  20
 4998.1070204130
  30
0.0
  11
 1441.5876623002
  21
 4820.6070204130
  31
0.0
   0
LINE
   5
304
 100
AcDbEntity
   8
LEVEL002
 370
13
 100
AcDbLine
   6
CONTINUOUS
  62
7
  10
 1530.6876623002
  20
 3329.6680852208
  30
0.0
  11
 1530.6876623002
  21
 4600.6070204130
  31
0.0
   0
LINE
   5
305
 100
AcDbEntity
   8
LEVEL002
 370
13
 100
AcDbLine
   6
CONTINUOUS
  62
7
  10
 1441.5876623002
  20
 4600.6070204130
  30
0.0
  11
 1441.5876623002
  21
 3329.6680852208
  31
0.0
   0
MTEXT
   5
306
 100
AcDbEntity
   8
LEVEL002
 370
13
  62
1
 100
AcDbMText
  10
 4486.1376623002
  20
 5530.6070204130
  30
0.0
  40
 57.142857142858
  41
0.0
  71
5
  72
1
   1
\T1.000000;背　面　図
   7
GMM001
  44
 0.79999984000003
   0
MTEXT
   5
307
 100
AcDbEntity
   8
LEVEL002
 370
13
  62
1
 100
AcDbMText
  10
 1486.1376623002
  20
 5530.6070204130
  30
0.0
  40
 57.142857142858
  41
0.0
  71
5
  72
1
   1
\T1.000000;正　面　図
   7
GMM001
  44
 0.79999984000003
   0
LINE
   5
308
 100
AcDbEntity
   8
LEVEL002
 370
13
 100
AcDbLine
   6
CONTINUOUS
  62
5
  10
 1486.1376622889
  20
 3279.6706825384
  30
0.0
  11
 1431.1376639281
  21
 3209.6706846246
  31
0.0
   0
LINE
   5
309
 100
AcDbEntity
   8
LEVEL002
 370
13
 100
AcDbLine
   6
CONTINUOUS
  62
5
  10
 1431.1376639281
  20
 3209.6706846246
  30
0.0
  11
 1461.1376630340
  21
 3209.6706846246
  31
0.0
   0
LINE
   5
30A
 100
AcDbEntity
   8
LEVEL002
 370
13
 100
AcDbLine
   6
CONTINUOUS
  62
5
  10
 1461.1376630340
  20
 3209.6706846246
  30
0.0
  11
 1461.1376630340
  21
 3179.6706855186
  31
0.0
   0
LINE
   5
30B
 100
AcDbEntity
   8
LEVEL002
 370
13
 100
AcDbLine
   6
CONTINUOUS
  62
5
  10
 1461.1376630340
  20
 3179.6706855186
  30
0.0
  11
 1511.1376615439
  21
 3179.6706855186
  31
0.0
   0
LINE
   5
30C
 100
AcDbEntity
   8
LEVEL002
 370
13
 100
AcDbLine
   6
CONTINUOUS
  62
5
  10
 1511.1376615439
  20
 3179.6706855186
  30
0.0
  11
 1511.1376615439
  21
 3209.6706846246
  31
0.0
   0
LINE
   5
30D
 100
AcDbEntity
   8
LEVEL002
 370
13
 100
AcDbLine
   6
CONTINUOUS
  62
5
  10
 1511.1376615439
  20
 3209.6706846246
  30
0.0
  11
 1541.1376606498
  21
 3209.6706846246
  31
0.0
   0
LINE
   5
30E
 100
AcDbEntity
   8
LEVEL002
 370
13
 100
AcDbLine
   6
CONTINUOUS
  62
5
  10
 1541.1376606498
  20
 3209.6706846246
  30
0.0
  11
 1486.1376622889
  21
 3279.6706825384
  31
0.0
   0
LINE
   5
30F
 100
AcDbEntity
   8
LEVEL002
 370
13
 100
AcDbLine
   6
CONTINUOUS
  62
5
  10
 1416.4947200285
  20
 3113.6617763530
  30
0.0
  11
 1431.7638846125
  21
 3111.4071377484
  31
0.0
   0
ARC
   5
310
 100
AcDbEntity
   8
LEVEL002
 370
13
   6
CONTINUOUS
  62
5
 100
AcDbCircle
  10
 1430.3811727763
  20
 3090.8739317956
  30
0.0
  40
 20.579709393390
 100
AcDbArc
  50
 10.432218603601
  51
 86.147502468984
   0
ARC
   5
311
 100
AcDbEntity
   8
LEVEL002
 370
13
   6
CONTINUOUS
  62
5
 100
AcDbCircle
  10
 1436.7368346810
  20
 3094.2982871098
  30
0.0
  40
 13.887146297480
 100
AcDbArc
  50
 284.73811645764
  51
 1.2463330419053
   0
LINE
   5
312
 100
AcDbEntity
   8
LEVEL002
 370
13
 100
AcDbLine
   6
CONTINUOUS
  62
5
  10
 1440.2697437340
  20
 3080.8680456410
  30
0.0
  11
 1416.4947200285
  21
 3113.6617763530
  31
0.0
   0
ARC
   5
313
 100
AcDbEntity
   8
LEVEL002
 370
13
   6
CONTINUOUS
  62
5
 100
AcDbCircle
  10
 1424.0419300153
  20
 3054.0567779092
  30
0.0
  40
 20.228108756896
 100
AcDbArc
  50
 1.0517504590188
  51
 78.795792274241
   0
ARC
   5
314
 100
AcDbEntity
   8
LEVEL002
 370
13
   6
CONTINUOUS
  62
5
 100
AcDbCircle
  10
 1429.2983605207
  20
 3056.2065638090
  30
0.0
  40
 15.073557642890
 100
AcDbArc
  50
 288.65956808363
  51
 353.22403827742
   0
LINE
   5
315
 100
AcDbEntity
   8
LEVEL002
 370
13
 100
AcDbLine
   6
CONTINUOUS
  62
5
  10
 1418.8515925169
  20
 3027.8855643098
  30
0.0
  11
 1425.8202812740
  21
 2989.0453860240
  31
0.0
   0
ARC
   5
316
 100
AcDbEntity
   8
LEVEL002
 370
13
   6
CONTINUOUS
  62
5
 100
AcDbCircle
  10
 1435.8026985957
  20
 2992.6773312104
  30
0.0
  40
 10.622602384609
 100
AcDbArc
  50
 199.99311911335
  51
 1.9679733410701
   0
LINE
   5
317
 100
AcDbEntity
   8
LEVEL002
 370
13
 100
AcDbLine
   6
CONTINUOUS
  62
5
  10
 1446.4190355429
  20
 2993.0421205240
  30
0.0
  11
 1443.2418505790
  21
 3010.1563778264
  31
0.0
   0
LINE
   5
318
 100
AcDbEntity
   8
LEVEL002
 370
13
 100
AcDbLine
   6
CONTINUOUS
  62
5
  10
 1443.2418505790
  20
 3010.1563778264
  30
0.0
  11
 1455.5395186696
  21
 3069.5951577932
  31
0.0
   0
LINE
   5
319
 100
AcDbEntity
   8
LEVEL002
 370
13
 100
AcDbLine
   6
CONTINUOUS
  62
5
  10
 1455.5395186696
  20
 3069.5951577932
  30
0.0
  11
 1432.6864309717
  21
 3019.6871697788
  31
0.0
   0
LINE
   5
31A
 100
AcDbEntity
   8
LEVEL002
 370
13
 100
AcDbLine
   6
CONTINUOUS
  62
5
  10
 1432.6864309717
  20
 3019.6871697788
  30
0.0
  11
 1418.8515925169
  21
 3027.8855643098
  31
0.0
   0
ARC
   5
31B
 100
AcDbEntity
   8
LEVEL002
 370
13
   6
CONTINUOUS
  62
5
 100
AcDbCircle
  10
 1540.8987012545
  20
 3048.3036861236
  30
0.0
  40
 5.0631766002424
 100
AcDbArc
  50
 274.72626205421
  51
 43.105625042982
   0
ARC
   5
31C
 100
AcDbEntity
   8
LEVEL002
 370
13
   6
CONTINUOUS
  62
5
 100
AcDbCircle
  10
 1544.5383349618
  20
 3091.4526425866
  30
0.0
  40
 5.5826340442110
 100
AcDbArc
  50
 274.79665758007
  51
 36.910963374398
   0
LINE
   5
31D
 100
AcDbEntity
   8
LEVEL002
 370
13
 100
AcDbLine
   6
CONTINUOUS
  62
5
  10
 1544.5953021483
  20
 3051.7635848384
  30
0.0
  11
 1528.1982079104
  21
 3064.7785685814
  31
0.0
   0
LINE
   5
31E
 100
AcDbEntity
   8
LEVEL002
 370
13
 100
AcDbLine
   6
CONTINUOUS
  62
5
  10
 1528.1982079104
  20
 3064.7785685814
  30
0.0
  11
 1520.6145899724
  21
 3055.3503156886
  31
0.0
   0
LINE
   5
31F
 100
AcDbEntity
   8
LEVEL002
 370
13
 100
AcDbLine
   6
CONTINUOUS
  62
5
  10
 1520.6145899724
  20
 3055.3503156886
  30
0.0
  11
 1507.8045317604
  21
 3055.3503156886
  31
0.0
   0
LINE
   5
320
 100
AcDbEntity
   8
LEVEL002
 370
13
 100
AcDbLine
   6
CONTINUOUS
  62
5
  10
 1507.8045317604
  20
 3055.3503156886
  30
0.0
  11
 1507.8045317604
  21
 3085.8895603838
  31
0.0
   0
LINE
   5
321
 100
AcDbEntity
   8
LEVEL002
 370
13
 100
AcDbLine
   6
CONTINUOUS
  62
5
  10
 1507.8045317604
  20
 3085.8895603838
  30
0.0
  11
 1545.0051532103
  21
 3085.8895603838
  31
0.0
   0
LINE
   5
322
 100
AcDbEntity
   8
LEVEL002
 370
13
 100
AcDbLine
   6
CONTINUOUS
  62
5
  10
 1549.0020402982
  20
 3094.8054231552
  30
0.0
  11
 1535.1668966676
  21
 3106.8980131268
  31
0.0
   0
LINE
   5
323
 100
AcDbEntity
   8
LEVEL002
 370
13
 100
AcDbLine
   6
CONTINUOUS
  62
5
  10
 1535.1668966676
  20
 3106.8980131268
  30
0.0
  11
 1523.2793848148
  21
 3096.8549836410
  31
0.0
   0
LINE
   5
324
 100
AcDbEntity
   8
LEVEL002
 370
13
 100
AcDbLine
   6
CONTINUOUS
  62
5
  10
 1523.2793848148
  20
 3096.8549836410
  30
0.0
  11
 1507.8045317604
  21
 3096.8549836410
  31
0.0
   0
LINE
   5
325
 100
AcDbEntity
   8
LEVEL002
 370
13
 100
AcDbLine
   6
CONTINUOUS
  62
5
  10
 1507.8045317604
  20
 3096.8549836410
  30
0.0
  11
 1507.8045317604
  21
 3112.3295315196
  31
0.0
   0
LINE
   5
326
 100
AcDbEntity
   8
LEVEL002
 370
13
 100
AcDbLine
   6
CONTINUOUS
  62
5
  10
 1507.8045317604
  20
 3112.3295315196
  30
0.0
  11
 1511.3915677863
  21
 3114.1741664744
  31
0.0
   0
LINE
   5
327
 100
AcDbEntity
   8
LEVEL002
 370
13
 100
AcDbLine
   6
CONTINUOUS
  62
5
  10
 1511.3915677863
  20
 3114.1741664744
  30
0.0
  11
 1511.6988797889
  21
 3116.8386561412
  31
0.0
   0
LINE
   5
328
 100
AcDbEntity
   8
LEVEL002
 370
13
 100
AcDbLine
   6
CONTINUOUS
  62
5
  10
 1511.6988797889
  20
 3116.8386561412
  30
0.0
  11
 1482.7993445173
  21
 3121.3477807626
  31
0.0
   0
LINE
   5
329
 100
AcDbEntity
   8
LEVEL002
 370
13
 100
AcDbLine
   6
CONTINUOUS
  62
5
  10
 1482.7993445173
  20
 3121.3477807626
  30
0.0
  11
 1482.7993445173
  21
 3096.8549836410
  31
0.0
   0
LINE
   5
32A
 100
AcDbEntity
   8
LEVEL002
 370
13
 100
AcDbLine
   6
CONTINUOUS
  62
5
  10
 1482.7993445173
  20
 3096.8549836410
  30
0.0
  11
 1453.3874191243
  21
 3096.8549836410
  31
0.0
   0
LINE
   5
32B
 100
AcDbEntity
   8
LEVEL002
 370
13
 100
AcDbLine
   6
CONTINUOUS
  62
5
  10
 1453.3874191243
  20
 3096.8549836410
  30
0.0
  11
 1457.7941572742
  21
 3085.8895603838
  31
0.0
   0
LINE
   5
32C
 100
AcDbEntity
   8
LEVEL002
 370
13
 100
AcDbLine
   6
CONTINUOUS
  62
5
  10
 1457.7941572742
  20
 3085.8895603838
  30
0.0
  11
 1482.7993445173
  21
 3085.8895603838
  31
0.0
   0
LINE
   5
32D
 100
AcDbEntity
   8
LEVEL002
 370
13
 100
AcDbLine
   6
CONTINUOUS
  62
5
  10
 1482.7993445173
  20
 3085.8895603838
  30
0.0
  11
 1482.7993445173
  21
 3055.3503156886
  31
0.0
   0
LINE
   5
32E
 100
AcDbEntity
   8
LEVEL002
 370
13
 100
AcDbLine
   6
CONTINUOUS
  62
5
  10
 1482.7993445173
  20
 3055.3503156886
  30
0.0
  11
 1455.0271285481
  21
 3055.3503156886
  31
0.0
   0
LINE
   5
32F
 100
AcDbEntity
   8
LEVEL002
 370
13
 100
AcDbLine
   6
CONTINUOUS
  62
5
  10
 1455.0271285481
  20
 3055.3503156886
  30
0.0
  11
 1459.9462568195
  21
 3043.2577257168
  31
0.0
   0
LINE
   5
330
 100
AcDbEntity
   8
LEVEL002
 370
13
 100
AcDbLine
   6
CONTINUOUS
  62
5
  10
 1459.9462568195
  20
 3043.2577257168
  30
0.0
  11
 1482.7993445173
  21
 3043.2577257168
  31
0.0
   0
LINE
   5
331
 100
AcDbEntity
   8
LEVEL002
 370
13
 100
AcDbLine
   6
CONTINUOUS
  62
5
  10
 1482.7993445173
  20
 3043.2577257168
  30
0.0
  11
 1482.7993445173
  21
 2998.3712524452
  31
0.0
   0
LINE
   5
332
 100
AcDbEntity
   8
LEVEL002
 370
13
 100
AcDbLine
   6
CONTINUOUS
  62
5
  10
 1482.7993445173
  20
 2998.3712524452
  30
0.0
  11
 1450.3130783956
  21
 2998.3712524452
  31
0.0
   0
LINE
   5
333
 100
AcDbEntity
   8
LEVEL002
 370
13
 100
AcDbLine
   6
CONTINUOUS
  62
5
  10
 1450.3130783956
  20
 2998.3712524452
  30
0.0
  11
 1455.7445967885
  21
 2986.2783572978
  31
0.0
   0
LINE
   5
334
 100
AcDbEntity
   8
LEVEL002
 370
13
 100
AcDbLine
   6
CONTINUOUS
  62
5
  10
 1455.7445967885
  20
 2986.2783572978
  30
0.0
  11
 1546.1224017122
  21
 2986.2783572978
  31
0.0
   0
LINE
   5
335
 100
AcDbEntity
   8
LEVEL002
 370
13
 100
AcDbLine
   6
CONTINUOUS
  62
5
  10
 1549.5769914530
  20
 2997.8011841028
  30
0.0
  11
 1534.2446554841
  21
 3007.9018918096
  31
0.0
   0
LINE
   5
336
 100
AcDbEntity
   8
LEVEL002
 370
13
 100
AcDbLine
   6
CONTINUOUS
  62
5
  10
 1534.2446554841
  20
 3007.9018918096
  30
0.0
  11
 1526.3537255435
  21
 2998.3712524452
  31
0.0
   0
LINE
   5
337
 100
AcDbEntity
   8
LEVEL002
 370
13
 100
AcDbLine
   6
CONTINUOUS
  62
5
  10
 1526.3537255435
  20
 2998.3712524452
  30
0.0
  11
 1507.8045317604
  21
 2998.3712524452
  31
0.0
   0
LINE
   5
338
 100
AcDbEntity
   8
LEVEL002
 370
13
 100
AcDbLine
   6
CONTINUOUS
  62
5
  10
 1507.8045317604
  20
 2998.3712524452
  30
0.0
  11
 1507.8045317604
  21
 3043.2577257168
  31
0.0
   0
LINE
   5
339
 100
AcDbEntity
   8
LEVEL002
 370
13
 100
AcDbLine
   6
CONTINUOUS
  62
5
  10
 1507.8045317604
  20
 3043.2577257168
  30
0.0
  11
 1541.3158833007
  21
 3043.2577257168
  31
0.0
   0
ARC
   5
33A
 100
AcDbEntity
   8
LEVEL002
 370
13
   6
CONTINUOUS
  62
5
 100
AcDbCircle
  10
 1546.1228810121
  20
 2992.5574769416
  30
0.0
  40
 6.2791196620726
 100
AcDbArc
  50
 269.99562647879
  51
 56.626490037599
   0
ARC
   5
33B
 100
AcDbEntity
   8
LEVEL002
 370
13
   6
CONTINUOUS
  62
5
 100
AcDbCircle
  10
 1456.7360041666
  20
 2885.7319006542
  30
0.0
  40
 22.293228438698
 100
AcDbArc
  50
 35.161132790366
  51
 78.641284698069
   0
ARC
   5
33C
 100
AcDbEntity
   8
LEVEL002
 370
13
   6
CONTINUOUS
  62
5
 100
AcDbCircle
  10
 1468.6160451619
  20
 2896.7886125894
  30
0.0
  40
 6.5907971086860
 100
AcDbArc
  50
 312.23536417698
  51
 15.681870099128
   0
LINE
   5
33D
 100
AcDbEntity
   8
LEVEL002
 370
13
 100
AcDbLine
   6
CONTINUOUS
  62
5
  10
 1473.0462320150
  20
 2891.9088532742
  30
0.0
  11
 1491.9732334041
  21
 2891.9088532742
  31
0.0
   0
LINE
   5
33E
 100
AcDbEntity
   8
LEVEL002
 370
13
 100
AcDbLine
   6
CONTINUOUS
  62
5
  10
 1491.9732334041
  20
 2891.9088532742
  30
0.0
  11
 1502.4264191277
  21
 2907.5884792718
  31
0.0
   0
LINE
   5
33F
 100
AcDbEntity
   8
LEVEL002
 370
13
 100
AcDbLine
   6
CONTINUOUS
  62
5
  10
 1502.4264191277
  20
 2907.5884792718
  30
0.0
  11
 1461.1266767062
  21
 2907.5884792718
  31
0.0
   0
ARC
   5
340
 100
AcDbEntity
   8
LEVEL002
 370
13
   6
CONTINUOUS
  62
5
 100
AcDbCircle
  10
 1540.4541299948
  20
 2912.7446528968
  30
0.0
  40
 5.1561789168066
 100
AcDbArc
  50
 269.91791191263
  51
 52.070025543566
   0
LINE
   5
341
 100
AcDbEntity
   8
LEVEL002
 370
13
 100
AcDbLine
   6
CONTINUOUS
  62
5
  10
 1552.3345597302
  20
 2890.1666047910
  30
0.0
  11
 1534.4006003037
  21
 2900.6197905146
  31
0.0
   0
LINE
   5
342
 100
AcDbEntity
   8
LEVEL002
 370
13
 100
AcDbLine
   6
CONTINUOUS
  62
5
  10
 1534.4006003037
  20
 2900.6197905146
  30
0.0
  11
 1527.8417626085
  21
 2891.9088532742
  31
0.0
   0
LINE
   5
343
 100
AcDbEntity
   8
LEVEL002
 370
13
 100
AcDbLine
   6
CONTINUOUS
  62
5
  10
 1527.8417626085
  20
 2891.9088532742
  30
0.0
  11
 1512.0928617107
  21
 2891.9088532742
  31
0.0
   0
LINE
   5
344
 100
AcDbEntity
   8
LEVEL002
 370
13
 100
AcDbLine
   6
CONTINUOUS
  62
5
  10
 1512.0928617107
  20
 2891.9088532742
  30
0.0
  11
 1521.1803858539
  21
 2900.1074003932
  31
0.0
   0
LINE
   5
345
 100
AcDbEntity
   8
LEVEL002
 370
13
 100
AcDbLine
   6
CONTINUOUS
  62
5
  10
 1521.1803858539
  20
 2900.1074003932
  30
0.0
  11
 1524.9721948230
  21
 2900.6197905146
  31
0.0
   0
LINE
   5
346
 100
AcDbEntity
   8
LEVEL002
 370
13
 100
AcDbLine
   6
CONTINUOUS
  62
5
  10
 1524.9721948230
  20
 2900.6197905146
  30
0.0
  11
 1526.6119042468
  21
 2902.9766630030
  31
0.0
   0
LINE
   5
347
 100
AcDbEntity
   8
LEVEL002
 370
13
 100
AcDbLine
   6
CONTINUOUS
  62
5
  10
 1526.6119042468
  20
 2902.9766630030
  30
0.0
  11
 1523.9474145801
  21
 2907.5884792718
  31
0.0
   0
LINE
   5
348
 100
AcDbEntity
   8
LEVEL002
 370
13
 100
AcDbLine
   6
CONTINUOUS
  62
5
  10
 1523.9474145801
  20
 2907.5884792718
  30
0.0
  11
 1540.4467427016
  21
 2907.5884792718
  31
0.0
   0
LINE
   5
349
 100
AcDbEntity
   8
LEVEL002
 370
13
 100
AcDbLine
   6
CONTINUOUS
  62
5
  10
 1543.6236224898
  20
 2916.8116540458
  30
0.0
  11
 1524.9721948230
  21
 2927.0596090626
  31
0.0
   0
LINE
   5
34A
 100
AcDbEntity
   8
LEVEL002
 370
13
 100
AcDbLine
   6
CONTINUOUS
  62
5
  10
 1524.9721948230
  20
 2927.0596090626
  30
0.0
  11
 1518.8232081898
  21
 2917.5289696982
  31
0.0
   0
LINE
   5
34B
 100
AcDbEntity
   8
LEVEL002
 370
13
 100
AcDbLine
   6
CONTINUOUS
  62
5
  10
 1518.8232081898
  20
 2917.5289696982
  30
0.0
  11
 1497.4047517969
  21
 2917.5289696982
  31
0.0
   0
LINE
   5
34C
 100
AcDbEntity
   8
LEVEL002
 370
13
 100
AcDbLine
   6
CONTINUOUS
  62
5
  10
 1497.4047517969
  20
 2917.5289696982
  30
0.0
  11
 1497.4047517969
  21
 2923.8827292746
  31
0.0
   0
LINE
   5
34D
 100
AcDbEntity
   8
LEVEL002
 370
13
 100
AcDbLine
   6
CONTINUOUS
  62
5
  10
 1497.4047517969
  20
 2923.8827292746
  30
0.0
  11
 1499.5293855226
  21
 2927.5806966936
  31
0.0
   0
LINE
   5
34E
 100
AcDbEntity
   8
LEVEL002
 370
13
 100
AcDbLine
   6
CONTINUOUS
  62
5
  10
 1499.5293855226
  20
 2927.5806966936
  30
0.0
  11
 1498.7093782228
  21
 2929.3227925890
  31
0.0
   0
LINE
   5
34F
 100
AcDbEntity
   8
LEVEL002
 370
13
 100
AcDbLine
   6
CONTINUOUS
  62
5
  10
 1498.7093782228
  20
 2929.3227925890
  30
0.0
  11
 1473.9367349182
  21
 2929.9291768482
  31
0.0
   0
LINE
   5
350
 100
AcDbEntity
   8
LEVEL002
 370
13
 100
AcDbLine
   6
CONTINUOUS
  62
5
  10
 1473.9367349182
  20
 2929.9291768482
  30
0.0
  11
 1473.9367349182
  21
 2917.5289696982
  31
0.0
   0
LINE
   5
351
 100
AcDbEntity
   8
LEVEL002
 370
13
 100
AcDbLine
   6
CONTINUOUS
  62
5
  10
 1473.9367349182
  20
 2917.5289696982
  30
0.0
  11
 1424.4744561188
  21
 2917.5289696982
  31
0.0
   0
LINE
   5
352
 100
AcDbEntity
   8
LEVEL002
 370
13
 100
AcDbLine
   6
CONTINUOUS
  62
5
  10
 1424.4744561188
  20
 2917.5289696982
  30
0.0
  11
 1428.9477225871
  21
 2907.5884792718
  31
0.0
   0
LINE
   5
353
 100
AcDbEntity
   8
LEVEL002
 370
13
 100
AcDbLine
   6
CONTINUOUS
  62
5
  10
 1428.9477225871
  20
 2907.5884792718
  30
0.0
  11
 1446.5746751867
  21
 2907.5884792718
  31
0.0
   0
LINE
   5
354
 100
AcDbEntity
   8
LEVEL002
 370
13
 100
AcDbLine
   6
CONTINUOUS
  62
5
  10
 1446.5746751867
  20
 2907.5884792718
  30
0.0
  11
 1456.5151656131
  21
 2891.9088532742
  31
0.0
   0
LINE
   5
355
 100
AcDbEntity
   8
LEVEL002
 370
13
 100
AcDbLine
   6
CONTINUOUS
  62
5
  10
 1456.5151656131
  20
 2891.9088532742
  30
0.0
  11
 1421.7998956516
  21
 2891.9088532742
  31
0.0
   0
LINE
   5
356
 100
AcDbEntity
   8
LEVEL002
 370
13
 100
AcDbLine
   6
CONTINUOUS
  62
5
  10
 1421.7998956516
  20
 2891.9088532742
  30
0.0
  11
 1426.7004082009
  21
 2881.3534336670
  31
0.0
   0
LINE
   5
357
 100
AcDbEntity
   8
LEVEL002
 370
13
 100
AcDbLine
   6
CONTINUOUS
  62
5
  10
 1426.7004082009
  20
 2881.3534336670
  30
0.0
  11
 1550.2849992444
  21
 2881.3534336670
  31
0.0
   0
ARC
   5
358
 100
AcDbEntity
   8
LEVEL002
 370
13
   6
CONTINUOUS
  62
5
 100
AcDbCircle
  10
 1446.0743970545
  20
 2857.3229169462
  30
0.0
  40
 31.206602120202
 100
AcDbArc
  50
 246.86700487444
  51
 289.54634462664
   0
LINE
   5
359
 100
AcDbEntity
   8
LEVEL002
 370
13
 100
AcDbLine
   6
CONTINUOUS
  62
5
  10
 1456.5151656131
  20
 2857.2704876074
  30
0.0
  11
 1456.5151656131
  21
 2863.7266336552
  31
0.0
   0
LINE
   5
35A
 100
AcDbEntity
   8
LEVEL002
 370
13
 100
AcDbLine
   6
CONTINUOUS
  62
5
  10
 1456.5151656131
  20
 2863.7266336552
  30
0.0
  11
 1513.0843777944
  21
 2863.7266336552
  31
0.0
   0
LINE
   5
35B
 100
AcDbEntity
   8
LEVEL002
 370
13
 100
AcDbLine
   6
CONTINUOUS
  62
5
  10
 1513.0843777944
  20
 2863.7266336552
  30
0.0
  11
 1513.0843777944
  21
 2857.2704876074
  31
0.0
   0
LINE
   5
35C
 100
AcDbEntity
   8
LEVEL002
 370
13
 100
AcDbLine
   6
CONTINUOUS
  62
5
  10
 1513.0843777944
  20
 2857.2704876074
  30
0.0
  11
 1456.5151656131
  21
 2857.2704876074
  31
0.0
   0
LINE
   5
35D
 100
AcDbEntity
   8
LEVEL002
 370
13
 100
AcDbLine
   6
CONTINUOUS
  62
5
  10
 1539.6270405776
  20
 2870.6953224124
  30
0.0
  11
 1519.6432154896
  21
 2879.7137242432
  31
0.0
   0
LINE
   5
35E
 100
AcDbEntity
   8
LEVEL002
 370
13
 100
AcDbLine
   6
CONTINUOUS
  62
5
  10
 1519.6432154896
  20
 2879.7137242432
  30
0.0
  11
 1513.0843777944
  21
 2872.0275672458
  31
0.0
   0
LINE
   5
35F
 100
AcDbEntity
   8
LEVEL002
 370
13
 100
AcDbLine
   6
CONTINUOUS
  62
5
  10
 1513.0843777944
  20
 2872.0275672458
  30
0.0
  11
 1456.5151656131
  21
 2872.0275672458
  31
0.0
   0
LINE
   5
360
 100
AcDbEntity
   8
LEVEL002
 370
13
 100
AcDbLine
   6
CONTINUOUS
  62
5
  10
 1456.5151656131
  20
 2872.0275672458
  30
0.0
  11
 1456.5151656131
  21
 2873.7698157290
  31
0.0
   0
LINE
   5
361
 100
AcDbEntity
   8
LEVEL002
 370
13
 100
AcDbLine
   6
CONTINUOUS
  62
5
  10
 1456.5151656131
  20
 2873.7698157290
  30
0.0
  11
 1433.8671560342
  21
 2878.3813268220
  31
0.0
   0
LINE
   5
362
 100
AcDbEntity
   8
LEVEL002
 370
13
 100
AcDbLine
   6
CONTINUOUS
  62
5
  10
 1433.8671560342
  20
 2878.3813268220
  30
0.0
  11
 1433.8143606256
  21
 2828.6254689298
  31
0.0
   0
LINE
   5
363
 100
AcDbEntity
   8
LEVEL002
 370
13
 100
AcDbLine
   6
CONTINUOUS
  62
5
  10
 1456.5151656131
  20
 2841.2833970194
  30
0.0
  11
 1456.5151656131
  21
 2848.1460371958
  31
0.0
   0
LINE
   5
364
 100
AcDbEntity
   8
LEVEL002
 370
13
 100
AcDbLine
   6
CONTINUOUS
  62
5
  10
 1456.5151656131
  20
 2848.1460371958
  30
0.0
  11
 1513.0843777944
  21
 2848.1460371958
  31
0.0
   0
LINE
   5
365
 100
AcDbEntity
   8
LEVEL002
 370
13
 100
AcDbLine
   6
CONTINUOUS
  62
5
  10
 1513.0843777944
  20
 2848.1460371958
  30
0.0
  11
 1513.0843777944
  21
 2841.2833970194
  31
0.0
   0
LINE
   5
366
 100
AcDbEntity
   8
LEVEL002
 370
13
 100
AcDbLine
   6
CONTINUOUS
  62
5
  10
 1513.0843777944
  20
 2841.2833970194
  30
0.0
  11
 1456.5151656131
  21
 2841.2833970194
  31
0.0
   0
ARC
   5
367
 100
AcDbEntity
   8
LEVEL002
 370
13
   6
CONTINUOUS
  62
5
 100
AcDbCircle
  10
 1536.1280650531
  20
 2868.0832296076
  30
0.0
  40
 4.3664469013676
 100
AcDbArc
  50
 266.15058922015
  51
 36.742470507744
   0
LINE
   5
368
 100
AcDbEntity
   8
LEVEL002
 370
13
 100
AcDbLine
   6
CONTINUOUS
  62
5
  10
 1456.5151656131
  20
 2827.9147145564
  30
0.0
  11
 1456.5151656131
  21
 2832.6751514264
  31
0.0
   0
LINE
   5
369
 100
AcDbEntity
   8
LEVEL002
 370
13
 100
AcDbLine
   6
CONTINUOUS
  62
5
  10
 1456.5151656131
  20
 2832.6751514264
  30
0.0
  11
 1513.0843777944
  21
 2832.6751514264
  31
0.0
   0
LINE
   5
36A
 100
AcDbEntity
   8
LEVEL002
 370
13
 100
AcDbLine
   6
CONTINUOUS
  62
5
  10
 1513.0843777944
  20
 2832.6751514264
  30
0.0
  11
 1513.0843777944
  21
 2827.7560231550
  31
0.0
   0
LINE
   5
36B
 100
AcDbEntity
   8
LEVEL002
 370
13
 100
AcDbLine
   6
CONTINUOUS
  62
5
  10
 1513.0843777944
  20
 2827.7560231550
  30
0.0
  11
 1529.9938621538
  21
 2827.7560231550
  31
0.0
   0
LINE
   5
36C
 100
AcDbEntity
   8
LEVEL002
 370
13
 100
AcDbLine
   6
CONTINUOUS
  62
5
  10
 1529.9938621538
  20
 2827.7560231550
  30
0.0
  11
 1533.6828268876
  21
 2829.8055836408
  31
0.0
   0
LINE
   5
36D
 100
AcDbEntity
   8
LEVEL002
 370
13
 100
AcDbLine
   6
CONTINUOUS
  62
5
  10
 1533.6828268876
  20
 2829.8055836408
  30
0.0
  11
 1535.8349264328
  21
 2834.2123217906
  31
0.0
   0
LINE
   5
36E
 100
AcDbEntity
   8
LEVEL002
 370
13
 100
AcDbLine
   6
CONTINUOUS
  62
5
  10
 1535.8349264328
  20
 2834.2123217906
  30
0.0
  11
 1535.8282125658
  21
 2863.7267862430
  31
0.0
   0
LINE
   5
36F
 100
AcDbEntity
   8
LEVEL002
 370
13
 100
AcDbLine
   6
CONTINUOUS
  62
5
  10
 1440.0475757719
  20
 2822.3245047622
  30
0.0
  11
 1439.5351856504
  21
 2817.2006035476
  31
0.0
   0
LINE
   5
370
 100
AcDbEntity
   8
LEVEL002
 370
13
 100
AcDbLine
   6
CONTINUOUS
  62
5
  10
 1439.5351856504
  20
 2817.2006035476
  30
0.0
  11
 1437.5878590483
  21
 2813.6137201096
  31
0.0
   0
LINE
   5
371
 100
AcDbEntity
   8
LEVEL002
 370
13
 100
AcDbLine
   6
CONTINUOUS
  62
5
  10
 1437.5878590483
  20
 2813.6137201096
  30
0.0
  11
 1426.5200493196
  21
 2799.8812681264
  31
0.0
   0
ARC
   5
372
 100
AcDbEntity
   8
LEVEL002
 370
13
   6
CONTINUOUS
  62
5
 100
AcDbCircle
  10
 1435.0523118342
  20
 2794.2695146580
  30
0.0
  40
 10.212310248246
 100
AcDbArc
  50
 146.66668479822
  51
 331.70163256410
   0
ARC
   5
373
 100
AcDbEntity
   8
LEVEL002
 370
13
   6
CONTINUOUS
  62
5
 100
AcDbCircle
  10
 1421.0642276540
  20
 2803.3273015536
  30
0.0
  40
 26.856307183018
 100
AcDbArc
  50
 328.83298190803
  51
 45.020901175876
   0
LINE
   5
374
 100
AcDbEntity
   8
LEVEL002
 370
13
 100
AcDbLine
   6
CONTINUOUS
  62
5
  10
 1523.6718408578
  20
 2825.0915334882
  30
0.0
  11
 1537.0965230749
  21
 2802.7508359118
  31
0.0
   0
ARC
   5
375
 100
AcDbEntity
   8
LEVEL002
 370
13
   6
CONTINUOUS
  62
5
 100
AcDbCircle
  10
 1529.4031602124
  20
 2792.5751651908
  30
0.0
  40
 8.7884995702356
 100
AcDbArc
  50
 268.04310640328
  51
 95.976315925116
   0
ARC
   5
376
 100
AcDbEntity
   8
LEVEL002
 370
13
   6
CONTINUOUS
  62
5
 100
AcDbCircle
  10
 1462.2022192430
  20
 2790.4013822582
  30
0.0
  40
 6.6095999893666
 100
AcDbArc
  50
 179.99949488495
  51
 269.90651577926
   0
LINE
   5
377
 100
AcDbEntity
   8
LEVEL002
 370
13
 100
AcDbLine
   6
CONTINUOUS
  62
5
  10
 1462.1914349752
  20
 2783.7917910668
  30
0.0
  11
 1529.1030540749
  21
 2783.7917910668
  31
0.0
   0
LINE
   5
378
 100
AcDbEntity
   8
LEVEL002
 370
13
 100
AcDbLine
   6
CONTINUOUS
  62
5
  10
 1528.4881248940
  20
 2801.3158994312
  30
0.0
  11
 1521.1095850748
  21
 2819.7625541548
  31
0.0
   0
LINE
   5
379
 100
AcDbEntity
   8
LEVEL002
 370
13
 100
AcDbLine
   6
CONTINUOUS
  62
5
  10
 1521.1095850748
  20
 2819.7625541548
  30
0.0
  11
 1520.9045069559
  21
 2809.5144465502
  31
0.0
   0
LINE
   5
37A
 100
AcDbEntity
   8
LEVEL002
 370
13
 100
AcDbLine
   6
CONTINUOUS
  62
5
  10
 1520.9045069559
  20
 2809.5144465502
  30
0.0
  11
 1518.2030910208
  21
 2801.3158994312
  31
0.0
   0
LINE
   5
37B
 100
AcDbEntity
   8
LEVEL002
 370
13
 100
AcDbLine
   6
CONTINUOUS
  62
5
  10
 1518.2030910208
  20
 2801.3158994312
  30
0.0
  11
 1478.3434730681
  21
 2801.3158994312
  31
0.0
   0
LINE
   5
37C
 100
AcDbEntity
   8
LEVEL002
 370
13
 100
AcDbLine
   6
CONTINUOUS
  62
5
  10
 1478.3434730681
  20
 2801.3158994312
  30
0.0
  11
 1478.3434730681
  21
 2817.2006035476
  31
0.0
   0
LINE
   5
37D
 100
AcDbEntity
   8
LEVEL002
 370
13
 100
AcDbLine
   6
CONTINUOUS
  62
5
  10
 1478.3434730681
  20
 2817.2006035476
  30
0.0
  11
 1480.3930335539
  21
 2820.1724052168
  31
0.0
   0
LINE
   5
37E
 100
AcDbEntity
   8
LEVEL002
 370
13
 100
AcDbLine
   6
CONTINUOUS
  62
5
  10
 1480.3930335539
  20
 2820.1724052168
  30
0.0
  11
 1478.5485511870
  21
 2822.3245047622
  31
0.0
   0
LINE
   5
37F
 100
AcDbEntity
   8
LEVEL002
 370
13
 100
AcDbLine
   6
CONTINUOUS
  62
5
  10
 1478.5485511870
  20
 2822.3245047622
  30
0.0
  11
 1455.5926192539
  21
 2825.3988454908
  31
0.0
   0
LINE
   5
380
 100
AcDbEntity
   8
LEVEL002
 370
13
 100
AcDbLine
   6
CONTINUOUS
  62
5
  10
 1455.5926192539
  20
 2825.3988454908
  30
0.0
  11
 1455.5926192539
  21
 2790.4014405280
  31
0.0
   0
LINE
   5
381
 100
AcDbEntity
   8
LEVEL002
 370
13
 100
AcDbLine
   6
CONTINUOUS
  62
5
  10
 1498.4487581134
  20
 2805.6200985216
  30
0.0
  11
 1484.3066076560
  21
 2826.9361684430
  31
0.0
   0
ARC
   5
382
 100
AcDbEntity
   8
LEVEL002
 370
13
   6
CONTINUOUS
  62
5
 100
AcDbCircle
  10
 1503.3291090703
  20
 2813.3395834004
  30
0.0
  40
 9.1328129430768
 100
AcDbArc
  50
 237.69843463464
  51
 18.768732377790
   0
ARC
   5
383
 100
AcDbEntity
   8
LEVEL002
 370
13
   6
CONTINUOUS
  62
5
 100
AcDbCircle
  10
 1485.7938338057
  20
 2789.0363304350
  30
0.0
  40
 37.929006876678
 100
AcDbArc
  50
 46.131549416345
  51
 92.247188603530
   0
ARC
   5
384
 100
AcDbEntity
   8
LEVEL002
 370
13
   6
CONTINUOUS
  62
5
 100
AcDbCircle
  10
 1542.8891431122
  20
 2809.5590435696
  30
0.0
  40
 8.9390233475260
 100
AcDbArc
  50
 229.60790187561
  51
 6.7933956220584
   0
ARC
   5
385
 100
AcDbEntity
   8
LEVEL002
 370
13
   6
CONTINUOUS
  62
5
 100
AcDbCircle
  10
 1527.5804016063
  20
 2798.5277079802
  30
0.0
  40
 27.037970213950
 100
AcDbArc
  50
 26.557897354825
  51
 98.092162593104
   0
LINE
   5
386
 100
AcDbEntity
   8
LEVEL002
 370
13
 100
AcDbLine
   6
CONTINUOUS
  62
5
  10
 1413.0652726010
  20
 3076.2285058414
  30
0.0
  11
 1427.9723808193
  21
 3073.8993568838
  31
0.0
   0
LINE
   5
387
 100
AcDbEntity
   8
LEVEL002
 370
13
 100
AcDbLine
   6
CONTINUOUS
  62
5
  10
 1434.1210622766
  20
 3041.9253282956
  30
0.0
  11
 1413.0652726010
  21
 3074.1789231156
  31
0.0
   0
LINE
   5
388
 100
AcDbEntity
   8
LEVEL002
 370
13
 100
AcDbLine
   6
CONTINUOUS
  62
5
  10
 1736.1376623002
  20
 1483.4623594723
  30
0.0
  11
 1530.6876623002
  21
 1278.0123594723
  31
0.0
   0
LINE
   5
389
 100
AcDbEntity
   8
LEVEL002
 370
13
 100
AcDbLine
   6
CONTINUOUS
  62
5
  10
 1530.6876623002
  20
 1242.6570204130
  30
0.0
  11
 1736.1376623002
  21
 1448.1070204130
  31
0.0
   0
LINE
   5
38A
 100
AcDbEntity
   8
LEVEL002
 370
13
 100
AcDbLine
   6
CONTINUOUS
  62
5
  10
 1736.1376623002
  20
 1412.7516813537
  30
0.0
  11
 1530.6876623002
  21
 1207.3016813537
  31
0.0
   0
LINE
   5
38B
 100
AcDbEntity
   8
LEVEL002
 370
13
 100
AcDbLine
   6
CONTINUOUS
  62
5
  10
 1736.1376623002
  20
 598.10702041299
  30
0.0
  11
 1736.1376623002
  21
 1798.1070204130
  31
0.0
   0
LINE
   5
38C
 100
AcDbEntity
   8
LEVEL002
 370
13
 100
AcDbLine
   6
CONTINUOUS
  62
5
  10
 1796.8178571469
  20
 1798.1070204130
  30
0.0
  11
 1744.3178571469
  21
 1745.6070204130
  31
0.0
   0
LINE
   5
38D
 100
AcDbEntity
   8
LEVEL002
 370
13
 100
AcDbLine
   6
CONTINUOUS
  62
5
  10
 1760.2277597230
  20
 1745.6070204130
  30
0.0
  11
 1812.7277597230
  21
 1798.1070204130
  31
0.0
   0
LINE
   5
38E
 100
AcDbEntity
   8
LEVEL002
 370
13
 100
AcDbLine
   6
CONTINUOUS
  62
5
  10
 1828.6376623006
  20
 1798.1070204130
  30
0.0
  11
 1776.1376623006
  21
 1745.6070204130
  31
0.0
   0
LINE
   5
38F
 100
AcDbEntity
   8
LEVEL002
 370
13
 100
AcDbLine
   6
CONTINUOUS
  62
5
  10
 1792.0475648766
  20
 1745.6070204130
  30
0.0
  11
 1844.5475648766
  21
 1798.1070204130
  31
0.0
   0
LINE
   5
390
 100
AcDbEntity
   8
LEVEL002
 370
13
 100
AcDbLine
   6
CONTINUOUS
  62
5
  10
 1849.3178571472
  20
 1745.6070204130
  30
0.0
  11
 1820.6827110119
  21
 1774.2421665483
  31
0.0
   0
LINE
   5
391
 100
AcDbEntity
   8
LEVEL002
 370
13
 100
AcDbLine
   6
CONTINUOUS
  62
5
  10
 1828.6376623001
  20
 1782.1971178365
  30
0.0
  11
 1865.2277597236
  21
 1745.6070204130
  31
0.0
   0
LINE
   5
392
 100
AcDbEntity
   8
LEVEL002
 370
13
 100
AcDbLine
   6
CONTINUOUS
  62
5
  10
 1881.1376623001
  20
 1745.6070204130
  30
0.0
  11
 1836.5926135883
  21
 1790.1520691247
  31
0.0
   0
LINE
   5
393
 100
AcDbEntity
   8
LEVEL002
 370
13
 100
AcDbLine
   6
CONTINUOUS
  62
5
  10
 1844.5475648766
  20
 1798.1070204130
  30
0.0
  11
 1897.0475648768
  21
 1745.6070204130
  31
0.0
   0
LINE
   5
394
 100
AcDbEntity
   8
LEVEL002
 370
13
 100
AcDbLine
   6
CONTINUOUS
  62
5
  10
 1897.0475648768
  20
 1745.6070204130
  30
0.0
  11
 1949.5475648768
  21
 1798.1070204130
  31
0.0
   0
LINE
   5
395
 100
AcDbEntity
   8
LEVEL002
 370
13
 100
AcDbLine
   6
CONTINUOUS
  62
5
  10
 1901.8178571471
  20
 1798.1070204130
  30
0.0
  11
 1873.1827110119
  21
 1769.4718742778
  31
0.0
   0
LINE
   5
396
 100
AcDbEntity
   8
LEVEL002
 370
13
 100
AcDbLine
   6
CONTINUOUS
  62
5
  10
 1881.1376622999
  20
 1761.5169229898
  30
0.0
  11
 1917.7277597232
  21
 1798.1070204130
  31
0.0
   0
LINE
   5
397
 100
AcDbEntity
   8
LEVEL002
 370
13
 100
AcDbLine
   6
CONTINUOUS
  62
5
  10
 1933.6376623008
  20
 1798.1070204130
  30
0.0
  11
 1889.0926135888
  21
 1753.5619717010
  31
0.0
   0
LINE
   5
398
 100
AcDbEntity
   8
LEVEL002
 370
13
 100
AcDbLine
   6
CONTINUOUS
  62
5
  10
 1954.3178571474
  20
 1745.6070204130
  30
0.0
  11
 1925.6827110120
  21
 1774.2421665483
  31
0.0
   0
LINE
   5
399
 100
AcDbEntity
   8
LEVEL002
 370
13
 100
AcDbLine
   6
CONTINUOUS
  62
5
  10
 1933.6376623002
  20
 1782.1971178365
  30
0.0
  11
 1970.2277597238
  21
 1745.6070204130
  31
0.0
   0
LINE
   5
39A
 100
AcDbEntity
   8
LEVEL002
 370
13
 100
AcDbLine
   6
CONTINUOUS
  62
5
  10
 1986.1376623002
  20
 1745.6070204130
  30
0.0
  11
 1941.5926135884
  21
 1790.1520691247
  31
0.0
   0
LINE
   5
39B
 100
AcDbEntity
   8
LEVEL002
 370
13
 100
AcDbLine
   6
CONTINUOUS
  62
5
  10
 1949.5475648768
  20
 1798.1070204130
  30
0.0
  11
 1986.1376623002
  21
 1761.5169229897
  31
0.0
   0
LINE
   5
39C
 100
AcDbEntity
   8
LEVEL002
 370
13
 100
AcDbLine
   6
CONTINUOUS
  62
5
  10
 1530.6876623002
  20
 1798.1070204130
  30
0.0
  11
 1986.1376623002
  21
 1798.1070204130
  31
0.0
   0
LINE
   5
39D
 100
AcDbEntity
   8
LEVEL002
 370
13
 100
AcDbLine
   6
CONTINUOUS
  62
5
  10
 1147.0475648768
  20
 1745.6070204130
  30
0.0
  11
 1199.5475648768
  21
 1798.1070204130
  31
0.0
   0
LINE
   5
39E
 100
AcDbEntity
   8
LEVEL002
 370
13
 100
AcDbLine
   6
CONTINUOUS
  62
5
  10
 1131.1376622999
  20
 1761.5169229898
  30
0.0
  11
 1167.7277597231
  21
 1798.1070204130
  31
0.0
   0
LINE
   5
39F
 100
AcDbEntity
   8
LEVEL002
 370
13
 100
AcDbLine
   6
CONTINUOUS
  62
5
  10
 1183.6376623008
  20
 1798.1070204130
  30
0.0
  11
 1139.0926135888
  21
 1753.5619717010
  31
0.0
   0
LINE
   5
3A0
 100
AcDbEntity
   8
LEVEL002
 370
13
 100
AcDbLine
   6
CONTINUOUS
  62
5
  10
 1204.3178571474
  20
 1745.6070204130
  30
0.0
  11
 1175.6827110121
  21
 1774.2421665483
  31
0.0
   0
LINE
   5
3A1
 100
AcDbEntity
   8
LEVEL002
 370
13
 100
AcDbLine
   6
CONTINUOUS
  62
5
  10
 1183.6376623003
  20
 1782.1971178365
  30
0.0
  11
 1220.2277597238
  21
 1745.6070204130
  31
0.0
   0
LINE
   5
3A2
 100
AcDbEntity
   8
LEVEL002
 370
13
 100
AcDbLine
   6
CONTINUOUS
  62
5
  10
 1236.1376623002
  20
 1745.6070204130
  30
0.0
  11
 1191.5926135885
  21
 1790.1520691247
  31
0.0
   0
LINE
   5
3A3
 100
AcDbEntity
   8
LEVEL002
 370
13
 100
AcDbLine
   6
CONTINUOUS
  62
5
  10
 1046.8178571469
  20
 1798.1070204130
  30
0.0
  11
 994.31785714693
  21
 1745.6070204130
  31
0.0
   0
LINE
   5
3A4
 100
AcDbEntity
   8
LEVEL002
 370
13
 100
AcDbLine
   6
CONTINUOUS
  62
5
  10
 1010.2277597230
  20
 1745.6070204130
  30
0.0
  11
 1062.7277597230
  21
 1798.1070204130
  31
0.0
   0
LINE
   5
3A5
 100
AcDbEntity
   8
LEVEL002
 370
13
 100
AcDbLine
   6
CONTINUOUS
  62
5
  10
 1078.6376623006
  20
 1798.1070204130
  30
0.0
  11
 1026.1376623006
  21
 1745.6070204130
  31
0.0
   0
LINE
   5
3A6
 100
AcDbEntity
   8
LEVEL002
 370
13
 100
AcDbLine
   6
CONTINUOUS
  62
5
  10
 1042.0475648766
  20
 1745.6070204130
  30
0.0
  11
 1094.5475648766
  21
 1798.1070204130
  31
0.0
   0
LINE
   5
3A7
 100
AcDbEntity
   8
LEVEL002
 370
13
 100
AcDbLine
   6
CONTINUOUS
  62
5
  10
 1099.3178571472
  20
 1745.6070204130
  30
0.0
  11
 1070.6827110119
  21
 1774.2421665483
  31
0.0
   0
LINE
   5
3A8
 100
AcDbEntity
   8
LEVEL002
 370
13
 100
AcDbLine
   6
CONTINUOUS
  62
5
  10
 1078.6376623001
  20
 1782.1971178365
  30
0.0
  11
 1115.2277597236
  21
 1745.6070204130
  31
0.0
   0
LINE
   5
3A9
 100
AcDbEntity
   8
LEVEL002
 370
13
 100
AcDbLine
   6
CONTINUOUS
  62
5
  10
 1131.1376623001
  20
 1745.6070204130
  30
0.0
  11
 1086.5926135883
  21
 1790.1520691247
  31
0.0
   0
LINE
   5
3AA
 100
AcDbEntity
   8
LEVEL002
 370
13
 100
AcDbLine
   6
CONTINUOUS
  62
5
  10
 1094.5475648766
  20
 1798.1070204130
  30
0.0
  11
 1147.0475648768
  21
 1745.6070204130
  31
0.0
   0
LINE
   5
3AB
 100
AcDbEntity
   8
LEVEL002
 370
13
 100
AcDbLine
   6
CONTINUOUS
  62
5
  10
 1151.8178571471
  20
 1798.1070204130
  30
0.0
  11
 1123.1827110119
  21
 1769.4718742778
  31
0.0
   0
LINE
   5
3AC
 100
AcDbEntity
   8
LEVEL002
 370
13
 100
AcDbLine
   6
CONTINUOUS
  62
5
  10
 1199.5475648768
  20
 1798.1070204130
  30
0.0
  11
 1236.1376623002
  21
 1761.5169229897
  31
0.0
   0
LINE
   5
3AD
 100
AcDbEntity
   8
LEVEL002
 370
13
 100
AcDbLine
   6
CONTINUOUS
  62
5
  10
 1236.1376623002
  20
 1798.1070204130
  30
0.0
  11
 1236.1376623002
  21
 598.10702041299
  31
0.0
   0
LINE
   5
3AE
 100
AcDbEntity
   8
LEVEL002
 370
13
 100
AcDbLine
   6
CONTINUOUS
  62
5
  10
 1441.5876623002
  20
 1798.1070204130
  30
0.0
  11
 986.13766230025
  21
 1798.1070204130
  31
0.0
   0
LINE
   5
3AF
 100
AcDbEntity
   8
LEVEL002
 370
13
 100
AcDbLine
   6
CONTINUOUS
  62
5
  10
 1441.5876623002
  20
 1188.9123594724
  30
0.0
  11
 1236.1376623002
  21
 983.46235947235
  31
0.0
   0
LINE
   5
3B0
 100
AcDbEntity
   8
LEVEL002
 370
13
 100
AcDbLine
   6
CONTINUOUS
  62
5
  10
 1236.1376623002
  20
 948.10702041303
  30
0.0
  11
 1441.5876623002
  21
 1153.5570204130
  31
0.0
   0
LINE
   5
3B1
 100
AcDbEntity
   8
LEVEL002
 370
13
 100
AcDbLine
   6
CONTINUOUS
  62
5
  10
 1441.5876623002
  20
 1118.2016813537
  30
0.0
  11
 1236.1376623002
  21
 912.75168135371
  31
0.0
   0
LINE
   5
3B2
 100
AcDbEntity
   8
LEVEL002
 370
13
 100
AcDbLine
   6
CONTINUOUS
  62
5
  10
 1386.1376623002
  20
 598.10702041299
  30
0.0
  11
 1336.1376623002
  21
 498.10702041299
  31
0.0
   0
LINE
   5
3B3
 100
AcDbEntity
   8
LEVEL002
 370
13
 100
AcDbLine
   6
CONTINUOUS
  62
5
  10
 1336.1376623002
  20
 598.10702041299
  30
0.0
  11
 1376.1376623002
  21
 578.10702041299
  31
0.0
   0
LINE
   5
3B4
 100
AcDbEntity
   8
LEVEL002
 370
13
 100
AcDbLine
   6
CONTINUOUS
  62
5
  10
 1336.1376623002
  20
 598.10702041299
  30
0.0
  11
 1286.1376623002
  21
 498.10702041299
  31
0.0
   0
LINE
   5
3B5
 100
AcDbEntity
   8
LEVEL002
 370
13
 100
AcDbLine
   6
CONTINUOUS
  62
5
  10
 1286.1376623002
  20
 598.10702041299
  30
0.0
  11
 1326.1376623002
  21
 578.10702041299
  31
0.0
   0
LINE
   5
3B6
 100
AcDbEntity
   8
LEVEL002
 370
13
 100
AcDbLine
   6
CONTINUOUS
  62
5
  10
 1286.1376623002
  20
 598.10702041299
  30
0.0
  11
 1236.1376623002
  21
 498.10702041299
  31
0.0
   0
LINE
   5
3B7
 100
AcDbEntity
   8
LEVEL002
 370
13
 100
AcDbLine
   6
CONTINUOUS
  62
5
  10
 1236.1376623002
  20
 598.10702041299
  30
0.0
  11
 1276.1376623002
  21
 578.10702041299
  31
0.0
   0
LINE
   5
3B8
 100
AcDbEntity
   8
LEVEL002
 370
13
 100
AcDbLine
   6
CONTINUOUS
  62
5
  10
 1386.1376623002
  20
 498.10702041299
  30
0.0
  11
 1346.1376623002
  21
 518.10702041299
  31
0.0
   0
LINE
   5
3B9
 100
AcDbEntity
   8
LEVEL002
 370
13
 100
AcDbLine
   6
CONTINUOUS
  62
5
  10
 1336.1376623002
  20
 498.10702041299
  30
0.0
  11
 1296.1376623002
  21
 518.10702041299
  31
0.0
   0
LINE
   5
3BA
 100
AcDbEntity
   8
LEVEL002
 370
13
 100
AcDbLine
   6
CONTINUOUS
  62
5
  10
 1286.1376623002
  20
 498.10702041299
  30
0.0
  11
 1246.1376623002
  21
 518.10702041299
  31
0.0
   0
LINE
   5
3BB
 100
AcDbEntity
   8
LEVEL002
 370
13
 100
AcDbLine
   6
CONTINUOUS
  62
5
  10
 1236.1376623002
  20
 598.10702041299
  30
0.0
  11
 1236.1376623002
  21
 498.10702041299
  31
0.0
   0
LINE
   5
3BC
 100
AcDbEntity
   8
LEVEL002
 370
13
 100
AcDbLine
   6
CONTINUOUS
  62
5
  10
 1236.1376623002
  20
 498.10702041299
  30
0.0
  11
 1736.1376623002
  21
 498.10702041299
  31
0.0
   0
LINE
   5
3BD
 100
AcDbEntity
   8
LEVEL002
 370
13
 100
AcDbLine
   6
CONTINUOUS
  62
5
  10
 1736.1376623002
  20
 598.10702041299
  30
0.0
  11
 1236.1376623002
  21
 598.10702041299
  31
0.0
   0
LINE
   5
3BE
 100
AcDbEntity
   8
LEVEL002
 370
13
 100
AcDbLine
   6
CONTINUOUS
  62
5
  10
 1236.1376623002
  20
 598.10702041299
  30
0.0
  11
 1736.1376623002
  21
 598.10702041299
  31
0.0
   0
LINE
   5
3BF
 100
AcDbEntity
   8
LEVEL002
 370
13
 100
AcDbLine
   6
CONTINUOUS
  62
5
  10
 1736.1376623002
  20
 598.10702041299
  30
0.0
  11
 1686.1376623002
  21
 498.10702041299
  31
0.0
   0
LINE
   5
3C0
 100
AcDbEntity
   8
LEVEL002
 370
13
 100
AcDbLine
   6
CONTINUOUS
  62
5
  10
 1686.1376623002
  20
 598.10702041299
  30
0.0
  11
 1726.1376623002
  21
 578.10702041299
  31
0.0
   0
LINE
   5
3C1
 100
AcDbEntity
   8
LEVEL002
 370
13
 100
AcDbLine
   6
CONTINUOUS
  62
5
  10
 1686.1376623002
  20
 598.10702041299
  30
0.0
  11
 1636.1376623002
  21
 498.10702041299
  31
0.0
   0
LINE
   5
3C2
 100
AcDbEntity
   8
LEVEL002
 370
13
 100
AcDbLine
   6
CONTINUOUS
  62
5
  10
 1636.1376623002
  20
 598.10702041299
  30
0.0
  11
 1676.1376623002
  21
 578.10702041299
  31
0.0
   0
LINE
   5
3C3
 100
AcDbEntity
   8
LEVEL002
 370
13
 100
AcDbLine
   6
CONTINUOUS
  62
5
  10
 1636.1376623002
  20
 598.10702041299
  30
0.0
  11
 1586.1376623002
  21
 498.10702041299
  31
0.0
   0
LINE
   5
3C4
 100
AcDbEntity
   8
LEVEL002
 370
13
 100
AcDbLine
   6
CONTINUOUS
  62
5
  10
 1586.1376623002
  20
 598.10702041299
  30
0.0
  11
 1626.1376623002
  21
 578.10702041299
  31
0.0
   0
LINE
   5
3C5
 100
AcDbEntity
   8
LEVEL002
 370
13
 100
AcDbLine
   6
CONTINUOUS
  62
5
  10
 1736.1376623002
  20
 498.10702041299
  30
0.0
  11
 1696.1376623002
  21
 518.10702041299
  31
0.0
   0
LINE
   5
3C6
 100
AcDbEntity
   8
LEVEL002
 370
13
 100
AcDbLine
   6
CONTINUOUS
  62
5
  10
 1686.1376623002
  20
 498.10702041299
  30
0.0
  11
 1646.1376623002
  21
 518.10702041299
  31
0.0
   0
LINE
   5
3C7
 100
AcDbEntity
   8
LEVEL002
 370
13
 100
AcDbLine
   6
CONTINUOUS
  62
5
  10
 1636.1376623002
  20
 498.10702041299
  30
0.0
  11
 1596.1376623002
  21
 518.10702041299
  31
0.0
   0
LINE
   5
3C8
 100
AcDbEntity
   8
LEVEL002
 370
13
 100
AcDbLine
   6
CONTINUOUS
  62
5
  10
 1736.1376623002
  20
 498.10702041299
  30
0.0
  11
 1736.1376623002
  21
 598.10702041299
  31
0.0
   0
LINE
   5
3C9
 100
AcDbEntity
   8
LEVEL002
 370
13
 100
AcDbLine
   6
CONTINUOUS
  62
5
  10
 3036.1376623002
  20
 1483.4623594723
  30
0.0
  11
 2830.6877111284
  21
 1278.0124083005
  31
0.0
   0
LINE
   5
3CA
 100
AcDbEntity
   8
LEVEL002
 370
13
 100
AcDbLine
   6
CONTINUOUS
  62
5
  10
 2830.6877111284
  20
 1242.6570692412
  30
0.0
  11
 3036.1376623002
  21
 1448.1070204130
  31
0.0
   0
LINE
   5
3CB
 100
AcDbEntity
   8
LEVEL002
 370
13
 100
AcDbLine
   6
CONTINUOUS
  62
5
  10
 3036.1376623002
  20
 1412.7516813537
  30
0.0
  11
 2830.6877111284
  21
 1207.3017301818
  31
0.0
   0
LINE
   5
3CC
 100
AcDbEntity
   8
LEVEL002
 370
13
 100
AcDbLine
   6
CONTINUOUS
  62
5
  10
 3096.8178571468
  20
 1798.1070204130
  30
0.0
  11
 3044.3178571468
  21
 1745.6070204130
  31
0.0
   0
LINE
   5
3CD
 100
AcDbEntity
   8
LEVEL002
 370
13
 100
AcDbLine
   6
CONTINUOUS
  62
5
  10
 3060.2277597230
  20
 1745.6070204130
  30
0.0
  11
 3112.7277597230
  21
 1798.1070204130
  31
0.0
   0
LINE
   5
3CE
 100
AcDbEntity
   8
LEVEL002
 370
13
 100
AcDbLine
   6
CONTINUOUS
  62
5
  10
 3128.6376623006
  20
 1798.1070204130
  30
0.0
  11
 3076.1376623006
  21
 1745.6070204130
  31
0.0
   0
LINE
   5
3CF
 100
AcDbEntity
   8
LEVEL002
 370
13
 100
AcDbLine
   6
CONTINUOUS
  62
5
  10
 3092.0475648766
  20
 1745.6070204130
  30
0.0
  11
 3144.5475648766
  21
 1798.1070204130
  31
0.0
   0
LINE
   5
3D0
 100
AcDbEntity
   8
LEVEL002
 370
13
 100
AcDbLine
   6
CONTINUOUS
  62
5
  10
 3149.3178571472
  20
 1745.6070204130
  30
0.0
  11
 3120.6827110118
  21
 1774.2421665483
  31
0.0
   0
LINE
   5
3D1
 100
AcDbEntity
   8
LEVEL002
 370
13
 100
AcDbLine
   6
CONTINUOUS
  62
5
  10
 3128.6376623000
  20
 1782.1971178365
  30
0.0
  11
 3165.2277597236
  21
 1745.6070204130
  31
0.0
   0
LINE
   5
3D2
 100
AcDbEntity
   8
LEVEL002
 370
13
 100
AcDbLine
   6
CONTINUOUS
  62
5
  10
 3181.1376623000
  20
 1745.6070204130
  30
0.0
  11
 3136.5926135883
  21
 1790.1520691247
  31
0.0
   0
LINE
   5
3D3
 100
AcDbEntity
   8
LEVEL002
 370
13
 100
AcDbLine
   6
CONTINUOUS
  62
5
  10
 3144.5475648766
  20
 1798.1070204130
  30
0.0
  11
 3197.0475648768
  21
 1745.6070204130
  31
0.0
   0
LINE
   5
3D4
 100
AcDbEntity
   8
LEVEL002
 370
13
 100
AcDbLine
   6
CONTINUOUS
  62
5
  10
 3197.0475648768
  20
 1745.6070204130
  30
0.0
  11
 3249.5475648768
  21
 1798.1070204130
  31
0.0
   0
LINE
   5
3D5
 100
AcDbEntity
   8
LEVEL002
 370
13
 100
AcDbLine
   6
CONTINUOUS
  62
5
  10
 3201.8178571470
  20
 1798.1070204130
  30
0.0
  11
 3173.1827110118
  21
 1769.4718742778
  31
0.0
   0
LINE
   5
3D6
 100
AcDbEntity
   8
LEVEL002
 370
13
 100
AcDbLine
   6
CONTINUOUS
  62
5
  10
 3181.1376623000
  20
 1761.5169229898
  30
0.0
  11
 3217.7277597232
  21
 1798.1070204130
  31
0.0
   0
LINE
   5
3D7
 100
AcDbEntity
   8
LEVEL002
 370
13
 100
AcDbLine
   6
CONTINUOUS
  62
5
  10
 3233.6376623008
  20
 1798.1070204130
  30
0.0
  11
 3189.0926135888
  21
 1753.5619717010
  31
0.0
   0
LINE
   5
3D8
 100
AcDbEntity
   8
LEVEL002
 370
13
 100
AcDbLine
   6
CONTINUOUS
  62
5
  10
 3254.3178571474
  20
 1745.6070204130
  30
0.0
  11
 3225.6827110120
  21
 1774.2421665483
  31
0.0
   0
LINE
   5
3D9
 100
AcDbEntity
   8
LEVEL002
 370
13
 100
AcDbLine
   6
CONTINUOUS
  62
5
  10
 3233.6376623002
  20
 1782.1971178365
  30
0.0
  11
 3270.2277597238
  21
 1745.6070204130
  31
0.0
   0
LINE
   5
3DA
 100
AcDbEntity
   8
LEVEL002
 370
13
 100
AcDbLine
   6
CONTINUOUS
  62
5
  10
 3286.1376623002
  20
 1745.6070204130
  30
0.0
  11
 3241.5926135884
  21
 1790.1520691247
  31
0.0
   0
LINE
   5
3DB
 100
AcDbEntity
   8
LEVEL002
 370
13
 100
AcDbLine
   6
CONTINUOUS
  62
5
  10
 3249.5475648768
  20
 1798.1070204130
  30
0.0
  11
 3286.1376623002
  21
 1761.5169229897
  31
0.0
   0
LINE
   5
3DC
 100
AcDbEntity
   8
LEVEL002
 370
13
 100
AcDbLine
   6
CONTINUOUS
  62
5
  10
 3036.1376623002
  20
 598.10702041299
  30
0.0
  11
 3036.1376623002
  21
 1798.1070204131
  31
0.0
   0
LINE
   5
3DD
 100
AcDbEntity
   8
LEVEL002
 370
13
 100
AcDbLine
   6
CONTINUOUS
  62
5
  10
 2830.6876623002
  20
 1798.1070204130
  30
0.0
  11
 3286.1376623002
  21
 1798.1070204130
  31
0.0
   0
LINE
   5
3DE
 100
AcDbEntity
   8
LEVEL002
 370
13
 100
AcDbLine
   6
CONTINUOUS
  62
5
  10
 3036.1376623002
  20
 598.10702041299
  30
0.0
  11
 2986.1376623002
  21
 498.10702041299
  31
0.0
   0
LINE
   5
3DF
 100
AcDbEntity
   8
LEVEL002
 370
13
 100
AcDbLine
   6
CONTINUOUS
  62
5
  10
 2986.1376623002
  20
 598.10702041299
  30
0.0
  11
 3026.1376623002
  21
 578.10702041299
  31
0.0
   0
LINE
   5
3E0
 100
AcDbEntity
   8
LEVEL002
 370
13
 100
AcDbLine
   6
CONTINUOUS
  62
5
  10
 3036.1376623002
  20
 498.10702041299
  30
0.0
  11
 2996.1376623002
  21
 518.10702041299
  31
0.0
   0
LINE
   5
3E1
 100
AcDbEntity
   8
LEVEL002
 370
13
 100
AcDbLine
   6
CONTINUOUS
  62
5
  10
 3036.1376623002
  20
 598.10702041299
  30
0.0
  11
 2536.1376623002
  21
 598.10702041299
  31
0.0
   0
LINE
   5
3E2
 100
AcDbEntity
   8
LEVEL002
 370
13
 100
AcDbLine
   6
CONTINUOUS
  62
5
  10
 2536.1376623002
  20
 498.10702041299
  30
0.0
  11
 3036.1376623002
  21
 498.10702041299
  31
0.0
   0
LINE
   5
3E3
 100
AcDbEntity
   8
LEVEL002
 370
13
 100
AcDbLine
   6
CONTINUOUS
  62
5
  10
 3036.1376623002
  20
 498.10702041299
  30
0.0
  11
 3036.1376623002
  21
 598.10702041299
  31
0.0
   0
LINE
   5
3E4
 100
AcDbEntity
   8
LEVEL002
 370
13
 100
AcDbLine
   6
CONTINUOUS
  62
5
  10
 2986.1376623002
  20
 598.10702041299
  30
0.0
  11
 2936.1376623002
  21
 498.10702041299
  31
0.0
   0
LINE
   5
3E5
 100
AcDbEntity
   8
LEVEL002
 370
13
 100
AcDbLine
   6
CONTINUOUS
  62
5
  10
 2936.1376623002
  20
 598.10702041299
  30
0.0
  11
 2976.1376623002
  21
 578.10702041299
  31
0.0
   0
LINE
   5
3E6
 100
AcDbEntity
   8
LEVEL002
 370
13
 100
AcDbLine
   6
CONTINUOUS
  62
5
  10
 2936.1376623002
  20
 598.10702041299
  30
0.0
  11
 2886.1376623002
  21
 498.10702041299
  31
0.0
   0
LINE
   5
3E7
 100
AcDbEntity
   8
LEVEL002
 370
13
 100
AcDbLine
   6
CONTINUOUS
  62
5
  10
 2886.1376623002
  20
 598.10702041299
  30
0.0
  11
 2926.1376623002
  21
 578.10702041299
  31
0.0
   0
LINE
   5
3E8
 100
AcDbEntity
   8
LEVEL002
 370
13
 100
AcDbLine
   6
CONTINUOUS
  62
5
  10
 2986.1376623002
  20
 498.10702041299
  30
0.0
  11
 2946.1376623002
  21
 518.10702041299
  31
0.0
   0
LINE
   5
3E9
 100
AcDbEntity
   8
LEVEL002
 370
13
 100
AcDbLine
   6
CONTINUOUS
  62
5
  10
 2936.1376623002
  20
 498.10702041299
  30
0.0
  11
 2896.1376623002
  21
 518.10702041299
  31
0.0
   0
LINE
   5
3EA
 100
AcDbEntity
   8
LEVEL002
 370
13
 100
AcDbLine
   6
CONTINUOUS
  62
5
  10
 2536.1376623002
  20
 598.10702041299
  30
0.0
  11
 3036.1376623002
  21
 598.10702041299
  31
0.0
   0
LINE
   5
3EB
 100
AcDbEntity
   8
LEVEL002
 370
13
 100
AcDbLine
   6
CONTINUOUS
  62
5
  10
 2536.1376623002
  20
 598.10702041299
  30
0.0
  11
 2536.1376623002
  21
 498.10702041299
  31
0.0
   0
LINE
   5
3EC
 100
AcDbEntity
   8
LEVEL002
 370
13
 100
AcDbLine
   6
CONTINUOUS
  62
5
  10
 2586.1376623002
  20
 598.10702041299
  30
0.0
  11
 2536.1376623002
  21
 498.10702041299
  31
0.0
   0
LINE
   5
3ED
 100
AcDbEntity
   8
LEVEL002
 370
13
 100
AcDbLine
   6
CONTINUOUS
  62
5
  10
 2536.1376623002
  20
 598.10702041299
  30
0.0
  11
 2576.1376623002
  21
 578.10702041299
  31
0.0
   0
LINE
   5
3EE
 100
AcDbEntity
   8
LEVEL002
 370
13
 100
AcDbLine
   6
CONTINUOUS
  62
5
  10
 2586.1376623002
  20
 498.10702041299
  30
0.0
  11
 2546.1376623002
  21
 518.10702041299
  31
0.0
   0
LINE
   5
3EF
 100
AcDbEntity
   8
LEVEL002
 370
13
 100
AcDbLine
   6
CONTINUOUS
  62
5
  10
 2686.1376623002
  20
 598.10702041299
  30
0.0
  11
 2636.1376623002
  21
 498.10702041299
  31
0.0
   0
LINE
   5
3F0
 100
AcDbEntity
   8
LEVEL002
 370
13
 100
AcDbLine
   6
CONTINUOUS
  62
5
  10
 2636.1376623002
  20
 598.10702041299
  30
0.0
  11
 2676.1376623002
  21
 578.10702041299
  31
0.0
   0
LINE
   5
3F1
 100
AcDbEntity
   8
LEVEL002
 370
13
 100
AcDbLine
   6
CONTINUOUS
  62
5
  10
 2636.1376623002
  20
 598.10702041299
  30
0.0
  11
 2586.1376623002
  21
 498.10702041299
  31
0.0
   0
LINE
   5
3F2
 100
AcDbEntity
   8
LEVEL002
 370
13
 100
AcDbLine
   6
CONTINUOUS
  62
5
  10
 2586.1376623002
  20
 598.10702041299
  30
0.0
  11
 2626.1376623002
  21
 578.10702041299
  31
0.0
   0
LINE
   5
3F3
 100
AcDbEntity
   8
LEVEL002
 370
13
 100
AcDbLine
   6
CONTINUOUS
  62
5
  10
 2686.1376623002
  20
 498.10702041299
  30
0.0
  11
 2646.1376623002
  21
 518.10702041299
  31
0.0
   0
LINE
   5
3F4
 100
AcDbEntity
   8
LEVEL002
 370
13
 100
AcDbLine
   6
CONTINUOUS
  62
5
  10
 2636.1376623002
  20
 498.10702041299
  30
0.0
  11
 2596.1376623002
  21
 518.10702041299
  31
0.0
   0
LINE
   5
3F5
 100
AcDbEntity
   8
LEVEL002
 370
13
 100
AcDbLine
   6
CONTINUOUS
  62
5
  10
 2536.1376623002
  20
 1798.1070204131
  30
0.0
  11
 2536.1376623002
  21
 598.10702041299
  31
0.0
   0
LINE
   5
3F6
 100
AcDbEntity
   8
LEVEL002
 370
13
 100
AcDbLine
   6
CONTINUOUS
  62
5
  10
 2741.5876134720
  20
 1118.2016325256
  30
0.0
  11
 2536.1376623002
  21
 912.75168135369
  31
0.0
   0
LINE
   5
3F7
 100
AcDbEntity
   8
LEVEL002
 370
13
 100
AcDbLine
   6
CONTINUOUS
  62
5
  10
 2536.1376623002
  20
 948.10702041303
  30
0.0
  11
 2741.5876134720
  21
 1153.5569715849
  31
0.0
   0
LINE
   5
3F8
 100
AcDbEntity
   8
LEVEL002
 370
13
 100
AcDbLine
   6
CONTINUOUS
  62
5
  10
 2741.5876134720
  20
 1188.9123106442
  30
0.0
  11
 2536.1376623002
  21
 983.46235947235
  31
0.0
   0
LINE
   5
3F9
 100
AcDbEntity
   8
LEVEL002
 370
13
 100
AcDbLine
   6
CONTINUOUS
  62
5
  10
 2447.0475648768
  20
 1745.6070204130
  30
0.0
  11
 2499.5475648768
  21
 1798.1070204130
  31
0.0
   0
LINE
   5
3FA
 100
AcDbEntity
   8
LEVEL002
 370
13
 100
AcDbLine
   6
CONTINUOUS
  62
5
  10
 2431.1376623000
  20
 1761.5169229898
  30
0.0
  11
 2467.7277597232
  21
 1798.1070204130
  31
0.0
   0
LINE
   5
3FB
 100
AcDbEntity
   8
LEVEL002
 370
13
 100
AcDbLine
   6
CONTINUOUS
  62
5
  10
 2483.6376623008
  20
 1798.1070204130
  30
0.0
  11
 2439.0926135888
  21
 1753.5619717010
  31
0.0
   0
LINE
   5
3FC
 100
AcDbEntity
   8
LEVEL002
 370
13
 100
AcDbLine
   6
CONTINUOUS
  62
5
  10
 2504.3178571474
  20
 1745.6070204130
  30
0.0
  11
 2475.6827110120
  21
 1774.2421665483
  31
0.0
   0
LINE
   5
3FD
 100
AcDbEntity
   8
LEVEL002
 370
13
 100
AcDbLine
   6
CONTINUOUS
  62
5
  10
 2483.6376623002
  20
 1782.1971178365
  30
0.0
  11
 2520.2277597238
  21
 1745.6070204130
  31
0.0
   0
LINE
   5
3FE
 100
AcDbEntity
   8
LEVEL002
 370
13
 100
AcDbLine
   6
CONTINUOUS
  62
5
  10
 2536.1376623002
  20
 1745.6070204130
  30
0.0
  11
 2491.5926135884
  21
 1790.1520691247
  31
0.0
   0
LINE
   5
3FF
 100
AcDbEntity
   8
LEVEL002
 370
13
 100
AcDbLine
   6
CONTINUOUS
  62
5
  10
 2346.8178571468
  20
 1798.1070204130
  30
0.0
  11
 2294.3178571468
  21
 1745.6070204130
  31
0.0
   0
LINE
   5
400
 100
AcDbEntity
   8
LEVEL002
 370
13
 100
AcDbLine
   6
CONTINUOUS
  62
5
  10
 2310.2277597230
  20
 1745.6070204130
  30
0.0
  11
 2362.7277597230
  21
 1798.1070204130
  31
0.0
   0
LINE
   5
401
 100
AcDbEntity
   8
LEVEL002
 370
13
 100
AcDbLine
   6
CONTINUOUS
  62
5
  10
 2378.6376623006
  20
 1798.1070204130
  30
0.0
  11
 2326.1376623006
  21
 1745.6070204130
  31
0.0
   0
LINE
   5
402
 100
AcDbEntity
   8
LEVEL002
 370
13
 100
AcDbLine
   6
CONTINUOUS
  62
5
  10
 2342.0475648766
  20
 1745.6070204130
  30
0.0
  11
 2394.5475648766
  21
 1798.1070204130
  31
0.0
   0
LINE
   5
403
 100
AcDbEntity
   8
LEVEL002
 370
13
 100
AcDbLine
   6
CONTINUOUS
  62
5
  10
 2399.3178571472
  20
 1745.6070204130
  30
0.0
  11
 2370.6827110118
  21
 1774.2421665483
  31
0.0
   0
LINE
   5
404
 100
AcDbEntity
   8
LEVEL002
 370
13
 100
AcDbLine
   6
CONTINUOUS
  62
5
  10
 2378.6376623000
  20
 1782.1971178365
  30
0.0
  11
 2415.2277597236
  21
 1745.6070204130
  31
0.0
   0
LINE
   5
405
 100
AcDbEntity
   8
LEVEL002
 370
13
 100
AcDbLine
   6
CONTINUOUS
  62
5
  10
 2431.1376623000
  20
 1745.6070204130
  30
0.0
  11
 2386.5926135883
  21
 1790.1520691247
  31
0.0
   0
LINE
   5
406
 100
AcDbEntity
   8
LEVEL002
 370
13
 100
AcDbLine
   6
CONTINUOUS
  62
5
  10
 2394.5475648766
  20
 1798.1070204130
  30
0.0
  11
 2447.0475648768
  21
 1745.6070204130
  31
0.0
   0
LINE
   5
407
 100
AcDbEntity
   8
LEVEL002
 370
13
 100
AcDbLine
   6
CONTINUOUS
  62
5
  10
 2451.8178571470
  20
 1798.1070204130
  30
0.0
  11
 2423.1827110118
  21
 1769.4718742778
  31
0.0
   0
LINE
   5
408
 100
AcDbEntity
   8
LEVEL002
 370
13
 100
AcDbLine
   6
CONTINUOUS
  62
5
  10
 2499.5475648768
  20
 1798.1070204130
  30
0.0
  11
 2536.1376623002
  21
 1761.5169229897
  31
0.0
   0
LINE
   5
409
 100
AcDbEntity
   8
LEVEL002
 370
13
 100
AcDbLine
   6
CONTINUOUS
  62
5
  10
 2741.5876623002
  20
 1798.1070204130
  30
0.0
  11
 2286.1376623002
  21
 1798.1070204130
  31
0.0
   0
DIMENSION
   5
40A
 100
AcDbEntity
   8
LEVEL001
 370
13
   6
CONTINUOUS
  62
1
 100
AcDbDimension
   2
*D15
  10
 736.13766230025
  20
 598.10702041299
  30
0.0
  11
 736.13766230025
  21
 1198.1070204130
  31
0.0
  70
0
   3
GMM003
 100
AcDbAlignedDimension
  13
 986.13766230025
  23
 1798.1070204130
  33
0.0
  14
 1236.1376623002
  24
 598.10702041299
  34
0.0
  50
 270.00000000000
 100
AcDbRotatedDimension
   0
DIMENSION
   5
40B
 100
AcDbEntity
   8
LEVEL001
 370
13
   6
CONTINUOUS
  62
1
 100
AcDbDimension
   2
*D16
  10
 736.13766230025
  20
 4298.1070204130
  30
0.0
  11
 736.13766230025
  21
 3048.1070204130
  31
0.0
  70
0
   1
\A1;2500(標準設置高さ)
   3
GMM004
 100
AcDbAlignedDimension
  13
 986.13766230025
  23
 1798.1070204130
  33
0.0
  14
 1011.1376623002
  24
 4298.1070204130
  34
0.0
  50
 90.000000000000
 100
AcDbRotatedDimension
   0
DIMENSION
   5
40C
 100
AcDbEntity
   8
LEVEL001
 370
13
   6
CONTINUOUS
  62
1
 100
AcDbDimension
   2
*D17
  10
 736.13766230025
  20
 498.10702041299
  30
0.0
  11
 736.13766230025
  21
 548.10702041299
  31
0.0
  70
0
   3
GMM003
 100
AcDbAlignedDimension
  13
 1236.1376623002
  23
 598.10702041299
  33
0.0
  14
 1236.1376623002
  24
 498.10702041299
  34
0.0
  50
 270.00000000000
 100
AcDbRotatedDimension
   0
DIMENSION
   5
40D
 100
AcDbEntity
   8
LEVEL002
 370
13
   6
CONTINUOUS
  62
1
 100
AcDbDimension
   2
*D18
  10
 1736.1376623002
  20
 298.10702041299
  30
0.0
  11
 1486.1376623002
  21
 298.10702041299
  31
0.0
  70
128
   1
\A1;□500
   3
GMM005
 100
AcDbAlignedDimension
  13
 1236.1376623002
  23
 498.10702041299
  33
0.0
  14
 1736.1376623002
  24
 498.10702041299
  34
0.0
 100
AcDbRotatedDimension
   0
MTEXT
   5
40E
 100
AcDbEntity
   8
LEVEL002
 370
13
  62
1
 100
AcDbMText
  10
 1836.1376623002
  20
 2619.5355918416
  30
0.0
  40
 42.857142857142
  41
0.0
  71
1
  72
1
   1
{\T1.000000;支柱}\P%%c{\T1.000000;８９．１×３}{\T1.000000;.}{\T1.000000;２ｔ}\P{\T1.000000;×４４００Ｌ}
   7
GMM001
  44
 0.79999984000003
   0
LINE
   5
40F
 100
AcDbEntity
   8
LEVEL002
 370
13
 100
AcDbLine
   6
CONTINUOUS
  62
6
  10
 5446.1376623002
  20
 2610.6070204130
  30
0.0
  11
 8086.1376623002
  21
 2610.6070204130
  31
0.0
   0
MTEXT
   5
410
 100
AcDbEntity
   8
LEVEL002
 370
13
  62
1
 100
AcDbMText
  10
 7326.1376623002
  20
 1710.6070204130
  30
0.0
  40
 51.428571428572
  41
0.0
  71
4
  72
1
   1
\T1.000000;静電粉体塗装
   7
GMM001
  44
 0.79999984000003
   0
MTEXT
   5
411
 100
AcDbEntity
   8
LEVEL002
 370
13
  62
1
 100
AcDbMText
  10
 6766.1376623002
  20
 1710.6070204130
  30
0.0
  40
 51.428571428572
  41
0.0
  71
4
  72
1
   1
\T1.000000;ＳＴＫ４００
   7
GMM001
  44
 0.79999984000003
   0
MTEXT
   5
412
 100
AcDbEntity
   8
LEVEL002
 370
13
  62
1
 100
AcDbMText
  10
 6698.1376623002
  20
 1710.6070204130
  30
0.0
  40
 51.428571428572
  41
0.0
  71
6
  72
1
   1
\T1.000000;１
   7
GMM001
  44
 0.79999984000003
   0
MTEXT
   5
413
 100
AcDbEntity
   8
LEVEL002
 370
13
  62
1
 100
AcDbMText
  10
 7326.1376623002
  20
 1830.6070204130
  30
0.0
  40
 51.428571428572
  41
0.0
  71
4
  72
1
   1
\T1.000000;溶融亜鉛メッキ
   7
GMM001
  44
 0.79999984000003
   0
MTEXT
   5
414
 100
AcDbEntity
   8
LEVEL002
 370
13
  62
1
 100
AcDbMText
  10
 6766.1376623002
  20
 1830.6070204130
  30
0.0
  40
 51.428571428572
  41
0.0
  71
4
  72
1
   1
\T1.000000;ＳＳ４００
   7
GMM001
  44
 0.79999984000003
   0
MTEXT
   5
415
 100
AcDbEntity
   8
LEVEL002
 370
13
  62
1
 100
AcDbMText
  10
 6698.1376623002
  20
 1830.6070204130
  30
0.0
  40
 51.428571428572
  41
0.0
  71
6
  72
1
   1
\T1.000000;４
   7
GMM001
  44
 0.79999984000003
   0
MTEXT
   5
416
 100
AcDbEntity
   8
LEVEL002
 370
13
  62
1
 100
AcDbMText
  10
 7326.1376623002
  20
 1950.6070204130
  30
0.0
  40
 51.428571428572
  41
0.0
  71
4
  72
1
   1
\T1.000000;溶融亜鉛メッキ
   7
GMM001
  44
 0.79999984000003
   0
MTEXT
   5
417
 100
AcDbEntity
   8
LEVEL002
 370
13
  62
1
 100
AcDbMText
  10
 7326.1376623002
  20
 2070.6070204130
  30
0.0
  40
 51.428571428572
  41
0.0
  71
4
  72
1
   1
\T1.000000;溶融亜鉛メッキ
   7
GMM001
  44
 0.79999984000003
   0
MTEXT
   5
418
 100
AcDbEntity
   8
LEVEL002
 370
13
  62
1
 100
AcDbMText
  10
 7326.1376623002
  20
 2190.6070204130
  30
0.0
  40
 51.428571428572
  41
0.0
  71
4
  72
1
   1
\T1.000000;溶融亜鉛メッキ
   7
GMM001
  44
 0.79999984000003
   0
MTEXT
   5
419
 100
AcDbEntity
   8
LEVEL002
 370
13
  62
1
 100
AcDbMText
  10
 6766.1376623002
  20
 1950.6070204130
  30
0.0
  40
 51.428571428572
  41
0.0
  71
4
  72
1
   1
\T1.000000;ＳＳ４００
   7
GMM001
  44
 0.79999984000003
   0
MTEXT
   5
41A
 100
AcDbEntity
   8
LEVEL002
 370
13
  62
1
 100
AcDbMText
  10
 6766.1376623002
  20
 2070.6070204130
  30
0.0
  40
 51.428571428572
  41
0.0
  71
4
  72
1
   1
\T1.000000;ＳＳ４００
   7
GMM001
  44
 0.79999984000003
   0
MTEXT
   5
41B
 100
AcDbEntity
   8
LEVEL002
 370
13
  62
1
 100
AcDbMText
  10
 6766.1376623002
  20
 2190.6070204130
  30
0.0
  40
 51.428571428572
  41
0.0
  71
4
  72
1
   1
\T1.000000;ＳＳ４００
   7
GMM001
  44
 0.79999984000003
   0
MTEXT
   5
41C
 100
AcDbEntity
   8
LEVEL002
 370
13
  62
1
 100
AcDbMText
  10
 6698.1376623002
  20
 1950.6070204130
  30
0.0
  40
 51.428571428572
  41
0.0
  71
6
  72
1
   1
\T1.000000;１
   7
GMM001
  44
 0.79999984000003
   0
MTEXT
   5
41D
 100
AcDbEntity
   8
LEVEL002
 370
13
  62
1
 100
AcDbMText
  10
 6698.1376623002
  20
 2070.6070204130
  30
0.0
  40
 51.428571428572
  41
0.0
  71
6
  72
1
   1
\T1.000000;８
   7
GMM001
  44
 0.79999984000003
   0
MTEXT
   5
41E
 100
AcDbEntity
   8
LEVEL002
 370
13
  62
1
 100
AcDbMText
  10
 6698.1376623002
  20
 2190.6070204130
  30
0.0
  40
 51.428571428572
  41
0.0
  71
6
  72
1
   1
\T1.000000;８
   7
GMM001
  44
 0.79999984000003
   0
MTEXT
   5
41F
 100
AcDbEntity
   8
LEVEL002
 370
13
  62
1
 100
AcDbMText
  10
 5618.1376623002
  20
 1710.6070204130
  30
0.0
  40
 51.428571428572
  41
0.0
  71
6
  72
1
   1
\T1.000000;１１
   7
GMM001
  44
 0.79999984000003
   0
MTEXT
   5
420
 100
AcDbEntity
   8
LEVEL002
 370
13
  62
1
 100
AcDbMText
  10
 5686.1376623002
  20
 1710.6070204130
  30
0.0
  40
 51.428571428572
  41
0.0
  71
4
  72
1
   1
\T1.000000;支柱
   7
GMM001
  44
 0.79999984000003
   0
MTEXT
   5
421
 100
AcDbEntity
   8
LEVEL002
 370
13
  62
1
 100
AcDbMText
  10
 5686.1376623002
  20
 1830.6070204130
  30
0.0
  40
 51.428571428572
  41
0.0
  71
4
  72
1
   1
\T1.000000;同上ボルトナット
   7
GMM001
  44
 0.79999984000003
   0
MTEXT
   5
422
 100
AcDbEntity
   8
LEVEL002
 370
13
  62
1
 100
AcDbMText
  10
 5618.1376623002
  20
 1830.6070204130
  30
0.0
  40
 51.428571428572
  41
0.0
  71
6
  72
1
   1
\T1.000000;１０
   7
GMM001
  44
 0.79999984000003
   0
MTEXT
   5
423
 100
AcDbEntity
   8
LEVEL002
 370
13
  62
1
 100
AcDbMText
  10
 5618.1376623002
  20
 1950.6070204130
  30
0.0
  40
 51.428571428572
  41
0.0
  71
6
  72
1
   1
\T1.000000;９
   7
GMM001
  44
 0.79999984000003
   0
MTEXT
   5
424
 100
AcDbEntity
   8
LEVEL002
 370
13
  62
1
 100
AcDbMText
  10
 5686.1376623002
  20
 1950.6070204130
  30
0.0
  40
 51.428571428572
  41
0.0
  71
4
  72
1
   1
\T1.000000;二面鏡用取付腕木
   7
GMM001
  44
 0.79999984000003
   0
MTEXT
   5
425
 100
AcDbEntity
   8
LEVEL002
 370
13
  62
1
 100
AcDbMText
  10
 5618.1376623002
  20
 2070.6070204130
  30
0.0
  40
 51.428571428572
  41
0.0
  71
6
  72
1
   1
\T1.000000;８
   7
GMM001
  44
 0.79999984000003
   0
MTEXT
   5
426
 100
AcDbEntity
   8
LEVEL002
 370
13
  62
1
 100
AcDbMText
  10
 5686.1376623002
  20
 2070.6070204130
  30
0.0
  40
 51.428571428572
  41
0.0
  71
4
  72
1
   1
\T1.000000;金具締付ボルトナット
   7
GMM001
  44
 0.79999984000003
   0
MTEXT
   5
427
 100
AcDbEntity
   8
LEVEL002
 370
13
  62
1
 100
AcDbMText
  10
 5618.1376623002
  20
 2190.6070204130
  30
0.0
  40
 51.428571428572
  41
0.0
  71
6
  72
1
   1
\T1.000000;７
   7
GMM001
  44
 0.79999984000003
   0
MTEXT
   5
428
 100
AcDbEntity
   8
LEVEL002
 370
13
  62
1
 100
AcDbMText
  10
 5686.1376623002
  20
 2190.6070204130
  30
0.0
  40
 51.428571428572
  41
0.0
  71
4
  72
1
   1
\T1.000000;裏板金具取付ボルト
   7
GMM001
  44
 0.79999984000003
   0
LINE
   5
429
 100
AcDbEntity
   8
LEVEL002
 370
13
 100
AcDbLine
   6
CONTINUOUS
  62
6
  10
 5446.1376623002
  20
 1770.6070204130
  30
0.0
  11
 8086.1376623002
  21
 1770.6070204130
  31
0.0
   0
LINE
   5
42A
 100
AcDbEntity
   8
LEVEL002
 370
13
 100
AcDbLine
   6
CONTINUOUS
  62
6
  10
 5446.1376623002
  20
 1890.6070204130
  30
0.0
  11
 8086.1376623002
  21
 1890.6070204130
  31
0.0
   0
LINE
   5
42B
 100
AcDbEntity
   8
LEVEL002
 370
13
 100
AcDbLine
   6
CONTINUOUS
  62
6
  10
 5446.1376623002
  20
 2010.6070204130
  30
0.0
  11
 8086.1376623002
  21
 2010.6070204130
  31
0.0
   0
LINE
   5
42C
 100
AcDbEntity
   8
LEVEL002
 370
13
 100
AcDbLine
   6
CONTINUOUS
  62
6
  10
 5446.1376623002
  20
 2130.6070204130
  30
0.0
  11
 8086.1376623002
  21
 2130.6070204130
  31
0.0
   0
MTEXT
   5
42D
 100
AcDbEntity
   8
LEVEL002
 370
13
  62
1
 100
AcDbMText
  10
 5686.1376623002
  20
 2310.6070204130
  30
0.0
  40
 51.428571428572
  41
0.0
  71
4
  72
1
   1
\T1.000000;支柱取付金具
   7
GMM001
  44
 0.79999984000003
   0
MTEXT
   5
42E
 100
AcDbEntity
   8
LEVEL002
 370
13
  62
1
 100
AcDbMText
  10
 5618.1376623002
  20
 2310.6070204130
  30
0.0
  40
 51.428571428572
  41
0.0
  71
6
  72
1
   1
\T1.000000;６
   7
GMM001
  44
 0.79999984000003
   0
MTEXT
   5
42F
 100
AcDbEntity
   8
LEVEL002
 370
13
  62
1
 100
AcDbMText
  10
 6698.1376623002
  20
 2310.6070204130
  30
0.0
  40
 51.428571428572
  41
0.0
  71
6
  72
1
   1
\T1.000000;２
   7
GMM001
  44
 0.79999984000003
   0
MTEXT
   5
430
 100
AcDbEntity
   8
LEVEL002
 370
13
  62
1
 100
AcDbMText
  10
 6766.1376623002
  20
 2310.6070204130
  30
0.0
  40
 51.428571428572
  41
0.0
  71
4
  72
1
   1
\T1.000000;ＳＳ４００
   7
GMM001
  44
 0.79999984000003
   0
MTEXT
   5
431
 100
AcDbEntity
   8
LEVEL002
 370
13
  62
1
 100
AcDbMText
  10
 5618.1376623002
  20
 2430.6070204130
  30
0.0
  40
 51.428571428572
  41
0.0
  71
6
  72
1
   1
\T1.000000;５
   7
GMM001
  44
 0.79999984000003
   0
MTEXT
   5
432
 100
AcDbEntity
   8
LEVEL002
 370
13
  62
1
 100
AcDbMText
  10
 5686.1376623002
  20
 2430.6070204130
  30
0.0
  40
 51.428571428572
  41
0.0
  71
4
  72
1
   1
\T1.000000;裏板取付金具
   7
GMM001
  44
 0.79999984000003
   0
MTEXT
   5
433
 100
AcDbEntity
   8
LEVEL002
 370
13
  62
1
 100
AcDbMText
  10
 5618.1376623002
  20
 2550.6070204130
  30
0.0
  40
 51.428571428572
  41
0.0
  71
6
  72
1
   1
\T1.000000;４
   7
GMM001
  44
 0.79999984000003
   0
MTEXT
   5
434
 100
AcDbEntity
   8
LEVEL002
 370
13
  62
1
 100
AcDbMText
  10
 5686.1376623002
  20
 2550.6070204130
  30
0.0
  40
 51.428571428572
  41
0.0
  71
4
  72
1
   1
\T1.000000;リング
   7
GMM001
  44
 0.79999984000003
   0
MTEXT
   5
435
 100
AcDbEntity
   8
LEVEL002
 370
13
  62
1
 100
AcDbMText
  10
 5618.1376623002
  20
 2670.6070204130
  30
0.0
  40
 51.428571428572
  41
0.0
  71
6
  72
1
   1
\T1.000000;３
   7
GMM001
  44
 0.79999984000003
   0
MTEXT
   5
436
 100
AcDbEntity
   8
LEVEL002
 370
13
  62
1
 100
AcDbMText
  10
 5686.1376623002
  20
 2670.6070204130
  30
0.0
  40
 51.428571428572
  41
0.0
  71
4
  72
1
   1
\T1.000000;フード
   7
GMM001
  44
 0.79999984000003
   0
MTEXT
   5
437
 100
AcDbEntity
   8
LEVEL002
 370
13
  62
1
 100
AcDbMText
  10
 5618.1376623002
  20
 2790.6070204130
  30
0.0
  40
 51.428571428572
  41
0.0
  71
6
  72
1
   1
\T1.000000;２
   7
GMM001
  44
 0.79999984000003
   0
MTEXT
   5
438
 100
AcDbEntity
   8
LEVEL002
 370
13
  62
1
 100
AcDbMText
  10
 5618.1376623002
  20
 2910.6070204130
  30
0.0
  40
 51.428571428572
  41
0.0
  71
6
  72
1
   1
\T1.000000;１
   7
GMM001
  44
 0.79999984000003
   0
MTEXT
   5
439
 100
AcDbEntity
   8
LEVEL002
 370
13
  62
1
 100
AcDbMText
  10
 5686.1376623002
  20
 2790.6070204130
  30
0.0
  40
 51.428571428572
  41
0.0
  71
4
  72
1
   1
\T1.000000;バックプレート
   7
GMM001
  44
 0.79999984000003
   0
MTEXT
   5
43A
 100
AcDbEntity
   8
LEVEL002
 370
13
  62
1
 100
AcDbMText
  10
 6698.1376623002
  20
 2430.6070204130
  30
0.0
  40
 51.428571428572
  41
0.0
  71
6
  72
1
   1
\T1.000000;２
   7
GMM001
  44
 0.79999984000003
   0
MTEXT
   5
43B
 100
AcDbEntity
   8
LEVEL002
 370
13
  62
1
 100
AcDbMText
  10
 6698.1376623002
  20
 2550.6070204130
  30
0.0
  40
 51.428571428572
  41
0.0
  71
6
  72
1
   1
\T1.000000;２
   7
GMM001
  44
 0.79999984000003
   0
MTEXT
   5
43C
 100
AcDbEntity
   8
LEVEL002
 370
13
  62
1
 100
AcDbMText
  10
 6698.1376623002
  20
 2670.6070204130
  30
0.0
  40
 51.428571428572
  41
0.0
  71
6
  72
1
   1
\T1.000000;２
   7
GMM001
  44
 0.79999984000003
   0
MTEXT
   5
43D
 100
AcDbEntity
   8
LEVEL002
 370
13
  62
1
 100
AcDbMText
  10
 6698.1376623002
  20
 2790.6070204130
  30
0.0
  40
 51.428571428572
  41
0.0
  71
6
  72
1
   1
\T1.000000;２
   7
GMM001
  44
 0.79999984000003
   0
MTEXT
   5
43E
 100
AcDbEntity
   8
LEVEL002
 370
13
  62
1
 100
AcDbMText
  10
 6698.1376623002
  20
 2910.6070204130
  30
0.0
  40
 51.428571428572
  41
0.0
  71
6
  72
1
   1
\T1.000000;２
   7
GMM001
  44
 0.79999984000003
   0
MTEXT
   5
43F
 100
AcDbEntity
   8
LEVEL002
 370
13
  62
1
 100
AcDbMText
  10
 6766.1376623002
  20
 2430.6070204130
  30
0.0
  40
 51.428571428572
  41
0.0
  71
4
  72
1
   1
\T1.000000;ＳＳ４００
   7
GMM001
  44
 0.79999984000003
   0
MTEXT
   5
440
 100
AcDbEntity
   8
LEVEL002
 370
13
  62
1
 100
AcDbMText
  10
 6766.1376623002
  20
 2550.6070204130
  30
0.0
  40
 51.428571428572
  41
0.0
  71
4
  72
1
   1
\T1.000000;軟質ＰＶＣ
   7
GMM001
  44
 0.79999984000003
   0
MTEXT
   5
441
 100
AcDbEntity
   8
LEVEL002
 370
13
  62
1
 100
AcDbMText
  10
 6766.1376623002
  20
 2670.6070204130
  30
0.0
  40
 51.428571428572
  41
0.0
  71
4
  72
1
   1
\T1.000000;ＰＣ
   7
GMM001
  44
 0.79999984000003
   0
MTEXT
   5
442
 100
AcDbEntity
   8
LEVEL002
 370
13
  62
1
 100
AcDbMText
  10
 6766.1376623002
  20
 2910.6070204130
  30
0.0
  40
 51.428571428572
  41
0.0
  71
4
  72
1
   1
\T1.000000;ＳＵＳ３０４
   7
GMM001
  44
 0.79999984000003
   0
MTEXT
   5
443
 100
AcDbEntity
   8
LEVEL002
 370
13
  62
1
 100
AcDbMText
  10
 7326.1376623002
  20
 2310.6070204130
  30
0.0
  40
 51.428571428572
  41
0.0
  71
4
  72
1
   1
\T1.000000;溶融亜鉛メッキ
   7
GMM001
  44
 0.79999984000003
   0
MTEXT
   5
444
 100
AcDbEntity
   8
LEVEL002
 370
13
  62
1
 100
AcDbMText
  10
 7326.1376623002
  20
 2430.6070204130
  30
0.0
  40
 51.428571428572
  41
0.0
  71
4
  72
1
   1
\T1.000000;溶融亜鉛メッキ
   7
GMM001
  44
 0.79999984000003
   0
MTEXT
   5
445
 100
AcDbEntity
   8
LEVEL002
 370
13
  62
1
 100
AcDbMText
  10
 7326.1376623002
  20
 2910.6070204130
  30
0.0
  40
 51.428571428572
  41
0.0
  71
4
  72
1
   1
\T1.000000;t=0.9mm\T1.000000;・表面研磨
   7
GMM001
  44
 0.79999984000003
   0
MTEXT
   5
446
 100
AcDbEntity
   8
LEVEL002
 370
13
  62
1
 100
AcDbMText
  10
 7326.1376623002
  20
 2670.6070204130
  30
0.0
  40
 51.428571428572
  41
0.0
  71
4
  72
1
   1
\T1.000000;ＵＶグレ－ド
   7
GMM001
  44
 0.79999984000003
   0
LINE
   5
447
 100
AcDbEntity
   8
LEVEL002
 370
13
 100
AcDbLine
   6
CONTINUOUS
  62
6
  10
 5446.1376623002
  20
 2250.6070204130
  30
0.0
  11
 8086.1376623002
  21
 2250.6070204130
  31
0.0
   0
LINE
   5
448
 100
AcDbEntity
   8
LEVEL002
 370
13
 100
AcDbLine
   6
CONTINUOUS
  62
6
  10
 5446.1376623002
  20
 2370.6070204130
  30
0.0
  11
 8086.1376623002
  21
 2370.6070204130
  31
0.0
   0
LINE
   5
449
 100
AcDbEntity
   8
LEVEL002
 370
13
 100
AcDbLine
   6
CONTINUOUS
  62
6
  10
 5446.1376623002
  20
 2730.6070204130
  30
0.0
  11
 8086.1376623002
  21
 2730.6070204130
  31
0.0
   0
LINE
   5
44A
 100
AcDbEntity
   8
LEVEL002
 370
13
 100
AcDbLine
   6
CONTINUOUS
  62
6
  10
 5446.1376623002
  20
 2490.6070204130
  30
0.0
  11
 8086.1376623002
  21
 2490.6070204130
  31
0.0
   0
LINE
   5
44B
 100
AcDbEntity
   8
LEVEL002
 370
13
 100
AcDbLine
   6
CONTINUOUS
  62
6
  10
 5446.1376623002
  20
 2850.6070204130
  30
0.0
  11
 8086.1376623002
  21
 2850.6070204130
  31
0.0
   0
MTEXT
   5
44C
 100
AcDbEntity
   8
LEVEL002
 370
13
  62
1
 100
AcDbMText
  10
 6086.1376623002
  20
 3050.6070204130
  30
0.0
  40
 51.428571428572
  41
0.0
  71
5
  72
1
   1
\T1.000000;名　　称
   7
GMM001
  44
 0.79999984000003
   0
MTEXT
   5
44D
 100
AcDbEntity
   8
LEVEL002
 370
13
  62
1
 100
AcDbMText
  10
 6626.1376623002
  20
 3050.6070204130
  30
0.0
  40
 51.428571428572
  41
0.0
  71
5
  72
1
   1
\T1.000000;個数
   7
GMM001
  44
 0.79999984000003
   0
MTEXT
   5
44E
 100
AcDbEntity
   8
LEVEL002
 370
13
  62
1
 100
AcDbMText
  10
 7006.1376623002
  20
 3050.6070204130
  30
0.0
  40
 51.428571428572
  41
0.0
  71
5
  72
1
   1
\T1.000000;材　　質
   7
GMM001
  44
 0.79999984000003
   0
MTEXT
   5
44F
 100
AcDbEntity
   8
LEVEL002
 370
13
  62
1
 100
AcDbMText
  10
 7686.1376623002
  20
 3050.6070204130
  30
0.0
  40
 51.428571428572
  41
0.0
  71
5
  72
1
   1
\T1.000000;規格仕様
   7
GMM001
  44
 0.79999984000003
   0
LINE
   5
450
 100
AcDbEntity
   8
LEVEL002
 370
13
 100
AcDbLine
   6
CONTINUOUS
  62
2
  10
 5446.1376623002
  20
 3130.6070204130
  30
0.0
  11
 8086.1376623002
  21
 3130.6070204130
  31
0.0
   0
LINE
   5
451
 100
AcDbEntity
   8
LEVEL002
 370
13
 100
AcDbLine
   6
CONTINUOUS
  62
2
  10
 5446.1376623002
  20
 2970.6070204130
  30
0.0
  11
 8086.1376623002
  21
 2970.6070204130
  31
0.0
   0
MTEXT
   5
452
 100
AcDbEntity
   8
LEVEL002
 370
13
  62
1
 100
AcDbMText
  10
 5546.1376623002
  20
 3210.6070204130
  30
0.0
  40
 57.142857142858
  41
0.0
  71
4
  72
1
   1
%%c\T1.000000;８００（ダブル）
   7
GMM001
  44
 0.79999984000003
   0
MTEXT
   5
453
 100
AcDbEntity
   8
LEVEL002
 370
13
  62
1
 100
AcDbMText
  10
 5686.1376623002
  20
 2910.6070204130
  30
0.0
  40
 51.428571428572
  41
0.0
  71
4
  72
1
   1
\T1.000000;鏡面　Ｒ＝３０００
   7
GMM001
  44
 0.79999984000003
   0
MTEXT
   5
454
 100
AcDbEntity
   8
LEVEL002
 370
13
  62
1
 100
AcDbMText
  10
 5546.1376623002
  20
 3370.6070204130
  30
0.0
  40
 57.142857142858
  41
0.0
  71
4
  72
1
   1
\T1.000000;ステンレスミラー　＜Ｚタイプ＞
   7
GMM001
  44
 0.79999984000003
   0
MTEXT
   5
455
 100
AcDbEntity
   8
LEVEL002
 370
13
  62
1
 100
AcDbMText
  10
 6766.1376623002
  20
 2790.6070204130
  30
0.0
  40
 51.428571428572
  41
0.0
  71
4
  72
1
   1
\T1.000000;高耐食溶融めっき鋼板
   7
GMM004
  44
 0.79999984000003
   0
MTEXT
   5
456
 100
AcDbEntity
   8
LEVEL001
 370
13
  62
1
 100
AcDbMText
  10
 6765.7210534317
  20
 1556.8758701674
  30
0.0
  40
 51.428571428571
  41
0.0
  71
7
  72
1
   1
\T1.000000;ＳＴＫ４００
   7
GMM001
  44
 0.79999984000003
   0
MTEXT
   5
457
 100
AcDbEntity
   8
LEVEL001
 370
13
  62
1
 100
AcDbMText
  10
 7327.5191915502
  20
 1596.4670913839
  30
0.0
  40
 34.285720000000
  41
0.0
  71
4
  72
1
   1
{\T1.000000;下地亜鉛メッキ}\P{\T1.000000;＋静電粉体塗装}
   7
GMM005
  44
 0.79999984000003
   0
MTEXT
   5
458
 100
AcDbEntity
   8
LEVEL001
 370
13
  62
1
 100
AcDbMText
  10
 6697.1166360543
  20
 1556.8758701674
  30
0.0
  40
 51.428571428571
  41
0.0
  71
9
  72
1
   1
\T1.000000;１
   7
GMM001
  44
 0.79999984000003
   0
LINE
   5
459
 100
AcDbEntity
   8
LEVEL001
 370
13
 100
AcDbLine
   6
CONTINUOUS
  62
6
  10
 6526.1376623002
  20
 1650.6070204130
  30
0.0
  11
 8086.1376623002
  21
 1650.6070204130
  31
0.0
   0
MTEXT
   5
45A
 100
AcDbEntity
   8
LEVEL002
 370
13
  62
1
 100
AcDbMText
  10
 7326.1376623002
  20
 2843.9728961327
  30
0.0
  40
 34.285714285714
  41
0.0
  71
1
  72
1
   1
{\T1.000000;ＺＡＭ処理鋼板}\P{\T1.000000;プレス成型}
   7
GMM005
  44
 1.0099997980000
   0
LWPOLYLINE
   5
45B
 100
AcDbEntity
   8
LEVEL001
 370
13
   6
CONTINUOUS
  62
2
 100
AcDbPolyline
  90
4
  70
1
  10
 5446.1376623002
  20
 930.60702041299
  10
 8086.1376623002
  20
 930.60702041299
  10
 8086.1376623002
  20
 3450.6070204130
  10
 5446.1376623002
  20
 3450.6070204130
   0
MTEXT
   5
45C
 100
AcDbEntity
   8
LEVEL002
 370
13
  62
1
 100
AcDbMText
  10
 5686.1376623002
  20
 3630.6070204130
  30
0.0
  40
 51.428580000000
  41
0.0
  71
1
  72
1
   1
{\T1.000000;※構成部材は改良のため、変更する場合があります。}\P{\T1.000000;※本図は道路反射鏡ハンドブックに基づいています。}
   7
GMM001
  44
 0.79999984000003
   0
LINE
   5
45D
 100
AcDbEntity
   8
LEVEL001
 370
13
 100
AcDbLine
   6
CONTINUOUS
  62
6
  10
 5646.1376623002
  20
 3130.6070204130
  30
0.0
  11
 5646.1376623002
  21
 930.60702041299
  31
0.0
   0
LINE
   5
45E
 100
AcDbEntity
   8
LEVEL001
 370
13
 100
AcDbLine
   6
CONTINUOUS
  62
6
  10
 6526.1376623002
  20
 3130.6070204130
  30
0.0
  11
 6526.1376623002
  21
 930.60702041299
  31
0.0
   0
LINE
   5
45F
 100
AcDbEntity
   8
LEVEL001
 370
13
 100
AcDbLine
   6
CONTINUOUS
  62
6
  10
 6726.1376623002
  20
 3130.6070204130
  30
0.0
  11
 6726.1376623002
  21
 930.60702041299
  31
0.0
   0
LINE
   5
460
 100
AcDbEntity
   8
LEVEL001
 370
13
 100
AcDbLine
   6
CONTINUOUS
  62
6
  10
 7286.1376623002
  20
 3130.6070204130
  30
0.0
  11
 7286.1376623002
  21
 930.60702041299
  31
0.0
   0
MTEXT
   5
461
 100
AcDbEntity
   8
LEVEL002
 370
13
  62
1
 100
AcDbMText
  10
 6698.1376623002
  20
 1110.6070204130
  30
0.0
  40
 51.428571428572
  41
0.0
  71
6
  72
1
   1
\T1.000000;１式
   7
GMM001
  44
 0.79999984000003
   0
MTEXT
   5
462
 100
AcDbEntity
   8
LEVEL002
 370
13
  62
1
 100
AcDbMText
  10
 6766.1376623002
  20
 1110.6070204130
  30
0.0
  40
 51.428571428572
  41
0.0
  71
4
  72
1
   1
\T1.000000;―
   7
GMM001
  44
 0.79999984000003
   0
MTEXT
   5
463
 100
AcDbEntity
   8
LEVEL002
 370
13
  62
1
 100
AcDbMText
  10
 7326.1376623002
  20
 1110.6070204130
  30
0.0
  40
 51.428571428572
  41
0.0
  71
4
  72
1
   1
\T1.000000;―
   7
GMM001
  44
 0.79999984000003
   0
LINE
   5
464
 100
AcDbEntity
   8
LEVEL002
 370
13
 100
AcDbLine
   6
CONTINUOUS
  62
6
  10
 6726.1376623002
  20
 3130.6070204130
  30
0.0
  11
 6726.1376623002
  21
 1050.6070204130
  31
0.0
   0
LINE
   5
465
 100
AcDbEntity
   8
LEVEL002
 370
13
 100
AcDbLine
   6
CONTINUOUS
  62
6
  10
 7286.1376623002
  20
 3130.6070204130
  30
0.0
  11
 7286.1376623002
  21
 1050.6070204130
  31
0.0
   0
MTEXT
   5
466
 100
AcDbEntity
   8
LEVEL002
 370
13
  62
1
 100
AcDbMText
  10
 6698.1376623002
  20
 990.60702041299
  30
0.0
  40
 51.428571428572
  41
0.0
  71
6
  72
1
   1
\T1.000000;１式
   7
GMM001
  44
 0.79999984000003
   0
MTEXT
   5
467
 100
AcDbEntity
   8
LEVEL002
 370
13
  62
1
 100
AcDbMText
  10
 6766.1376623002
  20
 990.60702041299
  30
0.0
  40
 51.428571428572
  41
0.0
  71
4
  72
1
   1
\T1.000000;―
   7
GMM001
  44
 0.79999984000003
   0
MTEXT
   5
468
 100
AcDbEntity
   8
LEVEL002
 370
13
  62
1
 100
AcDbMText
  10
 7326.1376623002
  20
 990.60702041299
  30
0.0
  40
 51.428571428572
  41
0.0
  71
4
  72
1
   1
\T1.000000;―
   7
GMM001
  44
 0.79999984000003
   0
MTEXT
   5
469
 100
AcDbEntity
   8
LEVEL002
 370
13
  62
1
 100
AcDbMText
  10
 6766.1376623002
  20
 1230.6070204130
  30
0.0
  40
 51.428571428572
  41
0.0
  71
4
  72
1
   1
\T1.000000;―
   7
GMM001
  44
 0.79999984000003
   0
MTEXT
   5
46A
 100
AcDbEntity
   8
LEVEL002
 370
13
  62
1
 100
AcDbMText
  10
 5686.1376623002
  20
 1230.6070204130
  30
0.0
  40
 51.428571428572
  41
0.0
  71
4
  72
1
   1
\T1.000000;注意板
   7
GMM001
  44
 0.79999984000003
   0
LINE
   5
46B
 100
AcDbEntity
   8
LEVEL002
 370
13
 100
AcDbLine
   6
CONTINUOUS
  62
2
  10
 5446.1376623002
  20
 710.60702041299
  30
0.0
  11
 7126.1376623002
  21
 710.60702041299
  31
0.0
   0
POINT
   5
46C
 100
AcDbEntity
   8
LEVEL002
 100
AcDbPoint
  62
3
  10
 6286.1376623002
  20
 770.60702041299
  30
0.0
   0
MTEXT
   5
46D
 100
AcDbEntity
   8
LEVEL002
 370
13
  62
2
 100
AcDbMText
  10
 5456.1376623002
  20
 900.60702041299
  30
0.0
  40
 38.571428571428
  41
0.0
  71
4
  72
1
   1
\T1.370378;図面番号
   7
GMM001
  44
 0.79999984000003
   0
MTEXT
   5
46E
 100
AcDbEntity
   8
LEVEL002
 370
13
  62
1
 100
AcDbMText
  10
 6286.1376623002
  20
 774.82577041299
  30
0.0
  40
 42.857142857142
  41
0.0
  71
5
  72
1
   1
\T1.000000;ＭＺＨ０８０ＷＵＰ
   7
GMM001
  44
 0.79999984000003
   0
DIMENSION
   5
46F
 100
AcDbEntity
   8
LEVEL002
 370
13
   6
CONTINUOUS
  62
1
 100
AcDbDimension
   2
*D19
  10
 660.39730614761
  20
 4528.1070204130
  30
0.0
  11
 1011.1375946803
  21
 4730.6070204130
  31
0.0
  70
131
   1
\A1;%%c800
   3
GMM006
 100
AcDbDiametricDimension
  15
 1361.8778832130
  25
 4933.1070204130
  35
0.0
   0
DIMENSION
   5
470
 100
AcDbEntity
   8
LEVEL002
 370
13
   6
CONTINUOUS
  62
1
 100
AcDbDimension
   2
*D20
  10
 1610.3973061476
  20
 4528.1070204130
  30
0.0
  11
 1961.1375946803
  21
 4730.6070204130
  31
0.0
  70
131
   1
\A1;%%c800
   3
GMM006
 100
AcDbDiametricDimension
  15
 2311.8778832130
  25
 4933.1070204130
  35
0.0
   0
DIMENSION
   5
471
 100
AcDbEntity
   8
LEVEL001
 370
13
   6
CONTINUOUS
  62
1
 100
AcDbDimension
   2
*D21
  10
 3186.1376623002
  20
 2598.1070204130
  30
0.0
  11
 2986.1376623002
  21
 2598.1070204130
  31
0.0
  70
0
   3
GMM007
 100
AcDbAlignedDimension
  13
 2786.1376623002
  23
 3398.1070204110
  33
0.0
  14
 3186.1376623002
  24
 3898.1070204110
  34
0.0
 100
AcDbRotatedDimension
   0
DIMENSION
   5
472
 100
AcDbEntity
   8
LEVEL002
 370
13
   6
CONTINUOUS
  62
1
 100
AcDbDimension
   2
*D22
  10
 3036.1376623002
  20
 298.10702041299
  30
0.0
  11
 2786.1376623002
  21
 298.10702041299
  31
0.0
  70
128
   1
\A1;□500
   3
GMM005
 100
AcDbAlignedDimension
  13
 2536.1376623002
  23
 498.10702041299
  33
0.0
  14
 3036.1376623002
  24
 498.10702041299
  34
0.0
 100
AcDbRotatedDimension
   0
ENDSEC
  0
SECTION
  2
OBJECTS
  0
DICTIONARY
  5
C
100
AcDbDictionary
  3
ACAD_GROUP
350
D
  3
ACAD_MLINESTYLE
350
1B
  3
DWGPROPS
350
1C
  0
DICTIONARY
  5
D
102
{ACAD_REACTORS
330
C
102
}
100
AcDbDictionary
  0
DICTIONARY
  5
1B
102
{ACAD_REACTORS
330
C
102
}
100
AcDbDictionary
  3
STANDARD
350
1D
  0
MLINESTYLE
  5
1D
102
{ACAD_REACTORS
330
1B
102
}
100
AcDbMlineStyle
  2
STANDARD
 70
     0
  3

 62
   256
 51
90.0
 52
90.0
 71
     2
 49
0.5
 62
   256
  6
BYLAYER
 49
-0.5
 62
   256
  6
BYLAYER
   0
XRECORD
   5
1C
 102
{ACAD_REACTORS
 330
C
 102
}
 330
C
 100
AcDbXrecord
 280
1
   1
DWGPROPS COOKIE
   2
 
   3
 
   4
 
   6
 
   7
MZH080WUP
   8
 
   9

 300
 = 
 301
 = 
 302
 = 
 303
 = 
 304
 = 
 305
 = 
 306
 = 
 307
 = 
 308
 = 
 309
 = 
  40
0.0
  41
 2460341.5000000
  42
 2460341.5000000
   1

  90
10
   0
ENDSEC
   0
EOF
