   0
SECTION
   2
HEADER
   9
$ACADVER
   1
AC1015
   9
$DWGCODEPAGE
   3
ANSI_932
   9
$LIMMIN
  10
0.0
  20
0.0
   9
$LIMMAX
  10
 8400.0000000000
  20
 5940.0000000000
   9
$EXTMIN
  10
0.0
  20
0.0
  30
0.0
   9
$EXTMAX
  10
 8400.0000000000
  20
 5940.0000000000
  30
0.0
   9
$LTSCALE
  40
 168.00000000000
   9
$HANDSEED
   5
480
   0
ENDSEC
   0
SECTION
   2
TABLES
  0
TABLE
  2
VPORT
  5
8
100
AcDbSymbolTable
 70
     1
  0
VPORT
  5
47F
100
AcDbSymbolTableRecord
100
AcDbViewportTableRecord
  2
*ACTIVE
 70
     0
 10
0.0
 20
0.0
 11
1.0
 21
1.0
  12
 4200.0000000000
  22
 2970.0000000000
 13
0.0
 23
0.0
 14
1.0
 24
1.0
 15
0.0
 25
0.0
 16
0.0
 26
0.0
 36
1.0
 17
0.0
 27
0.0
 37
0.0
  40
 8400.0000000000
  41
 1.4787878787879
 42
50.0
 43
0.0
 44
0.0
 50
0.0
 51
0.0
 71
     0
 72
   100
 73
     1
 74
     1
 75
     0
 76
     0
 77
     0
 78
     0
  0
ENDTAB
  0
TABLE
  2
LTYPE
  5
5
100
AcDbSymbolTable
 70
    25
  0
LTYPE
  5
12
100
AcDbSymbolTableRecord
100
AcDbLinetypeTableRecord
  2
BYBLOCK
 70
     0
  3

 72
    65
 73
     0
 40
0.0
  0
LTYPE
  5
13
100
AcDbSymbolTableRecord
100
AcDbLinetypeTableRecord
  2
BYLAYER
 70
     0
  3

 72
    65
 73
     0
 40
0.0
  0
LTYPE
  5
14
100
AcDbSymbolTableRecord
100
AcDbLinetypeTableRecord
  2
CONTINUOUS
 70
     0
  3
Solid line
 72
    65
 73
     0
 40
0.0
  0
LTYPE
  5
20
100
AcDbSymbolTableRecord
100
AcDbLinetypeTableRecord
  2
BORDER
 70
     0
  3
__ __ . __ __ . __ __ . __ __ . __ __ . __ __ .
 72
    65
 73
     6
 40
1.75
 49
0.5
 74
     0
 49
-0.25
 74
     0
 49
0.5
 74
     0
 49
-0.25
 74
     0
 49
0.0
 74
     0
 49
-0.25
 74
     0
  0
LTYPE
  5
21
100
AcDbSymbolTableRecord
100
AcDbLinetypeTableRecord
  2
BORDER2
 70
     0
  3
__.__.__.__.__.__.__.__.__.__.__.__.__.__.__.__
 72
    65
 73
     6
 40
0.875
 49
0.25
 74
     0
 49
-0.125
 74
     0
 49
0.25
 74
     0
 49
-0.125
 74
     0
 49
0.0
 74
     0
 49
-0.125
 74
     0
  0
LTYPE
  5
22
100
AcDbSymbolTableRecord
100
AcDbLinetypeTableRecord
  2
BORDERX2
 70
     0
  3
____  ____  .  ____  ____  .  ____  ____  .  __
 72
    65
 73
     6
 40
3.5
 49
1.0
 74
     0
 49
-0.5
 74
     0
 49
1.0
 74
     0
 49
-0.5
 74
     0
 49
0.0
 74
     0
 49
-0.5
 74
     0
  0
LTYPE
  5
23
100
AcDbSymbolTableRecord
100
AcDbLinetypeTableRecord
  2
CENTER
 70
     0
  3
____ _ ____ _ ____ _ ____ _ ____ _ ____ _ ____ 
 72
    65
 73
     4
 40
2.0
 49
1.25
 74
     0
 49
-0.25
 74
     0
 49
0.25
 74
     0
 49
-0.25
 74
     0
  0
LTYPE
  5
24
100
AcDbSymbolTableRecord
100
AcDbLinetypeTableRecord
  2
CENTER2
 70
     0
  3
___ _ ___ _ ___ _ ___ _ ___ _ ___ _ ___ _ ___ _
 72
    65
 73
     4
 40
1.125
 49
0.75
 74
     0
 49
-0.125
 74
     0
 49
0.125
 74
     0
 49
-0.125
 74
     0
  0
LTYPE
  5
25
100
AcDbSymbolTableRecord
100
AcDbLinetypeTableRecord
  2
CENTERX2
 70
     0
  3
________  __  ________  __  ________  __  _____
 72
    65
 73
     4
 40
4.0
 49
2.5
 74
     0
 49
-0.5
 74
     0
 49
0.5
 74
     0
 49
-0.5
 74
     0
  0
LTYPE
  5
26
100
AcDbSymbolTableRecord
100
AcDbLinetypeTableRecord
  2
DASHDOT
 70
     0
  3
__ . __ . __ . __ . __ . __ . __ . __ . __ . __
 72
    65
 73
     4
 40
1.0
 49
0.5
 74
     0
 49
-0.25
 74
     0
 49
0.0
 74
     0
 49
-0.25
 74
     0
  0
LTYPE
  5
27
100
AcDbSymbolTableRecord
100
AcDbLinetypeTableRecord
  2
DASHDOT2
 70
     0
  3
_._._._._._._._._._._._._._._._._._._._._._._._
 72
    65
 73
     4
 40
0.5
 49
0.25
 74
     0
 49
-0.125
 74
     0
 49
0.0
 74
     0
 49
-0.125
 74
     0
  0
LTYPE
  5
28
100
AcDbSymbolTableRecord
100
AcDbLinetypeTableRecord
  2
DASHDOTX2
 70
     0
  3
____  .  ____  .  ____  .  ____  .  ____  .  __
 72
    65
 73
     4
 40
2.0
 49
1.0
 74
     0
 49
-0.5
 74
     0
 49
0.0
 74
     0
 49
-0.5
 74
     0
  0
LTYPE
  5
29
100
AcDbSymbolTableRecord
100
AcDbLinetypeTableRecord
  2
DASHED
 70
     0
  3
__ __ __ __ __ __ __ __ __ __ __ __ __ __ __ __
 72
    65
 73
     2
 40
0.75
 49
0.5
 74
     0
 49
-0.25
 74
     0
  0
LTYPE
  5
2A
100
AcDbSymbolTableRecord
100
AcDbLinetypeTableRecord
  2
DASHED2
 70
     0
  3
_ _ _ _ _ _ _ _ _ _ _ _ _ _ _ _ _ _ _ _ _ _ _ _
 72
    65
 73
     2
 40
0.375
 49
0.25
 74
     0
 49
-0.125
 74
     0
  0
LTYPE
  5
2B
100
AcDbSymbolTableRecord
100
AcDbLinetypeTableRecord
  2
DASHEDX2
 70
     0
  3
____  ____  ____  ____  ____  ____  ____  ____ 
 72
    65
 73
     2
 40
1.5
 49
1.0
 74
     0
 49
-0.5
 74
     0
  0
LTYPE
  5
2C
100
AcDbSymbolTableRecord
100
AcDbLinetypeTableRecord
  2
DIVIDE
 70
     0
  3
____ . . ____ . . ____ . . ____ . . ____ . . __
 72
    65
 73
     6
 40
1.25
 49
0.5
 74
     0
 49
-0.25
 74
     0
 49
0.0
 74
     0
 49
-0.25
 74
     0
 49
0.0
 74
     0
 49
-0.25
 74
     0
  0
LTYPE
  5
2D
100
AcDbSymbolTableRecord
100
AcDbLinetypeTableRecord
  2
DIVIDE2
 70
     0
  3
__..__..__..__..__..__..__..__..__..__..__..__.
 72
    65
 73
     6
 40
0.625
 49
0.25
 74
     0
 49
-0.125
 74
     0
 49
0.0
 74
     0
 49
-0.125
 74
     0
 49
0.0
 74
     0
 49
-0.125
 74
     0
  0
LTYPE
  5
2E
100
AcDbSymbolTableRecord
100
AcDbLinetypeTableRecord
  2
DIVIDEX2
 70
     0
  3
________  .  .  ________  .  .  ________  .  . 
 72
    65
 73
     6
 40
2.5
 49
1.0
 74
     0
 49
-0.5
 74
     0
 49
0.0
 74
     0
 49
-0.5
 74
     0
 49
0.0
 74
     0
 49
-0.5
 74
     0
  0
LTYPE
  5
2F
100
AcDbSymbolTableRecord
100
AcDbLinetypeTableRecord
  2
DOT
 70
     0
  3
. . . . . . . . . . . . . . . . . . . . . . . .
 72
    65
 73
     2
 40
0.25
 49
0.0
 74
     0
 49
-0.25
 74
     0
  0
LTYPE
  5
30
100
AcDbSymbolTableRecord
100
AcDbLinetypeTableRecord
  2
DOT2
 70
     0
  3
...............................................
 72
    65
 73
     2
 40
0.125
 49
0.0
 74
     0
 49
-0.125
 74
     0
  0
LTYPE
  5
31
100
AcDbSymbolTableRecord
100
AcDbLinetypeTableRecord
  2
DOTX2
 70
     0
  3
.  .  .  .  .  .  .  .  .  .  .  .  .  .  .  . 
 72
    65
 73
     2
 40
0.5
 49
0.0
 74
     0
 49
-0.5
 74
     0
  0
LTYPE
  5
32
100
AcDbSymbolTableRecord
100
AcDbLinetypeTableRecord
  2
HIDDEN
 70
     0
  3
__ __ __ __ __ __ __ __ __ __ __ __ __ __ __ __
 72
    65
 73
     2
 40
0.375
 49
0.25
 74
     0
 49
-0.125
 74
     0
  0
LTYPE
  5
33
100
AcDbSymbolTableRecord
100
AcDbLinetypeTableRecord
  2
HIDDEN2
 70
     0
  3
_ _ _ _ _ _ _ _ _ _ _ _ _ _ _ _ _ _ _ _ _ _ _ _
 72
    65
 73
     2
 40
0.1875
 49
0.125
 74
     0
 49
-0.0625
 74
     0
  0
LTYPE
  5
34
100
AcDbSymbolTableRecord
100
AcDbLinetypeTableRecord
  2
HIDDENX2
 70
     0
  3
____ ____ ____ ____ ____ ____ ____ ____ ____ __
 72
    65
 73
     2
 40
0.75
 49
0.5
 74
     0
 49
-0.25
 74
     0
  0
LTYPE
  5
35
100
AcDbSymbolTableRecord
100
AcDbLinetypeTableRecord
  2
PHANTOM
 70
     0
  3
______  __  __  ______  __  __  ______  __  __ 
 72
    65
 73
     6
 40
2.5
 49
1.25
 74
     0
 49
-0.25
 74
     0
 49
0.25
 74
     0
 49
-0.25
 74
     0
 49
0.25
 74
     0
 49
-0.25
 74
     0
  0
LTYPE
  5
36
100
AcDbSymbolTableRecord
100
AcDbLinetypeTableRecord
  2
PHANTOM2
 70
     0
  3
___ _ _ ___ _ _ ___ _ _ ___ _ _ ___ _ _ ___ _ _
 72
    65
 73
     6
 40
1.25
 49
0.625
 74
     0
 49
-0.125
 74
     0
 49
0.125
 74
     0
 49
-0.125
 74
     0
 49
0.125
 74
     0
 49
-0.125
 74
     0
  0
LTYPE
  5
37
100
AcDbSymbolTableRecord
100
AcDbLinetypeTableRecord
  2
PHANTOMX2
 70
     0
  3
____________    ____    ____    ____________   
 72
    65
 73
     6
 40
5.0
 49
2.5
 74
     0
 49
-0.5
 74
     0
 49
0.5
 74
     0
 49
-0.5
 74
     0
 49
0.5
 74
     0
 49
-0.5
 74
     0
  0
ENDTAB
   0
TABLE
   2
LAYER
   5
2
 100
AcDbSymbolTable
  70
3
   0
LAYER
   5
E
 100
AcDbSymbolTableRecord
 100
AcDbLayerTableRecord
   2
0
  70
0
  62
7
   6
CONTINUOUS
 390
30
   0
LAYER
   5
39
 100
AcDbSymbolTableRecord
 100
AcDbLayerTableRecord
   2
LEVEL001
  70
0
  62
7
   6
CONTINUOUS
 390
30
   0
LAYER
   5
3A
 100
AcDbSymbolTableRecord
 100
AcDbLayerTableRecord
   2
LEVEL002
  70
0
  62
7
   6
CONTINUOUS
 390
30
   0
ENDTAB
  0
TABLE
  2
STYLE
  5
3
100
AcDbSymbolTable
  70
7
  0
STYLE
  5
F
100
AcDbSymbolTableRecord
100
AcDbTextStyleTableRecord
  2
STANDARD
 70
     0
 40
0.0
 41
1.0
 50
0.0
 71
     0
 42
0.2
  3
TXT
  4
BIGFONT
  0
STYLE
  5
38
100
AcDbSymbolTableRecord
100
AcDbTextStyleTableRecord
  2
STANDARD1
 70
     4
 40
0.0
 41
1.0
 50
0.0
 71
     0
 42
0.2
  3
TXT
  4
BIGFONT
   0
STYLE
   5
3B
 100
AcDbSymbolTableRecord
 100
AcDbTextStyleTableRecord
   2
GMM001
  70
0
  40
0.0
  41
 1.0000000000000
  50
0.0
  71
     0
  42
1.0
   3

   4

1001
ACAD
1000
ＭＳ ゴシック
1071
32817
   0
STYLE
   5
3C
 100
AcDbSymbolTableRecord
 100
AcDbTextStyleTableRecord
   2
GMM002
  70
0
  40
0.0
  41
 1.0000000000000
  50
0.0
  71
     0
  42
1.0
   3
txt.shx
   4
bigfont.shx
   0
STYLE
   5
3D
 100
AcDbSymbolTableRecord
 100
AcDbTextStyleTableRecord
   2
GMM003
  70
0
  40
0.0
  41
 0.75000000000000
  50
0.0
  71
     0
  42
1.0
   3
txt.shx
   4
bigfont.shx
   0
STYLE
   5
3E
 100
AcDbSymbolTableRecord
 100
AcDbTextStyleTableRecord
   2
GMM004
  70
0
  40
0.0
  41
 0.66666666666667
  50
0.0
  71
     0
  42
1.0
   3

   4

1001
ACAD
1000
ＭＳ ゴシック
1071
32817
   0
STYLE
   5
3F
 100
AcDbSymbolTableRecord
 100
AcDbTextStyleTableRecord
   2
GMM005
  70
0
  40
0.0
  41
 1.5000000000000
  50
0.0
  71
     0
  42
1.0
   3

   4

1001
ACAD
1000
ＭＳ ゴシック
1071
32817
   0
ENDTAB
  0
TABLE
  2
VIEW
  5
6
100
AcDbSymbolTable
 70
     0
  0
ENDTAB
  0
TABLE
  2
UCS
  5
7
100
AcDbSymbolTable
 70
     0
  0
ENDTAB
  0
TABLE
  2
APPID
  5
9
100
AcDbSymbolTable
 70
     1
  0
APPID
  5
10
100
AcDbSymbolTableRecord
100
AcDbRegAppTableRecord
  2
ACAD
 70
     0
  0
ENDTAB
   0
TABLE
   2
DIMSTYLE
   5
A
 100
AcDbSymbolTable
  70
9
 100
AcDbDimStyleTable
  0
DIMSTYLE
105
1D
100
AcDbSymbolTableRecord
100
AcDbDimStyleTableRecord
  2
STANDARD
 70
     0
  3

  4

  5

  6

  7

 40
1.0
 41
0.18
 42
0.0625
 43
0.38
 44
0.18
 45
0.0
 46
0.0
 47
0.0
 48
0.0
140
0.18
141
0.09
142
0.0
143
25.4
144
1.0
145
0.0
146
1.0
147
0.09
 71
     0
 72
     0
 73
     1
 74
     1
 75
     0
 76
     0
 77
     0
 78
     0
170
     0
171
     2
172
     0
173
     0
174
     0
175
     0
176
     0
177
     0
178
     0
270
     2
271
     4
272
     4
273
     2
274
     2
340
F
275
     0
280
     0
281
     0
282
     0
283
     1
284
     0
285
     0
286
     0
287
     3
288
     0
   0
DIMSTYLE
 105
40
 100
AcDbSymbolTableRecord
 100
AcDbDimStyleTableRecord
   2
GMM001
  70
0
   3

   4

   5

   6
_OPEN
   7
_OPEN
  40
 1.0000000000000
  41
 30.000000000000
  42
 30.000000000000
  43
 160.00000000000
  44
 30.000000000000
  45
0.0
  46
0.0
  47
0.0
  48
0.0
 140
 66.000000000000
 141
 20.000000000000
 142
0.0
 143
 0.39400000000000E-1
 144
 1.0000000000000
 145
0.0
 146
 0.75757575757576
 147
0.0
  71
0
  72
0
  73
0
  74
0
  75
0
  76
0
  77
0
  78
8
 170
0
 171
2
 172
1
 173
1
 174
0
 175
0
 176
1
 177
1
 178
7
 270
2
 271
1
 272
0
 273
2
 274
2
 340
3C
 275
0
 280
0
 281
0
 282
0
 283
1
 284
0
 285
0
 286
0
 287
3
 288
1
   0
DIMSTYLE
 105
41
 100
AcDbSymbolTableRecord
 100
AcDbDimStyleTableRecord
   2
GMM002
  70
0
   3

   4

   5

   6
_OPEN
   7
_OPEN
  40
 1.0000000000000
  41
 42.000000000000
  42
 30.000000000000
  43
 160.00000000000
  44
 30.000000000000
  45
0.0
  46
0.0
  47
0.0
  48
0.0
 140
 60.000000000000
 141
 20.000000000000
 142
0.0
 143
 0.39400000000000E-1
 144
 1.0000000000000
 145
0.0
 146
 0.83333333333333
 147
0.0
  71
0
  72
0
  73
0
  74
0
  75
0
  76
0
  77
0
  78
8
 170
0
 171
2
 172
1
 173
1
 174
0
 175
0
 176
1
 177
1
 178
7
 270
2
 271
1
 272
0
 273
2
 274
2
 340
3C
 275
0
 280
0
 281
0
 282
0
 283
1
 284
0
 285
0
 286
0
 287
3
 288
1
   0
DIMSTYLE
 105
42
 100
AcDbSymbolTableRecord
 100
AcDbDimStyleTableRecord
   2
GMM003
  70
0
   3
□<>
   4

   5

   6
_OPEN
   7
_OPEN
  40
 1.0000000000000
  41
 42.000000000000
  42
 30.000000000000
  43
 160.00000000000
  44
 30.000000000000
  45
0.0
  46
0.0
  47
0.0
  48
0.0
 140
 60.000000000000
 141
 20.000000000000
 142
0.0
 143
 0.39400000000000E-1
 144
 1.0000000000000
 145
0.0
 146
 0.83333333333333
 147
 14.000000000000
  71
0
  72
0
  73
0
  74
0
  75
0
  76
0
  77
3
  78
8
 170
0
 171
2
 172
1
 173
1
 174
0
 175
0
 176
6
 177
6
 178
1
 270
2
 271
1
 272
0
 273
2
 274
2
 340
3C
 275
0
 280
0
 281
0
 282
0
 283
1
 284
0
 285
0
 286
0
 287
3
 288
1
   0
DIMSTYLE
 105
43
 100
AcDbSymbolTableRecord
 100
AcDbDimStyleTableRecord
   2
GMM004
  70
0
   3

   4

   5

   6
_OPEN
   7
_OPEN
  40
 1.0000000000000
  41
 42.000000000000
  42
 30.000000000000
  43
 160.00000000000
  44
 30.000000000000
  45
0.0
  46
0.0
  47
0.0
  48
0.0
 140
 60.000000000000
 141
 20.000000000000
 142
0.0
 143
 0.39400000000000E-1
 144
 1.0000000000000
 145
0.0
 146
 0.83333333333333
 147
 25.714285714286
  71
0
  72
0
  73
0
  74
0
  75
0
  76
0
  77
3
  78
8
 170
0
 171
2
 172
1
 173
1
 174
0
 175
0
 176
6
 177
6
 178
1
 270
2
 271
6
 272
0
 273
2
 274
2
 340
3C
 275
1
 280
0
 281
0
 282
0
 283
1
 284
0
 285
0
 286
0
 287
3
 288
0
   0
DIMSTYLE
 105
44
 100
AcDbSymbolTableRecord
 100
AcDbDimStyleTableRecord
   2
GMM005
  70
0
   3
□<>
   4

   5

   6
_OPEN
   7
_OPEN
  40
 1.0000000000000
  41
 42.000000000000
  42
 30.000000000000
  43
 160.00000000000
  44
 30.000000000000
  45
0.0
  46
0.0
  47
0.0
  48
0.0
 140
 60.000000000000
 141
 20.000000000000
 142
0.0
 143
 0.39400000000000E-1
 144
 1.0000000000000
 145
0.0
 146
 0.83333333333333
 147
 14.000000000000
  71
0
  72
0
  73
0
  74
0
  75
0
  76
0
  77
3
  78
8
 170
0
 171
2
 172
1
 173
1
 174
0
 175
0
 176
6
 177
6
 178
1
 270
2
 271
1
 272
0
 273
2
 274
2
 340
3C
 275
0
 280
0
 281
0
 282
0
 283
1
 284
0
 285
0
 286
0
 287
3
 288
1
   0
DIMSTYLE
 105
45
 100
AcDbSymbolTableRecord
 100
AcDbDimStyleTableRecord
   2
GMM006
  70
0
   3

   4

   5

   6
_OPEN
   7
_OPEN
  40
 1.0000000000000
  41
 42.000000000000
  42
 30.000000000000
  43
 160.00000000000
  44
 30.000000000000
  45
0.0
  46
0.0
  47
0.0
  48
0.0
 140
 60.000000000000
 141
 20.000000000000
 142
0.0
 143
 0.39400000000000E-1
 144
 1.0000000000000
 145
0.0
 146
 0.83333333333333
 147
 25.714285714286
  71
0
  72
0
  73
0
  74
0
  75
0
  76
0
  77
3
  78
8
 170
0
 171
2
 172
1
 173
1
 174
0
 175
0
 176
6
 177
6
 178
1
 270
2
 271
6
 272
0
 273
2
 274
2
 340
3C
 275
1
 280
0
 281
0
 282
0
 283
1
 284
0
 285
0
 286
0
 287
3
 288
0
   0
DIMSTYLE
 105
46
 100
AcDbSymbolTableRecord
 100
AcDbDimStyleTableRecord
   2
GMM007
  70
0
   3
%%c<>
   4

   5

   6
_OPEN
   7
_OPEN
  40
 1.0000000000000
  41
 42.000000000000
  42
 30.000000000000
  43
 160.00000000000
  44
 30.000000000000
  45
0.0
  46
0.0
  47
0.0
  48
0.0
 140
 60.000000000000
 141
 20.000000000000
 142
0.0
 143
 0.39400000000000E-1
 144
 1.0000000000000
 145
0.0
 146
 0.83333333333333
 147
 14.000000000000
  71
0
  72
0
  73
0
  74
0
  75
0
  76
0
  77
3
  78
8
 170
0
 171
2
 172
1
 173
1
 174
0
 175
0
 176
6
 177
6
 178
1
 270
2
 271
1
 272
0
 273
2
 274
2
 340
3C
 275
0
 280
0
 281
0
 282
0
 283
1
 284
0
 285
0
 286
0
 287
0
 288
1
   0
ENDTAB
  0
TABLE
  2
BLOCK_RECORD
  5
1
100
AcDbSymbolTable
 70
     0
  0
BLOCK_RECORD
  5
18
100
AcDbSymbolTableRecord
100
AcDbBlockTableRecord
  2
*MODEL_SPACE
  0
BLOCK_RECORD
  5
15
100
AcDbSymbolTableRecord
100
AcDbBlockTableRecord
  2
*PAPER_SPACE
   0
BLOCK_RECORD
   5
47
 100
AcDbSymbolTableRecord
 100
AcDbBlockTableRecord
   2
*D12
   0
BLOCK_RECORD
   5
48
 100
AcDbSymbolTableRecord
 100
AcDbBlockTableRecord
   2
*D16
   0
BLOCK_RECORD
   5
49
 100
AcDbSymbolTableRecord
 100
AcDbBlockTableRecord
   2
*D17
   0
BLOCK_RECORD
   5
4A
 100
AcDbSymbolTableRecord
 100
AcDbBlockTableRecord
   2
*D18
   0
BLOCK_RECORD
   5
4B
 100
AcDbSymbolTableRecord
 100
AcDbBlockTableRecord
   2
*D19
   0
BLOCK_RECORD
   5
4C
 100
AcDbSymbolTableRecord
 100
AcDbBlockTableRecord
   2
*D20
   0
BLOCK_RECORD
   5
4D
 100
AcDbSymbolTableRecord
 100
AcDbBlockTableRecord
   2
*D21
   0
BLOCK_RECORD
   5
4E
 100
AcDbSymbolTableRecord
 100
AcDbBlockTableRecord
   2
*D22
   0
BLOCK_RECORD
   5
4F
 100
AcDbSymbolTableRecord
 100
AcDbBlockTableRecord
   2
*D23
   0
BLOCK_RECORD
   5
50
 100
AcDbSymbolTableRecord
 100
AcDbBlockTableRecord
   2
_ARCHTICK
   0
BLOCK_RECORD
   5
51
 100
AcDbSymbolTableRecord
 100
AcDbBlockTableRecord
   2
_BOXBLANK
   0
BLOCK_RECORD
   5
52
 100
AcDbSymbolTableRecord
 100
AcDbBlockTableRecord
   2
_BOXFILLED
   0
BLOCK_RECORD
   5
53
 100
AcDbSymbolTableRecord
 100
AcDbBlockTableRecord
   2
_CLOSED
   0
BLOCK_RECORD
   5
54
 100
AcDbSymbolTableRecord
 100
AcDbBlockTableRecord
   2
_CLOSEDBLANK
   0
BLOCK_RECORD
   5
55
 100
AcDbSymbolTableRecord
 100
AcDbBlockTableRecord
   2
_DATUMBLANK
   0
BLOCK_RECORD
   5
56
 100
AcDbSymbolTableRecord
 100
AcDbBlockTableRecord
   2
_DATUMFILLED
   0
BLOCK_RECORD
   5
57
 100
AcDbSymbolTableRecord
 100
AcDbBlockTableRecord
   2
_DOT
   0
BLOCK_RECORD
   5
58
 100
AcDbSymbolTableRecord
 100
AcDbBlockTableRecord
   2
_DOTBLANK
   0
BLOCK_RECORD
   5
59
 100
AcDbSymbolTableRecord
 100
AcDbBlockTableRecord
   2
_DOTSMALL
   0
BLOCK_RECORD
   5
5A
 100
AcDbSymbolTableRecord
 100
AcDbBlockTableRecord
   2
_INTEGRAL
   0
BLOCK_RECORD
   5
5B
 100
AcDbSymbolTableRecord
 100
AcDbBlockTableRecord
   2
_NONE
   0
BLOCK_RECORD
   5
5C
 100
AcDbSymbolTableRecord
 100
AcDbBlockTableRecord
   2
_OBLIQUE
   0
BLOCK_RECORD
   5
5D
 100
AcDbSymbolTableRecord
 100
AcDbBlockTableRecord
   2
_OPEN
   0
BLOCK_RECORD
   5
5E
 100
AcDbSymbolTableRecord
 100
AcDbBlockTableRecord
   2
_OPEN30
   0
BLOCK_RECORD
   5
5F
 100
AcDbSymbolTableRecord
 100
AcDbBlockTableRecord
   2
_OPEN90
   0
BLOCK_RECORD
   5
60
 100
AcDbSymbolTableRecord
 100
AcDbBlockTableRecord
   2
_ORIGIN
   0
ENDTAB
   0
ENDSEC
  0
SECTION
  2
BLOCKS
  0
BLOCK
  5
19
100
AcDbEntity
  8
0
100
AcDbBlockBegin
  2
*MODEL_SPACE
 70
     0
 10
0.0
 20
0.0
 30
0.0
  3
*MODEL_SPACE
  1

  0
ENDBLK
  5
1A
100
AcDbEntity
  8
0
100
AcDbBlockEnd
  0
BLOCK
  5
16
100
AcDbEntity
 67
     1
  8
0
100
AcDbBlockBegin
  2
*PAPER_SPACE
 70
     0
 10
0.0
 20
0.0
 30
0.0
  3
*PAPER_SPACE
  1

  0
ENDBLK
  5
17
100
AcDbEntity
 67
     1
  8
0
100
AcDbBlockEnd
   0
BLOCK
   5
61
 100
AcDbEntity
   8
0
 100
AcDbBlockBegin
   2
_ARCHTICK
  70
0
  10
0.0
  20
0.0
  30
0.0
   3
_ARCHTICK
   0
POLYLINE
   5
62
 100
AcDbEntity
   8
0
 370
-2
   6
BYBLOCK
  62
0
 100
AcDb2dPolyline
  66
1
  10
0.0
  20
0.0
  30
0.0
  70
1
  40
 0.15000000000000
  41
 0.15000000000000
   0
VERTEX
   5
63
 100
AcDbEntity
   8
0
   6
BYBLOCK
  62
0
 100
AcDbVertex
 100
AcDb2dVertex
  10
-0.50000000000000
  20
-0.50000000000000
  30
0.0
  40
 0.15000000000000
  41
 0.15000000000000
   0
VERTEX
   5
64
 100
AcDbEntity
   8
0
   6
BYBLOCK
  62
0
 100
AcDbVertex
 100
AcDb2dVertex
  10
 0.50000000000000
  20
 0.50000000000000
  30
0.0
  40
 0.15000000000000
  41
 0.15000000000000
   0
SEQEND
   5
65
 100
AcDbEntity
   8
0
   6
BYBLOCK
  62
0
   0
ENDBLK
   5
66
 100
AcDbEntity
   8
0
 100
AcDbBlockEnd
   0
BLOCK
   5
67
 100
AcDbEntity
   8
0
 100
AcDbBlockBegin
   2
_OBLIQUE
  70
0
  10
0.0
  20
0.0
  30
0.0
   3
_OBLIQUE
   0
LINE
   5
68
 100
AcDbEntity
   8
0
 370
-2
 100
AcDbLine
   6
BYBLOCK
  62
0
  10
-0.50000000000000
  20
-0.50000000000000
  30
0.0
  11
 0.50000000000000
  21
 0.50000000000000
  31
0.0
   0
ENDBLK
   5
69
 100
AcDbEntity
   8
0
 100
AcDbBlockEnd
   0
BLOCK
   5
6A
 100
AcDbEntity
   8
0
 100
AcDbBlockBegin
   2
_BOXBLANK
  70
0
  10
0.0
  20
0.0
  30
0.0
   3
_BOXBLANK
   0
LINE
   5
6B
 100
AcDbEntity
   8
0
 370
-2
 100
AcDbLine
   6
BYBLOCK
  62
0
  10
-0.50000000000000
  20
-0.50000000000000
  30
0.0
  11
 0.50000000000000
  21
-0.50000000000000
  31
0.0
   0
LINE
   5
6C
 100
AcDbEntity
   8
0
 370
-2
 100
AcDbLine
   6
BYBLOCK
  62
0
  10
 0.50000000000000
  20
-0.50000000000000
  30
0.0
  11
 0.50000000000000
  21
 0.50000000000000
  31
0.0
   0
LINE
   5
6D
 100
AcDbEntity
   8
0
 370
-2
 100
AcDbLine
   6
BYBLOCK
  62
0
  10
 0.50000000000000
  20
 0.50000000000000
  30
0.0
  11
-0.50000000000000
  21
 0.50000000000000
  31
0.0
   0
LINE
   5
6E
 100
AcDbEntity
   8
0
 370
-2
 100
AcDbLine
   6
BYBLOCK
  62
0
  10
-0.50000000000000
  20
 0.50000000000000
  30
0.0
  11
-0.50000000000000
  21
-0.50000000000000
  31
0.0
   0
LINE
   5
6F
 100
AcDbEntity
   8
0
 370
-2
 100
AcDbLine
   6
BYBLOCK
  62
0
  10
-0.50000000000000
  20
0.0
  30
0.0
  11
-1.0000000000000
  21
0.0
  31
0.0
   0
ENDBLK
   5
70
 100
AcDbEntity
   8
0
 100
AcDbBlockEnd
   0
BLOCK
   5
71
 100
AcDbEntity
   8
0
 100
AcDbBlockBegin
   2
_BOXFILLED
  70
0
  10
0.0
  20
0.0
  30
0.0
   3
_BOXFILLED
   0
SOLID
   5
72
 100
AcDbEntity
   8
0
 100
AcDbTrace
   6
BYBLOCK
  62
0
  10
-0.50000000000000
  20
 0.50000000000000
  30
0.0
  11
 0.50000000000000
  21
 0.50000000000000
  31
0.0
  12
-0.50000000000000
  22
-0.50000000000000
  32
0.0
  13
 0.50000000000000
  23
-0.50000000000000
  33
0.0
   0
LINE
   5
73
 100
AcDbEntity
   8
0
 370
-2
 100
AcDbLine
   6
BYBLOCK
  62
0
  10
-0.50000000000000
  20
0.0
  30
0.0
  11
-1.0000000000000
  21
0.0
  31
0.0
   0
ENDBLK
   5
74
 100
AcDbEntity
   8
0
 100
AcDbBlockEnd
   0
BLOCK
   5
75
 100
AcDbEntity
   8
0
 100
AcDbBlockBegin
   2
_CLOSED
  70
0
  10
0.0
  20
0.0
  30
0.0
   3
_CLOSED
   0
LINE
   5
76
 100
AcDbEntity
   8
0
 370
-2
 100
AcDbLine
   6
BYBLOCK
  62
0
  10
-1.0000000000000
  20
 0.16666666666667
  30
0.0
  11
0.0
  21
0.0
  31
0.0
   0
LINE
   5
77
 100
AcDbEntity
   8
0
 370
-2
 100
AcDbLine
   6
BYBLOCK
  62
0
  10
0.0
  20
0.0
  30
0.0
  11
-1.0000000000000
  21
-0.16666666666667
  31
0.0
   0
LINE
   5
78
 100
AcDbEntity
   8
0
 370
-2
 100
AcDbLine
   6
BYBLOCK
  62
0
  10
-1.0000000000000
  20
 0.16666666666667
  30
0.0
  11
-1.0000000000000
  21
-0.16666666666667
  31
0.0
   0
LINE
   5
79
 100
AcDbEntity
   8
0
 370
-2
 100
AcDbLine
   6
BYBLOCK
  62
0
  10
0.0
  20
0.0
  30
0.0
  11
-1.0000000000000
  21
0.0
  31
0.0
   0
ENDBLK
   5
7A
 100
AcDbEntity
   8
0
 100
AcDbBlockEnd
   0
BLOCK
   5
7B
 100
AcDbEntity
   8
0
 100
AcDbBlockBegin
   2
_OPEN
  70
0
  10
0.0
  20
0.0
  30
0.0
   3
_OPEN
   0
LINE
   5
7C
 100
AcDbEntity
   8
0
 370
-2
 100
AcDbLine
   6
BYBLOCK
  62
0
  10
-1.0000000000000
  20
 0.16666666666667
  30
0.0
  11
0.0
  21
0.0
  31
0.0
   0
LINE
   5
7D
 100
AcDbEntity
   8
0
 370
-2
 100
AcDbLine
   6
BYBLOCK
  62
0
  10
0.0
  20
0.0
  30
0.0
  11
-1.0000000000000
  21
-0.16666666666667
  31
0.0
   0
LINE
   5
7E
 100
AcDbEntity
   8
0
 370
-2
 100
AcDbLine
   6
BYBLOCK
  62
0
  10
0.0
  20
0.0
  30
0.0
  11
-1.0000000000000
  21
0.0
  31
0.0
   0
ENDBLK
   5
7F
 100
AcDbEntity
   8
0
 100
AcDbBlockEnd
   0
BLOCK
   5
80
 100
AcDbEntity
   8
0
 100
AcDbBlockBegin
   2
_OPEN30
  70
0
  10
0.0
  20
0.0
  30
0.0
   3
_OPEN30
   0
LINE
   5
81
 100
AcDbEntity
   8
0
 370
-2
 100
AcDbLine
   6
BYBLOCK
  62
0
  10
-1.0000000000000
  20
 0.26794919243110
  30
0.0
  11
0.0
  21
0.0
  31
0.0
   0
LINE
   5
82
 100
AcDbEntity
   8
0
 370
-2
 100
AcDbLine
   6
BYBLOCK
  62
0
  10
0.0
  20
0.0
  30
0.0
  11
-1.0000000000000
  21
-0.26794919243110
  31
0.0
   0
LINE
   5
83
 100
AcDbEntity
   8
0
 370
-2
 100
AcDbLine
   6
BYBLOCK
  62
0
  10
0.0
  20
0.0
  30
0.0
  11
-1.0000000000000
  21
0.0
  31
0.0
   0
ENDBLK
   5
84
 100
AcDbEntity
   8
0
 100
AcDbBlockEnd
   0
BLOCK
   5
85
 100
AcDbEntity
   8
0
 100
AcDbBlockBegin
   2
_OPEN90
  70
0
  10
0.0
  20
0.0
  30
0.0
   3
_OPEN90
   0
LINE
   5
86
 100
AcDbEntity
   8
0
 370
-2
 100
AcDbLine
   6
BYBLOCK
  62
0
  10
-0.50000000000000
  20
 0.50000000000000
  30
0.0
  11
0.0
  21
0.0
  31
0.0
   0
LINE
   5
87
 100
AcDbEntity
   8
0
 370
-2
 100
AcDbLine
   6
BYBLOCK
  62
0
  10
0.0
  20
0.0
  30
0.0
  11
-0.50000000000000
  21
-0.50000000000000
  31
0.0
   0
LINE
   5
88
 100
AcDbEntity
   8
0
 370
-2
 100
AcDbLine
   6
BYBLOCK
  62
0
  10
0.0
  20
0.0
  30
0.0
  11
-1.0000000000000
  21
0.0
  31
0.0
   0
ENDBLK
   5
89
 100
AcDbEntity
   8
0
 100
AcDbBlockEnd
   0
BLOCK
   5
8A
 100
AcDbEntity
   8
0
 100
AcDbBlockBegin
   2
_CLOSEDBLANK
  70
0
  10
0.0
  20
0.0
  30
0.0
   3
_CLOSEDBLANK
   0
LINE
   5
8B
 100
AcDbEntity
   8
0
 370
-2
 100
AcDbLine
   6
BYBLOCK
  62
0
  10
-1.0000000000000
  20
 0.16666666666667
  30
0.0
  11
0.0
  21
0.0
  31
0.0
   0
LINE
   5
8C
 100
AcDbEntity
   8
0
 370
-2
 100
AcDbLine
   6
BYBLOCK
  62
0
  10
0.0
  20
0.0
  30
0.0
  11
-1.0000000000000
  21
-0.16666666666667
  31
0.0
   0
LINE
   5
8D
 100
AcDbEntity
   8
0
 370
-2
 100
AcDbLine
   6
BYBLOCK
  62
0
  10
-1.0000000000000
  20
 0.16666666666667
  30
0.0
  11
-1.0000000000000
  21
-0.16666666666667
  31
0.0
   0
ENDBLK
   5
8E
 100
AcDbEntity
   8
0
 100
AcDbBlockEnd
   0
BLOCK
   5
8F
 100
AcDbEntity
   8
0
 100
AcDbBlockBegin
   2
_DOT
  70
0
  10
0.0
  20
0.0
  30
0.0
   3
_DOT
   0
POLYLINE
   5
90
 100
AcDbEntity
   8
0
 370
-2
   6
BYBLOCK
  62
0
 100
AcDb2dPolyline
  66
1
  10
0.0
  20
0.0
  30
0.0
  70
1
  40
 0.50000000000000
  41
 0.50000000000000
   0
VERTEX
   5
91
 100
AcDbEntity
   8
0
   6
BYBLOCK
  62
0
 100
AcDbVertex
 100
AcDb2dVertex
  10
-0.25000000000000
  20
0.0
  30
0.0
  42
 1.0000000000000
  40
 0.50000000000000
  41
 0.50000000000000
   0
VERTEX
   5
92
 100
AcDbEntity
   8
0
   6
BYBLOCK
  62
0
 100
AcDbVertex
 100
AcDb2dVertex
  10
 0.25000000000000
  20
0.0
  30
0.0
  42
 1.0000000000000
  40
 0.50000000000000
  41
 0.50000000000000
   0
SEQEND
   5
93
 100
AcDbEntity
   8
0
   6
BYBLOCK
  62
0
   0
LINE
   5
94
 100
AcDbEntity
   8
0
 370
-2
 100
AcDbLine
   6
BYBLOCK
  62
0
  10
-0.50000000000000
  20
0.0
  30
0.0
  11
-1.0000000000000
  21
0.0
  31
0.0
   0
ENDBLK
   5
95
 100
AcDbEntity
   8
0
 100
AcDbBlockEnd
   0
BLOCK
   5
96
 100
AcDbEntity
   8
0
 100
AcDbBlockBegin
   2
_DOTSMALL
  70
0
  10
0.0
  20
0.0
  30
0.0
   3
_DOTSMALL
   0
POLYLINE
   5
97
 100
AcDbEntity
   8
0
 370
-2
   6
BYBLOCK
  62
0
 100
AcDb2dPolyline
  66
1
  10
0.0
  20
0.0
  30
0.0
  70
1
  40
 0.50000000000000
  41
 0.50000000000000
   0
VERTEX
   5
98
 100
AcDbEntity
   8
0
   6
BYBLOCK
  62
0
 100
AcDbVertex
 100
AcDb2dVertex
  10
-0.62500000000000E-1
  20
0.0
  30
0.0
  42
 1.0000000000000
  40
 0.50000000000000
  41
 0.50000000000000
   0
VERTEX
   5
99
 100
AcDbEntity
   8
0
   6
BYBLOCK
  62
0
 100
AcDbVertex
 100
AcDb2dVertex
  10
 0.62500000000000E-1
  20
0.0
  30
0.0
  42
 1.0000000000000
  40
 0.50000000000000
  41
 0.50000000000000
   0
SEQEND
   5
9A
 100
AcDbEntity
   8
0
   6
BYBLOCK
  62
0
   0
ENDBLK
   5
9B
 100
AcDbEntity
   8
0
 100
AcDbBlockEnd
   0
BLOCK
   5
9C
 100
AcDbEntity
   8
0
 100
AcDbBlockBegin
   2
_DATUMBLANK
  70
0
  10
0.0
  20
0.0
  30
0.0
   3
_DATUMBLANK
   0
LINE
   5
9D
 100
AcDbEntity
   8
0
 370
-2
 100
AcDbLine
   6
BYBLOCK
  62
0
  10
0.0
  20
 0.57735027000000
  30
0.0
  11
-1.0000000000000
  21
0.0
  31
0.0
   0
LINE
   5
9E
 100
AcDbEntity
   8
0
 370
-2
 100
AcDbLine
   6
BYBLOCK
  62
0
  10
-1.0000000000000
  20
0.0
  30
0.0
  11
0.0
  21
-0.57735027000000
  31
0.0
   0
LINE
   5
9F
 100
AcDbEntity
   8
0
 370
-2
 100
AcDbLine
   6
BYBLOCK
  62
0
  10
0.0
  20
-0.57735027000000
  30
0.0
  11
0.0
  21
 0.57735027000000
  31
0.0
   0
ENDBLK
   5
A0
 100
AcDbEntity
   8
0
 100
AcDbBlockEnd
   0
BLOCK
   5
A1
 100
AcDbEntity
   8
0
 100
AcDbBlockBegin
   2
_DATUMFILLED
  70
0
  10
0.0
  20
0.0
  30
0.0
   3
_DATUMFILLED
   0
SOLID
   5
A2
 100
AcDbEntity
   8
0
 100
AcDbTrace
   6
BYBLOCK
  62
0
  10
0.0
  20
 0.57735027000000
  30
0.0
  11
-1.0000000000000
  21
0.0
  31
0.0
  12
0.0
  22
-0.57735027000000
  32
0.0
  13
0.0
  23
-0.57735027000000
  33
0.0
   0
ENDBLK
   5
A3
 100
AcDbEntity
   8
0
 100
AcDbBlockEnd
   0
BLOCK
   5
A4
 100
AcDbEntity
   8
0
 100
AcDbBlockBegin
   2
_ORIGIN
  70
0
  10
0.0
  20
0.0
  30
0.0
   3
_ORIGIN
   0
CIRCLE
   5
A5
 100
AcDbEntity
   8
0
 370
-2
 100
AcDbCircle
   6
BYBLOCK
  62
0
  10
0.0
  20
0.0
  30
0.0
  40
 0.50000000000000
   0
LINE
   5
A6
 100
AcDbEntity
   8
0
 370
-2
 100
AcDbLine
   6
BYBLOCK
  62
0
  10
0.0
  20
0.0
  30
0.0
  11
-1.0000000000000
  21
0.0
  31
0.0
   0
ENDBLK
   5
A7
 100
AcDbEntity
   8
0
 100
AcDbBlockEnd
   0
BLOCK
   5
A8
 100
AcDbEntity
   8
0
 100
AcDbBlockBegin
   2
_NONE
  70
0
  10
0.0
  20
0.0
  30
0.0
   3
_NONE
   0
CIRCLE
   5
A9
 100
AcDbEntity
   8
0
 370
-2
 100
AcDbCircle
   6
BYBLOCK
  62
0
  10
0.0
  20
0.0
  30
0.0
  40
 0.25000000000000
   0
ENDBLK
   5
AA
 100
AcDbEntity
   8
0
 100
AcDbBlockEnd
   0
BLOCK
   5
AB
 100
AcDbEntity
   8
0
 100
AcDbBlockBegin
   2
_DOTBLANK
  70
0
  10
0.0
  20
0.0
  30
0.0
   3
_DOTBLANK
   0
CIRCLE
   5
AC
 100
AcDbEntity
   8
0
 370
-2
 100
AcDbCircle
   6
BYBLOCK
  62
0
  10
0.0
  20
0.0
  30
0.0
  40
 0.50000000000000
   0
LINE
   5
AD
 100
AcDbEntity
   8
0
 370
-2
 100
AcDbLine
   6
BYBLOCK
  62
0
  10
-0.50000000000000
  20
0.0
  30
0.0
  11
-1.0000000000000
  21
0.0
  31
0.0
   0
ENDBLK
   5
AE
 100
AcDbEntity
   8
0
 100
AcDbBlockEnd
   0
BLOCK
   5
AF
 100
AcDbEntity
   8
0
 100
AcDbBlockBegin
   2
_INTEGRAL
  70
0
  10
0.0
  20
0.0
  30
0.0
   3
_INTEGRAL
   0
ARC
   5
B0
 100
AcDbEntity
   8
0
 370
-2
   6
BYBLOCK
  62
0
 100
AcDbCircle
  10
 0.44488800000000
  20
-0.91335000000000E-1
  30
0.0
  40
 0.45416700000000
 100
AcDbArc
  50
 102.00000000000
  51
 168.00000000000
   0
ARC
   5
B1
 100
AcDbEntity
   8
0
 370
-2
   6
BYBLOCK
  62
0
 100
AcDbCircle
  10
-0.44488800000000
  20
 0.91335000000000E-1
  30
0.0
  40
 0.45416700000000
 100
AcDbArc
  50
 282.00000000000
  51
 348.00000000000
   0
ENDBLK
   5
B2
 100
AcDbEntity
   8
0
 100
AcDbBlockEnd
   0
BLOCK
   5
B3
 100
AcDbEntity
   8
0
 100
AcDbBlockBegin
   2
*D12
  70
65
  10
0.0
  20
0.0
  30
0.0
   3
*D12
   0
LINE
   5
B4
 100
AcDbEntity
   8
LEVEL002
 370
13
 100
AcDbLine
   6
CONTINUOUS
  62
6
  10
 2565.0571362604
  20
 460.97558786959
  30
0.0
  11
 2565.0571362604
  21
 260.97558786959
  31
0.0
   0
LINE
   5
B5
 100
AcDbEntity
   8
LEVEL002
 370
13
 100
AcDbLine
   6
CONTINUOUS
  62
6
  10
 3065.0571362604
  20
 460.97558786959
  30
0.0
  11
 3065.0571362604
  21
 260.97558786959
  31
0.0
   0
LINE
   5
B6
 100
AcDbEntity
   8
LEVEL002
 370
13
 100
AcDbLine
   6
CONTINUOUS
  62
6
  10
 2565.0571362604
  20
 290.97558786959
  30
0.0
  11
 2815.0571362604
  21
 290.97558786959
  31
0.0
   0
LINE
   5
B7
 100
AcDbEntity
   8
LEVEL002
 370
13
 100
AcDbLine
   6
CONTINUOUS
  62
6
  10
 3065.0571362604
  20
 290.97558786959
  30
0.0
  11
 2815.0571362604
  21
 290.97558786959
  31
0.0
   0
INSERT
   5
B8
 100
AcDbEntity
   8
LEVEL002
   6
CONTINUOUS
  62
6
 100
AcDbBlockReference
   2
_OPEN
  10
 2565.0571362604
  20
 290.97558786959
  30
0.0
  41
 42.000000000000
  42
 42.000000000000
  43
 42.000000000000
  50
 180.00000000000
   0
INSERT
   5
B9
 100
AcDbEntity
   8
LEVEL002
   6
CONTINUOUS
  62
6
 100
AcDbBlockReference
   2
_OPEN
  10
 3065.0571362604
  20
 290.97558786959
  30
0.0
  41
 42.000000000000
  42
 42.000000000000
  43
 42.000000000000
  50
0.0
   0
MTEXT
   5
BA
 100
AcDbEntity
   8
LEVEL002
 370
13
  62
1
 100
AcDbMText
  10
 2815.0571362604
  20
 304.97558786959
  30
0.0
  40
 60.000000000000
  41
0.0
  71
8
  72
1
   1
\A1;□500
   7
GMM002
   0
ENDBLK
   5
BB
 100
AcDbEntity
   8
0
 100
AcDbBlockEnd
   0
BLOCK
   5
BC
 100
AcDbEntity
   8
0
 100
AcDbBlockBegin
   2
*D16
  70
65
  10
0.0
  20
0.0
  30
0.0
   3
*D16
   0
LINE
   5
BD
 100
AcDbEntity
   8
LEVEL001
 370
13
 100
AcDbLine
   6
CONTINUOUS
  62
6
  10
 985.05713626035
  20
 1790.9755878695
  30
0.0
  11
 735.05713626035
  21
 1790.9755878695
  31
0.0
   0
LINE
   5
BE
 100
AcDbEntity
   8
LEVEL001
 370
13
 100
AcDbLine
   6
CONTINUOUS
  62
6
  10
 1235.0571362604
  20
 590.97558786953
  30
0.0
  11
 735.05713626035
  21
 590.97558786953
  31
0.0
   0
LINE
   5
BF
 100
AcDbEntity
   8
LEVEL001
 370
13
 100
AcDbLine
   6
CONTINUOUS
  62
6
  10
 765.05713626035
  20
 1790.9755878695
  30
0.0
  11
 765.05713626035
  21
 1190.9755878695
  31
0.0
   0
LINE
   5
C0
 100
AcDbEntity
   8
LEVEL001
 370
13
 100
AcDbLine
   6
CONTINUOUS
  62
6
  10
 765.05713626035
  20
 590.97558786953
  30
0.0
  11
 765.05713626035
  21
 1190.9755878695
  31
0.0
   0
INSERT
   5
C1
 100
AcDbEntity
   8
LEVEL001
   6
CONTINUOUS
  62
6
 100
AcDbBlockReference
   2
_OPEN
  10
 765.05713626035
  20
 1790.9755878695
  30
0.0
  41
 42.000000000000
  42
 42.000000000000
  43
 42.000000000000
  50
 90.000000000000
   0
INSERT
   5
C2
 100
AcDbEntity
   8
LEVEL001
   6
CONTINUOUS
  62
6
 100
AcDbBlockReference
   2
_OPEN
  10
 765.05713626035
  20
 590.97558786953
  30
0.0
  41
 42.000000000000
  42
 42.000000000000
  43
 42.000000000000
  50
 270.00000000000
   0
MTEXT
   5
C3
 100
AcDbEntity
   8
LEVEL001
 370
13
  62
1
 100
AcDbMText
  10
 739.34285054607
  20
 1190.9755878695
  30
0.0
  40
 60.000000000000
  41
0.0
  71
8
  72
1
   1
\A1;1200
   7
GMM002
  11
0.0
  21
 1.0000000000000
  31
0.0
   0
ENDBLK
   5
C4
 100
AcDbEntity
   8
0
 100
AcDbBlockEnd
   0
BLOCK
   5
C5
 100
AcDbEntity
   8
0
 100
AcDbBlockBegin
   2
*D17
  70
65
  10
0.0
  20
0.0
  30
0.0
   3
*D17
   0
LINE
   5
C6
 100
AcDbEntity
   8
LEVEL001
 370
13
 100
AcDbLine
   6
CONTINUOUS
  62
6
  10
 1235.0571362604
  20
 590.97558786953
  30
0.0
  11
 735.05713626035
  21
 590.97558786953
  31
0.0
   0
LINE
   5
C7
 100
AcDbEntity
   8
LEVEL001
 370
13
 100
AcDbLine
   6
CONTINUOUS
  62
6
  10
 1235.0571362604
  20
 490.97558786953
  30
0.0
  11
 735.05713626035
  21
 490.97558786953
  31
0.0
   0
LINE
   5
C8
 100
AcDbEntity
   8
LEVEL001
 370
13
 100
AcDbLine
   6
CONTINUOUS
  62
6
  10
 765.05713626035
  20
 590.97558786953
  30
0.0
  11
 765.05713626035
  21
 540.97558786953
  31
0.0
   0
LINE
   5
C9
 100
AcDbEntity
   8
LEVEL001
 370
13
 100
AcDbLine
   6
CONTINUOUS
  62
6
  10
 765.05713626035
  20
 490.97558786953
  30
0.0
  11
 765.05713626035
  21
 540.97558786953
  31
0.0
   0
INSERT
   5
CA
 100
AcDbEntity
   8
LEVEL001
   6
CONTINUOUS
  62
6
 100
AcDbBlockReference
   2
_OPEN
  10
 765.05713626035
  20
 590.97558786953
  30
0.0
  41
 42.000000000000
  42
 42.000000000000
  43
 42.000000000000
  50
 90.000000000000
   0
INSERT
   5
CB
 100
AcDbEntity
   8
LEVEL001
   6
CONTINUOUS
  62
6
 100
AcDbBlockReference
   2
_OPEN
  10
 765.05713626035
  20
 490.97558786953
  30
0.0
  41
 42.000000000000
  42
 42.000000000000
  43
 42.000000000000
  50
 270.00000000000
   0
MTEXT
   5
CC
 100
AcDbEntity
   8
LEVEL001
 370
13
  62
1
 100
AcDbMText
  10
 739.34285054607
  20
 540.97558786953
  30
0.0
  40
 60.000000000000
  41
0.0
  71
8
  72
1
   1
\A1;100
   7
GMM002
  11
0.0
  21
 1.0000000000000
  31
0.0
   0
ENDBLK
   5
CD
 100
AcDbEntity
   8
0
 100
AcDbBlockEnd
   0
BLOCK
   5
CE
 100
AcDbEntity
   8
0
 100
AcDbBlockBegin
   2
*D18
  70
65
  10
0.0
  20
0.0
  30
0.0
   3
*D18
   0
LINE
   5
CF
 100
AcDbEntity
   8
LEVEL002
 370
13
 100
AcDbLine
   6
CONTINUOUS
  62
6
  10
 1265.0571362604
  20
 460.97558786953
  30
0.0
  11
 1265.0571362604
  21
 260.97558786953
  31
0.0
   0
LINE
   5
D0
 100
AcDbEntity
   8
LEVEL002
 370
13
 100
AcDbLine
   6
CONTINUOUS
  62
6
  10
 1765.0571362604
  20
 460.97558786953
  30
0.0
  11
 1765.0571362604
  21
 260.97558786953
  31
0.0
   0
LINE
   5
D1
 100
AcDbEntity
   8
LEVEL002
 370
13
 100
AcDbLine
   6
CONTINUOUS
  62
6
  10
 1265.0571362604
  20
 290.97558786953
  30
0.0
  11
 1515.0571362604
  21
 290.97558786953
  31
0.0
   0
LINE
   5
D2
 100
AcDbEntity
   8
LEVEL002
 370
13
 100
AcDbLine
   6
CONTINUOUS
  62
6
  10
 1765.0571362604
  20
 290.97558786953
  30
0.0
  11
 1515.0571362604
  21
 290.97558786953
  31
0.0
   0
INSERT
   5
D3
 100
AcDbEntity
   8
LEVEL002
   6
CONTINUOUS
  62
6
 100
AcDbBlockReference
   2
_OPEN
  10
 1265.0571362604
  20
 290.97558786953
  30
0.0
  41
 42.000000000000
  42
 42.000000000000
  43
 42.000000000000
  50
 180.00000000000
   0
INSERT
   5
D4
 100
AcDbEntity
   8
LEVEL002
   6
CONTINUOUS
  62
6
 100
AcDbBlockReference
   2
_OPEN
  10
 1765.0571362604
  20
 290.97558786953
  30
0.0
  41
 42.000000000000
  42
 42.000000000000
  43
 42.000000000000
  50
0.0
   0
MTEXT
   5
D5
 100
AcDbEntity
   8
LEVEL002
 370
13
  62
1
 100
AcDbMText
  10
 1515.0571362604
  20
 304.97558786953
  30
0.0
  40
 60.000000000000
  41
0.0
  71
8
  72
1
   1
\A1;□500
   7
GMM002
   0
ENDBLK
   5
D6
 100
AcDbEntity
   8
0
 100
AcDbBlockEnd
   0
BLOCK
   5
D7
 100
AcDbEntity
   8
0
 100
AcDbBlockBegin
   2
*D19
  70
65
  10
0.0
  20
0.0
  30
0.0
   3
*D19
   0
LINE
   5
D8
 100
AcDbEntity
   8
LEVEL001
 370
13
 100
AcDbLine
   6
CONTINUOUS
  62
6
  10
 985.05713626035
  20
 1790.9755878695
  30
0.0
  11
 735.05713626035
  21
 1790.9755878695
  31
0.0
   0
LINE
   5
D9
 100
AcDbEntity
   8
LEVEL001
 370
13
 100
AcDbLine
   6
CONTINUOUS
  62
6
  10
 1010.0571362604
  20
 4290.9755878695
  30
0.0
  11
 735.05713626035
  21
 4290.9755878695
  31
0.0
   0
LINE
   5
DA
 100
AcDbEntity
   8
LEVEL001
 370
13
 100
AcDbLine
   6
CONTINUOUS
  62
6
  10
 765.05713626035
  20
 1790.9755878695
  30
0.0
  11
 765.05713626035
  21
 3040.9755878695
  31
0.0
   0
LINE
   5
DB
 100
AcDbEntity
   8
LEVEL001
 370
13
 100
AcDbLine
   6
CONTINUOUS
  62
6
  10
 765.05713626035
  20
 4290.9755878695
  30
0.0
  11
 765.05713626035
  21
 3040.9755878695
  31
0.0
   0
INSERT
   5
DC
 100
AcDbEntity
   8
LEVEL001
   6
CONTINUOUS
  62
6
 100
AcDbBlockReference
   2
_OPEN
  10
 765.05713626035
  20
 1790.9755878695
  30
0.0
  41
 42.000000000000
  42
 42.000000000000
  43
 42.000000000000
  50
 270.00000000000
   0
INSERT
   5
DD
 100
AcDbEntity
   8
LEVEL001
   6
CONTINUOUS
  62
6
 100
AcDbBlockReference
   2
_OPEN
  10
 765.05713626035
  20
 4290.9755878695
  30
0.0
  41
 42.000000000000
  42
 42.000000000000
  43
 42.000000000000
  50
 90.000000000000
   0
MTEXT
   5
DE
 100
AcDbEntity
   8
LEVEL001
 370
13
  62
1
 100
AcDbMText
  10
 739.34285054607
  20
 3040.9755878695
  30
0.0
  40
 60.000000000000
  41
0.0
  71
8
  72
1
   1
\A1;2500(標準設置高さ)
   7
GMM002
  11
0.0
  21
 1.0000000000000
  31
0.0
   0
ENDBLK
   5
DF
 100
AcDbEntity
   8
0
 100
AcDbBlockEnd
   0
BLOCK
   5
E0
 100
AcDbEntity
   8
0
 100
AcDbBlockBegin
   2
*D20
  70
65
  10
0.0
  20
0.0
  30
0.0
   3
*D20
   0
LINE
   5
E1
 100
AcDbEntity
   8
LEVEL002
 370
13
 100
AcDbLine
   6
CONTINUOUS
  62
6
  10
 2565.0571362604
  20
 460.97558786959
  30
0.0
  11
 2565.0571362604
  21
 260.97558786959
  31
0.0
   0
LINE
   5
E2
 100
AcDbEntity
   8
LEVEL002
 370
13
 100
AcDbLine
   6
CONTINUOUS
  62
6
  10
 3065.0571362604
  20
 460.97558786959
  30
0.0
  11
 3065.0571362604
  21
 260.97558786959
  31
0.0
   0
LINE
   5
E3
 100
AcDbEntity
   8
LEVEL002
 370
13
 100
AcDbLine
   6
CONTINUOUS
  62
6
  10
 2565.0571362604
  20
 290.97558786959
  30
0.0
  11
 2815.0571362604
  21
 290.97558786959
  31
0.0
   0
LINE
   5
E4
 100
AcDbEntity
   8
LEVEL002
 370
13
 100
AcDbLine
   6
CONTINUOUS
  62
6
  10
 3065.0571362604
  20
 290.97558786959
  30
0.0
  11
 2815.0571362604
  21
 290.97558786959
  31
0.0
   0
INSERT
   5
E5
 100
AcDbEntity
   8
LEVEL002
   6
CONTINUOUS
  62
6
 100
AcDbBlockReference
   2
_OPEN
  10
 2565.0571362604
  20
 290.97558786959
  30
0.0
  41
 42.000000000000
  42
 42.000000000000
  43
 42.000000000000
  50
 180.00000000000
   0
INSERT
   5
E6
 100
AcDbEntity
   8
LEVEL002
   6
CONTINUOUS
  62
6
 100
AcDbBlockReference
   2
_OPEN
  10
 3065.0571362604
  20
 290.97558786959
  30
0.0
  41
 42.000000000000
  42
 42.000000000000
  43
 42.000000000000
  50
0.0
   0
MTEXT
   5
E7
 100
AcDbEntity
   8
LEVEL002
 370
13
  62
1
 100
AcDbMText
  10
 2815.0571362604
  20
 304.97558786959
  30
0.0
  40
 60.000000000000
  41
0.0
  71
8
  72
1
   1
\A1;□500
   7
GMM002
   0
ENDBLK
   5
E8
 100
AcDbEntity
   8
0
 100
AcDbBlockEnd
   0
BLOCK
   5
E9
 100
AcDbEntity
   8
0
 100
AcDbBlockBegin
   2
*D21
  70
65
  10
0.0
  20
0.0
  30
0.0
   3
*D21
   0
LINE
   5
EA
 100
AcDbEntity
   8
LEVEL001
 370
13
 100
AcDbLine
   6
CONTINUOUS
  62
6
  10
 2815.0571362604
  20
 1720.9755878679
  30
0.0
  11
 2815.0571362604
  21
 2620.9755878695
  31
0.0
   0
LINE
   5
EB
 100
AcDbEntity
   8
LEVEL001
 370
13
 100
AcDbLine
   6
CONTINUOUS
  62
6
  10
 3215.0571362604
  20
 2220.9755878679
  30
0.0
  11
 3215.0571362604
  21
 2620.9755878695
  31
0.0
   0
LINE
   5
EC
 100
AcDbEntity
   8
LEVEL001
 370
13
 100
AcDbLine
   6
CONTINUOUS
  62
6
  10
 2815.0571362604
  20
 2590.9755878695
  30
0.0
  11
 3015.0571362604
  21
 2590.9755878695
  31
0.0
   0
LINE
   5
ED
 100
AcDbEntity
   8
LEVEL001
 370
13
 100
AcDbLine
   6
CONTINUOUS
  62
6
  10
 3215.0571362604
  20
 2590.9755878695
  30
0.0
  11
 3015.0571362604
  21
 2590.9755878695
  31
0.0
   0
INSERT
   5
EE
 100
AcDbEntity
   8
LEVEL001
   6
CONTINUOUS
  62
6
 100
AcDbBlockReference
   2
_OPEN
  10
 2815.0571362604
  20
 2590.9755878695
  30
0.0
  41
 42.000000000000
  42
 42.000000000000
  43
 42.000000000000
  50
 180.00000000000
   0
INSERT
   5
EF
 100
AcDbEntity
   8
LEVEL001
   6
CONTINUOUS
  62
6
 100
AcDbBlockReference
   2
_OPEN
  10
 3215.0571362604
  20
 2590.9755878695
  30
0.0
  41
 42.000000000000
  42
 42.000000000000
  43
 42.000000000000
  50
0.0
   0
MTEXT
   5
F0
 100
AcDbEntity
   8
LEVEL001
 370
13
  62
1
 100
AcDbMText
  10
 3015.0571362604
  20
 2616.6898735838
  30
0.0
  40
 60.000000000000
  41
0.0
  71
8
  72
1
   1
\A1;400
   7
GMM002
   0
ENDBLK
   5
F1
 100
AcDbEntity
   8
0
 100
AcDbBlockEnd
   0
BLOCK
   5
F2
 100
AcDbEntity
   8
0
 100
AcDbBlockBegin
   2
*D22
  70
65
  10
0.0
  20
0.0
  30
0.0
   3
*D22
   0
LINE
   5
F3
 100
AcDbEntity
   8
LEVEL002
 370
13
 100
AcDbLine
   6
CONTINUOUS
  62
6
  10
 689.31678010771
  20
 4520.9755878695
  30
0.0
  11
 1040.0570686404
  21
 4723.4755878695
  31
0.0
   0
LINE
   5
F4
 100
AcDbEntity
   8
LEVEL002
 370
13
 100
AcDbLine
   6
CONTINUOUS
  62
6
  10
 1040.0570686404
  20
 4723.4755878695
  30
0.0
  11
 1390.7973571732
  21
 4925.9755878695
  31
0.0
   0
INSERT
   5
F5
 100
AcDbEntity
   8
LEVEL002
   6
CONTINUOUS
  62
6
 100
AcDbBlockReference
   2
_OPEN
  10
 689.31678010771
  20
 4520.9755878695
  30
0.0
  41
 42.000000000000
  42
 42.000000000000
  43
 42.000000000000
  50
 210.00000000000
   0
INSERT
   5
F6
 100
AcDbEntity
   8
LEVEL002
   6
CONTINUOUS
  62
6
 100
AcDbBlockReference
   2
_OPEN
  10
 1390.7973571732
  20
 4925.9755878695
  30
0.0
  41
 42.000000000000
  42
 42.000000000000
  43
 42.000000000000
  50
 29.999999999997
   0
MTEXT
   5
F7
 100
AcDbEntity
   8
LEVEL002
 370
13
  62
1
 100
AcDbMText
  10
 1033.0570686404
  20
 4735.5999435225
  30
0.0
  40
 60.000000000000
  41
0.0
  71
8
  72
1
   1
\A1;%%c800
   7
GMM002
  11
 0.86602540378446
  21
 0.49999999999996
  31
0.0
   0
ENDBLK
   5
F8
 100
AcDbEntity
   8
0
 100
AcDbBlockEnd
   0
BLOCK
   5
F9
 100
AcDbEntity
   8
0
 100
AcDbBlockBegin
   2
*D23
  70
65
  10
0.0
  20
0.0
  30
0.0
   3
*D23
   0
LINE
   5
FA
 100
AcDbEntity
   8
LEVEL002
 370
13
 100
AcDbLine
   6
CONTINUOUS
  62
6
  10
 1639.3167801077
  20
 4520.9755878695
  30
0.0
  11
 1990.0570686404
  21
 4723.4755878695
  31
0.0
   0
LINE
   5
FB
 100
AcDbEntity
   8
LEVEL002
 370
13
 100
AcDbLine
   6
CONTINUOUS
  62
6
  10
 1990.0570686404
  20
 4723.4755878695
  30
0.0
  11
 2340.7973571732
  21
 4925.9755878695
  31
0.0
   0
INSERT
   5
FC
 100
AcDbEntity
   8
LEVEL002
   6
CONTINUOUS
  62
6
 100
AcDbBlockReference
   2
_OPEN
  10
 1639.3167801077
  20
 4520.9755878695
  30
0.0
  41
 42.000000000000
  42
 42.000000000000
  43
 42.000000000000
  50
 210.00000000000
   0
INSERT
   5
FD
 100
AcDbEntity
   8
LEVEL002
   6
CONTINUOUS
  62
6
 100
AcDbBlockReference
   2
_OPEN
  10
 2340.7973571732
  20
 4925.9755878695
  30
0.0
  41
 42.000000000000
  42
 42.000000000000
  43
 42.000000000000
  50
 29.999999999997
   0
MTEXT
   5
FE
 100
AcDbEntity
   8
LEVEL002
 370
13
  62
1
 100
AcDbMText
  10
 1983.0570686404
  20
 4735.5999435225
  30
0.0
  40
 60.000000000000
  41
0.0
  71
8
  72
1
   1
\A1;%%c800
   7
GMM002
  11
 0.86602540378446
  21
 0.49999999999996
  31
0.0
   0
ENDBLK
   5
FF
 100
AcDbEntity
   8
0
 100
AcDbBlockEnd
   0
ENDSEC
   0
SECTION
   2
ENTITIES
   0
LINE
   5
100
 100
AcDbEntity
   8
LEVEL002
 370
13
 100
AcDbLine
   6
CONTINUOUS
  62
7
  10
 8115.0571362604
  20
 5723.4755878695
  30
0.0
  11
 315.05713626035
  21
 5723.4755878695
  31
0.0
   0
LINE
   5
101
 100
AcDbEntity
   8
LEVEL002
 370
13
 100
AcDbLine
   6
CONTINUOUS
  62
7
  10
 315.05713626035
  20
 5723.4755878695
  30
0.0
  11
 315.05713626035
  21
 223.47558786953
  31
0.0
   0
LINE
   5
102
 100
AcDbEntity
   8
LEVEL002
 370
13
 100
AcDbLine
   6
CONTINUOUS
  62
7
  10
 315.05713626035
  20
 223.47558786953
  30
0.0
  11
 8115.0571362604
  21
 223.47558786953
  31
0.0
   0
LINE
   5
103
 100
AcDbEntity
   8
LEVEL002
 370
13
 100
AcDbLine
   6
CONTINUOUS
  62
7
  10
 8115.0571362604
  20
 223.47558786953
  30
0.0
  11
 8115.0571362604
  21
 5723.4755878695
  31
0.0
   0
LINE
   5
104
 100
AcDbEntity
   8
LEVEL002
 370
13
 100
AcDbLine
   6
CONTINUOUS
  62
2
  10
 5475.0571362604
  20
 703.47558786953
  30
0.0
  11
 7155.0571362604
  21
 703.47558786953
  31
0.0
   0
POINT
   5
105
 100
AcDbEntity
   8
LEVEL002
 100
AcDbPoint
  62
3
  10
 6415.0571362604
  20
 763.47558786953
  30
0.0
   0
POINT
   5
106
 100
AcDbEntity
   8
LEVEL002
 100
AcDbPoint
  62
3
  10
 6315.0571362604
  20
 763.47558786953
  30
0.0
   0
POINT
   5
107
 100
AcDbEntity
   8
LEVEL002
 100
AcDbPoint
  62
3
  10
 6415.0571362604
  20
 863.47558786953
  30
0.0
   0
MTEXT
   5
108
 100
AcDbEntity
   8
LEVEL002
 370
13
  62
1
 100
AcDbMText
  10
 5647.0571362604
  20
 983.47558786953
  30
0.0
  40
 51.428571428572
  41
0.0
  71
6
  72
1
   1
\T1.000000;１６
   7
GMM001
  44
 0.79999984000003
   0
MTEXT
   5
109
 100
AcDbEntity
   8
LEVEL002
 370
13
  62
1
 100
AcDbMText
  10
 6805.0571362604
  20
 1340.6228032613
  30
0.0
  40
 51.428571428572
  41
0.0
  71
4
  72
1
   1
\T1.000000;ＰＥ
   7
GMM001
  44
 0.79999984000003
   0
MTEXT
   5
10A
 100
AcDbEntity
   8
LEVEL002
 370
13
  62
1
 100
AcDbMText
  10
 5715.0571362604
  20
 983.47558786953
  30
0.0
  40
 51.428571428572
  41
0.0
  71
4
  72
1
   1
\T1.000000;同上ボルトナット
   7
GMM001
  44
 0.79999984000003
   0
MTEXT
   5
10B
 100
AcDbEntity
   8
LEVEL002
 370
13
  62
1
 100
AcDbMText
  10
 5647.0571362604
  20
 1103.4755878695
  30
0.0
  40
 51.428571428572
  41
0.0
  71
6
  72
1
   1
\T1.000000;１５
   7
GMM001
  44
 0.79999984000003
   0
MTEXT
   5
10C
 100
AcDbEntity
   8
LEVEL002
 370
13
  62
1
 100
AcDbMText
  10
 5715.0571362604
  20
 1103.4755878695
  30
0.0
  40
 51.428571428572
  41
0.0
  71
4
  72
1
   1
\T1.000000;注意板取付バンド
   7
GMM001
  44
 0.79999984000003
   0
LINE
   5
10D
 100
AcDbEntity
   8
LEVEL002
 370
13
 100
AcDbLine
   6
CONTINUOUS
  62
6
  10
 5475.0571362604
  20
 1043.4755878695
  30
0.0
  11
 8115.0571362604
  21
 1043.4755878695
  31
0.0
   0
MTEXT
   5
10E
 100
AcDbEntity
   8
LEVEL002
 370
13
  62
1
 100
AcDbMText
  10
 5647.0571362604
  20
 1223.4755878695
  30
0.0
  40
 51.428571428572
  41
0.0
  71
6
  72
1
   1
\T1.000000;１４
   7
GMM001
  44
 0.79999984000003
   0
MTEXT
   5
10F
 100
AcDbEntity
   8
LEVEL002
 370
13
  62
1
 100
AcDbMText
  10
 6727.0571362604
  20
 1223.4755878695
  30
0.0
  40
 51.428571428572
  41
0.0
  71
6
  72
1
   1
\T1.000000;１
   7
GMM001
  44
 0.79999984000003
   0
LINE
   5
110
 100
AcDbEntity
   8
LEVEL002
 370
13
 100
AcDbLine
   6
CONTINUOUS
  62
6
  10
 5475.0571362604
  20
 1163.4755878695
  30
0.0
  11
 8115.0571362604
  21
 1163.4755878695
  31
0.0
   0
LINE
   5
111
 100
AcDbEntity
   8
LEVEL002
 370
13
 100
AcDbLine
   6
CONTINUOUS
  62
6
  10
 5475.0571362604
  20
 1283.4755878695
  30
0.0
  11
 8115.0571362604
  21
 1283.4755878695
  31
0.0
   0
MTEXT
   5
112
 100
AcDbEntity
   8
LEVEL002
 370
13
  62
1
 100
AcDbMText
  10
 5647.0571362604
  20
 1343.4755878695
  30
0.0
  40
 51.428571428572
  41
0.0
  71
6
  72
1
   1
\T1.000000;１３
   7
GMM001
  44
 0.79999984000003
   0
MTEXT
   5
113
 100
AcDbEntity
   8
LEVEL002
 370
13
  62
1
 100
AcDbMText
  10
 5715.0571362604
  20
 1343.4755878695
  30
0.0
  40
 51.428571428572
  41
0.0
  71
4
  72
1
   1
\T1.000000;キャップ
   7
GMM001
  44
 0.79999984000003
   0
MTEXT
   5
114
 100
AcDbEntity
   8
LEVEL002
 370
13
  62
1
 100
AcDbMText
  10
 6727.0571362604
  20
 1343.4755878695
  30
0.0
  40
 51.428571428572
  41
0.0
  71
6
  72
1
   1
\T1.000000;１
   7
GMM001
  44
 0.79999984000003
   0
MTEXT
   5
115
 100
AcDbEntity
   8
LEVEL002
 370
13
  62
1
 100
AcDbMText
  10
 5647.0571362604
  20
 1463.4755878695
  30
0.0
  40
 51.428571428572
  41
0.0
  71
6
  72
1
   1
\T1.000000;１２
   7
GMM001
  44
 0.79999984000003
   0
MTEXT
   5
116
 100
AcDbEntity
   8
LEVEL002
 370
13
  62
1
 100
AcDbMText
  10
 5715.0571362604
  20
 1463.4755878695
  30
0.0
  40
 51.428571428572
  41
0.0
  71
4
  72
1
   1
\T1.000000;根入れ鉄筋
   7
GMM001
  44
 0.79999984000003
   0
MTEXT
   5
117
 100
AcDbEntity
   8
LEVEL002
 370
13
  62
1
 100
AcDbMText
  10
 6795.0571362604
  20
 1463.4755878695
  30
0.0
  40
 51.428571428572
  41
0.0
  71
4
  72
1
   1
\T1.000000;ＳＤ２９５Ａ
   7
GMM001
  44
 0.79999984000003
   0
LINE
   5
118
 100
AcDbEntity
   8
LEVEL002
 370
13
 100
AcDbLine
   6
CONTINUOUS
  62
6
  10
 5475.0571362604
  20
 1403.4755878695
  30
0.0
  11
 8115.0571362604
  21
 1403.4755878695
  31
0.0
   0
LINE
   5
119
 100
AcDbEntity
   8
LEVEL002
 370
13
 100
AcDbLine
   6
CONTINUOUS
  62
6
  10
 5475.0571362604
  20
 1523.4755878695
  30
0.0
  11
 8115.0571362604
  21
 1523.4755878695
  31
0.0
   0
CIRCLE
   5
11A
 100
AcDbEntity
   8
LEVEL002
 370
13
 100
AcDbCircle
   6
CONTINUOUS
  62
7
  10
 4515.0571362604
  20
 4723.4755878695
  30
0.0
  40
 432.50000000000
   0
CIRCLE
   5
11B
 100
AcDbEntity
   8
LEVEL002
 370
13
 100
AcDbCircle
   6
CONTINUOUS
  62
7
  10
 4338.2804409638
  20
 4900.2522831661
  30
0.0
  40
 47.500000000000
   0
CIRCLE
   5
11C
 100
AcDbEntity
   8
LEVEL002
 370
13
 100
AcDbCircle
   6
CONTINUOUS
  62
6
  10
 4338.2804409638
  20
 4900.2522831661
  30
0.0
  40
 65.000000000000
   0
CIRCLE
   5
11D
 100
AcDbEntity
   8
LEVEL002
 370
13
 100
AcDbCircle
   6
CONTINUOUS
  62
7
  10
 4691.8338315570
  20
 4900.2522831661
  30
0.0
  40
 47.500000000000
   0
CIRCLE
   5
11E
 100
AcDbEntity
   8
LEVEL002
 370
13
 100
AcDbCircle
   6
CONTINUOUS
  62
6
  10
 4691.8338315570
  20
 4900.2522831661
  30
0.0
  40
 65.000000000000
   0
CIRCLE
   5
11F
 100
AcDbEntity
   8
LEVEL002
 370
13
 100
AcDbCircle
   6
CONTINUOUS
  62
7
  10
 4691.8338315570
  20
 4546.6988925727
  30
0.0
  40
 47.500000000000
   0
CIRCLE
   5
120
 100
AcDbEntity
   8
LEVEL002
 370
13
 100
AcDbCircle
   6
CONTINUOUS
  62
6
  10
 4691.8338315570
  20
 4546.6988925727
  30
0.0
  40
 65.000000000000
   0
CIRCLE
   5
121
 100
AcDbEntity
   8
LEVEL002
 370
13
 100
AcDbCircle
   6
CONTINUOUS
  62
7
  10
 4338.2804409638
  20
 4546.6988925727
  30
0.0
  40
 47.500000000000
   0
CIRCLE
   5
122
 100
AcDbEntity
   8
LEVEL002
 370
13
 100
AcDbCircle
   6
CONTINUOUS
  62
6
  10
 4338.2804409638
  20
 4546.6988925727
  30
0.0
  40
 65.000000000000
   0
ARC
   5
123
 100
AcDbEntity
   8
LEVEL002
 370
13
   6
CONTINUOUS
  62
7
 100
AcDbCircle
  10
 4857.5571362604
  20
 4723.4755878695
  30
0.0
  40
 17.500000000000
 100
AcDbArc
  50
0.0
  51
 90.000000000012
   0
POINT
   5
124
 100
AcDbEntity
   8
LEVEL002
 100
AcDbPoint
  62
7
  10
 4875.0571362604
  20
 4740.9755878695
  30
0.0
   0
ARC
   5
125
 100
AcDbEntity
   8
LEVEL002
 370
13
   6
CONTINUOUS
  62
7
 100
AcDbCircle
  10
 4857.5571362604
  20
 4723.4755878695
  30
0.0
  40
 17.500000000000
 100
AcDbArc
  50
 269.99999999999
  51
0.0
   0
POINT
   5
126
 100
AcDbEntity
   8
LEVEL002
 100
AcDbPoint
  62
7
  10
 4875.0571362604
  20
 4705.9755878695
  30
0.0
   0
ARC
   5
127
 100
AcDbEntity
   8
LEVEL002
 370
13
   6
CONTINUOUS
  62
6
 100
AcDbCircle
  10
 4857.5571362604
  20
 4723.4755878695
  30
0.0
  40
 35.000000000000
 100
AcDbArc
  50
0.0
  51
 90.000000000006
   0
POINT
   5
128
 100
AcDbEntity
   8
LEVEL002
 100
AcDbPoint
  62
6
  10
 4892.5571362604
  20
 4758.4755878695
  30
0.0
   0
ARC
   5
129
 100
AcDbEntity
   8
LEVEL002
 370
13
   6
CONTINUOUS
  62
6
 100
AcDbCircle
  10
 4857.5571362604
  20
 4723.4755878695
  30
0.0
  40
 35.000000000000
 100
AcDbArc
  50
 270.00000000000
  51
0.0
   0
POINT
   5
12A
 100
AcDbEntity
   8
LEVEL002
 100
AcDbPoint
  62
6
  10
 4892.5571362604
  20
 4688.4755878695
  30
0.0
   0
ARC
   5
12B
 100
AcDbEntity
   8
LEVEL002
 370
13
   6
CONTINUOUS
  62
7
 100
AcDbCircle
  10
 4515.0571362604
  20
 5065.9755878695
  30
0.0
  40
 17.500000000000
 100
AcDbArc
  50
 90.000000000000
  51
 180.00000000000
   0
POINT
   5
12C
 100
AcDbEntity
   8
LEVEL002
 100
AcDbPoint
  62
7
  10
 4497.5571362604
  20
 5083.4755878695
  30
0.0
   0
ARC
   5
12D
 100
AcDbEntity
   8
LEVEL002
 370
13
   6
CONTINUOUS
  62
7
 100
AcDbCircle
  10
 4515.0571362604
  20
 5065.9755878695
  30
0.0
  40
 17.500000000000
 100
AcDbArc
  50
0.0
  51
 90.000000000000
   0
POINT
   5
12E
 100
AcDbEntity
   8
LEVEL002
 100
AcDbPoint
  62
7
  10
 4532.5571362604
  20
 5083.4755878695
  30
0.0
   0
ARC
   5
12F
 100
AcDbEntity
   8
LEVEL002
 370
13
   6
CONTINUOUS
  62
6
 100
AcDbCircle
  10
 4515.0571362604
  20
 5065.9755878695
  30
0.0
  40
 35.000000000000
 100
AcDbArc
  50
 90.000000000000
  51
 180.00000000000
   0
POINT
   5
130
 100
AcDbEntity
   8
LEVEL002
 100
AcDbPoint
  62
6
  10
 4480.0571362604
  20
 5100.9755878695
  30
0.0
   0
ARC
   5
131
 100
AcDbEntity
   8
LEVEL002
 370
13
   6
CONTINUOUS
  62
6
 100
AcDbCircle
  10
 4515.0571362604
  20
 5065.9755878695
  30
0.0
  40
 35.000000000000
 100
AcDbArc
  50
0.0
  51
 90.000000000000
   0
POINT
   5
132
 100
AcDbEntity
   8
LEVEL002
 100
AcDbPoint
  62
6
  10
 4550.0571362604
  20
 5100.9755878695
  30
0.0
   0
ARC
   5
133
 100
AcDbEntity
   8
LEVEL002
 370
13
   6
CONTINUOUS
  62
7
 100
AcDbCircle
  10
 4172.5571362604
  20
 4723.4755878693
  30
0.0
  40
 17.500000000000
 100
AcDbArc
  50
 180.00000000000
  51
 270.00000000000
   0
POINT
   5
134
 100
AcDbEntity
   8
LEVEL002
 100
AcDbPoint
  62
7
  10
 4155.0571362604
  20
 4705.9755878693
  30
0.0
   0
ARC
   5
135
 100
AcDbEntity
   8
LEVEL002
 370
13
   6
CONTINUOUS
  62
7
 100
AcDbCircle
  10
 4172.5571362604
  20
 4723.4755878693
  30
0.0
  40
 17.500000000000
 100
AcDbArc
  50
 90.000000000000
  51
 180.00000000000
   0
POINT
   5
136
 100
AcDbEntity
   8
LEVEL002
 100
AcDbPoint
  62
7
  10
 4155.0571362604
  20
 4740.9755878693
  30
0.0
   0
ARC
   5
137
 100
AcDbEntity
   8
LEVEL002
 370
13
   6
CONTINUOUS
  62
6
 100
AcDbCircle
  10
 4172.5571362604
  20
 4723.4755878693
  30
0.0
  40
 35.000000000000
 100
AcDbArc
  50
 180.00000000000
  51
 270.00000000000
   0
POINT
   5
138
 100
AcDbEntity
   8
LEVEL002
 100
AcDbPoint
  62
6
  10
 4137.5571362604
  20
 4688.4755878693
  30
0.0
   0
ARC
   5
139
 100
AcDbEntity
   8
LEVEL002
 370
13
   6
CONTINUOUS
  62
6
 100
AcDbCircle
  10
 4172.5571362604
  20
 4723.4755878693
  30
0.0
  40
 35.000000000000
 100
AcDbArc
  50
 90.000000000000
  51
 180.00000000000
   0
POINT
   5
13A
 100
AcDbEntity
   8
LEVEL002
 100
AcDbPoint
  62
6
  10
 4137.5571362604
  20
 4758.4755878693
  30
0.0
   0
ARC
   5
13B
 100
AcDbEntity
   8
LEVEL002
 370
13
   6
CONTINUOUS
  62
7
 100
AcDbCircle
  10
 4515.0571362604
  20
 4380.9755878695
  30
0.0
  40
 17.500000000000
 100
AcDbArc
  50
 270.00000000000
  51
0.0
   0
POINT
   5
13C
 100
AcDbEntity
   8
LEVEL002
 100
AcDbPoint
  62
7
  10
 4532.5571362604
  20
 4363.4755878695
  30
0.0
   0
ARC
   5
13D
 100
AcDbEntity
   8
LEVEL002
 370
13
   6
CONTINUOUS
  62
7
 100
AcDbCircle
  10
 4515.0571362604
  20
 4380.9755878695
  30
0.0
  40
 17.500000000000
 100
AcDbArc
  50
 180.00000000000
  51
 270.00000000000
   0
POINT
   5
13E
 100
AcDbEntity
   8
LEVEL002
 100
AcDbPoint
  62
7
  10
 4497.5571362604
  20
 4363.4755878695
  30
0.0
   0
ARC
   5
13F
 100
AcDbEntity
   8
LEVEL002
 370
13
   6
CONTINUOUS
  62
6
 100
AcDbCircle
  10
 4515.0571362604
  20
 4380.9755878695
  30
0.0
  40
 35.000000000000
 100
AcDbArc
  50
 270.00000000000
  51
0.0
   0
POINT
   5
140
 100
AcDbEntity
   8
LEVEL002
 100
AcDbPoint
  62
6
  10
 4550.0571362604
  20
 4345.9755878695
  30
0.0
   0
ARC
   5
141
 100
AcDbEntity
   8
LEVEL002
 370
13
   6
CONTINUOUS
  62
6
 100
AcDbCircle
  10
 4515.0571362604
  20
 4380.9755878695
  30
0.0
  40
 35.000000000000
 100
AcDbArc
  50
 180.00000000000
  51
 270.00000000000
   0
POINT
   5
142
 100
AcDbEntity
   8
LEVEL002
 100
AcDbPoint
  62
6
  10
 4480.0571362604
  20
 4345.9755878695
  30
0.0
   0
LINE
   5
143
 100
AcDbEntity
   8
LEVEL002
 370
13
 100
AcDbLine
   6
CONTINUOUS
  62
6
  10
 4480.0571362604
  20
 4849.4964194807
  30
0.0
  11
 4480.0571362604
  21
 5065.9755878695
  31
0.0
   0
ARC
   5
144
 100
AcDbEntity
   8
LEVEL002
 370
13
   6
CONTINUOUS
  62
6
 100
AcDbCircle
  10
 4460.0571362604
  20
 4849.4964194807
  30
0.0
  40
 20.000000000000
 100
AcDbArc
  50
 293.57817847824
  51
0.0
   0
LINE
   5
145
 100
AcDbEntity
   8
LEVEL002
 370
13
 100
AcDbLine
   6
CONTINUOUS
  62
6
  10
 4172.5571362604
  20
 4758.4755878693
  30
0.0
  11
 4389.0363046490
  21
 4758.4755878693
  31
0.0
   0
ARC
   5
146
 100
AcDbEntity
   8
LEVEL002
 370
13
   6
CONTINUOUS
  62
6
 100
AcDbCircle
  10
 4389.0363046490
  20
 4778.4755878693
  30
0.0
  40
 20.000000000000
 100
AcDbArc
  50
 270.00000000001
  51
 336.42182152184
   0
ARC
   5
147
 100
AcDbEntity
   8
LEVEL002
 370
13
   6
CONTINUOUS
  62
6
 100
AcDbCircle
  10
 4515.0571362604
  20
 4723.4755878695
  30
0.0
  40
 117.50000000000
 100
AcDbArc
  50
 113.57817847824
  51
 156.42182152184
   0
LINE
   5
148
 100
AcDbEntity
   8
LEVEL002
 370
13
 100
AcDbLine
   6
CONTINUOUS
  62
6
  10
 4389.0363046492
  20
 4688.4755878693
  30
0.0
  11
 4172.5571362604
  21
 4688.4755878693
  31
0.0
   0
ARC
   5
149
 100
AcDbEntity
   8
LEVEL002
 370
13
   6
CONTINUOUS
  62
6
 100
AcDbCircle
  10
 4389.0363046492
  20
 4668.4755878693
  30
0.0
  40
 20.000000000000
 100
AcDbArc
  50
 23.578178478245
  51
 89.999999999990
   0
LINE
   5
14A
 100
AcDbEntity
   8
LEVEL002
 370
13
 100
AcDbLine
   6
CONTINUOUS
  62
6
  10
 4480.0571362604
  20
 4380.9755878695
  30
0.0
  11
 4480.0571362604
  21
 4597.4547562581
  31
0.0
   0
ARC
   5
14B
 100
AcDbEntity
   8
LEVEL002
 370
13
   6
CONTINUOUS
  62
6
 100
AcDbCircle
  10
 4460.0571362604
  20
 4597.4547562581
  30
0.0
  40
 20.000000000000
 100
AcDbArc
  50
0.0
  51
 66.421821521847
   0
ARC
   5
14C
 100
AcDbEntity
   8
LEVEL002
 370
13
   6
CONTINUOUS
  62
6
 100
AcDbCircle
  10
 4515.0571362604
  20
 4723.4755878695
  30
0.0
  40
 117.50000000000
 100
AcDbArc
  50
 203.57817847825
  51
 246.42182152184
   0
LINE
   5
14D
 100
AcDbEntity
   8
LEVEL002
 370
13
 100
AcDbLine
   6
CONTINUOUS
  62
6
  10
 4550.0571362604
  20
 4597.4547562581
  30
0.0
  11
 4550.0571362604
  21
 4380.9755878695
  31
0.0
   0
ARC
   5
14E
 100
AcDbEntity
   8
LEVEL002
 370
13
   6
CONTINUOUS
  62
6
 100
AcDbCircle
  10
 4570.0571362604
  20
 4597.4547562581
  30
0.0
  40
 20.000000000000
 100
AcDbArc
  50
 113.57817847822
  51
 180.00000000000
   0
LINE
   5
14F
 100
AcDbEntity
   8
LEVEL002
 370
13
 100
AcDbLine
   6
CONTINUOUS
  62
6
  10
 4857.5571362604
  20
 4688.4755878695
  30
0.0
  11
 4641.0779678718
  21
 4688.4755878695
  31
0.0
   0
ARC
   5
150
 100
AcDbEntity
   8
LEVEL002
 370
13
   6
CONTINUOUS
  62
6
 100
AcDbCircle
  10
 4641.0779678718
  20
 4668.4755878695
  30
0.0
  40
 20.000000000000
 100
AcDbArc
  50
 90.000000000000
  51
 156.42182152180
   0
ARC
   5
151
 100
AcDbEntity
   8
LEVEL002
 370
13
   6
CONTINUOUS
  62
6
 100
AcDbCircle
  10
 4515.0571362604
  20
 4723.4755878695
  30
0.0
  40
 117.50000000000
 100
AcDbArc
  50
 293.57817847824
  51
 336.42182152184
   0
LINE
   5
152
 100
AcDbEntity
   8
LEVEL002
 370
13
 100
AcDbLine
   6
CONTINUOUS
  62
6
  10
 4641.0779678716
  20
 4758.4755878695
  30
0.0
  11
 4857.5571362604
  21
 4758.4755878695
  31
0.0
   0
ARC
   5
153
 100
AcDbEntity
   8
LEVEL002
 370
13
   6
CONTINUOUS
  62
6
 100
AcDbCircle
  10
 4641.0779678716
  20
 4778.4755878695
  30
0.0
  40
 20.000000000000
 100
AcDbArc
  50
 203.57817847825
  51
 270.00000000001
   0
LINE
   5
154
 100
AcDbEntity
   8
LEVEL002
 370
13
 100
AcDbLine
   6
CONTINUOUS
  62
7
  10
 4641.0779678716
  20
 4740.9755878695
  30
0.0
  11
 4857.5571362604
  21
 4740.9755878695
  31
0.0
   0
ARC
   5
155
 100
AcDbEntity
   8
LEVEL002
 370
13
   6
CONTINUOUS
  62
7
 100
AcDbCircle
  10
 4641.0779678716
  20
 4778.4755878695
  30
0.0
  40
 37.500000000000
 100
AcDbArc
  50
 203.57817847823
  51
 270.00000000000
   0
LINE
   5
156
 100
AcDbEntity
   8
LEVEL002
 370
13
 100
AcDbLine
   6
CONTINUOUS
  62
7
  10
 4857.5571362604
  20
 4705.9755878695
  30
0.0
  11
 4641.0779678718
  21
 4705.9755878695
  31
0.0
   0
ARC
   5
157
 100
AcDbEntity
   8
LEVEL002
 370
13
   6
CONTINUOUS
  62
7
 100
AcDbCircle
  10
 4641.0779678718
  20
 4668.4755878695
  30
0.0
  40
 37.500000000000
 100
AcDbArc
  50
 90.000000000000
  51
 156.42182152182
   0
LINE
   5
158
 100
AcDbEntity
   8
LEVEL002
 370
13
 100
AcDbLine
   6
CONTINUOUS
  62
7
  10
 4532.5571362604
  20
 4597.4547562581
  30
0.0
  11
 4532.5571362604
  21
 4380.9755878695
  31
0.0
   0
ARC
   5
159
 100
AcDbEntity
   8
LEVEL002
 370
13
   6
CONTINUOUS
  62
7
 100
AcDbCircle
  10
 4570.0571362604
  20
 4597.4547562581
  30
0.0
  40
 37.500000000000
 100
AcDbArc
  50
 113.57817847824
  51
 180.00000000000
   0
ARC
   5
15A
 100
AcDbEntity
   8
LEVEL002
 370
13
   6
CONTINUOUS
  62
7
 100
AcDbCircle
  10
 4515.0571362604
  20
 4723.4755878695
  30
0.0
  40
 100.00000000000
 100
AcDbArc
  50
 293.57817847824
  51
 336.42182152184
   0
LINE
   5
15B
 100
AcDbEntity
   8
LEVEL002
 370
13
 100
AcDbLine
   6
CONTINUOUS
  62
7
  10
 4497.5571362604
  20
 4380.9755878695
  30
0.0
  11
 4497.5571362604
  21
 4597.4547562581
  31
0.0
   0
ARC
   5
15C
 100
AcDbEntity
   8
LEVEL002
 370
13
   6
CONTINUOUS
  62
7
 100
AcDbCircle
  10
 4460.0571362604
  20
 4597.4547562581
  30
0.0
  40
 37.500000000000
 100
AcDbArc
  50
0.0
  51
 66.421821521844
   0
LINE
   5
15D
 100
AcDbEntity
   8
LEVEL002
 370
13
 100
AcDbLine
   6
CONTINUOUS
  62
7
  10
 4389.0363046492
  20
 4705.9755878693
  30
0.0
  11
 4172.5571362604
  21
 4705.9755878693
  31
0.0
   0
ARC
   5
15E
 100
AcDbEntity
   8
LEVEL002
 370
13
   6
CONTINUOUS
  62
7
 100
AcDbCircle
  10
 4389.0363046492
  20
 4668.4755878693
  30
0.0
  40
 37.500000000000
 100
AcDbArc
  50
 23.578178478249
  51
 90.000000000003
   0
ARC
   5
15F
 100
AcDbEntity
   8
LEVEL002
 370
13
   6
CONTINUOUS
  62
7
 100
AcDbCircle
  10
 4515.0571362604
  20
 4723.4755878695
  30
0.0
  40
 100.00000000000
 100
AcDbArc
  50
 203.57817847824
  51
 246.42182152184
   0
LINE
   5
160
 100
AcDbEntity
   8
LEVEL002
 370
13
 100
AcDbLine
   6
CONTINUOUS
  62
7
  10
 4172.5571362604
  20
 4740.9755878693
  30
0.0
  11
 4389.0363046490
  21
 4740.9755878693
  31
0.0
   0
ARC
   5
161
 100
AcDbEntity
   8
LEVEL002
 370
13
   6
CONTINUOUS
  62
7
 100
AcDbCircle
  10
 4389.0363046490
  20
 4778.4755878693
  30
0.0
  40
 37.500000000000
 100
AcDbArc
  50
 270.00000000000
  51
 336.42182152185
   0
LINE
   5
162
 100
AcDbEntity
   8
LEVEL002
 370
13
 100
AcDbLine
   6
CONTINUOUS
  62
7
  10
 4497.5571362604
  20
 4849.4964194807
  30
0.0
  11
 4497.5571362604
  21
 5065.9755878695
  31
0.0
   0
ARC
   5
163
 100
AcDbEntity
   8
LEVEL002
 370
13
   6
CONTINUOUS
  62
7
 100
AcDbCircle
  10
 4460.0571362604
  20
 4849.4964194807
  30
0.0
  40
 37.500000000000
 100
AcDbArc
  50
 293.57817847824
  51
0.0
   0
ARC
   5
164
 100
AcDbEntity
   8
LEVEL002
 370
13
   6
CONTINUOUS
  62
7
 100
AcDbCircle
  10
 4515.0571362604
  20
 4723.4755878695
  30
0.0
  40
 100.00000000000
 100
AcDbArc
  50
 113.57817847824
  51
 156.42182152184
   0
LINE
   5
165
 100
AcDbEntity
   8
LEVEL002
 370
13
 100
AcDbLine
   6
CONTINUOUS
  62
7
  10
 4532.5571362604
  20
 5065.9755878695
  30
0.0
  11
 4532.5571362604
  21
 4849.4964194807
  31
0.0
   0
ARC
   5
166
 100
AcDbEntity
   8
LEVEL002
 370
13
   6
CONTINUOUS
  62
7
 100
AcDbCircle
  10
 4570.0571362604
  20
 4849.4964194807
  30
0.0
  40
 37.500000000000
 100
AcDbArc
  50
 180.00000000000
  51
 246.42182152186
   0
ARC
   5
167
 100
AcDbEntity
   8
LEVEL002
 370
13
   6
CONTINUOUS
  62
7
 100
AcDbCircle
  10
 4515.0571362604
  20
 4723.4755878695
  30
0.0
  40
 100.00000000000
 100
AcDbArc
  50
 23.578178478246
  51
 66.421821521837
   0
LINE
   5
168
 100
AcDbEntity
   8
LEVEL002
 370
13
 100
AcDbLine
   6
CONTINUOUS
  62
6
  10
 4550.0571362604
  20
 5065.9755878695
  30
0.0
  11
 4550.0571362604
  21
 4849.4964194807
  31
0.0
   0
ARC
   5
169
 100
AcDbEntity
   8
LEVEL002
 370
13
   6
CONTINUOUS
  62
6
 100
AcDbCircle
  10
 4570.0571362604
  20
 4849.4964194807
  30
0.0
  40
 20.000000000000
 100
AcDbArc
  50
 180.00000000000
  51
 246.42182152184
   0
ARC
   5
16A
 100
AcDbEntity
   8
LEVEL002
 370
13
   6
CONTINUOUS
  62
6
 100
AcDbCircle
  10
 4515.0571362604
  20
 4723.4755878695
  30
0.0
  40
 117.50000000000
 100
AcDbArc
  50
 23.578178478247
  51
 66.421821521843
   0
CIRCLE
   5
16B
 100
AcDbEntity
   8
LEVEL002
 370
13
 100
AcDbCircle
   6
CONTINUOUS
  62
7
  10
 4515.0571362604
  20
 4723.4755878695
  30
0.0
  40
 407.50000000000
   0
CIRCLE
   5
16C
 100
AcDbEntity
   8
LEVEL002
 370
13
 100
AcDbCircle
   6
CONTINUOUS
  62
7
  10
 4515.0571362604
  20
 4723.4755878695
  30
0.0
  40
 405.00000000000
   0
CIRCLE
   5
16D
 100
AcDbEntity
   8
LEVEL002
 370
13
 100
AcDbCircle
   6
CONTINUOUS
  62
7
  10
 4515.0571362604
  20
 4723.4755878695
  30
0.0
  40
 412.50000000000
   0
LINE
   5
16E
 100
AcDbEntity
   8
LEVEL002
 370
13
 100
AcDbLine
   6
DASHDOT
  62
6
  10
 4465.0571362604
  20
 4788.4755878695
  30
0.0
  11
 4465.0571362604
  21
 4758.4755878695
  31
0.0
   0
LINE
   5
16F
 100
AcDbEntity
   8
LEVEL002
 370
13
 100
AcDbLine
   6
DASHDOT
  62
6
  10
 4450.0571362604
  20
 4773.4755878695
  30
0.0
  11
 4480.0571362604
  21
 4773.4755878695
  31
0.0
   0
LINE
   5
170
 100
AcDbEntity
   8
LEVEL002
 370
13
 100
AcDbLine
   6
DASHDOT
  62
6
  10
 4465.0571362604
  20
 4688.4755878695
  30
0.0
  11
 4465.0571362604
  21
 4658.4755878695
  31
0.0
   0
LINE
   5
171
 100
AcDbEntity
   8
LEVEL002
 370
13
 100
AcDbLine
   6
DASHDOT
  62
6
  10
 4450.0571362604
  20
 4673.4755878695
  30
0.0
  11
 4480.0571362604
  21
 4673.4755878695
  31
0.0
   0
LINE
   5
172
 100
AcDbEntity
   8
LEVEL002
 370
13
 100
AcDbLine
   6
DASHDOT
  62
6
  10
 4565.0571362604
  20
 4688.4755878695
  30
0.0
  11
 4565.0571362604
  21
 4658.4755878695
  31
0.0
   0
LINE
   5
173
 100
AcDbEntity
   8
LEVEL002
 370
13
 100
AcDbLine
   6
DASHDOT
  62
6
  10
 4550.0571362604
  20
 4673.4755878695
  30
0.0
  11
 4580.0571362604
  21
 4673.4755878695
  31
0.0
   0
LINE
   5
174
 100
AcDbEntity
   8
LEVEL002
 370
13
 100
AcDbLine
   6
DASHDOT
  62
6
  10
 4565.0571362604
  20
 4788.4755878695
  30
0.0
  11
 4565.0571362604
  21
 4758.4755878695
  31
0.0
   0
LINE
   5
175
 100
AcDbEntity
   8
LEVEL002
 370
13
 100
AcDbLine
   6
DASHDOT
  62
6
  10
 4550.0571362604
  20
 4773.4755878695
  30
0.0
  11
 4580.0571362604
  21
 4773.4755878695
  31
0.0
   0
LINE
   5
176
 100
AcDbEntity
   8
LEVEL002
 370
13
 100
AcDbLine
   6
DASHDOT
  62
6
  10
 4040.0571362604
  20
 4723.4755878695
  30
0.0
  11
 4990.0571362604
  21
 4723.4755878695
  31
0.0
   0
LINE
   5
177
 100
AcDbEntity
   8
LEVEL002
 370
13
 100
AcDbLine
   6
DASHDOT
  62
6
  10
 4515.0571362604
  20
 5198.4755878695
  30
0.0
  11
 4515.0571362604
  21
 4248.4755878695
  31
0.0
   0
CIRCLE
   5
178
 100
AcDbEntity
   8
LEVEL002
 370
13
 100
AcDbCircle
   6
CONTINUOUS
  62
3
  10
 4465.0571362604
  20
 4773.4755878695
  30
0.0
  40
 7.0000000000000
   0
CIRCLE
   5
179
 100
AcDbEntity
   8
LEVEL002
 370
13
 100
AcDbCircle
   6
CONTINUOUS
  62
3
  10
 4465.0571362604
  20
 4673.4755878695
  30
0.0
  40
 7.0000000000000
   0
CIRCLE
   5
17A
 100
AcDbEntity
   8
LEVEL002
 370
13
 100
AcDbCircle
   6
CONTINUOUS
  62
3
  10
 4565.0571362604
  20
 4773.4755878695
  30
0.0
  40
 7.0000000000000
   0
CIRCLE
   5
17B
 100
AcDbEntity
   8
LEVEL002
 370
13
 100
AcDbCircle
   6
CONTINUOUS
  62
3
  10
 4565.0571362604
  20
 4673.4755878695
  30
0.0
  40
 7.0000000000000
   0
CIRCLE
   5
17C
 100
AcDbEntity
   8
LEVEL002
 370
13
 100
AcDbCircle
   6
CONTINUOUS
  62
1
  10
 4065.0571362604
  20
 4373.4755878695
  30
0.0
  40
 69.999997913838
   0
MTEXT
   5
17D
 100
AcDbEntity
   8
LEVEL002
 370
13
  62
1
 100
AcDbMText
  10
 4065.0571362604
  20
 4373.4755878695
  30
0.0
  40
 57.142857142858
  41
0.0
  71
5
  72
1
   1
\T1.000000;2
   7
GMM001
  44
 0.79999984000003
   0
LEADER
   5
17E
 100
AcDbEntity
   8
LEVEL002
 370
13
   6
CONTINUOUS
  62
1
 100
AcDbLeader
   3
GMM001
  73
3
  74
1
  75
0
  40
 66.000000000000
  41
0.0
  76
2
  10
 4237.9571821832
  20
 4548.9507472505
  30
0.0
  10
 4115.0571362604
  20
 4422.4653797443
  30
0.0
  77
1
   0
ARC
   5
17F
 100
AcDbEntity
   8
LEVEL002
 370
13
   6
CONTINUOUS
  62
7
 100
AcDbCircle
  10
 1585.0568291493
  20
 4170.9755878695
  30
0.0
  40
 20.000000000000
 100
AcDbArc
  50
0.0
  51
 90.000000000000
   0
LINE
   5
180
 100
AcDbEntity
   8
LEVEL002
 370
13
 100
AcDbLine
   6
CONTINUOUS
  62
7
  10
 1585.0568291493
  20
 4190.9755878695
  30
0.0
  11
 1445.0594449890
  21
 4190.9755878695
  31
0.0
   0
ARC
   5
181
 100
AcDbEntity
   8
LEVEL002
 370
13
   6
CONTINUOUS
  62
7
 100
AcDbCircle
  10
 1445.0594449890
  20
 4170.9755878695
  30
0.0
  40
 20.000000000000
 100
AcDbArc
  50
 90.000000000000
  51
 180.00000000000
   0
LINE
   5
182
 100
AcDbEntity
   8
LEVEL002
 370
13
 100
AcDbLine
   6
CONTINUOUS
  62
7
  10
 1425.0594449890
  20
 4170.9755878695
  30
0.0
  11
 1425.0594449890
  21
 3610.9748031237
  31
0.0
   0
LINE
   5
183
 100
AcDbEntity
   8
LEVEL002
 370
13
 100
AcDbLine
   6
CONTINUOUS
  62
7
  10
 1605.0568291493
  20
 3610.9748031237
  30
0.0
  11
 1605.0568291493
  21
 4170.9755878695
  31
0.0
   0
LINE
   5
184
 100
AcDbEntity
   8
LEVEL002
 370
13
 100
AcDbLine
   6
CONTINUOUS
  62
7
  10
 1445.0594449890
  20
 3590.9748031237
  30
0.0
  11
 1585.0568291493
  21
 3590.9748031237
  31
0.0
   0
ARC
   5
185
 100
AcDbEntity
   8
LEVEL002
 370
13
   6
CONTINUOUS
  62
7
 100
AcDbCircle
  10
 1585.0568291493
  20
 3610.9748031237
  30
0.0
  40
 20.000000000000
 100
AcDbArc
  50
 270.00000000000
  51
0.0
   0
ARC
   5
186
 100
AcDbEntity
   8
LEVEL002
 370
13
   6
CONTINUOUS
  62
7
 100
AcDbCircle
  10
 1445.0594449890
  20
 3610.9748031237
  30
0.0
  40
 20.000000000000
 100
AcDbArc
  50
 180.00000000000
  51
 270.00000000000
   0
LINE
   5
187
 100
AcDbEntity
   8
LEVEL002
 370
13
 100
AcDbLine
   6
CONTINUOUS
  62
7
  10
 1470.5071362604
  20
 3590.9748031237
  30
0.0
  11
 1470.5071362604
  21
 590.97558786953
  31
0.0
   0
LINE
   5
188
 100
AcDbEntity
   8
LEVEL002
 370
13
 100
AcDbLine
   6
CONTINUOUS
  62
7
  10
 1470.5071362604
  20
 590.97558786953
  30
0.0
  11
 1559.6071362604
  21
 590.97558786953
  31
0.0
   0
LINE
   5
189
 100
AcDbEntity
   8
LEVEL002
 370
13
 100
AcDbLine
   6
CONTINUOUS
  62
7
  10
 1559.6071362604
  20
 590.97558786953
  30
0.0
  11
 1559.6071362604
  21
 3590.9748031237
  31
0.0
   0
LINE
   5
18A
 100
AcDbEntity
   8
LEVEL002
 370
13
 100
AcDbLine
   6
CONTINUOUS
  62
7
  10
 1470.5071362604
  20
 998.47558786953
  30
0.0
  11
 1398.6571181747
  21
 998.47558786953
  31
0.0
   0
LINE
   5
18B
 100
AcDbEntity
   8
LEVEL002
 370
13
 100
AcDbLine
   6
CONTINUOUS
  62
7
  10
 1398.6571181747
  20
 998.47558786953
  30
0.0
  11
 1398.6571181747
  21
 983.47558786953
  31
0.0
   0
LINE
   5
18C
 100
AcDbEntity
   8
LEVEL002
 370
13
 100
AcDbLine
   6
CONTINUOUS
  62
7
  10
 1398.6571181747
  20
 983.47558786953
  30
0.0
  11
 1470.5071362604
  21
 983.47558786953
  31
0.0
   0
LINE
   5
18D
 100
AcDbEntity
   8
LEVEL002
 370
13
 100
AcDbLine
   6
CONTINUOUS
  62
7
  10
 1559.6071362604
  20
 998.47558786953
  30
0.0
  11
 1631.4571181747
  21
 998.47558786953
  31
0.0
   0
LINE
   5
18E
 100
AcDbEntity
   8
LEVEL002
 370
13
 100
AcDbLine
   6
CONTINUOUS
  62
7
  10
 1631.4571181747
  20
 998.47558786953
  30
0.0
  11
 1631.4571181747
  21
 983.47558786953
  31
0.0
   0
LINE
   5
18F
 100
AcDbEntity
   8
LEVEL002
 370
13
 100
AcDbLine
   6
CONTINUOUS
  62
7
  10
 1631.4571181747
  20
 983.47558786953
  30
0.0
  11
 1559.6071362604
  21
 983.47558786953
  31
0.0
   0
LINE
   5
190
 100
AcDbEntity
   8
LEVEL002
 370
13
 100
AcDbLine
   6
DASHDOT
  62
6
  10
 1448.6571181747
  20
 990.97558786953
  30
0.0
  11
 1581.4571181747
  21
 990.97558786953
  31
0.0
   0
CIRCLE
   5
191
 100
AcDbEntity
   8
LEVEL002
 370
13
 100
AcDbCircle
   6
CONTINUOUS
  62
7
  10
 1515.0571024583
  20
 890.97558786953
  30
0.0
  40
 7.5000000000000
   0
LINE
   5
192
 100
AcDbEntity
   8
LEVEL002
 370
13
 100
AcDbLine
   6
DASHDOT
  62
6
  10
 1485.0571024583
  20
 890.97558786953
  30
0.0
  11
 1545.0571024583
  21
 890.97558786953
  31
0.0
   0
LINE
   5
193
 100
AcDbEntity
   8
LEVEL002
 370
13
 100
AcDbLine
   6
CONTINUOUS
  62
7
  10
 3259.6071362604
  20
 4994.9755878695
  30
0.0
  11
 3170.5071362604
  21
 4994.9755878695
  31
0.0
   0
LINE
   5
194
 100
AcDbEntity
   8
LEVEL002
 370
13
 100
AcDbLine
   6
CONTINUOUS
  62
7
  10
 3170.5071362604
  20
 4994.9755878695
  30
0.0
  11
 3170.5071362604
  21
 4991.9755878695
  31
0.0
   0
LINE
   5
195
 100
AcDbEntity
   8
LEVEL002
 370
13
 100
AcDbLine
   6
CONTINUOUS
  62
7
  10
 3170.5071362604
  20
 4991.9755878695
  30
0.0
  11
 3259.6071362604
  21
 4991.9755878695
  31
0.0
   0
LINE
   5
196
 100
AcDbEntity
   8
LEVEL002
 370
13
 100
AcDbLine
   6
CONTINUOUS
  62
7
  10
 3259.6071362604
  20
 4991.9755878695
  30
0.0
  11
 3259.6071362604
  21
 4994.9755878695
  31
0.0
   0
LINE
   5
197
 100
AcDbEntity
   8
LEVEL002
 370
13
 100
AcDbLine
   6
DOT
  62
1
  10
 3254.6071362604
  20
 4991.9755878695
  30
0.0
  11
 3254.6071362604
  21
 4964.9755878695
  31
0.0
   0
LINE
   5
198
 100
AcDbEntity
   8
LEVEL002
 370
13
 100
AcDbLine
   6
DOT
  62
1
  10
 3254.6071362604
  20
 4964.9755878695
  30
0.0
  11
 3175.5071362604
  21
 4964.9755878695
  31
0.0
   0
LINE
   5
199
 100
AcDbEntity
   8
LEVEL002
 370
13
 100
AcDbLine
   6
DOT
  62
1
  10
 3175.5071362604
  20
 4964.9755878695
  30
0.0
  11
 3175.5071362604
  21
 4991.9755878695
  31
0.0
   0
LINE
   5
19A
 100
AcDbEntity
   8
LEVEL002
 370
13
 100
AcDbLine
   6
CONTINUOUS
  62
7
  10
 3158.0774676574
  20
 4190.9755878695
  30
0.0
  11
 3155.3635608940
  21
 4184.1908209607
  31
0.0
   0
ARC
   5
19B
 100
AcDbEntity
   8
LEVEL002
 370
13
   6
CONTINUOUS
  62
7
 100
AcDbCircle
  10
 3160.0059443484
  20
 4182.3338675789
  30
0.0
  40
 5.0000000000000
 100
AcDbArc
  50
 158.19859051356
  51
 180.00000000000
   0
LINE
   5
19C
 100
AcDbEntity
   8
LEVEL002
 370
13
 100
AcDbLine
   6
CONTINUOUS
  62
7
  10
 3155.0059443484
  20
 4182.3338675789
  30
0.0
  11
 3155.0059443484
  21
 3599.6173081585
  31
0.0
   0
ARC
   5
19D
 100
AcDbEntity
   8
LEVEL002
 370
13
   6
CONTINUOUS
  62
7
 100
AcDbCircle
  10
 3154.0059443484
  20
 4175.1279414105
  30
0.0
  40
 5.0000000000000
 100
AcDbArc
  50
0.0
  51
 21.801409486445
   0
LINE
   5
19E
 100
AcDbEntity
   8
LEVEL002
 370
13
 100
AcDbLine
   6
CONTINUOUS
  62
7
  10
 3156.8460569480
  20
 4181.4905719289
  30
0.0
  11
 3158.6483278027
  21
 4176.9848947921
  31
0.0
   0
ARC
   5
19F
 100
AcDbEntity
   8
LEVEL002
 370
13
   6
CONTINUOUS
  62
7
 100
AcDbCircle
  10
 3161.4884404026
  20
 4183.3475253107
  30
0.0
  40
 5.0000000000000
 100
AcDbArc
  50
 158.19859051356
  51
 201.80140948644
   0
LINE
   5
1A0
 100
AcDbEntity
   8
LEVEL002
 370
13
 100
AcDbLine
   6
CONTINUOUS
  62
7
  10
 3158.0774676574
  20
 4190.9755878695
  30
0.0
  11
 3159.0059443484
  21
 4190.6041971931
  31
0.0
   0
LINE
   5
1A1
 100
AcDbEntity
   8
LEVEL002
 370
13
 100
AcDbLine
   6
CONTINUOUS
  62
7
  10
 3159.0059443484
  20
 4190.6041971931
  30
0.0
  11
 3156.8460569480
  21
 4185.2044786925
  31
0.0
   0
LINE
   5
1A2
 100
AcDbEntity
   8
LEVEL002
 370
13
 100
AcDbLine
   6
CONTINUOUS
  62
7
  10
 3159.0059443484
  20
 4175.1279414105
  30
0.0
  11
 3159.0059443484
  21
 3606.8232343269
  31
0.0
   0
LINE
   5
1A3
 100
AcDbEntity
   8
LEVEL002
 370
13
 100
AcDbLine
   6
CONTINUOUS
  62
7
  10
 3511.0872622650
  20
 4668.4755878695
  30
0.0
  11
 3261.0872622650
  21
 4668.4755878695
  31
0.0
   0
LINE
   5
1A4
 100
AcDbEntity
   8
LEVEL002
 370
13
 100
AcDbLine
   6
CONTINUOUS
  62
7
  10
 3261.0872622650
  20
 4668.4755878695
  30
0.0
  11
 3261.0872622650
  21
 4608.4755878695
  31
0.0
   0
LINE
   5
1A5
 100
AcDbEntity
   8
LEVEL002
 370
13
 100
AcDbLine
   6
CONTINUOUS
  62
7
  10
 3261.0872622650
  20
 4608.4755878695
  30
0.0
  11
 3511.0872622650
  21
 4608.4755878695
  31
0.0
   0
LINE
   5
1A6
 100
AcDbEntity
   8
LEVEL002
 370
13
 100
AcDbLine
   6
CONTINUOUS
  62
7
  10
 3511.0872622650
  20
 4608.4755878695
  30
0.0
  11
 3511.0872622650
  21
 4668.4755878695
  31
0.0
   0
LINE
   5
1A7
 100
AcDbEntity
   8
LEVEL002
 370
13
 100
AcDbLine
   6
DASHDOT
  62
6
  10
 3547.0613154144
  20
 4813.4755878695
  30
0.0
  11
 3547.0613154144
  21
 4573.4755878695
  31
0.0
   0
LINE
   5
1A8
 100
AcDbEntity
   8
LEVEL002
 370
13
 100
AcDbLine
   6
CONTINUOUS
  62
7
  10
 3508.9113154144
  20
 4778.4755878695
  30
0.0
  11
 3508.9113154144
  21
 4793.4755878695
  31
0.0
   0
LINE
   5
1A9
 100
AcDbEntity
   8
LEVEL002
 370
13
 100
AcDbLine
   6
CONTINUOUS
  62
7
  10
 3508.9113154144
  20
 4793.4755878695
  30
0.0
  11
 3585.2113154144
  21
 4793.4755878695
  31
0.0
   0
LINE
   5
1AA
 100
AcDbEntity
   8
LEVEL002
 370
13
 100
AcDbLine
   6
CONTINUOUS
  62
7
  10
 3585.2113154144
  20
 4793.4755878695
  30
0.0
  11
 3585.2113154144
  21
 4778.4755878695
  31
0.0
   0
LINE
   5
1AB
 100
AcDbEntity
   8
LEVEL002
 370
13
 100
AcDbLine
   6
CONTINUOUS
  62
7
  10
 3585.2113154144
  20
 4668.4755878695
  30
0.0
  11
 3585.2113154144
  21
 4593.4755878695
  31
0.0
   0
LINE
   5
1AC
 100
AcDbEntity
   8
LEVEL002
 370
13
 100
AcDbLine
   6
CONTINUOUS
  62
7
  10
 3585.2113154144
  20
 4593.4755878695
  30
0.0
  11
 3508.9113154144
  21
 4593.4755878695
  31
0.0
   0
LINE
   5
1AD
 100
AcDbEntity
   8
LEVEL002
 370
13
 100
AcDbLine
   6
CONTINUOUS
  62
7
  10
 3508.9113154144
  20
 4593.4755878695
  30
0.0
  11
 3508.9113154144
  21
 4608.4755878695
  31
0.0
   0
LINE
   5
1AE
 100
AcDbEntity
   8
LEVEL002
 370
13
 100
AcDbLine
   6
CONTINUOUS
  62
7
  10
 3262.8071362604
  20
 4608.4755878695
  30
0.0
  11
 3262.8071362604
  21
 4593.4755878695
  31
0.0
   0
LINE
   5
1AF
 100
AcDbEntity
   8
LEVEL002
 370
13
 100
AcDbLine
   6
CONTINUOUS
  62
7
  10
 3262.8071362604
  20
 4593.4755878695
  30
0.0
  11
 3132.0571277406
  21
 4593.4755878695
  31
0.0
   0
LINE
   5
1B0
 100
AcDbEntity
   8
LEVEL002
 370
13
 100
AcDbLine
   6
CONTINUOUS
  62
7
  10
 3132.0571277406
  20
 4593.4755878695
  30
0.0
  11
 3132.0571277406
  21
 4703.4755878695
  31
0.0
   0
LINE
   5
1B1
 100
AcDbEntity
   8
LEVEL002
 370
13
 100
AcDbLine
   6
CONTINUOUS
  62
7
  10
 3132.0571277406
  20
 4703.4755878695
  30
0.0
  11
 3262.8071362604
  21
 4703.4755878695
  31
0.0
   0
LINE
   5
1B2
 100
AcDbEntity
   8
LEVEL002
 370
13
 100
AcDbLine
   6
CONTINUOUS
  62
7
  10
 3262.8071362604
  20
 4703.4755878695
  30
0.0
  11
 3262.8071362604
  21
 4668.4755878695
  31
0.0
   0
LINE
   5
1B3
 100
AcDbEntity
   8
LEVEL002
 370
13
 100
AcDbLine
   6
CONTINUOUS
  62
7
  10
 3167.3071362604
  20
 4724.9806306725
  30
0.0
  11
 3167.3071362604
  21
 4703.4755878695
  31
0.0
   0
LINE
   5
1B4
 100
AcDbEntity
   8
LEVEL002
 370
13
 100
AcDbLine
   6
CONTINUOUS
  62
7
  10
 3167.3071362604
  20
 4703.4755878695
  30
0.0
  11
 3298.0571447802
  21
 4703.4755878695
  31
0.0
   0
LINE
   5
1B5
 100
AcDbEntity
   8
LEVEL002
 370
13
 100
AcDbLine
   6
CONTINUOUS
  62
7
  10
 3298.0571447802
  20
 4703.4755878695
  30
0.0
  11
 3298.0571447802
  21
 4813.4755878695
  31
0.0
   0
LINE
   5
1B6
 100
AcDbEntity
   8
LEVEL002
 370
13
 100
AcDbLine
   6
CONTINUOUS
  62
7
  10
 3298.0571447802
  20
 4813.4755878695
  30
0.0
  11
 3167.3071362604
  21
 4813.4755878695
  31
0.0
   0
LINE
   5
1B7
 100
AcDbEntity
   8
LEVEL002
 370
13
 100
AcDbLine
   6
CONTINUOUS
  62
7
  10
 3167.3071362604
  20
 4813.4755878695
  30
0.0
  11
 3167.3071362604
  21
 4792.3202049305
  31
0.0
   0
LINE
   5
1B8
 100
AcDbEntity
   8
LEVEL002
 370
13
 100
AcDbLine
   6
CONTINUOUS
  62
7
  10
 3169.0270102558
  20
 4793.1965245011
  30
0.0
  11
 3169.0270102558
  21
 4725.8569502431
  31
0.0
   0
LINE
   5
1B9
 100
AcDbEntity
   8
LEVEL002
 370
13
 100
AcDbLine
   6
CONTINUOUS
  62
7
  10
 3169.0270102558
  20
 4725.8569502431
  30
0.0
  11
 2919.0270102558
  21
 4598.4755878695
  31
0.0
   0
LINE
   5
1BA
 100
AcDbEntity
   8
LEVEL002
 370
13
 100
AcDbLine
   6
CONTINUOUS
  62
7
  10
 2919.0270102558
  20
 4598.4755878695
  30
0.0
  11
 2919.0270102558
  21
 4665.8151621275
  31
0.0
   0
LINE
   5
1BB
 100
AcDbEntity
   8
LEVEL002
 370
13
 100
AcDbLine
   6
CONTINUOUS
  62
7
  10
 2919.0270102558
  20
 4665.8151621275
  30
0.0
  11
 3169.0270102558
  21
 4793.1965245011
  31
0.0
   0
LINE
   5
1BC
 100
AcDbEntity
   8
LEVEL002
 370
13
 100
AcDbLine
   6
DASHDOT
  62
6
  10
 2883.0529571064
  20
 4813.4755878695
  30
0.0
  11
 2883.0529571064
  21
 4573.4755878695
  31
0.0
   0
LINE
   5
1BD
 100
AcDbEntity
   8
LEVEL002
 370
13
 100
AcDbLine
   6
CONTINUOUS
  62
7
  10
 2844.9029571064
  20
 4668.4755878695
  30
0.0
  11
 2844.9029571064
  21
 4593.4755878695
  31
0.0
   0
LINE
   5
1BE
 100
AcDbEntity
   8
LEVEL002
 370
13
 100
AcDbLine
   6
CONTINUOUS
  62
7
  10
 2844.9029571064
  20
 4593.4755878695
  30
0.0
  11
 2921.2029571064
  21
 4593.4755878695
  31
0.0
   0
LINE
   5
1BF
 100
AcDbEntity
   8
LEVEL002
 370
13
 100
AcDbLine
   6
CONTINUOUS
  62
7
  10
 2921.2029571064
  20
 4593.4755878695
  30
0.0
  11
 2921.2029571064
  21
 4599.5842881665
  31
0.0
   0
LINE
   5
1C0
 100
AcDbEntity
   8
LEVEL002
 370
13
 100
AcDbLine
   6
CONTINUOUS
  62
7
  10
 2921.2029571064
  20
 4666.9238624245
  30
0.0
  11
 2921.2029571064
  21
 4668.4755878695
  31
0.0
   0
LINE
   5
1C1
 100
AcDbEntity
   8
LEVEL002
 370
13
 100
AcDbLine
   6
CONTINUOUS
  62
7
  10
 2921.2029571064
  20
 4778.4755878695
  30
0.0
  11
 2921.2029571064
  21
 4793.4755878695
  31
0.0
   0
LINE
   5
1C2
 100
AcDbEntity
   8
LEVEL002
 370
13
 100
AcDbLine
   6
CONTINUOUS
  62
7
  10
 2921.2029571064
  20
 4793.4755878695
  30
0.0
  11
 2844.9029571064
  21
 4793.4755878695
  31
0.0
   0
LINE
   5
1C3
 100
AcDbEntity
   8
LEVEL002
 370
13
 100
AcDbLine
   6
CONTINUOUS
  62
7
  10
 2844.9029571064
  20
 4793.4755878695
  30
0.0
  11
 2844.9029571064
  21
 4778.4755878695
  31
0.0
   0
LINE
   5
1C4
 100
AcDbEntity
   8
LEVEL002
 370
13
 100
AcDbLine
   6
CONTINUOUS
  62
6
  10
 2918.4809837628
  20
 4773.4755878695
  30
0.0
  11
 2918.4809837628
  21
 4673.4755878695
  31
0.0
   0
LINE
   5
1C5
 100
AcDbEntity
   8
LEVEL002
 370
13
 100
AcDbLine
   6
DASHDOT
  62
6
  10
 2983.0529742090
  20
 4723.4755878695
  30
0.0
  11
 2584.2363540696
  21
 4723.4755878695
  31
0.0
   0
LINE
   5
1C6
 100
AcDbEntity
   8
LEVEL002
 370
13
 100
AcDbLine
   6
CONTINUOUS
  62
7
  10
 3170.5071362604
  20
 4813.4755878695
  30
0.0
  11
 3170.5071362604
  21
 4990.9755878695
  31
0.0
   0
LINE
   5
1C7
 100
AcDbEntity
   8
LEVEL002
 370
13
 100
AcDbLine
   6
CONTINUOUS
  62
7
  10
 3170.5071362604
  20
 4990.9755878695
  30
0.0
  11
 3259.6071362604
  21
 4990.9755878695
  31
0.0
   0
LINE
   5
1C8
 100
AcDbEntity
   8
LEVEL002
 370
13
 100
AcDbLine
   6
CONTINUOUS
  62
7
  10
 3259.6071362604
  20
 4990.9755878695
  30
0.0
  11
 3259.6071362604
  21
 4813.4755878695
  31
0.0
   0
LINE
   5
1C9
 100
AcDbEntity
   8
LEVEL002
 370
13
 100
AcDbLine
   6
CONTINUOUS
  62
7
  10
 3259.6071362604
  20
 4593.4755878695
  30
0.0
  11
 3259.6071362604
  21
 4103.4755881495
  31
0.0
   0
LINE
   5
1CA
 100
AcDbEntity
   8
LEVEL002
 370
13
 100
AcDbLine
   6
CONTINUOUS
  62
7
  10
 3170.5071362604
  20
 4103.4755881495
  30
0.0
  11
 3170.5071362604
  21
 4593.4755878695
  31
0.0
   0
LINE
   5
1CB
 100
AcDbEntity
   8
LEVEL002
 370
13
 100
AcDbLine
   6
DASHDOT
  62
6
  10
 2938.0529742090
  20
 4768.4755878695
  30
0.0
  11
 2938.0529742090
  21
 4738.4755878695
  31
0.0
   0
LINE
   5
1CC
 100
AcDbEntity
   8
LEVEL002
 370
13
 100
AcDbLine
   6
DASHDOT
  62
6
  10
 2953.0529742090
  20
 4753.4755878695
  30
0.0
  11
 2923.0529742090
  21
 4753.4755878695
  31
0.0
   0
LINE
   5
1CD
 100
AcDbEntity
   8
LEVEL002
 370
13
 100
AcDbLine
   6
DASHDOT
  62
6
  10
 2938.0529742090
  20
 4708.4755878695
  30
0.0
  11
 2938.0529742090
  21
 4678.4755878695
  31
0.0
   0
LINE
   5
1CE
 100
AcDbEntity
   8
LEVEL002
 370
13
 100
AcDbLine
   6
DASHDOT
  62
6
  10
 2953.0529742090
  20
 4693.4755878695
  30
0.0
  11
 2923.0529742090
  21
 4693.4755878695
  31
0.0
   0
LINE
   5
1CF
 100
AcDbEntity
   8
LEVEL002
 370
13
 100
AcDbLine
   6
DASHDOT
  62
6
  10
 3278.0571447802
  20
 4803.4755878695
  30
0.0
  11
 3278.0571447802
  21
 4773.4755878695
  31
0.0
   0
LINE
   5
1D0
 100
AcDbEntity
   8
LEVEL002
 370
13
 100
AcDbLine
   6
DASHDOT
  62
6
  10
 3293.0571447802
  20
 4788.4755878695
  30
0.0
  11
 3263.0571447802
  21
 4788.4755878695
  31
0.0
   0
LINE
   5
1D1
 100
AcDbEntity
   8
LEVEL002
 370
13
 100
AcDbLine
   6
DASHDOT
  62
6
  10
 3278.0571447802
  20
 4743.4755878695
  30
0.0
  11
 3278.0571447802
  21
 4713.4755878695
  31
0.0
   0
LINE
   5
1D2
 100
AcDbEntity
   8
LEVEL002
 370
13
 100
AcDbLine
   6
DASHDOT
  62
6
  10
 3293.0571447802
  20
 4728.4755878695
  30
0.0
  11
 3263.0571447802
  21
 4728.4755878695
  31
0.0
   0
LINE
   5
1D3
 100
AcDbEntity
   8
LEVEL002
 370
13
 100
AcDbLine
   6
DASHDOT
  62
6
  10
 3152.0571277406
  20
 4693.4755878695
  30
0.0
  11
 3152.0571277406
  21
 4663.4755878695
  31
0.0
   0
LINE
   5
1D4
 100
AcDbEntity
   8
LEVEL002
 370
13
 100
AcDbLine
   6
DASHDOT
  62
6
  10
 3167.0571277406
  20
 4678.4755878695
  30
0.0
  11
 3137.0571277406
  21
 4678.4755878695
  31
0.0
   0
LINE
   5
1D5
 100
AcDbEntity
   8
LEVEL002
 370
13
 100
AcDbLine
   6
DASHDOT
  62
6
  10
 3152.0571277406
  20
 4633.4755878695
  30
0.0
  11
 3152.0571277406
  21
 4603.4755878695
  31
0.0
   0
LINE
   5
1D6
 100
AcDbEntity
   8
LEVEL002
 370
13
 100
AcDbLine
   6
DASHDOT
  62
6
  10
 3167.0571277406
  20
 4618.4755878695
  30
0.0
  11
 3137.0571277406
  21
 4618.4755878695
  31
0.0
   0
LINE
   5
1D7
 100
AcDbEntity
   8
LEVEL002
 370
13
 100
AcDbLine
   6
DASHDOT
  62
6
  10
 2765.2696192420
  20
 4768.4755878695
  30
0.0
  11
 2765.2696192420
  21
 4738.4755878695
  31
0.0
   0
LINE
   5
1D8
 100
AcDbEntity
   8
LEVEL002
 370
13
 100
AcDbLine
   6
DASHDOT
  62
6
  10
 2780.2696192420
  20
 4753.4755878695
  30
0.0
  11
 2750.2696192420
  21
 4753.4755878695
  31
0.0
   0
LINE
   5
1D9
 100
AcDbEntity
   8
LEVEL002
 370
13
 100
AcDbLine
   6
DASHDOT
  62
6
  10
 2765.2696192420
  20
 4708.4755878695
  30
0.0
  11
 2765.2696192420
  21
 4678.4755878695
  31
0.0
   0
LINE
   5
1DA
 100
AcDbEntity
   8
LEVEL002
 370
13
 100
AcDbLine
   6
DASHDOT
  62
6
  10
 2780.2696192420
  20
 4693.4755878695
  30
0.0
  11
 2750.2696192420
  21
 4693.4755878695
  31
0.0
   0
ARC
   5
1DB
 100
AcDbEntity
   8
LEVEL002
 370
13
   6
CONTINUOUS
  62
7
 100
AcDbCircle
  10
 2694.5696192420
  20
 4293.4755878695
  30
0.0
  40
 2.5000000000000
 100
AcDbArc
  50
 180.00000000000
  51
 270.00000000000
   0
LINE
   5
1DC
 100
AcDbEntity
   8
LEVEL002
 370
13
 100
AcDbLine
   6
CONTINUOUS
  62
7
  10
 2692.0696192420
  20
 5153.4755878695
  30
0.0
  11
 2692.0696192420
  21
 4293.4755878695
  31
0.0
   0
ARC
   5
1DD
 100
AcDbEntity
   8
LEVEL002
 370
13
   6
CONTINUOUS
  62
7
 100
AcDbCircle
  10
 2694.5696192420
  20
 5153.4755878695
  30
0.0
  40
 2.5000000000000
 100
AcDbArc
  50
 90.000000000000
  51
 180.00000000000
   0
ARC
   5
1DE
 100
AcDbEntity
   8
LEVEL002
 370
13
   6
CONTINUOUS
  62
7
 100
AcDbCircle
  10
 2694.5696192420
  20
 4293.4755878695
  30
0.0
  40
 2.5000000000000
 100
AcDbArc
  50
 270.00000000000
  51
0.0
   0
LINE
   5
1DF
 100
AcDbEntity
   8
LEVEL002
 370
13
 100
AcDbLine
   6
CONTINUOUS
  62
7
  10
 2697.0696192420
  20
 4293.4755878695
  30
0.0
  11
 2697.0696192420
  21
 5153.4755878695
  31
0.0
   0
ARC
   5
1E0
 100
AcDbEntity
   8
LEVEL002
 370
13
   6
CONTINUOUS
  62
7
 100
AcDbCircle
  10
 2694.5696192420
  20
 5153.4755878695
  30
0.0
  40
 2.5000000000000
 100
AcDbArc
  50
0.0
  51
 90.000000000000
   0
LINE
   5
1E1
 100
AcDbEntity
   8
LEVEL002
 370
13
 100
AcDbLine
   6
CONTINUOUS
  62
7
  10
 2672.6968062962
  20
 4317.3501504587
  30
0.0
  11
 2692.0696192420
  21
 4313.4755878695
  31
0.0
   0
ARC
   5
1E2
 100
AcDbEntity
   8
LEVEL002
 370
13
   6
CONTINUOUS
  62
7
 100
AcDbCircle
  10
 2674.0696192420
  20
 4324.2142151885
  30
0.0
  40
 7.0000000000000
 100
AcDbArc
  50
 180.00000000000
  51
 258.69006752594
   0
LINE
   5
1E3
 100
AcDbEntity
   8
LEVEL002
 370
13
 100
AcDbLine
   6
CONTINUOUS
  62
7
  10
 2667.0696192420
  20
 4775.7751864471
  30
0.0
  11
 2667.0696192420
  21
 4324.2142151885
  31
0.0
   0
ARC
   5
1E4
 100
AcDbEntity
   8
LEVEL002
 370
13
   6
CONTINUOUS
  62
7
 100
AcDbCircle
  10
 5640.2833687058
  20
 4723.4755878695
  30
0.0
  40
 3000.0000000000
 100
AcDbArc
  50
 178.16561308138
  51
 187.66225566077
   0
ARC
   5
1E5
 100
AcDbEntity
   8
LEVEL002
 370
13
   6
HIDDEN
  62
6
 100
AcDbCircle
  10
 5640.2833687058
  20
 4723.4755878695
  30
0.0
  40
 3000.0000000000
 100
AcDbArc
  50
 172.33774433923
  51
 178.16561308138
   0
LINE
   5
1E6
 100
AcDbEntity
   8
LEVEL002
 370
13
 100
AcDbLine
   6
HIDDEN
  62
6
  10
 2667.0696192420
  20
 5122.7369605505
  30
0.0
  11
 2667.0696192420
  21
 4775.7751864471
  31
0.0
   0
LINE
   5
1E7
 100
AcDbEntity
   8
LEVEL002
 370
13
 100
AcDbLine
   6
HIDDEN
  62
6
  10
 2692.0696192420
  20
 5133.4755878695
  30
0.0
  11
 2672.6968062962
  21
 5129.6010252803
  31
0.0
   0
ARC
   5
1E8
 100
AcDbEntity
   8
LEVEL002
 370
13
   6
HIDDEN
  62
6
 100
AcDbCircle
  10
 2674.0696192420
  20
 5122.7369605505
  30
0.0
  40
 7.0000000000000
 100
AcDbArc
  50
 101.30993247406
  51
 180.00000000000
   0
LINE
   5
1E9
 100
AcDbEntity
   8
LEVEL002
 370
13
 100
AcDbLine
   6
CONTINUOUS
  62
3
  10
 2692.0696192420
  20
 4767.1149324093
  30
0.0
  11
 2672.0696192420
  21
 4767.1149324091
  31
0.0
   0
LINE
   5
1EA
 100
AcDbEntity
   8
LEVEL002
 370
13
 100
AcDbLine
   6
CONTINUOUS
  62
3
  10
 2672.0696192420
  20
 4767.1149324091
  30
0.0
  11
 2607.0696192420
  21
 4879.6982349013
  31
0.0
   0
LINE
   5
1EB
 100
AcDbEntity
   8
LEVEL002
 370
13
 100
AcDbLine
   6
CONTINUOUS
  62
3
  10
 2607.0696192420
  20
 4879.6982349013
  30
0.0
  11
 2607.0696192420
  21
 5134.9755878695
  31
0.0
   0
LINE
   5
1EC
 100
AcDbEntity
   8
LEVEL002
 370
13
 100
AcDbLine
   6
CONTINUOUS
  62
3
  10
 2607.0696192420
  20
 5134.9755878695
  30
0.0
  11
 2692.0696192420
  21
 5134.9755878695
  31
0.0
   0
LINE
   5
1ED
 100
AcDbEntity
   8
LEVEL002
 370
13
 100
AcDbLine
   6
CONTINUOUS
  62
7
  10
 2697.0696192420
  20
 4668.4755878695
  30
0.0
  11
 2790.2696192420
  21
 4668.4755878695
  31
0.0
   0
LINE
   5
1EE
 100
AcDbEntity
   8
LEVEL002
 370
13
 100
AcDbLine
   6
CONTINUOUS
  62
7
  10
 2790.2696192420
  20
 4668.4755878695
  30
0.0
  11
 2790.2696192420
  21
 4778.4755878695
  31
0.0
   0
LINE
   5
1EF
 100
AcDbEntity
   8
LEVEL002
 370
13
 100
AcDbLine
   6
CONTINUOUS
  62
7
  10
 2790.2696192420
  20
 4778.4755878695
  30
0.0
  11
 2697.0696192420
  21
 4778.4755878695
  31
0.0
   0
LINE
   5
1F0
 100
AcDbEntity
   8
LEVEL002
 370
13
 100
AcDbLine
   6
DASHDOT
  62
6
  10
 2829.4187418994
  20
 4719.0610016885
  30
0.0
  11
 2799.4187418994
  21
 4719.0610016885
  31
0.0
   0
LINE
   5
1F1
 100
AcDbEntity
   8
LEVEL002
 370
13
 100
AcDbLine
   6
DASHDOT
  62
6
  10
 2814.4187418994
  20
 4734.0610016885
  30
0.0
  11
 2814.4187418994
  21
 4704.0610016885
  31
0.0
   0
LINE
   5
1F2
 100
AcDbEntity
   8
LEVEL002
 370
13
 100
AcDbLine
   6
CONTINUOUS
  62
7
  10
 3738.0446532788
  20
 5153.4755878695
  30
0.0
  11
 3738.0446532788
  21
 4293.4755878695
  31
0.0
   0
ARC
   5
1F3
 100
AcDbEntity
   8
LEVEL002
 370
13
   6
CONTINUOUS
  62
7
 100
AcDbCircle
  10
 3735.5446532788
  20
 5153.4755878695
  30
0.0
  40
 2.5000000000000
 100
AcDbArc
  50
0.0
  51
 90.000000000000
   0
LINE
   5
1F4
 100
AcDbEntity
   8
LEVEL002
 370
13
 100
AcDbLine
   6
CONTINUOUS
  62
7
  10
 3733.0446532788
  20
 4293.4755878695
  30
0.0
  11
 3733.0446532788
  21
 5153.4755878695
  31
0.0
   0
ARC
   5
1F5
 100
AcDbEntity
   8
LEVEL002
 370
13
   6
CONTINUOUS
  62
7
 100
AcDbCircle
  10
 3735.5446532788
  20
 5153.4755878695
  30
0.0
  40
 2.5000000000000
 100
AcDbArc
  50
 90.000000000000
  51
 180.00000000000
   0
ARC
   5
1F6
 100
AcDbEntity
   8
LEVEL002
 370
13
   6
HIDDEN
  62
6
 100
AcDbCircle
  10
 789.83090381495
  20
 4723.4755878695
  30
0.0
  40
 3000.0000000000
 100
AcDbArc
  50
 1.8343869186173
  51
 7.6622556607661
   0
LINE
   5
1F7
 100
AcDbEntity
   8
LEVEL002
 370
13
 100
AcDbLine
   6
HIDDEN
  62
6
  10
 3763.0446532788
  20
 5122.7369605505
  30
0.0
  11
 3763.0446532788
  21
 4775.7751864471
  31
0.0
   0
LINE
   5
1F8
 100
AcDbEntity
   8
LEVEL002
 370
13
 100
AcDbLine
   6
HIDDEN
  62
6
  10
 3738.0446532788
  20
 5133.4755878695
  30
0.0
  11
 3757.4174662246
  21
 5129.6010252803
  31
0.0
   0
ARC
   5
1F9
 100
AcDbEntity
   8
LEVEL002
 370
13
   6
HIDDEN
  62
6
 100
AcDbCircle
  10
 3756.0446532788
  20
 5122.7369605505
  30
0.0
  40
 7.0000000000000
 100
AcDbArc
  50
0.0
  51
 78.690067525974
   0
LINE
   5
1FA
 100
AcDbEntity
   8
LEVEL002
 370
13
 100
AcDbLine
   6
CONTINUOUS
  62
3
  10
 3738.0446532788
  20
 4767.1149324093
  30
0.0
  11
 3758.0446532788
  21
 4767.1149324091
  31
0.0
   0
LINE
   5
1FB
 100
AcDbEntity
   8
LEVEL002
 370
13
 100
AcDbLine
   6
CONTINUOUS
  62
3
  10
 3758.0446532788
  20
 4767.1149324091
  30
0.0
  11
 3823.0446532788
  21
 4879.6982349013
  31
0.0
   0
LINE
   5
1FC
 100
AcDbEntity
   8
LEVEL002
 370
13
 100
AcDbLine
   6
CONTINUOUS
  62
3
  10
 3823.0446532788
  20
 4879.6982349013
  30
0.0
  11
 3823.0446532788
  21
 5134.9755878695
  31
0.0
   0
LINE
   5
1FD
 100
AcDbEntity
   8
LEVEL002
 370
13
 100
AcDbLine
   6
CONTINUOUS
  62
3
  10
 3823.0446532788
  20
 5134.9755878695
  30
0.0
  11
 3738.0446532788
  21
 5134.9755878695
  31
0.0
   0
ARC
   5
1FE
 100
AcDbEntity
   8
LEVEL002
 370
13
   6
CONTINUOUS
  62
7
 100
AcDbCircle
  10
 789.83090381495
  20
 4723.4755878695
  30
0.0
  40
 3000.0000000000
 100
AcDbArc
  50
 352.33774433923
  51
 1.8343869186173
   0
ARC
   5
1FF
 100
AcDbEntity
   8
LEVEL002
 370
13
   6
CONTINUOUS
  62
7
 100
AcDbCircle
  10
 3735.5446532788
  20
 4293.4755878695
  30
0.0
  40
 2.5000000000000
 100
AcDbArc
  50
 270.00000000000
  51
0.0
   0
ARC
   5
200
 100
AcDbEntity
   8
LEVEL002
 370
13
   6
CONTINUOUS
  62
7
 100
AcDbCircle
  10
 3735.5446532788
  20
 4293.4755878695
  30
0.0
  40
 2.5000000000000
 100
AcDbArc
  50
 180.00000000000
  51
 270.00000000000
   0
LINE
   5
201
 100
AcDbEntity
   8
LEVEL002
 370
13
 100
AcDbLine
   6
CONTINUOUS
  62
7
  10
 3757.4174662246
  20
 4317.3501504587
  30
0.0
  11
 3738.0446532788
  21
 4313.4755878695
  31
0.0
   0
ARC
   5
202
 100
AcDbEntity
   8
LEVEL002
 370
13
   6
CONTINUOUS
  62
7
 100
AcDbCircle
  10
 3756.0446532788
  20
 4324.2142151885
  30
0.0
  40
 7.0000000000000
 100
AcDbArc
  50
 281.30993247403
  51
0.0
   0
LINE
   5
203
 100
AcDbEntity
   8
LEVEL002
 370
13
 100
AcDbLine
   6
CONTINUOUS
  62
7
  10
 3763.0446532788
  20
 4775.7751864471
  30
0.0
  11
 3763.0446532788
  21
 4324.2142151885
  31
0.0
   0
LINE
   5
204
 100
AcDbEntity
   8
LEVEL002
 370
13
 100
AcDbLine
   6
CONTINUOUS
  62
7
  10
 2845.2696192420
  20
 4668.4755878695
  30
0.0
  11
 2958.0529742090
  21
 4668.4755878695
  31
0.0
   0
LINE
   5
205
 100
AcDbEntity
   8
LEVEL002
 370
13
 100
AcDbLine
   6
CONTINUOUS
  62
7
  10
 2958.0529742090
  20
 4668.4755878695
  30
0.0
  11
 2958.0529742090
  21
 4778.4755878695
  31
0.0
   0
LINE
   5
206
 100
AcDbEntity
   8
LEVEL002
 370
13
 100
AcDbLine
   6
CONTINUOUS
  62
7
  10
 2958.0529742090
  20
 4778.4755878695
  30
0.0
  11
 2845.2696192420
  21
 4778.4755878695
  31
0.0
   0
LINE
   5
207
 100
AcDbEntity
   8
LEVEL002
 370
13
 100
AcDbLine
   6
CONTINUOUS
  62
7
  10
 2790.2696192420
  20
 4778.4755878695
  30
0.0
  11
 2845.2696192420
  21
 4778.4755878695
  31
0.0
   0
LINE
   5
208
 100
AcDbEntity
   8
LEVEL002
 370
13
 100
AcDbLine
   6
CONTINUOUS
  62
7
  10
 2845.2696192420
  20
 4778.4755878695
  30
0.0
  11
 2845.2696192420
  21
 4668.4755878695
  31
0.0
   0
LINE
   5
209
 100
AcDbEntity
   8
LEVEL002
 370
13
 100
AcDbLine
   6
CONTINUOUS
  62
7
  10
 2845.2696192420
  20
 4668.4755878695
  30
0.0
  11
 2790.2696192420
  21
 4668.4755878695
  31
0.0
   0
LINE
   5
20A
 100
AcDbEntity
   8
LEVEL002
 370
13
 100
AcDbLine
   6
CONTINUOUS
  62
3
  10
 2758.2696192420
  20
 4746.4755878695
  30
0.0
  11
 2772.2696192420
  21
 4746.4755878695
  31
0.0
   0
LINE
   5
20B
 100
AcDbEntity
   8
LEVEL002
 370
13
 100
AcDbLine
   6
CONTINUOUS
  62
3
  10
 2772.2696192420
  20
 4746.4755878695
  30
0.0
  11
 2772.2696192420
  21
 4760.4755878695
  31
0.0
   0
LINE
   5
20C
 100
AcDbEntity
   8
LEVEL002
 370
13
 100
AcDbLine
   6
CONTINUOUS
  62
3
  10
 2772.2696192420
  20
 4760.4755878695
  30
0.0
  11
 2758.2696192420
  21
 4760.4755878695
  31
0.0
   0
LINE
   5
20D
 100
AcDbEntity
   8
LEVEL002
 370
13
 100
AcDbLine
   6
CONTINUOUS
  62
3
  10
 2758.2696192420
  20
 4760.4755878695
  30
0.0
  11
 2758.2696192420
  21
 4746.4755878695
  31
0.0
   0
LINE
   5
20E
 100
AcDbEntity
   8
LEVEL002
 370
13
 100
AcDbLine
   6
CONTINUOUS
  62
3
  10
 2758.2696192420
  20
 4686.4755878695
  30
0.0
  11
 2772.2696192420
  21
 4686.4755878695
  31
0.0
   0
LINE
   5
20F
 100
AcDbEntity
   8
LEVEL002
 370
13
 100
AcDbLine
   6
CONTINUOUS
  62
3
  10
 2772.2696192420
  20
 4686.4755878695
  30
0.0
  11
 2772.2696192420
  21
 4700.4755878695
  31
0.0
   0
LINE
   5
210
 100
AcDbEntity
   8
LEVEL002
 370
13
 100
AcDbLine
   6
CONTINUOUS
  62
3
  10
 2772.2696192420
  20
 4700.4755878695
  30
0.0
  11
 2758.2696192420
  21
 4700.4755878695
  31
0.0
   0
LINE
   5
211
 100
AcDbEntity
   8
LEVEL002
 370
13
 100
AcDbLine
   6
CONTINUOUS
  62
3
  10
 2758.2696192420
  20
 4700.4755878695
  30
0.0
  11
 2758.2696192420
  21
 4686.4755878695
  31
0.0
   0
ARC
   5
212
 100
AcDbEntity
   8
LEVEL002
 370
13
   6
CONTINUOUS
  62
3
 100
AcDbCircle
  10
 2765.2696192420
  20
 4753.4755878695
  30
0.0
  40
 52.000000000000
 100
AcDbArc
  50
 298.73565374499
  51
 325.00000000001
   0
ARC
   5
213
 100
AcDbEntity
   8
LEVEL002
 370
13
   6
CONTINUOUS
  62
3
 100
AcDbCircle
  10
 2814.4187418996
  20
 4719.0610016889
  30
0.0
  40
 8.0000000000000
 100
AcDbArc
  50
 324.99999999601
  51
 144.99999999574
   0
ARC
   5
214
 100
AcDbEntity
   8
LEVEL002
 370
13
   6
CONTINUOUS
  62
3
 100
AcDbCircle
  10
 2765.2696192420
  20
 4753.4755878695
  30
0.0
  40
 68.000000000000
 100
AcDbArc
  50
 291.57057830167
  51
 325.00000000001
   0
LINE
   5
215
 100
AcDbEntity
   8
LEVEL002
 370
13
 100
AcDbLine
   6
CONTINUOUS
  62
3
  10
 2931.0529742090
  20
 4746.4755878695
  30
0.0
  11
 2945.0529742090
  21
 4746.4755878695
  31
0.0
   0
LINE
   5
216
 100
AcDbEntity
   8
LEVEL002
 370
13
 100
AcDbLine
   6
CONTINUOUS
  62
3
  10
 2945.0529742090
  20
 4746.4755878695
  30
0.0
  11
 2945.0529742090
  21
 4760.4755878695
  31
0.0
   0
LINE
   5
217
 100
AcDbEntity
   8
LEVEL002
 370
13
 100
AcDbLine
   6
CONTINUOUS
  62
3
  10
 2945.0529742090
  20
 4760.4755878695
  30
0.0
  11
 2931.0529742090
  21
 4760.4755878695
  31
0.0
   0
LINE
   5
218
 100
AcDbEntity
   8
LEVEL002
 370
13
 100
AcDbLine
   6
CONTINUOUS
  62
3
  10
 2931.0529742090
  20
 4760.4755878695
  30
0.0
  11
 2931.0529742090
  21
 4746.4755878695
  31
0.0
   0
LINE
   5
219
 100
AcDbEntity
   8
LEVEL002
 370
13
 100
AcDbLine
   6
CONTINUOUS
  62
3
  10
 2931.0529742090
  20
 4686.4755878695
  30
0.0
  11
 2945.0529742090
  21
 4686.4755878695
  31
0.0
   0
LINE
   5
21A
 100
AcDbEntity
   8
LEVEL002
 370
13
 100
AcDbLine
   6
CONTINUOUS
  62
3
  10
 2945.0529742090
  20
 4686.4755878695
  30
0.0
  11
 2945.0529742090
  21
 4700.4755878695
  31
0.0
   0
LINE
   5
21B
 100
AcDbEntity
   8
LEVEL002
 370
13
 100
AcDbLine
   6
CONTINUOUS
  62
3
  10
 2945.0529742090
  20
 4700.4755878695
  30
0.0
  11
 2931.0529742090
  21
 4700.4755878695
  31
0.0
   0
LINE
   5
21C
 100
AcDbEntity
   8
LEVEL002
 370
13
 100
AcDbLine
   6
CONTINUOUS
  62
3
  10
 2931.0529742090
  20
 4700.4755878695
  30
0.0
  11
 2931.0529742090
  21
 4686.4755878695
  31
0.0
   0
LINE
   5
21D
 100
AcDbEntity
   8
LEVEL002
 370
13
 100
AcDbLine
   6
CONTINUOUS
  62
6
  10
 3511.6332887580
  20
 4773.4755878695
  30
0.0
  11
 3511.6332887580
  21
 4673.4755878695
  31
0.0
   0
LINE
   5
21E
 100
AcDbEntity
   8
LEVEL002
 370
13
 100
AcDbLine
   6
DASHDOT
  62
6
  10
 3447.0612983118
  20
 4723.4755878695
  30
0.0
  11
 3845.8779184512
  21
 4723.4755878695
  31
0.0
   0
LINE
   5
21F
 100
AcDbEntity
   8
LEVEL002
 370
13
 100
AcDbLine
   6
DASHDOT
  62
6
  10
 3492.0612983118
  20
 4768.4755878695
  30
0.0
  11
 3492.0612983118
  21
 4738.4755878695
  31
0.0
   0
LINE
   5
220
 100
AcDbEntity
   8
LEVEL002
 370
13
 100
AcDbLine
   6
DASHDOT
  62
6
  10
 3477.0612983118
  20
 4753.4755878695
  30
0.0
  11
 3507.0612983118
  21
 4753.4755878695
  31
0.0
   0
LINE
   5
221
 100
AcDbEntity
   8
LEVEL002
 370
13
 100
AcDbLine
   6
DASHDOT
  62
6
  10
 3492.0612983118
  20
 4708.4755878695
  30
0.0
  11
 3492.0612983118
  21
 4678.4755878695
  31
0.0
   0
LINE
   5
222
 100
AcDbEntity
   8
LEVEL002
 370
13
 100
AcDbLine
   6
CONTINUOUS
  62
3
  10
 3499.0612983118
  20
 4746.4755878695
  30
0.0
  11
 3485.0612983118
  21
 4746.4755878695
  31
0.0
   0
LINE
   5
223
 100
AcDbEntity
   8
LEVEL002
 370
13
 100
AcDbLine
   6
CONTINUOUS
  62
3
  10
 3485.0612983118
  20
 4746.4755878695
  30
0.0
  11
 3485.0612983118
  21
 4760.4755878695
  31
0.0
   0
LINE
   5
224
 100
AcDbEntity
   8
LEVEL002
 370
13
 100
AcDbLine
   6
CONTINUOUS
  62
3
  10
 3485.0612983118
  20
 4760.4755878695
  30
0.0
  11
 3499.0612983118
  21
 4760.4755878695
  31
0.0
   0
LINE
   5
225
 100
AcDbEntity
   8
LEVEL002
 370
13
 100
AcDbLine
   6
CONTINUOUS
  62
3
  10
 3499.0612983118
  20
 4760.4755878695
  30
0.0
  11
 3499.0612983118
  21
 4746.4755878695
  31
0.0
   0
LINE
   5
226
 100
AcDbEntity
   8
LEVEL002
 370
13
 100
AcDbLine
   6
CONTINUOUS
  62
3
  10
 3499.0612983118
  20
 4686.4755878695
  30
0.0
  11
 3485.0612983118
  21
 4686.4755878695
  31
0.0
   0
LINE
   5
227
 100
AcDbEntity
   8
LEVEL002
 370
13
 100
AcDbLine
   6
CONTINUOUS
  62
3
  10
 3485.0612983118
  20
 4686.4755878695
  30
0.0
  11
 3485.0612983118
  21
 4700.4755878695
  31
0.0
   0
LINE
   5
228
 100
AcDbEntity
   8
LEVEL002
 370
13
 100
AcDbLine
   6
CONTINUOUS
  62
3
  10
 3485.0612983118
  20
 4700.4755878695
  30
0.0
  11
 3499.0612983118
  21
 4700.4755878695
  31
0.0
   0
LINE
   5
229
 100
AcDbEntity
   8
LEVEL002
 370
13
 100
AcDbLine
   6
CONTINUOUS
  62
3
  10
 3499.0612983118
  20
 4700.4755878695
  30
0.0
  11
 3499.0612983118
  21
 4686.4755878695
  31
0.0
   0
LINE
   5
22A
 100
AcDbEntity
   8
LEVEL002
 370
13
 100
AcDbLine
   6
DASHDOT
  62
6
  10
 3477.0612983118
  20
 4693.4755878695
  30
0.0
  11
 3507.0612983118
  21
 4693.4755878695
  31
0.0
   0
LINE
   5
22B
 100
AcDbEntity
   8
LEVEL002
 370
13
 100
AcDbLine
   6
DASHDOT
  62
6
  10
 3664.8446532788
  20
 4768.4755878695
  30
0.0
  11
 3664.8446532788
  21
 4738.4755878695
  31
0.0
   0
LINE
   5
22C
 100
AcDbEntity
   8
LEVEL002
 370
13
 100
AcDbLine
   6
DASHDOT
  62
6
  10
 3649.8446532788
  20
 4753.4755878695
  30
0.0
  11
 3679.8446532788
  21
 4753.4755878695
  31
0.0
   0
LINE
   5
22D
 100
AcDbEntity
   8
LEVEL002
 370
13
 100
AcDbLine
   6
DASHDOT
  62
6
  10
 3664.8446532788
  20
 4708.4755878695
  30
0.0
  11
 3664.8446532788
  21
 4678.4755878695
  31
0.0
   0
LINE
   5
22E
 100
AcDbEntity
   8
LEVEL002
 370
13
 100
AcDbLine
   6
DASHDOT
  62
6
  10
 3649.8446532788
  20
 4693.4755878695
  30
0.0
  11
 3679.8446532788
  21
 4693.4755878695
  31
0.0
   0
LINE
   5
22F
 100
AcDbEntity
   8
LEVEL002
 370
13
 100
AcDbLine
   6
CONTINUOUS
  62
7
  10
 3733.0446532788
  20
 4668.4755878695
  30
0.0
  11
 3639.8446532788
  21
 4668.4755878695
  31
0.0
   0
LINE
   5
230
 100
AcDbEntity
   8
LEVEL002
 370
13
 100
AcDbLine
   6
CONTINUOUS
  62
7
  10
 3639.8446532788
  20
 4668.4755878695
  30
0.0
  11
 3639.8446532788
  21
 4778.4755878695
  31
0.0
   0
LINE
   5
231
 100
AcDbEntity
   8
LEVEL002
 370
13
 100
AcDbLine
   6
CONTINUOUS
  62
7
  10
 3639.8446532788
  20
 4778.4755878695
  30
0.0
  11
 3733.0446532788
  21
 4778.4755878695
  31
0.0
   0
LINE
   5
232
 100
AcDbEntity
   8
LEVEL002
 370
13
 100
AcDbLine
   6
DASHDOT
  62
6
  10
 3600.6955306214
  20
 4719.0610016885
  30
0.0
  11
 3630.6955306214
  21
 4719.0610016885
  31
0.0
   0
LINE
   5
233
 100
AcDbEntity
   8
LEVEL002
 370
13
 100
AcDbLine
   6
DASHDOT
  62
6
  10
 3615.6955306214
  20
 4734.0610016885
  30
0.0
  11
 3615.6955306214
  21
 4704.0610016885
  31
0.0
   0
LINE
   5
234
 100
AcDbEntity
   8
LEVEL002
 370
13
 100
AcDbLine
   6
CONTINUOUS
  62
7
  10
 3639.8446532788
  20
 4778.4755878695
  30
0.0
  11
 3584.8446532788
  21
 4778.4755878695
  31
0.0
   0
LINE
   5
235
 100
AcDbEntity
   8
LEVEL002
 370
13
 100
AcDbLine
   6
CONTINUOUS
  62
7
  10
 3584.8446532788
  20
 4778.4755878695
  30
0.0
  11
 3584.8446532788
  21
 4668.4755878695
  31
0.0
   0
LINE
   5
236
 100
AcDbEntity
   8
LEVEL002
 370
13
 100
AcDbLine
   6
CONTINUOUS
  62
7
  10
 3584.8446532788
  20
 4668.4755878695
  30
0.0
  11
 3639.8446532788
  21
 4668.4755878695
  31
0.0
   0
LINE
   5
237
 100
AcDbEntity
   8
LEVEL002
 370
13
 100
AcDbLine
   6
CONTINUOUS
  62
3
  10
 3671.8446532788
  20
 4746.4755878695
  30
0.0
  11
 3657.8446532788
  21
 4746.4755878695
  31
0.0
   0
LINE
   5
238
 100
AcDbEntity
   8
LEVEL002
 370
13
 100
AcDbLine
   6
CONTINUOUS
  62
3
  10
 3657.8446532788
  20
 4746.4755878695
  30
0.0
  11
 3657.8446532788
  21
 4760.4755878695
  31
0.0
   0
LINE
   5
239
 100
AcDbEntity
   8
LEVEL002
 370
13
 100
AcDbLine
   6
CONTINUOUS
  62
3
  10
 3657.8446532788
  20
 4760.4755878695
  30
0.0
  11
 3671.8446532788
  21
 4760.4755878695
  31
0.0
   0
LINE
   5
23A
 100
AcDbEntity
   8
LEVEL002
 370
13
 100
AcDbLine
   6
CONTINUOUS
  62
3
  10
 3671.8446532788
  20
 4760.4755878695
  30
0.0
  11
 3671.8446532788
  21
 4746.4755878695
  31
0.0
   0
LINE
   5
23B
 100
AcDbEntity
   8
LEVEL002
 370
13
 100
AcDbLine
   6
CONTINUOUS
  62
3
  10
 3671.8446532788
  20
 4686.4755878695
  30
0.0
  11
 3657.8446532788
  21
 4686.4755878695
  31
0.0
   0
LINE
   5
23C
 100
AcDbEntity
   8
LEVEL002
 370
13
 100
AcDbLine
   6
CONTINUOUS
  62
3
  10
 3657.8446532788
  20
 4686.4755878695
  30
0.0
  11
 3657.8446532788
  21
 4700.4755878695
  31
0.0
   0
LINE
   5
23D
 100
AcDbEntity
   8
LEVEL002
 370
13
 100
AcDbLine
   6
CONTINUOUS
  62
3
  10
 3657.8446532788
  20
 4700.4755878695
  30
0.0
  11
 3671.8446532788
  21
 4700.4755878695
  31
0.0
   0
LINE
   5
23E
 100
AcDbEntity
   8
LEVEL002
 370
13
 100
AcDbLine
   6
CONTINUOUS
  62
3
  10
 3671.8446532788
  20
 4700.4755878695
  30
0.0
  11
 3671.8446532788
  21
 4686.4755878695
  31
0.0
   0
ARC
   5
23F
 100
AcDbEntity
   8
LEVEL002
 370
13
   6
CONTINUOUS
  62
3
 100
AcDbCircle
  10
 3664.8446532788
  20
 4753.4755878695
  30
0.0
  40
 52.000000000000
 100
AcDbArc
  50
 214.99999999999
  51
 241.26434625501
   0
ARC
   5
240
 100
AcDbEntity
   8
LEVEL002
 370
13
   6
CONTINUOUS
  62
3
 100
AcDbCircle
  10
 3615.6955306212
  20
 4719.0610016889
  30
0.0
  40
 8.0000000000000
 100
AcDbArc
  50
 35.000000004272
  51
 215.00000000399
   0
ARC
   5
241
 100
AcDbEntity
   8
LEVEL002
 370
13
   6
CONTINUOUS
  62
3
 100
AcDbCircle
  10
 3664.8446532788
  20
 4753.4755878695
  30
0.0
  40
 68.000000000000
 100
AcDbArc
  50
 214.99999999999
  51
 248.42942169833
   0
LINE
   5
242
 100
AcDbEntity
   8
LEVEL002
 370
13
 100
AcDbLine
   6
CONTINUOUS
  62
7
  10
 3584.8446532788
  20
 4668.4755878695
  30
0.0
  11
 3472.0612983118
  21
 4668.4755878695
  31
0.0
   0
LINE
   5
243
 100
AcDbEntity
   8
LEVEL002
 370
13
 100
AcDbLine
   6
CONTINUOUS
  62
7
  10
 3472.0612983118
  20
 4668.4755878695
  30
0.0
  11
 3472.0612983118
  21
 4778.4755878695
  31
0.0
   0
LINE
   5
244
 100
AcDbEntity
   8
LEVEL002
 370
13
 100
AcDbLine
   6
CONTINUOUS
  62
7
  10
 3472.0612983118
  20
 4778.4755878695
  30
0.0
  11
 3584.8446532788
  21
 4778.4755878695
  31
0.0
   0
LINE
   5
245
 100
AcDbEntity
   8
LEVEL002
 370
13
 100
AcDbLine
   6
CONTINUOUS
  62
3
  10
 3271.0571447802
  20
 4781.4755878695
  30
0.0
  11
 3285.0571447802
  21
 4781.4755878695
  31
0.0
   0
LINE
   5
246
 100
AcDbEntity
   8
LEVEL002
 370
13
 100
AcDbLine
   6
CONTINUOUS
  62
3
  10
 3285.0571447802
  20
 4781.4755878695
  30
0.0
  11
 3285.0571447802
  21
 4795.4755878695
  31
0.0
   0
LINE
   5
247
 100
AcDbEntity
   8
LEVEL002
 370
13
 100
AcDbLine
   6
CONTINUOUS
  62
3
  10
 3285.0571447802
  20
 4795.4755878695
  30
0.0
  11
 3271.0571447802
  21
 4795.4755878695
  31
0.0
   0
LINE
   5
248
 100
AcDbEntity
   8
LEVEL002
 370
13
 100
AcDbLine
   6
CONTINUOUS
  62
3
  10
 3271.0571447802
  20
 4795.4755878695
  30
0.0
  11
 3271.0571447802
  21
 4781.4755878695
  31
0.0
   0
LINE
   5
249
 100
AcDbEntity
   8
LEVEL002
 370
13
 100
AcDbLine
   6
CONTINUOUS
  62
3
  10
 3271.0571447802
  20
 4721.4755878695
  30
0.0
  11
 3285.0571447802
  21
 4721.4755878695
  31
0.0
   0
LINE
   5
24A
 100
AcDbEntity
   8
LEVEL002
 370
13
 100
AcDbLine
   6
CONTINUOUS
  62
3
  10
 3285.0571447802
  20
 4721.4755878695
  30
0.0
  11
 3285.0571447802
  21
 4735.4755878695
  31
0.0
   0
LINE
   5
24B
 100
AcDbEntity
   8
LEVEL002
 370
13
 100
AcDbLine
   6
CONTINUOUS
  62
3
  10
 3285.0571447802
  20
 4735.4755878695
  30
0.0
  11
 3271.0571447802
  21
 4735.4755878695
  31
0.0
   0
LINE
   5
24C
 100
AcDbEntity
   8
LEVEL002
 370
13
 100
AcDbLine
   6
CONTINUOUS
  62
3
  10
 3271.0571447802
  20
 4735.4755878695
  30
0.0
  11
 3271.0571447802
  21
 4721.4755878695
  31
0.0
   0
LINE
   5
24D
 100
AcDbEntity
   8
LEVEL002
 370
13
 100
AcDbLine
   6
CONTINUOUS
  62
3
  10
 3159.0571277406
  20
 4671.4755878695
  30
0.0
  11
 3145.0571277406
  21
 4671.4755878695
  31
0.0
   0
LINE
   5
24E
 100
AcDbEntity
   8
LEVEL002
 370
13
 100
AcDbLine
   6
CONTINUOUS
  62
3
  10
 3145.0571277406
  20
 4671.4755878695
  30
0.0
  11
 3145.0571277406
  21
 4685.4755878695
  31
0.0
   0
LINE
   5
24F
 100
AcDbEntity
   8
LEVEL002
 370
13
 100
AcDbLine
   6
CONTINUOUS
  62
3
  10
 3145.0571277406
  20
 4685.4755878695
  30
0.0
  11
 3159.0571277406
  21
 4685.4755878695
  31
0.0
   0
LINE
   5
250
 100
AcDbEntity
   8
LEVEL002
 370
13
 100
AcDbLine
   6
CONTINUOUS
  62
3
  10
 3159.0571277406
  20
 4685.4755878695
  30
0.0
  11
 3159.0571277406
  21
 4671.4755878695
  31
0.0
   0
LINE
   5
251
 100
AcDbEntity
   8
LEVEL002
 370
13
 100
AcDbLine
   6
CONTINUOUS
  62
3
  10
 3159.0571277406
  20
 4611.4755878695
  30
0.0
  11
 3145.0571277406
  21
 4611.4755878695
  31
0.0
   0
LINE
   5
252
 100
AcDbEntity
   8
LEVEL002
 370
13
 100
AcDbLine
   6
CONTINUOUS
  62
3
  10
 3145.0571277406
  20
 4611.4755878695
  30
0.0
  11
 3145.0571277406
  21
 4625.4755878695
  31
0.0
   0
LINE
   5
253
 100
AcDbEntity
   8
LEVEL002
 370
13
 100
AcDbLine
   6
CONTINUOUS
  62
3
  10
 3145.0571277406
  20
 4625.4755878695
  30
0.0
  11
 3159.0571277406
  21
 4625.4755878695
  31
0.0
   0
LINE
   5
254
 100
AcDbEntity
   8
LEVEL002
 370
13
 100
AcDbLine
   6
CONTINUOUS
  62
3
  10
 3159.0571277406
  20
 4625.4755878695
  30
0.0
  11
 3159.0571277406
  21
 4611.4755878695
  31
0.0
   0
LINE
   5
255
 100
AcDbEntity
   8
LEVEL002
 370
13
 100
AcDbLine
   6
CONTINUOUS
  62
6
  10
 3257.6218616054
  20
 4808.4755878695
  30
0.0
  11
 3257.6218616054
  21
 4708.4755878695
  31
0.0
   0
LINE
   5
256
 100
AcDbEntity
   8
LEVEL002
 370
13
 100
AcDbLine
   6
CONTINUOUS
  62
6
  10
 3172.4924109154
  20
 4698.4755878695
  30
0.0
  11
 3172.4924109154
  21
 4598.4755878695
  31
0.0
   0
LINE
   5
257
 100
AcDbEntity
   8
LEVEL002
 370
13
 100
AcDbLine
   6
CONTINUOUS
  62
6
  10
 3162.0059443484
  20
 3661.9755268297
  30
0.0
  11
 3162.0059443484
  21
 3660.9755878687
  31
0.0
   0
LINE
   5
258
 100
AcDbEntity
   8
LEVEL002
 370
13
 100
AcDbLine
   6
CONTINUOUS
  62
7
  10
 3162.4614231274
  20
 3675.9759540211
  30
0.0
  11
 3162.4618808914
  21
 3717.9758623045
  31
0.0
   0
LINE
   5
259
 100
AcDbEntity
   8
LEVEL002
 370
13
 100
AcDbLine
   6
CONTINUOUS
  62
7
  10
 3159.0059443484
  20
 3732.9755875877
  30
0.0
  11
 3162.0059443484
  21
 3732.9755875877
  31
0.0
   0
LINE
   5
25A
 100
AcDbEntity
   8
LEVEL002
 370
13
 100
AcDbLine
   6
CONTINUOUS
  62
6
  10
 3162.0059443484
  20
 3732.9755875877
  30
0.0
  11
 3162.0059443484
  21
 3731.9755570741
  31
0.0
   0
LINE
   5
25B
 100
AcDbEntity
   8
LEVEL002
 370
13
 100
AcDbLine
   6
CONTINUOUS
  62
6
  10
 3162.0059443484
  20
 3731.9755570741
  30
0.0
  11
 3159.0059443484
  21
 3731.9755570741
  31
0.0
   0
ELLIPSE
   5
25C
 100
AcDbEntity
   8
LEVEL002
 370
13
   6
CONTINUOUS
  62
7
 100
AcDbEllipse
  10
 3158.4618783402
  20
 3717.9758011519
  30
0.0
  11
-4.0000025516047
  21
0.0
  31
0.0
  40
 0.99999938800000
  41
-3.1415773654681
  42
-1.7072356670378
   0
LINE
   5
25D
 100
AcDbEntity
   8
LEVEL002
 370
13
 100
AcDbLine
   6
CONTINUOUS
  62
6
  10
 3159.0059443484
  20
 3661.9755268297
  30
0.0
  11
 3162.0059443484
  21
 3661.9755268297
  31
0.0
   0
ELLIPSE
   5
25E
 100
AcDbEntity
   8
LEVEL002
 370
13
   6
CONTINUOUS
  62
7
 100
AcDbEllipse
  10
 3158.4614205776
  20
 3675.9758320699
  30
0.0
  11
-4.0000025516047
  21
0.0
  31
0.0
  40
 0.99999938800000
  41
 1.7073511820402
  42
-3.1415621657857
   0
LINE
   5
25F
 100
AcDbEntity
   8
LEVEL002
 370
13
 100
AcDbLine
   6
CONTINUOUS
  62
7
  10
 3162.0059443484
  20
 3660.9755878687
  30
0.0
  11
 3159.0059443484
  21
 3660.9755878687
  31
0.0
   0
LINE
   5
260
 100
AcDbEntity
   8
LEVEL002
 370
13
 100
AcDbLine
   6
CONTINUOUS
  62
6
  10
 3258.8339453480
  20
 3680.4755875877
  30
0.0
  11
 3258.8339453480
  21
 3689.4755875877
  31
0.0
   0
LINE
   5
261
 100
AcDbEntity
   8
LEVEL002
 370
13
 100
AcDbLine
   6
CONTINUOUS
  62
6
  10
 3258.8339453480
  20
 3704.4755875877
  30
0.0
  11
 3258.8339453480
  21
 3713.4755875877
  31
0.0
   0
LINE
   5
262
 100
AcDbEntity
   8
LEVEL002
 370
13
 100
AcDbLine
   6
CONTINUOUS
  62
6
  10
 3261.1524703892
  20
 3690.4755875877
  30
0.0
  11
 3261.1524703892
  21
 3703.4755875877
  31
0.0
   0
LINE
   5
263
 100
AcDbEntity
   8
LEVEL002
 370
13
 100
AcDbLine
   6
CONTINUOUS
  62
6
  10
 3258.8339453480
  20
 3703.4755875877
  30
0.0
  11
 3172.7531514726
  21
 3703.4755875877
  31
0.0
   0
LINE
   5
264
 100
AcDbEntity
   8
LEVEL002
 370
13
 100
AcDbLine
   6
CONTINUOUS
  62
6
  10
 3172.7531514726
  20
 3690.4755875877
  30
0.0
  11
 3258.8339453480
  21
 3690.4755875877
  31
0.0
   0
LINE
   5
265
 100
AcDbEntity
   8
LEVEL002
 370
13
 100
AcDbLine
   6
CONTINUOUS
  62
7
  10
 3162.4618536404
  20
 3678.4755875877
  30
0.0
  11
 3280.0059443484
  21
 3678.4755875877
  31
0.0
   0
LINE
   5
266
 100
AcDbEntity
   8
LEVEL002
 370
13
 100
AcDbLine
   6
CONTINUOUS
  62
7
  10
 3280.0059443484
  20
 3678.4755875877
  30
0.0
  11
 3280.0059443484
  21
 3715.4755875877
  31
0.0
   0
LINE
   5
267
 100
AcDbEntity
   8
LEVEL002
 370
13
 100
AcDbLine
   6
CONTINUOUS
  62
7
  10
 3280.0059443484
  20
 3715.4755875877
  30
0.0
  11
 3162.4614503714
  21
 3715.4755875877
  31
0.0
   0
LINE
   5
268
 100
AcDbEntity
   8
LEVEL002
 370
13
 100
AcDbLine
   6
CONTINUOUS
  62
6
  10
 3171.4922569030
  20
 3691.4755875877
  30
0.0
  11
 3171.4922569030
  21
 3702.4755875877
  31
0.0
   0
LINE
   5
269
 100
AcDbEntity
   8
LEVEL002
 370
13
 100
AcDbLine
   6
CONTINUOUS
  62
6
  10
 3171.4922569030
  20
 3704.4755875877
  30
0.0
  11
 3171.4922569030
  21
 3713.4755875877
  31
0.0
   0
LINE
   5
26A
 100
AcDbEntity
   8
LEVEL002
 370
13
 100
AcDbLine
   6
CONTINUOUS
  62
6
  10
 3171.4922569030
  20
 3680.4755875877
  30
0.0
  11
 3171.4922569030
  21
 3689.4755875877
  31
0.0
   0
ARC
   5
26B
 100
AcDbEntity
   8
LEVEL002
 370
13
   6
CONTINUOUS
  62
7
 100
AcDbCircle
  10
 3160.0059443484
  20
 3599.6173081585
  30
0.0
  40
 5.0000000000000
 100
AcDbArc
  50
 180.00000000000
  51
 201.80140948644
   0
LINE
   5
26C
 100
AcDbEntity
   8
LEVEL002
 370
13
 100
AcDbLine
   6
CONTINUOUS
  62
7
  10
 3158.0774676574
  20
 3590.9755878679
  30
0.0
  11
 3155.3635608940
  21
 3597.7603547767
  31
0.0
   0
ARC
   5
26D
 100
AcDbEntity
   8
LEVEL002
 370
13
   6
CONTINUOUS
  62
7
 100
AcDbCircle
  10
 3154.0059443484
  20
 3606.8232343269
  30
0.0
  40
 5.0000000000000
 100
AcDbArc
  50
 338.19859051356
  51
0.0
   0
LINE
   5
26E
 100
AcDbEntity
   8
LEVEL002
 370
13
 100
AcDbLine
   6
CONTINUOUS
  62
7
  10
 3156.8460569480
  20
 3600.4606038085
  30
0.0
  11
 3158.6483278027
  21
 3604.9662809451
  31
0.0
   0
ARC
   5
26F
 100
AcDbEntity
   8
LEVEL002
 370
13
   6
CONTINUOUS
  62
7
 100
AcDbCircle
  10
 3161.4884404026
  20
 3598.6036504267
  30
0.0
  40
 5.0000000000000
 100
AcDbArc
  50
 158.19859051356
  51
 201.80140948644
   0
LINE
   5
270
 100
AcDbEntity
   8
LEVEL002
 370
13
 100
AcDbLine
   6
CONTINUOUS
  62
7
  10
 3158.0774676574
  20
 3590.9755878679
  30
0.0
  11
 3159.0059443484
  21
 3591.3469785443
  31
0.0
   0
LINE
   5
271
 100
AcDbEntity
   8
LEVEL002
 370
13
 100
AcDbLine
   6
CONTINUOUS
  62
7
  10
 3159.0059443484
  20
 3591.3469785443
  30
0.0
  11
 3156.8460569480
  21
 3596.7466970449
  31
0.0
   0
LINE
   5
272
 100
AcDbEntity
   8
LEVEL002
 370
13
 100
AcDbLine
   6
CONTINUOUS
  62
6
  10
 3258.8339453480
  20
 4091.4755881495
  30
0.0
  11
 3172.7531514726
  21
 4091.4755881495
  31
0.0
   0
LINE
   5
273
 100
AcDbEntity
   8
LEVEL002
 370
13
 100
AcDbLine
   6
CONTINUOUS
  62
6
  10
 3172.7531514726
  20
 4078.4755881495
  30
0.0
  11
 3258.8339453480
  21
 4078.4755881495
  31
0.0
   0
LINE
   5
274
 100
AcDbEntity
   8
LEVEL002
 370
13
 100
AcDbLine
   6
CONTINUOUS
  62
7
  10
 3162.4618536404
  20
 4066.4755881495
  30
0.0
  11
 3280.0059443484
  21
 4066.4755881495
  31
0.0
   0
LINE
   5
275
 100
AcDbEntity
   8
LEVEL002
 370
13
 100
AcDbLine
   6
CONTINUOUS
  62
7
  10
 3280.0059443484
  20
 4066.4755881495
  30
0.0
  11
 3280.0059443484
  21
 4103.4755881495
  31
0.0
   0
LINE
   5
276
 100
AcDbEntity
   8
LEVEL002
 370
13
 100
AcDbLine
   6
CONTINUOUS
  62
7
  10
 3280.0059443484
  20
 4103.4755881495
  30
0.0
  11
 3162.4614503714
  21
 4103.4755881495
  31
0.0
   0
LINE
   5
277
 100
AcDbEntity
   8
LEVEL002
 370
13
 100
AcDbLine
   6
CONTINUOUS
  62
7
  10
 3162.4614231274
  20
 4063.9759545829
  30
0.0
  11
 3162.4618808914
  21
 4105.9758628663
  31
0.0
   0
LINE
   5
278
 100
AcDbEntity
   8
LEVEL002
 370
13
 100
AcDbLine
   6
CONTINUOUS
  62
6
  10
 3171.4922569030
  20
 4079.4755881495
  30
0.0
  11
 3171.4922569030
  21
 4090.4755881495
  31
0.0
   0
LINE
   5
279
 100
AcDbEntity
   8
LEVEL002
 370
13
 100
AcDbLine
   6
CONTINUOUS
  62
6
  10
 3171.4922569030
  20
 4092.4755881495
  30
0.0
  11
 3171.4922569030
  21
 4101.4755881495
  31
0.0
   0
LINE
   5
27A
 100
AcDbEntity
   8
LEVEL002
 370
13
 100
AcDbLine
   6
CONTINUOUS
  62
6
  10
 3171.4922569030
  20
 4068.4755881495
  30
0.0
  11
 3171.4922569030
  21
 4077.4755881495
  31
0.0
   0
LINE
   5
27B
 100
AcDbEntity
   8
LEVEL002
 370
13
 100
AcDbLine
   6
CONTINUOUS
  62
6
  10
 3162.0059443484
  20
 4049.9755273915
  30
0.0
  11
 3162.0059443484
  21
 4048.9755884305
  31
0.0
   0
LINE
   5
27C
 100
AcDbEntity
   8
LEVEL002
 370
13
 100
AcDbLine
   6
CONTINUOUS
  62
7
  10
 3159.0059443484
  20
 4120.9755881495
  30
0.0
  11
 3162.0059443484
  21
 4120.9755881495
  31
0.0
   0
LINE
   5
27D
 100
AcDbEntity
   8
LEVEL002
 370
13
 100
AcDbLine
   6
CONTINUOUS
  62
6
  10
 3162.0059443484
  20
 4120.9755881495
  30
0.0
  11
 3162.0059443484
  21
 4119.9755576359
  31
0.0
   0
LINE
   5
27E
 100
AcDbEntity
   8
LEVEL002
 370
13
 100
AcDbLine
   6
CONTINUOUS
  62
6
  10
 3162.0059443484
  20
 4119.9755576359
  30
0.0
  11
 3159.0059443484
  21
 4119.9755576359
  31
0.0
   0
ELLIPSE
   5
27F
 100
AcDbEntity
   8
LEVEL002
 370
13
   6
CONTINUOUS
  62
7
 100
AcDbEllipse
  10
 3158.4618783402
  20
 4105.9758017139
  30
0.0
  11
-4.0000025516047
  21
0.0
  31
0.0
  40
 0.99999938800000
  41
-3.1415773654608
  42
-1.7072356670378
   0
LINE
   5
280
 100
AcDbEntity
   8
LEVEL002
 370
13
 100
AcDbLine
   6
CONTINUOUS
  62
6
  10
 3159.0059443484
  20
 4049.9755273915
  30
0.0
  11
 3162.0059443484
  21
 4049.9755273915
  31
0.0
   0
ELLIPSE
   5
281
 100
AcDbEntity
   8
LEVEL002
 370
13
   6
CONTINUOUS
  62
7
 100
AcDbEllipse
  10
 3158.4614205776
  20
 4063.9758326317
  30
0.0
  11
-4.0000025516047
  21
0.0
  31
0.0
  40
 0.99999938800000
  41
 1.7073511820392
  42
-3.1415621657893
   0
LINE
   5
282
 100
AcDbEntity
   8
LEVEL002
 370
13
 100
AcDbLine
   6
CONTINUOUS
  62
7
  10
 3162.0059443484
  20
 4048.9755884305
  30
0.0
  11
 3159.0059443484
  21
 4048.9755884305
  31
0.0
   0
LINE
   5
283
 100
AcDbEntity
   8
LEVEL002
 370
13
 100
AcDbLine
   6
CONTINUOUS
  62
6
  10
 3258.8339453480
  20
 4068.4755881495
  30
0.0
  11
 3258.8339453480
  21
 4077.4755881495
  31
0.0
   0
LINE
   5
284
 100
AcDbEntity
   8
LEVEL002
 370
13
 100
AcDbLine
   6
CONTINUOUS
  62
6
  10
 3258.8339453480
  20
 4092.4755881495
  30
0.0
  11
 3258.8339453480
  21
 4101.4755881495
  31
0.0
   0
LINE
   5
285
 100
AcDbEntity
   8
LEVEL002
 370
13
 100
AcDbLine
   6
CONTINUOUS
  62
6
  10
 3261.1524703892
  20
 4078.4755881495
  30
0.0
  11
 3261.1524703892
  21
 4091.4755881495
  31
0.0
   0
LINE
   5
286
 100
AcDbEntity
   8
LEVEL002
 370
13
 100
AcDbLine
   6
CONTINUOUS
  62
7
  10
 3265.0059443484
  20
 4079.9755881495
  30
0.0
  11
 3275.0059443484
  21
 4079.9755881495
  31
0.0
   0
LINE
   5
287
 100
AcDbEntity
   8
LEVEL002
 370
13
 100
AcDbLine
   6
CONTINUOUS
  62
7
  10
 3275.0059443484
  20
 4079.9755881495
  30
0.0
  11
 3275.0059443484
  21
 4089.9755881495
  31
0.0
   0
LINE
   5
288
 100
AcDbEntity
   8
LEVEL002
 370
13
 100
AcDbLine
   6
CONTINUOUS
  62
7
  10
 3275.0059443484
  20
 4089.9755881495
  30
0.0
  11
 3265.0059443484
  21
 4089.9755881495
  31
0.0
   0
LINE
   5
289
 100
AcDbEntity
   8
LEVEL002
 370
13
 100
AcDbLine
   6
CONTINUOUS
  62
7
  10
 3265.0059443484
  20
 4089.9755881495
  30
0.0
  11
 3265.0059443484
  21
 4079.9755881495
  31
0.0
   0
LINE
   5
28A
 100
AcDbEntity
   8
LEVEL002
 370
13
 100
AcDbLine
   6
CONTINUOUS
  62
7
  10
 3265.0059443484
  20
 3691.9755875877
  30
0.0
  11
 3275.0059443484
  21
 3691.9755875877
  31
0.0
   0
LINE
   5
28B
 100
AcDbEntity
   8
LEVEL002
 370
13
 100
AcDbLine
   6
CONTINUOUS
  62
7
  10
 3275.0059443484
  20
 3691.9755875877
  30
0.0
  11
 3275.0059443484
  21
 3701.9755875877
  31
0.0
   0
LINE
   5
28C
 100
AcDbEntity
   8
LEVEL002
 370
13
 100
AcDbLine
   6
CONTINUOUS
  62
7
  10
 3275.0059443484
  20
 3701.9755875877
  30
0.0
  11
 3265.0059443484
  21
 3701.9755875877
  31
0.0
   0
LINE
   5
28D
 100
AcDbEntity
   8
LEVEL002
 370
13
 100
AcDbLine
   6
CONTINUOUS
  62
7
  10
 3265.0059443484
  20
 3701.9755875877
  30
0.0
  11
 3265.0059443484
  21
 3691.9755875877
  31
0.0
   0
LINE
   5
28E
 100
AcDbEntity
   8
LEVEL002
 370
13
 100
AcDbLine
   6
CONTINUOUS
  62
7
  10
 3170.5071362604
  20
 4066.4755881495
  30
0.0
  11
 3170.5071362604
  21
 3715.4755875877
  31
0.0
   0
LINE
   5
28F
 100
AcDbEntity
   8
LEVEL002
 370
13
 100
AcDbLine
   6
CONTINUOUS
  62
7
  10
 3259.6071362604
  20
 3715.4755875877
  30
0.0
  11
 3259.6071362604
  21
 4066.4755881495
  31
0.0
   0
LEADER
   5
290
 100
AcDbEntity
   8
LEVEL002
 370
13
   6
CONTINUOUS
  62
1
 100
AcDbLeader
   3
GMM002
  73
3
  74
1
  75
0
  40
 60.000000000000
  41
0.0
  76
2
  10
 3215.0571362604
  20
 4994.9755878695
  30
0.0
  10
 3372.1380510676
  20
 5218.1768344819
  30
0.0
  77
1
   0
CIRCLE
   5
291
 100
AcDbEntity
   8
LEVEL002
 370
13
 100
AcDbCircle
   6
CONTINUOUS
  62
1
  10
 3574.5509543880
  20
 5273.4755878695
  30
0.0
  40
 69.999997913838
   0
CIRCLE
   5
292
 100
AcDbEntity
   8
LEVEL002
 370
13
 100
AcDbCircle
   6
CONTINUOUS
  62
1
  10
 3714.5509502157
  20
 5273.4755878695
  30
0.0
  40
 69.999997913838
   0
MTEXT
   5
293
 100
AcDbEntity
   8
LEVEL002
 370
13
  62
1
 100
AcDbMText
  10
 3415.0571362604
  20
 5273.4755878695
  30
0.0
  40
 57.142857142858
  41
0.0
  71
5
  72
1
   1
\T1.000000;13
   7
GMM001
  44
 0.79999984000003
   0
CIRCLE
   5
294
 100
AcDbEntity
   8
LEVEL002
 370
13
 100
AcDbCircle
   6
CONTINUOUS
  62
1
  10
 3415.0571362604
  20
 5273.4755878695
  30
0.0
  40
 70.000000000000
   0
MTEXT
   5
295
 100
AcDbEntity
   8
LEVEL002
 370
13
  62
1
 100
AcDbMText
  10
 3574.5509543880
  20
 5273.4755878695
  30
0.0
  40
 57.142857142858
  41
0.0
  71
5
  72
1
   1
\T1.000000;6
   7
GMM001
  44
 0.79999984000003
   0
MTEXT
   5
296
 100
AcDbEntity
   8
LEVEL002
 370
13
  62
1
 100
AcDbMText
  10
 3714.5509502157
  20
 5273.4755878695
  30
0.0
  40
 57.142857142858
  41
0.0
  71
5
  72
1
   1
\T1.000000;8
   7
GMM001
  44
 0.79999984000003
   0
CIRCLE
   5
297
 100
AcDbEntity
   8
LEVEL002
 370
13
 100
AcDbCircle
   6
CONTINUOUS
  62
1
  10
 2875.0571404328
  20
 5273.4755878695
  30
0.0
  40
 69.999997913838
   0
CIRCLE
   5
298
 100
AcDbEntity
   8
LEVEL002
 370
13
 100
AcDbCircle
   6
CONTINUOUS
  62
1
  10
 3015.0571362604
  20
 5273.4755878695
  30
0.0
  40
 69.999997913838
   0
MTEXT
   5
299
 100
AcDbEntity
   8
LEVEL002
 370
13
  62
1
 100
AcDbMText
  10
 3015.0571362604
  20
 5273.4755878695
  30
0.0
  40
 57.142857142858
  41
0.0
  71
5
  72
1
   1
\T1.000000;7
   7
GMM001
  44
 0.79999984000003
   0
MTEXT
   5
29A
 100
AcDbEntity
   8
LEVEL002
 370
13
  62
1
 100
AcDbMText
  10
 2875.0571404328
  20
 5273.4755878695
  30
0.0
  40
 57.142857142858
  41
0.0
  71
5
  72
1
   1
\T1.000000;5
   7
GMM001
  44
 0.79999984000003
   0
CIRCLE
   5
29B
 100
AcDbEntity
   8
LEVEL002
 370
13
 100
AcDbCircle
   6
CONTINUOUS
  62
1
  10
 2415.0571362604
  20
 5273.4755878695
  30
0.0
  40
 69.999997913838
   0
MTEXT
   5
29C
 100
AcDbEntity
   8
LEVEL002
 370
13
  62
1
 100
AcDbMText
  10
 2415.0571362604
  20
 5273.4755878695
  30
0.0
  40
 57.142857142858
  41
0.0
  71
5
  72
1
   1
\T1.000000;3
   7
GMM001
  44
 0.79999984000003
   0
CIRCLE
   5
29D
 100
AcDbEntity
   8
LEVEL002
 370
13
 100
AcDbCircle
   6
CONTINUOUS
  62
1
  10
 2415.0571362604
  20
 4173.4755878695
  30
0.0
  40
 69.999997913838
   0
MTEXT
   5
29E
 100
AcDbEntity
   8
LEVEL002
 370
13
  62
1
 100
AcDbMText
  10
 2415.0571362604
  20
 4173.4755878695
  30
0.0
  40
 57.142857142858
  41
0.0
  71
5
  72
1
   1
\T1.000000;1
   7
GMM001
  44
 0.79999984000003
   0
LEADER
   5
29F
 100
AcDbEntity
   8
LEVEL002
 370
13
   6
CONTINUOUS
  62
1
 100
AcDbLeader
   3
GMM002
  73
3
  74
1
  75
0
  40
 60.000000000000
  41
0.0
  76
2
  10
 2165.0571362654
  20
 4423.4755878695
  30
0.0
  10
 2365.5596630550
  20
 4222.9730610799
  30
0.0
  77
1
   0
CIRCLE
   5
2A0
 100
AcDbEntity
   8
LEVEL002
 370
13
 100
AcDbCircle
   6
CONTINUOUS
  62
1
  10
 2215.0571362604
  20
 4173.4755878695
  30
0.0
  40
 69.999997913838
   0
MTEXT
   5
2A1
 100
AcDbEntity
   8
LEVEL002
 370
13
  62
1
 100
AcDbMText
  10
 2215.0571362604
  20
 4173.4755878695
  30
0.0
  40
 57.142857142858
  41
0.0
  71
5
  72
1
   1
\T1.000000;4
   7
GMM001
  44
 0.79999984000003
   0
CIRCLE
   5
2A2
 100
AcDbEntity
   8
LEVEL002
 370
13
 100
AcDbCircle
   6
CONTINUOUS
  62
1
  10
 3561.9288468580
  20
 4173.4755878695
  30
0.0
  40
 70.000000000000
   0
MTEXT
   5
2A3
 100
AcDbEntity
   8
LEVEL002
 370
13
  62
1
 100
AcDbMText
  10
 3561.9288468580
  20
 4173.4755878695
  30
0.0
  40
 57.142857142858
  41
0.0
  71
5
  72
1
   1
\T1.000000;10
   7
GMM001
  44
 0.79999984000003
   0
MTEXT
   5
2A4
 100
AcDbEntity
   8
LEVEL002
 370
13
  62
1
 100
AcDbMText
  10
 3421.9288489442
  20
 4173.4755878695
  30
0.0
  40
 57.142857142858
  41
0.0
  71
5
  72
1
   1
\T1.000000;9
   7
GMM001
  44
 0.79999984000003
   0
CIRCLE
   5
2A5
 100
AcDbEntity
   8
LEVEL002
 370
13
 100
AcDbCircle
   6
CONTINUOUS
  62
1
  10
 3421.9288489442
  20
 4173.4755878695
  30
0.0
  40
 69.999997913838
   0
CIRCLE
   5
2A6
 100
AcDbEntity
   8
LEVEL002
 370
13
 100
AcDbCircle
   6
CONTINUOUS
  62
1
  10
 3561.9288489442
  20
 3790.9755878695
  30
0.0
  40
 70.000000000000
   0
MTEXT
   5
2A7
 100
AcDbEntity
   8
LEVEL002
 370
13
  62
1
 100
AcDbMText
  10
 3561.9288489442
  20
 3790.9755878695
  30
0.0
  40
 57.142857142858
  41
0.0
  71
5
  72
1
   1
\T1.000000;16
   7
GMM001
  44
 0.79999984000003
   0
MTEXT
   5
2A8
 100
AcDbEntity
   8
LEVEL002
 370
13
  62
1
 100
AcDbMText
  10
 3421.9288489442
  20
 3790.9755878695
  30
0.0
  40
 57.142857142858
  41
0.0
  71
5
  72
1
   1
\T1.000000;15
   7
GMM001
  44
 0.79999984000003
   0
CIRCLE
   5
2A9
 100
AcDbEntity
   8
LEVEL002
 370
13
 100
AcDbCircle
   6
CONTINUOUS
  62
1
  10
 3421.9288489442
  20
 3790.9755878695
  30
0.0
  40
 70.000000000000
   0
LEADER
   5
2AA
 100
AcDbEntity
   8
LEVEL002
 370
13
   6
CONTINUOUS
  62
1
 100
AcDbLeader
   3
GMM002
  73
3
  74
1
  75
0
  40
 60.000000000000
  41
0.0
  76
2
  10
 3280.0059443484
  20
 3715.4755878687
  30
0.0
  10
 3360.5714586324
  20
 3757.2818101931
  30
0.0
  77
1
   0
LEADER
   5
2AB
 100
AcDbEntity
   8
LEVEL002
 370
13
   6
CONTINUOUS
  62
1
 100
AcDbLeader
   3
GMM002
  73
3
  74
1
  75
0
  40
 60.000000000000
  41
0.0
  76
2
  10
 3330.1945765348
  20
 4608.4755878695
  30
0.0
  10
 3407.5682621690
  20
 4241.9867056199
  30
0.0
  77
1
   0
LEADER
   5
2AC
 100
AcDbEntity
   8
LEVEL002
 370
13
   6
CONTINUOUS
  62
1
 100
AcDbLeader
   3
GMM002
  73
3
  74
1
  75
0
  40
 60.000000000000
  41
0.0
  76
2
  10
 2656.2736508926
  20
 4414.1440440585
  30
0.0
  10
 2464.5736407152
  20
 4222.9540225105
  30
0.0
  77
1
   0
LEADER
   5
2AD
 100
AcDbEntity
   8
LEVEL002
 370
13
   6
CONTINUOUS
  62
1
 100
AcDbLeader
   3
GMM002
  73
3
  74
1
  75
0
  40
 60.000000000000
  41
0.0
  76
2
  10
 2755.6019384778
  20
 4778.4755878695
  30
0.0
  10
 2858.8917970100
  20
 5205.3677220979
  30
0.0
  77
1
   0
LEADER
   5
2AE
 100
AcDbEntity
   8
LEVEL002
 370
13
   6
CONTINUOUS
  62
1
 100
AcDbLeader
   3
GMM002
  73
3
  74
1
  75
0
  40
 60.000000000000
  41
0.0
  76
2
  10
 3472.0612983118
  20
 4778.4755878695
  30
0.0
  10
 3561.6533700074
  20
 5204.6740470069
  30
0.0
  77
1
   0
LEADER
   5
2AF
 100
AcDbEntity
   8
LEVEL002
 370
13
   6
CONTINUOUS
  62
1
 100
AcDbLeader
   3
GMM002
  73
3
  74
1
  75
0
  40
 60.000000000000
  41
0.0
  76
2
  10
 2607.0696192420
  20
 5134.9755878695
  30
0.0
  10
 2471.6298316160
  20
 5232.2502334363
  30
0.0
  77
1
   0
CIRCLE
   5
2B0
 100
AcDbEntity
   8
LEVEL002
 370
13
 100
AcDbCircle
   6
CONTINUOUS
  62
1
  10
 1765.0571362604
  20
 3790.9755878695
  30
0.0
  40
 70.000000000000
   0
MTEXT
   5
2B1
 100
AcDbEntity
   8
LEVEL002
 370
13
  62
1
 100
AcDbMText
  10
 1765.0571362604
  20
 3790.9755878695
  30
0.0
  40
 57.142857142858
  41
0.0
  71
5
  72
1
   1
\T1.000000;14
   7
GMM001
  44
 0.79999984000003
   0
LEADER
   5
2B2
 100
AcDbEntity
   8
LEVEL002
 370
13
   6
CONTINUOUS
  62
1
 100
AcDbLeader
   3
GMM002
  73
3
  74
1
  75
0
  40
 60.000000000000
  41
0.0
  76
2
  10
 1605.0568291493
  20
 3950.9758949811
  30
0.0
  10
 1715.5596615776
  20
 3840.4730625529
  30
0.0
  77
1
   0
CIRCLE
   5
2B3
 100
AcDbEntity
   8
LEVEL002
 370
13
 100
AcDbCircle
   6
CONTINUOUS
  62
1
  10
 1765.0571362604
  20
 2590.9755878695
  30
0.0
  40
 70.000000000000
   0
MTEXT
   5
2B4
 100
AcDbEntity
   8
LEVEL002
 370
13
  62
1
 100
AcDbMText
  10
 1765.0571362604
  20
 2590.9755878695
  30
0.0
  40
 57.142857142858
  41
0.0
  71
5
  72
1
   1
\T1.000000;11
   7
GMM001
  44
 0.79999984000003
   0
LEADER
   5
2B5
 100
AcDbEntity
   8
LEVEL002
 370
13
   6
CONTINUOUS
  62
1
 100
AcDbLeader
   3
GMM002
  73
3
  74
1
  75
0
  40
 60.000000000000
  41
0.0
  76
2
  10
 1553.2071362604
  20
 2465.9755878695
  30
0.0
  10
 1704.7693468992
  20
 2555.4033732359
  30
0.0
  77
1
   0
MTEXT
   5
2B7
 100
AcDbEntity
   8
LEVEL002
 370
13
  62
1
 100
AcDbMText
  10
 1135.7057414698
  20
 1799.7055249098
  30
0.0
  40
 40.000000000000
  41
0.0
  71
7
  72
1
   1
\T1.000000;ＧＬ
   7
GMM003
  44
 0.79999984000003
   0
LINE
   5
2B8
 100
AcDbEntity
   8
LEVEL002
 370
13
 100
AcDbLine
   6
CONTINUOUS
  62
1
  10
 1107.5570710250
  20
 1790.9755878695
  30
0.0
  11
 1082.5570710250
  21
 1840.9755878695
  31
0.0
   0
LINE
   5
2B9
 100
AcDbEntity
   8
LEVEL002
 370
13
 100
AcDbLine
   6
CONTINUOUS
  62
1
  10
 1082.5570710250
  20
 1840.9755878695
  30
0.0
  11
 1132.5570710250
  21
 1840.9755878695
  31
0.0
   0
LINE
   5
2BA
 100
AcDbEntity
   8
LEVEL002
 370
13
 100
AcDbLine
   6
CONTINUOUS
  62
1
  10
 1132.5570710250
  20
 1840.9755878695
  30
0.0
  11
 1107.5570710250
  21
 1790.9755878695
  31
0.0
   0
LINE
   5
2BB
 100
AcDbEntity
   8
LEVEL002
 370
13
 100
AcDbLine
   6
DOT
  62
1
  10
 1470.5071362604
  20
 998.47558786953
  30
0.0
  11
 1559.6071362604
  21
 998.47558786953
  31
0.0
   0
LINE
   5
2BC
 100
AcDbEntity
   8
LEVEL002
 370
13
 100
AcDbLine
   6
DOT
  62
1
  10
 1559.6071362604
  20
 983.47558786953
  30
0.0
  11
 1470.5071362604
  21
 983.47558786953
  31
0.0
   0
MTEXT
   5
2BD
 100
AcDbEntity
   8
LEVEL002
 370
13
  62
1
 100
AcDbMText
  10
 3215.0571362604
  20
 5523.4755878695
  30
0.0
  40
 57.142857142858
  41
0.0
  71
5
  72
1
   1
\T1.000000;側　面　図
   7
GMM001
  44
 0.79999984000003
   0
MTEXT
   5
2BE
 100
AcDbEntity
   8
LEVEL002
 370
13
  62
1
 100
AcDbMText
  10
 6727.0571362604
  20
 1463.4755878695
  30
0.0
  40
 51.428571428572
  41
0.0
  71
6
  72
1
   1
\T1.000000;２
   7
GMM001
  44
 0.79999984000003
   0
MTEXT
   5
2C0
 100
AcDbEntity
   8
LEVEL002
 370
13
  62
1
 100
AcDbMText
  10
 2435.7057414698
  20
 1799.7055249098
  30
0.0
  40
 40.000000000000
  41
0.0
  71
7
  72
1
   1
\T1.000000;ＧＬ
   7
GMM003
  44
 0.79999984000003
   0
LINE
   5
2C1
 100
AcDbEntity
   8
LEVEL002
 370
13
 100
AcDbLine
   6
CONTINUOUS
  62
1
  10
 2407.5570710250
  20
 1790.9755878695
  30
0.0
  11
 2382.5570710250
  21
 1840.9755878695
  31
0.0
   0
LINE
   5
2C2
 100
AcDbEntity
   8
LEVEL002
 370
13
 100
AcDbLine
   6
CONTINUOUS
  62
1
  10
 2382.5570710250
  20
 1840.9755878695
  30
0.0
  11
 2432.5570710250
  21
 1840.9755878695
  31
0.0
   0
LINE
   5
2C3
 100
AcDbEntity
   8
LEVEL002
 370
13
 100
AcDbLine
   6
CONTINUOUS
  62
1
  10
 2432.5570710250
  20
 1840.9755878695
  30
0.0
  11
 2407.5570710250
  21
 1790.9755878695
  31
0.0
   0
CIRCLE
   5
2C4
 100
AcDbEntity
   8
LEVEL002
 370
13
 100
AcDbCircle
   6
CONTINUOUS
  62
7
  10
 2815.0571362604
  20
 990.97558786959
  30
0.0
  40
 7.5000000000000
   0
LINE
   5
2C5
 100
AcDbEntity
   8
LEVEL002
 370
13
 100
AcDbLine
   6
DASHDOT
  62
6
  10
 2785.0571362604
  20
 990.97558786959
  30
0.0
  11
 2845.0571362604
  21
 990.97558786959
  31
0.0
   0
LINE
   5
2C6
 100
AcDbEntity
   8
LEVEL002
 370
13
 100
AcDbLine
   6
CONTINUOUS
  62
7
  10
 2770.5070874322
  20
 898.47558786959
  30
0.0
  11
 2698.6572339166
  21
 898.47558786959
  31
0.0
   0
LINE
   5
2C7
 100
AcDbEntity
   8
LEVEL002
 370
13
 100
AcDbLine
   6
CONTINUOUS
  62
7
  10
 2698.6572339166
  20
 898.47558786959
  30
0.0
  11
 2698.6572339166
  21
 883.47558786959
  31
0.0
   0
LINE
   5
2C8
 100
AcDbEntity
   8
LEVEL002
 370
13
 100
AcDbLine
   6
CONTINUOUS
  62
7
  10
 2698.6572339166
  20
 883.47558786959
  30
0.0
  11
 2770.5070874322
  21
 883.47558786959
  31
0.0
   0
LINE
   5
2C9
 100
AcDbEntity
   8
LEVEL002
 370
13
 100
AcDbLine
   6
CONTINUOUS
  62
7
  10
 2859.6071850886
  20
 898.47558786959
  30
0.0
  11
 2931.4570386042
  21
 898.47558786959
  31
0.0
   0
LINE
   5
2CA
 100
AcDbEntity
   8
LEVEL002
 370
13
 100
AcDbLine
   6
CONTINUOUS
  62
7
  10
 2931.4570386042
  20
 898.47558786959
  30
0.0
  11
 2931.4570386042
  21
 883.47558786959
  31
0.0
   0
LINE
   5
2CB
 100
AcDbEntity
   8
LEVEL002
 370
13
 100
AcDbLine
   6
CONTINUOUS
  62
7
  10
 2931.4570386042
  20
 883.47558786959
  30
0.0
  11
 2859.6071850886
  21
 883.47558786959
  31
0.0
   0
LINE
   5
2CC
 100
AcDbEntity
   8
LEVEL002
 370
13
 100
AcDbLine
   6
DASHDOT
  62
6
  10
 2748.6572339166
  20
 890.97558786959
  30
0.0
  11
 2881.4570386042
  21
 890.97558786959
  31
0.0
   0
LINE
   5
2CD
 100
AcDbEntity
   8
LEVEL002
 370
13
 100
AcDbLine
   6
DOT
  62
1
  10
 2859.6071850886
  20
 883.47558786959
  30
0.0
  11
 2770.5070874322
  21
 883.47558786959
  31
0.0
   0
LINE
   5
2CE
 100
AcDbEntity
   8
LEVEL002
 370
13
 100
AcDbLine
   6
DOT
  62
1
  10
 2770.5070874322
  20
 898.47558786959
  30
0.0
  11
 2859.6071850886
  21
 898.47558786959
  31
0.0
   0
ARC
   5
2CF
 100
AcDbEntity
   8
LEVEL002
 370
13
   6
CONTINUOUS
  62
7
 100
AcDbCircle
  10
 2770.5071362604
  20
 2346.9153078075
  30
0.0
  40
 400.00000000000
 100
AcDbArc
  50
 321.34019174591
  51
0.0
   0
ARC
   5
2D0
 100
AcDbEntity
   8
LEVEL002
 370
13
   6
DASHDOT
  62
6
 100
AcDbCircle
  10
 2770.5071362604
  20
 2346.9153078073
  30
0.0
  40
 444.55000000000
 100
AcDbArc
  50
 321.34019174591
  51
0.0
   0
ARC
   5
2D1
 100
AcDbEntity
   8
LEVEL002
 370
13
   6
CONTINUOUS
  62
7
 100
AcDbCircle
  10
 2770.5071362604
  20
 2346.9153078075
  30
0.0
  40
 489.10000000000
 100
AcDbArc
  50
 321.34019174591
  51
0.0
   0
LINE
   5
2D2
 100
AcDbEntity
   8
LEVEL002
 370
13
 100
AcDbLine
   6
CONTINUOUS
  62
7
  10
 2947.2596124832
  20
 1784.9138869538
  30
0.0
  11
 3152.4300709590
  21
 2041.3769600485
  31
0.0
   0
LINE
   5
2D3
 100
AcDbEntity
   8
LEVEL002
 370
13
 100
AcDbLine
   6
DASHDOT
  62
6
  10
 2912.4719070226
  20
 1812.7440513222
  30
0.0
  11
 3117.6423654984
  21
 2069.2071244169
  31
0.0
   0
ARC
   5
2D4
 100
AcDbEntity
   8
LEVEL002
 370
13
   6
DASHDOT
  62
6
 100
AcDbCircle
  10
 3259.6071362604
  20
 1535.0358679319
  30
0.0
  40
 444.55000000000
 100
AcDbArc
  50
 141.34019174591
  51
 180.00000000000
   0
LINE
   5
2D5
 100
AcDbEntity
   8
LEVEL002
 370
13
 100
AcDbLine
   6
CONTINUOUS
  62
7
  10
 3259.6071362604
  20
 2346.9153078075
  30
0.0
  11
 3259.6071362604
  21
 3678.4748554477
  31
0.0
   0
LINE
   5
2D6
 100
AcDbEntity
   8
LEVEL002
 370
13
 100
AcDbLine
   6
CONTINUOUS
  62
7
  10
 3170.5071362604
  20
 3678.4748554477
  30
0.0
  11
 3170.5071362604
  21
 2346.9153078075
  31
0.0
   0
LINE
   5
2D7
 100
AcDbEntity
   8
LEVEL002
 370
13
 100
AcDbLine
   6
CONTINUOUS
  62
7
  10
 2770.5070874322
  20
 1535.0358068969
  30
0.0
  11
 2770.5070874322
  21
 590.97558786959
  31
0.0
   0
LINE
   5
2D8
 100
AcDbEntity
   8
LEVEL002
 370
13
 100
AcDbLine
   6
CONTINUOUS
  62
7
  10
 2770.5070874322
  20
 590.97558786959
  30
0.0
  11
 2859.6071850886
  21
 590.97558786959
  31
0.0
   0
LINE
   5
2D9
 100
AcDbEntity
   8
LEVEL002
 370
13
 100
AcDbLine
   6
CONTINUOUS
  62
7
  10
 2859.6071850886
  20
 590.97558786959
  30
0.0
  11
 2859.6071850886
  21
 1535.2335102822
  31
0.0
   0
ARC
   5
2DA
 100
AcDbEntity
   8
LEVEL002
 370
13
   6
CONTINUOUS
  62
7
 100
AcDbCircle
  10
 3259.6071362604
  20
 1535.0358679321
  30
0.0
  40
 400.00000000000
 100
AcDbArc
  50
 141.34019174591
  51
 179.97168981756
   0
ARC
   5
2DB
 100
AcDbEntity
   8
LEVEL002
 370
13
   6
CONTINUOUS
  62
7
 100
AcDbCircle
  10
 3259.6070874322
  20
 1535.0358068969
  30
0.0
  40
 489.10000000000
 100
AcDbArc
  50
 141.34019174591
  51
 180.00000000000
   0
LINE
   5
2DC
 100
AcDbEntity
   8
LEVEL002
 370
13
 100
AcDbLine
   6
CONTINUOUS
  62
7
  10
 3082.8546600376
  20
 2097.0372887857
  30
0.0
  11
 2877.6841527336
  21
 1840.5741546558
  31
0.0
   0
POINT
   5
2DD
 100
AcDbEntity
   8
LEVEL002
 100
AcDbPoint
  62
2
  10
 3215.0571362604
  20
 2190.9755878679
  30
0.0
   0
POINT
   5
2DE
 100
AcDbEntity
   8
LEVEL002
 100
AcDbPoint
  62
2
  10
 2815.0571362604
  20
 1690.9755878679
  30
0.0
   0
DIMENSION
   5
2DF
 100
AcDbEntity
   8
LEVEL002
 370
13
   6
CONTINUOUS
  62
1
 100
AcDbDimension
   2
*D12
  10
 3065.0571362604
  20
 290.97558786959
  30
0.0
  11
 2815.0571362604
  21
 290.97558786959
  31
0.0
  70
128
   1
\A1;□500
   3
GMM003
 100
AcDbAlignedDimension
  13
 2565.0571362604
  23
 490.97558786959
  33
0.0
  14
 3065.0571362604
  24
 490.97558786959
  34
0.0
 100
AcDbRotatedDimension
   0
LINE
   5
2E0
 100
AcDbEntity
   8
LEVEL002
 370
13
 100
AcDbLine
   6
DASHDOT
  62
6
  10
 2815.0571362604
  20
 1535.0358679321
  30
0.0
  11
 2815.0571362604
  21
 490.97558786959
  31
0.0
   0
CIRCLE
   5
2E1
 100
AcDbEntity
   8
LEVEL002
 370
13
 100
AcDbCircle
   6
CONTINUOUS
  62
1
  10
 2425.0571362604
  20
 740.97558786959
  30
0.0
  40
 70.000000000000
   0
LEADER
   5
2E2
 100
AcDbEntity
   8
LEVEL002
 370
13
   6
CONTINUOUS
  62
1
 100
AcDbLeader
   3
GMM002
  73
3
  74
1
  75
0
  40
 60.000000000000
  41
0.0
  76
2
  10
 2698.6572339166
  20
 883.47558786959
  30
0.0
  10
 2487.0616856742
  20
 773.46306010101
  30
0.0
  77
1
   0
LINE
   5
2E3
 100
AcDbEntity
   8
LEVEL002
 370
13
 100
AcDbLine
   6
DASHDOT
  62
6
  10
 3215.0571362604
  20
 2346.9153078073
  30
0.0
  11
 3215.0571362604
  21
 5055.5047356425
  31
0.0
   0
MTEXT
   5
2E4
 100
AcDbEntity
   8
LEVEL002
 370
13
  62
1
 100
AcDbMText
  10
 2425.0571362604
  20
 740.97558786959
  30
0.0
  40
 57.142857142858
  41
0.0
  71
5
  72
1
   1
\T1.000000;12
   7
GMM001
  44
 0.79999984000003
   0
LINE
   5
2E5
 100
AcDbEntity
   8
LEVEL002
 370
13
 100
AcDbLine
   6
CONTINUOUS
  62
7
  10
 1559.6071362604
  20
 4994.9755878695
  30
0.0
  11
 1470.5071362604
  21
 4994.9755878695
  31
0.0
   0
LINE
   5
2E6
 100
AcDbEntity
   8
LEVEL002
 370
13
 100
AcDbLine
   6
CONTINUOUS
  62
7
  10
 1470.5071362604
  20
 4994.9755878695
  30
0.0
  11
 1470.5071362604
  21
 4991.9755878695
  31
0.0
   0
LINE
   5
2E7
 100
AcDbEntity
   8
LEVEL002
 370
13
 100
AcDbLine
   6
CONTINUOUS
  62
7
  10
 1470.5071362604
  20
 4991.9755878695
  30
0.0
  11
 1559.6071362604
  21
 4991.9755878695
  31
0.0
   0
LINE
   5
2E8
 100
AcDbEntity
   8
LEVEL002
 370
13
 100
AcDbLine
   6
CONTINUOUS
  62
7
  10
 1559.6071362604
  20
 4991.9755878695
  30
0.0
  11
 1559.6071362604
  21
 4994.9755878695
  31
0.0
   0
LINE
   5
2E9
 100
AcDbEntity
   8
LEVEL002
 370
13
 100
AcDbLine
   6
DOT
  62
1
  10
 1554.6071362604
  20
 4991.9755878695
  30
0.0
  11
 1554.6071362604
  21
 4964.9755878695
  31
0.0
   0
LINE
   5
2EA
 100
AcDbEntity
   8
LEVEL002
 370
13
 100
AcDbLine
   6
DOT
  62
1
  10
 1554.6071362604
  20
 4964.9755878695
  30
0.0
  11
 1475.5071362604
  21
 4964.9755878695
  31
0.0
   0
LINE
   5
2EB
 100
AcDbEntity
   8
LEVEL002
 370
13
 100
AcDbLine
   6
DOT
  62
1
  10
 1475.5071362604
  20
 4964.9755878695
  30
0.0
  11
 1475.5071362604
  21
 4991.9755878695
  31
0.0
   0
LINE
   5
2EC
 100
AcDbEntity
   8
LEVEL002
 370
13
 100
AcDbLine
   6
DASHDOT
  62
6
  10
 1515.0571362604
  20
 5047.1716321719
  30
0.0
  11
 1515.0571362604
  21
 490.97558786953
  31
0.0
   0
CIRCLE
   5
2ED
 100
AcDbEntity
   8
LEVEL002
 370
13
 100
AcDbCircle
   6
CONTINUOUS
  62
7
  10
 1990.0570686404
  20
 4723.4755878695
  30
0.0
  40
 432.50000000000
   0
CIRCLE
   5
2EE
 100
AcDbEntity
   8
LEVEL002
 370
13
 100
AcDbCircle
   6
CONTINUOUS
  62
7
  10
 1990.0570686404
  20
 4723.4755878695
  30
0.0
  40
 412.50000000000
   0
CIRCLE
   5
2EF
 100
AcDbEntity
   8
LEVEL002
 370
13
 100
AcDbCircle
   6
CONTINUOUS
  62
6
  10
 1990.0570686404
  20
 4723.4755878695
  30
0.0
  40
 405.00000000000
   0
CIRCLE
   5
2F0
 100
AcDbEntity
   8
LEVEL002
 370
13
 100
AcDbCircle
   6
CONTINUOUS
  62
6
  10
 1990.0570686404
  20
 4723.4755878695
  30
0.0
  40
 410.00000000000
   0
ARC
   5
2F1
 100
AcDbEntity
   8
LEVEL002
 370
13
   6
CONTINUOUS
  62
1
 100
AcDbCircle
  10
 1990.0570686404
  20
 4723.4755878695
  30
0.0
  40
 410.00000000000
 100
AcDbArc
  50
 6.1099891253667
  51
 173.89001087464
   0
ARC
   5
2F2
 100
AcDbEntity
   8
LEVEL002
 370
13
   6
CONTINUOUS
  62
1
 100
AcDbCircle
  10
 1990.0570686404
  20
 4723.4755878695
  30
0.0
  40
 411.50000000000
 100
AcDbArc
  50
 6.1099891253656
  51
 173.89001087464
   0
LINE
   5
2F3
 100
AcDbEntity
   8
LEVEL002
 370
13
 100
AcDbLine
   6
CONTINUOUS
  62
1
  10
 1582.3861135699
  20
 4767.1149324093
  30
0.0
  11
 1580.8946344660
  21
 4767.2745885479
  31
0.0
   0
LINE
   5
2F4
 100
AcDbEntity
   8
LEVEL002
 370
13
 100
AcDbLine
   6
CONTINUOUS
  62
1
  10
 2397.7280237110
  20
 4767.1149324093
  30
0.0
  11
 2399.2195028150
  21
 4767.2745885479
  31
0.0
   0
LINE
   5
2F5
 100
AcDbEntity
   8
LEVEL002
 370
13
 100
AcDbLine
   6
DASHDOT
  62
6
  10
 2465.0570686404
  20
 4723.4755878695
  30
0.0
  11
 1515.0571362604
  21
 4723.4755878695
  31
0.0
   0
LINE
   5
2F6
 100
AcDbEntity
   8
LEVEL002
 370
13
 100
AcDbLine
   6
DASHDOT
  62
6
  10
 1990.0570686404
  20
 5198.4755878695
  30
0.0
  11
 1990.0570686404
  21
 4248.4755878695
  31
0.0
   0
CIRCLE
   5
2F7
 100
AcDbEntity
   8
LEVEL002
 370
13
 100
AcDbCircle
   6
CONTINUOUS
  62
7
  10
 1040.0570686404
  20
 4723.4755878695
  30
0.0
  40
 432.50000000000
   0
CIRCLE
   5
2F8
 100
AcDbEntity
   8
LEVEL002
 370
13
 100
AcDbCircle
   6
CONTINUOUS
  62
7
  10
 1040.0570686404
  20
 4723.4755878695
  30
0.0
  40
 412.50000000000
   0
CIRCLE
   5
2F9
 100
AcDbEntity
   8
LEVEL002
 370
13
 100
AcDbCircle
   6
CONTINUOUS
  62
6
  10
 1040.0570686404
  20
 4723.4755878695
  30
0.0
  40
 405.00000000000
   0
CIRCLE
   5
2FA
 100
AcDbEntity
   8
LEVEL002
 370
13
 100
AcDbCircle
   6
CONTINUOUS
  62
6
  10
 1040.0570686404
  20
 4723.4755878695
  30
0.0
  40
 410.00000000000
   0
ARC
   5
2FB
 100
AcDbEntity
   8
LEVEL002
 370
13
   6
CONTINUOUS
  62
1
 100
AcDbCircle
  10
 1040.0570686404
  20
 4723.4755878695
  30
0.0
  40
 410.00000000000
 100
AcDbArc
  50
 6.1099891253647
  51
 173.89001087464
   0
ARC
   5
2FC
 100
AcDbEntity
   8
LEVEL002
 370
13
   6
CONTINUOUS
  62
1
 100
AcDbCircle
  10
 1040.0570686404
  20
 4723.4755878695
  30
0.0
  40
 411.50000000000
 100
AcDbArc
  50
 6.1099891253616
  51
 173.89001087464
   0
LINE
   5
2FD
 100
AcDbEntity
   8
LEVEL002
 370
13
 100
AcDbLine
   6
CONTINUOUS
  62
1
  10
 632.38611356989
  20
 4767.1149324093
  30
0.0
  11
 630.89463446597
  21
 4767.2745885479
  31
0.0
   0
LINE
   5
2FE
 100
AcDbEntity
   8
LEVEL002
 370
13
 100
AcDbLine
   6
CONTINUOUS
  62
1
  10
 1447.7280237110
  20
 4767.1149324093
  30
0.0
  11
 1449.2195028149
  21
 4767.2745885479
  31
0.0
   0
LINE
   5
2FF
 100
AcDbEntity
   8
LEVEL002
 370
13
 100
AcDbLine
   6
DASHDOT
  62
6
  10
 565.05706864043
  20
 4723.4755878695
  30
0.0
  11
 1515.0570010205
  21
 4723.4755878695
  31
0.0
   0
LINE
   5
300
 100
AcDbEntity
   8
LEVEL002
 370
13
 100
AcDbLine
   6
DASHDOT
  62
6
  10
 1040.0570686404
  20
 5198.4755878695
  30
0.0
  11
 1040.0570686404
  21
 4248.4755878695
  31
0.0
   0
LINE
   5
301
 100
AcDbEntity
   8
LEVEL002
 370
13
 100
AcDbLine
   6
CONTINUOUS
  62
7
  10
 1562.8071362604
  20
 4608.4755878695
  30
0.0
  11
 1562.8071362604
  21
 4593.4755878695
  31
0.0
   0
LINE
   5
302
 100
AcDbEntity
   8
LEVEL002
 370
13
 100
AcDbLine
   6
CONTINUOUS
  62
7
  10
 1562.8071362604
  20
 4593.4755878695
  30
0.0
  11
 1452.5570686404
  21
 4593.4755878695
  31
0.0
   0
LINE
   5
303
 100
AcDbEntity
   8
LEVEL002
 370
13
 100
AcDbLine
   6
CONTINUOUS
  62
7
  10
 1561.0872622650
  20
 4668.3289178143
  30
0.0
  11
 1561.0872622650
  21
 4608.4755878695
  31
0.0
   0
LINE
   5
304
 100
AcDbEntity
   8
LEVEL002
 370
13
 100
AcDbLine
   6
CONTINUOUS
  62
7
  10
 1561.0872622650
  20
 4608.4755878695
  30
0.0
  11
 1573.1263189949
  21
 4608.4755878695
  31
0.0
   0
LINE
   5
305
 100
AcDbEntity
   8
LEVEL002
 370
13
 100
AcDbLine
   6
CONTINUOUS
  62
6
  10
 1472.4924109155
  20
 4698.4755878695
  30
0.0
  11
 1472.4924109155
  21
 4598.4755878695
  31
0.0
   0
LINE
   5
306
 100
AcDbEntity
   8
LEVEL002
 370
13
 100
AcDbLine
   6
CONTINUOUS
  62
7
  10
 1472.0943934169
  20
 4703.4755878695
  30
0.0
  11
 1558.0197438640
  21
 4703.4755878695
  31
0.0
   0
LINE
   5
307
 100
AcDbEntity
   8
LEVEL002
 370
13
 100
AcDbLine
   6
CONTINUOUS
  62
7
  10
 1472.0943934169
  20
 4703.4755878695
  30
0.0
  11
 1558.0197438640
  21
 4703.4755878695
  31
0.0
   0
LINE
   5
308
 100
AcDbEntity
   8
LEVEL002
 370
13
 100
AcDbLine
   6
CONTINUOUS
  62
7
  10
 1567.0248594648
  20
 4813.4755878695
  30
0.0
  11
 1467.3071362604
  21
 4813.4755878695
  31
0.0
   0
LINE
   5
309
 100
AcDbEntity
   8
LEVEL002
 370
13
 100
AcDbLine
   6
CONTINUOUS
  62
7
  10
 1467.3071362604
  20
 4813.4755878695
  30
0.0
  11
 1467.3071362604
  21
 4792.3202049305
  31
0.0
   0
LINE
   5
30A
 100
AcDbEntity
   8
LEVEL002
 370
13
 100
AcDbLine
   6
CONTINUOUS
  62
6
  10
 1557.5956393557
  20
 4741.8086498117
  30
0.0
  11
 1557.9143453202
  21
 4741.0499509709
  31
0.0
   0
LINE
   5
30B
 100
AcDbEntity
   8
LEVEL002
 370
13
 100
AcDbLine
   6
CONTINUOUS
  62
6
  10
 1557.6218616053
  20
 4808.4755878695
  30
0.0
  11
 1557.6218616053
  21
 4730.9616894213
  31
0.0
   0
LEADER
   5
30C
 100
AcDbEntity
   8
LEVEL002
 370
13
   6
CONTINUOUS
  62
1
 100
AcDbLeader
   3
GMM002
  73
3
  74
1
  75
0
  40
 60.000000000000
  41
0.0
  76
2
  10
 2086.5471109894
  20
 4301.8763448347
  30
0.0
  10
 2165.5595954330
  20
 4222.9730610779
  30
0.0
  77
1
   0
LEADER
   5
30D
 100
AcDbEntity
   8
LEVEL002
 370
13
   6
CONTINUOUS
  62
1
 100
AcDbLeader
   3
GMM002
  73
3
  74
1
  75
0
  40
 60.000000000000
  41
0.0
  76
2
  10
 2122.0537637442
  20
 5113.2307962781
  30
0.0
  10
 2353.8389660254
  20
 5239.5294007469
  30
0.0
  77
1
   0
LINE
   5
30E
 100
AcDbEntity
   8
LEVEL002
 370
13
 100
AcDbLine
   6
CONTINUOUS
  62
7
  10
 1559.6071362604
  20
 4813.4755878695
  30
0.0
  11
 1559.6071362604
  21
 4990.9755878695
  31
0.0
   0
LINE
   5
30F
 100
AcDbEntity
   8
LEVEL002
 370
13
 100
AcDbLine
   6
CONTINUOUS
  62
7
  10
 1559.6071362604
  20
 4990.9755878695
  30
0.0
  11
 1470.5071362604
  21
 4990.9755878695
  31
0.0
   0
LINE
   5
310
 100
AcDbEntity
   8
LEVEL002
 370
13
 100
AcDbLine
   6
CONTINUOUS
  62
7
  10
 1470.5071362604
  20
 4990.9755878695
  30
0.0
  11
 1470.5071362604
  21
 4813.4755878695
  31
0.0
   0
LINE
   5
311
 100
AcDbEntity
   8
LEVEL002
 370
13
 100
AcDbLine
   6
CONTINUOUS
  62
7
  10
 1559.6071362604
  20
 4190.9755878695
  30
0.0
  11
 1559.6071362604
  21
 4593.4755878695
  31
0.0
   0
LINE
   5
312
 100
AcDbEntity
   8
LEVEL002
 370
13
 100
AcDbLine
   6
CONTINUOUS
  62
7
  10
 1470.5071362604
  20
 4593.4755878695
  30
0.0
  11
 1470.5071362604
  21
 4190.9755878695
  31
0.0
   0
MTEXT
   5
313
 100
AcDbEntity
   8
LEVEL002
 370
13
  62
1
 100
AcDbMText
  10
 4515.0571362604
  20
 5523.4755878695
  30
0.0
  40
 57.142857142858
  41
0.0
  71
5
  72
1
   1
\T1.000000;背　面　図
   7
GMM001
  44
 0.79999984000003
   0
MTEXT
   5
314
 100
AcDbEntity
   8
LEVEL002
 370
13
  62
1
 100
AcDbMText
  10
 1515.0571362604
  20
 5523.4755878695
  30
0.0
  40
 57.142857142858
  41
0.0
  71
5
  72
1
   1
\T1.000000;正　面　図
   7
GMM001
  44
 0.79999984000003
   0
LINE
   5
315
 100
AcDbEntity
   8
LEVEL002
 370
13
 100
AcDbLine
   6
CONTINUOUS
  62
5
  10
 1515.0571362490
  20
 4140.9781851871
  30
0.0
  11
 1460.0571378882
  21
 4070.9781872733
  31
0.0
   0
LINE
   5
316
 100
AcDbEntity
   8
LEVEL002
 370
13
 100
AcDbLine
   6
CONTINUOUS
  62
5
  10
 1460.0571378882
  20
 4070.9781872733
  30
0.0
  11
 1490.0571369941
  21
 4070.9781872733
  31
0.0
   0
LINE
   5
317
 100
AcDbEntity
   8
LEVEL002
 370
13
 100
AcDbLine
   6
CONTINUOUS
  62
5
  10
 1490.0571369941
  20
 4070.9781872733
  30
0.0
  11
 1490.0571369941
  21
 4040.9781881673
  31
0.0
   0
LINE
   5
318
 100
AcDbEntity
   8
LEVEL002
 370
13
 100
AcDbLine
   6
CONTINUOUS
  62
5
  10
 1490.0571369941
  20
 4040.9781881673
  30
0.0
  11
 1540.0571355040
  21
 4040.9781881673
  31
0.0
   0
LINE
   5
319
 100
AcDbEntity
   8
LEVEL002
 370
13
 100
AcDbLine
   6
CONTINUOUS
  62
5
  10
 1540.0571355040
  20
 4040.9781881673
  30
0.0
  11
 1540.0571355040
  21
 4070.9781872733
  31
0.0
   0
LINE
   5
31A
 100
AcDbEntity
   8
LEVEL002
 370
13
 100
AcDbLine
   6
CONTINUOUS
  62
5
  10
 1540.0571355040
  20
 4070.9781872733
  30
0.0
  11
 1570.0571346099
  21
 4070.9781872733
  31
0.0
   0
LINE
   5
31B
 100
AcDbEntity
   8
LEVEL002
 370
13
 100
AcDbLine
   6
CONTINUOUS
  62
5
  10
 1570.0571346099
  20
 4070.9781872733
  30
0.0
  11
 1515.0571362490
  21
 4140.9781851871
  31
0.0
   0
LINE
   5
31C
 100
AcDbEntity
   8
LEVEL002
 370
13
 100
AcDbLine
   6
CONTINUOUS
  62
5
  10
 1445.4141939886
  20
 3974.9692790017
  30
0.0
  11
 1460.6833585726
  21
 3972.7146403971
  31
0.0
   0
ARC
   5
31D
 100
AcDbEntity
   8
LEVEL002
 370
13
   6
CONTINUOUS
  62
5
 100
AcDbCircle
  10
 1459.3006467364
  20
 3952.1814344443
  30
0.0
  40
 20.579709393390
 100
AcDbArc
  50
 10.432218603620
  51
 86.147502468989
   0
ARC
   5
31E
 100
AcDbEntity
   8
LEVEL002
 370
13
   6
CONTINUOUS
  62
5
 100
AcDbCircle
  10
 1465.6563086411
  20
 3955.6057897585
  30
0.0
  40
 13.887146297480
 100
AcDbArc
  50
 284.73811645763
  51
 1.2463330419279
   0
LINE
   5
31F
 100
AcDbEntity
   8
LEVEL002
 370
13
 100
AcDbLine
   6
CONTINUOUS
  62
5
  10
 1469.1892176941
  20
 3942.1755482897
  30
0.0
  11
 1445.4141939886
  21
 3974.9692790017
  31
0.0
   0
ARC
   5
320
 100
AcDbEntity
   8
LEVEL002
 370
13
   6
CONTINUOUS
  62
5
 100
AcDbCircle
  10
 1452.9614039754
  20
 3915.3642805579
  30
0.0
  40
 20.228108756896
 100
AcDbArc
  50
 1.0517504590305
  51
 78.795792274237
   0
ARC
   5
321
 100
AcDbEntity
   8
LEVEL002
 370
13
   6
CONTINUOUS
  62
5
 100
AcDbCircle
  10
 1458.2178344809
  20
 3917.5140664577
  30
0.0
  40
 15.073557642890
 100
AcDbArc
  50
 288.65956808362
  51
 353.22403827745
   0
LINE
   5
322
 100
AcDbEntity
   8
LEVEL002
 370
13
 100
AcDbLine
   6
CONTINUOUS
  62
5
  10
 1447.7710664770
  20
 3889.1930669585
  30
0.0
  11
 1454.7397552341
  21
 3850.3528886727
  31
0.0
   0
ARC
   5
323
 100
AcDbEntity
   8
LEVEL002
 370
13
   6
CONTINUOUS
  62
5
 100
AcDbCircle
  10
 1464.7221725558
  20
 3853.9848338591
  30
0.0
  40
 10.622602384609
 100
AcDbArc
  50
 199.99311911326
  51
 1.9679733411491
   0
LINE
   5
324
 100
AcDbEntity
   8
LEVEL002
 370
13
 100
AcDbLine
   6
CONTINUOUS
  62
5
  10
 1475.3385095031
  20
 3854.3496231727
  30
0.0
  11
 1472.1613245392
  21
 3871.4638804751
  31
0.0
   0
LINE
   5
325
 100
AcDbEntity
   8
LEVEL002
 370
13
 100
AcDbLine
   6
CONTINUOUS
  62
5
  10
 1472.1613245392
  20
 3871.4638804751
  30
0.0
  11
 1484.4589926297
  21
 3930.9026604419
  31
0.0
   0
LINE
   5
326
 100
AcDbEntity
   8
LEVEL002
 370
13
 100
AcDbLine
   6
CONTINUOUS
  62
5
  10
 1484.4589926297
  20
 3930.9026604419
  30
0.0
  11
 1461.6059049319
  21
 3880.9946724273
  31
0.0
   0
LINE
   5
327
 100
AcDbEntity
   8
LEVEL002
 370
13
 100
AcDbLine
   6
CONTINUOUS
  62
5
  10
 1461.6059049319
  20
 3880.9946724273
  30
0.0
  11
 1447.7710664770
  21
 3889.1930669585
  31
0.0
   0
ARC
   5
328
 100
AcDbEntity
   8
LEVEL002
 370
13
   6
CONTINUOUS
  62
5
 100
AcDbCircle
  10
 1569.8181752146
  20
 3909.6111887723
  30
0.0
  40
 5.0631766002424
 100
AcDbArc
  50
 274.72626205415
  51
 43.105625042987
   0
ARC
   5
329
 100
AcDbEntity
   8
LEVEL002
 370
13
   6
CONTINUOUS
  62
5
 100
AcDbCircle
  10
 1573.4578089220
  20
 3952.7601452353
  30
0.0
  40
 5.5826340442110
 100
AcDbArc
  50
 274.79665758004
  51
 36.910963374275
   0
LINE
   5
32A
 100
AcDbEntity
   8
LEVEL002
 370
13
 100
AcDbLine
   6
CONTINUOUS
  62
5
  10
 1573.5147761084
  20
 3913.0710874871
  30
0.0
  11
 1557.1176818705
  21
 3926.0860712301
  31
0.0
   0
LINE
   5
32B
 100
AcDbEntity
   8
LEVEL002
 370
13
 100
AcDbLine
   6
CONTINUOUS
  62
5
  10
 1557.1176818705
  20
 3926.0860712301
  30
0.0
  11
 1549.5340639325
  21
 3916.6578183371
  31
0.0
   0
LINE
   5
32C
 100
AcDbEntity
   8
LEVEL002
 370
13
 100
AcDbLine
   6
CONTINUOUS
  62
5
  10
 1549.5340639325
  20
 3916.6578183371
  30
0.0
  11
 1536.7240057205
  21
 3916.6578183371
  31
0.0
   0
LINE
   5
32D
 100
AcDbEntity
   8
LEVEL002
 370
13
 100
AcDbLine
   6
CONTINUOUS
  62
5
  10
 1536.7240057205
  20
 3916.6578183371
  30
0.0
  11
 1536.7240057205
  21
 3947.1970630325
  31
0.0
   0
LINE
   5
32E
 100
AcDbEntity
   8
LEVEL002
 370
13
 100
AcDbLine
   6
CONTINUOUS
  62
5
  10
 1536.7240057205
  20
 3947.1970630325
  30
0.0
  11
 1573.9246271704
  21
 3947.1970630325
  31
0.0
   0
LINE
   5
32F
 100
AcDbEntity
   8
LEVEL002
 370
13
 100
AcDbLine
   6
CONTINUOUS
  62
5
  10
 1577.9215142583
  20
 3956.1129258039
  30
0.0
  11
 1564.0863706277
  21
 3968.2055157755
  31
0.0
   0
LINE
   5
330
 100
AcDbEntity
   8
LEVEL002
 370
13
 100
AcDbLine
   6
CONTINUOUS
  62
5
  10
 1564.0863706277
  20
 3968.2055157755
  30
0.0
  11
 1552.1988587749
  21
 3958.1624862897
  31
0.0
   0
LINE
   5
331
 100
AcDbEntity
   8
LEVEL002
 370
13
 100
AcDbLine
   6
CONTINUOUS
  62
5
  10
 1552.1988587749
  20
 3958.1624862897
  30
0.0
  11
 1536.7240057205
  21
 3958.1624862897
  31
0.0
   0
LINE
   5
332
 100
AcDbEntity
   8
LEVEL002
 370
13
 100
AcDbLine
   6
CONTINUOUS
  62
5
  10
 1536.7240057205
  20
 3958.1624862897
  30
0.0
  11
 1536.7240057205
  21
 3973.6370341683
  31
0.0
   0
LINE
   5
333
 100
AcDbEntity
   8
LEVEL002
 370
13
 100
AcDbLine
   6
CONTINUOUS
  62
5
  10
 1536.7240057205
  20
 3973.6370341683
  30
0.0
  11
 1540.3110417464
  21
 3975.4816691231
  31
0.0
   0
LINE
   5
334
 100
AcDbEntity
   8
LEVEL002
 370
13
 100
AcDbLine
   6
CONTINUOUS
  62
5
  10
 1540.3110417464
  20
 3975.4816691231
  30
0.0
  11
 1540.6183537490
  21
 3978.1461587899
  31
0.0
   0
LINE
   5
335
 100
AcDbEntity
   8
LEVEL002
 370
13
 100
AcDbLine
   6
CONTINUOUS
  62
5
  10
 1540.6183537490
  20
 3978.1461587899
  30
0.0
  11
 1511.7188184774
  21
 3982.6552834113
  31
0.0
   0
LINE
   5
336
 100
AcDbEntity
   8
LEVEL002
 370
13
 100
AcDbLine
   6
CONTINUOUS
  62
5
  10
 1511.7188184774
  20
 3982.6552834113
  30
0.0
  11
 1511.7188184774
  21
 3958.1624862897
  31
0.0
   0
LINE
   5
337
 100
AcDbEntity
   8
LEVEL002
 370
13
 100
AcDbLine
   6
CONTINUOUS
  62
5
  10
 1511.7188184774
  20
 3958.1624862897
  30
0.0
  11
 1482.3068930844
  21
 3958.1624862897
  31
0.0
   0
LINE
   5
338
 100
AcDbEntity
   8
LEVEL002
 370
13
 100
AcDbLine
   6
CONTINUOUS
  62
5
  10
 1482.3068930844
  20
 3958.1624862897
  30
0.0
  11
 1486.7136312344
  21
 3947.1970630325
  31
0.0
   0
LINE
   5
339
 100
AcDbEntity
   8
LEVEL002
 370
13
 100
AcDbLine
   6
CONTINUOUS
  62
5
  10
 1486.7136312344
  20
 3947.1970630325
  30
0.0
  11
 1511.7188184774
  21
 3947.1970630325
  31
0.0
   0
LINE
   5
33A
 100
AcDbEntity
   8
LEVEL002
 370
13
 100
AcDbLine
   6
CONTINUOUS
  62
5
  10
 1511.7188184774
  20
 3947.1970630325
  30
0.0
  11
 1511.7188184774
  21
 3916.6578183371
  31
0.0
   0
LINE
   5
33B
 100
AcDbEntity
   8
LEVEL002
 370
13
 100
AcDbLine
   6
CONTINUOUS
  62
5
  10
 1511.7188184774
  20
 3916.6578183371
  30
0.0
  11
 1483.9466025082
  21
 3916.6578183371
  31
0.0
   0
LINE
   5
33C
 100
AcDbEntity
   8
LEVEL002
 370
13
 100
AcDbLine
   6
CONTINUOUS
  62
5
  10
 1483.9466025082
  20
 3916.6578183371
  30
0.0
  11
 1488.8657307796
  21
 3904.5652283655
  31
0.0
   0
LINE
   5
33D
 100
AcDbEntity
   8
LEVEL002
 370
13
 100
AcDbLine
   6
CONTINUOUS
  62
5
  10
 1488.8657307796
  20
 3904.5652283655
  30
0.0
  11
 1511.7188184774
  21
 3904.5652283655
  31
0.0
   0
LINE
   5
33E
 100
AcDbEntity
   8
LEVEL002
 370
13
 100
AcDbLine
   6
CONTINUOUS
  62
5
  10
 1511.7188184774
  20
 3904.5652283655
  30
0.0
  11
 1511.7188184774
  21
 3859.6787550939
  31
0.0
   0
LINE
   5
33F
 100
AcDbEntity
   8
LEVEL002
 370
13
 100
AcDbLine
   6
CONTINUOUS
  62
5
  10
 1511.7188184774
  20
 3859.6787550939
  30
0.0
  11
 1479.2325523558
  21
 3859.6787550939
  31
0.0
   0
LINE
   5
340
 100
AcDbEntity
   8
LEVEL002
 370
13
 100
AcDbLine
   6
CONTINUOUS
  62
5
  10
 1479.2325523558
  20
 3859.6787550939
  30
0.0
  11
 1484.6640707486
  21
 3847.5858599465
  31
0.0
   0
LINE
   5
341
 100
AcDbEntity
   8
LEVEL002
 370
13
 100
AcDbLine
   6
CONTINUOUS
  62
5
  10
 1484.6640707486
  20
 3847.5858599465
  30
0.0
  11
 1575.0418756723
  21
 3847.5858599465
  31
0.0
   0
LINE
   5
342
 100
AcDbEntity
   8
LEVEL002
 370
13
 100
AcDbLine
   6
CONTINUOUS
  62
5
  10
 1578.4964654131
  20
 3859.1086867515
  30
0.0
  11
 1563.1641294442
  21
 3869.2093944583
  31
0.0
   0
LINE
   5
343
 100
AcDbEntity
   8
LEVEL002
 370
13
 100
AcDbLine
   6
CONTINUOUS
  62
5
  10
 1563.1641294442
  20
 3869.2093944583
  30
0.0
  11
 1555.2731995036
  21
 3859.6787550939
  31
0.0
   0
LINE
   5
344
 100
AcDbEntity
   8
LEVEL002
 370
13
 100
AcDbLine
   6
CONTINUOUS
  62
5
  10
 1555.2731995036
  20
 3859.6787550939
  30
0.0
  11
 1536.7240057205
  21
 3859.6787550939
  31
0.0
   0
LINE
   5
345
 100
AcDbEntity
   8
LEVEL002
 370
13
 100
AcDbLine
   6
CONTINUOUS
  62
5
  10
 1536.7240057205
  20
 3859.6787550939
  30
0.0
  11
 1536.7240057205
  21
 3904.5652283655
  31
0.0
   0
LINE
   5
346
 100
AcDbEntity
   8
LEVEL002
 370
13
 100
AcDbLine
   6
CONTINUOUS
  62
5
  10
 1536.7240057205
  20
 3904.5652283655
  30
0.0
  11
 1570.2353572608
  21
 3904.5652283655
  31
0.0
   0
ARC
   5
347
 100
AcDbEntity
   8
LEVEL002
 370
13
   6
CONTINUOUS
  62
5
 100
AcDbCircle
  10
 1575.0423549722
  20
 3853.8649795903
  30
0.0
  40
 6.2791196620726
 100
AcDbArc
  50
 269.99562647876
  51
 56.626490037578
   0
ARC
   5
348
 100
AcDbEntity
   8
LEVEL002
 370
13
   6
CONTINUOUS
  62
5
 100
AcDbCircle
  10
 1578.8148013242
  20
 3747.3964619539
  30
0.0
  40
 4.7515310421130
 100
AcDbArc
  50
 274.70409570306
  51
 59.112293256502
   0
ARC
   5
349
 100
AcDbEntity
   8
LEVEL002
 370
13
   6
CONTINUOUS
  62
5
 100
AcDbCircle
  10
 1485.6554781267
  20
 3747.0394033029
  30
0.0
  40
 22.293228438698
 100
AcDbArc
  50
 35.161132790307
  51
 78.641284698038
   0
ARC
   5
34A
 100
AcDbEntity
   8
LEVEL002
 370
13
   6
CONTINUOUS
  62
5
 100
AcDbCircle
  10
 1497.5355191220
  20
 3758.0961152381
  30
0.0
  40
 6.5907971086860
 100
AcDbArc
  50
 312.23536417697
  51
 15.681870098991
   0
LINE
   5
34B
 100
AcDbEntity
   8
LEVEL002
 370
13
 100
AcDbLine
   6
CONTINUOUS
  62
5
  10
 1501.9657059751
  20
 3753.2163559229
  30
0.0
  11
 1520.8927073642
  21
 3753.2163559229
  31
0.0
   0
LINE
   5
34C
 100
AcDbEntity
   8
LEVEL002
 370
13
 100
AcDbLine
   6
CONTINUOUS
  62
5
  10
 1520.8927073642
  20
 3753.2163559229
  30
0.0
  11
 1531.3458930878
  21
 3768.8959819205
  31
0.0
   0
LINE
   5
34D
 100
AcDbEntity
   8
LEVEL002
 370
13
 100
AcDbLine
   6
CONTINUOUS
  62
5
  10
 1531.3458930878
  20
 3768.8959819205
  30
0.0
  11
 1490.0461506663
  21
 3768.8959819205
  31
0.0
   0
ARC
   5
34E
 100
AcDbEntity
   8
LEVEL002
 370
13
   6
CONTINUOUS
  62
5
 100
AcDbCircle
  10
 1569.3736039549
  20
 3774.0521555455
  30
0.0
  40
 5.1561789168066
 100
AcDbArc
  50
 269.91791191260
  51
 52.070025543504
   0
LINE
   5
34F
 100
AcDbEntity
   8
LEVEL002
 370
13
 100
AcDbLine
   6
CONTINUOUS
  62
5
  10
 1581.2540336903
  20
 3751.4741074397
  30
0.0
  11
 1563.3200742638
  21
 3761.9272931633
  31
0.0
   0
LINE
   5
350
 100
AcDbEntity
   8
LEVEL002
 370
13
 100
AcDbLine
   6
CONTINUOUS
  62
5
  10
 1563.3200742638
  20
 3761.9272931633
  30
0.0
  11
 1556.7612365687
  21
 3753.2163559229
  31
0.0
   0
LINE
   5
351
 100
AcDbEntity
   8
LEVEL002
 370
13
 100
AcDbLine
   6
CONTINUOUS
  62
5
  10
 1556.7612365687
  20
 3753.2163559229
  30
0.0
  11
 1541.0123356708
  21
 3753.2163559229
  31
0.0
   0
LINE
   5
352
 100
AcDbEntity
   8
LEVEL002
 370
13
 100
AcDbLine
   6
CONTINUOUS
  62
5
  10
 1541.0123356708
  20
 3753.2163559229
  30
0.0
  11
 1550.0998598141
  21
 3761.4149030419
  31
0.0
   0
LINE
   5
353
 100
AcDbEntity
   8
LEVEL002
 370
13
 100
AcDbLine
   6
CONTINUOUS
  62
5
  10
 1550.0998598141
  20
 3761.4149030419
  30
0.0
  11
 1553.8916687831
  21
 3761.9272931633
  31
0.0
   0
LINE
   5
354
 100
AcDbEntity
   8
LEVEL002
 370
13
 100
AcDbLine
   6
CONTINUOUS
  62
5
  10
 1553.8916687831
  20
 3761.9272931633
  30
0.0
  11
 1555.5313782069
  21
 3764.2841656517
  31
0.0
   0
LINE
   5
355
 100
AcDbEntity
   8
LEVEL002
 370
13
 100
AcDbLine
   6
CONTINUOUS
  62
5
  10
 1555.5313782069
  20
 3764.2841656517
  30
0.0
  11
 1552.8668885402
  21
 3768.8959819205
  31
0.0
   0
LINE
   5
356
 100
AcDbEntity
   8
LEVEL002
 370
13
 100
AcDbLine
   6
CONTINUOUS
  62
5
  10
 1552.8668885402
  20
 3768.8959819205
  30
0.0
  11
 1569.3662166618
  21
 3768.8959819205
  31
0.0
   0
LINE
   5
357
 100
AcDbEntity
   8
LEVEL002
 370
13
 100
AcDbLine
   6
CONTINUOUS
  62
5
  10
 1572.5430964499
  20
 3778.1191566945
  30
0.0
  11
 1553.8916687831
  21
 3788.3671117113
  31
0.0
   0
LINE
   5
358
 100
AcDbEntity
   8
LEVEL002
 370
13
 100
AcDbLine
   6
CONTINUOUS
  62
5
  10
 1553.8916687831
  20
 3788.3671117113
  30
0.0
  11
 1547.7426821499
  21
 3778.8364723469
  31
0.0
   0
LINE
   5
359
 100
AcDbEntity
   8
LEVEL002
 370
13
 100
AcDbLine
   6
CONTINUOUS
  62
5
  10
 1547.7426821499
  20
 3778.8364723469
  30
0.0
  11
 1526.3242257570
  21
 3778.8364723469
  31
0.0
   0
LINE
   5
35A
 100
AcDbEntity
   8
LEVEL002
 370
13
 100
AcDbLine
   6
CONTINUOUS
  62
5
  10
 1526.3242257570
  20
 3778.8364723469
  30
0.0
  11
 1526.3242257570
  21
 3785.1902319233
  31
0.0
   0
LINE
   5
35B
 100
AcDbEntity
   8
LEVEL002
 370
13
 100
AcDbLine
   6
CONTINUOUS
  62
5
  10
 1526.3242257570
  20
 3785.1902319233
  30
0.0
  11
 1528.4488594827
  21
 3788.8881993423
  31
0.0
   0
LINE
   5
35C
 100
AcDbEntity
   8
LEVEL002
 370
13
 100
AcDbLine
   6
CONTINUOUS
  62
5
  10
 1528.4488594827
  20
 3788.8881993423
  30
0.0
  11
 1527.6288521830
  21
 3790.6302952377
  31
0.0
   0
LINE
   5
35D
 100
AcDbEntity
   8
LEVEL002
 370
13
 100
AcDbLine
   6
CONTINUOUS
  62
5
  10
 1527.6288521830
  20
 3790.6302952377
  30
0.0
  11
 1502.8562088783
  21
 3791.2366794969
  31
0.0
   0
LINE
   5
35E
 100
AcDbEntity
   8
LEVEL002
 370
13
 100
AcDbLine
   6
CONTINUOUS
  62
5
  10
 1502.8562088783
  20
 3791.2366794969
  30
0.0
  11
 1502.8562088783
  21
 3778.8364723469
  31
0.0
   0
LINE
   5
35F
 100
AcDbEntity
   8
LEVEL002
 370
13
 100
AcDbLine
   6
CONTINUOUS
  62
5
  10
 1502.8562088783
  20
 3778.8364723469
  30
0.0
  11
 1453.3939300789
  21
 3778.8364723469
  31
0.0
   0
LINE
   5
360
 100
AcDbEntity
   8
LEVEL002
 370
13
 100
AcDbLine
   6
CONTINUOUS
  62
5
  10
 1453.3939300789
  20
 3778.8364723469
  30
0.0
  11
 1457.8671965472
  21
 3768.8959819205
  31
0.0
   0
LINE
   5
361
 100
AcDbEntity
   8
LEVEL002
 370
13
 100
AcDbLine
   6
CONTINUOUS
  62
5
  10
 1457.8671965472
  20
 3768.8959819205
  30
0.0
  11
 1475.4941491469
  21
 3768.8959819205
  31
0.0
   0
LINE
   5
362
 100
AcDbEntity
   8
LEVEL002
 370
13
 100
AcDbLine
   6
CONTINUOUS
  62
5
  10
 1475.4941491469
  20
 3768.8959819205
  30
0.0
  11
 1485.4346395733
  21
 3753.2163559229
  31
0.0
   0
LINE
   5
363
 100
AcDbEntity
   8
LEVEL002
 370
13
 100
AcDbLine
   6
CONTINUOUS
  62
5
  10
 1485.4346395733
  20
 3753.2163559229
  30
0.0
  11
 1450.7193696118
  21
 3753.2163559229
  31
0.0
   0
LINE
   5
364
 100
AcDbEntity
   8
LEVEL002
 370
13
 100
AcDbLine
   6
CONTINUOUS
  62
5
  10
 1450.7193696118
  20
 3753.2163559229
  30
0.0
  11
 1455.6198821610
  21
 3742.6609363157
  31
0.0
   0
LINE
   5
365
 100
AcDbEntity
   8
LEVEL002
 370
13
 100
AcDbLine
   6
CONTINUOUS
  62
5
  10
 1455.6198821610
  20
 3742.6609363157
  30
0.0
  11
 1579.2044732045
  21
 3742.6609363157
  31
0.0
   0
ARC
   5
366
 100
AcDbEntity
   8
LEVEL002
 370
13
   6
CONTINUOUS
  62
5
 100
AcDbCircle
  10
 1474.9938710146
  20
 3718.6304195949
  30
0.0
  40
 31.206602120202
 100
AcDbArc
  50
 246.86700487445
  51
 289.54634462667
   0
LINE
   5
367
 100
AcDbEntity
   8
LEVEL002
 370
13
 100
AcDbLine
   6
CONTINUOUS
  62
5
  10
 1485.4346395733
  20
 3718.5779902561
  30
0.0
  11
 1485.4346395733
  21
 3725.0341363039
  31
0.0
   0
LINE
   5
368
 100
AcDbEntity
   8
LEVEL002
 370
13
 100
AcDbLine
   6
CONTINUOUS
  62
5
  10
 1485.4346395733
  20
 3725.0341363039
  30
0.0
  11
 1542.0038517546
  21
 3725.0341363039
  31
0.0
   0
LINE
   5
369
 100
AcDbEntity
   8
LEVEL002
 370
13
 100
AcDbLine
   6
CONTINUOUS
  62
5
  10
 1542.0038517546
  20
 3725.0341363039
  30
0.0
  11
 1542.0038517546
  21
 3718.5779902561
  31
0.0
   0
LINE
   5
36A
 100
AcDbEntity
   8
LEVEL002
 370
13
 100
AcDbLine
   6
CONTINUOUS
  62
5
  10
 1542.0038517546
  20
 3718.5779902561
  30
0.0
  11
 1485.4346395733
  21
 3718.5779902561
  31
0.0
   0
LINE
   5
36B
 100
AcDbEntity
   8
LEVEL002
 370
13
 100
AcDbLine
   6
CONTINUOUS
  62
5
  10
 1568.5465145377
  20
 3732.0028250611
  30
0.0
  11
 1548.5626894497
  21
 3741.0212268919
  31
0.0
   0
LINE
   5
36C
 100
AcDbEntity
   8
LEVEL002
 370
13
 100
AcDbLine
   6
CONTINUOUS
  62
5
  10
 1548.5626894497
  20
 3741.0212268919
  30
0.0
  11
 1542.0038517546
  21
 3733.3350698943
  31
0.0
   0
LINE
   5
36D
 100
AcDbEntity
   8
LEVEL002
 370
13
 100
AcDbLine
   6
CONTINUOUS
  62
5
  10
 1542.0038517546
  20
 3733.3350698943
  30
0.0
  11
 1485.4346395733
  21
 3733.3350698943
  31
0.0
   0
LINE
   5
36E
 100
AcDbEntity
   8
LEVEL002
 370
13
 100
AcDbLine
   6
CONTINUOUS
  62
5
  10
 1485.4346395733
  20
 3733.3350698943
  30
0.0
  11
 1485.4346395733
  21
 3735.0773183777
  31
0.0
   0
LINE
   5
36F
 100
AcDbEntity
   8
LEVEL002
 370
13
 100
AcDbLine
   6
CONTINUOUS
  62
5
  10
 1485.4346395733
  20
 3735.0773183777
  30
0.0
  11
 1462.7866299943
  21
 3739.6888294707
  31
0.0
   0
LINE
   5
370
 100
AcDbEntity
   8
LEVEL002
 370
13
 100
AcDbLine
   6
CONTINUOUS
  62
5
  10
 1462.7866299943
  20
 3739.6888294707
  30
0.0
  11
 1462.7338345857
  21
 3689.9329715785
  31
0.0
   0
LINE
   5
371
 100
AcDbEntity
   8
LEVEL002
 370
13
 100
AcDbLine
   6
CONTINUOUS
  62
5
  10
 1485.4346395733
  20
 3702.5908996681
  30
0.0
  11
 1485.4346395733
  21
 3709.4535398443
  31
0.0
   0
LINE
   5
372
 100
AcDbEntity
   8
LEVEL002
 370
13
 100
AcDbLine
   6
CONTINUOUS
  62
5
  10
 1485.4346395733
  20
 3709.4535398443
  30
0.0
  11
 1542.0038517546
  21
 3709.4535398443
  31
0.0
   0
LINE
   5
373
 100
AcDbEntity
   8
LEVEL002
 370
13
 100
AcDbLine
   6
CONTINUOUS
  62
5
  10
 1542.0038517546
  20
 3709.4535398443
  30
0.0
  11
 1542.0038517546
  21
 3702.5908996681
  31
0.0
   0
LINE
   5
374
 100
AcDbEntity
   8
LEVEL002
 370
13
 100
AcDbLine
   6
CONTINUOUS
  62
5
  10
 1542.0038517546
  20
 3702.5908996681
  30
0.0
  11
 1485.4346395733
  21
 3702.5908996681
  31
0.0
   0
ARC
   5
375
 100
AcDbEntity
   8
LEVEL002
 370
13
   6
CONTINUOUS
  62
5
 100
AcDbCircle
  10
 1565.0475390132
  20
 3729.3907322563
  30
0.0
  40
 4.3664469013676
 100
AcDbArc
  50
 266.15058922026
  51
 36.742470507284
   0
LINE
   5
376
 100
AcDbEntity
   8
LEVEL002
 370
13
 100
AcDbLine
   6
CONTINUOUS
  62
5
  10
 1485.4346395733
  20
 3689.2222172051
  30
0.0
  11
 1485.4346395733
  21
 3693.9826540749
  31
0.0
   0
LINE
   5
377
 100
AcDbEntity
   8
LEVEL002
 370
13
 100
AcDbLine
   6
CONTINUOUS
  62
5
  10
 1485.4346395733
  20
 3693.9826540749
  30
0.0
  11
 1542.0038517546
  21
 3693.9826540749
  31
0.0
   0
LINE
   5
378
 100
AcDbEntity
   8
LEVEL002
 370
13
 100
AcDbLine
   6
CONTINUOUS
  62
5
  10
 1542.0038517546
  20
 3693.9826540749
  30
0.0
  11
 1542.0038517546
  21
 3689.0635258037
  31
0.0
   0
LINE
   5
379
 100
AcDbEntity
   8
LEVEL002
 370
13
 100
AcDbLine
   6
CONTINUOUS
  62
5
  10
 1542.0038517546
  20
 3689.0635258037
  30
0.0
  11
 1558.9133361139
  21
 3689.0635258037
  31
0.0
   0
LINE
   5
37A
 100
AcDbEntity
   8
LEVEL002
 370
13
 100
AcDbLine
   6
CONTINUOUS
  62
5
  10
 1558.9133361139
  20
 3689.0635258037
  30
0.0
  11
 1562.6023008477
  21
 3691.1130862895
  31
0.0
   0
LINE
   5
37B
 100
AcDbEntity
   8
LEVEL002
 370
13
 100
AcDbLine
   6
CONTINUOUS
  62
5
  10
 1562.6023008477
  20
 3691.1130862895
  30
0.0
  11
 1564.7544003929
  21
 3695.5198244393
  31
0.0
   0
LINE
   5
37C
 100
AcDbEntity
   8
LEVEL002
 370
13
 100
AcDbLine
   6
CONTINUOUS
  62
5
  10
 1564.7544003929
  20
 3695.5198244393
  30
0.0
  11
 1564.7476865260
  21
 3725.0342888917
  31
0.0
   0
LINE
   5
37D
 100
AcDbEntity
   8
LEVEL002
 370
13
 100
AcDbLine
   6
CONTINUOUS
  62
5
  10
 1468.9670497320
  20
 3683.6320074109
  30
0.0
  11
 1468.4546596106
  21
 3678.5081061963
  31
0.0
   0
LINE
   5
37E
 100
AcDbEntity
   8
LEVEL002
 370
13
 100
AcDbLine
   6
CONTINUOUS
  62
5
  10
 1468.4546596106
  20
 3678.5081061963
  30
0.0
  11
 1466.5073330084
  21
 3674.9212227583
  31
0.0
   0
LINE
   5
37F
 100
AcDbEntity
   8
LEVEL002
 370
13
 100
AcDbLine
   6
CONTINUOUS
  62
5
  10
 1466.5073330084
  20
 3674.9212227583
  30
0.0
  11
 1455.4395232797
  21
 3661.1887707749
  31
0.0
   0
ARC
   5
380
 100
AcDbEntity
   8
LEVEL002
 370
13
   6
CONTINUOUS
  62
5
 100
AcDbCircle
  10
 1463.9717857943
  20
 3655.5770173067
  30
0.0
  40
 10.212310248246
 100
AcDbArc
  50
 146.66668479798
  51
 331.70163256425
   0
ARC
   5
381
 100
AcDbEntity
   8
LEVEL002
 370
13
   6
CONTINUOUS
  62
5
 100
AcDbCircle
  10
 1449.9837016141
  20
 3664.6348042023
  30
0.0
  40
 26.856307183018
 100
AcDbArc
  50
 328.83298190802
  51
 45.020901175864
   0
LINE
   5
382
 100
AcDbEntity
   8
LEVEL002
 370
13
 100
AcDbLine
   6
CONTINUOUS
  62
5
  10
 1552.5913148179
  20
 3686.3990361369
  30
0.0
  11
 1566.0159970350
  21
 3664.0583385605
  31
0.0
   0
ARC
   5
383
 100
AcDbEntity
   8
LEVEL002
 370
13
   6
CONTINUOUS
  62
5
 100
AcDbCircle
  10
 1558.3226341724
  20
 3653.8826678395
  30
0.0
  40
 8.7884995702356
 100
AcDbArc
  50
 268.04310640363
  51
 95.976315924769
   0
ARC
   5
384
 100
AcDbEntity
   8
LEVEL002
 370
13
   6
CONTINUOUS
  62
5
 100
AcDbCircle
  10
 1491.1216932031
  20
 3651.7088849069
  30
0.0
  40
 6.6095999893666
 100
AcDbArc
  50
 179.99949488507
  51
 269.90651577928
   0
LINE
   5
385
 100
AcDbEntity
   8
LEVEL002
 370
13
 100
AcDbLine
   6
CONTINUOUS
  62
5
  10
 1491.1109089353
  20
 3645.0992937155
  30
0.0
  11
 1558.0225280350
  21
 3645.0992937155
  31
0.0
   0
LINE
   5
386
 100
AcDbEntity
   8
LEVEL002
 370
13
 100
AcDbLine
   6
CONTINUOUS
  62
5
  10
 1557.4075988541
  20
 3662.6234020799
  30
0.0
  11
 1550.0290590349
  21
 3681.0700568035
  31
0.0
   0
LINE
   5
387
 100
AcDbEntity
   8
LEVEL002
 370
13
 100
AcDbLine
   6
CONTINUOUS
  62
5
  10
 1550.0290590349
  20
 3681.0700568035
  30
0.0
  11
 1549.8239809160
  21
 3670.8219491989
  31
0.0
   0
LINE
   5
388
 100
AcDbEntity
   8
LEVEL002
 370
13
 100
AcDbLine
   6
CONTINUOUS
  62
5
  10
 1549.8239809160
  20
 3670.8219491989
  30
0.0
  11
 1547.1225649809
  21
 3662.6234020799
  31
0.0
   0
LINE
   5
389
 100
AcDbEntity
   8
LEVEL002
 370
13
 100
AcDbLine
   6
CONTINUOUS
  62
5
  10
 1547.1225649809
  20
 3662.6234020799
  30
0.0
  11
 1507.2629470282
  21
 3662.6234020799
  31
0.0
   0
LINE
   5
38A
 100
AcDbEntity
   8
LEVEL002
 370
13
 100
AcDbLine
   6
CONTINUOUS
  62
5
  10
 1507.2629470282
  20
 3662.6234020799
  30
0.0
  11
 1507.2629470282
  21
 3678.5081061963
  31
0.0
   0
LINE
   5
38B
 100
AcDbEntity
   8
LEVEL002
 370
13
 100
AcDbLine
   6
CONTINUOUS
  62
5
  10
 1507.2629470282
  20
 3678.5081061963
  30
0.0
  11
 1509.3125075140
  21
 3681.4799078655
  31
0.0
   0
LINE
   5
38C
 100
AcDbEntity
   8
LEVEL002
 370
13
 100
AcDbLine
   6
CONTINUOUS
  62
5
  10
 1509.3125075140
  20
 3681.4799078655
  30
0.0
  11
 1507.4680251471
  21
 3683.6320074109
  31
0.0
   0
LINE
   5
38D
 100
AcDbEntity
   8
LEVEL002
 370
13
 100
AcDbLine
   6
CONTINUOUS
  62
5
  10
 1507.4680251471
  20
 3683.6320074109
  30
0.0
  11
 1484.5120932140
  21
 3686.7063481395
  31
0.0
   0
LINE
   5
38E
 100
AcDbEntity
   8
LEVEL002
 370
13
 100
AcDbLine
   6
CONTINUOUS
  62
5
  10
 1484.5120932140
  20
 3686.7063481395
  30
0.0
  11
 1484.5120932140
  21
 3651.7089431767
  31
0.0
   0
LINE
   5
38F
 100
AcDbEntity
   8
LEVEL002
 370
13
 100
AcDbLine
   6
CONTINUOUS
  62
5
  10
 1527.3682320735
  20
 3666.9276011703
  30
0.0
  11
 1513.2260816161
  21
 3688.2436710917
  31
0.0
   0
ARC
   5
390
 100
AcDbEntity
   8
LEVEL002
 370
13
   6
CONTINUOUS
  62
5
 100
AcDbCircle
  10
 1532.2485830304
  20
 3674.6470860489
  30
0.0
  40
 9.1328129430768
 100
AcDbArc
  50
 237.69843463466
  51
 18.768732377838
   0
ARC
   5
391
 100
AcDbEntity
   8
LEVEL002
 370
13
   6
CONTINUOUS
  62
5
 100
AcDbCircle
  10
 1514.7133077658
  20
 3650.3438330837
  30
0.0
  40
 37.929006876678
 100
AcDbArc
  50
 46.131549416336
  51
 92.247188603538
   0
ARC
   5
392
 100
AcDbEntity
   8
LEVEL002
 370
13
   6
CONTINUOUS
  62
5
 100
AcDbCircle
  10
 1571.8086170723
  20
 3670.8665462183
  30
0.0
  40
 8.9390233475260
 100
AcDbArc
  50
 229.60790187561
  51
 6.7933956220426
   0
ARC
   5
393
 100
AcDbEntity
   8
LEVEL002
 370
13
   6
CONTINUOUS
  62
5
 100
AcDbCircle
  10
 1556.4998755664
  20
 3659.8352106289
  30
0.0
  40
 27.037970213950
 100
AcDbArc
  50
 26.557897354813
  51
 98.092162593096
   0
LINE
   5
394
 100
AcDbEntity
   8
LEVEL002
 370
13
 100
AcDbLine
   6
CONTINUOUS
  62
5
  10
 1441.9847465611
  20
 3937.5360084901
  30
0.0
  11
 1456.8918547794
  21
 3935.2068595325
  31
0.0
   0
LINE
   5
395
 100
AcDbEntity
   8
LEVEL002
 370
13
 100
AcDbLine
   6
CONTINUOUS
  62
5
  10
 1463.0405362368
  20
 3903.2328309443
  30
0.0
  11
 1441.9847465611
  21
 3935.4864257643
  31
0.0
   0
LINE
   5
396
 100
AcDbEntity
   8
LEVEL002
 370
13
 100
AcDbLine
   6
CONTINUOUS
  62
5
  10
 1765.0571362604
  20
 590.97558786953
  30
0.0
  11
 1715.0571362604
  21
 490.97558786953
  31
0.0
   0
LINE
   5
397
 100
AcDbEntity
   8
LEVEL002
 370
13
 100
AcDbLine
   6
CONTINUOUS
  62
5
  10
 1715.0571362604
  20
 590.97558786953
  30
0.0
  11
 1755.0571362604
  21
 570.97558786953
  31
0.0
   0
LINE
   5
398
 100
AcDbEntity
   8
LEVEL002
 370
13
 100
AcDbLine
   6
CONTINUOUS
  62
5
  10
 1765.0571362604
  20
 490.97558786953
  30
0.0
  11
 1725.0571362604
  21
 510.97558786953
  31
0.0
   0
LINE
   5
399
 100
AcDbEntity
   8
LEVEL002
 370
13
 100
AcDbLine
   6
CONTINUOUS
  62
5
  10
 1265.0571362604
  20
 490.97558786953
  30
0.0
  11
 1765.0571362604
  21
 490.97558786953
  31
0.0
   0
LINE
   5
39A
 100
AcDbEntity
   8
LEVEL002
 370
13
 100
AcDbLine
   6
CONTINUOUS
  62
5
  10
 1765.0571362604
  20
 490.97558786953
  30
0.0
  11
 1765.0571362604
  21
 590.97558786953
  31
0.0
   0
LINE
   5
39B
 100
AcDbEntity
   8
LEVEL002
 370
13
 100
AcDbLine
   6
CONTINUOUS
  62
5
  10
 1765.0571362604
  20
 590.97558786953
  30
0.0
  11
 1265.0571362604
  21
 590.97558786953
  31
0.0
   0
LINE
   5
39C
 100
AcDbEntity
   8
LEVEL002
 370
13
 100
AcDbLine
   6
CONTINUOUS
  62
5
  10
 1765.0571362604
  20
 1476.3309269289
  30
0.0
  11
 1559.6071362604
  21
 1270.8809269289
  31
0.0
   0
LINE
   5
39D
 100
AcDbEntity
   8
LEVEL002
 370
13
 100
AcDbLine
   6
CONTINUOUS
  62
5
  10
 1559.6071362604
  20
 1235.5255878696
  30
0.0
  11
 1765.0571362604
  21
 1440.9755878696
  31
0.0
   0
LINE
   5
39E
 100
AcDbEntity
   8
LEVEL002
 370
13
 100
AcDbLine
   6
CONTINUOUS
  62
5
  10
 1765.0571362604
  20
 1405.6202488102
  30
0.0
  11
 1559.6071362604
  21
 1200.1702488102
  31
0.0
   0
LINE
   5
39F
 100
AcDbEntity
   8
LEVEL002
 370
13
 100
AcDbLine
   6
CONTINUOUS
  62
5
  10
 1265.0571362604
  20
 590.97558786953
  30
0.0
  11
 1765.0571362604
  21
 590.97558786953
  31
0.0
   0
LINE
   5
3A0
 100
AcDbEntity
   8
LEVEL002
 370
13
 100
AcDbLine
   6
CONTINUOUS
  62
5
  10
 1765.0571362604
  20
 590.97558786953
  30
0.0
  11
 1765.0571362604
  21
 1790.9755878695
  31
0.0
   0
LINE
   5
3A1
 100
AcDbEntity
   8
LEVEL002
 370
13
 100
AcDbLine
   6
CONTINUOUS
  62
5
  10
 1825.7373311070
  20
 1790.9755878695
  30
0.0
  11
 1773.2373311070
  21
 1738.4755878695
  31
0.0
   0
LINE
   5
3A2
 100
AcDbEntity
   8
LEVEL002
 370
13
 100
AcDbLine
   6
CONTINUOUS
  62
5
  10
 1789.1472336831
  20
 1738.4755878695
  30
0.0
  11
 1841.6472336831
  21
 1790.9755878695
  31
0.0
   0
LINE
   5
3A3
 100
AcDbEntity
   8
LEVEL002
 370
13
 100
AcDbLine
   6
CONTINUOUS
  62
5
  10
 1857.5571362607
  20
 1790.9755878695
  30
0.0
  11
 1805.0571362607
  21
 1738.4755878695
  31
0.0
   0
LINE
   5
3A4
 100
AcDbEntity
   8
LEVEL002
 370
13
 100
AcDbLine
   6
CONTINUOUS
  62
5
  10
 1820.9670388367
  20
 1738.4755878695
  30
0.0
  11
 1873.4670388367
  21
 1790.9755878695
  31
0.0
   0
LINE
   5
3A5
 100
AcDbEntity
   8
LEVEL002
 370
13
 100
AcDbLine
   6
CONTINUOUS
  62
5
  10
 1878.2373311073
  20
 1738.4755878695
  30
0.0
  11
 1849.6021849720
  21
 1767.1107340048
  31
0.0
   0
LINE
   5
3A6
 100
AcDbEntity
   8
LEVEL002
 370
13
 100
AcDbLine
   6
CONTINUOUS
  62
5
  10
 1857.5571362602
  20
 1775.0656852930
  30
0.0
  11
 1894.1472336837
  21
 1738.4755878695
  31
0.0
   0
LINE
   5
3A7
 100
AcDbEntity
   8
LEVEL002
 370
13
 100
AcDbLine
   6
CONTINUOUS
  62
5
  10
 1910.0571362602
  20
 1738.4755878695
  30
0.0
  11
 1865.5120875485
  21
 1783.0206365812
  31
0.0
   0
LINE
   5
3A8
 100
AcDbEntity
   8
LEVEL002
 370
13
 100
AcDbLine
   6
CONTINUOUS
  62
5
  10
 1873.4670388367
  20
 1790.9755878695
  30
0.0
  11
 1925.9670388369
  21
 1738.4755878695
  31
0.0
   0
LINE
   5
3A9
 100
AcDbEntity
   8
LEVEL002
 370
13
 100
AcDbLine
   6
CONTINUOUS
  62
5
  10
 1925.9670388369
  20
 1738.4755878695
  30
0.0
  11
 1978.4670388370
  21
 1790.9755878695
  31
0.0
   0
LINE
   5
3AA
 100
AcDbEntity
   8
LEVEL002
 370
13
 100
AcDbLine
   6
CONTINUOUS
  62
5
  10
 1930.7373311072
  20
 1790.9755878695
  30
0.0
  11
 1902.1021849720
  21
 1762.3404417343
  31
0.0
   0
LINE
   5
3AB
 100
AcDbEntity
   8
LEVEL002
 370
13
 100
AcDbLine
   6
CONTINUOUS
  62
5
  10
 1910.0571362601
  20
 1754.3854904463
  30
0.0
  11
 1946.6472336834
  21
 1790.9755878695
  31
0.0
   0
LINE
   5
3AC
 100
AcDbEntity
   8
LEVEL002
 370
13
 100
AcDbLine
   6
CONTINUOUS
  62
5
  10
 1962.5571362610
  20
 1790.9755878695
  30
0.0
  11
 1918.0120875489
  21
 1746.4305391575
  31
0.0
   0
LINE
   5
3AD
 100
AcDbEntity
   8
LEVEL002
 370
13
 100
AcDbLine
   6
CONTINUOUS
  62
5
  10
 1983.2373311076
  20
 1738.4755878695
  30
0.0
  11
 1954.6021849722
  21
 1767.1107340048
  31
0.0
   0
LINE
   5
3AE
 100
AcDbEntity
   8
LEVEL002
 370
13
 100
AcDbLine
   6
CONTINUOUS
  62
5
  10
 1962.5571362604
  20
 1775.0656852930
  30
0.0
  11
 1999.1472336840
  21
 1738.4755878695
  31
0.0
   0
LINE
   5
3AF
 100
AcDbEntity
   8
LEVEL002
 370
13
 100
AcDbLine
   6
CONTINUOUS
  62
5
  10
 2015.0571362604
  20
 1738.4755878695
  30
0.0
  11
 1970.5120875486
  21
 1783.0206365812
  31
0.0
   0
LINE
   5
3B0
 100
AcDbEntity
   8
LEVEL002
 370
13
 100
AcDbLine
   6
CONTINUOUS
  62
5
  10
 1978.4670388370
  20
 1790.9755878695
  30
0.0
  11
 2015.0571362604
  21
 1754.3854904462
  31
0.0
   0
LINE
   5
3B1
 100
AcDbEntity
   8
LEVEL002
 370
13
 100
AcDbLine
   6
CONTINUOUS
  62
5
  10
 1559.6071362604
  20
 1790.9755878695
  30
0.0
  11
 2015.0571362604
  21
 1790.9755878695
  31
0.0
   0
LINE
   5
3B2
 100
AcDbEntity
   8
LEVEL002
 370
13
 100
AcDbLine
   6
CONTINUOUS
  62
5
  10
 1715.0571362604
  20
 590.97558786953
  30
0.0
  11
 1665.0571362604
  21
 490.97558786953
  31
0.0
   0
LINE
   5
3B3
 100
AcDbEntity
   8
LEVEL002
 370
13
 100
AcDbLine
   6
CONTINUOUS
  62
5
  10
 1665.0571362604
  20
 590.97558786953
  30
0.0
  11
 1705.0571362604
  21
 570.97558786953
  31
0.0
   0
LINE
   5
3B4
 100
AcDbEntity
   8
LEVEL002
 370
13
 100
AcDbLine
   6
CONTINUOUS
  62
5
  10
 1665.0571362604
  20
 590.97558786953
  30
0.0
  11
 1615.0571362604
  21
 490.97558786953
  31
0.0
   0
LINE
   5
3B5
 100
AcDbEntity
   8
LEVEL002
 370
13
 100
AcDbLine
   6
CONTINUOUS
  62
5
  10
 1615.0571362604
  20
 590.97558786953
  30
0.0
  11
 1655.0571362604
  21
 570.97558786953
  31
0.0
   0
LINE
   5
3B6
 100
AcDbEntity
   8
LEVEL002
 370
13
 100
AcDbLine
   6
CONTINUOUS
  62
5
  10
 1715.0571362604
  20
 490.97558786953
  30
0.0
  11
 1675.0571362604
  21
 510.97558786953
  31
0.0
   0
LINE
   5
3B7
 100
AcDbEntity
   8
LEVEL002
 370
13
 100
AcDbLine
   6
CONTINUOUS
  62
5
  10
 1665.0571362604
  20
 490.97558786953
  30
0.0
  11
 1625.0571362604
  21
 510.97558786953
  31
0.0
   0
LINE
   5
3B8
 100
AcDbEntity
   8
LEVEL002
 370
13
 100
AcDbLine
   6
CONTINUOUS
  62
5
  10
 1415.0571362604
  20
 590.97558786953
  30
0.0
  11
 1365.0571362604
  21
 490.97558786953
  31
0.0
   0
LINE
   5
3B9
 100
AcDbEntity
   8
LEVEL002
 370
13
 100
AcDbLine
   6
CONTINUOUS
  62
5
  10
 1365.0571362604
  20
 590.97558786953
  30
0.0
  11
 1405.0571362604
  21
 570.97558786953
  31
0.0
   0
LINE
   5
3BA
 100
AcDbEntity
   8
LEVEL002
 370
13
 100
AcDbLine
   6
CONTINUOUS
  62
5
  10
 1365.0571362604
  20
 590.97558786953
  30
0.0
  11
 1315.0571362604
  21
 490.97558786953
  31
0.0
   0
LINE
   5
3BB
 100
AcDbEntity
   8
LEVEL002
 370
13
 100
AcDbLine
   6
CONTINUOUS
  62
5
  10
 1315.0571362604
  20
 590.97558786953
  30
0.0
  11
 1355.0571362604
  21
 570.97558786953
  31
0.0
   0
LINE
   5
3BC
 100
AcDbEntity
   8
LEVEL002
 370
13
 100
AcDbLine
   6
CONTINUOUS
  62
5
  10
 1315.0571362604
  20
 590.97558786953
  30
0.0
  11
 1265.0571362604
  21
 490.97558786953
  31
0.0
   0
LINE
   5
3BD
 100
AcDbEntity
   8
LEVEL002
 370
13
 100
AcDbLine
   6
CONTINUOUS
  62
5
  10
 1265.0571362604
  20
 590.97558786953
  30
0.0
  11
 1305.0571362604
  21
 570.97558786953
  31
0.0
   0
LINE
   5
3BE
 100
AcDbEntity
   8
LEVEL002
 370
13
 100
AcDbLine
   6
CONTINUOUS
  62
5
  10
 1415.0571362604
  20
 490.97558786953
  30
0.0
  11
 1375.0571362604
  21
 510.97558786953
  31
0.0
   0
LINE
   5
3BF
 100
AcDbEntity
   8
LEVEL002
 370
13
 100
AcDbLine
   6
CONTINUOUS
  62
5
  10
 1365.0571362604
  20
 490.97558786953
  30
0.0
  11
 1325.0571362604
  21
 510.97558786953
  31
0.0
   0
LINE
   5
3C0
 100
AcDbEntity
   8
LEVEL002
 370
13
 100
AcDbLine
   6
CONTINUOUS
  62
5
  10
 1315.0571362604
  20
 490.97558786953
  30
0.0
  11
 1275.0571362604
  21
 510.97558786953
  31
0.0
   0
LINE
   5
3C1
 100
AcDbEntity
   8
LEVEL002
 370
13
 100
AcDbLine
   6
CONTINUOUS
  62
5
  10
 1265.0571362604
  20
 590.97558786953
  30
0.0
  11
 1265.0571362604
  21
 490.97558786953
  31
0.0
   0
LINE
   5
3C2
 100
AcDbEntity
   8
LEVEL002
 370
13
 100
AcDbLine
   6
CONTINUOUS
  62
5
  10
 1265.0571362604
  20
 1790.9755878695
  30
0.0
  11
 1265.0571362604
  21
 590.97558786953
  31
0.0
   0
LINE
   5
3C3
 100
AcDbEntity
   8
LEVEL002
 370
13
 100
AcDbLine
   6
CONTINUOUS
  62
5
  10
 1470.5071362604
  20
 1181.7809269289
  30
0.0
  11
 1265.0571362604
  21
 976.33092692887
  31
0.0
   0
LINE
   5
3C4
 100
AcDbEntity
   8
LEVEL002
 370
13
 100
AcDbLine
   6
CONTINUOUS
  62
5
  10
 1265.0571362604
  20
 940.97558786956
  30
0.0
  11
 1470.5071362604
  21
 1146.4255878696
  31
0.0
   0
LINE
   5
3C5
 100
AcDbEntity
   8
LEVEL002
 370
13
 100
AcDbLine
   6
CONTINUOUS
  62
5
  10
 1470.5071362604
  20
 1111.0702488103
  30
0.0
  11
 1265.0571362604
  21
 905.62024881024
  31
0.0
   0
LINE
   5
3C6
 100
AcDbEntity
   8
LEVEL002
 370
13
 100
AcDbLine
   6
CONTINUOUS
  62
5
  10
 1175.9670388369
  20
 1738.4755878695
  30
0.0
  11
 1228.4670388369
  21
 1790.9755878695
  31
0.0
   0
LINE
   5
3C7
 100
AcDbEntity
   8
LEVEL002
 370
13
 100
AcDbLine
   6
CONTINUOUS
  62
5
  10
 1160.0571362601
  20
 1754.3854904463
  30
0.0
  11
 1196.6472336833
  21
 1790.9755878695
  31
0.0
   0
LINE
   5
3C8
 100
AcDbEntity
   8
LEVEL002
 370
13
 100
AcDbLine
   6
CONTINUOUS
  62
5
  10
 1212.5571362609
  20
 1790.9755878695
  30
0.0
  11
 1168.0120875489
  21
 1746.4305391575
  31
0.0
   0
LINE
   5
3C9
 100
AcDbEntity
   8
LEVEL002
 370
13
 100
AcDbLine
   6
CONTINUOUS
  62
5
  10
 1233.2373311075
  20
 1738.4755878695
  30
0.0
  11
 1204.6021849722
  21
 1767.1107340048
  31
0.0
   0
LINE
   5
3CA
 100
AcDbEntity
   8
LEVEL002
 370
13
 100
AcDbLine
   6
CONTINUOUS
  62
5
  10
 1212.5571362604
  20
 1775.0656852930
  30
0.0
  11
 1249.1472336839
  21
 1738.4755878695
  31
0.0
   0
LINE
   5
3CB
 100
AcDbEntity
   8
LEVEL002
 370
13
 100
AcDbLine
   6
CONTINUOUS
  62
5
  10
 1265.0571362604
  20
 1738.4755878695
  30
0.0
  11
 1220.5120875486
  21
 1783.0206365812
  31
0.0
   0
LINE
   5
3CC
 100
AcDbEntity
   8
LEVEL002
 370
13
 100
AcDbLine
   6
CONTINUOUS
  62
5
  10
 1075.7373311070
  20
 1790.9755878695
  30
0.0
  11
 1023.2373311070
  21
 1738.4755878695
  31
0.0
   0
LINE
   5
3CD
 100
AcDbEntity
   8
LEVEL002
 370
13
 100
AcDbLine
   6
CONTINUOUS
  62
5
  10
 1039.1472336831
  20
 1738.4755878695
  30
0.0
  11
 1091.6472336831
  21
 1790.9755878695
  31
0.0
   0
LINE
   5
3CE
 100
AcDbEntity
   8
LEVEL002
 370
13
 100
AcDbLine
   6
CONTINUOUS
  62
5
  10
 1107.5571362607
  20
 1790.9755878695
  30
0.0
  11
 1055.0571362607
  21
 1738.4755878695
  31
0.0
   0
LINE
   5
3CF
 100
AcDbEntity
   8
LEVEL002
 370
13
 100
AcDbLine
   6
CONTINUOUS
  62
5
  10
 1070.9670388367
  20
 1738.4755878695
  30
0.0
  11
 1123.4670388367
  21
 1790.9755878695
  31
0.0
   0
LINE
   5
3D0
 100
AcDbEntity
   8
LEVEL002
 370
13
 100
AcDbLine
   6
CONTINUOUS
  62
5
  10
 1128.2373311073
  20
 1738.4755878695
  30
0.0
  11
 1099.6021849720
  21
 1767.1107340048
  31
0.0
   0
LINE
   5
3D1
 100
AcDbEntity
   8
LEVEL002
 370
13
 100
AcDbLine
   6
CONTINUOUS
  62
5
  10
 1107.5571362602
  20
 1775.0656852930
  30
0.0
  11
 1144.1472336837
  21
 1738.4755878695
  31
0.0
   0
LINE
   5
3D2
 100
AcDbEntity
   8
LEVEL002
 370
13
 100
AcDbLine
   6
CONTINUOUS
  62
5
  10
 1160.0571362602
  20
 1738.4755878695
  30
0.0
  11
 1115.5120875485
  21
 1783.0206365812
  31
0.0
   0
LINE
   5
3D3
 100
AcDbEntity
   8
LEVEL002
 370
13
 100
AcDbLine
   6
CONTINUOUS
  62
5
  10
 1123.4670388367
  20
 1790.9755878695
  30
0.0
  11
 1175.9670388369
  21
 1738.4755878695
  31
0.0
   0
LINE
   5
3D4
 100
AcDbEntity
   8
LEVEL002
 370
13
 100
AcDbLine
   6
CONTINUOUS
  62
5
  10
 1180.7373311072
  20
 1790.9755878695
  30
0.0
  11
 1152.1021849720
  21
 1762.3404417343
  31
0.0
   0
LINE
   5
3D5
 100
AcDbEntity
   8
LEVEL002
 370
13
 100
AcDbLine
   6
CONTINUOUS
  62
5
  10
 1228.4670388369
  20
 1790.9755878695
  30
0.0
  11
 1265.0571362604
  21
 1754.3854904462
  31
0.0
   0
LINE
   5
3D6
 100
AcDbEntity
   8
LEVEL002
 370
13
 100
AcDbLine
   6
CONTINUOUS
  62
5
  10
 1470.5071362604
  20
 1790.9755878695
  30
0.0
  11
 1015.0571362604
  21
 1790.9755878695
  31
0.0
   0
LINE
   5
3D7
 100
AcDbEntity
   8
LEVEL002
 370
13
 100
AcDbLine
   6
CONTINUOUS
  62
5
  10
 2475.9670388370
  20
 1738.4755878695
  30
0.0
  11
 2528.4670388370
  21
 1790.9755878695
  31
0.0
   0
LINE
   5
3D8
 100
AcDbEntity
   8
LEVEL002
 370
13
 100
AcDbLine
   6
CONTINUOUS
  62
5
  10
 2460.0571362602
  20
 1754.3854904463
  30
0.0
  11
 2496.6472336834
  21
 1790.9755878695
  31
0.0
   0
LINE
   5
3D9
 100
AcDbEntity
   8
LEVEL002
 370
13
 100
AcDbLine
   6
CONTINUOUS
  62
5
  10
 2512.5571362610
  20
 1790.9755878695
  30
0.0
  11
 2468.0120875490
  21
 1746.4305391575
  31
0.0
   0
LINE
   5
3DA
 100
AcDbEntity
   8
LEVEL002
 370
13
 100
AcDbLine
   6
CONTINUOUS
  62
5
  10
 2533.2373311076
  20
 1738.4755878695
  30
0.0
  11
 2504.6021849722
  21
 1767.1107340048
  31
0.0
   0
LINE
   5
3DB
 100
AcDbEntity
   8
LEVEL002
 370
13
 100
AcDbLine
   6
CONTINUOUS
  62
5
  10
 2512.5571362604
  20
 1775.0656852930
  30
0.0
  11
 2549.1472336839
  21
 1738.4755878695
  31
0.0
   0
LINE
   5
3DC
 100
AcDbEntity
   8
LEVEL002
 370
13
 100
AcDbLine
   6
CONTINUOUS
  62
5
  10
 2565.0571362604
  20
 1738.4755878695
  30
0.0
  11
 2520.5120875486
  21
 1783.0206365812
  31
0.0
   0
LINE
   5
3DD
 100
AcDbEntity
   8
LEVEL002
 370
13
 100
AcDbLine
   6
CONTINUOUS
  62
5
  10
 2375.7373311070
  20
 1790.9755878695
  30
0.0
  11
 2323.2373311070
  21
 1738.4755878695
  31
0.0
   0
LINE
   5
3DE
 100
AcDbEntity
   8
LEVEL002
 370
13
 100
AcDbLine
   6
CONTINUOUS
  62
5
  10
 2339.1472336832
  20
 1738.4755878695
  30
0.0
  11
 2391.6472336832
  21
 1790.9755878695
  31
0.0
   0
LINE
   5
3DF
 100
AcDbEntity
   8
LEVEL002
 370
13
 100
AcDbLine
   6
CONTINUOUS
  62
5
  10
 2407.5571362608
  20
 1790.9755878695
  30
0.0
  11
 2355.0571362608
  21
 1738.4755878695
  31
0.0
   0
LINE
   5
3E0
 100
AcDbEntity
   8
LEVEL002
 370
13
 100
AcDbLine
   6
CONTINUOUS
  62
5
  10
 2370.9670388368
  20
 1738.4755878695
  30
0.0
  11
 2423.4670388368
  21
 1790.9755878695
  31
0.0
   0
LINE
   5
3E1
 100
AcDbEntity
   8
LEVEL002
 370
13
 100
AcDbLine
   6
CONTINUOUS
  62
5
  10
 2428.2373311074
  20
 1738.4755878695
  30
0.0
  11
 2399.6021849720
  21
 1767.1107340048
  31
0.0
   0
LINE
   5
3E2
 100
AcDbEntity
   8
LEVEL002
 370
13
 100
AcDbLine
   6
CONTINUOUS
  62
5
  10
 2407.5571362602
  20
 1775.0656852930
  30
0.0
  11
 2444.1472336838
  21
 1738.4755878695
  31
0.0
   0
LINE
   5
3E3
 100
AcDbEntity
   8
LEVEL002
 370
13
 100
AcDbLine
   6
CONTINUOUS
  62
5
  10
 2460.0571362602
  20
 1738.4755878695
  30
0.0
  11
 2415.5120875484
  21
 1783.0206365812
  31
0.0
   0
LINE
   5
3E4
 100
AcDbEntity
   8
LEVEL002
 370
13
 100
AcDbLine
   6
CONTINUOUS
  62
5
  10
 2423.4670388368
  20
 1790.9755878695
  30
0.0
  11
 2475.9670388370
  21
 1738.4755878695
  31
0.0
   0
LINE
   5
3E5
 100
AcDbEntity
   8
LEVEL002
 370
13
 100
AcDbLine
   6
CONTINUOUS
  62
5
  10
 2480.7373311072
  20
 1790.9755878695
  30
0.0
  11
 2452.1021849720
  21
 1762.3404417343
  31
0.0
   0
LINE
   5
3E6
 100
AcDbEntity
   8
LEVEL002
 370
13
 100
AcDbLine
   6
CONTINUOUS
  62
5
  10
 2528.4670388370
  20
 1790.9755878695
  30
0.0
  11
 2565.0571362604
  21
 1754.3854904462
  31
0.0
   0
LINE
   5
3E7
 100
AcDbEntity
   8
LEVEL002
 370
13
 100
AcDbLine
   6
CONTINUOUS
  62
5
  10
 2565.0571362604
  20
 1790.9755878696
  30
0.0
  11
 2565.0571362604
  21
 590.97558786959
  31
0.0
   0
LINE
   5
3E8
 100
AcDbEntity
   8
LEVEL002
 370
13
 100
AcDbLine
   6
CONTINUOUS
  62
5
  10
 2842.8174060392
  20
 1790.9755878695
  30
0.0
  11
 2315.0571362604
  21
 1790.9755878695
  31
0.0
   0
LINE
   5
3E9
 100
AcDbEntity
   8
LEVEL002
 370
13
 100
AcDbLine
   6
CONTINUOUS
  62
5
  10
 3125.7373311070
  20
 1790.9755878695
  30
0.0
  11
 3073.2373311070
  21
 1738.4755878695
  31
0.0
   0
LINE
   5
3EA
 100
AcDbEntity
   8
LEVEL002
 370
13
 100
AcDbLine
   6
CONTINUOUS
  62
5
  10
 3089.1472336831
  20
 1738.4755878695
  30
0.0
  11
 3141.6472336832
  21
 1790.9755878695
  31
0.0
   0
LINE
   5
3EB
 100
AcDbEntity
   8
LEVEL002
 370
13
 100
AcDbLine
   6
CONTINUOUS
  62
5
  10
 3157.5571362608
  20
 1790.9755878695
  30
0.0
  11
 3105.0571362608
  21
 1738.4755878695
  31
0.0
   0
LINE
   5
3EC
 100
AcDbEntity
   8
LEVEL002
 370
13
 100
AcDbLine
   6
CONTINUOUS
  62
5
  10
 3120.9670388368
  20
 1738.4755878695
  30
0.0
  11
 3173.4670388368
  21
 1790.9755878695
  31
0.0
   0
LINE
   5
3ED
 100
AcDbEntity
   8
LEVEL002
 370
13
 100
AcDbLine
   6
CONTINUOUS
  62
5
  10
 3178.2373311074
  20
 1738.4755878695
  30
0.0
  11
 3149.6021849720
  21
 1767.1107340048
  31
0.0
   0
LINE
   5
3EE
 100
AcDbEntity
   8
LEVEL002
 370
13
 100
AcDbLine
   6
CONTINUOUS
  62
5
  10
 3157.5571362602
  20
 1775.0656852930
  30
0.0
  11
 3194.1472336838
  21
 1738.4755878695
  31
0.0
   0
LINE
   5
3EF
 100
AcDbEntity
   8
LEVEL002
 370
13
 100
AcDbLine
   6
CONTINUOUS
  62
5
  10
 3210.0571362602
  20
 1738.4755878695
  30
0.0
  11
 3165.5120875484
  21
 1783.0206365812
  31
0.0
   0
LINE
   5
3F0
 100
AcDbEntity
   8
LEVEL002
 370
13
 100
AcDbLine
   6
CONTINUOUS
  62
5
  10
 3173.4670388368
  20
 1790.9755878695
  30
0.0
  11
 3225.9670388370
  21
 1738.4755878695
  31
0.0
   0
LINE
   5
3F1
 100
AcDbEntity
   8
LEVEL002
 370
13
 100
AcDbLine
   6
CONTINUOUS
  62
5
  10
 3225.9670388370
  20
 1738.4755878695
  30
0.0
  11
 3278.4670388370
  21
 1790.9755878695
  31
0.0
   0
LINE
   5
3F2
 100
AcDbEntity
   8
LEVEL002
 370
13
 100
AcDbLine
   6
CONTINUOUS
  62
5
  10
 3230.7373311072
  20
 1790.9755878695
  30
0.0
  11
 3202.1021849720
  21
 1762.3404417343
  31
0.0
   0
LINE
   5
3F3
 100
AcDbEntity
   8
LEVEL002
 370
13
 100
AcDbLine
   6
CONTINUOUS
  62
5
  10
 3210.0571362602
  20
 1754.3854904463
  30
0.0
  11
 3246.6472336834
  21
 1790.9755878695
  31
0.0
   0
LINE
   5
3F4
 100
AcDbEntity
   8
LEVEL002
 370
13
 100
AcDbLine
   6
CONTINUOUS
  62
5
  10
 3262.5571362610
  20
 1790.9755878695
  30
0.0
  11
 3218.0120875490
  21
 1746.4305391575
  31
0.0
   0
LINE
   5
3F5
 100
AcDbEntity
   8
LEVEL002
 370
13
 100
AcDbLine
   6
CONTINUOUS
  62
5
  10
 3283.2373311076
  20
 1738.4755878695
  30
0.0
  11
 3254.6021849722
  21
 1767.1107340048
  31
0.0
   0
LINE
   5
3F6
 100
AcDbEntity
   8
LEVEL002
 370
13
 100
AcDbLine
   6
CONTINUOUS
  62
5
  10
 3262.5571362604
  20
 1775.0656852930
  30
0.0
  11
 3299.1472336839
  21
 1738.4755878695
  31
0.0
   0
LINE
   5
3F7
 100
AcDbEntity
   8
LEVEL002
 370
13
 100
AcDbLine
   6
CONTINUOUS
  62
5
  10
 3315.0571362604
  20
 1738.4755878695
  30
0.0
  11
 3270.5120875486
  21
 1783.0206365812
  31
0.0
   0
LINE
   5
3F8
 100
AcDbEntity
   8
LEVEL002
 370
13
 100
AcDbLine
   6
CONTINUOUS
  62
5
  10
 3278.4670388370
  20
 1790.9755878695
  30
0.0
  11
 3315.0571362604
  21
 1754.3854904462
  31
0.0
   0
LINE
   5
3F9
 100
AcDbEntity
   8
LEVEL002
 370
13
 100
AcDbLine
   6
CONTINUOUS
  62
5
  10
 3065.0571362604
  20
 1476.3309269290
  30
0.0
  11
 2859.6071850886
  21
 1270.8809757571
  31
0.0
   0
LINE
   5
3FA
 100
AcDbEntity
   8
LEVEL002
 370
13
 100
AcDbLine
   6
CONTINUOUS
  62
5
  10
 2859.6071850886
  20
 1235.5256366978
  30
0.0
  11
 3065.0571362604
  21
 1440.9755878696
  31
0.0
   0
LINE
   5
3FB
 100
AcDbEntity
   8
LEVEL002
 370
13
 100
AcDbLine
   6
CONTINUOUS
  62
5
  10
 3065.0571362604
  20
 1405.6202488103
  30
0.0
  11
 2859.6071850886
  21
 1200.1702976384
  31
0.0
   0
LINE
   5
3FC
 100
AcDbEntity
   8
LEVEL002
 370
13
 100
AcDbLine
   6
CONTINUOUS
  62
5
  10
 3065.0571362604
  20
 590.97558786959
  30
0.0
  11
 3065.0571362604
  21
 1790.9755878696
  31
0.0
   0
LINE
   5
3FD
 100
AcDbEntity
   8
LEVEL002
 370
13
 100
AcDbLine
   6
CONTINUOUS
  62
5
  10
 2952.1089732158
  20
 1790.9755878695
  30
0.0
  11
 3315.0571362604
  21
 1790.9755878695
  31
0.0
   0
LINE
   5
3FE
 100
AcDbEntity
   8
LEVEL002
 370
13
 100
AcDbLine
   6
CONTINUOUS
  62
5
  10
 2770.5070874322
  20
 1111.0701999822
  30
0.0
  11
 2565.0571362604
  21
 905.62024881028
  31
0.0
   0
LINE
   5
3FF
 100
AcDbEntity
   8
LEVEL002
 370
13
 100
AcDbLine
   6
CONTINUOUS
  62
5
  10
 2565.0571362604
  20
 940.97558786960
  30
0.0
  11
 2770.5070874322
  21
 1146.4255390415
  31
0.0
   0
LINE
   5
400
 100
AcDbEntity
   8
LEVEL002
 370
13
 100
AcDbLine
   6
CONTINUOUS
  62
5
  10
 2770.5070874322
  20
 1181.7808781008
  30
0.0
  11
 2565.0571362604
  21
 976.33092692896
  31
0.0
   0
LINE
   5
401
 100
AcDbEntity
   8
LEVEL002
 370
13
 100
AcDbLine
   6
CONTINUOUS
  62
5
  10
 3065.0571362604
  20
 590.97558786959
  30
0.0
  11
 2565.0571362604
  21
 590.97558786959
  31
0.0
   0
LINE
   5
402
 100
AcDbEntity
   8
LEVEL002
 370
13
 100
AcDbLine
   6
CONTINUOUS
  62
5
  10
 2565.0571362604
  20
 590.97558786959
  30
0.0
  11
 2565.0571362604
  21
 490.97558786959
  31
0.0
   0
LINE
   5
403
 100
AcDbEntity
   8
LEVEL002
 370
13
 100
AcDbLine
   6
CONTINUOUS
  62
5
  10
 2565.0571362604
  20
 490.97558786959
  30
0.0
  11
 3065.0571362604
  21
 490.97558786959
  31
0.0
   0
LINE
   5
404
 100
AcDbEntity
   8
LEVEL002
 370
13
 100
AcDbLine
   6
CONTINUOUS
  62
5
  10
 2565.0571362604
  20
 590.97558786959
  30
0.0
  11
 3065.0571362604
  21
 590.97558786959
  31
0.0
   0
LINE
   5
405
 100
AcDbEntity
   8
LEVEL002
 370
13
 100
AcDbLine
   6
CONTINUOUS
  62
5
  10
 2615.0571362604
  20
 590.97558786959
  30
0.0
  11
 2565.0571362604
  21
 490.97558786959
  31
0.0
   0
LINE
   5
406
 100
AcDbEntity
   8
LEVEL002
 370
13
 100
AcDbLine
   6
CONTINUOUS
  62
5
  10
 2565.0571362604
  20
 590.97558786959
  30
0.0
  11
 2605.0571362604
  21
 570.97558786959
  31
0.0
   0
LINE
   5
407
 100
AcDbEntity
   8
LEVEL002
 370
13
 100
AcDbLine
   6
CONTINUOUS
  62
5
  10
 2615.0571362604
  20
 490.97558786959
  30
0.0
  11
 2575.0571362604
  21
 510.97558786959
  31
0.0
   0
LINE
   5
408
 100
AcDbEntity
   8
LEVEL002
 370
13
 100
AcDbLine
   6
CONTINUOUS
  62
5
  10
 2715.0571362604
  20
 590.97558786959
  30
0.0
  11
 2665.0571362604
  21
 490.97558786959
  31
0.0
   0
LINE
   5
409
 100
AcDbEntity
   8
LEVEL002
 370
13
 100
AcDbLine
   6
CONTINUOUS
  62
5
  10
 2665.0571362604
  20
 590.97558786959
  30
0.0
  11
 2705.0571362604
  21
 570.97558786959
  31
0.0
   0
LINE
   5
40A
 100
AcDbEntity
   8
LEVEL002
 370
13
 100
AcDbLine
   6
CONTINUOUS
  62
5
  10
 2665.0571362604
  20
 590.97558786959
  30
0.0
  11
 2615.0571362604
  21
 490.97558786959
  31
0.0
   0
LINE
   5
40B
 100
AcDbEntity
   8
LEVEL002
 370
13
 100
AcDbLine
   6
CONTINUOUS
  62
5
  10
 2615.0571362604
  20
 590.97558786959
  30
0.0
  11
 2655.0571362604
  21
 570.97558786959
  31
0.0
   0
LINE
   5
40C
 100
AcDbEntity
   8
LEVEL002
 370
13
 100
AcDbLine
   6
CONTINUOUS
  62
5
  10
 2715.0571362604
  20
 490.97558786959
  30
0.0
  11
 2675.0571362604
  21
 510.97558786959
  31
0.0
   0
LINE
   5
40D
 100
AcDbEntity
   8
LEVEL002
 370
13
 100
AcDbLine
   6
CONTINUOUS
  62
5
  10
 2665.0571362604
  20
 490.97558786959
  30
0.0
  11
 2625.0571362604
  21
 510.97558786959
  31
0.0
   0
LINE
   5
40E
 100
AcDbEntity
   8
LEVEL002
 370
13
 100
AcDbLine
   6
CONTINUOUS
  62
5
  10
 3065.0571362604
  20
 590.97558786959
  30
0.0
  11
 3015.0571362604
  21
 490.97558786959
  31
0.0
   0
LINE
   5
40F
 100
AcDbEntity
   8
LEVEL002
 370
13
 100
AcDbLine
   6
CONTINUOUS
  62
5
  10
 3015.0571362604
  20
 590.97558786959
  30
0.0
  11
 3055.0571362604
  21
 570.97558786959
  31
0.0
   0
LINE
   5
410
 100
AcDbEntity
   8
LEVEL002
 370
13
 100
AcDbLine
   6
CONTINUOUS
  62
5
  10
 3065.0571362604
  20
 490.97558786959
  30
0.0
  11
 3025.0571362604
  21
 510.97558786959
  31
0.0
   0
LINE
   5
411
 100
AcDbEntity
   8
LEVEL002
 370
13
 100
AcDbLine
   6
CONTINUOUS
  62
5
  10
 3065.0571362604
  20
 490.97558786959
  30
0.0
  11
 3065.0571362604
  21
 590.97558786959
  31
0.0
   0
LINE
   5
412
 100
AcDbEntity
   8
LEVEL002
 370
13
 100
AcDbLine
   6
CONTINUOUS
  62
5
  10
 3015.0571362604
  20
 590.97558786959
  30
0.0
  11
 2965.0571362604
  21
 490.97558786959
  31
0.0
   0
LINE
   5
413
 100
AcDbEntity
   8
LEVEL002
 370
13
 100
AcDbLine
   6
CONTINUOUS
  62
5
  10
 2965.0571362604
  20
 590.97558786959
  30
0.0
  11
 3005.0571362604
  21
 570.97558786959
  31
0.0
   0
LINE
   5
414
 100
AcDbEntity
   8
LEVEL002
 370
13
 100
AcDbLine
   6
CONTINUOUS
  62
5
  10
 2965.0571362604
  20
 590.97558786959
  30
0.0
  11
 2915.0571362604
  21
 490.97558786959
  31
0.0
   0
LINE
   5
415
 100
AcDbEntity
   8
LEVEL002
 370
13
 100
AcDbLine
   6
CONTINUOUS
  62
5
  10
 2915.0571362604
  20
 590.97558786959
  30
0.0
  11
 2955.0571362604
  21
 570.97558786959
  31
0.0
   0
LINE
   5
416
 100
AcDbEntity
   8
LEVEL002
 370
13
 100
AcDbLine
   6
CONTINUOUS
  62
5
  10
 3015.0571362604
  20
 490.97558786959
  30
0.0
  11
 2975.0571362604
  21
 510.97558786959
  31
0.0
   0
LINE
   5
417
 100
AcDbEntity
   8
LEVEL002
 370
13
 100
AcDbLine
   6
CONTINUOUS
  62
5
  10
 2965.0571362604
  20
 490.97558786959
  30
0.0
  11
 2925.0571362604
  21
 510.97558786959
  31
0.0
   0
LINE
   5
418
 100
AcDbEntity
   8
LEVEL002
 370
13
 100
AcDbLine
   6
CONTINUOUS
  62
6
  10
 5475.0571362604
  20
 2603.4755878695
  30
0.0
  11
 8115.0571362604
  21
 2603.4755878695
  31
0.0
   0
MTEXT
   5
419
 100
AcDbEntity
   8
LEVEL002
 370
13
  62
1
 100
AcDbMText
  10
 7355.0571362604
  20
 1703.4755878695
  30
0.0
  40
 51.428571428572
  41
0.0
  71
4
  72
1
   1
\T1.000000;静電粉体塗装
   7
GMM001
  44
 0.79999984000003
   0
MTEXT
   5
41A
 100
AcDbEntity
   8
LEVEL002
 370
13
  62
1
 100
AcDbMText
  10
 6795.0571362604
  20
 1703.4755878695
  30
0.0
  40
 51.428571428572
  41
0.0
  71
4
  72
1
   1
\T1.000000;ＳＴＫ４００
   7
GMM001
  44
 0.79999984000003
   0
MTEXT
   5
41B
 100
AcDbEntity
   8
LEVEL002
 370
13
  62
1
 100
AcDbMText
  10
 6727.0571362604
  20
 1703.4755878695
  30
0.0
  40
 51.428571428572
  41
0.0
  71
6
  72
1
   1
\T1.000000;１
   7
GMM001
  44
 0.79999984000003
   0
MTEXT
   5
41C
 100
AcDbEntity
   8
LEVEL002
 370
13
  62
1
 100
AcDbMText
  10
 7355.0571362604
  20
 1823.4755878695
  30
0.0
  40
 51.428571428572
  41
0.0
  71
4
  72
1
   1
\T1.000000;溶融亜鉛メッキ
   7
GMM001
  44
 0.79999984000003
   0
MTEXT
   5
41D
 100
AcDbEntity
   8
LEVEL002
 370
13
  62
1
 100
AcDbMText
  10
 6795.0571362604
  20
 1823.4755878695
  30
0.0
  40
 51.428571428572
  41
0.0
  71
4
  72
1
   1
\T1.000000;ＳＳ４００
   7
GMM001
  44
 0.79999984000003
   0
MTEXT
   5
41E
 100
AcDbEntity
   8
LEVEL002
 370
13
  62
1
 100
AcDbMText
  10
 6727.0571362604
  20
 1823.4755878695
  30
0.0
  40
 51.428571428572
  41
0.0
  71
6
  72
1
   1
\T1.000000;４
   7
GMM001
  44
 0.79999984000003
   0
MTEXT
   5
41F
 100
AcDbEntity
   8
LEVEL002
 370
13
  62
1
 100
AcDbMText
  10
 7355.0571362604
  20
 1943.4755878695
  30
0.0
  40
 51.428571428572
  41
0.0
  71
4
  72
1
   1
\T1.000000;溶融亜鉛メッキ
   7
GMM001
  44
 0.79999984000003
   0
MTEXT
   5
420
 100
AcDbEntity
   8
LEVEL002
 370
13
  62
1
 100
AcDbMText
  10
 7355.0571362604
  20
 2063.4755878695
  30
0.0
  40
 51.428571428572
  41
0.0
  71
4
  72
1
   1
\T1.000000;溶融亜鉛メッキ
   7
GMM001
  44
 0.79999984000003
   0
MTEXT
   5
421
 100
AcDbEntity
   8
LEVEL002
 370
13
  62
1
 100
AcDbMText
  10
 7355.0571362604
  20
 2183.4755878695
  30
0.0
  40
 51.428571428572
  41
0.0
  71
4
  72
1
   1
\T1.000000;溶融亜鉛メッキ
   7
GMM001
  44
 0.79999984000003
   0
MTEXT
   5
422
 100
AcDbEntity
   8
LEVEL002
 370
13
  62
1
 100
AcDbMText
  10
 6795.0571362604
  20
 1943.4755878695
  30
0.0
  40
 51.428571428572
  41
0.0
  71
4
  72
1
   1
\T1.000000;ＳＳ４００
   7
GMM001
  44
 0.79999984000003
   0
MTEXT
   5
423
 100
AcDbEntity
   8
LEVEL002
 370
13
  62
1
 100
AcDbMText
  10
 6795.0571362604
  20
 2063.4755878695
  30
0.0
  40
 51.428571428572
  41
0.0
  71
4
  72
1
   1
\T1.000000;ＳＳ４００
   7
GMM001
  44
 0.79999984000003
   0
MTEXT
   5
424
 100
AcDbEntity
   8
LEVEL002
 370
13
  62
1
 100
AcDbMText
  10
 6795.0571362604
  20
 2183.4755878695
  30
0.0
  40
 51.428571428572
  41
0.0
  71
4
  72
1
   1
\T1.000000;ＳＳ４００
   7
GMM001
  44
 0.79999984000003
   0
MTEXT
   5
425
 100
AcDbEntity
   8
LEVEL002
 370
13
  62
1
 100
AcDbMText
  10
 6727.0571362604
  20
 1943.4755878695
  30
0.0
  40
 51.428571428572
  41
0.0
  71
6
  72
1
   1
\T1.000000;１
   7
GMM001
  44
 0.79999984000003
   0
MTEXT
   5
426
 100
AcDbEntity
   8
LEVEL002
 370
13
  62
1
 100
AcDbMText
  10
 6727.0571362604
  20
 2063.4755878695
  30
0.0
  40
 51.428571428572
  41
0.0
  71
6
  72
1
   1
\T1.000000;８
   7
GMM001
  44
 0.79999984000003
   0
MTEXT
   5
427
 100
AcDbEntity
   8
LEVEL002
 370
13
  62
1
 100
AcDbMText
  10
 6727.0571362604
  20
 2183.4755878695
  30
0.0
  40
 51.428571428572
  41
0.0
  71
6
  72
1
   1
\T1.000000;８
   7
GMM001
  44
 0.79999984000003
   0
MTEXT
   5
428
 100
AcDbEntity
   8
LEVEL002
 370
13
  62
1
 100
AcDbMText
  10
 5647.0571362604
  20
 1703.4755878695
  30
0.0
  40
 51.428571428572
  41
0.0
  71
6
  72
1
   1
\T1.000000;１１
   7
GMM001
  44
 0.79999984000003
   0
MTEXT
   5
429
 100
AcDbEntity
   8
LEVEL002
 370
13
  62
1
 100
AcDbMText
  10
 5715.0571362604
  20
 1703.4755878695
  30
0.0
  40
 51.428571428572
  41
0.0
  71
4
  72
1
   1
\T1.000000;支柱
   7
GMM001
  44
 0.79999984000003
   0
MTEXT
   5
42A
 100
AcDbEntity
   8
LEVEL002
 370
13
  62
1
 100
AcDbMText
  10
 5715.0571362604
  20
 1823.4755878695
  30
0.0
  40
 51.428571428572
  41
0.0
  71
4
  72
1
   1
\T1.000000;同上ボルトナット
   7
GMM001
  44
 0.79999984000003
   0
MTEXT
   5
42B
 100
AcDbEntity
   8
LEVEL002
 370
13
  62
1
 100
AcDbMText
  10
 5647.0571362604
  20
 1823.4755878695
  30
0.0
  40
 51.428571428572
  41
0.0
  71
6
  72
1
   1
\T1.000000;１０
   7
GMM001
  44
 0.79999984000003
   0
MTEXT
   5
42C
 100
AcDbEntity
   8
LEVEL002
 370
13
  62
1
 100
AcDbMText
  10
 5647.0571362604
  20
 1943.4755878695
  30
0.0
  40
 51.428571428572
  41
0.0
  71
6
  72
1
   1
\T1.000000;９
   7
GMM001
  44
 0.79999984000003
   0
MTEXT
   5
42D
 100
AcDbEntity
   8
LEVEL002
 370
13
  62
1
 100
AcDbMText
  10
 5715.0571362604
  20
 1943.4755878695
  30
0.0
  40
 51.428571428572
  41
0.0
  71
4
  72
1
   1
\T1.000000;二面鏡用取付腕木
   7
GMM001
  44
 0.79999984000003
   0
MTEXT
   5
42E
 100
AcDbEntity
   8
LEVEL002
 370
13
  62
1
 100
AcDbMText
  10
 5647.0571362604
  20
 2063.4755878695
  30
0.0
  40
 51.428571428572
  41
0.0
  71
6
  72
1
   1
\T1.000000;８
   7
GMM001
  44
 0.79999984000003
   0
MTEXT
   5
42F
 100
AcDbEntity
   8
LEVEL002
 370
13
  62
1
 100
AcDbMText
  10
 5715.0571362604
  20
 2063.4755878695
  30
0.0
  40
 51.428571428572
  41
0.0
  71
4
  72
1
   1
\T1.000000;金具締付ボルトナット
   7
GMM001
  44
 0.79999984000003
   0
MTEXT
   5
430
 100
AcDbEntity
   8
LEVEL002
 370
13
  62
1
 100
AcDbMText
  10
 5647.0571362604
  20
 2183.4755878695
  30
0.0
  40
 51.428571428572
  41
0.0
  71
6
  72
1
   1
\T1.000000;７
   7
GMM001
  44
 0.79999984000003
   0
MTEXT
   5
431
 100
AcDbEntity
   8
LEVEL002
 370
13
  62
1
 100
AcDbMText
  10
 5715.0571362604
  20
 2183.4755878695
  30
0.0
  40
 51.428571428572
  41
0.0
  71
4
  72
1
   1
\T1.000000;裏板金具取付ボルト
   7
GMM001
  44
 0.79999984000003
   0
LINE
   5
432
 100
AcDbEntity
   8
LEVEL002
 370
13
 100
AcDbLine
   6
CONTINUOUS
  62
6
  10
 5475.0571362604
  20
 1763.4755878695
  30
0.0
  11
 8115.0571362604
  21
 1763.4755878695
  31
0.0
   0
LINE
   5
433
 100
AcDbEntity
   8
LEVEL002
 370
13
 100
AcDbLine
   6
CONTINUOUS
  62
6
  10
 5475.0571362604
  20
 1883.4755878695
  30
0.0
  11
 8115.0571362604
  21
 1883.4755878695
  31
0.0
   0
LINE
   5
434
 100
AcDbEntity
   8
LEVEL002
 370
13
 100
AcDbLine
   6
CONTINUOUS
  62
6
  10
 5475.0571362604
  20
 2003.4755878695
  30
0.0
  11
 8115.0571362604
  21
 2003.4755878695
  31
0.0
   0
LINE
   5
435
 100
AcDbEntity
   8
LEVEL002
 370
13
 100
AcDbLine
   6
CONTINUOUS
  62
6
  10
 5475.0571362604
  20
 2123.4755878695
  30
0.0
  11
 8115.0571362604
  21
 2123.4755878695
  31
0.0
   0
MTEXT
   5
436
 100
AcDbEntity
   8
LEVEL002
 370
13
  62
1
 100
AcDbMText
  10
 5715.0571362604
  20
 2303.4755878695
  30
0.0
  40
 51.428571428572
  41
0.0
  71
4
  72
1
   1
\T1.000000;支柱取付金具
   7
GMM001
  44
 0.79999984000003
   0
MTEXT
   5
437
 100
AcDbEntity
   8
LEVEL002
 370
13
  62
1
 100
AcDbMText
  10
 5647.0571362604
  20
 2303.4755878695
  30
0.0
  40
 51.428571428572
  41
0.0
  71
6
  72
1
   1
\T1.000000;６
   7
GMM001
  44
 0.79999984000003
   0
MTEXT
   5
438
 100
AcDbEntity
   8
LEVEL002
 370
13
  62
1
 100
AcDbMText
  10
 6727.0571362604
  20
 2303.4755878695
  30
0.0
  40
 51.428571428572
  41
0.0
  71
6
  72
1
   1
\T1.000000;２
   7
GMM001
  44
 0.79999984000003
   0
MTEXT
   5
439
 100
AcDbEntity
   8
LEVEL002
 370
13
  62
1
 100
AcDbMText
  10
 6795.0571362604
  20
 2303.4755878695
  30
0.0
  40
 51.428571428572
  41
0.0
  71
4
  72
1
   1
\T1.000000;ＳＳ４００
   7
GMM001
  44
 0.79999984000003
   0
MTEXT
   5
43A
 100
AcDbEntity
   8
LEVEL002
 370
13
  62
1
 100
AcDbMText
  10
 5647.0571362604
  20
 2423.4755878695
  30
0.0
  40
 51.428571428572
  41
0.0
  71
6
  72
1
   1
\T1.000000;５
   7
GMM001
  44
 0.79999984000003
   0
MTEXT
   5
43B
 100
AcDbEntity
   8
LEVEL002
 370
13
  62
1
 100
AcDbMText
  10
 5715.0571362604
  20
 2423.4755878695
  30
0.0
  40
 51.428571428572
  41
0.0
  71
4
  72
1
   1
\T1.000000;裏板取付金具
   7
GMM001
  44
 0.79999984000003
   0
MTEXT
   5
43C
 100
AcDbEntity
   8
LEVEL002
 370
13
  62
1
 100
AcDbMText
  10
 5647.0571362604
  20
 2543.4755878695
  30
0.0
  40
 51.428571428572
  41
0.0
  71
6
  72
1
   1
\T1.000000;４
   7
GMM001
  44
 0.79999984000003
   0
MTEXT
   5
43D
 100
AcDbEntity
   8
LEVEL002
 370
13
  62
1
 100
AcDbMText
  10
 5715.0571362604
  20
 2543.4755878695
  30
0.0
  40
 51.428571428572
  41
0.0
  71
4
  72
1
   1
\T1.000000;リング
   7
GMM001
  44
 0.79999984000003
   0
MTEXT
   5
43E
 100
AcDbEntity
   8
LEVEL002
 370
13
  62
1
 100
AcDbMText
  10
 5647.0571362604
  20
 2663.4755878695
  30
0.0
  40
 51.428571428572
  41
0.0
  71
6
  72
1
   1
\T1.000000;３
   7
GMM001
  44
 0.79999984000003
   0
MTEXT
   5
43F
 100
AcDbEntity
   8
LEVEL002
 370
13
  62
1
 100
AcDbMText
  10
 5715.0571362604
  20
 2663.4755878695
  30
0.0
  40
 51.428571428572
  41
0.0
  71
4
  72
1
   1
\T1.000000;フード
   7
GMM001
  44
 0.79999984000003
   0
MTEXT
   5
440
 100
AcDbEntity
   8
LEVEL002
 370
13
  62
1
 100
AcDbMText
  10
 5647.0571362604
  20
 2783.4755878695
  30
0.0
  40
 51.428571428572
  41
0.0
  71
6
  72
1
   1
\T1.000000;２
   7
GMM001
  44
 0.79999984000003
   0
MTEXT
   5
441
 100
AcDbEntity
   8
LEVEL002
 370
13
  62
1
 100
AcDbMText
  10
 5647.0571362604
  20
 2903.4755878695
  30
0.0
  40
 51.428571428572
  41
0.0
  71
6
  72
1
   1
\T1.000000;１
   7
GMM001
  44
 0.79999984000003
   0
MTEXT
   5
442
 100
AcDbEntity
   8
LEVEL002
 370
13
  62
1
 100
AcDbMText
  10
 5715.0571362604
  20
 2783.4755878695
  30
0.0
  40
 51.428571428572
  41
0.0
  71
4
  72
1
   1
\T1.000000;バックプレート
   7
GMM001
  44
 0.79999984000003
   0
MTEXT
   5
443
 100
AcDbEntity
   8
LEVEL002
 370
13
  62
1
 100
AcDbMText
  10
 6727.0571362604
  20
 2423.4755878695
  30
0.0
  40
 51.428571428572
  41
0.0
  71
6
  72
1
   1
\T1.000000;２
   7
GMM001
  44
 0.79999984000003
   0
MTEXT
   5
444
 100
AcDbEntity
   8
LEVEL002
 370
13
  62
1
 100
AcDbMText
  10
 6727.0571362604
  20
 2543.4755878695
  30
0.0
  40
 51.428571428572
  41
0.0
  71
6
  72
1
   1
\T1.000000;２
   7
GMM001
  44
 0.79999984000003
   0
MTEXT
   5
445
 100
AcDbEntity
   8
LEVEL002
 370
13
  62
1
 100
AcDbMText
  10
 6727.0571362604
  20
 2663.4755878695
  30
0.0
  40
 51.428571428572
  41
0.0
  71
6
  72
1
   1
\T1.000000;２
   7
GMM001
  44
 0.79999984000003
   0
MTEXT
   5
446
 100
AcDbEntity
   8
LEVEL002
 370
13
  62
1
 100
AcDbMText
  10
 6727.0571362604
  20
 2783.4755878695
  30
0.0
  40
 51.428571428572
  41
0.0
  71
6
  72
1
   1
\T1.000000;２
   7
GMM001
  44
 0.79999984000003
   0
MTEXT
   5
447
 100
AcDbEntity
   8
LEVEL002
 370
13
  62
1
 100
AcDbMText
  10
 6727.0571362604
  20
 2903.4755878695
  30
0.0
  40
 51.428571428572
  41
0.0
  71
6
  72
1
   1
\T1.000000;２
   7
GMM001
  44
 0.79999984000003
   0
MTEXT
   5
448
 100
AcDbEntity
   8
LEVEL002
 370
13
  62
1
 100
AcDbMText
  10
 6795.0571362604
  20
 2423.4755878695
  30
0.0
  40
 51.428571428572
  41
0.0
  71
4
  72
1
   1
\T1.000000;ＳＳ４００
   7
GMM001
  44
 0.79999984000003
   0
MTEXT
   5
449
 100
AcDbEntity
   8
LEVEL002
 370
13
  62
1
 100
AcDbMText
  10
 6795.0571362604
  20
 2543.4755878695
  30
0.0
  40
 51.428571428572
  41
0.0
  71
4
  72
1
   1
\T1.000000;軟質ＰＶＣ
   7
GMM001
  44
 0.79999984000003
   0
MTEXT
   5
44A
 100
AcDbEntity
   8
LEVEL002
 370
13
  62
1
 100
AcDbMText
  10
 6795.0571362604
  20
 2663.4755878695
  30
0.0
  40
 51.428571428572
  41
0.0
  71
4
  72
1
   1
\T1.000000;ＰＣ
   7
GMM001
  44
 0.79999984000003
   0
MTEXT
   5
44B
 100
AcDbEntity
   8
LEVEL002
 370
13
  62
1
 100
AcDbMText
  10
 6795.0571362604
  20
 2903.4755878695
  30
0.0
  40
 51.428571428572
  41
0.0
  71
4
  72
1
   1
\T1.000000;ＳＵＳ３０４
   7
GMM001
  44
 0.79999984000003
   0
MTEXT
   5
44C
 100
AcDbEntity
   8
LEVEL002
 370
13
  62
1
 100
AcDbMText
  10
 7355.0571362604
  20
 2303.4755878695
  30
0.0
  40
 51.428571428572
  41
0.0
  71
4
  72
1
   1
\T1.000000;溶融亜鉛メッキ
   7
GMM001
  44
 0.79999984000003
   0
MTEXT
   5
44D
 100
AcDbEntity
   8
LEVEL002
 370
13
  62
1
 100
AcDbMText
  10
 7355.0571362604
  20
 2423.4755878695
  30
0.0
  40
 51.428571428572
  41
0.0
  71
4
  72
1
   1
\T1.000000;溶融亜鉛メッキ
   7
GMM001
  44
 0.79999984000003
   0
MTEXT
   5
44E
 100
AcDbEntity
   8
LEVEL002
 370
13
  62
1
 100
AcDbMText
  10
 7355.0571362604
  20
 2903.4755878695
  30
0.0
  40
 51.428571428572
  41
0.0
  71
4
  72
1
   1
\T1.000000;t=0.9mm\T1.000000;・表面研磨
   7
GMM001
  44
 0.79999984000003
   0
MTEXT
   5
44F
 100
AcDbEntity
   8
LEVEL002
 370
13
  62
1
 100
AcDbMText
  10
 7355.0571362604
  20
 2663.4755878695
  30
0.0
  40
 51.428571428572
  41
0.0
  71
4
  72
1
   1
\T1.000000;ＵＶグレ－ド
   7
GMM001
  44
 0.79999984000003
   0
LINE
   5
450
 100
AcDbEntity
   8
LEVEL002
 370
13
 100
AcDbLine
   6
CONTINUOUS
  62
6
  10
 5475.0571362604
  20
 2243.4755878695
  30
0.0
  11
 8115.0571362604
  21
 2243.4755878695
  31
0.0
   0
LINE
   5
451
 100
AcDbEntity
   8
LEVEL002
 370
13
 100
AcDbLine
   6
CONTINUOUS
  62
6
  10
 5475.0571362604
  20
 2363.4755878695
  30
0.0
  11
 8115.0571362604
  21
 2363.4755878695
  31
0.0
   0
LINE
   5
452
 100
AcDbEntity
   8
LEVEL002
 370
13
 100
AcDbLine
   6
CONTINUOUS
  62
6
  10
 5475.0571362604
  20
 2723.4755878695
  30
0.0
  11
 8115.0571362604
  21
 2723.4755878695
  31
0.0
   0
LINE
   5
453
 100
AcDbEntity
   8
LEVEL002
 370
13
 100
AcDbLine
   6
CONTINUOUS
  62
6
  10
 5475.0571362604
  20
 2483.4755878695
  30
0.0
  11
 8115.0571362604
  21
 2483.4755878695
  31
0.0
   0
LINE
   5
454
 100
AcDbEntity
   8
LEVEL002
 370
13
 100
AcDbLine
   6
CONTINUOUS
  62
6
  10
 5475.0571362604
  20
 2843.4755878695
  30
0.0
  11
 8115.0571362604
  21
 2843.4755878695
  31
0.0
   0
MTEXT
   5
455
 100
AcDbEntity
   8
LEVEL002
 370
13
  62
1
 100
AcDbMText
  10
 6115.0571362604
  20
 3043.4755878695
  30
0.0
  40
 51.428571428572
  41
0.0
  71
5
  72
1
   1
\T1.000000;名　　称
   7
GMM001
  44
 0.79999984000003
   0
MTEXT
   5
456
 100
AcDbEntity
   8
LEVEL002
 370
13
  62
1
 100
AcDbMText
  10
 6655.0571362604
  20
 3043.4755878695
  30
0.0
  40
 51.428571428572
  41
0.0
  71
5
  72
1
   1
\T1.000000;個数
   7
GMM001
  44
 0.79999984000003
   0
MTEXT
   5
457
 100
AcDbEntity
   8
LEVEL002
 370
13
  62
1
 100
AcDbMText
  10
 7035.0571362604
  20
 3043.4755878695
  30
0.0
  40
 51.428571428572
  41
0.0
  71
5
  72
1
   1
\T1.000000;材　　質
   7
GMM001
  44
 0.79999984000003
   0
MTEXT
   5
458
 100
AcDbEntity
   8
LEVEL002
 370
13
  62
1
 100
AcDbMText
  10
 7715.0571362604
  20
 3043.4755878695
  30
0.0
  40
 51.428571428572
  41
0.0
  71
5
  72
1
   1
\T1.000000;規格仕様
   7
GMM001
  44
 0.79999984000003
   0
LINE
   5
459
 100
AcDbEntity
   8
LEVEL002
 370
13
 100
AcDbLine
   6
CONTINUOUS
  62
2
  10
 5475.0571362604
  20
 3123.4755878695
  30
0.0
  11
 8115.0571362604
  21
 3123.4755878695
  31
0.0
   0
LINE
   5
45A
 100
AcDbEntity
   8
LEVEL002
 370
13
 100
AcDbLine
   6
CONTINUOUS
  62
2
  10
 5475.0571362604
  20
 2963.4755878695
  30
0.0
  11
 8115.0571362604
  21
 2963.4755878695
  31
0.0
   0
MTEXT
   5
45B
 100
AcDbEntity
   8
LEVEL002
 370
13
  62
1
 100
AcDbMText
  10
 5575.0571362604
  20
 3203.4755878695
  30
0.0
  40
 57.142857142858
  41
0.0
  71
4
  72
1
   1
%%c\T1.000000;８００（ダブル）
   7
GMM001
  44
 0.79999984000003
   0
MTEXT
   5
45C
 100
AcDbEntity
   8
LEVEL002
 370
13
  62
1
 100
AcDbMText
  10
 5715.0571362604
  20
 2903.4755878695
  30
0.0
  40
 51.428571428572
  41
0.0
  71
4
  72
1
   1
\T1.000000;鏡面　Ｒ＝３０００
   7
GMM001
  44
 0.79999984000003
   0
MTEXT
   5
45D
 100
AcDbEntity
   8
LEVEL002
 370
13
  62
1
 100
AcDbMText
  10
 5575.0571362604
  20
 3363.4755878695
  30
0.0
  40
 57.142857142858
  41
0.0
  71
4
  72
1
   1
\T1.000000;ステンレスミラー　＜Ｚタイプ＞
   7
GMM001
  44
 0.79999984000003
   0
MTEXT
   5
45E
 100
AcDbEntity
   8
LEVEL002
 370
13
  62
1
 100
AcDbMText
  10
 6795.0571362604
  20
 2783.4755878695
  30
0.0
  40
 51.428571428572
  41
0.0
  71
4
  72
1
   1
\T1.000000;高耐食溶融めっき鋼板
   7
GMM004
  44
 0.79999984000003
   0
LWPOLYLINE
   5
45F
 100
AcDbEntity
   8
LEVEL001
 370
13
   6
CONTINUOUS
  62
2
 100
AcDbPolyline
  90
4
  70
1
  10
 5475.0571362604
  20
 923.47558786953
  10
 8115.0571362604
  20
 923.47558786953
  10
 8115.0571362604
  20
 3443.4755878695
  10
 5475.0571362604
  20
 3443.4755878695
   0
MTEXT
   5
460
 100
AcDbEntity
   8
LEVEL002
 370
13
  62
1
 100
AcDbMText
  10
 5715.0571362604
  20
 3623.4755878695
  30
0.0
  40
 51.428580000000
  41
0.0
  71
1
  72
1
   1
{\T1.000000;※構成部材は改良のため、変更する場合があります。}\P{\T1.000000;※本図は道路反射鏡ハンドブックに基づいています。}
   7
GMM001
  44
 0.79999984000003
   0
MTEXT
   5
461
 100
AcDbEntity
   8
LEVEL002
 370
13
  62
1
 100
AcDbMText
  10
 5715.0571362604
  20
 1223.4755878695
  30
0.0
  40
 51.428571428572
  41
0.0
  71
4
  72
1
   1
\T1.000000;注意板
   7
GMM001
  44
 0.79999984000003
   0
LINE
   5
462
 100
AcDbEntity
   8
LEVEL001
 370
13
 100
AcDbLine
   6
CONTINUOUS
  62
6
  10
 5675.0571362604
  20
 3123.4755878695
  30
0.0
  11
 5675.0571362604
  21
 923.47558786953
  31
0.0
   0
LINE
   5
463
 100
AcDbEntity
   8
LEVEL001
 370
13
 100
AcDbLine
   6
CONTINUOUS
  62
6
  10
 6555.0571362604
  20
 3123.4755878695
  30
0.0
  11
 6555.0571362604
  21
 923.47558786953
  31
0.0
   0
LINE
   5
464
 100
AcDbEntity
   8
LEVEL001
 370
13
 100
AcDbLine
   6
CONTINUOUS
  62
6
  10
 6755.0571362604
  20
 3123.4755878695
  30
0.0
  11
 6755.0571362604
  21
 923.47558786953
  31
0.0
   0
LINE
   5
465
 100
AcDbEntity
   8
LEVEL001
 370
13
 100
AcDbLine
   6
CONTINUOUS
  62
6
  10
 7315.0571362604
  20
 3123.4755878695
  30
0.0
  11
 7315.0571362604
  21
 923.47558786953
  31
0.0
   0
LINE
   5
466
 100
AcDbEntity
   8
LEVEL002
 370
13
 100
AcDbLine
   6
CONTINUOUS
  62
6
  10
 6755.0571362603
  20
 3123.4755878695
  30
0.0
  11
 6755.0571362603
  21
 1043.4755878695
  31
0.0
   0
LINE
   5
467
 100
AcDbEntity
   8
LEVEL002
 370
13
 100
AcDbLine
   6
CONTINUOUS
  62
6
  10
 7315.0571362603
  20
 3123.4755878695
  30
0.0
  11
 7315.0571362603
  21
 1043.4755878695
  31
0.0
   0
MTEXT
   5
468
 100
AcDbEntity
   8
LEVEL002
 370
13
  62
1
 100
AcDbMText
  10
 6727.0571362604
  20
 1103.4755878695
  30
0.0
  40
 51.428571428572
  41
0.0
  71
6
  72
1
   1
\T1.000000;１式
   7
GMM001
  44
 0.79999984000003
   0
MTEXT
   5
469
 100
AcDbEntity
   8
LEVEL002
 370
13
  62
1
 100
AcDbMText
  10
 6727.0571362604
  20
 983.47558786953
  30
0.0
  40
 51.428571428572
  41
0.0
  71
6
  72
1
   1
\T1.000000;１式
   7
GMM001
  44
 0.79999984000003
   0
MTEXT
   5
46A
 100
AcDbEntity
   8
LEVEL002
 370
13
  62
1
 100
AcDbMText
  10
 6795.0571362604
  20
 983.47558786953
  30
0.0
  40
 51.428571428572
  41
0.0
  71
4
  72
1
   1
\T1.000000;―
   7
GMM001
  44
 0.79999984000003
   0
MTEXT
   5
46B
 100
AcDbEntity
   8
LEVEL002
 370
13
  62
1
 100
AcDbMText
  10
 6795.0571362604
  20
 1103.4755878695
  30
0.0
  40
 51.428571428572
  41
0.0
  71
4
  72
1
   1
\T1.000000;―
   7
GMM001
  44
 0.79999984000003
   0
MTEXT
   5
46C
 100
AcDbEntity
   8
LEVEL002
 370
13
  62
1
 100
AcDbMText
  10
 6795.0571362604
  20
 1223.4755878695
  30
0.0
  40
 51.428571428572
  41
0.0
  71
4
  72
1
   1
\T1.000000;―
   7
GMM001
  44
 0.79999984000003
   0
MTEXT
   5
46D
 100
AcDbEntity
   8
LEVEL002
 370
13
  62
1
 100
AcDbMText
  10
 7355.0571362604
  20
 1103.4755878695
  30
0.0
  40
 51.428571428572
  41
0.0
  71
4
  72
1
   1
\T1.000000;―
   7
GMM001
  44
 0.79999984000003
   0
MTEXT
   5
46E
 100
AcDbEntity
   8
LEVEL002
 370
13
  62
1
 100
AcDbMText
  10
 7355.0571362604
  20
 983.47558786953
  30
0.0
  40
 51.428571428572
  41
0.0
  71
4
  72
1
   1
\T1.000000;―
   7
GMM001
  44
 0.79999984000003
   0
MTEXT
   5
46F
 100
AcDbEntity
   8
LEVEL002
 370
13
  62
1
 100
AcDbMText
  10
 7355.0571362604
  20
 2836.8414635892
  30
0.0
  40
 34.285714285714
  41
0.0
  71
1
  72
1
   1
{\T1.000000;ＺＡＭ処理鋼板}\P{\T1.000000;プレス成型}
   7
GMM005
  44
 1.0099997980000
   0
MTEXT
   5
470
 100
AcDbEntity
   8
LEVEL001
 370
13
  62
1
 100
AcDbMText
  10
 6726.0361100144
  20
 1549.7444376240
  30
0.0
  40
 51.428571428571
  41
0.0
  71
9
  72
1
   1
\T1.000000;１
   7
GMM001
  44
 0.79999984000003
   0
MTEXT
   5
471
 100
AcDbEntity
   8
LEVEL001
 370
13
  62
1
 100
AcDbMText
  10
 6794.6405273918
  20
 1549.7444376240
  30
0.0
  40
 51.428571428571
  41
0.0
  71
7
  72
1
   1
\T1.000000;ＳＴＫ４００
   7
GMM001
  44
 0.79999984000003
   0
MTEXT
   5
472
 100
AcDbEntity
   8
LEVEL001
 370
13
  62
1
 100
AcDbMText
  10
 7356.4386655103
  20
 1589.3356588404
  30
0.0
  40
 34.285720000000
  41
0.0
  71
4
  72
1
   1
{\T1.000000;下地亜鉛メッキ}\P{\T1.000000;＋静電粉体塗装}
   7
GMM005
  44
 0.79999984000003
   0
LINE
   5
473
 100
AcDbEntity
   8
LEVEL001
 370
13
 100
AcDbLine
   6
CONTINUOUS
  62
6
  10
 6555.0571362604
  20
 1643.4755878695
  30
0.0
  11
 8115.0571362604
  21
 1643.4755878695
  31
0.0
   0
MTEXT
   5
474
 100
AcDbEntity
   8
LEVEL002
 370
13
  62
2
 100
AcDbMText
  10
 5485.0571362604
  20
 893.47558786953
  30
0.0
  40
 38.571428571428
  41
0.0
  71
4
  72
1
   1
\T1.370378;図面番号
   7
GMM001
  44
 0.79999984000003
   0
MTEXT
   5
475
 100
AcDbEntity
   8
LEVEL002
 370
13
  62
1
 100
AcDbMText
  10
 6315.0571362604
  20
 767.69433786953
  30
0.0
  40
 42.857142857142
  41
0.0
  71
5
  72
1
   1
\T1.000000;ＭＺＨ０８０ＷＣＰ
   7
GMM001
  44
 0.79999984000003
   0
DIMENSION
   5
476
 100
AcDbEntity
   8
LEVEL001
 370
13
   6
CONTINUOUS
  62
1
 100
AcDbDimension
   2
*D16
  10
 765.05713626035
  20
 590.97558786953
  30
0.0
  11
 765.05713626035
  21
 1190.9755878695
  31
0.0
  70
0
   3
GMM004
 100
AcDbAlignedDimension
  13
 1015.0571362604
  23
 1790.9755878695
  33
0.0
  14
 1265.0571362604
  24
 590.97558786953
  34
0.0
  50
 270.00000000000
 100
AcDbRotatedDimension
   0
DIMENSION
   5
477
 100
AcDbEntity
   8
LEVEL001
 370
13
   6
CONTINUOUS
  62
1
 100
AcDbDimension
   2
*D17
  10
 765.05713626035
  20
 490.97558786953
  30
0.0
  11
 765.05713626035
  21
 540.97558786953
  31
0.0
  70
0
   3
GMM004
 100
AcDbAlignedDimension
  13
 1265.0571362604
  23
 590.97558786953
  33
0.0
  14
 1265.0571362604
  24
 490.97558786953
  34
0.0
  50
 270.00000000000
 100
AcDbRotatedDimension
   0
DIMENSION
   5
478
 100
AcDbEntity
   8
LEVEL002
 370
13
   6
CONTINUOUS
  62
1
 100
AcDbDimension
   2
*D18
  10
 1765.0571362604
  20
 290.97558786953
  30
0.0
  11
 1515.0571362604
  21
 290.97558786953
  31
0.0
  70
128
   1
\A1;□500
   3
GMM005
 100
AcDbAlignedDimension
  13
 1265.0571362604
  23
 490.97558786953
  33
0.0
  14
 1765.0571362604
  24
 490.97558786953
  34
0.0
 100
AcDbRotatedDimension
   0
DIMENSION
   5
479
 100
AcDbEntity
   8
LEVEL001
 370
13
   6
CONTINUOUS
  62
1
 100
AcDbDimension
   2
*D19
  10
 765.05713626035
  20
 4290.9755878695
  30
0.0
  11
 765.05713626035
  21
 3040.9755878695
  31
0.0
  70
0
   1
\A1;2500(標準設置高さ)
   3
GMM006
 100
AcDbAlignedDimension
  13
 1015.0571362604
  23
 1790.9755878695
  33
0.0
  14
 1040.0571362604
  24
 4290.9755878695
  34
0.0
  50
 90.000000000000
 100
AcDbRotatedDimension
   0
DIMENSION
   5
47A
 100
AcDbEntity
   8
LEVEL002
 370
13
   6
CONTINUOUS
  62
1
 100
AcDbDimension
   2
*D20
  10
 3065.0571362604
  20
 290.97558786959
  30
0.0
  11
 2815.0571362604
  21
 290.97558786959
  31
0.0
  70
128
   1
\A1;□500
   3
GMM005
 100
AcDbAlignedDimension
  13
 2565.0571362604
  23
 490.97558786959
  33
0.0
  14
 3065.0571362604
  24
 490.97558786959
  34
0.0
 100
AcDbRotatedDimension
   0
DIMENSION
   5
47B
 100
AcDbEntity
   8
LEVEL001
 370
13
   6
CONTINUOUS
  62
1
 100
AcDbDimension
   2
*D21
  10
 3215.0571362604
  20
 2590.9755878695
  30
0.0
  11
 3015.0571362604
  21
 2590.9755878695
  31
0.0
  70
0
   3
GMM004
 100
AcDbAlignedDimension
  13
 2815.0571362604
  23
 1690.9755878679
  33
0.0
  14
 3215.0571362604
  24
 2190.9755878679
  34
0.0
 100
AcDbRotatedDimension
   0
DIMENSION
   5
47C
 100
AcDbEntity
   8
LEVEL002
 370
13
   6
CONTINUOUS
  62
1
 100
AcDbDimension
   2
*D22
  10
 689.31678010771
  20
 4520.9755878695
  30
0.0
  11
 1040.0570686404
  21
 4723.4755878695
  31
0.0
  70
131
   1
\A1;%%c800
   3
GMM007
 100
AcDbDiametricDimension
  15
 1390.7973571732
  25
 4925.9755878695
  35
0.0
   0
DIMENSION
   5
47D
 100
AcDbEntity
   8
LEVEL002
 370
13
   6
CONTINUOUS
  62
1
 100
AcDbDimension
   2
*D23
  10
 1639.3167801077
  20
 4520.9755878695
  30
0.0
  11
 1990.0570686404
  21
 4723.4755878695
  31
0.0
  70
131
   1
\A1;%%c800
   3
GMM007
 100
AcDbDiametricDimension
  15
 2340.7973571732
  25
 4925.9755878695
  35
0.0
   0
MTEXT
   5
47E
 100
AcDbEntity
   8
LEVEL002
 370
13
  62
1
 100
AcDbMText
  10
 1865.0571362604
  20
 2612.4041592981
  30
0.0
  40
 42.857142857142
  41
0.0
  71
1
  72
1
   1
{\T1.000000;支柱}\P%%c{\T1.000000;８９．１×３}{\T1.000000;.}{\T1.000000;２ｔ}\P{\T1.000000;×４４００Ｌ}
   7
GMM001
  44
 0.79999984000003
   0
ENDSEC
  0
SECTION
  2
OBJECTS
  0
DICTIONARY
  5
C
100
AcDbDictionary
  3
ACAD_GROUP
350
D
  3
ACAD_MLINESTYLE
350
1B
  3
DWGPROPS
350
1C
  0
DICTIONARY
  5
D
102
{ACAD_REACTORS
330
C
102
}
100
AcDbDictionary
  0
DICTIONARY
  5
1B
102
{ACAD_REACTORS
330
C
102
}
100
AcDbDictionary
  3
STANDARD
350
1D
  0
MLINESTYLE
  5
1D
102
{ACAD_REACTORS
330
1B
102
}
100
AcDbMlineStyle
  2
STANDARD
 70
     0
  3

 62
   256
 51
90.0
 52
90.0
 71
     2
 49
0.5
 62
   256
  6
BYLAYER
 49
-0.5
 62
   256
  6
BYLAYER
   0
XRECORD
   5
1C
 102
{ACAD_REACTORS
 330
C
 102
}
 330
C
 100
AcDbXrecord
 280
1
   1
DWGPROPS COOKIE
   2
 
   3
 
   4
 
   6
 
   7
MZH080WCP
   8
 
   9

 300
 = 
 301
 = 
 302
 = 
 303
 = 
 304
 = 
 305
 = 
 306
 = 
 307
 = 
 308
 = 
 309
 = 
  40
0.0
  41
 2460341.5000000
  42
 2460341.5000000
   1

  90
10
   0
ENDSEC
   0
EOF
