   0
SECTION
   2
HEADER
   9
$ACADVER
   1
AC1015
   9
$DWGCODEPAGE
   3
ANSI_932
   9
$LIMMIN
  10
0.0
  20
0.0
   9
$LIMMAX
  10
 8400.0000000000
  20
 5940.0000000000
   9
$EXTMIN
  10
0.0
  20
0.0
  30
0.0
   9
$EXTMAX
  10
 8400.0000000000
  20
 5940.0000000000
  30
0.0
   9
$LTSCALE
  40
 168.00000000000
   9
$HANDSEED
   5
460
   0
ENDSEC
   0
SECTION
   2
TABLES
  0
TABLE
  2
VPORT
  5
8
100
AcDbSymbolTable
 70
     1
  0
VPORT
  5
45F
100
AcDbSymbolTableRecord
100
AcDbViewportTableRecord
  2
*ACTIVE
 70
     0
 10
0.0
 20
0.0
 11
1.0
 21
1.0
  12
 4200.0000000000
  22
 2970.0000000000
 13
0.0
 23
0.0
 14
1.0
 24
1.0
 15
0.0
 25
0.0
 16
0.0
 26
0.0
 36
1.0
 17
0.0
 27
0.0
 37
0.0
  40
 8400.0000000000
  41
 1.4787878787879
 42
50.0
 43
0.0
 44
0.0
 50
0.0
 51
0.0
 71
     0
 72
   100
 73
     1
 74
     1
 75
     0
 76
     0
 77
     0
 78
     0
  0
ENDTAB
  0
TABLE
  2
LTYPE
  5
5
100
AcDbSymbolTable
 70
    25
  0
LTYPE
  5
12
100
AcDbSymbolTableRecord
100
AcDbLinetypeTableRecord
  2
BYBLOCK
 70
     0
  3

 72
    65
 73
     0
 40
0.0
  0
LTYPE
  5
13
100
AcDbSymbolTableRecord
100
AcDbLinetypeTableRecord
  2
BYLAYER
 70
     0
  3

 72
    65
 73
     0
 40
0.0
  0
LTYPE
  5
14
100
AcDbSymbolTableRecord
100
AcDbLinetypeTableRecord
  2
CONTINUOUS
 70
     0
  3
Solid line
 72
    65
 73
     0
 40
0.0
  0
LTYPE
  5
20
100
AcDbSymbolTableRecord
100
AcDbLinetypeTableRecord
  2
BORDER
 70
     0
  3
__ __ . __ __ . __ __ . __ __ . __ __ . __ __ .
 72
    65
 73
     6
 40
1.75
 49
0.5
 74
     0
 49
-0.25
 74
     0
 49
0.5
 74
     0
 49
-0.25
 74
     0
 49
0.0
 74
     0
 49
-0.25
 74
     0
  0
LTYPE
  5
21
100
AcDbSymbolTableRecord
100
AcDbLinetypeTableRecord
  2
BORDER2
 70
     0
  3
__.__.__.__.__.__.__.__.__.__.__.__.__.__.__.__
 72
    65
 73
     6
 40
0.875
 49
0.25
 74
     0
 49
-0.125
 74
     0
 49
0.25
 74
     0
 49
-0.125
 74
     0
 49
0.0
 74
     0
 49
-0.125
 74
     0
  0
LTYPE
  5
22
100
AcDbSymbolTableRecord
100
AcDbLinetypeTableRecord
  2
BORDERX2
 70
     0
  3
____  ____  .  ____  ____  .  ____  ____  .  __
 72
    65
 73
     6
 40
3.5
 49
1.0
 74
     0
 49
-0.5
 74
     0
 49
1.0
 74
     0
 49
-0.5
 74
     0
 49
0.0
 74
     0
 49
-0.5
 74
     0
  0
LTYPE
  5
23
100
AcDbSymbolTableRecord
100
AcDbLinetypeTableRecord
  2
CENTER
 70
     0
  3
____ _ ____ _ ____ _ ____ _ ____ _ ____ _ ____ 
 72
    65
 73
     4
 40
2.0
 49
1.25
 74
     0
 49
-0.25
 74
     0
 49
0.25
 74
     0
 49
-0.25
 74
     0
  0
LTYPE
  5
24
100
AcDbSymbolTableRecord
100
AcDbLinetypeTableRecord
  2
CENTER2
 70
     0
  3
___ _ ___ _ ___ _ ___ _ ___ _ ___ _ ___ _ ___ _
 72
    65
 73
     4
 40
1.125
 49
0.75
 74
     0
 49
-0.125
 74
     0
 49
0.125
 74
     0
 49
-0.125
 74
     0
  0
LTYPE
  5
25
100
AcDbSymbolTableRecord
100
AcDbLinetypeTableRecord
  2
CENTERX2
 70
     0
  3
________  __  ________  __  ________  __  _____
 72
    65
 73
     4
 40
4.0
 49
2.5
 74
     0
 49
-0.5
 74
     0
 49
0.5
 74
     0
 49
-0.5
 74
     0
  0
LTYPE
  5
26
100
AcDbSymbolTableRecord
100
AcDbLinetypeTableRecord
  2
DASHDOT
 70
     0
  3
__ . __ . __ . __ . __ . __ . __ . __ . __ . __
 72
    65
 73
     4
 40
1.0
 49
0.5
 74
     0
 49
-0.25
 74
     0
 49
0.0
 74
     0
 49
-0.25
 74
     0
  0
LTYPE
  5
27
100
AcDbSymbolTableRecord
100
AcDbLinetypeTableRecord
  2
DASHDOT2
 70
     0
  3
_._._._._._._._._._._._._._._._._._._._._._._._
 72
    65
 73
     4
 40
0.5
 49
0.25
 74
     0
 49
-0.125
 74
     0
 49
0.0
 74
     0
 49
-0.125
 74
     0
  0
LTYPE
  5
28
100
AcDbSymbolTableRecord
100
AcDbLinetypeTableRecord
  2
DASHDOTX2
 70
     0
  3
____  .  ____  .  ____  .  ____  .  ____  .  __
 72
    65
 73
     4
 40
2.0
 49
1.0
 74
     0
 49
-0.5
 74
     0
 49
0.0
 74
     0
 49
-0.5
 74
     0
  0
LTYPE
  5
29
100
AcDbSymbolTableRecord
100
AcDbLinetypeTableRecord
  2
DASHED
 70
     0
  3
__ __ __ __ __ __ __ __ __ __ __ __ __ __ __ __
 72
    65
 73
     2
 40
0.75
 49
0.5
 74
     0
 49
-0.25
 74
     0
  0
LTYPE
  5
2A
100
AcDbSymbolTableRecord
100
AcDbLinetypeTableRecord
  2
DASHED2
 70
     0
  3
_ _ _ _ _ _ _ _ _ _ _ _ _ _ _ _ _ _ _ _ _ _ _ _
 72
    65
 73
     2
 40
0.375
 49
0.25
 74
     0
 49
-0.125
 74
     0
  0
LTYPE
  5
2B
100
AcDbSymbolTableRecord
100
AcDbLinetypeTableRecord
  2
DASHEDX2
 70
     0
  3
____  ____  ____  ____  ____  ____  ____  ____ 
 72
    65
 73
     2
 40
1.5
 49
1.0
 74
     0
 49
-0.5
 74
     0
  0
LTYPE
  5
2C
100
AcDbSymbolTableRecord
100
AcDbLinetypeTableRecord
  2
DIVIDE
 70
     0
  3
____ . . ____ . . ____ . . ____ . . ____ . . __
 72
    65
 73
     6
 40
1.25
 49
0.5
 74
     0
 49
-0.25
 74
     0
 49
0.0
 74
     0
 49
-0.25
 74
     0
 49
0.0
 74
     0
 49
-0.25
 74
     0
  0
LTYPE
  5
2D
100
AcDbSymbolTableRecord
100
AcDbLinetypeTableRecord
  2
DIVIDE2
 70
     0
  3
__..__..__..__..__..__..__..__..__..__..__..__.
 72
    65
 73
     6
 40
0.625
 49
0.25
 74
     0
 49
-0.125
 74
     0
 49
0.0
 74
     0
 49
-0.125
 74
     0
 49
0.0
 74
     0
 49
-0.125
 74
     0
  0
LTYPE
  5
2E
100
AcDbSymbolTableRecord
100
AcDbLinetypeTableRecord
  2
DIVIDEX2
 70
     0
  3
________  .  .  ________  .  .  ________  .  . 
 72
    65
 73
     6
 40
2.5
 49
1.0
 74
     0
 49
-0.5
 74
     0
 49
0.0
 74
     0
 49
-0.5
 74
     0
 49
0.0
 74
     0
 49
-0.5
 74
     0
  0
LTYPE
  5
2F
100
AcDbSymbolTableRecord
100
AcDbLinetypeTableRecord
  2
DOT
 70
     0
  3
. . . . . . . . . . . . . . . . . . . . . . . .
 72
    65
 73
     2
 40
0.25
 49
0.0
 74
     0
 49
-0.25
 74
     0
  0
LTYPE
  5
30
100
AcDbSymbolTableRecord
100
AcDbLinetypeTableRecord
  2
DOT2
 70
     0
  3
...............................................
 72
    65
 73
     2
 40
0.125
 49
0.0
 74
     0
 49
-0.125
 74
     0
  0
LTYPE
  5
31
100
AcDbSymbolTableRecord
100
AcDbLinetypeTableRecord
  2
DOTX2
 70
     0
  3
.  .  .  .  .  .  .  .  .  .  .  .  .  .  .  . 
 72
    65
 73
     2
 40
0.5
 49
0.0
 74
     0
 49
-0.5
 74
     0
  0
LTYPE
  5
32
100
AcDbSymbolTableRecord
100
AcDbLinetypeTableRecord
  2
HIDDEN
 70
     0
  3
__ __ __ __ __ __ __ __ __ __ __ __ __ __ __ __
 72
    65
 73
     2
 40
0.375
 49
0.25
 74
     0
 49
-0.125
 74
     0
  0
LTYPE
  5
33
100
AcDbSymbolTableRecord
100
AcDbLinetypeTableRecord
  2
HIDDEN2
 70
     0
  3
_ _ _ _ _ _ _ _ _ _ _ _ _ _ _ _ _ _ _ _ _ _ _ _
 72
    65
 73
     2
 40
0.1875
 49
0.125
 74
     0
 49
-0.0625
 74
     0
  0
LTYPE
  5
34
100
AcDbSymbolTableRecord
100
AcDbLinetypeTableRecord
  2
HIDDENX2
 70
     0
  3
____ ____ ____ ____ ____ ____ ____ ____ ____ __
 72
    65
 73
     2
 40
0.75
 49
0.5
 74
     0
 49
-0.25
 74
     0
  0
LTYPE
  5
35
100
AcDbSymbolTableRecord
100
AcDbLinetypeTableRecord
  2
PHANTOM
 70
     0
  3
______  __  __  ______  __  __  ______  __  __ 
 72
    65
 73
     6
 40
2.5
 49
1.25
 74
     0
 49
-0.25
 74
     0
 49
0.25
 74
     0
 49
-0.25
 74
     0
 49
0.25
 74
     0
 49
-0.25
 74
     0
  0
LTYPE
  5
36
100
AcDbSymbolTableRecord
100
AcDbLinetypeTableRecord
  2
PHANTOM2
 70
     0
  3
___ _ _ ___ _ _ ___ _ _ ___ _ _ ___ _ _ ___ _ _
 72
    65
 73
     6
 40
1.25
 49
0.625
 74
     0
 49
-0.125
 74
     0
 49
0.125
 74
     0
 49
-0.125
 74
     0
 49
0.125
 74
     0
 49
-0.125
 74
     0
  0
LTYPE
  5
37
100
AcDbSymbolTableRecord
100
AcDbLinetypeTableRecord
  2
PHANTOMX2
 70
     0
  3
____________    ____    ____    ____________   
 72
    65
 73
     6
 40
5.0
 49
2.5
 74
     0
 49
-0.5
 74
     0
 49
0.5
 74
     0
 49
-0.5
 74
     0
 49
0.5
 74
     0
 49
-0.5
 74
     0
  0
ENDTAB
   0
TABLE
   2
LAYER
   5
2
 100
AcDbSymbolTable
  70
3
   0
LAYER
   5
E
 100
AcDbSymbolTableRecord
 100
AcDbLayerTableRecord
   2
0
  70
0
  62
7
   6
CONTINUOUS
 390
30
   0
LAYER
   5
39
 100
AcDbSymbolTableRecord
 100
AcDbLayerTableRecord
   2
LEVEL001
  70
0
  62
7
   6
CONTINUOUS
 390
30
   0
LAYER
   5
3A
 100
AcDbSymbolTableRecord
 100
AcDbLayerTableRecord
   2
LEVEL002
  70
0
  62
7
   6
CONTINUOUS
 390
30
   0
ENDTAB
  0
TABLE
  2
STYLE
  5
3
100
AcDbSymbolTable
  70
7
  0
STYLE
  5
F
100
AcDbSymbolTableRecord
100
AcDbTextStyleTableRecord
  2
STANDARD
 70
     0
 40
0.0
 41
1.0
 50
0.0
 71
     0
 42
0.2
  3
TXT
  4
BIGFONT
  0
STYLE
  5
38
100
AcDbSymbolTableRecord
100
AcDbTextStyleTableRecord
  2
STANDARD1
 70
     4
 40
0.0
 41
1.0
 50
0.0
 71
     0
 42
0.2
  3
TXT
  4
BIGFONT
   0
STYLE
   5
3B
 100
AcDbSymbolTableRecord
 100
AcDbTextStyleTableRecord
   2
GMM001
  70
0
  40
0.0
  41
 1.0000000000000
  50
0.0
  71
     0
  42
1.0
   3

   4

1001
ACAD
1000
ＭＳ ゴシック
1071
32817
   0
STYLE
   5
3C
 100
AcDbSymbolTableRecord
 100
AcDbTextStyleTableRecord
   2
GMM002
  70
0
  40
0.0
  41
 1.0000000000000
  50
0.0
  71
     0
  42
1.0
   3
txt.shx
   4
bigfont.shx
   0
STYLE
   5
3D
 100
AcDbSymbolTableRecord
 100
AcDbTextStyleTableRecord
   2
GMM003
  70
0
  40
0.0
  41
 0.75000000000000
  50
0.0
  71
     0
  42
1.0
   3
txt.shx
   4
bigfont.shx
   0
STYLE
   5
3E
 100
AcDbSymbolTableRecord
 100
AcDbTextStyleTableRecord
   2
GMM004
  70
0
  40
0.0
  41
 0.66666666666667
  50
0.0
  71
     0
  42
1.0
   3

   4

1001
ACAD
1000
ＭＳ ゴシック
1071
32817
   0
STYLE
   5
3F
 100
AcDbSymbolTableRecord
 100
AcDbTextStyleTableRecord
   2
GMM005
  70
0
  40
0.0
  41
 1.5000000000000
  50
0.0
  71
     0
  42
1.0
   3

   4

1001
ACAD
1000
ＭＳ ゴシック
1071
32817
   0
ENDTAB
  0
TABLE
  2
VIEW
  5
6
100
AcDbSymbolTable
 70
     0
  0
ENDTAB
  0
TABLE
  2
UCS
  5
7
100
AcDbSymbolTable
 70
     0
  0
ENDTAB
  0
TABLE
  2
APPID
  5
9
100
AcDbSymbolTable
 70
     1
  0
APPID
  5
10
100
AcDbSymbolTableRecord
100
AcDbRegAppTableRecord
  2
ACAD
 70
     0
  0
ENDTAB
   0
TABLE
   2
DIMSTYLE
   5
A
 100
AcDbSymbolTable
  70
8
 100
AcDbDimStyleTable
  0
DIMSTYLE
105
1D
100
AcDbSymbolTableRecord
100
AcDbDimStyleTableRecord
  2
STANDARD
 70
     0
  3

  4

  5

  6

  7

 40
1.0
 41
0.18
 42
0.0625
 43
0.38
 44
0.18
 45
0.0
 46
0.0
 47
0.0
 48
0.0
140
0.18
141
0.09
142
0.0
143
25.4
144
1.0
145
0.0
146
1.0
147
0.09
 71
     0
 72
     0
 73
     1
 74
     1
 75
     0
 76
     0
 77
     0
 78
     0
170
     0
171
     2
172
     0
173
     0
174
     0
175
     0
176
     0
177
     0
178
     0
270
     2
271
     4
272
     4
273
     2
274
     2
340
F
275
     0
280
     0
281
     0
282
     0
283
     1
284
     0
285
     0
286
     0
287
     3
288
     0
   0
DIMSTYLE
 105
40
 100
AcDbSymbolTableRecord
 100
AcDbDimStyleTableRecord
   2
GMM001
  70
0
   3

   4

   5

   6
_OPEN
   7
_OPEN
  40
 1.0000000000000
  41
 30.000000000000
  42
 30.000000000000
  43
 160.00000000000
  44
 30.000000000000
  45
0.0
  46
0.0
  47
0.0
  48
0.0
 140
 66.000000000000
 141
 20.000000000000
 142
0.0
 143
 0.39400000000000E-1
 144
 1.0000000000000
 145
0.0
 146
 0.75757575757576
 147
0.0
  71
0
  72
0
  73
0
  74
0
  75
0
  76
0
  77
0
  78
8
 170
0
 171
2
 172
1
 173
1
 174
0
 175
0
 176
1
 177
1
 178
7
 270
2
 271
1
 272
0
 273
2
 274
2
 340
3C
 275
0
 280
0
 281
0
 282
0
 283
1
 284
0
 285
0
 286
0
 287
3
 288
1
   0
DIMSTYLE
 105
41
 100
AcDbSymbolTableRecord
 100
AcDbDimStyleTableRecord
   2
GMM002
  70
0
   3

   4

   5

   6
_OPEN
   7
_OPEN
  40
 1.0000000000000
  41
 42.000000000000
  42
 30.000000000000
  43
 160.00000000000
  44
 30.000000000000
  45
0.0
  46
0.0
  47
0.0
  48
0.0
 140
 60.000000000000
 141
 20.000000000000
 142
0.0
 143
 0.39400000000000E-1
 144
 1.0000000000000
 145
0.0
 146
 0.83333333333333
 147
0.0
  71
0
  72
0
  73
0
  74
0
  75
0
  76
0
  77
0
  78
8
 170
0
 171
2
 172
1
 173
1
 174
0
 175
0
 176
1
 177
1
 178
7
 270
2
 271
1
 272
0
 273
2
 274
2
 340
3C
 275
0
 280
0
 281
0
 282
0
 283
1
 284
0
 285
0
 286
0
 287
3
 288
1
   0
DIMSTYLE
 105
42
 100
AcDbSymbolTableRecord
 100
AcDbDimStyleTableRecord
   2
GMM003
  70
0
   3

   4

   5

   6
_OPEN
   7
_OPEN
  40
 1.0000000000000
  41
 42.000000000000
  42
 30.000000000000
  43
 160.00000000000
  44
 30.000000000000
  45
0.0
  46
0.0
  47
0.0
  48
0.0
 140
 60.000000000000
 141
 20.000000000000
 142
0.0
 143
 0.39400000000000E-1
 144
 1.0000000000000
 145
0.0
 146
 0.83333333333333
 147
 25.714285714286
  71
0
  72
0
  73
0
  74
0
  75
0
  76
0
  77
3
  78
8
 170
0
 171
2
 172
1
 173
1
 174
0
 175
0
 176
6
 177
6
 178
1
 270
2
 271
6
 272
0
 273
2
 274
2
 340
3C
 275
1
 280
0
 281
0
 282
0
 283
1
 284
0
 285
0
 286
0
 287
3
 288
0
   0
DIMSTYLE
 105
43
 100
AcDbSymbolTableRecord
 100
AcDbDimStyleTableRecord
   2
GMM004
  70
0
   3
□<>
   4

   5

   6
_OPEN
   7
_OPEN
  40
 1.0000000000000
  41
 42.000000000000
  42
 30.000000000000
  43
 160.00000000000
  44
 30.000000000000
  45
0.0
  46
0.0
  47
0.0
  48
0.0
 140
 60.000000000000
 141
 20.000000000000
 142
0.0
 143
 0.39400000000000E-1
 144
 1.0000000000000
 145
0.0
 146
 0.83333333333333
 147
 14.000000000000
  71
0
  72
0
  73
0
  74
0
  75
0
  76
0
  77
3
  78
8
 170
0
 171
2
 172
1
 173
1
 174
0
 175
0
 176
6
 177
6
 178
1
 270
2
 271
1
 272
0
 273
2
 274
2
 340
3C
 275
0
 280
0
 281
0
 282
0
 283
1
 284
0
 285
0
 286
0
 287
3
 288
1
   0
DIMSTYLE
 105
44
 100
AcDbSymbolTableRecord
 100
AcDbDimStyleTableRecord
   2
GMM005
  70
0
   3

   4

   5

   6
_OPEN
   7
_OPEN
  40
 1.0000000000000
  41
 42.000000000000
  42
 30.000000000000
  43
 160.00000000000
  44
 30.000000000000
  45
0.0
  46
0.0
  47
0.0
  48
0.0
 140
 60.000000000000
 141
 20.000000000000
 142
0.0
 143
 0.39400000000000E-1
 144
 1.0000000000000
 145
0.0
 146
 0.83333333333333
 147
 25.714285714286
  71
0
  72
0
  73
0
  74
0
  75
0
  76
0
  77
3
  78
8
 170
0
 171
2
 172
1
 173
1
 174
0
 175
0
 176
6
 177
6
 178
1
 270
2
 271
6
 272
0
 273
2
 274
2
 340
3C
 275
1
 280
0
 281
0
 282
0
 283
1
 284
0
 285
0
 286
0
 287
3
 288
0
   0
DIMSTYLE
 105
45
 100
AcDbSymbolTableRecord
 100
AcDbDimStyleTableRecord
   2
GMM006
  70
0
   3
%%c<>
   4

   5

   6
_OPEN
   7
_OPEN
  40
 1.0000000000000
  41
 42.000000000000
  42
 30.000000000000
  43
 160.00000000000
  44
 30.000000000000
  45
0.0
  46
0.0
  47
0.0
  48
0.0
 140
 60.000000000000
 141
 20.000000000000
 142
0.0
 143
 0.39400000000000E-1
 144
 1.0000000000000
 145
0.0
 146
 0.83333333333333
 147
 14.000000000000
  71
0
  72
0
  73
0
  74
0
  75
0
  76
0
  77
3
  78
8
 170
0
 171
2
 172
1
 173
1
 174
0
 175
0
 176
6
 177
6
 178
1
 270
2
 271
1
 272
0
 273
2
 274
2
 340
3C
 275
0
 280
0
 281
0
 282
0
 283
1
 284
0
 285
0
 286
0
 287
0
 288
1
   0
ENDTAB
  0
TABLE
  2
BLOCK_RECORD
  5
1
100
AcDbSymbolTable
 70
     0
  0
BLOCK_RECORD
  5
18
100
AcDbSymbolTableRecord
100
AcDbBlockTableRecord
  2
*MODEL_SPACE
  0
BLOCK_RECORD
  5
15
100
AcDbSymbolTableRecord
100
AcDbBlockTableRecord
  2
*PAPER_SPACE
   0
BLOCK_RECORD
   5
46
 100
AcDbSymbolTableRecord
 100
AcDbBlockTableRecord
   2
*D15
   0
BLOCK_RECORD
   5
47
 100
AcDbSymbolTableRecord
 100
AcDbBlockTableRecord
   2
*D16
   0
BLOCK_RECORD
   5
48
 100
AcDbSymbolTableRecord
 100
AcDbBlockTableRecord
   2
*D17
   0
BLOCK_RECORD
   5
49
 100
AcDbSymbolTableRecord
 100
AcDbBlockTableRecord
   2
*D18
   0
BLOCK_RECORD
   5
4A
 100
AcDbSymbolTableRecord
 100
AcDbBlockTableRecord
   2
*D19
   0
BLOCK_RECORD
   5
4B
 100
AcDbSymbolTableRecord
 100
AcDbBlockTableRecord
   2
*D20
   0
BLOCK_RECORD
   5
4C
 100
AcDbSymbolTableRecord
 100
AcDbBlockTableRecord
   2
*D21
   0
BLOCK_RECORD
   5
4D
 100
AcDbSymbolTableRecord
 100
AcDbBlockTableRecord
   2
_ARCHTICK
   0
BLOCK_RECORD
   5
4E
 100
AcDbSymbolTableRecord
 100
AcDbBlockTableRecord
   2
_BOXBLANK
   0
BLOCK_RECORD
   5
4F
 100
AcDbSymbolTableRecord
 100
AcDbBlockTableRecord
   2
_BOXFILLED
   0
BLOCK_RECORD
   5
50
 100
AcDbSymbolTableRecord
 100
AcDbBlockTableRecord
   2
_CLOSED
   0
BLOCK_RECORD
   5
51
 100
AcDbSymbolTableRecord
 100
AcDbBlockTableRecord
   2
_CLOSEDBLANK
   0
BLOCK_RECORD
   5
52
 100
AcDbSymbolTableRecord
 100
AcDbBlockTableRecord
   2
_DATUMBLANK
   0
BLOCK_RECORD
   5
53
 100
AcDbSymbolTableRecord
 100
AcDbBlockTableRecord
   2
_DATUMFILLED
   0
BLOCK_RECORD
   5
54
 100
AcDbSymbolTableRecord
 100
AcDbBlockTableRecord
   2
_DOT
   0
BLOCK_RECORD
   5
55
 100
AcDbSymbolTableRecord
 100
AcDbBlockTableRecord
   2
_DOTBLANK
   0
BLOCK_RECORD
   5
56
 100
AcDbSymbolTableRecord
 100
AcDbBlockTableRecord
   2
_DOTSMALL
   0
BLOCK_RECORD
   5
57
 100
AcDbSymbolTableRecord
 100
AcDbBlockTableRecord
   2
_INTEGRAL
   0
BLOCK_RECORD
   5
58
 100
AcDbSymbolTableRecord
 100
AcDbBlockTableRecord
   2
_NONE
   0
BLOCK_RECORD
   5
59
 100
AcDbSymbolTableRecord
 100
AcDbBlockTableRecord
   2
_OBLIQUE
   0
BLOCK_RECORD
   5
5A
 100
AcDbSymbolTableRecord
 100
AcDbBlockTableRecord
   2
_OPEN
   0
BLOCK_RECORD
   5
5B
 100
AcDbSymbolTableRecord
 100
AcDbBlockTableRecord
   2
_OPEN30
   0
BLOCK_RECORD
   5
5C
 100
AcDbSymbolTableRecord
 100
AcDbBlockTableRecord
   2
_OPEN90
   0
BLOCK_RECORD
   5
5D
 100
AcDbSymbolTableRecord
 100
AcDbBlockTableRecord
   2
_ORIGIN
   0
ENDTAB
   0
ENDSEC
  0
SECTION
  2
BLOCKS
  0
BLOCK
  5
19
100
AcDbEntity
  8
0
100
AcDbBlockBegin
  2
*MODEL_SPACE
 70
     0
 10
0.0
 20
0.0
 30
0.0
  3
*MODEL_SPACE
  1

  0
ENDBLK
  5
1A
100
AcDbEntity
  8
0
100
AcDbBlockEnd
  0
BLOCK
  5
16
100
AcDbEntity
 67
     1
  8
0
100
AcDbBlockBegin
  2
*PAPER_SPACE
 70
     0
 10
0.0
 20
0.0
 30
0.0
  3
*PAPER_SPACE
  1

  0
ENDBLK
  5
17
100
AcDbEntity
 67
     1
  8
0
100
AcDbBlockEnd
   0
BLOCK
   5
5E
 100
AcDbEntity
   8
0
 100
AcDbBlockBegin
   2
_ARCHTICK
  70
0
  10
0.0
  20
0.0
  30
0.0
   3
_ARCHTICK
   0
POLYLINE
   5
5F
 100
AcDbEntity
   8
0
 370
-2
   6
BYBLOCK
  62
0
 100
AcDb2dPolyline
  66
1
  10
0.0
  20
0.0
  30
0.0
  70
1
  40
 0.15000000000000
  41
 0.15000000000000
   0
VERTEX
   5
60
 100
AcDbEntity
   8
0
   6
BYBLOCK
  62
0
 100
AcDbVertex
 100
AcDb2dVertex
  10
-0.50000000000000
  20
-0.50000000000000
  30
0.0
  40
 0.15000000000000
  41
 0.15000000000000
   0
VERTEX
   5
61
 100
AcDbEntity
   8
0
   6
BYBLOCK
  62
0
 100
AcDbVertex
 100
AcDb2dVertex
  10
 0.50000000000000
  20
 0.50000000000000
  30
0.0
  40
 0.15000000000000
  41
 0.15000000000000
   0
SEQEND
   5
62
 100
AcDbEntity
   8
0
   6
BYBLOCK
  62
0
   0
ENDBLK
   5
63
 100
AcDbEntity
   8
0
 100
AcDbBlockEnd
   0
BLOCK
   5
64
 100
AcDbEntity
   8
0
 100
AcDbBlockBegin
   2
_OBLIQUE
  70
0
  10
0.0
  20
0.0
  30
0.0
   3
_OBLIQUE
   0
LINE
   5
65
 100
AcDbEntity
   8
0
 370
-2
 100
AcDbLine
   6
BYBLOCK
  62
0
  10
-0.50000000000000
  20
-0.50000000000000
  30
0.0
  11
 0.50000000000000
  21
 0.50000000000000
  31
0.0
   0
ENDBLK
   5
66
 100
AcDbEntity
   8
0
 100
AcDbBlockEnd
   0
BLOCK
   5
67
 100
AcDbEntity
   8
0
 100
AcDbBlockBegin
   2
_BOXBLANK
  70
0
  10
0.0
  20
0.0
  30
0.0
   3
_BOXBLANK
   0
LINE
   5
68
 100
AcDbEntity
   8
0
 370
-2
 100
AcDbLine
   6
BYBLOCK
  62
0
  10
-0.50000000000000
  20
-0.50000000000000
  30
0.0
  11
 0.50000000000000
  21
-0.50000000000000
  31
0.0
   0
LINE
   5
69
 100
AcDbEntity
   8
0
 370
-2
 100
AcDbLine
   6
BYBLOCK
  62
0
  10
 0.50000000000000
  20
-0.50000000000000
  30
0.0
  11
 0.50000000000000
  21
 0.50000000000000
  31
0.0
   0
LINE
   5
6A
 100
AcDbEntity
   8
0
 370
-2
 100
AcDbLine
   6
BYBLOCK
  62
0
  10
 0.50000000000000
  20
 0.50000000000000
  30
0.0
  11
-0.50000000000000
  21
 0.50000000000000
  31
0.0
   0
LINE
   5
6B
 100
AcDbEntity
   8
0
 370
-2
 100
AcDbLine
   6
BYBLOCK
  62
0
  10
-0.50000000000000
  20
 0.50000000000000
  30
0.0
  11
-0.50000000000000
  21
-0.50000000000000
  31
0.0
   0
LINE
   5
6C
 100
AcDbEntity
   8
0
 370
-2
 100
AcDbLine
   6
BYBLOCK
  62
0
  10
-0.50000000000000
  20
0.0
  30
0.0
  11
-1.0000000000000
  21
0.0
  31
0.0
   0
ENDBLK
   5
6D
 100
AcDbEntity
   8
0
 100
AcDbBlockEnd
   0
BLOCK
   5
6E
 100
AcDbEntity
   8
0
 100
AcDbBlockBegin
   2
_BOXFILLED
  70
0
  10
0.0
  20
0.0
  30
0.0
   3
_BOXFILLED
   0
SOLID
   5
6F
 100
AcDbEntity
   8
0
 100
AcDbTrace
   6
BYBLOCK
  62
0
  10
-0.50000000000000
  20
 0.50000000000000
  30
0.0
  11
 0.50000000000000
  21
 0.50000000000000
  31
0.0
  12
-0.50000000000000
  22
-0.50000000000000
  32
0.0
  13
 0.50000000000000
  23
-0.50000000000000
  33
0.0
   0
LINE
   5
70
 100
AcDbEntity
   8
0
 370
-2
 100
AcDbLine
   6
BYBLOCK
  62
0
  10
-0.50000000000000
  20
0.0
  30
0.0
  11
-1.0000000000000
  21
0.0
  31
0.0
   0
ENDBLK
   5
71
 100
AcDbEntity
   8
0
 100
AcDbBlockEnd
   0
BLOCK
   5
72
 100
AcDbEntity
   8
0
 100
AcDbBlockBegin
   2
_CLOSED
  70
0
  10
0.0
  20
0.0
  30
0.0
   3
_CLOSED
   0
LINE
   5
73
 100
AcDbEntity
   8
0
 370
-2
 100
AcDbLine
   6
BYBLOCK
  62
0
  10
-1.0000000000000
  20
 0.16666666666667
  30
0.0
  11
0.0
  21
0.0
  31
0.0
   0
LINE
   5
74
 100
AcDbEntity
   8
0
 370
-2
 100
AcDbLine
   6
BYBLOCK
  62
0
  10
0.0
  20
0.0
  30
0.0
  11
-1.0000000000000
  21
-0.16666666666667
  31
0.0
   0
LINE
   5
75
 100
AcDbEntity
   8
0
 370
-2
 100
AcDbLine
   6
BYBLOCK
  62
0
  10
-1.0000000000000
  20
 0.16666666666667
  30
0.0
  11
-1.0000000000000
  21
-0.16666666666667
  31
0.0
   0
LINE
   5
76
 100
AcDbEntity
   8
0
 370
-2
 100
AcDbLine
   6
BYBLOCK
  62
0
  10
0.0
  20
0.0
  30
0.0
  11
-1.0000000000000
  21
0.0
  31
0.0
   0
ENDBLK
   5
77
 100
AcDbEntity
   8
0
 100
AcDbBlockEnd
   0
BLOCK
   5
78
 100
AcDbEntity
   8
0
 100
AcDbBlockBegin
   2
_OPEN
  70
0
  10
0.0
  20
0.0
  30
0.0
   3
_OPEN
   0
LINE
   5
79
 100
AcDbEntity
   8
0
 370
-2
 100
AcDbLine
   6
BYBLOCK
  62
0
  10
-1.0000000000000
  20
 0.16666666666667
  30
0.0
  11
0.0
  21
0.0
  31
0.0
   0
LINE
   5
7A
 100
AcDbEntity
   8
0
 370
-2
 100
AcDbLine
   6
BYBLOCK
  62
0
  10
0.0
  20
0.0
  30
0.0
  11
-1.0000000000000
  21
-0.16666666666667
  31
0.0
   0
LINE
   5
7B
 100
AcDbEntity
   8
0
 370
-2
 100
AcDbLine
   6
BYBLOCK
  62
0
  10
0.0
  20
0.0
  30
0.0
  11
-1.0000000000000
  21
0.0
  31
0.0
   0
ENDBLK
   5
7C
 100
AcDbEntity
   8
0
 100
AcDbBlockEnd
   0
BLOCK
   5
7D
 100
AcDbEntity
   8
0
 100
AcDbBlockBegin
   2
_OPEN30
  70
0
  10
0.0
  20
0.0
  30
0.0
   3
_OPEN30
   0
LINE
   5
7E
 100
AcDbEntity
   8
0
 370
-2
 100
AcDbLine
   6
BYBLOCK
  62
0
  10
-1.0000000000000
  20
 0.26794919243110
  30
0.0
  11
0.0
  21
0.0
  31
0.0
   0
LINE
   5
7F
 100
AcDbEntity
   8
0
 370
-2
 100
AcDbLine
   6
BYBLOCK
  62
0
  10
0.0
  20
0.0
  30
0.0
  11
-1.0000000000000
  21
-0.26794919243110
  31
0.0
   0
LINE
   5
80
 100
AcDbEntity
   8
0
 370
-2
 100
AcDbLine
   6
BYBLOCK
  62
0
  10
0.0
  20
0.0
  30
0.0
  11
-1.0000000000000
  21
0.0
  31
0.0
   0
ENDBLK
   5
81
 100
AcDbEntity
   8
0
 100
AcDbBlockEnd
   0
BLOCK
   5
82
 100
AcDbEntity
   8
0
 100
AcDbBlockBegin
   2
_OPEN90
  70
0
  10
0.0
  20
0.0
  30
0.0
   3
_OPEN90
   0
LINE
   5
83
 100
AcDbEntity
   8
0
 370
-2
 100
AcDbLine
   6
BYBLOCK
  62
0
  10
-0.50000000000000
  20
 0.50000000000000
  30
0.0
  11
0.0
  21
0.0
  31
0.0
   0
LINE
   5
84
 100
AcDbEntity
   8
0
 370
-2
 100
AcDbLine
   6
BYBLOCK
  62
0
  10
0.0
  20
0.0
  30
0.0
  11
-0.50000000000000
  21
-0.50000000000000
  31
0.0
   0
LINE
   5
85
 100
AcDbEntity
   8
0
 370
-2
 100
AcDbLine
   6
BYBLOCK
  62
0
  10
0.0
  20
0.0
  30
0.0
  11
-1.0000000000000
  21
0.0
  31
0.0
   0
ENDBLK
   5
86
 100
AcDbEntity
   8
0
 100
AcDbBlockEnd
   0
BLOCK
   5
87
 100
AcDbEntity
   8
0
 100
AcDbBlockBegin
   2
_CLOSEDBLANK
  70
0
  10
0.0
  20
0.0
  30
0.0
   3
_CLOSEDBLANK
   0
LINE
   5
88
 100
AcDbEntity
   8
0
 370
-2
 100
AcDbLine
   6
BYBLOCK
  62
0
  10
-1.0000000000000
  20
 0.16666666666667
  30
0.0
  11
0.0
  21
0.0
  31
0.0
   0
LINE
   5
89
 100
AcDbEntity
   8
0
 370
-2
 100
AcDbLine
   6
BYBLOCK
  62
0
  10
0.0
  20
0.0
  30
0.0
  11
-1.0000000000000
  21
-0.16666666666667
  31
0.0
   0
LINE
   5
8A
 100
AcDbEntity
   8
0
 370
-2
 100
AcDbLine
   6
BYBLOCK
  62
0
  10
-1.0000000000000
  20
 0.16666666666667
  30
0.0
  11
-1.0000000000000
  21
-0.16666666666667
  31
0.0
   0
ENDBLK
   5
8B
 100
AcDbEntity
   8
0
 100
AcDbBlockEnd
   0
BLOCK
   5
8C
 100
AcDbEntity
   8
0
 100
AcDbBlockBegin
   2
_DOT
  70
0
  10
0.0
  20
0.0
  30
0.0
   3
_DOT
   0
POLYLINE
   5
8D
 100
AcDbEntity
   8
0
 370
-2
   6
BYBLOCK
  62
0
 100
AcDb2dPolyline
  66
1
  10
0.0
  20
0.0
  30
0.0
  70
1
  40
 0.50000000000000
  41
 0.50000000000000
   0
VERTEX
   5
8E
 100
AcDbEntity
   8
0
   6
BYBLOCK
  62
0
 100
AcDbVertex
 100
AcDb2dVertex
  10
-0.25000000000000
  20
0.0
  30
0.0
  42
 1.0000000000000
  40
 0.50000000000000
  41
 0.50000000000000
   0
VERTEX
   5
8F
 100
AcDbEntity
   8
0
   6
BYBLOCK
  62
0
 100
AcDbVertex
 100
AcDb2dVertex
  10
 0.25000000000000
  20
0.0
  30
0.0
  42
 1.0000000000000
  40
 0.50000000000000
  41
 0.50000000000000
   0
SEQEND
   5
90
 100
AcDbEntity
   8
0
   6
BYBLOCK
  62
0
   0
LINE
   5
91
 100
AcDbEntity
   8
0
 370
-2
 100
AcDbLine
   6
BYBLOCK
  62
0
  10
-0.50000000000000
  20
0.0
  30
0.0
  11
-1.0000000000000
  21
0.0
  31
0.0
   0
ENDBLK
   5
92
 100
AcDbEntity
   8
0
 100
AcDbBlockEnd
   0
BLOCK
   5
93
 100
AcDbEntity
   8
0
 100
AcDbBlockBegin
   2
_DOTSMALL
  70
0
  10
0.0
  20
0.0
  30
0.0
   3
_DOTSMALL
   0
POLYLINE
   5
94
 100
AcDbEntity
   8
0
 370
-2
   6
BYBLOCK
  62
0
 100
AcDb2dPolyline
  66
1
  10
0.0
  20
0.0
  30
0.0
  70
1
  40
 0.50000000000000
  41
 0.50000000000000
   0
VERTEX
   5
95
 100
AcDbEntity
   8
0
   6
BYBLOCK
  62
0
 100
AcDbVertex
 100
AcDb2dVertex
  10
-0.62500000000000E-1
  20
0.0
  30
0.0
  42
 1.0000000000000
  40
 0.50000000000000
  41
 0.50000000000000
   0
VERTEX
   5
96
 100
AcDbEntity
   8
0
   6
BYBLOCK
  62
0
 100
AcDbVertex
 100
AcDb2dVertex
  10
 0.62500000000000E-1
  20
0.0
  30
0.0
  42
 1.0000000000000
  40
 0.50000000000000
  41
 0.50000000000000
   0
SEQEND
   5
97
 100
AcDbEntity
   8
0
   6
BYBLOCK
  62
0
   0
ENDBLK
   5
98
 100
AcDbEntity
   8
0
 100
AcDbBlockEnd
   0
BLOCK
   5
99
 100
AcDbEntity
   8
0
 100
AcDbBlockBegin
   2
_DATUMBLANK
  70
0
  10
0.0
  20
0.0
  30
0.0
   3
_DATUMBLANK
   0
LINE
   5
9A
 100
AcDbEntity
   8
0
 370
-2
 100
AcDbLine
   6
BYBLOCK
  62
0
  10
0.0
  20
 0.57735027000000
  30
0.0
  11
-1.0000000000000
  21
0.0
  31
0.0
   0
LINE
   5
9B
 100
AcDbEntity
   8
0
 370
-2
 100
AcDbLine
   6
BYBLOCK
  62
0
  10
-1.0000000000000
  20
0.0
  30
0.0
  11
0.0
  21
-0.57735027000000
  31
0.0
   0
LINE
   5
9C
 100
AcDbEntity
   8
0
 370
-2
 100
AcDbLine
   6
BYBLOCK
  62
0
  10
0.0
  20
-0.57735027000000
  30
0.0
  11
0.0
  21
 0.57735027000000
  31
0.0
   0
ENDBLK
   5
9D
 100
AcDbEntity
   8
0
 100
AcDbBlockEnd
   0
BLOCK
   5
9E
 100
AcDbEntity
   8
0
 100
AcDbBlockBegin
   2
_DATUMFILLED
  70
0
  10
0.0
  20
0.0
  30
0.0
   3
_DATUMFILLED
   0
SOLID
   5
9F
 100
AcDbEntity
   8
0
 100
AcDbTrace
   6
BYBLOCK
  62
0
  10
0.0
  20
 0.57735027000000
  30
0.0
  11
-1.0000000000000
  21
0.0
  31
0.0
  12
0.0
  22
-0.57735027000000
  32
0.0
  13
0.0
  23
-0.57735027000000
  33
0.0
   0
ENDBLK
   5
A0
 100
AcDbEntity
   8
0
 100
AcDbBlockEnd
   0
BLOCK
   5
A1
 100
AcDbEntity
   8
0
 100
AcDbBlockBegin
   2
_ORIGIN
  70
0
  10
0.0
  20
0.0
  30
0.0
   3
_ORIGIN
   0
CIRCLE
   5
A2
 100
AcDbEntity
   8
0
 370
-2
 100
AcDbCircle
   6
BYBLOCK
  62
0
  10
0.0
  20
0.0
  30
0.0
  40
 0.50000000000000
   0
LINE
   5
A3
 100
AcDbEntity
   8
0
 370
-2
 100
AcDbLine
   6
BYBLOCK
  62
0
  10
0.0
  20
0.0
  30
0.0
  11
-1.0000000000000
  21
0.0
  31
0.0
   0
ENDBLK
   5
A4
 100
AcDbEntity
   8
0
 100
AcDbBlockEnd
   0
BLOCK
   5
A5
 100
AcDbEntity
   8
0
 100
AcDbBlockBegin
   2
_NONE
  70
0
  10
0.0
  20
0.0
  30
0.0
   3
_NONE
   0
CIRCLE
   5
A6
 100
AcDbEntity
   8
0
 370
-2
 100
AcDbCircle
   6
BYBLOCK
  62
0
  10
0.0
  20
0.0
  30
0.0
  40
 0.25000000000000
   0
ENDBLK
   5
A7
 100
AcDbEntity
   8
0
 100
AcDbBlockEnd
   0
BLOCK
   5
A8
 100
AcDbEntity
   8
0
 100
AcDbBlockBegin
   2
_DOTBLANK
  70
0
  10
0.0
  20
0.0
  30
0.0
   3
_DOTBLANK
   0
CIRCLE
   5
A9
 100
AcDbEntity
   8
0
 370
-2
 100
AcDbCircle
   6
BYBLOCK
  62
0
  10
0.0
  20
0.0
  30
0.0
  40
 0.50000000000000
   0
LINE
   5
AA
 100
AcDbEntity
   8
0
 370
-2
 100
AcDbLine
   6
BYBLOCK
  62
0
  10
-0.50000000000000
  20
0.0
  30
0.0
  11
-1.0000000000000
  21
0.0
  31
0.0
   0
ENDBLK
   5
AB
 100
AcDbEntity
   8
0
 100
AcDbBlockEnd
   0
BLOCK
   5
AC
 100
AcDbEntity
   8
0
 100
AcDbBlockBegin
   2
_INTEGRAL
  70
0
  10
0.0
  20
0.0
  30
0.0
   3
_INTEGRAL
   0
ARC
   5
AD
 100
AcDbEntity
   8
0
 370
-2
   6
BYBLOCK
  62
0
 100
AcDbCircle
  10
 0.44488800000000
  20
-0.91335000000000E-1
  30
0.0
  40
 0.45416700000000
 100
AcDbArc
  50
 102.00000000000
  51
 168.00000000000
   0
ARC
   5
AE
 100
AcDbEntity
   8
0
 370
-2
   6
BYBLOCK
  62
0
 100
AcDbCircle
  10
-0.44488800000000
  20
 0.91335000000000E-1
  30
0.0
  40
 0.45416700000000
 100
AcDbArc
  50
 282.00000000000
  51
 348.00000000000
   0
ENDBLK
   5
AF
 100
AcDbEntity
   8
0
 100
AcDbBlockEnd
   0
BLOCK
   5
B0
 100
AcDbEntity
   8
0
 100
AcDbBlockBegin
   2
*D15
  70
65
  10
0.0
  20
0.0
  30
0.0
   3
*D15
   0
LINE
   5
B1
 100
AcDbEntity
   8
LEVEL001
 370
13
 100
AcDbLine
   6
CONTINUOUS
  62
6
  10
 1272.1150891211
  20
 612.49211853719
  30
0.0
  11
 772.11508912109
  21
 612.49211853719
  31
0.0
   0
LINE
   5
B2
 100
AcDbEntity
   8
LEVEL001
 370
13
 100
AcDbLine
   6
CONTINUOUS
  62
6
  10
 1272.1150891211
  20
 512.49211853719
  30
0.0
  11
 772.11508912109
  21
 512.49211853719
  31
0.0
   0
LINE
   5
B3
 100
AcDbEntity
   8
LEVEL001
 370
13
 100
AcDbLine
   6
CONTINUOUS
  62
6
  10
 802.11508912109
  20
 612.49211853719
  30
0.0
  11
 802.11508912109
  21
 562.49211853719
  31
0.0
   0
LINE
   5
B4
 100
AcDbEntity
   8
LEVEL001
 370
13
 100
AcDbLine
   6
CONTINUOUS
  62
6
  10
 802.11508912109
  20
 512.49211853719
  30
0.0
  11
 802.11508912109
  21
 562.49211853719
  31
0.0
   0
INSERT
   5
B5
 100
AcDbEntity
   8
LEVEL001
   6
CONTINUOUS
  62
6
 100
AcDbBlockReference
   2
_OPEN
  10
 802.11508912109
  20
 612.49211853719
  30
0.0
  41
 42.000000000000
  42
 42.000000000000
  43
 42.000000000000
  50
 90.000000000000
   0
INSERT
   5
B6
 100
AcDbEntity
   8
LEVEL001
   6
CONTINUOUS
  62
6
 100
AcDbBlockReference
   2
_OPEN
  10
 802.11508912109
  20
 512.49211853719
  30
0.0
  41
 42.000000000000
  42
 42.000000000000
  43
 42.000000000000
  50
 270.00000000000
   0
MTEXT
   5
B7
 100
AcDbEntity
   8
LEVEL001
 370
13
  62
1
 100
AcDbMText
  10
 776.40080340680
  20
 562.49211853719
  30
0.0
  40
 60.000000000000
  41
0.0
  71
8
  72
1
   1
\A1;100
   7
GMM002
  11
0.0
  21
 1.0000000000000
  31
0.0
   0
ENDBLK
   5
B8
 100
AcDbEntity
   8
0
 100
AcDbBlockEnd
   0
BLOCK
   5
B9
 100
AcDbEntity
   8
0
 100
AcDbBlockBegin
   2
*D16
  70
65
  10
0.0
  20
0.0
  30
0.0
   3
*D16
   0
LINE
   5
BA
 100
AcDbEntity
   8
LEVEL002
 370
13
 100
AcDbLine
   6
CONTINUOUS
  62
6
  10
 3002.1150891211
  20
 482.49211853719
  30
0.0
  11
 3002.1150891211
  21
 282.49211853719
  31
0.0
   0
LINE
   5
BB
 100
AcDbEntity
   8
LEVEL002
 370
13
 100
AcDbLine
   6
CONTINUOUS
  62
6
  10
 3502.1150891211
  20
 482.49211853719
  30
0.0
  11
 3502.1150891211
  21
 282.49211853719
  31
0.0
   0
LINE
   5
BC
 100
AcDbEntity
   8
LEVEL002
 370
13
 100
AcDbLine
   6
CONTINUOUS
  62
6
  10
 3002.1150891211
  20
 312.49211853719
  30
0.0
  11
 3252.1150891211
  21
 312.49211853719
  31
0.0
   0
LINE
   5
BD
 100
AcDbEntity
   8
LEVEL002
 370
13
 100
AcDbLine
   6
CONTINUOUS
  62
6
  10
 3502.1150891211
  20
 312.49211853719
  30
0.0
  11
 3252.1150891211
  21
 312.49211853719
  31
0.0
   0
INSERT
   5
BE
 100
AcDbEntity
   8
LEVEL002
   6
CONTINUOUS
  62
6
 100
AcDbBlockReference
   2
_OPEN
  10
 3002.1150891211
  20
 312.49211853719
  30
0.0
  41
 42.000000000000
  42
 42.000000000000
  43
 42.000000000000
  50
 180.00000000000
   0
INSERT
   5
BF
 100
AcDbEntity
   8
LEVEL002
   6
CONTINUOUS
  62
6
 100
AcDbBlockReference
   2
_OPEN
  10
 3502.1150891211
  20
 312.49211853719
  30
0.0
  41
 42.000000000000
  42
 42.000000000000
  43
 42.000000000000
  50
0.0
   0
MTEXT
   5
C0
 100
AcDbEntity
   8
LEVEL002
 370
13
  62
1
 100
AcDbMText
  10
 3252.1150891211
  20
 326.49211853719
  30
0.0
  40
 60.000000000000
  41
0.0
  71
8
  72
1
   1
\A1;□500
   7
GMM002
   0
ENDBLK
   5
C1
 100
AcDbEntity
   8
0
 100
AcDbBlockEnd
   0
BLOCK
   5
C2
 100
AcDbEntity
   8
0
 100
AcDbBlockBegin
   2
*D17
  70
65
  10
0.0
  20
0.0
  30
0.0
   3
*D17
   0
LINE
   5
C3
 100
AcDbEntity
   8
LEVEL002
 370
13
 100
AcDbLine
   6
CONTINUOUS
  62
6
  10
 1302.1150891211
  20
 482.49211853719
  30
0.0
  11
 1302.1150891211
  21
 282.49211853719
  31
0.0
   0
LINE
   5
C4
 100
AcDbEntity
   8
LEVEL002
 370
13
 100
AcDbLine
   6
CONTINUOUS
  62
6
  10
 1802.1150891211
  20
 482.49211853719
  30
0.0
  11
 1802.1150891211
  21
 282.49211853719
  31
0.0
   0
LINE
   5
C5
 100
AcDbEntity
   8
LEVEL002
 370
13
 100
AcDbLine
   6
CONTINUOUS
  62
6
  10
 1302.1150891211
  20
 312.49211853719
  30
0.0
  11
 1552.1150891211
  21
 312.49211853719
  31
0.0
   0
LINE
   5
C6
 100
AcDbEntity
   8
LEVEL002
 370
13
 100
AcDbLine
   6
CONTINUOUS
  62
6
  10
 1802.1150891211
  20
 312.49211853719
  30
0.0
  11
 1552.1150891211
  21
 312.49211853719
  31
0.0
   0
INSERT
   5
C7
 100
AcDbEntity
   8
LEVEL002
   6
CONTINUOUS
  62
6
 100
AcDbBlockReference
   2
_OPEN
  10
 1302.1150891211
  20
 312.49211853719
  30
0.0
  41
 42.000000000000
  42
 42.000000000000
  43
 42.000000000000
  50
 180.00000000000
   0
INSERT
   5
C8
 100
AcDbEntity
   8
LEVEL002
   6
CONTINUOUS
  62
6
 100
AcDbBlockReference
   2
_OPEN
  10
 1802.1150891211
  20
 312.49211853719
  30
0.0
  41
 42.000000000000
  42
 42.000000000000
  43
 42.000000000000
  50
0.0
   0
MTEXT
   5
C9
 100
AcDbEntity
   8
LEVEL002
 370
13
  62
1
 100
AcDbMText
  10
 1552.1150891211
  20
 326.49211853719
  30
0.0
  40
 60.000000000000
  41
0.0
  71
8
  72
1
   1
\A1;□500
   7
GMM002
   0
ENDBLK
   5
CA
 100
AcDbEntity
   8
0
 100
AcDbBlockEnd
   0
BLOCK
   5
CB
 100
AcDbEntity
   8
0
 100
AcDbBlockBegin
   2
*D18
  70
65
  10
0.0
  20
0.0
  30
0.0
   3
*D18
   0
LINE
   5
CC
 100
AcDbEntity
   8
LEVEL001
 370
13
 100
AcDbLine
   6
CONTINUOUS
  62
6
  10
 1022.1150891211
  20
 1812.4921185372
  30
0.0
  11
 772.11508912109
  21
 1812.4921185372
  31
0.0
   0
LINE
   5
CD
 100
AcDbEntity
   8
LEVEL001
 370
13
 100
AcDbLine
   6
CONTINUOUS
  62
6
  10
 1272.1150891211
  20
 612.49211853719
  30
0.0
  11
 772.11508912109
  21
 612.49211853719
  31
0.0
   0
LINE
   5
CE
 100
AcDbEntity
   8
LEVEL001
 370
13
 100
AcDbLine
   6
CONTINUOUS
  62
6
  10
 802.11508912109
  20
 1812.4921185372
  30
0.0
  11
 802.11508912109
  21
 1212.4921185372
  31
0.0
   0
LINE
   5
CF
 100
AcDbEntity
   8
LEVEL001
 370
13
 100
AcDbLine
   6
CONTINUOUS
  62
6
  10
 802.11508912109
  20
 612.49211853719
  30
0.0
  11
 802.11508912109
  21
 1212.4921185372
  31
0.0
   0
INSERT
   5
D0
 100
AcDbEntity
   8
LEVEL001
   6
CONTINUOUS
  62
6
 100
AcDbBlockReference
   2
_OPEN
  10
 802.11508912109
  20
 1812.4921185372
  30
0.0
  41
 42.000000000000
  42
 42.000000000000
  43
 42.000000000000
  50
 90.000000000000
   0
INSERT
   5
D1
 100
AcDbEntity
   8
LEVEL001
   6
CONTINUOUS
  62
6
 100
AcDbBlockReference
   2
_OPEN
  10
 802.11508912109
  20
 612.49211853719
  30
0.0
  41
 42.000000000000
  42
 42.000000000000
  43
 42.000000000000
  50
 270.00000000000
   0
MTEXT
   5
D2
 100
AcDbEntity
   8
LEVEL001
 370
13
  62
1
 100
AcDbMText
  10
 776.40080340680
  20
 1212.4921185372
  30
0.0
  40
 60.000000000000
  41
0.0
  71
8
  72
1
   1
\A1;1200
   7
GMM002
  11
0.0
  21
 1.0000000000000
  31
0.0
   0
ENDBLK
   5
D3
 100
AcDbEntity
   8
0
 100
AcDbBlockEnd
   0
BLOCK
   5
D4
 100
AcDbEntity
   8
0
 100
AcDbBlockBegin
   2
*D19
  70
65
  10
0.0
  20
0.0
  30
0.0
   3
*D19
   0
LINE
   5
D5
 100
AcDbEntity
   8
LEVEL001
 370
13
 100
AcDbLine
   6
CONTINUOUS
  62
6
  10
 1022.1150891211
  20
 1812.4921185372
  30
0.0
  11
 772.11508912109
  21
 1812.4921185372
  31
0.0
   0
LINE
   5
D6
 100
AcDbEntity
   8
LEVEL001
 370
13
 100
AcDbLine
   6
CONTINUOUS
  62
6
  10
 1047.1150891211
  20
 4312.4921185372
  30
0.0
  11
 772.11508912109
  21
 4312.4921185372
  31
0.0
   0
LINE
   5
D7
 100
AcDbEntity
   8
LEVEL001
 370
13
 100
AcDbLine
   6
CONTINUOUS
  62
6
  10
 802.11508912109
  20
 1812.4921185372
  30
0.0
  11
 802.11508912109
  21
 3062.4921185372
  31
0.0
   0
LINE
   5
D8
 100
AcDbEntity
   8
LEVEL001
 370
13
 100
AcDbLine
   6
CONTINUOUS
  62
6
  10
 802.11508912109
  20
 4312.4921185372
  30
0.0
  11
 802.11508912109
  21
 3062.4921185372
  31
0.0
   0
INSERT
   5
D9
 100
AcDbEntity
   8
LEVEL001
   6
CONTINUOUS
  62
6
 100
AcDbBlockReference
   2
_OPEN
  10
 802.11508912109
  20
 1812.4921185372
  30
0.0
  41
 42.000000000000
  42
 42.000000000000
  43
 42.000000000000
  50
 270.00000000000
   0
INSERT
   5
DA
 100
AcDbEntity
   8
LEVEL001
   6
CONTINUOUS
  62
6
 100
AcDbBlockReference
   2
_OPEN
  10
 802.11508912109
  20
 4312.4921185372
  30
0.0
  41
 42.000000000000
  42
 42.000000000000
  43
 42.000000000000
  50
 90.000000000000
   0
MTEXT
   5
DB
 100
AcDbEntity
   8
LEVEL001
 370
13
  62
1
 100
AcDbMText
  10
 776.40080340680
  20
 3062.4921185372
  30
0.0
  40
 60.000000000000
  41
0.0
  71
8
  72
1
   1
\A1;2500(標準設置高さ)
   7
GMM002
  11
0.0
  21
 1.0000000000000
  31
0.0
   0
ENDBLK
   5
DC
 100
AcDbEntity
   8
0
 100
AcDbBlockEnd
   0
BLOCK
   5
DD
 100
AcDbEntity
   8
0
 100
AcDbBlockBegin
   2
*D20
  70
65
  10
0.0
  20
0.0
  30
0.0
   3
*D20
   0
LINE
   5
DE
 100
AcDbEntity
   8
LEVEL002
 370
13
 100
AcDbLine
   6
CONTINUOUS
  62
6
  10
 726.37480058836
  20
 4542.4921185372
  30
0.0
  11
 1077.1150891211
  21
 4744.9921185372
  31
0.0
   0
LINE
   5
DF
 100
AcDbEntity
   8
LEVEL002
 370
13
 100
AcDbLine
   6
CONTINUOUS
  62
6
  10
 1077.1150891211
  20
 4744.9921185372
  30
0.0
  11
 1427.8553776538
  21
 4947.4921185372
  31
0.0
   0
INSERT
   5
E0
 100
AcDbEntity
   8
LEVEL002
   6
CONTINUOUS
  62
6
 100
AcDbBlockReference
   2
_OPEN
  10
 726.37480058836
  20
 4542.4921185372
  30
0.0
  41
 42.000000000000
  42
 42.000000000000
  43
 42.000000000000
  50
 210.00000000000
   0
INSERT
   5
E1
 100
AcDbEntity
   8
LEVEL002
   6
CONTINUOUS
  62
6
 100
AcDbBlockReference
   2
_OPEN
  10
 1427.8553776538
  20
 4947.4921185372
  30
0.0
  41
 42.000000000000
  42
 42.000000000000
  43
 42.000000000000
  50
 29.999999999997
   0
MTEXT
   5
E2
 100
AcDbEntity
   8
LEVEL002
 370
13
  62
1
 100
AcDbMText
  10
 1070.1150891211
  20
 4757.1164741902
  30
0.0
  40
 60.000000000000
  41
0.0
  71
8
  72
1
   1
\A1;%%c800
   7
GMM002
  11
 0.86602540378446
  21
 0.49999999999996
  31
0.0
   0
ENDBLK
   5
E3
 100
AcDbEntity
   8
0
 100
AcDbBlockEnd
   0
BLOCK
   5
E4
 100
AcDbEntity
   8
0
 100
AcDbBlockBegin
   2
*D21
  70
65
  10
0.0
  20
0.0
  30
0.0
   3
*D21
   0
LINE
   5
E5
 100
AcDbEntity
   8
LEVEL002
 370
13
 100
AcDbLine
   6
CONTINUOUS
  62
6
  10
 1676.3748005884
  20
 4542.4921185372
  30
0.0
  11
 2027.1150891211
  21
 4744.9921185372
  31
0.0
   0
LINE
   5
E6
 100
AcDbEntity
   8
LEVEL002
 370
13
 100
AcDbLine
   6
CONTINUOUS
  62
6
  10
 2027.1150891211
  20
 4744.9921185372
  30
0.0
  11
 2377.8553776539
  21
 4947.4921185372
  31
0.0
   0
INSERT
   5
E7
 100
AcDbEntity
   8
LEVEL002
   6
CONTINUOUS
  62
6
 100
AcDbBlockReference
   2
_OPEN
  10
 1676.3748005884
  20
 4542.4921185372
  30
0.0
  41
 42.000000000000
  42
 42.000000000000
  43
 42.000000000000
  50
 210.00000000000
   0
INSERT
   5
E8
 100
AcDbEntity
   8
LEVEL002
   6
CONTINUOUS
  62
6
 100
AcDbBlockReference
   2
_OPEN
  10
 2377.8553776539
  20
 4947.4921185372
  30
0.0
  41
 42.000000000000
  42
 42.000000000000
  43
 42.000000000000
  50
 29.999999999997
   0
MTEXT
   5
E9
 100
AcDbEntity
   8
LEVEL002
 370
13
  62
1
 100
AcDbMText
  10
 2020.1150891211
  20
 4757.1164741902
  30
0.0
  40
 60.000000000000
  41
0.0
  71
8
  72
1
   1
\A1;%%c800
   7
GMM002
  11
 0.86602540378446
  21
 0.49999999999996
  31
0.0
   0
ENDBLK
   5
EA
 100
AcDbEntity
   8
0
 100
AcDbBlockEnd
   0
ENDSEC
   0
SECTION
   2
ENTITIES
   0
LINE
   5
EB
 100
AcDbEntity
   8
LEVEL002
 370
13
 100
AcDbLine
   6
CONTINUOUS
  62
7
  10
 8152.1150891211
  20
 5744.9921185372
  30
0.0
  11
 352.11508912109
  21
 5744.9921185372
  31
0.0
   0
LINE
   5
EC
 100
AcDbEntity
   8
LEVEL002
 370
13
 100
AcDbLine
   6
CONTINUOUS
  62
7
  10
 352.11508912109
  20
 5744.9921185372
  30
0.0
  11
 352.11508912109
  21
 244.99211853719
  31
0.0
   0
LINE
   5
ED
 100
AcDbEntity
   8
LEVEL002
 370
13
 100
AcDbLine
   6
CONTINUOUS
  62
7
  10
 352.11508912109
  20
 244.99211853719
  30
0.0
  11
 8152.1150891211
  21
 244.99211853719
  31
0.0
   0
LINE
   5
EE
 100
AcDbEntity
   8
LEVEL002
 370
13
 100
AcDbLine
   6
CONTINUOUS
  62
7
  10
 8152.1150891211
  20
 244.99211853719
  30
0.0
  11
 8152.1150891211
  21
 5744.9921185372
  31
0.0
   0
LINE
   5
EF
 100
AcDbEntity
   8
LEVEL002
 370
13
 100
AcDbLine
   6
CONTINUOUS
  62
2
  10
 5512.1150891211
  20
 724.99211853719
  30
0.0
  11
 7192.1150891211
  21
 724.99211853719
  31
0.0
   0
POINT
   5
F0
 100
AcDbEntity
   8
LEVEL002
 100
AcDbPoint
  62
3
  10
 6452.1150891211
  20
 784.99211853719
  30
0.0
   0
POINT
   5
F1
 100
AcDbEntity
   8
LEVEL002
 100
AcDbPoint
  62
3
  10
 6352.1150891211
  20
 784.99211853719
  30
0.0
   0
POINT
   5
F2
 100
AcDbEntity
   8
LEVEL002
 100
AcDbPoint
  62
3
  10
 6452.1150891211
  20
 884.99211853719
  30
0.0
   0
MTEXT
   5
F3
 100
AcDbEntity
   8
LEVEL002
 370
13
  62
1
 100
AcDbMText
  10
 5684.1150891211
  20
 1004.9921185372
  30
0.0
  40
 51.428571428572
  41
0.0
  71
6
  72
1
   1
\T1.000000;１６
   7
GMM001
  44
 0.79999984000003
   0
MTEXT
   5
F4
 100
AcDbEntity
   8
LEVEL002
 370
13
  62
1
 100
AcDbMText
  10
 6842.1150891211
  20
 1362.1393339290
  30
0.0
  40
 51.428571428572
  41
0.0
  71
4
  72
1
   1
\T1.000000;ＰＥ
   7
GMM001
  44
 0.79999984000003
   0
MTEXT
   5
F5
 100
AcDbEntity
   8
LEVEL002
 370
13
  62
1
 100
AcDbMText
  10
 5752.1150891211
  20
 1004.9921185372
  30
0.0
  40
 51.428571428572
  41
0.0
  71
4
  72
1
   1
\T1.000000;同上ボルトナット
   7
GMM001
  44
 0.79999984000003
   0
MTEXT
   5
F6
 100
AcDbEntity
   8
LEVEL002
 370
13
  62
1
 100
AcDbMText
  10
 5684.1150891211
  20
 1124.9921185372
  30
0.0
  40
 51.428571428572
  41
0.0
  71
6
  72
1
   1
\T1.000000;１５
   7
GMM001
  44
 0.79999984000003
   0
MTEXT
   5
F7
 100
AcDbEntity
   8
LEVEL002
 370
13
  62
1
 100
AcDbMText
  10
 5752.1150891211
  20
 1124.9921185372
  30
0.0
  40
 51.428571428572
  41
0.0
  71
4
  72
1
   1
\T1.000000;注意板取付バンド
   7
GMM001
  44
 0.79999984000003
   0
LINE
   5
F8
 100
AcDbEntity
   8
LEVEL002
 370
13
 100
AcDbLine
   6
CONTINUOUS
  62
6
  10
 5512.1150891211
  20
 1064.9921185372
  30
0.0
  11
 8152.1150891211
  21
 1064.9921185372
  31
0.0
   0
MTEXT
   5
F9
 100
AcDbEntity
   8
LEVEL002
 370
13
  62
1
 100
AcDbMText
  10
 5684.1150891211
  20
 1244.9921185372
  30
0.0
  40
 51.428571428572
  41
0.0
  71
6
  72
1
   1
\T1.000000;１４
   7
GMM001
  44
 0.79999984000003
   0
MTEXT
   5
FA
 100
AcDbEntity
   8
LEVEL002
 370
13
  62
1
 100
AcDbMText
  10
 6764.1150891211
  20
 1244.9921185372
  30
0.0
  40
 51.428571428572
  41
0.0
  71
6
  72
1
   1
\T1.000000;１
   7
GMM001
  44
 0.79999984000003
   0
LINE
   5
FB
 100
AcDbEntity
   8
LEVEL002
 370
13
 100
AcDbLine
   6
CONTINUOUS
  62
6
  10
 5512.1150891211
  20
 1184.9921185372
  30
0.0
  11
 8152.1150891211
  21
 1184.9921185372
  31
0.0
   0
LINE
   5
FC
 100
AcDbEntity
   8
LEVEL002
 370
13
 100
AcDbLine
   6
CONTINUOUS
  62
6
  10
 5512.1150891211
  20
 1304.9921185372
  30
0.0
  11
 8152.1150891211
  21
 1304.9921185372
  31
0.0
   0
MTEXT
   5
FD
 100
AcDbEntity
   8
LEVEL002
 370
13
  62
1
 100
AcDbMText
  10
 5684.1150891211
  20
 1364.9921185372
  30
0.0
  40
 51.428571428572
  41
0.0
  71
6
  72
1
   1
\T1.000000;１３
   7
GMM001
  44
 0.79999984000003
   0
MTEXT
   5
FE
 100
AcDbEntity
   8
LEVEL002
 370
13
  62
1
 100
AcDbMText
  10
 5752.1150891211
  20
 1364.9921185372
  30
0.0
  40
 51.428571428572
  41
0.0
  71
4
  72
1
   1
\T1.000000;キャップ
   7
GMM001
  44
 0.79999984000003
   0
MTEXT
   5
FF
 100
AcDbEntity
   8
LEVEL002
 370
13
  62
1
 100
AcDbMText
  10
 6764.1150891211
  20
 1364.9921185372
  30
0.0
  40
 51.428571428572
  41
0.0
  71
6
  72
1
   1
\T1.000000;１
   7
GMM001
  44
 0.79999984000003
   0
MTEXT
   5
100
 100
AcDbEntity
   8
LEVEL002
 370
13
  62
1
 100
AcDbMText
  10
 5684.1150891211
  20
 1484.9921185372
  30
0.0
  40
 51.428571428572
  41
0.0
  71
6
  72
1
   1
\T1.000000;１２
   7
GMM001
  44
 0.79999984000003
   0
MTEXT
   5
101
 100
AcDbEntity
   8
LEVEL002
 370
13
  62
1
 100
AcDbMText
  10
 5752.1150891211
  20
 1484.9921185372
  30
0.0
  40
 51.428571428572
  41
0.0
  71
4
  72
1
   1
\T1.000000;根入れ鉄筋
   7
GMM001
  44
 0.79999984000003
   0
MTEXT
   5
102
 100
AcDbEntity
   8
LEVEL002
 370
13
  62
1
 100
AcDbMText
  10
 6832.1150891211
  20
 1484.9921185372
  30
0.0
  40
 51.428571428572
  41
0.0
  71
4
  72
1
   1
\T1.000000;ＳＤ２９５Ａ
   7
GMM001
  44
 0.79999984000003
   0
LINE
   5
103
 100
AcDbEntity
   8
LEVEL002
 370
13
 100
AcDbLine
   6
CONTINUOUS
  62
6
  10
 5512.1150891211
  20
 1424.9921185372
  30
0.0
  11
 8152.1150891211
  21
 1424.9921185372
  31
0.0
   0
LINE
   5
104
 100
AcDbEntity
   8
LEVEL002
 370
13
 100
AcDbLine
   6
CONTINUOUS
  62
6
  10
 5512.1150891211
  20
 1544.9921185372
  30
0.0
  11
 8152.1150891211
  21
 1544.9921185372
  31
0.0
   0
CIRCLE
   5
105
 100
AcDbEntity
   8
LEVEL002
 370
13
 100
AcDbCircle
   6
CONTINUOUS
  62
7
  10
 4552.1150891211
  20
 4744.9921185372
  30
0.0
  40
 432.50000000000
   0
CIRCLE
   5
106
 100
AcDbEntity
   8
LEVEL002
 370
13
 100
AcDbCircle
   6
CONTINUOUS
  62
7
  10
 4375.3383938245
  20
 4921.7688138338
  30
0.0
  40
 47.500000000000
   0
CIRCLE
   5
107
 100
AcDbEntity
   8
LEVEL002
 370
13
 100
AcDbCircle
   6
CONTINUOUS
  62
6
  10
 4375.3383938245
  20
 4921.7688138338
  30
0.0
  40
 65.000000000000
   0
CIRCLE
   5
108
 100
AcDbEntity
   8
LEVEL002
 370
13
 100
AcDbCircle
   6
CONTINUOUS
  62
7
  10
 4728.8917844177
  20
 4921.7688138338
  30
0.0
  40
 47.500000000000
   0
CIRCLE
   5
109
 100
AcDbEntity
   8
LEVEL002
 370
13
 100
AcDbCircle
   6
CONTINUOUS
  62
6
  10
 4728.8917844177
  20
 4921.7688138338
  30
0.0
  40
 65.000000000000
   0
CIRCLE
   5
10A
 100
AcDbEntity
   8
LEVEL002
 370
13
 100
AcDbCircle
   6
CONTINUOUS
  62
7
  10
 4728.8917844177
  20
 4568.2154232404
  30
0.0
  40
 47.500000000000
   0
CIRCLE
   5
10B
 100
AcDbEntity
   8
LEVEL002
 370
13
 100
AcDbCircle
   6
CONTINUOUS
  62
6
  10
 4728.8917844177
  20
 4568.2154232404
  30
0.0
  40
 65.000000000000
   0
CIRCLE
   5
10C
 100
AcDbEntity
   8
LEVEL002
 370
13
 100
AcDbCircle
   6
CONTINUOUS
  62
7
  10
 4375.3383938245
  20
 4568.2154232404
  30
0.0
  40
 47.500000000000
   0
CIRCLE
   5
10D
 100
AcDbEntity
   8
LEVEL002
 370
13
 100
AcDbCircle
   6
CONTINUOUS
  62
6
  10
 4375.3383938245
  20
 4568.2154232404
  30
0.0
  40
 65.000000000000
   0
ARC
   5
10E
 100
AcDbEntity
   8
LEVEL002
 370
13
   6
CONTINUOUS
  62
7
 100
AcDbCircle
  10
 4894.6150891211
  20
 4744.9921185372
  30
0.0
  40
 17.500000000000
 100
AcDbArc
  50
0.0
  51
 90.000000000000
   0
POINT
   5
10F
 100
AcDbEntity
   8
LEVEL002
 100
AcDbPoint
  62
7
  10
 4912.1150891211
  20
 4762.4921185372
  30
0.0
   0
ARC
   5
110
 100
AcDbEntity
   8
LEVEL002
 370
13
   6
CONTINUOUS
  62
7
 100
AcDbCircle
  10
 4894.6150891211
  20
 4744.9921185372
  30
0.0
  40
 17.500000000000
 100
AcDbArc
  50
 270.00000000000
  51
0.0
   0
POINT
   5
111
 100
AcDbEntity
   8
LEVEL002
 100
AcDbPoint
  62
7
  10
 4912.1150891211
  20
 4727.4921185372
  30
0.0
   0
ARC
   5
112
 100
AcDbEntity
   8
LEVEL002
 370
13
   6
CONTINUOUS
  62
6
 100
AcDbCircle
  10
 4894.6150891211
  20
 4744.9921185372
  30
0.0
  40
 35.000000000000
 100
AcDbArc
  50
0.0
  51
 90.000000000000
   0
POINT
   5
113
 100
AcDbEntity
   8
LEVEL002
 100
AcDbPoint
  62
6
  10
 4929.6150891211
  20
 4779.9921185372
  30
0.0
   0
ARC
   5
114
 100
AcDbEntity
   8
LEVEL002
 370
13
   6
CONTINUOUS
  62
6
 100
AcDbCircle
  10
 4894.6150891211
  20
 4744.9921185372
  30
0.0
  40
 35.000000000000
 100
AcDbArc
  50
 270.00000000000
  51
0.0
   0
POINT
   5
115
 100
AcDbEntity
   8
LEVEL002
 100
AcDbPoint
  62
6
  10
 4929.6150891211
  20
 4709.9921185372
  30
0.0
   0
ARC
   5
116
 100
AcDbEntity
   8
LEVEL002
 370
13
   6
CONTINUOUS
  62
7
 100
AcDbCircle
  10
 4552.1150891211
  20
 5087.4921185372
  30
0.0
  40
 17.500000000000
 100
AcDbArc
  50
 90.000000000000
  51
 180.00000000000
   0
POINT
   5
117
 100
AcDbEntity
   8
LEVEL002
 100
AcDbPoint
  62
7
  10
 4534.6150891211
  20
 5104.9921185372
  30
0.0
   0
ARC
   5
118
 100
AcDbEntity
   8
LEVEL002
 370
13
   6
CONTINUOUS
  62
7
 100
AcDbCircle
  10
 4552.1150891211
  20
 5087.4921185372
  30
0.0
  40
 17.500000000000
 100
AcDbArc
  50
0.0
  51
 90.000000000000
   0
POINT
   5
119
 100
AcDbEntity
   8
LEVEL002
 100
AcDbPoint
  62
7
  10
 4569.6150891211
  20
 5104.9921185372
  30
0.0
   0
ARC
   5
11A
 100
AcDbEntity
   8
LEVEL002
 370
13
   6
CONTINUOUS
  62
6
 100
AcDbCircle
  10
 4552.1150891211
  20
 5087.4921185372
  30
0.0
  40
 35.000000000000
 100
AcDbArc
  50
 90.000000000000
  51
 180.00000000000
   0
POINT
   5
11B
 100
AcDbEntity
   8
LEVEL002
 100
AcDbPoint
  62
6
  10
 4517.1150891211
  20
 5122.4921185372
  30
0.0
   0
ARC
   5
11C
 100
AcDbEntity
   8
LEVEL002
 370
13
   6
CONTINUOUS
  62
6
 100
AcDbCircle
  10
 4552.1150891211
  20
 5087.4921185372
  30
0.0
  40
 35.000000000000
 100
AcDbArc
  50
0.0
  51
 90.000000000000
   0
POINT
   5
11D
 100
AcDbEntity
   8
LEVEL002
 100
AcDbPoint
  62
6
  10
 4587.1150891211
  20
 5122.4921185372
  30
0.0
   0
ARC
   5
11E
 100
AcDbEntity
   8
LEVEL002
 370
13
   6
CONTINUOUS
  62
7
 100
AcDbCircle
  10
 4209.6150891211
  20
 4744.9921185370
  30
0.0
  40
 17.500000000000
 100
AcDbArc
  50
 180.00000000000
  51
 270.00000000000
   0
POINT
   5
11F
 100
AcDbEntity
   8
LEVEL002
 100
AcDbPoint
  62
7
  10
 4192.1150891211
  20
 4727.4921185370
  30
0.0
   0
ARC
   5
120
 100
AcDbEntity
   8
LEVEL002
 370
13
   6
CONTINUOUS
  62
7
 100
AcDbCircle
  10
 4209.6150891211
  20
 4744.9921185370
  30
0.0
  40
 17.500000000000
 100
AcDbArc
  50
 90.000000000000
  51
 180.00000000000
   0
POINT
   5
121
 100
AcDbEntity
   8
LEVEL002
 100
AcDbPoint
  62
7
  10
 4192.1150891211
  20
 4762.4921185370
  30
0.0
   0
ARC
   5
122
 100
AcDbEntity
   8
LEVEL002
 370
13
   6
CONTINUOUS
  62
6
 100
AcDbCircle
  10
 4209.6150891211
  20
 4744.9921185370
  30
0.0
  40
 35.000000000000
 100
AcDbArc
  50
 180.00000000000
  51
 270.00000000000
   0
POINT
   5
123
 100
AcDbEntity
   8
LEVEL002
 100
AcDbPoint
  62
6
  10
 4174.6150891211
  20
 4709.9921185370
  30
0.0
   0
ARC
   5
124
 100
AcDbEntity
   8
LEVEL002
 370
13
   6
CONTINUOUS
  62
6
 100
AcDbCircle
  10
 4209.6150891211
  20
 4744.9921185370
  30
0.0
  40
 35.000000000000
 100
AcDbArc
  50
 90.000000000000
  51
 180.00000000000
   0
POINT
   5
125
 100
AcDbEntity
   8
LEVEL002
 100
AcDbPoint
  62
6
  10
 4174.6150891211
  20
 4779.9921185370
  30
0.0
   0
ARC
   5
126
 100
AcDbEntity
   8
LEVEL002
 370
13
   6
CONTINUOUS
  62
7
 100
AcDbCircle
  10
 4552.1150891211
  20
 4402.4921185372
  30
0.0
  40
 17.500000000000
 100
AcDbArc
  50
 270.00000000000
  51
0.0
   0
POINT
   5
127
 100
AcDbEntity
   8
LEVEL002
 100
AcDbPoint
  62
7
  10
 4569.6150891211
  20
 4384.9921185372
  30
0.0
   0
ARC
   5
128
 100
AcDbEntity
   8
LEVEL002
 370
13
   6
CONTINUOUS
  62
7
 100
AcDbCircle
  10
 4552.1150891211
  20
 4402.4921185372
  30
0.0
  40
 17.500000000000
 100
AcDbArc
  50
 180.00000000000
  51
 270.00000000000
   0
POINT
   5
129
 100
AcDbEntity
   8
LEVEL002
 100
AcDbPoint
  62
7
  10
 4534.6150891211
  20
 4384.9921185372
  30
0.0
   0
ARC
   5
12A
 100
AcDbEntity
   8
LEVEL002
 370
13
   6
CONTINUOUS
  62
6
 100
AcDbCircle
  10
 4552.1150891211
  20
 4402.4921185372
  30
0.0
  40
 35.000000000000
 100
AcDbArc
  50
 270.00000000000
  51
0.0
   0
POINT
   5
12B
 100
AcDbEntity
   8
LEVEL002
 100
AcDbPoint
  62
6
  10
 4587.1150891211
  20
 4367.4921185372
  30
0.0
   0
ARC
   5
12C
 100
AcDbEntity
   8
LEVEL002
 370
13
   6
CONTINUOUS
  62
6
 100
AcDbCircle
  10
 4552.1150891211
  20
 4402.4921185372
  30
0.0
  40
 35.000000000000
 100
AcDbArc
  50
 180.00000000000
  51
 270.00000000000
   0
POINT
   5
12D
 100
AcDbEntity
   8
LEVEL002
 100
AcDbPoint
  62
6
  10
 4517.1150891211
  20
 4367.4921185372
  30
0.0
   0
LINE
   5
12E
 100
AcDbEntity
   8
LEVEL002
 370
13
 100
AcDbLine
   6
CONTINUOUS
  62
6
  10
 4517.1150891211
  20
 4871.0129501484
  30
0.0
  11
 4517.1150891211
  21
 5087.4921185372
  31
0.0
   0
ARC
   5
12F
 100
AcDbEntity
   8
LEVEL002
 370
13
   6
CONTINUOUS
  62
6
 100
AcDbCircle
  10
 4497.1150891211
  20
 4871.0129501484
  30
0.0
  40
 20.000000000000
 100
AcDbArc
  50
 293.57817847824
  51
0.0
   0
LINE
   5
130
 100
AcDbEntity
   8
LEVEL002
 370
13
 100
AcDbLine
   6
CONTINUOUS
  62
6
  10
 4209.6150891211
  20
 4779.9921185370
  30
0.0
  11
 4426.0942575097
  21
 4779.9921185370
  31
0.0
   0
ARC
   5
131
 100
AcDbEntity
   8
LEVEL002
 370
13
   6
CONTINUOUS
  62
6
 100
AcDbCircle
  10
 4426.0942575097
  20
 4799.9921185370
  30
0.0
  40
 20.000000000000
 100
AcDbArc
  50
 270.00000000002
  51
 336.42182152181
   0
ARC
   5
132
 100
AcDbEntity
   8
LEVEL002
 370
13
   6
CONTINUOUS
  62
6
 100
AcDbCircle
  10
 4552.1150891211
  20
 4744.9921185372
  30
0.0
  40
 117.50000000000
 100
AcDbArc
  50
 113.57817847824
  51
 156.42182152184
   0
LINE
   5
133
 100
AcDbEntity
   8
LEVEL002
 370
13
 100
AcDbLine
   6
CONTINUOUS
  62
6
  10
 4426.0942575099
  20
 4709.9921185370
  30
0.0
  11
 4209.6150891211
  21
 4709.9921185370
  31
0.0
   0
ARC
   5
134
 100
AcDbEntity
   8
LEVEL002
 370
13
   6
CONTINUOUS
  62
6
 100
AcDbCircle
  10
 4426.0942575099
  20
 4689.9921185370
  30
0.0
  40
 20.000000000000
 100
AcDbArc
  50
 23.578178478200
  51
 89.999999999958
   0
LINE
   5
135
 100
AcDbEntity
   8
LEVEL002
 370
13
 100
AcDbLine
   6
CONTINUOUS
  62
6
  10
 4517.1150891211
  20
 4402.4921185372
  30
0.0
  11
 4517.1150891211
  21
 4618.9712869258
  31
0.0
   0
ARC
   5
136
 100
AcDbEntity
   8
LEVEL002
 370
13
   6
CONTINUOUS
  62
6
 100
AcDbCircle
  10
 4497.1150891211
  20
 4618.9712869258
  30
0.0
  40
 20.000000000000
 100
AcDbArc
  50
0.0
  51
 66.421821521857
   0
ARC
   5
137
 100
AcDbEntity
   8
LEVEL002
 370
13
   6
CONTINUOUS
  62
6
 100
AcDbCircle
  10
 4552.1150891211
  20
 4744.9921185372
  30
0.0
  40
 117.50000000000
 100
AcDbArc
  50
 203.57817847824
  51
 246.42182152184
   0
LINE
   5
138
 100
AcDbEntity
   8
LEVEL002
 370
13
 100
AcDbLine
   6
CONTINUOUS
  62
6
  10
 4587.1150891211
  20
 4618.9712869258
  30
0.0
  11
 4587.1150891211
  21
 4402.4921185372
  31
0.0
   0
ARC
   5
139
 100
AcDbEntity
   8
LEVEL002
 370
13
   6
CONTINUOUS
  62
6
 100
AcDbCircle
  10
 4607.1150891211
  20
 4618.9712869258
  30
0.0
  40
 20.000000000000
 100
AcDbArc
  50
 113.57817847824
  51
 180.00000000000
   0
LINE
   5
13A
 100
AcDbEntity
   8
LEVEL002
 370
13
 100
AcDbLine
   6
CONTINUOUS
  62
6
  10
 4894.6150891211
  20
 4709.9921185372
  30
0.0
  11
 4678.1359207325
  21
 4709.9921185372
  31
0.0
   0
ARC
   5
13B
 100
AcDbEntity
   8
LEVEL002
 370
13
   6
CONTINUOUS
  62
6
 100
AcDbCircle
  10
 4678.1359207325
  20
 4689.9921185372
  30
0.0
  40
 20.000000000000
 100
AcDbArc
  50
 90.000000000000
  51
 156.42182152181
   0
ARC
   5
13C
 100
AcDbEntity
   8
LEVEL002
 370
13
   6
CONTINUOUS
  62
6
 100
AcDbCircle
  10
 4552.1150891211
  20
 4744.9921185372
  30
0.0
  40
 117.50000000000
 100
AcDbArc
  50
 293.57817847824
  51
 336.42182152184
   0
LINE
   5
13D
 100
AcDbEntity
   8
LEVEL002
 370
13
 100
AcDbLine
   6
CONTINUOUS
  62
6
  10
 4678.1359207323
  20
 4779.9921185372
  30
0.0
  11
 4894.6150891211
  21
 4779.9921185372
  31
0.0
   0
ARC
   5
13E
 100
AcDbEntity
   8
LEVEL002
 370
13
   6
CONTINUOUS
  62
6
 100
AcDbCircle
  10
 4678.1359207323
  20
 4799.9921185372
  30
0.0
  40
 20.000000000000
 100
AcDbArc
  50
 203.57817847825
  51
 270.00000000000
   0
LINE
   5
13F
 100
AcDbEntity
   8
LEVEL002
 370
13
 100
AcDbLine
   6
CONTINUOUS
  62
7
  10
 4678.1359207323
  20
 4762.4921185372
  30
0.0
  11
 4894.6150891211
  21
 4762.4921185372
  31
0.0
   0
ARC
   5
140
 100
AcDbEntity
   8
LEVEL002
 370
13
   6
CONTINUOUS
  62
7
 100
AcDbCircle
  10
 4678.1359207323
  20
 4799.9921185372
  30
0.0
  40
 37.500000000000
 100
AcDbArc
  50
 203.57817847823
  51
 270.00000000000
   0
LINE
   5
141
 100
AcDbEntity
   8
LEVEL002
 370
13
 100
AcDbLine
   6
CONTINUOUS
  62
7
  10
 4894.6150891211
  20
 4727.4921185372
  30
0.0
  11
 4678.1359207325
  21
 4727.4921185372
  31
0.0
   0
ARC
   5
142
 100
AcDbEntity
   8
LEVEL002
 370
13
   6
CONTINUOUS
  62
7
 100
AcDbCircle
  10
 4678.1359207325
  20
 4689.9921185372
  30
0.0
  40
 37.500000000000
 100
AcDbArc
  50
 90.000000000000
  51
 156.42182152183
   0
LINE
   5
143
 100
AcDbEntity
   8
LEVEL002
 370
13
 100
AcDbLine
   6
CONTINUOUS
  62
7
  10
 4569.6150891211
  20
 4618.9712869258
  30
0.0
  11
 4569.6150891211
  21
 4402.4921185372
  31
0.0
   0
ARC
   5
144
 100
AcDbEntity
   8
LEVEL002
 370
13
   6
CONTINUOUS
  62
7
 100
AcDbCircle
  10
 4607.1150891211
  20
 4618.9712869258
  30
0.0
  40
 37.500000000000
 100
AcDbArc
  50
 113.57817847823
  51
 180.00000000000
   0
ARC
   5
145
 100
AcDbEntity
   8
LEVEL002
 370
13
   6
CONTINUOUS
  62
7
 100
AcDbCircle
  10
 4552.1150891211
  20
 4744.9921185372
  30
0.0
  40
 100.00000000000
 100
AcDbArc
  50
 293.57817847824
  51
 336.42182152184
   0
LINE
   5
146
 100
AcDbEntity
   8
LEVEL002
 370
13
 100
AcDbLine
   6
CONTINUOUS
  62
7
  10
 4534.6150891211
  20
 4402.4921185372
  30
0.0
  11
 4534.6150891211
  21
 4618.9712869258
  31
0.0
   0
ARC
   5
147
 100
AcDbEntity
   8
LEVEL002
 370
13
   6
CONTINUOUS
  62
7
 100
AcDbCircle
  10
 4497.1150891211
  20
 4618.9712869258
  30
0.0
  40
 37.500000000000
 100
AcDbArc
  50
0.0
  51
 66.421821521841
   0
LINE
   5
148
 100
AcDbEntity
   8
LEVEL002
 370
13
 100
AcDbLine
   6
CONTINUOUS
  62
7
  10
 4426.0942575099
  20
 4727.4921185370
  30
0.0
  11
 4209.6150891211
  21
 4727.4921185370
  31
0.0
   0
ARC
   5
149
 100
AcDbEntity
   8
LEVEL002
 370
13
   6
CONTINUOUS
  62
7
 100
AcDbCircle
  10
 4426.0942575099
  20
 4689.9921185370
  30
0.0
  40
 37.500000000000
 100
AcDbArc
  50
 23.578178478223
  51
 90.000000000000
   0
ARC
   5
14A
 100
AcDbEntity
   8
LEVEL002
 370
13
   6
CONTINUOUS
  62
7
 100
AcDbCircle
  10
 4552.1150891211
  20
 4744.9921185372
  30
0.0
  40
 100.00000000000
 100
AcDbArc
  50
 203.57817847823
  51
 246.42182152183
   0
LINE
   5
14B
 100
AcDbEntity
   8
LEVEL002
 370
13
 100
AcDbLine
   6
CONTINUOUS
  62
7
  10
 4209.6150891211
  20
 4762.4921185370
  30
0.0
  11
 4426.0942575097
  21
 4762.4921185370
  31
0.0
   0
ARC
   5
14C
 100
AcDbEntity
   8
LEVEL002
 370
13
   6
CONTINUOUS
  62
7
 100
AcDbCircle
  10
 4426.0942575097
  20
 4799.9921185370
  30
0.0
  40
 37.500000000000
 100
AcDbArc
  50
 270.00000000000
  51
 336.42182152183
   0
LINE
   5
14D
 100
AcDbEntity
   8
LEVEL002
 370
13
 100
AcDbLine
   6
CONTINUOUS
  62
7
  10
 4534.6150891211
  20
 4871.0129501484
  30
0.0
  11
 4534.6150891211
  21
 5087.4921185372
  31
0.0
   0
ARC
   5
14E
 100
AcDbEntity
   8
LEVEL002
 370
13
   6
CONTINUOUS
  62
7
 100
AcDbCircle
  10
 4497.1150891211
  20
 4871.0129501484
  30
0.0
  40
 37.500000000000
 100
AcDbArc
  50
 293.57817847822
  51
0.0
   0
ARC
   5
14F
 100
AcDbEntity
   8
LEVEL002
 370
13
   6
CONTINUOUS
  62
7
 100
AcDbCircle
  10
 4552.1150891211
  20
 4744.9921185372
  30
0.0
  40
 100.00000000000
 100
AcDbArc
  50
 113.57817847824
  51
 156.42182152184
   0
LINE
   5
150
 100
AcDbEntity
   8
LEVEL002
 370
13
 100
AcDbLine
   6
CONTINUOUS
  62
7
  10
 4569.6150891211
  20
 5087.4921185372
  30
0.0
  11
 4569.6150891211
  21
 4871.0129501484
  31
0.0
   0
ARC
   5
151
 100
AcDbEntity
   8
LEVEL002
 370
13
   6
CONTINUOUS
  62
7
 100
AcDbCircle
  10
 4607.1150891211
  20
 4871.0129501484
  30
0.0
  40
 37.500000000000
 100
AcDbArc
  50
 180.00000000000
  51
 246.42182152184
   0
ARC
   5
152
 100
AcDbEntity
   8
LEVEL002
 370
13
   6
CONTINUOUS
  62
7
 100
AcDbCircle
  10
 4552.1150891211
  20
 4744.9921185372
  30
0.0
  40
 100.00000000000
 100
AcDbArc
  50
 23.578178478249
  51
 66.421821521837
   0
LINE
   5
153
 100
AcDbEntity
   8
LEVEL002
 370
13
 100
AcDbLine
   6
CONTINUOUS
  62
6
  10
 4587.1150891211
  20
 5087.4921185372
  30
0.0
  11
 4587.1150891211
  21
 4871.0129501484
  31
0.0
   0
ARC
   5
154
 100
AcDbEntity
   8
LEVEL002
 370
13
   6
CONTINUOUS
  62
6
 100
AcDbCircle
  10
 4607.1150891211
  20
 4871.0129501484
  30
0.0
  40
 20.000000000000
 100
AcDbArc
  50
 180.00000000000
  51
 246.42182152182
   0
ARC
   5
155
 100
AcDbEntity
   8
LEVEL002
 370
13
   6
CONTINUOUS
  62
6
 100
AcDbCircle
  10
 4552.1150891211
  20
 4744.9921185372
  30
0.0
  40
 117.50000000000
 100
AcDbArc
  50
 23.578178478249
  51
 66.421821521845
   0
CIRCLE
   5
156
 100
AcDbEntity
   8
LEVEL002
 370
13
 100
AcDbCircle
   6
CONTINUOUS
  62
7
  10
 4552.1150891211
  20
 4744.9921185372
  30
0.0
  40
 407.50000000000
   0
CIRCLE
   5
157
 100
AcDbEntity
   8
LEVEL002
 370
13
 100
AcDbCircle
   6
CONTINUOUS
  62
7
  10
 4552.1150891211
  20
 4744.9921185372
  30
0.0
  40
 405.00000000000
   0
CIRCLE
   5
158
 100
AcDbEntity
   8
LEVEL002
 370
13
 100
AcDbCircle
   6
CONTINUOUS
  62
7
  10
 4552.1150891211
  20
 4744.9921185372
  30
0.0
  40
 412.50000000000
   0
LINE
   5
159
 100
AcDbEntity
   8
LEVEL002
 370
13
 100
AcDbLine
   6
DASHDOT
  62
6
  10
 4502.1150891211
  20
 4809.9921185372
  30
0.0
  11
 4502.1150891211
  21
 4779.9921185372
  31
0.0
   0
LINE
   5
15A
 100
AcDbEntity
   8
LEVEL002
 370
13
 100
AcDbLine
   6
DASHDOT
  62
6
  10
 4487.1150891211
  20
 4794.9921185372
  30
0.0
  11
 4517.1150891211
  21
 4794.9921185372
  31
0.0
   0
LINE
   5
15B
 100
AcDbEntity
   8
LEVEL002
 370
13
 100
AcDbLine
   6
DASHDOT
  62
6
  10
 4502.1150891211
  20
 4709.9921185372
  30
0.0
  11
 4502.1150891211
  21
 4679.9921185372
  31
0.0
   0
LINE
   5
15C
 100
AcDbEntity
   8
LEVEL002
 370
13
 100
AcDbLine
   6
DASHDOT
  62
6
  10
 4487.1150891211
  20
 4694.9921185372
  30
0.0
  11
 4517.1150891211
  21
 4694.9921185372
  31
0.0
   0
LINE
   5
15D
 100
AcDbEntity
   8
LEVEL002
 370
13
 100
AcDbLine
   6
DASHDOT
  62
6
  10
 4602.1150891211
  20
 4709.9921185372
  30
0.0
  11
 4602.1150891211
  21
 4679.9921185372
  31
0.0
   0
LINE
   5
15E
 100
AcDbEntity
   8
LEVEL002
 370
13
 100
AcDbLine
   6
DASHDOT
  62
6
  10
 4587.1150891211
  20
 4694.9921185372
  30
0.0
  11
 4617.1150891211
  21
 4694.9921185372
  31
0.0
   0
LINE
   5
15F
 100
AcDbEntity
   8
LEVEL002
 370
13
 100
AcDbLine
   6
DASHDOT
  62
6
  10
 4602.1150891211
  20
 4809.9921185372
  30
0.0
  11
 4602.1150891211
  21
 4779.9921185372
  31
0.0
   0
LINE
   5
160
 100
AcDbEntity
   8
LEVEL002
 370
13
 100
AcDbLine
   6
DASHDOT
  62
6
  10
 4587.1150891211
  20
 4794.9921185372
  30
0.0
  11
 4617.1150891211
  21
 4794.9921185372
  31
0.0
   0
LINE
   5
161
 100
AcDbEntity
   8
LEVEL002
 370
13
 100
AcDbLine
   6
DASHDOT
  62
6
  10
 4077.1150891211
  20
 4744.9921185372
  30
0.0
  11
 5027.1150891211
  21
 4744.9921185372
  31
0.0
   0
LINE
   5
162
 100
AcDbEntity
   8
LEVEL002
 370
13
 100
AcDbLine
   6
DASHDOT
  62
6
  10
 4552.1150891211
  20
 5219.9921185372
  30
0.0
  11
 4552.1150891211
  21
 4269.9921185372
  31
0.0
   0
CIRCLE
   5
163
 100
AcDbEntity
   8
LEVEL002
 370
13
 100
AcDbCircle
   6
CONTINUOUS
  62
3
  10
 4502.1150891211
  20
 4794.9921185372
  30
0.0
  40
 7.0000000000000
   0
CIRCLE
   5
164
 100
AcDbEntity
   8
LEVEL002
 370
13
 100
AcDbCircle
   6
CONTINUOUS
  62
3
  10
 4502.1150891211
  20
 4694.9921185372
  30
0.0
  40
 7.0000000000000
   0
CIRCLE
   5
165
 100
AcDbEntity
   8
LEVEL002
 370
13
 100
AcDbCircle
   6
CONTINUOUS
  62
3
  10
 4602.1150891211
  20
 4794.9921185372
  30
0.0
  40
 7.0000000000000
   0
CIRCLE
   5
166
 100
AcDbEntity
   8
LEVEL002
 370
13
 100
AcDbCircle
   6
CONTINUOUS
  62
3
  10
 4602.1150891211
  20
 4694.9921185372
  30
0.0
  40
 7.0000000000000
   0
CIRCLE
   5
167
 100
AcDbEntity
   8
LEVEL002
 370
13
 100
AcDbCircle
   6
CONTINUOUS
  62
1
  10
 4102.1150891211
  20
 4394.9921185372
  30
0.0
  40
 69.999997913838
   0
MTEXT
   5
168
 100
AcDbEntity
   8
LEVEL002
 370
13
  62
1
 100
AcDbMText
  10
 4102.1150891211
  20
 4394.9921185372
  30
0.0
  40
 57.142857142858
  41
0.0
  71
5
  72
1
   1
\T1.000000;2
   7
GMM001
  44
 0.79999984000003
   0
LEADER
   5
169
 100
AcDbEntity
   8
LEVEL002
 370
13
   6
CONTINUOUS
  62
1
 100
AcDbLeader
   3
GMM001
  73
3
  74
1
  75
0
  40
 66.000000000000
  41
0.0
  76
2
  10
 4275.0151350439
  20
 4570.4672779182
  30
0.0
  10
 4152.1150891211
  20
 4443.9819104120
  30
0.0
  77
1
   0
ARC
   5
16A
 100
AcDbEntity
   8
LEVEL002
 370
13
   6
CONTINUOUS
  62
7
 100
AcDbCircle
  10
 1622.1147820100
  20
 4192.4921185372
  30
0.0
  40
 20.000000000000
 100
AcDbArc
  50
0.0
  51
 90.000000000000
   0
LINE
   5
16B
 100
AcDbEntity
   8
LEVEL002
 370
13
 100
AcDbLine
   6
CONTINUOUS
  62
7
  10
 1622.1147820100
  20
 4212.4921185372
  30
0.0
  11
 1482.1173978497
  21
 4212.4921185372
  31
0.0
   0
ARC
   5
16C
 100
AcDbEntity
   8
LEVEL002
 370
13
   6
CONTINUOUS
  62
7
 100
AcDbCircle
  10
 1482.1173978497
  20
 4192.4921185372
  30
0.0
  40
 20.000000000000
 100
AcDbArc
  50
 90.000000000000
  51
 180.00000000000
   0
LINE
   5
16D
 100
AcDbEntity
   8
LEVEL002
 370
13
 100
AcDbLine
   6
CONTINUOUS
  62
7
  10
 1462.1173978497
  20
 4192.4921185372
  30
0.0
  11
 1462.1173978497
  21
 3632.4913337914
  31
0.0
   0
LINE
   5
16E
 100
AcDbEntity
   8
LEVEL002
 370
13
 100
AcDbLine
   6
CONTINUOUS
  62
7
  10
 1642.1147820100
  20
 3632.4913337914
  30
0.0
  11
 1642.1147820100
  21
 4192.4921185372
  31
0.0
   0
ARC
   5
16F
 100
AcDbEntity
   8
LEVEL002
 370
13
   6
CONTINUOUS
  62
7
 100
AcDbCircle
  10
 1615.8727541849
  20
 3768.9129926216
  30
0.0
  40
 4.7515310421130
 100
AcDbArc
  50
 274.70409570319
  51
 59.112293256479
   0
LINE
   5
170
 100
AcDbEntity
   8
LEVEL002
 370
13
 100
AcDbLine
   6
CONTINUOUS
  62
7
  10
 1482.1173978497
  20
 3612.4913337914
  30
0.0
  11
 1622.1147820100
  21
 3612.4913337914
  31
0.0
   0
ARC
   5
171
 100
AcDbEntity
   8
LEVEL002
 370
13
   6
CONTINUOUS
  62
7
 100
AcDbCircle
  10
 1622.1147820100
  20
 3632.4913337914
  30
0.0
  40
 20.000000000000
 100
AcDbArc
  50
 270.00000000000
  51
0.0
   0
ARC
   5
172
 100
AcDbEntity
   8
LEVEL002
 370
13
   6
CONTINUOUS
  62
7
 100
AcDbCircle
  10
 1482.1173978497
  20
 3632.4913337914
  30
0.0
  40
 20.000000000000
 100
AcDbArc
  50
 180.00000000000
  51
 270.00000000000
   0
LINE
   5
173
 100
AcDbEntity
   8
LEVEL002
 370
13
 100
AcDbLine
   6
CONTINUOUS
  62
7
  10
 1507.5650891211
  20
 3612.4913337914
  30
0.0
  11
 1507.5650891211
  21
 612.49211853719
  31
0.0
   0
LINE
   5
174
 100
AcDbEntity
   8
LEVEL002
 370
13
 100
AcDbLine
   6
CONTINUOUS
  62
7
  10
 1507.5650891211
  20
 612.49211853719
  30
0.0
  11
 1596.6650891211
  21
 612.49211853719
  31
0.0
   0
LINE
   5
175
 100
AcDbEntity
   8
LEVEL002
 370
13
 100
AcDbLine
   6
CONTINUOUS
  62
7
  10
 1596.6650891211
  20
 612.49211853719
  30
0.0
  11
 1596.6650891211
  21
 3612.4913337914
  31
0.0
   0
LINE
   5
176
 100
AcDbEntity
   8
LEVEL002
 370
13
 100
AcDbLine
   6
CONTINUOUS
  62
6
  10
 1594.6536598363
  20
 4763.3251804794
  30
0.0
  11
 1594.9723658008
  21
 4762.5664816386
  31
0.0
   0
LINE
   5
177
 100
AcDbEntity
   8
LEVEL002
 370
13
 100
AcDbLine
   6
CONTINUOUS
  62
6
  10
 1594.6798144660
  20
 4748.3874431586
  30
0.0
  11
 1594.6536598363
  21
 4748.3251804794
  31
0.0
   0
LINE
   5
178
 100
AcDbEntity
   8
LEVEL002
 370
13
 100
AcDbLine
   6
CONTINUOUS
  62
7
  10
 1507.5650891211
  20
 1019.9921185372
  30
0.0
  11
 1435.7150710354
  21
 1019.9921185372
  31
0.0
   0
LINE
   5
179
 100
AcDbEntity
   8
LEVEL002
 370
13
 100
AcDbLine
   6
CONTINUOUS
  62
7
  10
 1435.7150710354
  20
 1019.9921185372
  30
0.0
  11
 1435.7150710354
  21
 1004.9921185372
  31
0.0
   0
LINE
   5
17A
 100
AcDbEntity
   8
LEVEL002
 370
13
 100
AcDbLine
   6
CONTINUOUS
  62
7
  10
 1435.7150710354
  20
 1004.9921185372
  30
0.0
  11
 1507.5650891211
  21
 1004.9921185372
  31
0.0
   0
LINE
   5
17B
 100
AcDbEntity
   8
LEVEL002
 370
13
 100
AcDbLine
   6
CONTINUOUS
  62
7
  10
 1596.6650891211
  20
 1019.9921185372
  30
0.0
  11
 1668.5150710355
  21
 1019.9921185372
  31
0.0
   0
LINE
   5
17C
 100
AcDbEntity
   8
LEVEL002
 370
13
 100
AcDbLine
   6
CONTINUOUS
  62
7
  10
 1668.5150710355
  20
 1019.9921185372
  30
0.0
  11
 1668.5150710355
  21
 1004.9921185372
  31
0.0
   0
LINE
   5
17D
 100
AcDbEntity
   8
LEVEL002
 370
13
 100
AcDbLine
   6
CONTINUOUS
  62
7
  10
 1668.5150710355
  20
 1004.9921185372
  30
0.0
  11
 1596.6650891211
  21
 1004.9921185372
  31
0.0
   0
LINE
   5
17E
 100
AcDbEntity
   8
LEVEL002
 370
13
 100
AcDbLine
   6
DASHDOT
  62
6
  10
 1485.7150710354
  20
 1012.4921185372
  30
0.0
  11
 1618.5150710355
  21
 1012.4921185372
  31
0.0
   0
CIRCLE
   5
17F
 100
AcDbEntity
   8
LEVEL002
 370
13
 100
AcDbCircle
   6
CONTINUOUS
  62
7
  10
 1552.1150553190
  20
 912.49211853719
  30
0.0
  40
 7.5000000000000
   0
LINE
   5
180
 100
AcDbEntity
   8
LEVEL002
 370
13
 100
AcDbLine
   6
DASHDOT
  62
6
  10
 1522.1150553190
  20
 912.49211853719
  30
0.0
  11
 1582.1150553190
  21
 912.49211853719
  31
0.0
   0
LINE
   5
181
 100
AcDbEntity
   8
LEVEL002
 370
13
 100
AcDbLine
   6
CONTINUOUS
  62
7
  10
 3207.5650891211
  20
 3699.9921182554
  30
0.0
  11
 3207.5650891211
  21
 612.49211853719
  31
0.0
   0
LINE
   5
182
 100
AcDbEntity
   8
LEVEL002
 370
13
 100
AcDbLine
   6
CONTINUOUS
  62
7
  10
 3207.5650891211
  20
 612.49211853719
  30
0.0
  11
 3296.6650891211
  21
 612.49211853719
  31
0.0
   0
LINE
   5
183
 100
AcDbEntity
   8
LEVEL002
 370
13
 100
AcDbLine
   6
CONTINUOUS
  62
7
  10
 3296.6650891211
  20
 612.49211853719
  30
0.0
  11
 3296.6650891211
  21
 3699.9921182554
  31
0.0
   0
LINE
   5
184
 100
AcDbEntity
   8
LEVEL002
 370
13
 100
AcDbLine
   6
CONTINUOUS
  62
7
  10
 3207.5650891211
  20
 919.99211853719
  30
0.0
  11
 3135.7150710355
  21
 919.99211853719
  31
0.0
   0
LINE
   5
185
 100
AcDbEntity
   8
LEVEL002
 370
13
 100
AcDbLine
   6
CONTINUOUS
  62
7
  10
 3135.7150710355
  20
 919.99211853719
  30
0.0
  11
 3135.7150710355
  21
 904.99211853719
  31
0.0
   0
LINE
   5
186
 100
AcDbEntity
   8
LEVEL002
 370
13
 100
AcDbLine
   6
CONTINUOUS
  62
7
  10
 3135.7150710355
  20
 904.99211853719
  30
0.0
  11
 3207.5650891211
  21
 904.99211853719
  31
0.0
   0
LINE
   5
187
 100
AcDbEntity
   8
LEVEL002
 370
13
 100
AcDbLine
   6
CONTINUOUS
  62
7
  10
 3296.6650891211
  20
 919.99211853719
  30
0.0
  11
 3368.5150710355
  21
 919.99211853719
  31
0.0
   0
LINE
   5
188
 100
AcDbEntity
   8
LEVEL002
 370
13
 100
AcDbLine
   6
CONTINUOUS
  62
7
  10
 3368.5150710355
  20
 919.99211853719
  30
0.0
  11
 3368.5150710355
  21
 904.99211853719
  31
0.0
   0
LINE
   5
189
 100
AcDbEntity
   8
LEVEL002
 370
13
 100
AcDbLine
   6
CONTINUOUS
  62
7
  10
 3368.5150710355
  20
 904.99211853719
  30
0.0
  11
 3296.6650891211
  21
 904.99211853719
  31
0.0
   0
CIRCLE
   5
18A
 100
AcDbEntity
   8
LEVEL002
 370
13
 100
AcDbCircle
   6
CONTINUOUS
  62
7
  10
 3252.1150891211
  20
 1012.4921185372
  30
0.0
  40
 7.5000000000000
   0
LINE
   5
18B
 100
AcDbEntity
   8
LEVEL002
 370
13
 100
AcDbLine
   6
DASHDOT
  62
6
  10
 3222.1150891211
  20
 1012.4921185372
  30
0.0
  11
 3282.1150891211
  21
 1012.4921185372
  31
0.0
   0
LINE
   5
18C
 100
AcDbEntity
   8
LEVEL002
 370
13
 100
AcDbLine
   6
DASHDOT
  62
6
  10
 3185.7150891211
  20
 912.49211853719
  30
0.0
  11
 3318.5150891211
  21
 912.49211853719
  31
0.0
   0
CIRCLE
   5
18D
 100
AcDbEntity
   8
LEVEL002
 370
13
 100
AcDbCircle
   6
CONTINUOUS
  62
1
  10
 2870.7150891211
  20
 762.49211853719
  30
0.0
  40
 70.000000000000
   0
MTEXT
   5
18E
 100
AcDbEntity
   8
LEVEL002
 370
13
  62
1
 100
AcDbMText
  10
 2870.7150891211
  20
 762.49211853719
  30
0.0
  40
 57.142857142858
  41
0.0
  71
5
  72
1
   1
\T1.000000;12
   7
GMM001
  44
 0.79999984000003
   0
LEADER
   5
18F
 100
AcDbEntity
   8
LEVEL002
 370
13
   6
CONTINUOUS
  62
1
 100
AcDbLeader
   3
GMM002
  73
3
  74
1
  75
0
  40
 60.000000000000
  41
0.0
  76
2
  10
 3135.7150710355
  20
 904.99211853719
  30
0.0
  10
 2932.3667312611
  20
 795.64441893159
  30
0.0
  77
1
   0
LINE
   5
190
 100
AcDbEntity
   8
LEVEL002
 370
13
 100
AcDbLine
   6
CONTINUOUS
  62
7
  10
 3296.6650891211
  20
 5016.4921185372
  30
0.0
  11
 3207.5650891211
  21
 5016.4921185372
  31
0.0
   0
LINE
   5
191
 100
AcDbEntity
   8
LEVEL002
 370
13
 100
AcDbLine
   6
CONTINUOUS
  62
7
  10
 3207.5650891211
  20
 5016.4921185372
  30
0.0
  11
 3207.5650891211
  21
 5013.4921185372
  31
0.0
   0
LINE
   5
192
 100
AcDbEntity
   8
LEVEL002
 370
13
 100
AcDbLine
   6
CONTINUOUS
  62
7
  10
 3207.5650891211
  20
 5013.4921185372
  30
0.0
  11
 3296.6650891211
  21
 5013.4921185372
  31
0.0
   0
LINE
   5
193
 100
AcDbEntity
   8
LEVEL002
 370
13
 100
AcDbLine
   6
CONTINUOUS
  62
7
  10
 3296.6650891211
  20
 5013.4921185372
  30
0.0
  11
 3296.6650891211
  21
 5016.4921185372
  31
0.0
   0
LINE
   5
194
 100
AcDbEntity
   8
LEVEL002
 370
13
 100
AcDbLine
   6
DOT
  62
1
  10
 3291.6650891211
  20
 5013.4921185372
  30
0.0
  11
 3291.6650891211
  21
 4986.4921185372
  31
0.0
   0
LINE
   5
195
 100
AcDbEntity
   8
LEVEL002
 370
13
 100
AcDbLine
   6
DOT
  62
1
  10
 3291.6650891211
  20
 4986.4921185372
  30
0.0
  11
 3212.5650891211
  21
 4986.4921185372
  31
0.0
   0
LINE
   5
196
 100
AcDbEntity
   8
LEVEL002
 370
13
 100
AcDbLine
   6
DOT
  62
1
  10
 3212.5650891211
  20
 4986.4921185372
  30
0.0
  11
 3212.5650891211
  21
 5013.4921185372
  31
0.0
   0
LINE
   5
197
 100
AcDbEntity
   8
LEVEL002
 370
13
 100
AcDbLine
   6
CONTINUOUS
  62
7
  10
 3195.1354205181
  20
 4212.4921185372
  30
0.0
  11
 3192.4215137547
  21
 4205.7073516284
  31
0.0
   0
ARC
   5
198
 100
AcDbEntity
   8
LEVEL002
 370
13
   6
CONTINUOUS
  62
7
 100
AcDbCircle
  10
 3197.0638972091
  20
 4203.8503982466
  30
0.0
  40
 5.0000000000000
 100
AcDbArc
  50
 158.19859051356
  51
 180.00000000000
   0
LINE
   5
199
 100
AcDbEntity
   8
LEVEL002
 370
13
 100
AcDbLine
   6
CONTINUOUS
  62
7
  10
 3192.0638972091
  20
 4203.8503982466
  30
0.0
  11
 3192.0638972091
  21
 3621.1338388262
  31
0.0
   0
ARC
   5
19A
 100
AcDbEntity
   8
LEVEL002
 370
13
   6
CONTINUOUS
  62
7
 100
AcDbCircle
  10
 3191.0638972091
  20
 4196.6444720782
  30
0.0
  40
 5.0000000000000
 100
AcDbArc
  50
 0.16675266528351E-9
  51
 21.801409486445
   0
LINE
   5
19B
 100
AcDbEntity
   8
LEVEL002
 370
13
 100
AcDbLine
   6
CONTINUOUS
  62
7
  10
 3193.9040098087
  20
 4203.0071025966
  30
0.0
  11
 3195.7062806635
  21
 4198.5014254598
  31
0.0
   0
ARC
   5
19C
 100
AcDbEntity
   8
LEVEL002
 370
13
   6
CONTINUOUS
  62
7
 100
AcDbCircle
  10
 3198.5463932633
  20
 4204.8640559784
  30
0.0
  40
 5.0000000000000
 100
AcDbArc
  50
 158.19859051352
  51
 201.80140948648
   0
LINE
   5
19D
 100
AcDbEntity
   8
LEVEL002
 370
13
 100
AcDbLine
   6
CONTINUOUS
  62
7
  10
 3195.1354205181
  20
 4212.4921185372
  30
0.0
  11
 3196.0638972091
  21
 4212.1207278608
  31
0.0
   0
LINE
   5
19E
 100
AcDbEntity
   8
LEVEL002
 370
13
 100
AcDbLine
   6
CONTINUOUS
  62
7
  10
 3196.0638972091
  20
 4212.1207278608
  30
0.0
  11
 3193.9040098087
  21
 4206.7210093602
  31
0.0
   0
LINE
   5
19F
 100
AcDbEntity
   8
LEVEL002
 370
13
 100
AcDbLine
   6
CONTINUOUS
  62
7
  10
 3196.0638972091
  20
 4196.6444720782
  30
0.0
  11
 3196.0638972091
  21
 3628.3397649946
  31
0.0
   0
LINE
   5
1A0
 100
AcDbEntity
   8
LEVEL002
 370
13
 100
AcDbLine
   6
CONTINUOUS
  62
7
  10
 3548.1452151257
  20
 4689.9921185372
  30
0.0
  11
 3298.1452151257
  21
 4689.9921185372
  31
0.0
   0
LINE
   5
1A1
 100
AcDbEntity
   8
LEVEL002
 370
13
 100
AcDbLine
   6
CONTINUOUS
  62
7
  10
 3298.1452151257
  20
 4689.9921185372
  30
0.0
  11
 3298.1452151257
  21
 4629.9921185372
  31
0.0
   0
LINE
   5
1A2
 100
AcDbEntity
   8
LEVEL002
 370
13
 100
AcDbLine
   6
CONTINUOUS
  62
7
  10
 3298.1452151257
  20
 4629.9921185372
  30
0.0
  11
 3548.1452151257
  21
 4629.9921185372
  31
0.0
   0
LINE
   5
1A3
 100
AcDbEntity
   8
LEVEL002
 370
13
 100
AcDbLine
   6
CONTINUOUS
  62
7
  10
 3548.1452151257
  20
 4629.9921185372
  30
0.0
  11
 3548.1452151257
  21
 4689.9921185372
  31
0.0
   0
LINE
   5
1A4
 100
AcDbEntity
   8
LEVEL002
 370
13
 100
AcDbLine
   6
DASHDOT
  62
6
  10
 3584.1192682751
  20
 4834.9921185372
  30
0.0
  11
 3584.1192682751
  21
 4594.9921185372
  31
0.0
   0
LINE
   5
1A5
 100
AcDbEntity
   8
LEVEL002
 370
13
 100
AcDbLine
   6
CONTINUOUS
  62
7
  10
 3545.9692682751
  20
 4799.9921185372
  30
0.0
  11
 3545.9692682751
  21
 4814.9921185372
  31
0.0
   0
LINE
   5
1A6
 100
AcDbEntity
   8
LEVEL002
 370
13
 100
AcDbLine
   6
CONTINUOUS
  62
7
  10
 3545.9692682751
  20
 4814.9921185372
  30
0.0
  11
 3622.2692682751
  21
 4814.9921185372
  31
0.0
   0
LINE
   5
1A7
 100
AcDbEntity
   8
LEVEL002
 370
13
 100
AcDbLine
   6
CONTINUOUS
  62
7
  10
 3622.2692682751
  20
 4814.9921185372
  30
0.0
  11
 3622.2692682751
  21
 4799.9921185372
  31
0.0
   0
LINE
   5
1A8
 100
AcDbEntity
   8
LEVEL002
 370
13
 100
AcDbLine
   6
CONTINUOUS
  62
7
  10
 3622.2692682751
  20
 4689.9921185372
  30
0.0
  11
 3622.2692682751
  21
 4614.9921185372
  31
0.0
   0
LINE
   5
1A9
 100
AcDbEntity
   8
LEVEL002
 370
13
 100
AcDbLine
   6
CONTINUOUS
  62
7
  10
 3622.2692682751
  20
 4614.9921185372
  30
0.0
  11
 3545.9692682751
  21
 4614.9921185372
  31
0.0
   0
LINE
   5
1AA
 100
AcDbEntity
   8
LEVEL002
 370
13
 100
AcDbLine
   6
CONTINUOUS
  62
7
  10
 3545.9692682751
  20
 4614.9921185372
  30
0.0
  11
 3545.9692682751
  21
 4629.9921185372
  31
0.0
   0
LINE
   5
1AB
 100
AcDbEntity
   8
LEVEL002
 370
13
 100
AcDbLine
   6
CONTINUOUS
  62
7
  10
 3299.8650891211
  20
 4629.9921185372
  30
0.0
  11
 3299.8650891211
  21
 4614.9921185372
  31
0.0
   0
LINE
   5
1AC
 100
AcDbEntity
   8
LEVEL002
 370
13
 100
AcDbLine
   6
CONTINUOUS
  62
7
  10
 3299.8650891211
  20
 4614.9921185372
  30
0.0
  11
 3169.1150806013
  21
 4614.9921185372
  31
0.0
   0
LINE
   5
1AD
 100
AcDbEntity
   8
LEVEL002
 370
13
 100
AcDbLine
   6
CONTINUOUS
  62
7
  10
 3169.1150806013
  20
 4614.9921185372
  30
0.0
  11
 3169.1150806013
  21
 4724.9921185372
  31
0.0
   0
LINE
   5
1AE
 100
AcDbEntity
   8
LEVEL002
 370
13
 100
AcDbLine
   6
CONTINUOUS
  62
7
  10
 3169.1150806013
  20
 4724.9921185372
  30
0.0
  11
 3299.8650891211
  21
 4724.9921185372
  31
0.0
   0
LINE
   5
1AF
 100
AcDbEntity
   8
LEVEL002
 370
13
 100
AcDbLine
   6
CONTINUOUS
  62
7
  10
 3299.8650891211
  20
 4724.9921185372
  30
0.0
  11
 3299.8650891211
  21
 4689.9921185372
  31
0.0
   0
LINE
   5
1B0
 100
AcDbEntity
   8
LEVEL002
 370
13
 100
AcDbLine
   6
CONTINUOUS
  62
7
  10
 3204.3650891211
  20
 4746.4971613402
  30
0.0
  11
 3204.3650891211
  21
 4724.9921185372
  31
0.0
   0
LINE
   5
1B1
 100
AcDbEntity
   8
LEVEL002
 370
13
 100
AcDbLine
   6
CONTINUOUS
  62
7
  10
 3204.3650891211
  20
 4724.9921185372
  30
0.0
  11
 3335.1150976409
  21
 4724.9921185372
  31
0.0
   0
LINE
   5
1B2
 100
AcDbEntity
   8
LEVEL002
 370
13
 100
AcDbLine
   6
CONTINUOUS
  62
7
  10
 3335.1150976409
  20
 4724.9921185372
  30
0.0
  11
 3335.1150976409
  21
 4834.9921185372
  31
0.0
   0
LINE
   5
1B3
 100
AcDbEntity
   8
LEVEL002
 370
13
 100
AcDbLine
   6
CONTINUOUS
  62
7
  10
 3335.1150976409
  20
 4834.9921185372
  30
0.0
  11
 3204.3650891211
  21
 4834.9921185372
  31
0.0
   0
LINE
   5
1B4
 100
AcDbEntity
   8
LEVEL002
 370
13
 100
AcDbLine
   6
CONTINUOUS
  62
7
  10
 3204.3650891211
  20
 4834.9921185372
  30
0.0
  11
 3204.3650891211
  21
 4813.8367355982
  31
0.0
   0
LINE
   5
1B5
 100
AcDbEntity
   8
LEVEL002
 370
13
 100
AcDbLine
   6
CONTINUOUS
  62
7
  10
 3206.0849631165
  20
 4814.7130551688
  30
0.0
  11
 3206.0849631165
  21
 4747.3734809108
  31
0.0
   0
LINE
   5
1B6
 100
AcDbEntity
   8
LEVEL002
 370
13
 100
AcDbLine
   6
CONTINUOUS
  62
7
  10
 3206.0849631165
  20
 4747.3734809108
  30
0.0
  11
 2956.0849631165
  21
 4619.9921185372
  31
0.0
   0
LINE
   5
1B7
 100
AcDbEntity
   8
LEVEL002
 370
13
 100
AcDbLine
   6
CONTINUOUS
  62
7
  10
 2956.0849631165
  20
 4619.9921185372
  30
0.0
  11
 2956.0849631165
  21
 4687.3316927952
  31
0.0
   0
LINE
   5
1B8
 100
AcDbEntity
   8
LEVEL002
 370
13
 100
AcDbLine
   6
CONTINUOUS
  62
7
  10
 2956.0849631165
  20
 4687.3316927952
  30
0.0
  11
 3206.0849631165
  21
 4814.7130551688
  31
0.0
   0
LINE
   5
1B9
 100
AcDbEntity
   8
LEVEL002
 370
13
 100
AcDbLine
   6
DASHDOT
  62
6
  10
 2920.1109099671
  20
 4834.9921185372
  30
0.0
  11
 2920.1109099671
  21
 4594.9921185372
  31
0.0
   0
LINE
   5
1BA
 100
AcDbEntity
   8
LEVEL002
 370
13
 100
AcDbLine
   6
CONTINUOUS
  62
7
  10
 2881.9609099671
  20
 4689.9921185372
  30
0.0
  11
 2881.9609099671
  21
 4614.9921185372
  31
0.0
   0
LINE
   5
1BB
 100
AcDbEntity
   8
LEVEL002
 370
13
 100
AcDbLine
   6
CONTINUOUS
  62
7
  10
 2881.9609099671
  20
 4614.9921185372
  30
0.0
  11
 2958.2609099671
  21
 4614.9921185372
  31
0.0
   0
LINE
   5
1BC
 100
AcDbEntity
   8
LEVEL002
 370
13
 100
AcDbLine
   6
CONTINUOUS
  62
7
  10
 2958.2609099671
  20
 4614.9921185372
  30
0.0
  11
 2958.2609099671
  21
 4621.1008188342
  31
0.0
   0
LINE
   5
1BD
 100
AcDbEntity
   8
LEVEL002
 370
13
 100
AcDbLine
   6
CONTINUOUS
  62
7
  10
 2958.2609099671
  20
 4688.4403930922
  30
0.0
  11
 2958.2609099671
  21
 4689.9921185372
  31
0.0
   0
LINE
   5
1BE
 100
AcDbEntity
   8
LEVEL002
 370
13
 100
AcDbLine
   6
CONTINUOUS
  62
7
  10
 2958.2609099671
  20
 4799.9921185372
  30
0.0
  11
 2958.2609099671
  21
 4814.9921185372
  31
0.0
   0
LINE
   5
1BF
 100
AcDbEntity
   8
LEVEL002
 370
13
 100
AcDbLine
   6
CONTINUOUS
  62
7
  10
 2958.2609099671
  20
 4814.9921185372
  30
0.0
  11
 2881.9609099671
  21
 4814.9921185372
  31
0.0
   0
LINE
   5
1C0
 100
AcDbEntity
   8
LEVEL002
 370
13
 100
AcDbLine
   6
CONTINUOUS
  62
7
  10
 2881.9609099671
  20
 4814.9921185372
  30
0.0
  11
 2881.9609099671
  21
 4799.9921185372
  31
0.0
   0
LINE
   5
1C1
 100
AcDbEntity
   8
LEVEL002
 370
13
 100
AcDbLine
   6
CONTINUOUS
  62
6
  10
 2955.5389366235
  20
 4794.9921185372
  30
0.0
  11
 2955.5389366235
  21
 4694.9921185372
  31
0.0
   0
LINE
   5
1C2
 100
AcDbEntity
   8
LEVEL002
 370
13
 100
AcDbLine
   6
DASHDOT
  62
6
  10
 3020.1109270697
  20
 4744.9921185372
  30
0.0
  11
 2621.2943069303
  21
 4744.9921185372
  31
0.0
   0
LINE
   5
1C3
 100
AcDbEntity
   8
LEVEL002
 370
13
 100
AcDbLine
   6
CONTINUOUS
  62
7
  10
 3207.5650891211
  20
 4834.9921185372
  30
0.0
  11
 3207.5650891211
  21
 5012.4921185372
  31
0.0
   0
LINE
   5
1C4
 100
AcDbEntity
   8
LEVEL002
 370
13
 100
AcDbLine
   6
CONTINUOUS
  62
7
  10
 3207.5650891211
  20
 5012.4921185372
  30
0.0
  11
 3296.6650891211
  21
 5012.4921185372
  31
0.0
   0
LINE
   5
1C5
 100
AcDbEntity
   8
LEVEL002
 370
13
 100
AcDbLine
   6
CONTINUOUS
  62
7
  10
 3296.6650891211
  20
 5012.4921185372
  30
0.0
  11
 3296.6650891211
  21
 4834.9921185372
  31
0.0
   0
LINE
   5
1C6
 100
AcDbEntity
   8
LEVEL002
 370
13
 100
AcDbLine
   6
CONTINUOUS
  62
7
  10
 3296.6650891211
  20
 4614.9921185372
  30
0.0
  11
 3296.6650891211
  21
 4124.9921188172
  31
0.0
   0
LINE
   5
1C7
 100
AcDbEntity
   8
LEVEL002
 370
13
 100
AcDbLine
   6
CONTINUOUS
  62
7
  10
 3207.5650891211
  20
 4124.9921188172
  30
0.0
  11
 3207.5650891211
  21
 4614.9921185372
  31
0.0
   0
LINE
   5
1C8
 100
AcDbEntity
   8
LEVEL002
 370
13
 100
AcDbLine
   6
DASHDOT
  62
6
  10
 2975.1109270697
  20
 4789.9921185372
  30
0.0
  11
 2975.1109270697
  21
 4759.9921185372
  31
0.0
   0
LINE
   5
1C9
 100
AcDbEntity
   8
LEVEL002
 370
13
 100
AcDbLine
   6
DASHDOT
  62
6
  10
 2990.1109270697
  20
 4774.9921185372
  30
0.0
  11
 2960.1109270697
  21
 4774.9921185372
  31
0.0
   0
LINE
   5
1CA
 100
AcDbEntity
   8
LEVEL002
 370
13
 100
AcDbLine
   6
DASHDOT
  62
6
  10
 2975.1109270697
  20
 4729.9921185372
  30
0.0
  11
 2975.1109270697
  21
 4699.9921185372
  31
0.0
   0
LINE
   5
1CB
 100
AcDbEntity
   8
LEVEL002
 370
13
 100
AcDbLine
   6
DASHDOT
  62
6
  10
 2990.1109270697
  20
 4714.9921185372
  30
0.0
  11
 2960.1109270697
  21
 4714.9921185372
  31
0.0
   0
LINE
   5
1CC
 100
AcDbEntity
   8
LEVEL002
 370
13
 100
AcDbLine
   6
DASHDOT
  62
6
  10
 3315.1150976409
  20
 4824.9921185372
  30
0.0
  11
 3315.1150976409
  21
 4794.9921185372
  31
0.0
   0
LINE
   5
1CD
 100
AcDbEntity
   8
LEVEL002
 370
13
 100
AcDbLine
   6
DASHDOT
  62
6
  10
 3330.1150976409
  20
 4809.9921185372
  30
0.0
  11
 3300.1150976409
  21
 4809.9921185372
  31
0.0
   0
LINE
   5
1CE
 100
AcDbEntity
   8
LEVEL002
 370
13
 100
AcDbLine
   6
DASHDOT
  62
6
  10
 3315.1150976409
  20
 4764.9921185372
  30
0.0
  11
 3315.1150976409
  21
 4734.9921185372
  31
0.0
   0
LINE
   5
1CF
 100
AcDbEntity
   8
LEVEL002
 370
13
 100
AcDbLine
   6
DASHDOT
  62
6
  10
 3330.1150976409
  20
 4749.9921185372
  30
0.0
  11
 3300.1150976409
  21
 4749.9921185372
  31
0.0
   0
LINE
   5
1D0
 100
AcDbEntity
   8
LEVEL002
 370
13
 100
AcDbLine
   6
DASHDOT
  62
6
  10
 3189.1150806013
  20
 4714.9921185372
  30
0.0
  11
 3189.1150806013
  21
 4684.9921185372
  31
0.0
   0
LINE
   5
1D1
 100
AcDbEntity
   8
LEVEL002
 370
13
 100
AcDbLine
   6
DASHDOT
  62
6
  10
 3204.1150806013
  20
 4699.9921185372
  30
0.0
  11
 3174.1150806013
  21
 4699.9921185372
  31
0.0
   0
LINE
   5
1D2
 100
AcDbEntity
   8
LEVEL002
 370
13
 100
AcDbLine
   6
DASHDOT
  62
6
  10
 3189.1150806013
  20
 4654.9921185372
  30
0.0
  11
 3189.1150806013
  21
 4624.9921185372
  31
0.0
   0
LINE
   5
1D3
 100
AcDbEntity
   8
LEVEL002
 370
13
 100
AcDbLine
   6
DASHDOT
  62
6
  10
 3204.1150806013
  20
 4639.9921185372
  30
0.0
  11
 3174.1150806013
  21
 4639.9921185372
  31
0.0
   0
LINE
   5
1D4
 100
AcDbEntity
   8
LEVEL002
 370
13
 100
AcDbLine
   6
DASHDOT
  62
6
  10
 2802.3275721027
  20
 4789.9921185372
  30
0.0
  11
 2802.3275721027
  21
 4759.9921185372
  31
0.0
   0
LINE
   5
1D5
 100
AcDbEntity
   8
LEVEL002
 370
13
 100
AcDbLine
   6
DASHDOT
  62
6
  10
 2817.3275721027
  20
 4774.9921185372
  30
0.0
  11
 2787.3275721027
  21
 4774.9921185372
  31
0.0
   0
LINE
   5
1D6
 100
AcDbEntity
   8
LEVEL002
 370
13
 100
AcDbLine
   6
DASHDOT
  62
6
  10
 2802.3275721027
  20
 4729.9921185372
  30
0.0
  11
 2802.3275721027
  21
 4699.9921185372
  31
0.0
   0
LINE
   5
1D7
 100
AcDbEntity
   8
LEVEL002
 370
13
 100
AcDbLine
   6
DASHDOT
  62
6
  10
 2817.3275721027
  20
 4714.9921185372
  30
0.0
  11
 2787.3275721027
  21
 4714.9921185372
  31
0.0
   0
ARC
   5
1D8
 100
AcDbEntity
   8
LEVEL002
 370
13
   6
CONTINUOUS
  62
7
 100
AcDbCircle
  10
 2731.6275721027
  20
 4314.9921185372
  30
0.0
  40
 2.5000000000000
 100
AcDbArc
  50
 180.00000000000
  51
 270.00000000000
   0
LINE
   5
1D9
 100
AcDbEntity
   8
LEVEL002
 370
13
 100
AcDbLine
   6
CONTINUOUS
  62
7
  10
 2729.1275721027
  20
 5174.9921185372
  30
0.0
  11
 2729.1275721027
  21
 4314.9921185372
  31
0.0
   0
ARC
   5
1DA
 100
AcDbEntity
   8
LEVEL002
 370
13
   6
CONTINUOUS
  62
7
 100
AcDbCircle
  10
 2731.6275721027
  20
 5174.9921185372
  30
0.0
  40
 2.5000000000000
 100
AcDbArc
  50
 90.000000000000
  51
 180.00000000000
   0
ARC
   5
1DB
 100
AcDbEntity
   8
LEVEL002
 370
13
   6
CONTINUOUS
  62
7
 100
AcDbCircle
  10
 2731.6275721027
  20
 4314.9921185372
  30
0.0
  40
 2.5000000000000
 100
AcDbArc
  50
 270.00000000000
  51
0.0
   0
LINE
   5
1DC
 100
AcDbEntity
   8
LEVEL002
 370
13
 100
AcDbLine
   6
CONTINUOUS
  62
7
  10
 2734.1275721027
  20
 4314.9921185372
  30
0.0
  11
 2734.1275721027
  21
 5174.9921185372
  31
0.0
   0
ARC
   5
1DD
 100
AcDbEntity
   8
LEVEL002
 370
13
   6
CONTINUOUS
  62
7
 100
AcDbCircle
  10
 2731.6275721027
  20
 5174.9921185372
  30
0.0
  40
 2.5000000000000
 100
AcDbArc
  50
0.0
  51
 90.000000000000
   0
LINE
   5
1DE
 100
AcDbEntity
   8
LEVEL002
 370
13
 100
AcDbLine
   6
CONTINUOUS
  62
7
  10
 2709.7547591569
  20
 4338.8666811264
  30
0.0
  11
 2729.1275721027
  21
 4334.9921185372
  31
0.0
   0
ARC
   5
1DF
 100
AcDbEntity
   8
LEVEL002
 370
13
   6
CONTINUOUS
  62
7
 100
AcDbCircle
  10
 2711.1275721027
  20
 4345.7307458562
  30
0.0
  40
 7.0000000000000
 100
AcDbArc
  50
 180.00000000000
  51
 258.69006752600
   0
LINE
   5
1E0
 100
AcDbEntity
   8
LEVEL002
 370
13
 100
AcDbLine
   6
CONTINUOUS
  62
7
  10
 2704.1275721027
  20
 4797.2917171148
  30
0.0
  11
 2704.1275721027
  21
 4345.7307458562
  31
0.0
   0
ARC
   5
1E1
 100
AcDbEntity
   8
LEVEL002
 370
13
   6
CONTINUOUS
  62
7
 100
AcDbCircle
  10
 5677.3413215665
  20
 4744.9921185372
  30
0.0
  40
 3000.0000000000
 100
AcDbArc
  50
 178.16561308138
  51
 187.66225566077
   0
ARC
   5
1E2
 100
AcDbEntity
   8
LEVEL002
 370
13
   6
HIDDEN
  62
6
 100
AcDbCircle
  10
 5677.3413215665
  20
 4744.9921185372
  30
0.0
  40
 3000.0000000000
 100
AcDbArc
  50
 172.33774433923
  51
 178.16561308138
   0
LINE
   5
1E3
 100
AcDbEntity
   8
LEVEL002
 370
13
 100
AcDbLine
   6
HIDDEN
  62
6
  10
 2704.1275721027
  20
 5144.2534912182
  30
0.0
  11
 2704.1275721027
  21
 4797.2917171148
  31
0.0
   0
LINE
   5
1E4
 100
AcDbEntity
   8
LEVEL002
 370
13
 100
AcDbLine
   6
HIDDEN
  62
6
  10
 2729.1275721027
  20
 5154.9921185372
  30
0.0
  11
 2709.7547591569
  21
 5151.1175559480
  31
0.0
   0
ARC
   5
1E5
 100
AcDbEntity
   8
LEVEL002
 370
13
   6
HIDDEN
  62
6
 100
AcDbCircle
  10
 2711.1275721027
  20
 5144.2534912182
  30
0.0
  40
 7.0000000000000
 100
AcDbArc
  50
 101.30993247400
  51
 180.00000000000
   0
LINE
   5
1E6
 100
AcDbEntity
   8
LEVEL002
 370
13
 100
AcDbLine
   6
CONTINUOUS
  62
3
  10
 2729.1275721027
  20
 4788.6314630770
  30
0.0
  11
 2709.1275721027
  21
 4788.6314630768
  31
0.0
   0
LINE
   5
1E7
 100
AcDbEntity
   8
LEVEL002
 370
13
 100
AcDbLine
   6
CONTINUOUS
  62
3
  10
 2709.1275721027
  20
 4788.6314630768
  30
0.0
  11
 2644.1275721027
  21
 4901.2147655690
  31
0.0
   0
LINE
   5
1E8
 100
AcDbEntity
   8
LEVEL002
 370
13
 100
AcDbLine
   6
CONTINUOUS
  62
3
  10
 2644.1275721027
  20
 4901.2147655690
  30
0.0
  11
 2644.1275721027
  21
 5156.4921185372
  31
0.0
   0
LINE
   5
1E9
 100
AcDbEntity
   8
LEVEL002
 370
13
 100
AcDbLine
   6
CONTINUOUS
  62
3
  10
 2644.1275721027
  20
 5156.4921185372
  30
0.0
  11
 2729.1275721027
  21
 5156.4921185372
  31
0.0
   0
LINE
   5
1EA
 100
AcDbEntity
   8
LEVEL002
 370
13
 100
AcDbLine
   6
CONTINUOUS
  62
7
  10
 2734.1275721027
  20
 4689.9921185372
  30
0.0
  11
 2827.3275721027
  21
 4689.9921185372
  31
0.0
   0
LINE
   5
1EB
 100
AcDbEntity
   8
LEVEL002
 370
13
 100
AcDbLine
   6
CONTINUOUS
  62
7
  10
 2827.3275721027
  20
 4689.9921185372
  30
0.0
  11
 2827.3275721027
  21
 4799.9921185372
  31
0.0
   0
LINE
   5
1EC
 100
AcDbEntity
   8
LEVEL002
 370
13
 100
AcDbLine
   6
CONTINUOUS
  62
7
  10
 2827.3275721027
  20
 4799.9921185372
  30
0.0
  11
 2734.1275721027
  21
 4799.9921185372
  31
0.0
   0
LINE
   5
1ED
 100
AcDbEntity
   8
LEVEL002
 370
13
 100
AcDbLine
   6
DASHDOT
  62
6
  10
 2866.4766947601
  20
 4740.5775323562
  30
0.0
  11
 2836.4766947601
  21
 4740.5775323562
  31
0.0
   0
LINE
   5
1EE
 100
AcDbEntity
   8
LEVEL002
 370
13
 100
AcDbLine
   6
DASHDOT
  62
6
  10
 2851.4766947601
  20
 4755.5775323562
  30
0.0
  11
 2851.4766947601
  21
 4725.5775323562
  31
0.0
   0
LINE
   5
1EF
 100
AcDbEntity
   8
LEVEL002
 370
13
 100
AcDbLine
   6
CONTINUOUS
  62
7
  10
 3775.1026061395
  20
 5174.9921185372
  30
0.0
  11
 3775.1026061395
  21
 4314.9921185372
  31
0.0
   0
ARC
   5
1F0
 100
AcDbEntity
   8
LEVEL002
 370
13
   6
CONTINUOUS
  62
7
 100
AcDbCircle
  10
 3772.6026061395
  20
 5174.9921185372
  30
0.0
  40
 2.5000000000000
 100
AcDbArc
  50
0.0
  51
 90.000000000000
   0
LINE
   5
1F1
 100
AcDbEntity
   8
LEVEL002
 370
13
 100
AcDbLine
   6
CONTINUOUS
  62
7
  10
 3770.1026061395
  20
 4314.9921185372
  30
0.0
  11
 3770.1026061395
  21
 5174.9921185372
  31
0.0
   0
ARC
   5
1F2
 100
AcDbEntity
   8
LEVEL002
 370
13
   6
CONTINUOUS
  62
7
 100
AcDbCircle
  10
 3772.6026061395
  20
 5174.9921185372
  30
0.0
  40
 2.5000000000000
 100
AcDbArc
  50
 90.000000000000
  51
 180.00000000000
   0
ARC
   5
1F3
 100
AcDbEntity
   8
LEVEL002
 370
13
   6
HIDDEN
  62
6
 100
AcDbCircle
  10
 826.88885667568
  20
 4744.9921185372
  30
0.0
  40
 3000.0000000000
 100
AcDbArc
  50
 1.8343869186173
  51
 7.6622556607661
   0
LINE
   5
1F4
 100
AcDbEntity
   8
LEVEL002
 370
13
 100
AcDbLine
   6
HIDDEN
  62
6
  10
 3800.1026061395
  20
 5144.2534912182
  30
0.0
  11
 3800.1026061395
  21
 4797.2917171148
  31
0.0
   0
LINE
   5
1F5
 100
AcDbEntity
   8
LEVEL002
 370
13
 100
AcDbLine
   6
HIDDEN
  62
6
  10
 3775.1026061395
  20
 5154.9921185372
  30
0.0
  11
 3794.4754190853
  21
 5151.1175559480
  31
0.0
   0
ARC
   5
1F6
 100
AcDbEntity
   8
LEVEL002
 370
13
   6
HIDDEN
  62
6
 100
AcDbCircle
  10
 3793.1026061395
  20
 5144.2534912182
  30
0.0
  40
 7.0000000000000
 100
AcDbArc
  50
0.0
  51
 78.690067525945
   0
LINE
   5
1F7
 100
AcDbEntity
   8
LEVEL002
 370
13
 100
AcDbLine
   6
CONTINUOUS
  62
3
  10
 3775.1026061395
  20
 4788.6314630770
  30
0.0
  11
 3795.1026061395
  21
 4788.6314630768
  31
0.0
   0
LINE
   5
1F8
 100
AcDbEntity
   8
LEVEL002
 370
13
 100
AcDbLine
   6
CONTINUOUS
  62
3
  10
 3795.1026061395
  20
 4788.6314630768
  30
0.0
  11
 3860.1026061395
  21
 4901.2147655690
  31
0.0
   0
LINE
   5
1F9
 100
AcDbEntity
   8
LEVEL002
 370
13
 100
AcDbLine
   6
CONTINUOUS
  62
3
  10
 3860.1026061395
  20
 4901.2147655690
  30
0.0
  11
 3860.1026061395
  21
 5156.4921185372
  31
0.0
   0
LINE
   5
1FA
 100
AcDbEntity
   8
LEVEL002
 370
13
 100
AcDbLine
   6
CONTINUOUS
  62
3
  10
 3860.1026061395
  20
 5156.4921185372
  30
0.0
  11
 3775.1026061395
  21
 5156.4921185372
  31
0.0
   0
ARC
   5
1FB
 100
AcDbEntity
   8
LEVEL002
 370
13
   6
CONTINUOUS
  62
7
 100
AcDbCircle
  10
 826.88885667568
  20
 4744.9921185372
  30
0.0
  40
 3000.0000000000
 100
AcDbArc
  50
 352.33774433923
  51
 1.8343869186173
   0
ARC
   5
1FC
 100
AcDbEntity
   8
LEVEL002
 370
13
   6
CONTINUOUS
  62
7
 100
AcDbCircle
  10
 3772.6026061395
  20
 4314.9921185372
  30
0.0
  40
 2.5000000000000
 100
AcDbArc
  50
 270.00000000000
  51
0.0
   0
ARC
   5
1FD
 100
AcDbEntity
   8
LEVEL002
 370
13
   6
CONTINUOUS
  62
7
 100
AcDbCircle
  10
 3772.6026061395
  20
 4314.9921185372
  30
0.0
  40
 2.5000000000000
 100
AcDbArc
  50
 180.00000000000
  51
 270.00000000000
   0
LINE
   5
1FE
 100
AcDbEntity
   8
LEVEL002
 370
13
 100
AcDbLine
   6
CONTINUOUS
  62
7
  10
 3794.4754190853
  20
 4338.8666811264
  30
0.0
  11
 3775.1026061395
  21
 4334.9921185372
  31
0.0
   0
ARC
   5
1FF
 100
AcDbEntity
   8
LEVEL002
 370
13
   6
CONTINUOUS
  62
7
 100
AcDbCircle
  10
 3793.1026061395
  20
 4345.7307458562
  30
0.0
  40
 7.0000000000000
 100
AcDbArc
  50
 281.30993247406
  51
0.0
   0
LINE
   5
200
 100
AcDbEntity
   8
LEVEL002
 370
13
 100
AcDbLine
   6
CONTINUOUS
  62
7
  10
 3800.1026061395
  20
 4797.2917171148
  30
0.0
  11
 3800.1026061395
  21
 4345.7307458562
  31
0.0
   0
LINE
   5
201
 100
AcDbEntity
   8
LEVEL002
 370
13
 100
AcDbLine
   6
CONTINUOUS
  62
7
  10
 2882.3275721027
  20
 4689.9921185372
  30
0.0
  11
 2995.1109270697
  21
 4689.9921185372
  31
0.0
   0
LINE
   5
202
 100
AcDbEntity
   8
LEVEL002
 370
13
 100
AcDbLine
   6
CONTINUOUS
  62
7
  10
 2995.1109270697
  20
 4689.9921185372
  30
0.0
  11
 2995.1109270697
  21
 4799.9921185372
  31
0.0
   0
LINE
   5
203
 100
AcDbEntity
   8
LEVEL002
 370
13
 100
AcDbLine
   6
CONTINUOUS
  62
7
  10
 2995.1109270697
  20
 4799.9921185372
  30
0.0
  11
 2882.3275721027
  21
 4799.9921185372
  31
0.0
   0
LINE
   5
204
 100
AcDbEntity
   8
LEVEL002
 370
13
 100
AcDbLine
   6
CONTINUOUS
  62
7
  10
 2827.3275721027
  20
 4799.9921185372
  30
0.0
  11
 2882.3275721027
  21
 4799.9921185372
  31
0.0
   0
LINE
   5
205
 100
AcDbEntity
   8
LEVEL002
 370
13
 100
AcDbLine
   6
CONTINUOUS
  62
7
  10
 2882.3275721027
  20
 4799.9921185372
  30
0.0
  11
 2882.3275721027
  21
 4689.9921185372
  31
0.0
   0
LINE
   5
206
 100
AcDbEntity
   8
LEVEL002
 370
13
 100
AcDbLine
   6
CONTINUOUS
  62
7
  10
 2882.3275721027
  20
 4689.9921185372
  30
0.0
  11
 2827.3275721027
  21
 4689.9921185372
  31
0.0
   0
LINE
   5
207
 100
AcDbEntity
   8
LEVEL002
 370
13
 100
AcDbLine
   6
CONTINUOUS
  62
3
  10
 2795.3275721027
  20
 4767.9921185372
  30
0.0
  11
 2809.3275721027
  21
 4767.9921185372
  31
0.0
   0
LINE
   5
208
 100
AcDbEntity
   8
LEVEL002
 370
13
 100
AcDbLine
   6
CONTINUOUS
  62
3
  10
 2809.3275721027
  20
 4767.9921185372
  30
0.0
  11
 2809.3275721027
  21
 4781.9921185372
  31
0.0
   0
LINE
   5
209
 100
AcDbEntity
   8
LEVEL002
 370
13
 100
AcDbLine
   6
CONTINUOUS
  62
3
  10
 2809.3275721027
  20
 4781.9921185372
  30
0.0
  11
 2795.3275721027
  21
 4781.9921185372
  31
0.0
   0
LINE
   5
20A
 100
AcDbEntity
   8
LEVEL002
 370
13
 100
AcDbLine
   6
CONTINUOUS
  62
3
  10
 2795.3275721027
  20
 4781.9921185372
  30
0.0
  11
 2795.3275721027
  21
 4767.9921185372
  31
0.0
   0
LINE
   5
20B
 100
AcDbEntity
   8
LEVEL002
 370
13
 100
AcDbLine
   6
CONTINUOUS
  62
3
  10
 2795.3275721027
  20
 4707.9921185372
  30
0.0
  11
 2809.3275721027
  21
 4707.9921185372
  31
0.0
   0
LINE
   5
20C
 100
AcDbEntity
   8
LEVEL002
 370
13
 100
AcDbLine
   6
CONTINUOUS
  62
3
  10
 2809.3275721027
  20
 4707.9921185372
  30
0.0
  11
 2809.3275721027
  21
 4721.9921185372
  31
0.0
   0
LINE
   5
20D
 100
AcDbEntity
   8
LEVEL002
 370
13
 100
AcDbLine
   6
CONTINUOUS
  62
3
  10
 2809.3275721027
  20
 4721.9921185372
  30
0.0
  11
 2795.3275721027
  21
 4721.9921185372
  31
0.0
   0
LINE
   5
20E
 100
AcDbEntity
   8
LEVEL002
 370
13
 100
AcDbLine
   6
CONTINUOUS
  62
3
  10
 2795.3275721027
  20
 4721.9921185372
  30
0.0
  11
 2795.3275721027
  21
 4707.9921185372
  31
0.0
   0
ARC
   5
20F
 100
AcDbEntity
   8
LEVEL002
 370
13
   6
CONTINUOUS
  62
3
 100
AcDbCircle
  10
 2802.3275721027
  20
 4774.9921185372
  30
0.0
  40
 52.000000000000
 100
AcDbArc
  50
 298.73565374499
  51
 325.00000000001
   0
ARC
   5
210
 100
AcDbEntity
   8
LEVEL002
 370
13
   6
CONTINUOUS
  62
3
 100
AcDbCircle
  10
 2851.4766947603
  20
 4740.5775323566
  30
0.0
  40
 8.0000000000000
 100
AcDbArc
  50
 324.99999999587
  51
 144.99999999590
   0
ARC
   5
211
 100
AcDbEntity
   8
LEVEL002
 370
13
   6
CONTINUOUS
  62
3
 100
AcDbCircle
  10
 2802.3275721027
  20
 4774.9921185372
  30
0.0
  40
 68.000000000000
 100
AcDbArc
  50
 291.57057830167
  51
 325.00000000000
   0
LINE
   5
212
 100
AcDbEntity
   8
LEVEL002
 370
13
 100
AcDbLine
   6
CONTINUOUS
  62
3
  10
 2968.1109270697
  20
 4767.9921185372
  30
0.0
  11
 2982.1109270697
  21
 4767.9921185372
  31
0.0
   0
LINE
   5
213
 100
AcDbEntity
   8
LEVEL002
 370
13
 100
AcDbLine
   6
CONTINUOUS
  62
3
  10
 2982.1109270697
  20
 4767.9921185372
  30
0.0
  11
 2982.1109270697
  21
 4781.9921185372
  31
0.0
   0
LINE
   5
214
 100
AcDbEntity
   8
LEVEL002
 370
13
 100
AcDbLine
   6
CONTINUOUS
  62
3
  10
 2982.1109270697
  20
 4781.9921185372
  30
0.0
  11
 2968.1109270697
  21
 4781.9921185372
  31
0.0
   0
LINE
   5
215
 100
AcDbEntity
   8
LEVEL002
 370
13
 100
AcDbLine
   6
CONTINUOUS
  62
3
  10
 2968.1109270697
  20
 4781.9921185372
  30
0.0
  11
 2968.1109270697
  21
 4767.9921185372
  31
0.0
   0
LINE
   5
216
 100
AcDbEntity
   8
LEVEL002
 370
13
 100
AcDbLine
   6
CONTINUOUS
  62
3
  10
 2968.1109270697
  20
 4707.9921185372
  30
0.0
  11
 2982.1109270697
  21
 4707.9921185372
  31
0.0
   0
LINE
   5
217
 100
AcDbEntity
   8
LEVEL002
 370
13
 100
AcDbLine
   6
CONTINUOUS
  62
3
  10
 2982.1109270697
  20
 4707.9921185372
  30
0.0
  11
 2982.1109270697
  21
 4721.9921185372
  31
0.0
   0
LINE
   5
218
 100
AcDbEntity
   8
LEVEL002
 370
13
 100
AcDbLine
   6
CONTINUOUS
  62
3
  10
 2982.1109270697
  20
 4721.9921185372
  30
0.0
  11
 2968.1109270697
  21
 4721.9921185372
  31
0.0
   0
LINE
   5
219
 100
AcDbEntity
   8
LEVEL002
 370
13
 100
AcDbLine
   6
CONTINUOUS
  62
3
  10
 2968.1109270697
  20
 4721.9921185372
  30
0.0
  11
 2968.1109270697
  21
 4707.9921185372
  31
0.0
   0
LINE
   5
21A
 100
AcDbEntity
   8
LEVEL002
 370
13
 100
AcDbLine
   6
CONTINUOUS
  62
6
  10
 3548.6912416187
  20
 4794.9921185372
  30
0.0
  11
 3548.6912416187
  21
 4694.9921185372
  31
0.0
   0
LINE
   5
21B
 100
AcDbEntity
   8
LEVEL002
 370
13
 100
AcDbLine
   6
DASHDOT
  62
6
  10
 3484.1192511725
  20
 4744.9921185372
  30
0.0
  11
 3882.9358713119
  21
 4744.9921185372
  31
0.0
   0
LINE
   5
21C
 100
AcDbEntity
   8
LEVEL002
 370
13
 100
AcDbLine
   6
DASHDOT
  62
6
  10
 3529.1192511725
  20
 4789.9921185372
  30
0.0
  11
 3529.1192511725
  21
 4759.9921185372
  31
0.0
   0
LINE
   5
21D
 100
AcDbEntity
   8
LEVEL002
 370
13
 100
AcDbLine
   6
DASHDOT
  62
6
  10
 3514.1192511725
  20
 4774.9921185372
  30
0.0
  11
 3544.1192511725
  21
 4774.9921185372
  31
0.0
   0
LINE
   5
21E
 100
AcDbEntity
   8
LEVEL002
 370
13
 100
AcDbLine
   6
DASHDOT
  62
6
  10
 3529.1192511725
  20
 4729.9921185372
  30
0.0
  11
 3529.1192511725
  21
 4699.9921185372
  31
0.0
   0
LINE
   5
21F
 100
AcDbEntity
   8
LEVEL002
 370
13
 100
AcDbLine
   6
CONTINUOUS
  62
3
  10
 3536.1192511725
  20
 4767.9921185372
  30
0.0
  11
 3522.1192511725
  21
 4767.9921185372
  31
0.0
   0
LINE
   5
220
 100
AcDbEntity
   8
LEVEL002
 370
13
 100
AcDbLine
   6
CONTINUOUS
  62
3
  10
 3522.1192511725
  20
 4767.9921185372
  30
0.0
  11
 3522.1192511725
  21
 4781.9921185372
  31
0.0
   0
LINE
   5
221
 100
AcDbEntity
   8
LEVEL002
 370
13
 100
AcDbLine
   6
CONTINUOUS
  62
3
  10
 3522.1192511725
  20
 4781.9921185372
  30
0.0
  11
 3536.1192511725
  21
 4781.9921185372
  31
0.0
   0
LINE
   5
222
 100
AcDbEntity
   8
LEVEL002
 370
13
 100
AcDbLine
   6
CONTINUOUS
  62
3
  10
 3536.1192511725
  20
 4781.9921185372
  30
0.0
  11
 3536.1192511725
  21
 4767.9921185372
  31
0.0
   0
LINE
   5
223
 100
AcDbEntity
   8
LEVEL002
 370
13
 100
AcDbLine
   6
CONTINUOUS
  62
3
  10
 3536.1192511725
  20
 4707.9921185372
  30
0.0
  11
 3522.1192511725
  21
 4707.9921185372
  31
0.0
   0
LINE
   5
224
 100
AcDbEntity
   8
LEVEL002
 370
13
 100
AcDbLine
   6
CONTINUOUS
  62
3
  10
 3522.1192511725
  20
 4707.9921185372
  30
0.0
  11
 3522.1192511725
  21
 4721.9921185372
  31
0.0
   0
LINE
   5
225
 100
AcDbEntity
   8
LEVEL002
 370
13
 100
AcDbLine
   6
CONTINUOUS
  62
3
  10
 3522.1192511725
  20
 4721.9921185372
  30
0.0
  11
 3536.1192511725
  21
 4721.9921185372
  31
0.0
   0
LINE
   5
226
 100
AcDbEntity
   8
LEVEL002
 370
13
 100
AcDbLine
   6
CONTINUOUS
  62
3
  10
 3536.1192511725
  20
 4721.9921185372
  30
0.0
  11
 3536.1192511725
  21
 4707.9921185372
  31
0.0
   0
LINE
   5
227
 100
AcDbEntity
   8
LEVEL002
 370
13
 100
AcDbLine
   6
DASHDOT
  62
6
  10
 3514.1192511725
  20
 4714.9921185372
  30
0.0
  11
 3544.1192511725
  21
 4714.9921185372
  31
0.0
   0
LINE
   5
228
 100
AcDbEntity
   8
LEVEL002
 370
13
 100
AcDbLine
   6
DASHDOT
  62
6
  10
 3701.9026061395
  20
 4789.9921185372
  30
0.0
  11
 3701.9026061395
  21
 4759.9921185372
  31
0.0
   0
LINE
   5
229
 100
AcDbEntity
   8
LEVEL002
 370
13
 100
AcDbLine
   6
DASHDOT
  62
6
  10
 3686.9026061395
  20
 4774.9921185372
  30
0.0
  11
 3716.9026061395
  21
 4774.9921185372
  31
0.0
   0
LINE
   5
22A
 100
AcDbEntity
   8
LEVEL002
 370
13
 100
AcDbLine
   6
DASHDOT
  62
6
  10
 3701.9026061395
  20
 4729.9921185372
  30
0.0
  11
 3701.9026061395
  21
 4699.9921185372
  31
0.0
   0
LINE
   5
22B
 100
AcDbEntity
   8
LEVEL002
 370
13
 100
AcDbLine
   6
DASHDOT
  62
6
  10
 3686.9026061395
  20
 4714.9921185372
  30
0.0
  11
 3716.9026061395
  21
 4714.9921185372
  31
0.0
   0
LINE
   5
22C
 100
AcDbEntity
   8
LEVEL002
 370
13
 100
AcDbLine
   6
CONTINUOUS
  62
7
  10
 3770.1026061395
  20
 4689.9921185372
  30
0.0
  11
 3676.9026061395
  21
 4689.9921185372
  31
0.0
   0
LINE
   5
22D
 100
AcDbEntity
   8
LEVEL002
 370
13
 100
AcDbLine
   6
CONTINUOUS
  62
7
  10
 3676.9026061395
  20
 4689.9921185372
  30
0.0
  11
 3676.9026061395
  21
 4799.9921185372
  31
0.0
   0
LINE
   5
22E
 100
AcDbEntity
   8
LEVEL002
 370
13
 100
AcDbLine
   6
CONTINUOUS
  62
7
  10
 3676.9026061395
  20
 4799.9921185372
  30
0.0
  11
 3770.1026061395
  21
 4799.9921185372
  31
0.0
   0
LINE
   5
22F
 100
AcDbEntity
   8
LEVEL002
 370
13
 100
AcDbLine
   6
DASHDOT
  62
6
  10
 3637.7534834821
  20
 4740.5775323562
  30
0.0
  11
 3667.7534834821
  21
 4740.5775323562
  31
0.0
   0
LINE
   5
230
 100
AcDbEntity
   8
LEVEL002
 370
13
 100
AcDbLine
   6
DASHDOT
  62
6
  10
 3652.7534834821
  20
 4755.5775323562
  30
0.0
  11
 3652.7534834821
  21
 4725.5775323562
  31
0.0
   0
LINE
   5
231
 100
AcDbEntity
   8
LEVEL002
 370
13
 100
AcDbLine
   6
CONTINUOUS
  62
7
  10
 3676.9026061395
  20
 4799.9921185372
  30
0.0
  11
 3621.9026061395
  21
 4799.9921185372
  31
0.0
   0
LINE
   5
232
 100
AcDbEntity
   8
LEVEL002
 370
13
 100
AcDbLine
   6
CONTINUOUS
  62
7
  10
 3621.9026061395
  20
 4799.9921185372
  30
0.0
  11
 3621.9026061395
  21
 4689.9921185372
  31
0.0
   0
LINE
   5
233
 100
AcDbEntity
   8
LEVEL002
 370
13
 100
AcDbLine
   6
CONTINUOUS
  62
7
  10
 3621.9026061395
  20
 4689.9921185372
  30
0.0
  11
 3676.9026061395
  21
 4689.9921185372
  31
0.0
   0
LINE
   5
234
 100
AcDbEntity
   8
LEVEL002
 370
13
 100
AcDbLine
   6
CONTINUOUS
  62
3
  10
 3708.9026061395
  20
 4767.9921185372
  30
0.0
  11
 3694.9026061395
  21
 4767.9921185372
  31
0.0
   0
LINE
   5
235
 100
AcDbEntity
   8
LEVEL002
 370
13
 100
AcDbLine
   6
CONTINUOUS
  62
3
  10
 3694.9026061395
  20
 4767.9921185372
  30
0.0
  11
 3694.9026061395
  21
 4781.9921185372
  31
0.0
   0
LINE
   5
236
 100
AcDbEntity
   8
LEVEL002
 370
13
 100
AcDbLine
   6
CONTINUOUS
  62
3
  10
 3694.9026061395
  20
 4781.9921185372
  30
0.0
  11
 3708.9026061395
  21
 4781.9921185372
  31
0.0
   0
LINE
   5
237
 100
AcDbEntity
   8
LEVEL002
 370
13
 100
AcDbLine
   6
CONTINUOUS
  62
3
  10
 3708.9026061395
  20
 4781.9921185372
  30
0.0
  11
 3708.9026061395
  21
 4767.9921185372
  31
0.0
   0
LINE
   5
238
 100
AcDbEntity
   8
LEVEL002
 370
13
 100
AcDbLine
   6
CONTINUOUS
  62
3
  10
 3708.9026061395
  20
 4707.9921185372
  30
0.0
  11
 3694.9026061395
  21
 4707.9921185372
  31
0.0
   0
LINE
   5
239
 100
AcDbEntity
   8
LEVEL002
 370
13
 100
AcDbLine
   6
CONTINUOUS
  62
3
  10
 3694.9026061395
  20
 4707.9921185372
  30
0.0
  11
 3694.9026061395
  21
 4721.9921185372
  31
0.0
   0
LINE
   5
23A
 100
AcDbEntity
   8
LEVEL002
 370
13
 100
AcDbLine
   6
CONTINUOUS
  62
3
  10
 3694.9026061395
  20
 4721.9921185372
  30
0.0
  11
 3708.9026061395
  21
 4721.9921185372
  31
0.0
   0
LINE
   5
23B
 100
AcDbEntity
   8
LEVEL002
 370
13
 100
AcDbLine
   6
CONTINUOUS
  62
3
  10
 3708.9026061395
  20
 4721.9921185372
  30
0.0
  11
 3708.9026061395
  21
 4707.9921185372
  31
0.0
   0
ARC
   5
23C
 100
AcDbEntity
   8
LEVEL002
 370
13
   6
CONTINUOUS
  62
3
 100
AcDbCircle
  10
 3701.9026061395
  20
 4774.9921185372
  30
0.0
  40
 52.000000000000
 100
AcDbArc
  50
 214.99999999999
  51
 241.26434625501
   0
ARC
   5
23D
 100
AcDbEntity
   8
LEVEL002
 370
13
   6
CONTINUOUS
  62
3
 100
AcDbCircle
  10
 3652.7534834819
  20
 4740.5775323566
  30
0.0
  40
 8.0000000000000
 100
AcDbArc
  50
 35.000000004101
  51
 215.00000000413
   0
ARC
   5
23E
 100
AcDbEntity
   8
LEVEL002
 370
13
   6
CONTINUOUS
  62
3
 100
AcDbCircle
  10
 3701.9026061395
  20
 4774.9921185372
  30
0.0
  40
 68.000000000000
 100
AcDbArc
  50
 214.99999999999
  51
 248.42942169833
   0
LINE
   5
23F
 100
AcDbEntity
   8
LEVEL002
 370
13
 100
AcDbLine
   6
CONTINUOUS
  62
7
  10
 3621.9026061395
  20
 4689.9921185372
  30
0.0
  11
 3509.1192511725
  21
 4689.9921185372
  31
0.0
   0
LINE
   5
240
 100
AcDbEntity
   8
LEVEL002
 370
13
 100
AcDbLine
   6
CONTINUOUS
  62
7
  10
 3509.1192511725
  20
 4689.9921185372
  30
0.0
  11
 3509.1192511725
  21
 4799.9921185372
  31
0.0
   0
LINE
   5
241
 100
AcDbEntity
   8
LEVEL002
 370
13
 100
AcDbLine
   6
CONTINUOUS
  62
7
  10
 3509.1192511725
  20
 4799.9921185372
  30
0.0
  11
 3621.9026061395
  21
 4799.9921185372
  31
0.0
   0
LINE
   5
242
 100
AcDbEntity
   8
LEVEL002
 370
13
 100
AcDbLine
   6
CONTINUOUS
  62
3
  10
 3308.1150976409
  20
 4802.9921185372
  30
0.0
  11
 3322.1150976409
  21
 4802.9921185372
  31
0.0
   0
LINE
   5
243
 100
AcDbEntity
   8
LEVEL002
 370
13
 100
AcDbLine
   6
CONTINUOUS
  62
3
  10
 3322.1150976409
  20
 4802.9921185372
  30
0.0
  11
 3322.1150976409
  21
 4816.9921185372
  31
0.0
   0
LINE
   5
244
 100
AcDbEntity
   8
LEVEL002
 370
13
 100
AcDbLine
   6
CONTINUOUS
  62
3
  10
 3322.1150976409
  20
 4816.9921185372
  30
0.0
  11
 3308.1150976409
  21
 4816.9921185372
  31
0.0
   0
LINE
   5
245
 100
AcDbEntity
   8
LEVEL002
 370
13
 100
AcDbLine
   6
CONTINUOUS
  62
3
  10
 3308.1150976409
  20
 4816.9921185372
  30
0.0
  11
 3308.1150976409
  21
 4802.9921185372
  31
0.0
   0
LINE
   5
246
 100
AcDbEntity
   8
LEVEL002
 370
13
 100
AcDbLine
   6
CONTINUOUS
  62
3
  10
 3308.1150976409
  20
 4742.9921185372
  30
0.0
  11
 3322.1150976409
  21
 4742.9921185372
  31
0.0
   0
LINE
   5
247
 100
AcDbEntity
   8
LEVEL002
 370
13
 100
AcDbLine
   6
CONTINUOUS
  62
3
  10
 3322.1150976409
  20
 4742.9921185372
  30
0.0
  11
 3322.1150976409
  21
 4756.9921185372
  31
0.0
   0
LINE
   5
248
 100
AcDbEntity
   8
LEVEL002
 370
13
 100
AcDbLine
   6
CONTINUOUS
  62
3
  10
 3322.1150976409
  20
 4756.9921185372
  30
0.0
  11
 3308.1150976409
  21
 4756.9921185372
  31
0.0
   0
LINE
   5
249
 100
AcDbEntity
   8
LEVEL002
 370
13
 100
AcDbLine
   6
CONTINUOUS
  62
3
  10
 3308.1150976409
  20
 4756.9921185372
  30
0.0
  11
 3308.1150976409
  21
 4742.9921185372
  31
0.0
   0
LINE
   5
24A
 100
AcDbEntity
   8
LEVEL002
 370
13
 100
AcDbLine
   6
CONTINUOUS
  62
3
  10
 3196.1150806013
  20
 4692.9921185372
  30
0.0
  11
 3182.1150806013
  21
 4692.9921185372
  31
0.0
   0
LINE
   5
24B
 100
AcDbEntity
   8
LEVEL002
 370
13
 100
AcDbLine
   6
CONTINUOUS
  62
3
  10
 3182.1150806013
  20
 4692.9921185372
  30
0.0
  11
 3182.1150806013
  21
 4706.9921185372
  31
0.0
   0
LINE
   5
24C
 100
AcDbEntity
   8
LEVEL002
 370
13
 100
AcDbLine
   6
CONTINUOUS
  62
3
  10
 3182.1150806013
  20
 4706.9921185372
  30
0.0
  11
 3196.1150806013
  21
 4706.9921185372
  31
0.0
   0
LINE
   5
24D
 100
AcDbEntity
   8
LEVEL002
 370
13
 100
AcDbLine
   6
CONTINUOUS
  62
3
  10
 3196.1150806013
  20
 4706.9921185372
  30
0.0
  11
 3196.1150806013
  21
 4692.9921185372
  31
0.0
   0
LINE
   5
24E
 100
AcDbEntity
   8
LEVEL002
 370
13
 100
AcDbLine
   6
CONTINUOUS
  62
3
  10
 3196.1150806013
  20
 4632.9921185372
  30
0.0
  11
 3182.1150806013
  21
 4632.9921185372
  31
0.0
   0
LINE
   5
24F
 100
AcDbEntity
   8
LEVEL002
 370
13
 100
AcDbLine
   6
CONTINUOUS
  62
3
  10
 3182.1150806013
  20
 4632.9921185372
  30
0.0
  11
 3182.1150806013
  21
 4646.9921185372
  31
0.0
   0
LINE
   5
250
 100
AcDbEntity
   8
LEVEL002
 370
13
 100
AcDbLine
   6
CONTINUOUS
  62
3
  10
 3182.1150806013
  20
 4646.9921185372
  30
0.0
  11
 3196.1150806013
  21
 4646.9921185372
  31
0.0
   0
LINE
   5
251
 100
AcDbEntity
   8
LEVEL002
 370
13
 100
AcDbLine
   6
CONTINUOUS
  62
3
  10
 3196.1150806013
  20
 4646.9921185372
  30
0.0
  11
 3196.1150806013
  21
 4632.9921185372
  31
0.0
   0
LINE
   5
252
 100
AcDbEntity
   8
LEVEL002
 370
13
 100
AcDbLine
   6
CONTINUOUS
  62
6
  10
 3294.6798144661
  20
 4829.9921185372
  30
0.0
  11
 3294.6798144661
  21
 4729.9921185372
  31
0.0
   0
LINE
   5
253
 100
AcDbEntity
   8
LEVEL002
 370
13
 100
AcDbLine
   6
CONTINUOUS
  62
6
  10
 3209.5503637761
  20
 4719.9921185372
  30
0.0
  11
 3209.5503637761
  21
 4619.9921185372
  31
0.0
   0
LINE
   5
254
 100
AcDbEntity
   8
LEVEL002
 370
13
 100
AcDbLine
   6
CONTINUOUS
  62
6
  10
 3199.0638972091
  20
 3683.4920574974
  30
0.0
  11
 3199.0638972091
  21
 3682.4921185364
  31
0.0
   0
LINE
   5
255
 100
AcDbEntity
   8
LEVEL002
 370
13
 100
AcDbLine
   6
CONTINUOUS
  62
7
  10
 3199.5193759881
  20
 3697.4924846888
  30
0.0
  11
 3199.5198337521
  21
 3739.4923929722
  31
0.0
   0
LINE
   5
256
 100
AcDbEntity
   8
LEVEL002
 370
13
 100
AcDbLine
   6
CONTINUOUS
  62
7
  10
 3196.0638972091
  20
 3754.4921182554
  30
0.0
  11
 3199.0638972091
  21
 3754.4921182554
  31
0.0
   0
LINE
   5
257
 100
AcDbEntity
   8
LEVEL002
 370
13
 100
AcDbLine
   6
CONTINUOUS
  62
6
  10
 3199.0638972091
  20
 3754.4921182554
  30
0.0
  11
 3199.0638972091
  21
 3753.4920877418
  31
0.0
   0
LINE
   5
258
 100
AcDbEntity
   8
LEVEL002
 370
13
 100
AcDbLine
   6
CONTINUOUS
  62
6
  10
 3199.0638972091
  20
 3753.4920877418
  30
0.0
  11
 3196.0638972091
  21
 3753.4920877418
  31
0.0
   0
ELLIPSE
   5
259
 100
AcDbEntity
   8
LEVEL002
 370
13
   6
CONTINUOUS
  62
7
 100
AcDbEllipse
  10
 3195.5198312009
  20
 3739.4923318196
  30
0.0
  11
-4.0000025516047
  21
0.0
  31
0.0
  40
 0.99999938800000
  41
-3.1415773654645
  42
-1.7072356670355
   0
LINE
   5
25A
 100
AcDbEntity
   8
LEVEL002
 370
13
 100
AcDbLine
   6
CONTINUOUS
  62
6
  10
 3196.0638972091
  20
 3683.4920574974
  30
0.0
  11
 3199.0638972091
  21
 3683.4920574974
  31
0.0
   0
ELLIPSE
   5
25B
 100
AcDbEntity
   8
LEVEL002
 370
13
   6
CONTINUOUS
  62
7
 100
AcDbEllipse
  10
 3195.5193734383
  20
 3697.4923627376
  30
0.0
  11
-4.0000025516047
  21
0.0
  31
0.0
  40
 0.99999938800000
  41
 1.7073511820393
  42
-3.1415621657857
   0
LINE
   5
25C
 100
AcDbEntity
   8
LEVEL002
 370
13
 100
AcDbLine
   6
CONTINUOUS
  62
7
  10
 3199.0638972091
  20
 3682.4921185364
  30
0.0
  11
 3196.0638972091
  21
 3682.4921185364
  31
0.0
   0
LINE
   5
25D
 100
AcDbEntity
   8
LEVEL002
 370
13
 100
AcDbLine
   6
CONTINUOUS
  62
6
  10
 3295.8918982087
  20
 3701.9921182554
  30
0.0
  11
 3295.8918982087
  21
 3710.9921182554
  31
0.0
   0
LINE
   5
25E
 100
AcDbEntity
   8
LEVEL002
 370
13
 100
AcDbLine
   6
CONTINUOUS
  62
6
  10
 3295.8918982087
  20
 3725.9921182554
  30
0.0
  11
 3295.8918982087
  21
 3734.9921182554
  31
0.0
   0
LINE
   5
25F
 100
AcDbEntity
   8
LEVEL002
 370
13
 100
AcDbLine
   6
CONTINUOUS
  62
6
  10
 3298.2104232499
  20
 3711.9921182554
  30
0.0
  11
 3298.2104232499
  21
 3724.9921182554
  31
0.0
   0
LINE
   5
260
 100
AcDbEntity
   8
LEVEL002
 370
13
 100
AcDbLine
   6
CONTINUOUS
  62
6
  10
 3295.8918982087
  20
 3724.9921182554
  30
0.0
  11
 3209.8111043333
  21
 3724.9921182554
  31
0.0
   0
LINE
   5
261
 100
AcDbEntity
   8
LEVEL002
 370
13
 100
AcDbLine
   6
CONTINUOUS
  62
6
  10
 3209.8111043333
  20
 3711.9921182554
  30
0.0
  11
 3295.8918982087
  21
 3711.9921182554
  31
0.0
   0
LINE
   5
262
 100
AcDbEntity
   8
LEVEL002
 370
13
 100
AcDbLine
   6
CONTINUOUS
  62
7
  10
 3199.5198065011
  20
 3699.9921182554
  30
0.0
  11
 3317.0638972091
  21
 3699.9921182554
  31
0.0
   0
LINE
   5
263
 100
AcDbEntity
   8
LEVEL002
 370
13
 100
AcDbLine
   6
CONTINUOUS
  62
7
  10
 3317.0638972091
  20
 3699.9921182554
  30
0.0
  11
 3317.0638972091
  21
 3736.9921182554
  31
0.0
   0
LINE
   5
264
 100
AcDbEntity
   8
LEVEL002
 370
13
 100
AcDbLine
   6
CONTINUOUS
  62
7
  10
 3317.0638972091
  20
 3736.9921182554
  30
0.0
  11
 3199.5194032321
  21
 3736.9921182554
  31
0.0
   0
LINE
   5
265
 100
AcDbEntity
   8
LEVEL002
 370
13
 100
AcDbLine
   6
CONTINUOUS
  62
6
  10
 3208.5502097637
  20
 3712.9921182554
  30
0.0
  11
 3208.5502097637
  21
 3723.9921182554
  31
0.0
   0
LINE
   5
266
 100
AcDbEntity
   8
LEVEL002
 370
13
 100
AcDbLine
   6
CONTINUOUS
  62
6
  10
 3208.5502097637
  20
 3725.9921182554
  30
0.0
  11
 3208.5502097637
  21
 3734.9921182554
  31
0.0
   0
LINE
   5
267
 100
AcDbEntity
   8
LEVEL002
 370
13
 100
AcDbLine
   6
CONTINUOUS
  62
6
  10
 3208.5502097637
  20
 3701.9921182554
  30
0.0
  11
 3208.5502097637
  21
 3710.9921182554
  31
0.0
   0
ARC
   5
268
 100
AcDbEntity
   8
LEVEL002
 370
13
   6
CONTINUOUS
  62
7
 100
AcDbCircle
  10
 3197.0638972091
  20
 3621.1338388262
  30
0.0
  40
 5.0000000000000
 100
AcDbArc
  50
 180.00000000000
  51
 201.80140948644
   0
LINE
   5
269
 100
AcDbEntity
   8
LEVEL002
 370
13
 100
AcDbLine
   6
CONTINUOUS
  62
7
  10
 3195.1354205181
  20
 3612.4921185356
  30
0.0
  11
 3192.4215137547
  21
 3619.2768854444
  31
0.0
   0
ARC
   5
26A
 100
AcDbEntity
   8
LEVEL002
 370
13
   6
CONTINUOUS
  62
7
 100
AcDbCircle
  10
 3191.0638972091
  20
 3628.3397649946
  30
0.0
  40
 5.0000000000000
 100
AcDbArc
  50
 338.19859051356
  51
0.0
   0
LINE
   5
26B
 100
AcDbEntity
   8
LEVEL002
 370
13
 100
AcDbLine
   6
CONTINUOUS
  62
7
  10
 3193.9040098087
  20
 3621.9771344762
  30
0.0
  11
 3195.7062806635
  21
 3626.4828116128
  31
0.0
   0
ARC
   5
26C
 100
AcDbEntity
   8
LEVEL002
 370
13
   6
CONTINUOUS
  62
7
 100
AcDbCircle
  10
 3198.5463932633
  20
 3620.1201810944
  30
0.0
  40
 5.0000000000000
 100
AcDbArc
  50
 158.19859051352
  51
 201.80140948648
   0
LINE
   5
26D
 100
AcDbEntity
   8
LEVEL002
 370
13
 100
AcDbLine
   6
CONTINUOUS
  62
7
  10
 3195.1354205181
  20
 3612.4921185356
  30
0.0
  11
 3196.0638972091
  21
 3612.8635092120
  31
0.0
   0
LINE
   5
26E
 100
AcDbEntity
   8
LEVEL002
 370
13
 100
AcDbLine
   6
CONTINUOUS
  62
7
  10
 3196.0638972091
  20
 3612.8635092120
  30
0.0
  11
 3193.9040098087
  21
 3618.2632277126
  31
0.0
   0
LINE
   5
26F
 100
AcDbEntity
   8
LEVEL002
 370
13
 100
AcDbLine
   6
CONTINUOUS
  62
6
  10
 3295.8918982087
  20
 4112.9921188172
  30
0.0
  11
 3209.8111043333
  21
 4112.9921188172
  31
0.0
   0
LINE
   5
270
 100
AcDbEntity
   8
LEVEL002
 370
13
 100
AcDbLine
   6
CONTINUOUS
  62
6
  10
 3209.8111043333
  20
 4099.9921188172
  30
0.0
  11
 3295.8918982087
  21
 4099.9921188172
  31
0.0
   0
LINE
   5
271
 100
AcDbEntity
   8
LEVEL002
 370
13
 100
AcDbLine
   6
CONTINUOUS
  62
7
  10
 3199.5198065011
  20
 4087.9921188172
  30
0.0
  11
 3317.0638972091
  21
 4087.9921188172
  31
0.0
   0
LINE
   5
272
 100
AcDbEntity
   8
LEVEL002
 370
13
 100
AcDbLine
   6
CONTINUOUS
  62
7
  10
 3317.0638972091
  20
 4087.9921188172
  30
0.0
  11
 3317.0638972091
  21
 4124.9921188172
  31
0.0
   0
LINE
   5
273
 100
AcDbEntity
   8
LEVEL002
 370
13
 100
AcDbLine
   6
CONTINUOUS
  62
7
  10
 3317.0638972091
  20
 4124.9921188172
  30
0.0
  11
 3199.5194032321
  21
 4124.9921188172
  31
0.0
   0
LINE
   5
274
 100
AcDbEntity
   8
LEVEL002
 370
13
 100
AcDbLine
   6
CONTINUOUS
  62
7
  10
 3199.5193759881
  20
 4085.4924852506
  30
0.0
  11
 3199.5198337521
  21
 4127.4923935340
  31
0.0
   0
LINE
   5
275
 100
AcDbEntity
   8
LEVEL002
 370
13
 100
AcDbLine
   6
CONTINUOUS
  62
6
  10
 3208.5502097637
  20
 4100.9921188172
  30
0.0
  11
 3208.5502097637
  21
 4111.9921188172
  31
0.0
   0
LINE
   5
276
 100
AcDbEntity
   8
LEVEL002
 370
13
 100
AcDbLine
   6
CONTINUOUS
  62
6
  10
 3208.5502097637
  20
 4113.9921188172
  30
0.0
  11
 3208.5502097637
  21
 4122.9921188172
  31
0.0
   0
LINE
   5
277
 100
AcDbEntity
   8
LEVEL002
 370
13
 100
AcDbLine
   6
CONTINUOUS
  62
6
  10
 3208.5502097637
  20
 4089.9921188172
  30
0.0
  11
 3208.5502097637
  21
 4098.9921188172
  31
0.0
   0
LINE
   5
278
 100
AcDbEntity
   8
LEVEL002
 370
13
 100
AcDbLine
   6
CONTINUOUS
  62
6
  10
 3199.0638972091
  20
 4071.4920580592
  30
0.0
  11
 3199.0638972091
  21
 4070.4921190982
  31
0.0
   0
LINE
   5
279
 100
AcDbEntity
   8
LEVEL002
 370
13
 100
AcDbLine
   6
CONTINUOUS
  62
7
  10
 3196.0638972091
  20
 4142.4921188172
  30
0.0
  11
 3199.0638972091
  21
 4142.4921188172
  31
0.0
   0
LINE
   5
27A
 100
AcDbEntity
   8
LEVEL002
 370
13
 100
AcDbLine
   6
CONTINUOUS
  62
6
  10
 3199.0638972091
  20
 4142.4921188172
  30
0.0
  11
 3199.0638972091
  21
 4141.4920883036
  31
0.0
   0
LINE
   5
27B
 100
AcDbEntity
   8
LEVEL002
 370
13
 100
AcDbLine
   6
CONTINUOUS
  62
6
  10
 3199.0638972091
  20
 4141.4920883036
  30
0.0
  11
 3196.0638972091
  21
 4141.4920883036
  31
0.0
   0
ELLIPSE
   5
27C
 100
AcDbEntity
   8
LEVEL002
 370
13
   6
CONTINUOUS
  62
7
 100
AcDbEllipse
  10
 3195.5198312009
  20
 4127.4923323816
  30
0.0
  11
-4.0000025516047
  21
0.0
  31
0.0
  40
 0.99999938800000
  41
-3.1415773654608
  42
-1.7072356670355
   0
LINE
   5
27D
 100
AcDbEntity
   8
LEVEL002
 370
13
 100
AcDbLine
   6
CONTINUOUS
  62
6
  10
 3196.0638972091
  20
 4071.4920580592
  30
0.0
  11
 3199.0638972091
  21
 4071.4920580592
  31
0.0
   0
ELLIPSE
   5
27E
 100
AcDbEntity
   8
LEVEL002
 370
13
   6
CONTINUOUS
  62
7
 100
AcDbEllipse
  10
 3195.5193734383
  20
 4085.4923632994
  30
0.0
  11
-4.0000025516047
  21
0.0
  31
0.0
  40
 0.99999938800000
  41
 1.7073511820383
  42
-3.1415621657857
   0
LINE
   5
27F
 100
AcDbEntity
   8
LEVEL002
 370
13
 100
AcDbLine
   6
CONTINUOUS
  62
7
  10
 3199.0638972091
  20
 4070.4921190982
  30
0.0
  11
 3196.0638972091
  21
 4070.4921190982
  31
0.0
   0
LINE
   5
280
 100
AcDbEntity
   8
LEVEL002
 370
13
 100
AcDbLine
   6
CONTINUOUS
  62
6
  10
 3295.8918982087
  20
 4089.9921188172
  30
0.0
  11
 3295.8918982087
  21
 4098.9921188172
  31
0.0
   0
LINE
   5
281
 100
AcDbEntity
   8
LEVEL002
 370
13
 100
AcDbLine
   6
CONTINUOUS
  62
6
  10
 3295.8918982087
  20
 4113.9921188172
  30
0.0
  11
 3295.8918982087
  21
 4122.9921188172
  31
0.0
   0
LINE
   5
282
 100
AcDbEntity
   8
LEVEL002
 370
13
 100
AcDbLine
   6
CONTINUOUS
  62
6
  10
 3298.2104232499
  20
 4099.9921188172
  30
0.0
  11
 3298.2104232499
  21
 4112.9921188172
  31
0.0
   0
LINE
   5
283
 100
AcDbEntity
   8
LEVEL002
 370
13
 100
AcDbLine
   6
CONTINUOUS
  62
7
  10
 3302.0638972091
  20
 4101.4921188172
  30
0.0
  11
 3312.0638972091
  21
 4101.4921188172
  31
0.0
   0
LINE
   5
284
 100
AcDbEntity
   8
LEVEL002
 370
13
 100
AcDbLine
   6
CONTINUOUS
  62
7
  10
 3312.0638972091
  20
 4101.4921188172
  30
0.0
  11
 3312.0638972091
  21
 4111.4921188172
  31
0.0
   0
LINE
   5
285
 100
AcDbEntity
   8
LEVEL002
 370
13
 100
AcDbLine
   6
CONTINUOUS
  62
7
  10
 3312.0638972091
  20
 4111.4921188172
  30
0.0
  11
 3302.0638972091
  21
 4111.4921188172
  31
0.0
   0
LINE
   5
286
 100
AcDbEntity
   8
LEVEL002
 370
13
 100
AcDbLine
   6
CONTINUOUS
  62
7
  10
 3302.0638972091
  20
 4111.4921188172
  30
0.0
  11
 3302.0638972091
  21
 4101.4921188172
  31
0.0
   0
LINE
   5
287
 100
AcDbEntity
   8
LEVEL002
 370
13
 100
AcDbLine
   6
CONTINUOUS
  62
7
  10
 3302.0638972091
  20
 3713.4921182554
  30
0.0
  11
 3312.0638972091
  21
 3713.4921182554
  31
0.0
   0
LINE
   5
288
 100
AcDbEntity
   8
LEVEL002
 370
13
 100
AcDbLine
   6
CONTINUOUS
  62
7
  10
 3312.0638972091
  20
 3713.4921182554
  30
0.0
  11
 3312.0638972091
  21
 3723.4921182554
  31
0.0
   0
LINE
   5
289
 100
AcDbEntity
   8
LEVEL002
 370
13
 100
AcDbLine
   6
CONTINUOUS
  62
7
  10
 3312.0638972091
  20
 3723.4921182554
  30
0.0
  11
 3302.0638972091
  21
 3723.4921182554
  31
0.0
   0
LINE
   5
28A
 100
AcDbEntity
   8
LEVEL002
 370
13
 100
AcDbLine
   6
CONTINUOUS
  62
7
  10
 3302.0638972091
  20
 3723.4921182554
  30
0.0
  11
 3302.0638972091
  21
 3713.4921182554
  31
0.0
   0
LINE
   5
28B
 100
AcDbEntity
   8
LEVEL002
 370
13
 100
AcDbLine
   6
CONTINUOUS
  62
7
  10
 3207.5650891211
  20
 4087.9921188172
  30
0.0
  11
 3207.5650891211
  21
 3736.9921182554
  31
0.0
   0
LINE
   5
28C
 100
AcDbEntity
   8
LEVEL002
 370
13
 100
AcDbLine
   6
CONTINUOUS
  62
7
  10
 3296.6650891211
  20
 3736.9921182554
  30
0.0
  11
 3296.6650891211
  21
 4087.9921188172
  31
0.0
   0
LEADER
   5
28D
 100
AcDbEntity
   8
LEVEL002
 370
13
   6
CONTINUOUS
  62
1
 100
AcDbLeader
   3
GMM002
  73
3
  74
1
  75
0
  40
 60.000000000000
  41
0.0
  76
2
  10
 3252.1150891211
  20
 5016.4921185372
  30
0.0
  10
 3409.1960039283
  20
 5239.6933651496
  30
0.0
  77
1
   0
CIRCLE
   5
28E
 100
AcDbEntity
   8
LEVEL002
 370
13
 100
AcDbCircle
   6
CONTINUOUS
  62
1
  10
 3611.6089072487
  20
 5294.9921185372
  30
0.0
  40
 69.999997913838
   0
CIRCLE
   5
28F
 100
AcDbEntity
   8
LEVEL002
 370
13
 100
AcDbCircle
   6
CONTINUOUS
  62
1
  10
 3751.6089030765
  20
 5294.9921185372
  30
0.0
  40
 69.999997913838
   0
MTEXT
   5
290
 100
AcDbEntity
   8
LEVEL002
 370
13
  62
1
 100
AcDbMText
  10
 3452.1150891211
  20
 5294.9921185372
  30
0.0
  40
 57.142857142858
  41
0.0
  71
5
  72
1
   1
\T1.000000;13
   7
GMM001
  44
 0.79999984000003
   0
CIRCLE
   5
291
 100
AcDbEntity
   8
LEVEL002
 370
13
 100
AcDbCircle
   6
CONTINUOUS
  62
1
  10
 3452.1150891211
  20
 5294.9921185372
  30
0.0
  40
 70.000000000000
   0
MTEXT
   5
292
 100
AcDbEntity
   8
LEVEL002
 370
13
  62
1
 100
AcDbMText
  10
 3611.6089072487
  20
 5294.9921185372
  30
0.0
  40
 57.142857142858
  41
0.0
  71
5
  72
1
   1
\T1.000000;6
   7
GMM001
  44
 0.79999984000003
   0
MTEXT
   5
293
 100
AcDbEntity
   8
LEVEL002
 370
13
  62
1
 100
AcDbMText
  10
 3751.6089030765
  20
 5294.9921185372
  30
0.0
  40
 57.142857142858
  41
0.0
  71
5
  72
1
   1
\T1.000000;8
   7
GMM001
  44
 0.79999984000003
   0
CIRCLE
   5
294
 100
AcDbEntity
   8
LEVEL002
 370
13
 100
AcDbCircle
   6
CONTINUOUS
  62
1
  10
 2912.1150932935
  20
 5294.9921185372
  30
0.0
  40
 69.999997913838
   0
CIRCLE
   5
295
 100
AcDbEntity
   8
LEVEL002
 370
13
 100
AcDbCircle
   6
CONTINUOUS
  62
1
  10
 3052.1150891211
  20
 5294.9921185372
  30
0.0
  40
 69.999997913838
   0
MTEXT
   5
296
 100
AcDbEntity
   8
LEVEL002
 370
13
  62
1
 100
AcDbMText
  10
 3052.1150891211
  20
 5294.9921185372
  30
0.0
  40
 57.142857142858
  41
0.0
  71
5
  72
1
   1
\T1.000000;7
   7
GMM001
  44
 0.79999984000003
   0
MTEXT
   5
297
 100
AcDbEntity
   8
LEVEL002
 370
13
  62
1
 100
AcDbMText
  10
 2912.1150932935
  20
 5294.9921185372
  30
0.0
  40
 57.142857142858
  41
0.0
  71
5
  72
1
   1
\T1.000000;5
   7
GMM001
  44
 0.79999984000003
   0
CIRCLE
   5
298
 100
AcDbEntity
   8
LEVEL002
 370
13
 100
AcDbCircle
   6
CONTINUOUS
  62
1
  10
 2452.1150891211
  20
 5294.9921185372
  30
0.0
  40
 69.999997913838
   0
MTEXT
   5
299
 100
AcDbEntity
   8
LEVEL002
 370
13
  62
1
 100
AcDbMText
  10
 2452.1150891211
  20
 5294.9921185372
  30
0.0
  40
 57.142857142858
  41
0.0
  71
5
  72
1
   1
\T1.000000;3
   7
GMM001
  44
 0.79999984000003
   0
CIRCLE
   5
29A
 100
AcDbEntity
   8
LEVEL002
 370
13
 100
AcDbCircle
   6
CONTINUOUS
  62
1
  10
 2452.1150891211
  20
 4194.9921185372
  30
0.0
  40
 69.999997913838
   0
MTEXT
   5
29B
 100
AcDbEntity
   8
LEVEL002
 370
13
  62
1
 100
AcDbMText
  10
 2452.1150891211
  20
 4194.9921185372
  30
0.0
  40
 57.142857142858
  41
0.0
  71
5
  72
1
   1
\T1.000000;1
   7
GMM001
  44
 0.79999984000003
   0
LEADER
   5
29C
 100
AcDbEntity
   8
LEVEL002
 370
13
   6
CONTINUOUS
  62
1
 100
AcDbLeader
   3
GMM002
  73
3
  74
1
  75
0
  40
 60.000000000000
  41
0.0
  76
2
  10
 2202.1150891261
  20
 4444.9921185372
  30
0.0
  10
 2402.6176159157
  20
 4244.4895917476
  30
0.0
  77
1
   0
CIRCLE
   5
29D
 100
AcDbEntity
   8
LEVEL002
 370
13
 100
AcDbCircle
   6
CONTINUOUS
  62
1
  10
 2252.1150891211
  20
 4194.9921185372
  30
0.0
  40
 69.999997913838
   0
MTEXT
   5
29E
 100
AcDbEntity
   8
LEVEL002
 370
13
  62
1
 100
AcDbMText
  10
 2252.1150891211
  20
 4194.9921185372
  30
0.0
  40
 57.142857142858
  41
0.0
  71
5
  72
1
   1
\T1.000000;4
   7
GMM001
  44
 0.79999984000003
   0
CIRCLE
   5
29F
 100
AcDbEntity
   8
LEVEL002
 370
13
 100
AcDbCircle
   6
CONTINUOUS
  62
1
  10
 3598.9867997187
  20
 4194.9921185372
  30
0.0
  40
 70.000000000000
   0
MTEXT
   5
2A0
 100
AcDbEntity
   8
LEVEL002
 370
13
  62
1
 100
AcDbMText
  10
 3598.9867997187
  20
 4194.9921185372
  30
0.0
  40
 57.142857142858
  41
0.0
  71
5
  72
1
   1
\T1.000000;10
   7
GMM001
  44
 0.79999984000003
   0
MTEXT
   5
2A1
 100
AcDbEntity
   8
LEVEL002
 370
13
  62
1
 100
AcDbMText
  10
 3458.9868018049
  20
 4194.9921185372
  30
0.0
  40
 57.142857142858
  41
0.0
  71
5
  72
1
   1
\T1.000000;9
   7
GMM001
  44
 0.79999984000003
   0
CIRCLE
   5
2A2
 100
AcDbEntity
   8
LEVEL002
 370
13
 100
AcDbCircle
   6
CONTINUOUS
  62
1
  10
 3458.9868018049
  20
 4194.9921185372
  30
0.0
  40
 69.999997913838
   0
CIRCLE
   5
2A3
 100
AcDbEntity
   8
LEVEL002
 370
13
 100
AcDbCircle
   6
CONTINUOUS
  62
1
  10
 3598.9868018049
  20
 3812.4921185372
  30
0.0
  40
 70.000000000000
   0
MTEXT
   5
2A4
 100
AcDbEntity
   8
LEVEL002
 370
13
  62
1
 100
AcDbMText
  10
 3598.9868018049
  20
 3812.4921185372
  30
0.0
  40
 57.142857142858
  41
0.0
  71
5
  72
1
   1
\T1.000000;16
   7
GMM001
  44
 0.79999984000003
   0
MTEXT
   5
2A5
 100
AcDbEntity
   8
LEVEL002
 370
13
  62
1
 100
AcDbMText
  10
 3458.9868018049
  20
 3812.4921185372
  30
0.0
  40
 57.142857142858
  41
0.0
  71
5
  72
1
   1
\T1.000000;15
   7
GMM001
  44
 0.79999984000003
   0
CIRCLE
   5
2A6
 100
AcDbEntity
   8
LEVEL002
 370
13
 100
AcDbCircle
   6
CONTINUOUS
  62
1
  10
 3458.9868018049
  20
 3812.4921185372
  30
0.0
  40
 70.000000000000
   0
LEADER
   5
2A7
 100
AcDbEntity
   8
LEVEL002
 370
13
   6
CONTINUOUS
  62
1
 100
AcDbLeader
   3
GMM002
  73
3
  74
1
  75
0
  40
 60.000000000000
  41
0.0
  76
2
  10
 3317.0638972091
  20
 3736.9921185364
  30
0.0
  10
 3397.6294114931
  20
 3778.7983408608
  30
0.0
  77
1
   0
LEADER
   5
2A8
 100
AcDbEntity
   8
LEVEL002
 370
13
   6
CONTINUOUS
  62
1
 100
AcDbLeader
   3
GMM002
  73
3
  74
1
  75
0
  40
 60.000000000000
  41
0.0
  76
2
  10
 3367.2525293955
  20
 4629.9921185372
  30
0.0
  10
 3444.6262150297
  20
 4263.5032362876
  30
0.0
  77
1
   0
LEADER
   5
2A9
 100
AcDbEntity
   8
LEVEL002
 370
13
   6
CONTINUOUS
  62
1
 100
AcDbLeader
   3
GMM002
  73
3
  74
1
  75
0
  40
 60.000000000000
  41
0.0
  76
2
  10
 2693.3316037533
  20
 4435.6605747262
  30
0.0
  10
 2501.6315935759
  20
 4244.4705531782
  30
0.0
  77
1
   0
LEADER
   5
2AA
 100
AcDbEntity
   8
LEVEL002
 370
13
   6
CONTINUOUS
  62
1
 100
AcDbLeader
   3
GMM002
  73
3
  74
1
  75
0
  40
 60.000000000000
  41
0.0
  76
2
  10
 2792.6598913385
  20
 4799.9921185372
  30
0.0
  10
 2895.9497498707
  20
 5226.8842527656
  30
0.0
  77
1
   0
LEADER
   5
2AB
 100
AcDbEntity
   8
LEVEL002
 370
13
   6
CONTINUOUS
  62
1
 100
AcDbLeader
   3
GMM002
  73
3
  74
1
  75
0
  40
 60.000000000000
  41
0.0
  76
2
  10
 3509.1192511725
  20
 4799.9921185372
  30
0.0
  10
 3598.7113228681
  20
 5226.1905776746
  30
0.0
  77
1
   0
LEADER
   5
2AC
 100
AcDbEntity
   8
LEVEL002
 370
13
   6
CONTINUOUS
  62
1
 100
AcDbLeader
   3
GMM002
  73
3
  74
1
  75
0
  40
 60.000000000000
  41
0.0
  76
2
  10
 2644.1275721027
  20
 5156.4921185372
  30
0.0
  10
 2508.6877844767
  20
 5253.7667641040
  30
0.0
  77
1
   0
CIRCLE
   5
2AD
 100
AcDbEntity
   8
LEVEL002
 370
13
 100
AcDbCircle
   6
CONTINUOUS
  62
1
  10
 1802.1150891211
  20
 3812.4921185372
  30
0.0
  40
 70.000000000000
   0
MTEXT
   5
2AE
 100
AcDbEntity
   8
LEVEL002
 370
13
  62
1
 100
AcDbMText
  10
 1802.1150891211
  20
 3812.4921185372
  30
0.0
  40
 57.142857142858
  41
0.0
  71
5
  72
1
   1
\T1.000000;14
   7
GMM001
  44
 0.79999984000003
   0
LEADER
   5
2AF
 100
AcDbEntity
   8
LEVEL002
 370
13
   6
CONTINUOUS
  62
1
 100
AcDbLeader
   3
GMM002
  73
3
  74
1
  75
0
  40
 60.000000000000
  41
0.0
  76
2
  10
 1642.1147820100
  20
 3972.4924256488
  30
0.0
  10
 1752.6176144383
  20
 3861.9895932206
  30
0.0
  77
1
   0
CIRCLE
   5
2B0
 100
AcDbEntity
   8
LEVEL002
 370
13
 100
AcDbCircle
   6
CONTINUOUS
  62
1
  10
 1802.1150891211
  20
 2612.4921185372
  30
0.0
  40
 70.000000000000
   0
MTEXT
   5
2B1
 100
AcDbEntity
   8
LEVEL002
 370
13
  62
1
 100
AcDbMText
  10
 1802.1150891211
  20
 2612.4921185372
  30
0.0
  40
 57.142857142858
  41
0.0
  71
5
  72
1
   1
\T1.000000;11
   7
GMM001
  44
 0.79999984000003
   0
LEADER
   5
2B2
 100
AcDbEntity
   8
LEVEL002
 370
13
   6
CONTINUOUS
  62
1
 100
AcDbLeader
   3
GMM002
  73
3
  74
1
  75
0
  40
 60.000000000000
  41
0.0
  76
2
  10
 1590.2650891211
  20
 2487.4921185372
  30
0.0
  10
 1741.8272997599
  20
 2576.9199039036
  30
0.0
  77
1
   0
MTEXT
   5
2B4
 100
AcDbEntity
   8
LEVEL002
 370
13
  62
1
 100
AcDbMText
  10
 1172.7636943306
  20
 1821.2220555775
  30
0.0
  40
 40.000000000000
  41
0.0
  71
7
  72
1
   1
\T1.000000;ＧＬ
   7
GMM003
  44
 0.79999984000003
   0
LINE
   5
2B5
 100
AcDbEntity
   8
LEVEL002
 370
13
 100
AcDbLine
   6
CONTINUOUS
  62
1
  10
 1144.6150238858
  20
 1812.4921185372
  30
0.0
  11
 1119.6150238857
  21
 1862.4921185372
  31
0.0
   0
LINE
   5
2B6
 100
AcDbEntity
   8
LEVEL002
 370
13
 100
AcDbLine
   6
CONTINUOUS
  62
1
  10
 1119.6150238857
  20
 1862.4921185372
  30
0.0
  11
 1169.6150238858
  21
 1862.4921185372
  31
0.0
   0
LINE
   5
2B7
 100
AcDbEntity
   8
LEVEL002
 370
13
 100
AcDbLine
   6
CONTINUOUS
  62
1
  10
 1169.6150238858
  20
 1862.4921185372
  30
0.0
  11
 1144.6150238858
  21
 1812.4921185372
  31
0.0
   0
MTEXT
   5
2B9
 100
AcDbEntity
   8
LEVEL002
 370
13
  62
1
 100
AcDbMText
  10
 2872.7636943305
  20
 1821.2220555775
  30
0.0
  40
 40.000000000000
  41
0.0
  71
7
  72
1
   1
\T1.000000;ＧＬ
   7
GMM003
  44
 0.79999984000003
   0
LINE
   5
2BA
 100
AcDbEntity
   8
LEVEL002
 370
13
 100
AcDbLine
   6
CONTINUOUS
  62
1
  10
 2844.6150238857
  20
 1812.4921185372
  30
0.0
  11
 2819.6150238857
  21
 1862.4921185372
  31
0.0
   0
LINE
   5
2BB
 100
AcDbEntity
   8
LEVEL002
 370
13
 100
AcDbLine
   6
CONTINUOUS
  62
1
  10
 2819.6150238857
  20
 1862.4921185372
  30
0.0
  11
 2869.6150238857
  21
 1862.4921185372
  31
0.0
   0
LINE
   5
2BC
 100
AcDbEntity
   8
LEVEL002
 370
13
 100
AcDbLine
   6
CONTINUOUS
  62
1
  10
 2869.6150238857
  20
 1862.4921185372
  30
0.0
  11
 2844.6150238857
  21
 1812.4921185372
  31
0.0
   0
LINE
   5
2BD
 100
AcDbEntity
   8
LEVEL002
 370
13
 100
AcDbLine
   6
DOT
  62
1
  10
 1507.5650891211
  20
 1019.9921185372
  30
0.0
  11
 1596.6650891211
  21
 1019.9921185372
  31
0.0
   0
LINE
   5
2BE
 100
AcDbEntity
   8
LEVEL002
 370
13
 100
AcDbLine
   6
DOT
  62
1
  10
 1596.6650891211
  20
 1004.9921185372
  30
0.0
  11
 1507.5650891211
  21
 1004.9921185372
  31
0.0
   0
LINE
   5
2BF
 100
AcDbEntity
   8
LEVEL002
 370
13
 100
AcDbLine
   6
DOT
  62
1
  10
 3296.6650891211
  20
 904.99211853719
  30
0.0
  11
 3207.5650891211
  21
 904.99211853719
  31
0.0
   0
LINE
   5
2C0
 100
AcDbEntity
   8
LEVEL002
 370
13
 100
AcDbLine
   6
DOT
  62
1
  10
 3207.5650891211
  20
 919.99211853719
  30
0.0
  11
 3296.6650891211
  21
 919.99211853719
  31
0.0
   0
MTEXT
   5
2C1
 100
AcDbEntity
   8
LEVEL002
 370
13
  62
1
 100
AcDbMText
  10
 3252.1150891211
  20
 5544.9921185372
  30
0.0
  40
 57.142857142858
  41
0.0
  71
5
  72
1
   1
\T1.000000;側　面　図
   7
GMM001
  44
 0.79999984000003
   0
MTEXT
   5
2C2
 100
AcDbEntity
   8
LEVEL002
 370
13
  62
1
 100
AcDbMText
  10
 6764.1150891211
  20
 1484.9921185372
  30
0.0
  40
 51.428571428572
  41
0.0
  71
6
  72
1
   1
\T1.000000;２
   7
GMM001
  44
 0.79999984000003
   0
CIRCLE
   5
2C3
 100
AcDbEntity
   8
LEVEL002
 370
13
 100
AcDbCircle
   6
CONTINUOUS
  62
7
  10
 1077.1150891211
  20
 4744.9921185372
  30
0.0
  40
 432.50000000000
   0
CIRCLE
   5
2C4
 100
AcDbEntity
   8
LEVEL002
 370
13
 100
AcDbCircle
   6
CONTINUOUS
  62
7
  10
 1077.1150891211
  20
 4744.9921185372
  30
0.0
  40
 412.50000000000
   0
CIRCLE
   5
2C5
 100
AcDbEntity
   8
LEVEL002
 370
13
 100
AcDbCircle
   6
CONTINUOUS
  62
6
  10
 1077.1150891211
  20
 4744.9921185372
  30
0.0
  40
 405.00000000000
   0
CIRCLE
   5
2C6
 100
AcDbEntity
   8
LEVEL002
 370
13
 100
AcDbCircle
   6
CONTINUOUS
  62
6
  10
 1077.1150891211
  20
 4744.9921185372
  30
0.0
  40
 410.00000000000
   0
ARC
   5
2C7
 100
AcDbEntity
   8
LEVEL002
 370
13
   6
CONTINUOUS
  62
1
 100
AcDbCircle
  10
 1077.1150891211
  20
 4744.9921185372
  30
0.0
  40
 410.00000000000
 100
AcDbArc
  50
 6.1099891253647
  51
 173.89001087463
   0
ARC
   5
2C8
 100
AcDbEntity
   8
LEVEL002
 370
13
   6
CONTINUOUS
  62
1
 100
AcDbCircle
  10
 1077.1150891211
  20
 4744.9921185372
  30
0.0
  40
 411.50000000000
 100
AcDbArc
  50
 6.1099891253637
  51
 173.89001087464
   0
LINE
   5
2C9
 100
AcDbEntity
   8
LEVEL002
 370
13
 100
AcDbLine
   6
CONTINUOUS
  62
1
  10
 669.44413405053
  20
 4788.6314630770
  30
0.0
  11
 667.95265494663
  21
 4788.7911192156
  31
0.0
   0
LINE
   5
2CA
 100
AcDbEntity
   8
LEVEL002
 370
13
 100
AcDbLine
   6
CONTINUOUS
  62
1
  10
 1484.7860441916
  20
 4788.6314630770
  30
0.0
  11
 1486.2775232956
  21
 4788.7911192156
  31
0.0
   0
LINE
   5
2CB
 100
AcDbEntity
   8
LEVEL002
 370
13
 100
AcDbLine
   6
DASHDOT
  62
6
  10
 602.11508912109
  20
 4744.9921185372
  30
0.0
  11
 1552.1150215012
  21
 4744.9921185372
  31
0.0
   0
LINE
   5
2CC
 100
AcDbEntity
   8
LEVEL002
 370
13
 100
AcDbLine
   6
DASHDOT
  62
6
  10
 1077.1150891211
  20
 5219.9921185372
  30
0.0
  11
 1077.1150891211
  21
 4269.9921185372
  31
0.0
   0
CIRCLE
   5
2CD
 100
AcDbEntity
   8
LEVEL002
 370
13
 100
AcDbCircle
   6
CONTINUOUS
  62
7
  10
 2027.1150891211
  20
 4744.9921185372
  30
0.0
  40
 432.50000000000
   0
CIRCLE
   5
2CE
 100
AcDbEntity
   8
LEVEL002
 370
13
 100
AcDbCircle
   6
CONTINUOUS
  62
7
  10
 2027.1150891211
  20
 4744.9921185372
  30
0.0
  40
 412.50000000000
   0
CIRCLE
   5
2CF
 100
AcDbEntity
   8
LEVEL002
 370
13
 100
AcDbCircle
   6
CONTINUOUS
  62
6
  10
 2027.1150891211
  20
 4744.9921185372
  30
0.0
  40
 405.00000000000
   0
CIRCLE
   5
2D0
 100
AcDbEntity
   8
LEVEL002
 370
13
 100
AcDbCircle
   6
CONTINUOUS
  62
6
  10
 2027.1150891211
  20
 4744.9921185372
  30
0.0
  40
 410.00000000000
   0
ARC
   5
2D1
 100
AcDbEntity
   8
LEVEL002
 370
13
   6
CONTINUOUS
  62
1
 100
AcDbCircle
  10
 2027.1150891211
  20
 4744.9921185372
  30
0.0
  40
 410.00000000000
 100
AcDbArc
  50
 6.1099891253667
  51
 173.89001087464
   0
ARC
   5
2D2
 100
AcDbEntity
   8
LEVEL002
 370
13
   6
CONTINUOUS
  62
1
 100
AcDbCircle
  10
 2027.1150891211
  20
 4744.9921185372
  30
0.0
  40
 411.50000000000
 100
AcDbArc
  50
 6.1099891253657
  51
 173.89001087464
   0
LINE
   5
2D3
 100
AcDbEntity
   8
LEVEL002
 370
13
 100
AcDbLine
   6
CONTINUOUS
  62
1
  10
 1619.4441340505
  20
 4788.6314630770
  30
0.0
  11
 1617.9526549466
  21
 4788.7911192156
  31
0.0
   0
LINE
   5
2D4
 100
AcDbEntity
   8
LEVEL002
 370
13
 100
AcDbLine
   6
CONTINUOUS
  62
1
  10
 2434.7860441917
  20
 4788.6314630770
  30
0.0
  11
 2436.2775232955
  21
 4788.7911192156
  31
0.0
   0
LINE
   5
2D5
 100
AcDbEntity
   8
LEVEL002
 370
13
 100
AcDbLine
   6
DASHDOT
  62
6
  10
 2502.1150891211
  20
 4744.9921185372
  30
0.0
  11
 1552.1151567410
  21
 4744.9921185372
  31
0.0
   0
LINE
   5
2D6
 100
AcDbEntity
   8
LEVEL002
 370
13
 100
AcDbLine
   6
DASHDOT
  62
6
  10
 2027.1150891211
  20
 5219.9921185372
  30
0.0
  11
 2027.1150891211
  21
 4269.9921185372
  31
0.0
   0
LINE
   5
2D7
 100
AcDbEntity
   8
LEVEL002
 370
13
 100
AcDbLine
   6
CONTINUOUS
  62
6
  10
 1509.5504313961
  20
 4719.9921185372
  30
0.0
  11
 1509.5504313961
  21
 4619.9921185372
  31
0.0
   0
LINE
   5
2D8
 100
AcDbEntity
   8
LEVEL002
 370
13
 100
AcDbLine
   6
CONTINUOUS
  62
7
  10
 1598.1452827456
  20
 4689.8454484820
  30
0.0
  11
 1598.1452827456
  21
 4629.9921185372
  31
0.0
   0
LINE
   5
2D9
 100
AcDbEntity
   8
LEVEL002
 370
13
 100
AcDbLine
   6
CONTINUOUS
  62
7
  10
 1598.1452827456
  20
 4629.9921185372
  30
0.0
  11
 1610.1843394755
  21
 4629.9921185372
  31
0.0
   0
LINE
   5
2DA
 100
AcDbEntity
   8
LEVEL002
 370
13
 100
AcDbLine
   6
CONTINUOUS
  62
7
  10
 1599.8651567410
  20
 4629.9921185372
  30
0.0
  11
 1599.8651567410
  21
 4614.9921185372
  31
0.0
   0
LINE
   5
2DB
 100
AcDbEntity
   8
LEVEL002
 370
13
 100
AcDbLine
   6
CONTINUOUS
  62
7
  10
 1599.8651567410
  20
 4614.9921185372
  30
0.0
  11
 1489.6150891211
  21
 4614.9921185372
  31
0.0
   0
LINE
   5
2DC
 100
AcDbEntity
   8
LEVEL002
 370
13
 100
AcDbLine
   6
CONTINUOUS
  62
7
  10
 1509.1524138975
  20
 4724.9921185372
  30
0.0
  11
 1595.0777643446
  21
 4724.9921185372
  31
0.0
   0
LINE
   5
2DD
 100
AcDbEntity
   8
LEVEL002
 370
13
 100
AcDbLine
   6
CONTINUOUS
  62
7
  10
 1509.1524138975
  20
 4724.9921185372
  30
0.0
  11
 1595.0777643446
  21
 4724.9921185372
  31
0.0
   0
LINE
   5
2DE
 100
AcDbEntity
   8
LEVEL002
 370
13
 100
AcDbLine
   6
CONTINUOUS
  62
7
  10
 1604.0828799455
  20
 4834.9921185372
  30
0.0
  11
 1504.3651567410
  21
 4834.9921185372
  31
0.0
   0
LINE
   5
2DF
 100
AcDbEntity
   8
LEVEL002
 370
13
 100
AcDbLine
   6
CONTINUOUS
  62
7
  10
 1504.3651567410
  20
 4834.9921185372
  30
0.0
  11
 1504.3651567410
  21
 4813.8367355982
  31
0.0
   0
LINE
   5
2E0
 100
AcDbEntity
   8
LEVEL002
 370
13
 100
AcDbLine
   6
CONTINUOUS
  62
6
  10
 1594.6798820859
  20
 4829.9921185372
  30
0.0
  11
 1594.6798820859
  21
 4752.4782200890
  31
0.0
   0
LINE
   5
2E1
 100
AcDbEntity
   8
LEVEL002
 370
13
 100
AcDbLine
   6
CONTINUOUS
  62
7
  10
 1596.6650891211
  20
 4212.4921185372
  30
0.0
  11
 1596.6650891211
  21
 4614.9921185372
  31
0.0
   0
LINE
   5
2E2
 100
AcDbEntity
   8
LEVEL002
 370
13
 100
AcDbLine
   6
CONTINUOUS
  62
7
  10
 1507.5650891211
  20
 4614.9921185372
  30
0.0
  11
 1507.5650891211
  21
 4212.4921185372
  31
0.0
   0
LEADER
   5
2E3
 100
AcDbEntity
   8
LEVEL002
 370
13
   6
CONTINUOUS
  62
1
 100
AcDbLeader
   3
GMM002
  73
3
  74
1
  75
0
  40
 60.000000000000
  41
0.0
  76
2
  10
 2159.1117842249
  20
 5134.7473269458
  30
0.0
  10
 2390.8969865061
  20
 5261.0459314146
  30
0.0
  77
1
   0
LEADER
   5
2E4
 100
AcDbEntity
   8
LEVEL002
 370
13
   6
CONTINUOUS
  62
1
 100
AcDbLeader
   3
GMM002
  73
3
  74
1
  75
0
  40
 60.000000000000
  41
0.0
  76
2
  10
 2123.6051314699
  20
 4323.3928755024
  30
0.0
  10
 2202.6176159135
  20
 4244.4895917456
  30
0.0
  77
1
   0
MTEXT
   5
2E5
 100
AcDbEntity
   8
LEVEL002
 370
13
  62
1
 100
AcDbMText
  10
 4552.1150891211
  20
 5544.9921185372
  30
0.0
  40
 57.142857142858
  41
0.0
  71
5
  72
1
   1
\T1.000000;背　面　図
   7
GMM001
  44
 0.79999984000003
   0
MTEXT
   5
2E6
 100
AcDbEntity
   8
LEVEL002
 370
13
  62
1
 100
AcDbMText
  10
 1552.1150891211
  20
 5544.9921185372
  30
0.0
  40
 57.142857142858
  41
0.0
  71
5
  72
1
   1
\T1.000000;正　面　図
   7
GMM001
  44
 0.79999984000003
   0
LINE
   5
2E7
 100
AcDbEntity
   8
LEVEL002
 370
13
 100
AcDbLine
   6
CONTINUOUS
  62
7
  10
 1596.6650891211
  20
 5016.4921185372
  30
0.0
  11
 1507.5650891211
  21
 5016.4921185372
  31
0.0
   0
LINE
   5
2E8
 100
AcDbEntity
   8
LEVEL002
 370
13
 100
AcDbLine
   6
CONTINUOUS
  62
7
  10
 1507.5650891211
  20
 5016.4921185372
  30
0.0
  11
 1507.5650891211
  21
 5013.4921185372
  31
0.0
   0
LINE
   5
2E9
 100
AcDbEntity
   8
LEVEL002
 370
13
 100
AcDbLine
   6
CONTINUOUS
  62
7
  10
 1507.5650891211
  20
 5013.4921185372
  30
0.0
  11
 1596.6650891211
  21
 5013.4921185372
  31
0.0
   0
LINE
   5
2EA
 100
AcDbEntity
   8
LEVEL002
 370
13
 100
AcDbLine
   6
CONTINUOUS
  62
7
  10
 1596.6650891211
  20
 5013.4921185372
  30
0.0
  11
 1596.6650891211
  21
 5016.4921185372
  31
0.0
   0
LINE
   5
2EB
 100
AcDbEntity
   8
LEVEL002
 370
13
 100
AcDbLine
   6
DOT
  62
1
  10
 1591.6650891211
  20
 5013.4921185372
  30
0.0
  11
 1591.6650891211
  21
 4986.4921185372
  31
0.0
   0
LINE
   5
2EC
 100
AcDbEntity
   8
LEVEL002
 370
13
 100
AcDbLine
   6
DOT
  62
1
  10
 1591.6650891211
  20
 4986.4921185372
  30
0.0
  11
 1512.5650891211
  21
 4986.4921185372
  31
0.0
   0
LINE
   5
2ED
 100
AcDbEntity
   8
LEVEL002
 370
13
 100
AcDbLine
   6
DOT
  62
1
  10
 1512.5650891211
  20
 4986.4921185372
  30
0.0
  11
 1512.5650891211
  21
 5013.4921185372
  31
0.0
   0
LINE
   5
2EE
 100
AcDbEntity
   8
LEVEL002
 370
13
 100
AcDbLine
   6
CONTINUOUS
  62
7
  10
 1596.6650891211
  20
 4834.9921185372
  30
0.0
  11
 1596.6650891211
  21
 5012.4921185372
  31
0.0
   0
LINE
   5
2EF
 100
AcDbEntity
   8
LEVEL002
 370
13
 100
AcDbLine
   6
CONTINUOUS
  62
7
  10
 1596.6650891211
  20
 5012.4921185372
  30
0.0
  11
 1507.5650891211
  21
 5012.4921185372
  31
0.0
   0
LINE
   5
2F0
 100
AcDbEntity
   8
LEVEL002
 370
13
 100
AcDbLine
   6
CONTINUOUS
  62
7
  10
 1507.5650891211
  20
 5012.4921185372
  30
0.0
  11
 1507.5650891211
  21
 4834.9921185372
  31
0.0
   0
LINE
   5
2F1
 100
AcDbEntity
   8
LEVEL002
 370
13
 100
AcDbLine
   6
DASHDOT
  62
6
  10
 3252.1150891211
  20
 5062.4921185372
  30
0.0
  11
 3252.1150891211
  21
 512.49211853719
  31
0.0
   0
LINE
   5
2F2
 100
AcDbEntity
   8
LEVEL002
 370
13
 100
AcDbLine
   6
DASHDOT
  62
6
  10
 1552.1150891211
  20
 5062.4921185372
  30
0.0
  11
 1552.1150891211
  21
 512.49211853719
  31
0.0
   0
LINE
   5
2F3
 100
AcDbEntity
   8
LEVEL002
 370
13
 100
AcDbLine
   6
CONTINUOUS
  62
5
  10
 1552.1150891098
  20
 4162.4947158548
  30
0.0
  11
 1497.1150907489
  21
 4092.4947179410
  31
0.0
   0
LINE
   5
2F4
 100
AcDbEntity
   8
LEVEL002
 370
13
 100
AcDbLine
   6
CONTINUOUS
  62
5
  10
 1497.1150907489
  20
 4092.4947179410
  30
0.0
  11
 1527.1150898548
  21
 4092.4947179410
  31
0.0
   0
LINE
   5
2F5
 100
AcDbEntity
   8
LEVEL002
 370
13
 100
AcDbLine
   6
CONTINUOUS
  62
5
  10
 1527.1150898548
  20
 4092.4947179410
  30
0.0
  11
 1527.1150898548
  21
 4062.4947188350
  31
0.0
   0
LINE
   5
2F6
 100
AcDbEntity
   8
LEVEL002
 370
13
 100
AcDbLine
   6
CONTINUOUS
  62
5
  10
 1527.1150898548
  20
 4062.4947188350
  30
0.0
  11
 1577.1150883647
  21
 4062.4947188350
  31
0.0
   0
LINE
   5
2F7
 100
AcDbEntity
   8
LEVEL002
 370
13
 100
AcDbLine
   6
CONTINUOUS
  62
5
  10
 1577.1150883647
  20
 4062.4947188350
  30
0.0
  11
 1577.1150883647
  21
 4092.4947179410
  31
0.0
   0
LINE
   5
2F8
 100
AcDbEntity
   8
LEVEL002
 370
13
 100
AcDbLine
   6
CONTINUOUS
  62
5
  10
 1577.1150883647
  20
 4092.4947179410
  30
0.0
  11
 1607.1150874706
  21
 4092.4947179410
  31
0.0
   0
LINE
   5
2F9
 100
AcDbEntity
   8
LEVEL002
 370
13
 100
AcDbLine
   6
CONTINUOUS
  62
5
  10
 1607.1150874706
  20
 4092.4947179410
  30
0.0
  11
 1552.1150891098
  21
 4162.4947158548
  31
0.0
   0
LINE
   5
2FA
 100
AcDbEntity
   8
LEVEL002
 370
13
 100
AcDbLine
   6
CONTINUOUS
  62
5
  10
 1482.4721468493
  20
 3996.4858096694
  30
0.0
  11
 1497.7413114333
  21
 3994.2311710648
  31
0.0
   0
ARC
   5
2FB
 100
AcDbEntity
   8
LEVEL002
 370
13
   6
CONTINUOUS
  62
5
 100
AcDbCircle
  10
 1496.3585995972
  20
 3973.6979651120
  30
0.0
  40
 20.579709393390
 100
AcDbArc
  50
 10.432218603622
  51
 86.147502468999
   0
ARC
   5
2FC
 100
AcDbEntity
   8
LEVEL002
 370
13
   6
CONTINUOUS
  62
5
 100
AcDbCircle
  10
 1502.7142615018
  20
 3977.1223204262
  30
0.0
  40
 13.887146297480
 100
AcDbArc
  50
 284.73811645768
  51
 1.2463330419870
   0
LINE
   5
2FD
 100
AcDbEntity
   8
LEVEL002
 370
13
 100
AcDbLine
   6
CONTINUOUS
  62
5
  10
 1506.2471705549
  20
 3963.6920789574
  30
0.0
  11
 1482.4721468493
  21
 3996.4858096694
  31
0.0
   0
ARC
   5
2FE
 100
AcDbEntity
   8
LEVEL002
 370
13
   6
CONTINUOUS
  62
5
 100
AcDbCircle
  10
 1490.0193568361
  20
 3936.8808112256
  30
0.0
  40
 20.228108756896
 100
AcDbArc
  50
 1.0517504589889
  51
 78.795792274219
   0
ARC
   5
2FF
 100
AcDbEntity
   8
LEVEL002
 370
13
   6
CONTINUOUS
  62
5
 100
AcDbCircle
  10
 1495.2757873416
  20
 3939.0305971254
  30
0.0
  40
 15.073557642890
 100
AcDbArc
  50
 288.65956808359
  51
 353.22403827740
   0
LINE
   5
300
 100
AcDbEntity
   8
LEVEL002
 370
13
 100
AcDbLine
   6
CONTINUOUS
  62
5
  10
 1484.8290193377
  20
 3910.7095976262
  30
0.0
  11
 1491.7977080949
  21
 3871.8694193404
  31
0.0
   0
ARC
   5
301
 100
AcDbEntity
   8
LEVEL002
 370
13
   6
CONTINUOUS
  62
5
 100
AcDbCircle
  10
 1501.7801254165
  20
 3875.5013645268
  30
0.0
  40
 10.622602384609
 100
AcDbArc
  50
 199.99311911326
  51
 1.9679733412269
   0
LINE
   5
302
 100
AcDbEntity
   8
LEVEL002
 370
13
 100
AcDbLine
   6
CONTINUOUS
  62
5
  10
 1512.3964623638
  20
 3875.8661538404
  30
0.0
  11
 1509.2192773999
  21
 3892.9804111428
  31
0.0
   0
LINE
   5
303
 100
AcDbEntity
   8
LEVEL002
 370
13
 100
AcDbLine
   6
CONTINUOUS
  62
5
  10
 1509.2192773999
  20
 3892.9804111428
  30
0.0
  11
 1521.5169454904
  21
 3952.4191911096
  31
0.0
   0
LINE
   5
304
 100
AcDbEntity
   8
LEVEL002
 370
13
 100
AcDbLine
   6
CONTINUOUS
  62
5
  10
 1521.5169454904
  20
 3952.4191911096
  30
0.0
  11
 1498.6638577926
  21
 3902.5112030950
  31
0.0
   0
LINE
   5
305
 100
AcDbEntity
   8
LEVEL002
 370
13
 100
AcDbLine
   6
CONTINUOUS
  62
5
  10
 1498.6638577926
  20
 3902.5112030950
  30
0.0
  11
 1484.8290193377
  21
 3910.7095976262
  31
0.0
   0
ARC
   5
306
 100
AcDbEntity
   8
LEVEL002
 370
13
   6
CONTINUOUS
  62
5
 100
AcDbCircle
  10
 1606.8761280753
  20
 3931.1277194400
  30
0.0
  40
 5.0631766002424
 100
AcDbArc
  50
 274.72626205415
  51
 43.105625042959
   0
ARC
   5
307
 100
AcDbEntity
   8
LEVEL002
 370
13
   6
CONTINUOUS
  62
5
 100
AcDbCircle
  10
 1610.5157617827
  20
 3974.2766759030
  30
0.0
  40
 5.5826340442110
 100
AcDbArc
  50
 274.79665758004
  51
 36.910963374275
   0
LINE
   5
308
 100
AcDbEntity
   8
LEVEL002
 370
13
 100
AcDbLine
   6
CONTINUOUS
  62
5
  10
 1610.5727289691
  20
 3934.5876181548
  30
0.0
  11
 1594.1756347313
  21
 3947.6026018978
  31
0.0
   0
LINE
   5
309
 100
AcDbEntity
   8
LEVEL002
 370
13
 100
AcDbLine
   6
CONTINUOUS
  62
5
  10
 1594.1756347313
  20
 3947.6026018978
  30
0.0
  11
 1586.5920167932
  21
 3938.1743490048
  31
0.0
   0
LINE
   5
30A
 100
AcDbEntity
   8
LEVEL002
 370
13
 100
AcDbLine
   6
CONTINUOUS
  62
5
  10
 1586.5920167932
  20
 3938.1743490048
  30
0.0
  11
 1573.7819585812
  21
 3938.1743490048
  31
0.0
   0
LINE
   5
30B
 100
AcDbEntity
   8
LEVEL002
 370
13
 100
AcDbLine
   6
CONTINUOUS
  62
5
  10
 1573.7819585812
  20
 3938.1743490048
  30
0.0
  11
 1573.7819585812
  21
 3968.7135937002
  31
0.0
   0
LINE
   5
30C
 100
AcDbEntity
   8
LEVEL002
 370
13
 100
AcDbLine
   6
CONTINUOUS
  62
5
  10
 1573.7819585812
  20
 3968.7135937002
  30
0.0
  11
 1610.9825800312
  21
 3968.7135937002
  31
0.0
   0
LINE
   5
30D
 100
AcDbEntity
   8
LEVEL002
 370
13
 100
AcDbLine
   6
CONTINUOUS
  62
5
  10
 1614.9794671191
  20
 3977.6294564716
  30
0.0
  11
 1601.1443234884
  21
 3989.7220464432
  31
0.0
   0
LINE
   5
30E
 100
AcDbEntity
   8
LEVEL002
 370
13
 100
AcDbLine
   6
CONTINUOUS
  62
5
  10
 1601.1443234884
  20
 3989.7220464432
  30
0.0
  11
 1589.2568116357
  21
 3979.6790169574
  31
0.0
   0
LINE
   5
30F
 100
AcDbEntity
   8
LEVEL002
 370
13
 100
AcDbLine
   6
CONTINUOUS
  62
5
  10
 1589.2568116357
  20
 3979.6790169574
  30
0.0
  11
 1573.7819585812
  21
 3979.6790169574
  31
0.0
   0
LINE
   5
310
 100
AcDbEntity
   8
LEVEL002
 370
13
 100
AcDbLine
   6
CONTINUOUS
  62
5
  10
 1573.7819585812
  20
 3979.6790169574
  30
0.0
  11
 1573.7819585812
  21
 3995.1535648360
  31
0.0
   0
LINE
   5
311
 100
AcDbEntity
   8
LEVEL002
 370
13
 100
AcDbLine
   6
CONTINUOUS
  62
5
  10
 1573.7819585812
  20
 3995.1535648360
  30
0.0
  11
 1577.3689946071
  21
 3996.9981997908
  31
0.0
   0
LINE
   5
312
 100
AcDbEntity
   8
LEVEL002
 370
13
 100
AcDbLine
   6
CONTINUOUS
  62
5
  10
 1577.3689946071
  20
 3996.9981997908
  30
0.0
  11
 1577.6763066097
  21
 3999.6626894576
  31
0.0
   0
LINE
   5
313
 100
AcDbEntity
   8
LEVEL002
 370
13
 100
AcDbLine
   6
CONTINUOUS
  62
5
  10
 1577.6763066097
  20
 3999.6626894576
  30
0.0
  11
 1548.7767713382
  21
 4004.1718140790
  31
0.0
   0
LINE
   5
314
 100
AcDbEntity
   8
LEVEL002
 370
13
 100
AcDbLine
   6
CONTINUOUS
  62
5
  10
 1548.7767713382
  20
 4004.1718140790
  30
0.0
  11
 1548.7767713382
  21
 3979.6790169574
  31
0.0
   0
LINE
   5
315
 100
AcDbEntity
   8
LEVEL002
 370
13
 100
AcDbLine
   6
CONTINUOUS
  62
5
  10
 1548.7767713382
  20
 3979.6790169574
  30
0.0
  11
 1519.3648459452
  21
 3979.6790169574
  31
0.0
   0
LINE
   5
316
 100
AcDbEntity
   8
LEVEL002
 370
13
 100
AcDbLine
   6
CONTINUOUS
  62
5
  10
 1519.3648459452
  20
 3979.6790169574
  30
0.0
  11
 1523.7715840951
  21
 3968.7135937002
  31
0.0
   0
LINE
   5
317
 100
AcDbEntity
   8
LEVEL002
 370
13
 100
AcDbLine
   6
CONTINUOUS
  62
5
  10
 1523.7715840951
  20
 3968.7135937002
  30
0.0
  11
 1548.7767713382
  21
 3968.7135937002
  31
0.0
   0
LINE
   5
318
 100
AcDbEntity
   8
LEVEL002
 370
13
 100
AcDbLine
   6
CONTINUOUS
  62
5
  10
 1548.7767713382
  20
 3968.7135937002
  30
0.0
  11
 1548.7767713382
  21
 3938.1743490048
  31
0.0
   0
LINE
   5
319
 100
AcDbEntity
   8
LEVEL002
 370
13
 100
AcDbLine
   6
CONTINUOUS
  62
5
  10
 1548.7767713382
  20
 3938.1743490048
  30
0.0
  11
 1521.0045553690
  21
 3938.1743490048
  31
0.0
   0
LINE
   5
31A
 100
AcDbEntity
   8
LEVEL002
 370
13
 100
AcDbLine
   6
CONTINUOUS
  62
5
  10
 1521.0045553690
  20
 3938.1743490048
  30
0.0
  11
 1525.9236836403
  21
 3926.0817590332
  31
0.0
   0
LINE
   5
31B
 100
AcDbEntity
   8
LEVEL002
 370
13
 100
AcDbLine
   6
CONTINUOUS
  62
5
  10
 1525.9236836403
  20
 3926.0817590332
  30
0.0
  11
 1548.7767713382
  21
 3926.0817590332
  31
0.0
   0
LINE
   5
31C
 100
AcDbEntity
   8
LEVEL002
 370
13
 100
AcDbLine
   6
CONTINUOUS
  62
5
  10
 1548.7767713382
  20
 3926.0817590332
  30
0.0
  11
 1548.7767713382
  21
 3881.1952857616
  31
0.0
   0
LINE
   5
31D
 100
AcDbEntity
   8
LEVEL002
 370
13
 100
AcDbLine
   6
CONTINUOUS
  62
5
  10
 1548.7767713382
  20
 3881.1952857616
  30
0.0
  11
 1516.2905052165
  21
 3881.1952857616
  31
0.0
   0
LINE
   5
31E
 100
AcDbEntity
   8
LEVEL002
 370
13
 100
AcDbLine
   6
CONTINUOUS
  62
5
  10
 1516.2905052165
  20
 3881.1952857616
  30
0.0
  11
 1521.7220236093
  21
 3869.1023906142
  31
0.0
   0
LINE
   5
31F
 100
AcDbEntity
   8
LEVEL002
 370
13
 100
AcDbLine
   6
CONTINUOUS
  62
5
  10
 1521.7220236093
  20
 3869.1023906142
  30
0.0
  11
 1612.0998285330
  21
 3869.1023906142
  31
0.0
   0
LINE
   5
320
 100
AcDbEntity
   8
LEVEL002
 370
13
 100
AcDbLine
   6
CONTINUOUS
  62
5
  10
 1615.5544182738
  20
 3880.6252174192
  30
0.0
  11
 1600.2220823050
  21
 3890.7259251260
  31
0.0
   0
LINE
   5
321
 100
AcDbEntity
   8
LEVEL002
 370
13
 100
AcDbLine
   6
CONTINUOUS
  62
5
  10
 1600.2220823050
  20
 3890.7259251260
  30
0.0
  11
 1592.3311523643
  21
 3881.1952857616
  31
0.0
   0
LINE
   5
322
 100
AcDbEntity
   8
LEVEL002
 370
13
 100
AcDbLine
   6
CONTINUOUS
  62
5
  10
 1592.3311523643
  20
 3881.1952857616
  30
0.0
  11
 1573.7819585812
  21
 3881.1952857616
  31
0.0
   0
LINE
   5
323
 100
AcDbEntity
   8
LEVEL002
 370
13
 100
AcDbLine
   6
CONTINUOUS
  62
5
  10
 1573.7819585812
  20
 3881.1952857616
  30
0.0
  11
 1573.7819585812
  21
 3926.0817590332
  31
0.0
   0
LINE
   5
324
 100
AcDbEntity
   8
LEVEL002
 370
13
 100
AcDbLine
   6
CONTINUOUS
  62
5
  10
 1573.7819585812
  20
 3926.0817590332
  30
0.0
  11
 1607.2933101216
  21
 3926.0817590332
  31
0.0
   0
ARC
   5
325
 100
AcDbEntity
   8
LEVEL002
 370
13
   6
CONTINUOUS
  62
5
 100
AcDbCircle
  10
 1612.1003078329
  20
 3875.3815102580
  30
0.0
  40
 6.2791196620726
 100
AcDbArc
  50
 269.99562647876
  51
 56.626490037651
   0
ARC
   5
326
 100
AcDbEntity
   8
LEVEL002
 370
13
   6
CONTINUOUS
  62
5
 100
AcDbCircle
  10
 1522.7134309874
  20
 3768.5559339706
  30
0.0
  40
 22.293228438698
 100
AcDbArc
  50
 35.161132790291
  51
 78.641284698020
   0
ARC
   5
327
 100
AcDbEntity
   8
LEVEL002
 370
13
   6
CONTINUOUS
  62
5
 100
AcDbCircle
  10
 1534.5934719827
  20
 3779.6126459058
  30
0.0
  40
 6.5907971086860
 100
AcDbArc
  50
 312.23536417695
  51
 15.681870098982
   0
LINE
   5
328
 100
AcDbEntity
   8
LEVEL002
 370
13
 100
AcDbLine
   6
CONTINUOUS
  62
5
  10
 1539.0236588358
  20
 3774.7328865906
  30
0.0
  11
 1557.9506602249
  21
 3774.7328865906
  31
0.0
   0
LINE
   5
329
 100
AcDbEntity
   8
LEVEL002
 370
13
 100
AcDbLine
   6
CONTINUOUS
  62
5
  10
 1557.9506602249
  20
 3774.7328865906
  30
0.0
  11
 1568.4038459485
  21
 3790.4125125882
  31
0.0
   0
LINE
   5
32A
 100
AcDbEntity
   8
LEVEL002
 370
13
 100
AcDbLine
   6
CONTINUOUS
  62
5
  10
 1568.4038459485
  20
 3790.4125125882
  30
0.0
  11
 1527.1041035270
  21
 3790.4125125882
  31
0.0
   0
ARC
   5
32B
 100
AcDbEntity
   8
LEVEL002
 370
13
   6
CONTINUOUS
  62
5
 100
AcDbCircle
  10
 1606.4315568156
  20
 3795.5686862132
  30
0.0
  40
 5.1561789168066
 100
AcDbArc
  50
 269.91791191256
  51
 52.070025543603
   0
LINE
   5
32C
 100
AcDbEntity
   8
LEVEL002
 370
13
 100
AcDbLine
   6
CONTINUOUS
  62
5
  10
 1618.3119865510
  20
 3772.9906381074
  30
0.0
  11
 1600.3780271246
  21
 3783.4438238310
  31
0.0
   0
LINE
   5
32D
 100
AcDbEntity
   8
LEVEL002
 370
13
 100
AcDbLine
   6
CONTINUOUS
  62
5
  10
 1600.3780271246
  20
 3783.4438238310
  30
0.0
  11
 1593.8191894294
  21
 3774.7328865906
  31
0.0
   0
LINE
   5
32E
 100
AcDbEntity
   8
LEVEL002
 370
13
 100
AcDbLine
   6
CONTINUOUS
  62
5
  10
 1593.8191894294
  20
 3774.7328865906
  30
0.0
  11
 1578.0702885316
  21
 3774.7328865906
  31
0.0
   0
LINE
   5
32F
 100
AcDbEntity
   8
LEVEL002
 370
13
 100
AcDbLine
   6
CONTINUOUS
  62
5
  10
 1578.0702885316
  20
 3774.7328865906
  30
0.0
  11
 1587.1578126748
  21
 3782.9314337096
  31
0.0
   0
LINE
   5
330
 100
AcDbEntity
   8
LEVEL002
 370
13
 100
AcDbLine
   6
CONTINUOUS
  62
5
  10
 1587.1578126748
  20
 3782.9314337096
  30
0.0
  11
 1590.9496216438
  21
 3783.4438238310
  31
0.0
   0
LINE
   5
331
 100
AcDbEntity
   8
LEVEL002
 370
13
 100
AcDbLine
   6
CONTINUOUS
  62
5
  10
 1590.9496216438
  20
 3783.4438238310
  30
0.0
  11
 1592.5893310676
  21
 3785.8006963194
  31
0.0
   0
LINE
   5
332
 100
AcDbEntity
   8
LEVEL002
 370
13
 100
AcDbLine
   6
CONTINUOUS
  62
5
  10
 1592.5893310676
  20
 3785.8006963194
  30
0.0
  11
 1589.9248414009
  21
 3790.4125125882
  31
0.0
   0
LINE
   5
333
 100
AcDbEntity
   8
LEVEL002
 370
13
 100
AcDbLine
   6
CONTINUOUS
  62
5
  10
 1589.9248414009
  20
 3790.4125125882
  30
0.0
  11
 1606.4241695225
  21
 3790.4125125882
  31
0.0
   0
LINE
   5
334
 100
AcDbEntity
   8
LEVEL002
 370
13
 100
AcDbLine
   6
CONTINUOUS
  62
5
  10
 1609.6010493106
  20
 3799.6356873622
  30
0.0
  11
 1590.9496216438
  21
 3809.8836423790
  31
0.0
   0
LINE
   5
335
 100
AcDbEntity
   8
LEVEL002
 370
13
 100
AcDbLine
   6
CONTINUOUS
  62
5
  10
 1590.9496216438
  20
 3809.8836423790
  30
0.0
  11
 1584.8006350107
  21
 3800.3530030146
  31
0.0
   0
LINE
   5
336
 100
AcDbEntity
   8
LEVEL002
 370
13
 100
AcDbLine
   6
CONTINUOUS
  62
5
  10
 1584.8006350107
  20
 3800.3530030146
  30
0.0
  11
 1563.3821786177
  21
 3800.3530030146
  31
0.0
   0
LINE
   5
337
 100
AcDbEntity
   8
LEVEL002
 370
13
 100
AcDbLine
   6
CONTINUOUS
  62
5
  10
 1563.3821786177
  20
 3800.3530030146
  30
0.0
  11
 1563.3821786177
  21
 3806.7067625910
  31
0.0
   0
LINE
   5
338
 100
AcDbEntity
   8
LEVEL002
 370
13
 100
AcDbLine
   6
CONTINUOUS
  62
5
  10
 1563.3821786177
  20
 3806.7067625910
  30
0.0
  11
 1565.5068123435
  21
 3810.4047300100
  31
0.0
   0
LINE
   5
339
 100
AcDbEntity
   8
LEVEL002
 370
13
 100
AcDbLine
   6
CONTINUOUS
  62
5
  10
 1565.5068123435
  20
 3810.4047300100
  30
0.0
  11
 1564.6868050437
  21
 3812.1468259054
  31
0.0
   0
LINE
   5
33A
 100
AcDbEntity
   8
LEVEL002
 370
13
 100
AcDbLine
   6
CONTINUOUS
  62
5
  10
 1564.6868050437
  20
 3812.1468259054
  30
0.0
  11
 1539.9141617390
  21
 3812.7532101646
  31
0.0
   0
LINE
   5
33B
 100
AcDbEntity
   8
LEVEL002
 370
13
 100
AcDbLine
   6
CONTINUOUS
  62
5
  10
 1539.9141617390
  20
 3812.7532101646
  30
0.0
  11
 1539.9141617390
  21
 3800.3530030146
  31
0.0
   0
LINE
   5
33C
 100
AcDbEntity
   8
LEVEL002
 370
13
 100
AcDbLine
   6
CONTINUOUS
  62
5
  10
 1539.9141617390
  20
 3800.3530030146
  30
0.0
  11
 1490.4518829397
  21
 3800.3530030146
  31
0.0
   0
LINE
   5
33D
 100
AcDbEntity
   8
LEVEL002
 370
13
 100
AcDbLine
   6
CONTINUOUS
  62
5
  10
 1490.4518829397
  20
 3800.3530030146
  30
0.0
  11
 1494.9251494079
  21
 3790.4125125882
  31
0.0
   0
LINE
   5
33E
 100
AcDbEntity
   8
LEVEL002
 370
13
 100
AcDbLine
   6
CONTINUOUS
  62
5
  10
 1494.9251494079
  20
 3790.4125125882
  30
0.0
  11
 1512.5521020076
  21
 3790.4125125882
  31
0.0
   0
LINE
   5
33F
 100
AcDbEntity
   8
LEVEL002
 370
13
 100
AcDbLine
   6
CONTINUOUS
  62
5
  10
 1512.5521020076
  20
 3790.4125125882
  30
0.0
  11
 1522.4925924340
  21
 3774.7328865906
  31
0.0
   0
LINE
   5
340
 100
AcDbEntity
   8
LEVEL002
 370
13
 100
AcDbLine
   6
CONTINUOUS
  62
5
  10
 1522.4925924340
  20
 3774.7328865906
  30
0.0
  11
 1487.7773224725
  21
 3774.7328865906
  31
0.0
   0
LINE
   5
341
 100
AcDbEntity
   8
LEVEL002
 370
13
 100
AcDbLine
   6
CONTINUOUS
  62
5
  10
 1487.7773224725
  20
 3774.7328865906
  30
0.0
  11
 1492.6778350217
  21
 3764.1774669834
  31
0.0
   0
LINE
   5
342
 100
AcDbEntity
   8
LEVEL002
 370
13
 100
AcDbLine
   6
CONTINUOUS
  62
5
  10
 1492.6778350217
  20
 3764.1774669834
  30
0.0
  11
 1616.2624260652
  21
 3764.1774669834
  31
0.0
   0
ARC
   5
343
 100
AcDbEntity
   8
LEVEL002
 370
13
   6
CONTINUOUS
  62
5
 100
AcDbCircle
  10
 1512.0518238753
  20
 3740.1469502626
  30
0.0
  40
 31.206602120202
 100
AcDbArc
  50
 246.86700487445
  51
 289.54634462667
   0
LINE
   5
344
 100
AcDbEntity
   8
LEVEL002
 370
13
 100
AcDbLine
   6
CONTINUOUS
  62
5
  10
 1522.4925924340
  20
 3740.0945209238
  30
0.0
  11
 1522.4925924340
  21
 3746.5506669716
  31
0.0
   0
LINE
   5
345
 100
AcDbEntity
   8
LEVEL002
 370
13
 100
AcDbLine
   6
CONTINUOUS
  62
5
  10
 1522.4925924340
  20
 3746.5506669716
  30
0.0
  11
 1579.0618046153
  21
 3746.5506669716
  31
0.0
   0
LINE
   5
346
 100
AcDbEntity
   8
LEVEL002
 370
13
 100
AcDbLine
   6
CONTINUOUS
  62
5
  10
 1579.0618046153
  20
 3746.5506669716
  30
0.0
  11
 1579.0618046153
  21
 3740.0945209238
  31
0.0
   0
LINE
   5
347
 100
AcDbEntity
   8
LEVEL002
 370
13
 100
AcDbLine
   6
CONTINUOUS
  62
5
  10
 1579.0618046153
  20
 3740.0945209238
  30
0.0
  11
 1522.4925924340
  21
 3740.0945209238
  31
0.0
   0
LINE
   5
348
 100
AcDbEntity
   8
LEVEL002
 370
13
 100
AcDbLine
   6
CONTINUOUS
  62
5
  10
 1605.6044673985
  20
 3753.5193557288
  30
0.0
  11
 1585.6206423104
  21
 3762.5377575596
  31
0.0
   0
LINE
   5
349
 100
AcDbEntity
   8
LEVEL002
 370
13
 100
AcDbLine
   6
CONTINUOUS
  62
5
  10
 1585.6206423104
  20
 3762.5377575596
  30
0.0
  11
 1579.0618046153
  21
 3754.8516005620
  31
0.0
   0
LINE
   5
34A
 100
AcDbEntity
   8
LEVEL002
 370
13
 100
AcDbLine
   6
CONTINUOUS
  62
5
  10
 1579.0618046153
  20
 3754.8516005620
  30
0.0
  11
 1522.4925924340
  21
 3754.8516005620
  31
0.0
   0
LINE
   5
34B
 100
AcDbEntity
   8
LEVEL002
 370
13
 100
AcDbLine
   6
CONTINUOUS
  62
5
  10
 1522.4925924340
  20
 3754.8516005620
  30
0.0
  11
 1522.4925924340
  21
 3756.5938490454
  31
0.0
   0
LINE
   5
34C
 100
AcDbEntity
   8
LEVEL002
 370
13
 100
AcDbLine
   6
CONTINUOUS
  62
5
  10
 1522.4925924340
  20
 3756.5938490454
  30
0.0
  11
 1499.8445828550
  21
 3761.2053601384
  31
0.0
   0
LINE
   5
34D
 100
AcDbEntity
   8
LEVEL002
 370
13
 100
AcDbLine
   6
CONTINUOUS
  62
5
  10
 1499.8445828550
  20
 3761.2053601384
  30
0.0
  11
 1499.7917874465
  21
 3711.4495022462
  31
0.0
   0
LINE
   5
34E
 100
AcDbEntity
   8
LEVEL002
 370
13
 100
AcDbLine
   6
CONTINUOUS
  62
5
  10
 1522.4925924340
  20
 3724.1074303358
  30
0.0
  11
 1522.4925924340
  21
 3730.9700705120
  31
0.0
   0
LINE
   5
34F
 100
AcDbEntity
   8
LEVEL002
 370
13
 100
AcDbLine
   6
CONTINUOUS
  62
5
  10
 1522.4925924340
  20
 3730.9700705120
  30
0.0
  11
 1579.0618046153
  21
 3730.9700705120
  31
0.0
   0
LINE
   5
350
 100
AcDbEntity
   8
LEVEL002
 370
13
 100
AcDbLine
   6
CONTINUOUS
  62
5
  10
 1579.0618046153
  20
 3730.9700705120
  30
0.0
  11
 1579.0618046153
  21
 3724.1074303358
  31
0.0
   0
LINE
   5
351
 100
AcDbEntity
   8
LEVEL002
 370
13
 100
AcDbLine
   6
CONTINUOUS
  62
5
  10
 1579.0618046153
  20
 3724.1074303358
  30
0.0
  11
 1522.4925924340
  21
 3724.1074303358
  31
0.0
   0
ARC
   5
352
 100
AcDbEntity
   8
LEVEL002
 370
13
   6
CONTINUOUS
  62
5
 100
AcDbCircle
  10
 1602.1054918739
  20
 3750.9072629240
  30
0.0
  40
 4.3664469013676
 100
AcDbArc
  50
 266.15058922022
  51
 36.742470507590
   0
LINE
   5
353
 100
AcDbEntity
   8
LEVEL002
 370
13
 100
AcDbLine
   6
CONTINUOUS
  62
5
  10
 1522.4925924340
  20
 3710.7387478728
  30
0.0
  11
 1522.4925924340
  21
 3715.4991847426
  31
0.0
   0
LINE
   5
354
 100
AcDbEntity
   8
LEVEL002
 370
13
 100
AcDbLine
   6
CONTINUOUS
  62
5
  10
 1522.4925924340
  20
 3715.4991847426
  30
0.0
  11
 1579.0618046153
  21
 3715.4991847426
  31
0.0
   0
LINE
   5
355
 100
AcDbEntity
   8
LEVEL002
 370
13
 100
AcDbLine
   6
CONTINUOUS
  62
5
  10
 1579.0618046153
  20
 3715.4991847426
  30
0.0
  11
 1579.0618046153
  21
 3710.5800564714
  31
0.0
   0
LINE
   5
356
 100
AcDbEntity
   8
LEVEL002
 370
13
 100
AcDbLine
   6
CONTINUOUS
  62
5
  10
 1579.0618046153
  20
 3710.5800564714
  30
0.0
  11
 1595.9712889746
  21
 3710.5800564714
  31
0.0
   0
LINE
   5
357
 100
AcDbEntity
   8
LEVEL002
 370
13
 100
AcDbLine
   6
CONTINUOUS
  62
5
  10
 1595.9712889746
  20
 3710.5800564714
  30
0.0
  11
 1599.6602537084
  21
 3712.6296169572
  31
0.0
   0
LINE
   5
358
 100
AcDbEntity
   8
LEVEL002
 370
13
 100
AcDbLine
   6
CONTINUOUS
  62
5
  10
 1599.6602537084
  20
 3712.6296169572
  30
0.0
  11
 1601.8123532537
  21
 3717.0363551070
  31
0.0
   0
LINE
   5
359
 100
AcDbEntity
   8
LEVEL002
 370
13
 100
AcDbLine
   6
CONTINUOUS
  62
5
  10
 1601.8123532537
  20
 3717.0363551070
  30
0.0
  11
 1601.8056393867
  21
 3746.5508195594
  31
0.0
   0
LINE
   5
35A
 100
AcDbEntity
   8
LEVEL002
 370
13
 100
AcDbLine
   6
CONTINUOUS
  62
5
  10
 1506.0250025927
  20
 3705.1485380786
  30
0.0
  11
 1505.5126124713
  21
 3700.0246368640
  31
0.0
   0
LINE
   5
35B
 100
AcDbEntity
   8
LEVEL002
 370
13
 100
AcDbLine
   6
CONTINUOUS
  62
5
  10
 1505.5126124713
  20
 3700.0246368640
  30
0.0
  11
 1503.5652858692
  21
 3696.4377534260
  31
0.0
   0
LINE
   5
35C
 100
AcDbEntity
   8
LEVEL002
 370
13
 100
AcDbLine
   6
CONTINUOUS
  62
5
  10
 1503.5652858692
  20
 3696.4377534260
  30
0.0
  11
 1492.4974761404
  21
 3682.7053014426
  31
0.0
   0
ARC
   5
35D
 100
AcDbEntity
   8
LEVEL002
 370
13
   6
CONTINUOUS
  62
5
 100
AcDbCircle
  10
 1501.0297386550
  20
 3677.0935479744
  30
0.0
  40
 10.212310248246
 100
AcDbArc
  50
 146.66668479806
  51
 331.70163256426
   0
ARC
   5
35E
 100
AcDbEntity
   8
LEVEL002
 370
13
   6
CONTINUOUS
  62
5
 100
AcDbCircle
  10
 1487.0416544749
  20
 3686.1513348700
  30
0.0
  40
 26.856307183018
 100
AcDbArc
  50
 328.83298190803
  51
 45.020901175858
   0
LINE
   5
35F
 100
AcDbEntity
   8
LEVEL002
 370
13
 100
AcDbLine
   6
CONTINUOUS
  62
5
  10
 1589.6492676787
  20
 3707.9155668046
  30
0.0
  11
 1603.0739498958
  21
 3685.5748692282
  31
0.0
   0
ARC
   5
360
 100
AcDbEntity
   8
LEVEL002
 370
13
   6
CONTINUOUS
  62
5
 100
AcDbCircle
  10
 1595.3805870332
  20
 3675.3991985072
  30
0.0
  40
 8.7884995702356
 100
AcDbArc
  50
 268.04310640361
  51
 95.976315924840
   0
ARC
   5
361
 100
AcDbEntity
   8
LEVEL002
 370
13
   6
CONTINUOUS
  62
5
 100
AcDbCircle
  10
 1528.1796460639
  20
 3673.2254155746
  30
0.0
  40
 6.6095999893666
 100
AcDbArc
  50
 179.99949488520
  51
 269.90651577925
   0
LINE
   5
362
 100
AcDbEntity
   8
LEVEL002
 370
13
 100
AcDbLine
   6
CONTINUOUS
  62
5
  10
 1528.1688617961
  20
 3666.6158243832
  30
0.0
  11
 1595.0804808957
  21
 3666.6158243832
  31
0.0
   0
LINE
   5
363
 100
AcDbEntity
   8
LEVEL002
 370
13
 100
AcDbLine
   6
CONTINUOUS
  62
5
  10
 1594.4655517148
  20
 3684.1399327476
  30
0.0
  11
 1587.0870118956
  21
 3702.5865874712
  31
0.0
   0
LINE
   5
364
 100
AcDbEntity
   8
LEVEL002
 370
13
 100
AcDbLine
   6
CONTINUOUS
  62
5
  10
 1587.0870118956
  20
 3702.5865874712
  30
0.0
  11
 1586.8819337767
  21
 3692.3384798666
  31
0.0
   0
LINE
   5
365
 100
AcDbEntity
   8
LEVEL002
 370
13
 100
AcDbLine
   6
CONTINUOUS
  62
5
  10
 1586.8819337767
  20
 3692.3384798666
  30
0.0
  11
 1584.1805178416
  21
 3684.1399327476
  31
0.0
   0
LINE
   5
366
 100
AcDbEntity
   8
LEVEL002
 370
13
 100
AcDbLine
   6
CONTINUOUS
  62
5
  10
 1584.1805178416
  20
 3684.1399327476
  30
0.0
  11
 1544.3208998889
  21
 3684.1399327476
  31
0.0
   0
LINE
   5
367
 100
AcDbEntity
   8
LEVEL002
 370
13
 100
AcDbLine
   6
CONTINUOUS
  62
5
  10
 1544.3208998889
  20
 3684.1399327476
  30
0.0
  11
 1544.3208998889
  21
 3700.0246368640
  31
0.0
   0
LINE
   5
368
 100
AcDbEntity
   8
LEVEL002
 370
13
 100
AcDbLine
   6
CONTINUOUS
  62
5
  10
 1544.3208998889
  20
 3700.0246368640
  30
0.0
  11
 1546.3704603747
  21
 3702.9964385332
  31
0.0
   0
LINE
   5
369
 100
AcDbEntity
   8
LEVEL002
 370
13
 100
AcDbLine
   6
CONTINUOUS
  62
5
  10
 1546.3704603747
  20
 3702.9964385332
  30
0.0
  11
 1544.5259780078
  21
 3705.1485380786
  31
0.0
   0
LINE
   5
36A
 100
AcDbEntity
   8
LEVEL002
 370
13
 100
AcDbLine
   6
CONTINUOUS
  62
5
  10
 1544.5259780078
  20
 3705.1485380786
  30
0.0
  11
 1521.5700460748
  21
 3708.2228788072
  31
0.0
   0
LINE
   5
36B
 100
AcDbEntity
   8
LEVEL002
 370
13
 100
AcDbLine
   6
CONTINUOUS
  62
5
  10
 1521.5700460748
  20
 3708.2228788072
  30
0.0
  11
 1521.5700460748
  21
 3673.2254738444
  31
0.0
   0
LINE
   5
36C
 100
AcDbEntity
   8
LEVEL002
 370
13
 100
AcDbLine
   6
CONTINUOUS
  62
5
  10
 1564.4261849343
  20
 3688.4441318380
  30
0.0
  11
 1550.2840344768
  21
 3709.7602017594
  31
0.0
   0
ARC
   5
36D
 100
AcDbEntity
   8
LEVEL002
 370
13
   6
CONTINUOUS
  62
5
 100
AcDbCircle
  10
 1569.3065358911
  20
 3696.1636167166
  30
0.0
  40
 9.1328129430768
 100
AcDbArc
  50
 237.69843463464
  51
 18.768732377838
   0
ARC
   5
36E
 100
AcDbEntity
   8
LEVEL002
 370
13
   6
CONTINUOUS
  62
5
 100
AcDbCircle
  10
 1551.7712606265
  20
 3671.8603637514
  30
0.0
  40
 37.929006876678
 100
AcDbArc
  50
 46.131549416344
  51
 92.247188603544
   0
ARC
   5
36F
 100
AcDbEntity
   8
LEVEL002
 370
13
   6
CONTINUOUS
  62
5
 100
AcDbCircle
  10
 1608.8665699330
  20
 3692.3830768860
  30
0.0
  40
 8.9390233475260
 100
AcDbArc
  50
 229.60790187565
  51
 6.7933956221297
   0
ARC
   5
370
 100
AcDbEntity
   8
LEVEL002
 370
13
   6
CONTINUOUS
  62
5
 100
AcDbCircle
  10
 1593.5578284272
  20
 3681.3517412966
  30
0.0
  40
 27.037970213950
 100
AcDbArc
  50
 26.557897354809
  51
 98.092162593092
   0
LINE
   5
371
 100
AcDbEntity
   8
LEVEL002
 370
13
 100
AcDbLine
   6
CONTINUOUS
  62
5
  10
 1479.0426994218
  20
 3959.0525391578
  30
0.0
  11
 1493.9498076401
  21
 3956.7233902002
  31
0.0
   0
LINE
   5
372
 100
AcDbEntity
   8
LEVEL002
 370
13
 100
AcDbLine
   6
CONTINUOUS
  62
5
  10
 1500.0984890975
  20
 3924.7493616120
  30
0.0
  11
 1479.0426994218
  21
 3957.0029564320
  31
0.0
   0
LINE
   5
373
 100
AcDbEntity
   8
LEVEL002
 370
13
 100
AcDbLine
   6
CONTINUOUS
  62
5
  10
 1802.1150891211
  20
 612.49211853719
  30
0.0
  11
 1752.1150891211
  21
 512.49211853719
  31
0.0
   0
LINE
   5
374
 100
AcDbEntity
   8
LEVEL002
 370
13
 100
AcDbLine
   6
CONTINUOUS
  62
5
  10
 1752.1150891211
  20
 612.49211853719
  30
0.0
  11
 1792.1150891211
  21
 592.49211853719
  31
0.0
   0
LINE
   5
375
 100
AcDbEntity
   8
LEVEL002
 370
13
 100
AcDbLine
   6
CONTINUOUS
  62
5
  10
 1752.1150891211
  20
 612.49211853719
  30
0.0
  11
 1702.1150891211
  21
 512.49211853719
  31
0.0
   0
LINE
   5
376
 100
AcDbEntity
   8
LEVEL002
 370
13
 100
AcDbLine
   6
CONTINUOUS
  62
5
  10
 1702.1150891211
  20
 612.49211853719
  30
0.0
  11
 1742.1150891211
  21
 592.49211853719
  31
0.0
   0
LINE
   5
377
 100
AcDbEntity
   8
LEVEL002
 370
13
 100
AcDbLine
   6
CONTINUOUS
  62
5
  10
 1702.1150891211
  20
 612.49211853719
  30
0.0
  11
 1652.1150891211
  21
 512.49211853719
  31
0.0
   0
LINE
   5
378
 100
AcDbEntity
   8
LEVEL002
 370
13
 100
AcDbLine
   6
CONTINUOUS
  62
5
  10
 1652.1150891211
  20
 612.49211853719
  30
0.0
  11
 1692.1150891211
  21
 592.49211853719
  31
0.0
   0
LINE
   5
379
 100
AcDbEntity
   8
LEVEL002
 370
13
 100
AcDbLine
   6
CONTINUOUS
  62
5
  10
 1802.1150891211
  20
 512.49211853719
  30
0.0
  11
 1762.1150891211
  21
 532.49211853719
  31
0.0
   0
LINE
   5
37A
 100
AcDbEntity
   8
LEVEL002
 370
13
 100
AcDbLine
   6
CONTINUOUS
  62
5
  10
 1752.1150891211
  20
 512.49211853719
  30
0.0
  11
 1712.1150891211
  21
 532.49211853719
  31
0.0
   0
LINE
   5
37B
 100
AcDbEntity
   8
LEVEL002
 370
13
 100
AcDbLine
   6
CONTINUOUS
  62
5
  10
 1702.1150891211
  20
 512.49211853719
  30
0.0
  11
 1662.1150891211
  21
 532.49211853719
  31
0.0
   0
LINE
   5
37C
 100
AcDbEntity
   8
LEVEL002
 370
13
 100
AcDbLine
   6
CONTINUOUS
  62
5
  10
 1302.1150891211
  20
 512.49211853719
  30
0.0
  11
 1802.1150891211
  21
 512.49211853719
  31
0.0
   0
LINE
   5
37D
 100
AcDbEntity
   8
LEVEL002
 370
13
 100
AcDbLine
   6
CONTINUOUS
  62
5
  10
 1802.1150891211
  20
 512.49211853719
  30
0.0
  11
 1802.1150891211
  21
 612.49211853719
  31
0.0
   0
LINE
   5
37E
 100
AcDbEntity
   8
LEVEL002
 370
13
 100
AcDbLine
   6
CONTINUOUS
  62
5
  10
 1802.1150891211
  20
 612.49211853719
  30
0.0
  11
 1302.1150891211
  21
 612.49211853719
  31
0.0
   0
LINE
   5
37F
 100
AcDbEntity
   8
LEVEL002
 370
13
 100
AcDbLine
   6
CONTINUOUS
  62
5
  10
 1802.1150891211
  20
 1497.8474575966
  30
0.0
  11
 1596.6650891211
  21
 1292.3974575965
  31
0.0
   0
LINE
   5
380
 100
AcDbEntity
   8
LEVEL002
 370
13
 100
AcDbLine
   6
CONTINUOUS
  62
5
  10
 1596.6650891211
  20
 1257.0421185372
  30
0.0
  11
 1802.1150891211
  21
 1462.4921185372
  31
0.0
   0
LINE
   5
381
 100
AcDbEntity
   8
LEVEL002
 370
13
 100
AcDbLine
   6
CONTINUOUS
  62
5
  10
 1802.1150891211
  20
 1427.1367794779
  30
0.0
  11
 1596.6650891211
  21
 1221.6867794779
  31
0.0
   0
LINE
   5
382
 100
AcDbEntity
   8
LEVEL002
 370
13
 100
AcDbLine
   6
CONTINUOUS
  62
5
  10
 1302.1150891211
  20
 612.49211853719
  30
0.0
  11
 1802.1150891211
  21
 612.49211853719
  31
0.0
   0
LINE
   5
383
 100
AcDbEntity
   8
LEVEL002
 370
13
 100
AcDbLine
   6
CONTINUOUS
  62
5
  10
 1802.1150891211
  20
 612.49211853719
  30
0.0
  11
 1802.1150891211
  21
 1812.4921185372
  31
0.0
   0
LINE
   5
384
 100
AcDbEntity
   8
LEVEL002
 370
13
 100
AcDbLine
   6
CONTINUOUS
  62
5
  10
 1862.7952839678
  20
 1812.4921185372
  30
0.0
  11
 1810.2952839678
  21
 1759.9921185372
  31
0.0
   0
LINE
   5
385
 100
AcDbEntity
   8
LEVEL002
 370
13
 100
AcDbLine
   6
CONTINUOUS
  62
5
  10
 1826.2051865438
  20
 1759.9921185372
  30
0.0
  11
 1878.7051865438
  21
 1812.4921185372
  31
0.0
   0
LINE
   5
386
 100
AcDbEntity
   8
LEVEL002
 370
13
 100
AcDbLine
   6
CONTINUOUS
  62
5
  10
 1894.6150891214
  20
 1812.4921185372
  30
0.0
  11
 1842.1150891214
  21
 1759.9921185372
  31
0.0
   0
LINE
   5
387
 100
AcDbEntity
   8
LEVEL002
 370
13
 100
AcDbLine
   6
CONTINUOUS
  62
5
  10
 1858.0249916975
  20
 1759.9921185372
  30
0.0
  11
 1910.5249916975
  21
 1812.4921185372
  31
0.0
   0
LINE
   5
388
 100
AcDbEntity
   8
LEVEL002
 370
13
 100
AcDbLine
   6
CONTINUOUS
  62
5
  10
 1915.2952839680
  20
 1759.9921185372
  30
0.0
  11
 1886.6601378328
  21
 1788.6272646725
  31
0.0
   0
LINE
   5
389
 100
AcDbEntity
   8
LEVEL002
 370
13
 100
AcDbLine
   6
CONTINUOUS
  62
5
  10
 1894.6150891210
  20
 1796.5822159607
  30
0.0
  11
 1931.2051865445
  21
 1759.9921185372
  31
0.0
   0
LINE
   5
38A
 100
AcDbEntity
   8
LEVEL002
 370
13
 100
AcDbLine
   6
CONTINUOUS
  62
5
  10
 1947.1150891209
  20
 1759.9921185372
  30
0.0
  11
 1902.5700404092
  21
 1804.5371672489
  31
0.0
   0
LINE
   5
38B
 100
AcDbEntity
   8
LEVEL002
 370
13
 100
AcDbLine
   6
CONTINUOUS
  62
5
  10
 1910.5249916975
  20
 1812.4921185372
  30
0.0
  11
 1963.0249916976
  21
 1759.9921185372
  31
0.0
   0
LINE
   5
38C
 100
AcDbEntity
   8
LEVEL002
 370
13
 100
AcDbLine
   6
CONTINUOUS
  62
5
  10
 1963.0249916976
  20
 1759.9921185372
  30
0.0
  11
 2015.5249916977
  21
 1812.4921185372
  31
0.0
   0
LINE
   5
38D
 100
AcDbEntity
   8
LEVEL002
 370
13
 100
AcDbLine
   6
CONTINUOUS
  62
5
  10
 1967.7952839680
  20
 1812.4921185372
  30
0.0
  11
 1939.1601378328
  21
 1783.8569724020
  31
0.0
   0
LINE
   5
38E
 100
AcDbEntity
   8
LEVEL002
 370
13
 100
AcDbLine
   6
CONTINUOUS
  62
5
  10
 1947.1150891208
  20
 1775.9020211140
  30
0.0
  11
 1983.7051865441
  21
 1812.4921185372
  31
0.0
   0
LINE
   5
38F
 100
AcDbEntity
   8
LEVEL002
 370
13
 100
AcDbLine
   6
CONTINUOUS
  62
5
  10
 1999.6150891217
  20
 1812.4921185372
  30
0.0
  11
 1955.0700404096
  21
 1767.9470698252
  31
0.0
   0
LINE
   5
390
 100
AcDbEntity
   8
LEVEL002
 370
13
 100
AcDbLine
   6
CONTINUOUS
  62
5
  10
 2020.2952839683
  20
 1759.9921185372
  30
0.0
  11
 1991.6601378329
  21
 1788.6272646725
  31
0.0
   0
LINE
   5
391
 100
AcDbEntity
   8
LEVEL002
 370
13
 100
AcDbLine
   6
CONTINUOUS
  62
5
  10
 1596.6650891211
  20
 1812.4921185372
  30
0.0
  11
 2052.1150891211
  21
 1812.4921185372
  31
0.0
   0
LINE
   5
392
 100
AcDbEntity
   8
LEVEL002
 370
13
 100
AcDbLine
   6
CONTINUOUS
  62
5
  10
 1452.1150891211
  20
 612.49211853719
  30
0.0
  11
 1402.1150891211
  21
 512.49211853719
  31
0.0
   0
LINE
   5
393
 100
AcDbEntity
   8
LEVEL002
 370
13
 100
AcDbLine
   6
CONTINUOUS
  62
5
  10
 1402.1150891211
  20
 612.49211853719
  30
0.0
  11
 1442.1150891211
  21
 592.49211853719
  31
0.0
   0
LINE
   5
394
 100
AcDbEntity
   8
LEVEL002
 370
13
 100
AcDbLine
   6
CONTINUOUS
  62
5
  10
 1402.1150891211
  20
 612.49211853719
  30
0.0
  11
 1352.1150891211
  21
 512.49211853719
  31
0.0
   0
LINE
   5
395
 100
AcDbEntity
   8
LEVEL002
 370
13
 100
AcDbLine
   6
CONTINUOUS
  62
5
  10
 1352.1150891211
  20
 612.49211853719
  30
0.0
  11
 1392.1150891211
  21
 592.49211853719
  31
0.0
   0
LINE
   5
396
 100
AcDbEntity
   8
LEVEL002
 370
13
 100
AcDbLine
   6
CONTINUOUS
  62
5
  10
 1352.1150891211
  20
 612.49211853719
  30
0.0
  11
 1302.1150891211
  21
 512.49211853719
  31
0.0
   0
LINE
   5
397
 100
AcDbEntity
   8
LEVEL002
 370
13
 100
AcDbLine
   6
CONTINUOUS
  62
5
  10
 1302.1150891211
  20
 612.49211853719
  30
0.0
  11
 1342.1150891211
  21
 592.49211853719
  31
0.0
   0
LINE
   5
398
 100
AcDbEntity
   8
LEVEL002
 370
13
 100
AcDbLine
   6
CONTINUOUS
  62
5
  10
 1452.1150891211
  20
 512.49211853719
  30
0.0
  11
 1412.1150891211
  21
 532.49211853719
  31
0.0
   0
LINE
   5
399
 100
AcDbEntity
   8
LEVEL002
 370
13
 100
AcDbLine
   6
CONTINUOUS
  62
5
  10
 1402.1150891211
  20
 512.49211853719
  30
0.0
  11
 1362.1150891211
  21
 532.49211853719
  31
0.0
   0
LINE
   5
39A
 100
AcDbEntity
   8
LEVEL002
 370
13
 100
AcDbLine
   6
CONTINUOUS
  62
5
  10
 1352.1150891211
  20
 512.49211853719
  30
0.0
  11
 1312.1150891211
  21
 532.49211853719
  31
0.0
   0
LINE
   5
39B
 100
AcDbEntity
   8
LEVEL002
 370
13
 100
AcDbLine
   6
CONTINUOUS
  62
5
  10
 1302.1150891211
  20
 612.49211853719
  30
0.0
  11
 1302.1150891211
  21
 512.49211853719
  31
0.0
   0
LINE
   5
39C
 100
AcDbEntity
   8
LEVEL002
 370
13
 100
AcDbLine
   6
CONTINUOUS
  62
5
  10
 1302.1150891211
  20
 1812.4921185372
  30
0.0
  11
 1302.1150891211
  21
 612.49211853719
  31
0.0
   0
LINE
   5
39D
 100
AcDbEntity
   8
LEVEL002
 370
13
 100
AcDbLine
   6
CONTINUOUS
  62
5
  10
 1507.5650891211
  20
 1203.2974575965
  30
0.0
  11
 1302.1150891211
  21
 997.84745759655
  31
0.0
   0
LINE
   5
39E
 100
AcDbEntity
   8
LEVEL002
 370
13
 100
AcDbLine
   6
CONTINUOUS
  62
5
  10
 1302.1150891211
  20
 962.49211853724
  30
0.0
  11
 1507.5650891211
  21
 1167.9421185372
  31
0.0
   0
LINE
   5
39F
 100
AcDbEntity
   8
LEVEL002
 370
13
 100
AcDbLine
   6
CONTINUOUS
  62
5
  10
 1507.5650891211
  20
 1132.5867794779
  30
0.0
  11
 1302.1150891211
  21
 927.13677947792
  31
0.0
   0
LINE
   5
3A0
 100
AcDbEntity
   8
LEVEL002
 370
13
 100
AcDbLine
   6
CONTINUOUS
  62
5
  10
 1213.0249916976
  20
 1759.9921185372
  30
0.0
  11
 1265.5249916976
  21
 1812.4921185372
  31
0.0
   0
LINE
   5
3A1
 100
AcDbEntity
   8
LEVEL002
 370
13
 100
AcDbLine
   6
CONTINUOUS
  62
5
  10
 1197.1150891208
  20
 1775.9020211140
  30
0.0
  11
 1233.7051865440
  21
 1812.4921185372
  31
0.0
   0
LINE
   5
3A2
 100
AcDbEntity
   8
LEVEL002
 370
13
 100
AcDbLine
   6
CONTINUOUS
  62
5
  10
 1249.6150891216
  20
 1812.4921185372
  30
0.0
  11
 1205.0700404096
  21
 1767.9470698252
  31
0.0
   0
LINE
   5
3A3
 100
AcDbEntity
   8
LEVEL002
 370
13
 100
AcDbLine
   6
CONTINUOUS
  62
5
  10
 1270.2952839682
  20
 1759.9921185372
  30
0.0
  11
 1241.6601378329
  21
 1788.6272646725
  31
0.0
   0
LINE
   5
3A4
 100
AcDbEntity
   8
LEVEL002
 370
13
 100
AcDbLine
   6
CONTINUOUS
  62
5
  10
 1249.6150891211
  20
 1796.5822159607
  30
0.0
  11
 1286.2051865447
  21
 1759.9921185372
  31
0.0
   0
LINE
   5
3A5
 100
AcDbEntity
   8
LEVEL002
 370
13
 100
AcDbLine
   6
CONTINUOUS
  62
5
  10
 1302.1150891211
  20
 1759.9921185372
  30
0.0
  11
 1257.5700404094
  21
 1804.5371672489
  31
0.0
   0
LINE
   5
3A6
 100
AcDbEntity
   8
LEVEL002
 370
13
 100
AcDbLine
   6
CONTINUOUS
  62
5
  10
 1112.7952839678
  20
 1812.4921185372
  30
0.0
  11
 1060.2952839678
  21
 1759.9921185372
  31
0.0
   0
LINE
   5
3A7
 100
AcDbEntity
   8
LEVEL002
 370
13
 100
AcDbLine
   6
CONTINUOUS
  62
5
  10
 1076.2051865438
  20
 1759.9921185372
  30
0.0
  11
 1128.7051865438
  21
 1812.4921185372
  31
0.0
   0
LINE
   5
3A8
 100
AcDbEntity
   8
LEVEL002
 370
13
 100
AcDbLine
   6
CONTINUOUS
  62
5
  10
 1144.6150891214
  20
 1812.4921185372
  30
0.0
  11
 1092.1150891214
  21
 1759.9921185372
  31
0.0
   0
LINE
   5
3A9
 100
AcDbEntity
   8
LEVEL002
 370
13
 100
AcDbLine
   6
CONTINUOUS
  62
5
  10
 1108.0249916974
  20
 1759.9921185372
  30
0.0
  11
 1160.5249916974
  21
 1812.4921185372
  31
0.0
   0
LINE
   5
3AA
 100
AcDbEntity
   8
LEVEL002
 370
13
 100
AcDbLine
   6
CONTINUOUS
  62
5
  10
 1165.2952839680
  20
 1759.9921185372
  30
0.0
  11
 1136.6601378328
  21
 1788.6272646725
  31
0.0
   0
LINE
   5
3AB
 100
AcDbEntity
   8
LEVEL002
 370
13
 100
AcDbLine
   6
CONTINUOUS
  62
5
  10
 1144.6150891210
  20
 1796.5822159607
  30
0.0
  11
 1181.2051865445
  21
 1759.9921185372
  31
0.0
   0
LINE
   5
3AC
 100
AcDbEntity
   8
LEVEL002
 370
13
 100
AcDbLine
   6
CONTINUOUS
  62
5
  10
 1197.1150891209
  20
 1759.9921185372
  30
0.0
  11
 1152.5700404092
  21
 1804.5371672489
  31
0.0
   0
LINE
   5
3AD
 100
AcDbEntity
   8
LEVEL002
 370
13
 100
AcDbLine
   6
CONTINUOUS
  62
5
  10
 1160.5249916974
  20
 1812.4921185372
  30
0.0
  11
 1213.0249916976
  21
 1759.9921185372
  31
0.0
   0
LINE
   5
3AE
 100
AcDbEntity
   8
LEVEL002
 370
13
 100
AcDbLine
   6
CONTINUOUS
  62
5
  10
 1217.7952839680
  20
 1812.4921185372
  30
0.0
  11
 1189.1601378328
  21
 1783.8569724020
  31
0.0
   0
LINE
   5
3AF
 100
AcDbEntity
   8
LEVEL002
 370
13
 100
AcDbLine
   6
CONTINUOUS
  62
5
  10
 1265.5249916976
  20
 1812.4921185372
  30
0.0
  11
 1302.1150891211
  21
 1775.9020211139
  31
0.0
   0
LINE
   5
3B0
 100
AcDbEntity
   8
LEVEL002
 370
13
 100
AcDbLine
   6
CONTINUOUS
  62
5
  10
 1507.5650891211
  20
 1812.4921185372
  30
0.0
  11
 1052.1150891211
  21
 1812.4921185372
  31
0.0
   0
LINE
   5
3B1
 100
AcDbEntity
   8
LEVEL002
 370
13
 100
AcDbLine
   6
CONTINUOUS
  62
5
  10
 1999.6150891211
  20
 1796.5822159607
  30
0.0
  11
 2036.2051865447
  21
 1759.9921185372
  31
0.0
   0
LINE
   5
3B2
 100
AcDbEntity
   8
LEVEL002
 370
13
 100
AcDbLine
   6
CONTINUOUS
  62
5
  10
 2052.1150891211
  20
 1759.9921185372
  30
0.0
  11
 2007.5700404093
  21
 1804.5371672489
  31
0.0
   0
LINE
   5
3B3
 100
AcDbEntity
   8
LEVEL002
 370
13
 100
AcDbLine
   6
CONTINUOUS
  62
5
  10
 2015.5249916977
  20
 1812.4921185372
  30
0.0
  11
 2052.1150891211
  21
 1775.9020211139
  31
0.0
   0
DIMENSION
   5
3B4
 100
AcDbEntity
   8
LEVEL001
 370
13
   6
CONTINUOUS
  62
1
 100
AcDbDimension
   2
*D15
  10
 802.11508912109
  20
 512.49211853719
  30
0.0
  11
 802.11508912109
  21
 562.49211853719
  31
0.0
  70
0
   3
GMM003
 100
AcDbAlignedDimension
  13
 1302.1150891211
  23
 612.49211853719
  33
0.0
  14
 1302.1150891211
  24
 512.49211853719
  34
0.0
  50
 270.00000000000
 100
AcDbRotatedDimension
   0
DIMENSION
   5
3B5
 100
AcDbEntity
   8
LEVEL002
 370
13
   6
CONTINUOUS
  62
1
 100
AcDbDimension
   2
*D16
  10
 3502.1150891211
  20
 312.49211853719
  30
0.0
  11
 3252.1150891211
  21
 312.49211853719
  31
0.0
  70
128
   1
\A1;□500
   3
GMM004
 100
AcDbAlignedDimension
  13
 3002.1150891211
  23
 512.49211853719
  33
0.0
  14
 3502.1150891211
  24
 512.49211853719
  34
0.0
 100
AcDbRotatedDimension
   0
DIMENSION
   5
3B6
 100
AcDbEntity
   8
LEVEL002
 370
13
   6
CONTINUOUS
  62
1
 100
AcDbDimension
   2
*D17
  10
 1802.1150891211
  20
 312.49211853719
  30
0.0
  11
 1552.1150891211
  21
 312.49211853719
  31
0.0
  70
128
   1
\A1;□500
   3
GMM004
 100
AcDbAlignedDimension
  13
 1302.1150891211
  23
 512.49211853719
  33
0.0
  14
 1802.1150891211
  24
 512.49211853719
  34
0.0
 100
AcDbRotatedDimension
   0
DIMENSION
   5
3B7
 100
AcDbEntity
   8
LEVEL001
 370
13
   6
CONTINUOUS
  62
1
 100
AcDbDimension
   2
*D18
  10
 802.11508912109
  20
 612.49211853719
  30
0.0
  11
 802.11508912109
  21
 1212.4921185372
  31
0.0
  70
0
   3
GMM003
 100
AcDbAlignedDimension
  13
 1052.1150891211
  23
 1812.4921185372
  33
0.0
  14
 1302.1150891211
  24
 612.49211853719
  34
0.0
  50
 270.00000000000
 100
AcDbRotatedDimension
   0
DIMENSION
   5
3B8
 100
AcDbEntity
   8
LEVEL001
 370
13
   6
CONTINUOUS
  62
1
 100
AcDbDimension
   2
*D19
  10
 802.11508912109
  20
 4312.4921185372
  30
0.0
  11
 802.11508912109
  21
 3062.4921185372
  31
0.0
  70
0
   1
\A1;2500(標準設置高さ)
   3
GMM005
 100
AcDbAlignedDimension
  13
 1052.1150891211
  23
 1812.4921185372
  33
0.0
  14
 1077.1150891211
  24
 4312.4921185372
  34
0.0
  50
 90.000000000000
 100
AcDbRotatedDimension
   0
DIMENSION
   5
3B9
 100
AcDbEntity
   8
LEVEL002
 370
13
   6
CONTINUOUS
  62
1
 100
AcDbDimension
   2
*D20
  10
 726.37480058836
  20
 4542.4921185372
  30
0.0
  11
 1077.1150891211
  21
 4744.9921185372
  31
0.0
  70
131
   1
\A1;%%c800
   3
GMM006
 100
AcDbDiametricDimension
  15
 1427.8553776538
  25
 4947.4921185372
  35
0.0
   0
DIMENSION
   5
3BA
 100
AcDbEntity
   8
LEVEL002
 370
13
   6
CONTINUOUS
  62
1
 100
AcDbDimension
   2
*D21
  10
 1676.3748005884
  20
 4542.4921185372
  30
0.0
  11
 2027.1150891211
  21
 4744.9921185372
  31
0.0
  70
131
   1
\A1;%%c800
   3
GMM006
 100
AcDbDiametricDimension
  15
 2377.8553776539
  25
 4947.4921185372
  35
0.0
   0
MTEXT
   5
3BB
 100
AcDbEntity
   8
LEVEL002
 370
13
  62
1
 100
AcDbMText
  10
 1902.1150891211
  20
 2633.9206899658
  30
0.0
  40
 42.857142857142
  41
0.0
  71
1
  72
1
   1
{\T1.000000;支柱}\P%%c{\T1.000000;８９．１×３}{\T1.000000;.}{\T1.000000;２ｔ}\P{\T1.000000;×４４００Ｌ}
   7
GMM001
  44
 0.79999984000003
   0
LINE
   5
3BC
 100
AcDbEntity
   8
LEVEL002
 370
13
 100
AcDbLine
   6
CONTINUOUS
  62
6
  10
 5512.1150891211
  20
 2624.9921185372
  30
0.0
  11
 8152.1150891211
  21
 2624.9921185372
  31
0.0
   0
MTEXT
   5
3BD
 100
AcDbEntity
   8
LEVEL002
 370
13
  62
1
 100
AcDbMText
  10
 7392.1150891211
  20
 1724.9921185372
  30
0.0
  40
 51.428571428572
  41
0.0
  71
4
  72
1
   1
\T1.000000;静電粉体塗装
   7
GMM001
  44
 0.79999984000003
   0
MTEXT
   5
3BE
 100
AcDbEntity
   8
LEVEL002
 370
13
  62
1
 100
AcDbMText
  10
 6832.1150891211
  20
 1724.9921185372
  30
0.0
  40
 51.428571428572
  41
0.0
  71
4
  72
1
   1
\T1.000000;ＳＴＫ４００
   7
GMM001
  44
 0.79999984000003
   0
MTEXT
   5
3BF
 100
AcDbEntity
   8
LEVEL002
 370
13
  62
1
 100
AcDbMText
  10
 6764.1150891211
  20
 1724.9921185372
  30
0.0
  40
 51.428571428572
  41
0.0
  71
6
  72
1
   1
\T1.000000;１
   7
GMM001
  44
 0.79999984000003
   0
MTEXT
   5
3C0
 100
AcDbEntity
   8
LEVEL002
 370
13
  62
1
 100
AcDbMText
  10
 7392.1150891211
  20
 1844.9921185372
  30
0.0
  40
 51.428571428572
  41
0.0
  71
4
  72
1
   1
\T1.000000;溶融亜鉛メッキ
   7
GMM001
  44
 0.79999984000003
   0
MTEXT
   5
3C1
 100
AcDbEntity
   8
LEVEL002
 370
13
  62
1
 100
AcDbMText
  10
 6832.1150891211
  20
 1844.9921185372
  30
0.0
  40
 51.428571428572
  41
0.0
  71
4
  72
1
   1
\T1.000000;ＳＳ４００
   7
GMM001
  44
 0.79999984000003
   0
MTEXT
   5
3C2
 100
AcDbEntity
   8
LEVEL002
 370
13
  62
1
 100
AcDbMText
  10
 6764.1150891211
  20
 1844.9921185372
  30
0.0
  40
 51.428571428572
  41
0.0
  71
6
  72
1
   1
\T1.000000;４
   7
GMM001
  44
 0.79999984000003
   0
MTEXT
   5
3C3
 100
AcDbEntity
   8
LEVEL002
 370
13
  62
1
 100
AcDbMText
  10
 7392.1150891211
  20
 1964.9921185372
  30
0.0
  40
 51.428571428572
  41
0.0
  71
4
  72
1
   1
\T1.000000;溶融亜鉛メッキ
   7
GMM001
  44
 0.79999984000003
   0
MTEXT
   5
3C4
 100
AcDbEntity
   8
LEVEL002
 370
13
  62
1
 100
AcDbMText
  10
 7392.1150891211
  20
 2084.9921185372
  30
0.0
  40
 51.428571428572
  41
0.0
  71
4
  72
1
   1
\T1.000000;溶融亜鉛メッキ
   7
GMM001
  44
 0.79999984000003
   0
MTEXT
   5
3C5
 100
AcDbEntity
   8
LEVEL002
 370
13
  62
1
 100
AcDbMText
  10
 7392.1150891211
  20
 2204.9921185372
  30
0.0
  40
 51.428571428572
  41
0.0
  71
4
  72
1
   1
\T1.000000;溶融亜鉛メッキ
   7
GMM001
  44
 0.79999984000003
   0
MTEXT
   5
3C6
 100
AcDbEntity
   8
LEVEL002
 370
13
  62
1
 100
AcDbMText
  10
 6832.1150891211
  20
 1964.9921185372
  30
0.0
  40
 51.428571428572
  41
0.0
  71
4
  72
1
   1
\T1.000000;ＳＳ４００
   7
GMM001
  44
 0.79999984000003
   0
MTEXT
   5
3C7
 100
AcDbEntity
   8
LEVEL002
 370
13
  62
1
 100
AcDbMText
  10
 6832.1150891211
  20
 2084.9921185372
  30
0.0
  40
 51.428571428572
  41
0.0
  71
4
  72
1
   1
\T1.000000;ＳＳ４００
   7
GMM001
  44
 0.79999984000003
   0
MTEXT
   5
3C8
 100
AcDbEntity
   8
LEVEL002
 370
13
  62
1
 100
AcDbMText
  10
 6832.1150891211
  20
 2204.9921185372
  30
0.0
  40
 51.428571428572
  41
0.0
  71
4
  72
1
   1
\T1.000000;ＳＳ４００
   7
GMM001
  44
 0.79999984000003
   0
MTEXT
   5
3C9
 100
AcDbEntity
   8
LEVEL002
 370
13
  62
1
 100
AcDbMText
  10
 6764.1150891211
  20
 1964.9921185372
  30
0.0
  40
 51.428571428572
  41
0.0
  71
6
  72
1
   1
\T1.000000;１
   7
GMM001
  44
 0.79999984000003
   0
MTEXT
   5
3CA
 100
AcDbEntity
   8
LEVEL002
 370
13
  62
1
 100
AcDbMText
  10
 6764.1150891211
  20
 2084.9921185372
  30
0.0
  40
 51.428571428572
  41
0.0
  71
6
  72
1
   1
\T1.000000;８
   7
GMM001
  44
 0.79999984000003
   0
MTEXT
   5
3CB
 100
AcDbEntity
   8
LEVEL002
 370
13
  62
1
 100
AcDbMText
  10
 6764.1150891211
  20
 2204.9921185372
  30
0.0
  40
 51.428571428572
  41
0.0
  71
6
  72
1
   1
\T1.000000;８
   7
GMM001
  44
 0.79999984000003
   0
MTEXT
   5
3CC
 100
AcDbEntity
   8
LEVEL002
 370
13
  62
1
 100
AcDbMText
  10
 5684.1150891211
  20
 1724.9921185372
  30
0.0
  40
 51.428571428572
  41
0.0
  71
6
  72
1
   1
\T1.000000;１１
   7
GMM001
  44
 0.79999984000003
   0
MTEXT
   5
3CD
 100
AcDbEntity
   8
LEVEL002
 370
13
  62
1
 100
AcDbMText
  10
 5752.1150891211
  20
 1724.9921185372
  30
0.0
  40
 51.428571428572
  41
0.0
  71
4
  72
1
   1
\T1.000000;支柱
   7
GMM001
  44
 0.79999984000003
   0
MTEXT
   5
3CE
 100
AcDbEntity
   8
LEVEL002
 370
13
  62
1
 100
AcDbMText
  10
 5752.1150891211
  20
 1844.9921185372
  30
0.0
  40
 51.428571428572
  41
0.0
  71
4
  72
1
   1
\T1.000000;同上ボルトナット
   7
GMM001
  44
 0.79999984000003
   0
MTEXT
   5
3CF
 100
AcDbEntity
   8
LEVEL002
 370
13
  62
1
 100
AcDbMText
  10
 5684.1150891211
  20
 1844.9921185372
  30
0.0
  40
 51.428571428572
  41
0.0
  71
6
  72
1
   1
\T1.000000;１０
   7
GMM001
  44
 0.79999984000003
   0
MTEXT
   5
3D0
 100
AcDbEntity
   8
LEVEL002
 370
13
  62
1
 100
AcDbMText
  10
 5684.1150891211
  20
 1964.9921185372
  30
0.0
  40
 51.428571428572
  41
0.0
  71
6
  72
1
   1
\T1.000000;９
   7
GMM001
  44
 0.79999984000003
   0
MTEXT
   5
3D1
 100
AcDbEntity
   8
LEVEL002
 370
13
  62
1
 100
AcDbMText
  10
 5752.1150891211
  20
 1964.9921185372
  30
0.0
  40
 51.428571428572
  41
0.0
  71
4
  72
1
   1
\T1.000000;二面鏡用取付腕木
   7
GMM001
  44
 0.79999984000003
   0
MTEXT
   5
3D2
 100
AcDbEntity
   8
LEVEL002
 370
13
  62
1
 100
AcDbMText
  10
 5684.1150891211
  20
 2084.9921185372
  30
0.0
  40
 51.428571428572
  41
0.0
  71
6
  72
1
   1
\T1.000000;８
   7
GMM001
  44
 0.79999984000003
   0
MTEXT
   5
3D3
 100
AcDbEntity
   8
LEVEL002
 370
13
  62
1
 100
AcDbMText
  10
 5752.1150891211
  20
 2084.9921185372
  30
0.0
  40
 51.428571428572
  41
0.0
  71
4
  72
1
   1
\T1.000000;金具締付ボルトナット
   7
GMM001
  44
 0.79999984000003
   0
MTEXT
   5
3D4
 100
AcDbEntity
   8
LEVEL002
 370
13
  62
1
 100
AcDbMText
  10
 5684.1150891211
  20
 2204.9921185372
  30
0.0
  40
 51.428571428572
  41
0.0
  71
6
  72
1
   1
\T1.000000;７
   7
GMM001
  44
 0.79999984000003
   0
MTEXT
   5
3D5
 100
AcDbEntity
   8
LEVEL002
 370
13
  62
1
 100
AcDbMText
  10
 5752.1150891211
  20
 2204.9921185372
  30
0.0
  40
 51.428571428572
  41
0.0
  71
4
  72
1
   1
\T1.000000;裏板金具取付ボルト
   7
GMM001
  44
 0.79999984000003
   0
LINE
   5
3D6
 100
AcDbEntity
   8
LEVEL002
 370
13
 100
AcDbLine
   6
CONTINUOUS
  62
6
  10
 5512.1150891211
  20
 1784.9921185372
  30
0.0
  11
 8152.1150891211
  21
 1784.9921185372
  31
0.0
   0
LINE
   5
3D7
 100
AcDbEntity
   8
LEVEL002
 370
13
 100
AcDbLine
   6
CONTINUOUS
  62
6
  10
 5512.1150891211
  20
 1904.9921185372
  30
0.0
  11
 8152.1150891211
  21
 1904.9921185372
  31
0.0
   0
LINE
   5
3D8
 100
AcDbEntity
   8
LEVEL002
 370
13
 100
AcDbLine
   6
CONTINUOUS
  62
6
  10
 5512.1150891211
  20
 2024.9921185372
  30
0.0
  11
 8152.1150891211
  21
 2024.9921185372
  31
0.0
   0
LINE
   5
3D9
 100
AcDbEntity
   8
LEVEL002
 370
13
 100
AcDbLine
   6
CONTINUOUS
  62
6
  10
 5512.1150891211
  20
 2144.9921185372
  30
0.0
  11
 8152.1150891211
  21
 2144.9921185372
  31
0.0
   0
MTEXT
   5
3DA
 100
AcDbEntity
   8
LEVEL002
 370
13
  62
1
 100
AcDbMText
  10
 5752.1150891211
  20
 2324.9921185372
  30
0.0
  40
 51.428571428572
  41
0.0
  71
4
  72
1
   1
\T1.000000;支柱取付金具
   7
GMM001
  44
 0.79999984000003
   0
MTEXT
   5
3DB
 100
AcDbEntity
   8
LEVEL002
 370
13
  62
1
 100
AcDbMText
  10
 5684.1150891211
  20
 2324.9921185372
  30
0.0
  40
 51.428571428572
  41
0.0
  71
6
  72
1
   1
\T1.000000;６
   7
GMM001
  44
 0.79999984000003
   0
MTEXT
   5
3DC
 100
AcDbEntity
   8
LEVEL002
 370
13
  62
1
 100
AcDbMText
  10
 6764.1150891211
  20
 2324.9921185372
  30
0.0
  40
 51.428571428572
  41
0.0
  71
6
  72
1
   1
\T1.000000;２
   7
GMM001
  44
 0.79999984000003
   0
MTEXT
   5
3DD
 100
AcDbEntity
   8
LEVEL002
 370
13
  62
1
 100
AcDbMText
  10
 6832.1150891211
  20
 2324.9921185372
  30
0.0
  40
 51.428571428572
  41
0.0
  71
4
  72
1
   1
\T1.000000;ＳＳ４００
   7
GMM001
  44
 0.79999984000003
   0
MTEXT
   5
3DE
 100
AcDbEntity
   8
LEVEL002
 370
13
  62
1
 100
AcDbMText
  10
 5684.1150891211
  20
 2444.9921185372
  30
0.0
  40
 51.428571428572
  41
0.0
  71
6
  72
1
   1
\T1.000000;５
   7
GMM001
  44
 0.79999984000003
   0
MTEXT
   5
3DF
 100
AcDbEntity
   8
LEVEL002
 370
13
  62
1
 100
AcDbMText
  10
 5752.1150891211
  20
 2444.9921185372
  30
0.0
  40
 51.428571428572
  41
0.0
  71
4
  72
1
   1
\T1.000000;裏板取付金具
   7
GMM001
  44
 0.79999984000003
   0
MTEXT
   5
3E0
 100
AcDbEntity
   8
LEVEL002
 370
13
  62
1
 100
AcDbMText
  10
 5684.1150891211
  20
 2564.9921185372
  30
0.0
  40
 51.428571428572
  41
0.0
  71
6
  72
1
   1
\T1.000000;４
   7
GMM001
  44
 0.79999984000003
   0
MTEXT
   5
3E1
 100
AcDbEntity
   8
LEVEL002
 370
13
  62
1
 100
AcDbMText
  10
 5752.1150891211
  20
 2564.9921185372
  30
0.0
  40
 51.428571428572
  41
0.0
  71
4
  72
1
   1
\T1.000000;リング
   7
GMM001
  44
 0.79999984000003
   0
MTEXT
   5
3E2
 100
AcDbEntity
   8
LEVEL002
 370
13
  62
1
 100
AcDbMText
  10
 5684.1150891211
  20
 2684.9921185372
  30
0.0
  40
 51.428571428572
  41
0.0
  71
6
  72
1
   1
\T1.000000;３
   7
GMM001
  44
 0.79999984000003
   0
MTEXT
   5
3E3
 100
AcDbEntity
   8
LEVEL002
 370
13
  62
1
 100
AcDbMText
  10
 5752.1150891211
  20
 2684.9921185372
  30
0.0
  40
 51.428571428572
  41
0.0
  71
4
  72
1
   1
\T1.000000;フード
   7
GMM001
  44
 0.79999984000003
   0
MTEXT
   5
3E4
 100
AcDbEntity
   8
LEVEL002
 370
13
  62
1
 100
AcDbMText
  10
 5684.1150891211
  20
 2804.9921185372
  30
0.0
  40
 51.428571428572
  41
0.0
  71
6
  72
1
   1
\T1.000000;２
   7
GMM001
  44
 0.79999984000003
   0
MTEXT
   5
3E5
 100
AcDbEntity
   8
LEVEL002
 370
13
  62
1
 100
AcDbMText
  10
 5684.1150891211
  20
 2924.9921185372
  30
0.0
  40
 51.428571428572
  41
0.0
  71
6
  72
1
   1
\T1.000000;１
   7
GMM001
  44
 0.79999984000003
   0
MTEXT
   5
3E6
 100
AcDbEntity
   8
LEVEL002
 370
13
  62
1
 100
AcDbMText
  10
 5752.1150891211
  20
 2804.9921185372
  30
0.0
  40
 51.428571428572
  41
0.0
  71
4
  72
1
   1
\T1.000000;バックプレート
   7
GMM001
  44
 0.79999984000003
   0
MTEXT
   5
3E7
 100
AcDbEntity
   8
LEVEL002
 370
13
  62
1
 100
AcDbMText
  10
 6764.1150891211
  20
 2444.9921185372
  30
0.0
  40
 51.428571428572
  41
0.0
  71
6
  72
1
   1
\T1.000000;２
   7
GMM001
  44
 0.79999984000003
   0
MTEXT
   5
3E8
 100
AcDbEntity
   8
LEVEL002
 370
13
  62
1
 100
AcDbMText
  10
 6764.1150891211
  20
 2564.9921185372
  30
0.0
  40
 51.428571428572
  41
0.0
  71
6
  72
1
   1
\T1.000000;２
   7
GMM001
  44
 0.79999984000003
   0
MTEXT
   5
3E9
 100
AcDbEntity
   8
LEVEL002
 370
13
  62
1
 100
AcDbMText
  10
 6764.1150891211
  20
 2684.9921185372
  30
0.0
  40
 51.428571428572
  41
0.0
  71
6
  72
1
   1
\T1.000000;２
   7
GMM001
  44
 0.79999984000003
   0
MTEXT
   5
3EA
 100
AcDbEntity
   8
LEVEL002
 370
13
  62
1
 100
AcDbMText
  10
 6764.1150891211
  20
 2804.9921185372
  30
0.0
  40
 51.428571428572
  41
0.0
  71
6
  72
1
   1
\T1.000000;２
   7
GMM001
  44
 0.79999984000003
   0
MTEXT
   5
3EB
 100
AcDbEntity
   8
LEVEL002
 370
13
  62
1
 100
AcDbMText
  10
 6764.1150891211
  20
 2924.9921185372
  30
0.0
  40
 51.428571428572
  41
0.0
  71
6
  72
1
   1
\T1.000000;２
   7
GMM001
  44
 0.79999984000003
   0
MTEXT
   5
3EC
 100
AcDbEntity
   8
LEVEL002
 370
13
  62
1
 100
AcDbMText
  10
 6832.1150891211
  20
 2444.9921185372
  30
0.0
  40
 51.428571428572
  41
0.0
  71
4
  72
1
   1
\T1.000000;ＳＳ４００
   7
GMM001
  44
 0.79999984000003
   0
MTEXT
   5
3ED
 100
AcDbEntity
   8
LEVEL002
 370
13
  62
1
 100
AcDbMText
  10
 6832.1150891211
  20
 2564.9921185372
  30
0.0
  40
 51.428571428572
  41
0.0
  71
4
  72
1
   1
\T1.000000;軟質ＰＶＣ
   7
GMM001
  44
 0.79999984000003
   0
MTEXT
   5
3EE
 100
AcDbEntity
   8
LEVEL002
 370
13
  62
1
 100
AcDbMText
  10
 6832.1150891211
  20
 2684.9921185372
  30
0.0
  40
 51.428571428572
  41
0.0
  71
4
  72
1
   1
\T1.000000;ＰＣ
   7
GMM001
  44
 0.79999984000003
   0
MTEXT
   5
3EF
 100
AcDbEntity
   8
LEVEL002
 370
13
  62
1
 100
AcDbMText
  10
 6832.1150891211
  20
 2924.9921185372
  30
0.0
  40
 51.428571428572
  41
0.0
  71
4
  72
1
   1
\T1.000000;ＳＵＳ３０４
   7
GMM001
  44
 0.79999984000003
   0
MTEXT
   5
3F0
 100
AcDbEntity
   8
LEVEL002
 370
13
  62
1
 100
AcDbMText
  10
 7392.1150891211
  20
 2324.9921185372
  30
0.0
  40
 51.428571428572
  41
0.0
  71
4
  72
1
   1
\T1.000000;溶融亜鉛メッキ
   7
GMM001
  44
 0.79999984000003
   0
MTEXT
   5
3F1
 100
AcDbEntity
   8
LEVEL002
 370
13
  62
1
 100
AcDbMText
  10
 7392.1150891211
  20
 2444.9921185372
  30
0.0
  40
 51.428571428572
  41
0.0
  71
4
  72
1
   1
\T1.000000;溶融亜鉛メッキ
   7
GMM001
  44
 0.79999984000003
   0
MTEXT
   5
3F2
 100
AcDbEntity
   8
LEVEL002
 370
13
  62
1
 100
AcDbMText
  10
 7392.1150891211
  20
 2924.9921185372
  30
0.0
  40
 51.428571428572
  41
0.0
  71
4
  72
1
   1
\T1.000000;t=0.9mm\T1.000000;・表面研磨
   7
GMM001
  44
 0.79999984000003
   0
MTEXT
   5
3F3
 100
AcDbEntity
   8
LEVEL002
 370
13
  62
1
 100
AcDbMText
  10
 7392.1150891211
  20
 2684.9921185372
  30
0.0
  40
 51.428571428572
  41
0.0
  71
4
  72
1
   1
\T1.000000;ＵＶグレ－ド
   7
GMM001
  44
 0.79999984000003
   0
LINE
   5
3F4
 100
AcDbEntity
   8
LEVEL002
 370
13
 100
AcDbLine
   6
CONTINUOUS
  62
6
  10
 5512.1150891211
  20
 2264.9921185372
  30
0.0
  11
 8152.1150891211
  21
 2264.9921185372
  31
0.0
   0
LINE
   5
3F5
 100
AcDbEntity
   8
LEVEL002
 370
13
 100
AcDbLine
   6
CONTINUOUS
  62
6
  10
 5512.1150891211
  20
 2384.9921185372
  30
0.0
  11
 8152.1150891211
  21
 2384.9921185372
  31
0.0
   0
LINE
   5
3F6
 100
AcDbEntity
   8
LEVEL002
 370
13
 100
AcDbLine
   6
CONTINUOUS
  62
6
  10
 5512.1150891211
  20
 2744.9921185372
  30
0.0
  11
 8152.1150891211
  21
 2744.9921185372
  31
0.0
   0
LINE
   5
3F7
 100
AcDbEntity
   8
LEVEL002
 370
13
 100
AcDbLine
   6
CONTINUOUS
  62
6
  10
 5512.1150891211
  20
 2504.9921185372
  30
0.0
  11
 8152.1150891211
  21
 2504.9921185372
  31
0.0
   0
LINE
   5
3F8
 100
AcDbEntity
   8
LEVEL002
 370
13
 100
AcDbLine
   6
CONTINUOUS
  62
6
  10
 5512.1150891211
  20
 2864.9921185372
  30
0.0
  11
 8152.1150891211
  21
 2864.9921185372
  31
0.0
   0
MTEXT
   5
3F9
 100
AcDbEntity
   8
LEVEL002
 370
13
  62
1
 100
AcDbMText
  10
 6152.1150891211
  20
 3064.9921185372
  30
0.0
  40
 51.428571428572
  41
0.0
  71
5
  72
1
   1
\T1.000000;名　　称
   7
GMM001
  44
 0.79999984000003
   0
MTEXT
   5
3FA
 100
AcDbEntity
   8
LEVEL002
 370
13
  62
1
 100
AcDbMText
  10
 6692.1150891211
  20
 3064.9921185372
  30
0.0
  40
 51.428571428572
  41
0.0
  71
5
  72
1
   1
\T1.000000;個数
   7
GMM001
  44
 0.79999984000003
   0
MTEXT
   5
3FB
 100
AcDbEntity
   8
LEVEL002
 370
13
  62
1
 100
AcDbMText
  10
 7072.1150891211
  20
 3064.9921185372
  30
0.0
  40
 51.428571428572
  41
0.0
  71
5
  72
1
   1
\T1.000000;材　　質
   7
GMM001
  44
 0.79999984000003
   0
MTEXT
   5
3FC
 100
AcDbEntity
   8
LEVEL002
 370
13
  62
1
 100
AcDbMText
  10
 7752.1150891211
  20
 3064.9921185372
  30
0.0
  40
 51.428571428572
  41
0.0
  71
5
  72
1
   1
\T1.000000;規格仕様
   7
GMM001
  44
 0.79999984000003
   0
LINE
   5
3FD
 100
AcDbEntity
   8
LEVEL002
 370
13
 100
AcDbLine
   6
CONTINUOUS
  62
2
  10
 5512.1150891211
  20
 3464.9921185372
  30
0.0
  11
 8152.1150891211
  21
 3464.9921185372
  31
0.0
   0
LINE
   5
3FE
 100
AcDbEntity
   8
LEVEL002
 370
13
 100
AcDbLine
   6
CONTINUOUS
  62
2
  10
 5512.1150891211
  20
 1064.9921185372
  30
0.0
  11
 5512.1150891211
  21
 3464.9921185372
  31
0.0
   0
LINE
   5
3FF
 100
AcDbEntity
   8
LEVEL002
 370
13
 100
AcDbLine
   6
CONTINUOUS
  62
2
  10
 5512.1150891211
  20
 3144.9921185372
  30
0.0
  11
 8152.1150891211
  21
 3144.9921185372
  31
0.0
   0
LINE
   5
400
 100
AcDbEntity
   8
LEVEL002
 370
13
 100
AcDbLine
   6
CONTINUOUS
  62
2
  10
 5512.1150891211
  20
 2984.9921185372
  30
0.0
  11
 8152.1150891211
  21
 2984.9921185372
  31
0.0
   0
MTEXT
   5
401
 100
AcDbEntity
   8
LEVEL002
 370
13
  62
1
 100
AcDbMText
  10
 5612.1150891211
  20
 3224.9921185372
  30
0.0
  40
 57.142857142858
  41
0.0
  71
4
  72
1
   1
%%c\T1.000000;８００（ダブル）
   7
GMM001
  44
 0.79999984000003
   0
MTEXT
   5
402
 100
AcDbEntity
   8
LEVEL002
 370
13
  62
1
 100
AcDbMText
  10
 5752.1150891211
  20
 2924.9921185372
  30
0.0
  40
 51.428571428572
  41
0.0
  71
4
  72
1
   1
\T1.000000;鏡面　Ｒ＝３０００
   7
GMM001
  44
 0.79999984000003
   0
MTEXT
   5
403
 100
AcDbEntity
   8
LEVEL002
 370
13
  62
1
 100
AcDbMText
  10
 5612.1150891211
  20
 3384.9921185372
  30
0.0
  40
 57.142857142858
  41
0.0
  71
4
  72
1
   1
\T1.000000;ステンレスミラー　＜Ｚタイプ＞
   7
GMM001
  44
 0.79999984000003
   0
MTEXT
   5
404
 100
AcDbEntity
   8
LEVEL002
 370
13
  62
1
 100
AcDbMText
  10
 6832.1150891211
  20
 2804.9921185372
  30
0.0
  40
 51.428571428572
  41
0.0
  71
4
  72
1
   1
\T1.000000;高耐食溶融めっき鋼板
   7
GMM004
  44
 0.79999984000003
   0
LWPOLYLINE
   5
405
 100
AcDbEntity
   8
LEVEL001
 370
13
   6
CONTINUOUS
  62
2
 100
AcDbPolyline
  90
4
  70
1
  10
 5512.1150891211
  20
 944.99211853719
  10
 8152.1150891211
  20
 944.99211853719
  10
 8152.1150891211
  20
 3464.9921185372
  10
 5512.1150891211
  20
 3464.9921185372
   0
MTEXT
   5
406
 100
AcDbEntity
   8
LEVEL002
 370
13
  62
1
 100
AcDbMText
  10
 6764.1150891211
  20
 1124.9921185372
  30
0.0
  40
 51.428571428572
  41
0.0
  71
6
  72
1
   1
\T1.000000;１式
   7
GMM001
  44
 0.79999984000003
   0
MTEXT
   5
407
 100
AcDbEntity
   8
LEVEL002
 370
13
  62
1
 100
AcDbMText
  10
 6764.1150891211
  20
 1004.9921185372
  30
0.0
  40
 51.428571428572
  41
0.0
  71
6
  72
1
   1
\T1.000000;１式
   7
GMM001
  44
 0.79999984000003
   0
MTEXT
   5
408
 100
AcDbEntity
   8
LEVEL002
 370
13
  62
1
 100
AcDbMText
  10
 6832.1150891211
  20
 1004.9921185372
  30
0.0
  40
 51.428571428572
  41
0.0
  71
4
  72
1
   1
\T1.000000;―
   7
GMM001
  44
 0.79999984000003
   0
MTEXT
   5
409
 100
AcDbEntity
   8
LEVEL002
 370
13
  62
1
 100
AcDbMText
  10
 6832.1150891211
  20
 1124.9921185372
  30
0.0
  40
 51.428571428572
  41
0.0
  71
4
  72
1
   1
\T1.000000;―
   7
GMM001
  44
 0.79999984000003
   0
MTEXT
   5
40A
 100
AcDbEntity
   8
LEVEL002
 370
13
  62
1
 100
AcDbMText
  10
 6832.1150891211
  20
 1244.9921185372
  30
0.0
  40
 51.428571428572
  41
0.0
  71
4
  72
1
   1
\T1.000000;―
   7
GMM001
  44
 0.79999984000003
   0
MTEXT
   5
40B
 100
AcDbEntity
   8
LEVEL002
 370
13
  62
1
 100
AcDbMText
  10
 7392.1150891211
  20
 1124.9921185372
  30
0.0
  40
 51.428571428572
  41
0.0
  71
4
  72
1
   1
\T1.000000;―
   7
GMM001
  44
 0.79999984000003
   0
MTEXT
   5
40C
 100
AcDbEntity
   8
LEVEL002
 370
13
  62
1
 100
AcDbMText
  10
 7392.1150891211
  20
 1004.9921185372
  30
0.0
  40
 51.428571428572
  41
0.0
  71
4
  72
1
   1
\T1.000000;―
   7
GMM001
  44
 0.79999984000003
   0
MTEXT
   5
40D
 100
AcDbEntity
   8
LEVEL002
 370
13
  62
1
 100
AcDbMText
  10
 7394.8770909245
  20
 2858.7896559893
  30
0.0
  40
 34.285714285714
  41
0.0
  71
1
  72
1
   1
{\T1.000000;ＺＡＭ処理鋼板}\P{\T1.000000;プレス成型}
   7
GMM005
  44
 1.0099997980000
   0
MTEXT
   5
40E
 100
AcDbEntity
   8
LEVEL001
 370
13
  62
1
 100
AcDbMText
  10
 7393.4966183710
  20
 1610.8521895081
  30
0.0
  40
 34.285720000000
  41
0.0
  71
4
  72
1
   1
{\T1.000000;下地亜鉛メッキ}\P{\T1.000000;＋静電粉体塗装}
   7
GMM005
  44
 0.79999984000003
   0
MTEXT
   5
40F
 100
AcDbEntity
   8
LEVEL001
 370
13
  62
1
 100
AcDbMText
  10
 6831.6984802525
  20
 1571.2609682916
  30
0.0
  40
 51.428571428571
  41
0.0
  71
7
  72
1
   1
\T1.000000;ＳＴＫ４００
   7
GMM001
  44
 0.79999984000003
   0
MTEXT
   5
410
 100
AcDbEntity
   8
LEVEL001
 370
13
  62
1
 100
AcDbMText
  10
 6763.0940628751
  20
 1571.2609682916
  30
0.0
  40
 51.428571428571
  41
0.0
  71
9
  72
1
   1
\T1.000000;１
   7
GMM001
  44
 0.79999984000003
   0
LINE
   5
411
 100
AcDbEntity
   8
LEVEL001
 370
13
 100
AcDbLine
   6
CONTINUOUS
  62
6
  10
 6592.1150891211
  20
 1664.9921185372
  30
0.0
  11
 8152.1150891211
  21
 1664.9921185372
  31
0.0
   0
LINE
   5
412
 100
AcDbEntity
   8
LEVEL002
 370
13
 100
AcDbLine
   6
CONTINUOUS
  62
6
  10
 5712.1150891211
  20
 3144.9921185372
  30
0.0
  11
 5712.1150891211
  21
 1064.9921185372
  31
0.0
   0
LINE
   5
413
 100
AcDbEntity
   8
LEVEL002
 370
13
 100
AcDbLine
   6
CONTINUOUS
  62
6
  10
 6592.1150891211
  20
 3144.9921185372
  30
0.0
  11
 6592.1150891211
  21
 1064.9921185372
  31
0.0
   0
LINE
   5
414
 100
AcDbEntity
   8
LEVEL002
 370
13
 100
AcDbLine
   6
CONTINUOUS
  62
6
  10
 6792.1150891211
  20
 3144.9921185372
  30
0.0
  11
 6792.1150891211
  21
 1064.9921185372
  31
0.0
   0
LINE
   5
415
 100
AcDbEntity
   8
LEVEL002
 370
13
 100
AcDbLine
   6
CONTINUOUS
  62
6
  10
 7352.1150891211
  20
 3144.9921185372
  30
0.0
  11
 7352.1150891211
  21
 1064.9921185372
  31
0.0
   0
LINE
   5
416
 100
AcDbEntity
   8
LEVEL001
 370
13
 100
AcDbLine
   6
CONTINUOUS
  62
6
  10
 6792.1150891211
  20
 3144.9921185372
  30
0.0
  11
 6792.1150891211
  21
 944.99211853719
  31
0.0
   0
LINE
   5
417
 100
AcDbEntity
   8
LEVEL001
 370
13
 100
AcDbLine
   6
CONTINUOUS
  62
6
  10
 7352.1150891211
  20
 3144.9921185372
  30
0.0
  11
 7352.1150891211
  21
 944.99211853719
  31
0.0
   0
LINE
   5
418
 100
AcDbEntity
   8
LEVEL001
 370
13
 100
AcDbLine
   6
CONTINUOUS
  62
6
  10
 5712.1150891211
  20
 3144.9921185372
  30
0.0
  11
 5712.1150891211
  21
 944.99211853719
  31
0.0
   0
LINE
   5
419
 100
AcDbEntity
   8
LEVEL001
 370
13
 100
AcDbLine
   6
CONTINUOUS
  62
6
  10
 6592.1150891211
  20
 3144.9921185372
  30
0.0
  11
 6592.1150891211
  21
 944.99211853719
  31
0.0
   0
MTEXT
   5
41A
 100
AcDbEntity
   8
LEVEL002
 370
13
  62
1
 100
AcDbMText
  10
 5752.1150891211
  20
 3644.9921185372
  30
0.0
  40
 51.428580000000
  41
0.0
  71
1
  72
1
   1
{\T1.000000;※構成部材は改良のため、変更する場合があります。}\P{\T1.000000;※本図は道路反射鏡ハンドブックに基づいています。}
   7
GMM001
  44
 0.79999984000003
   0
MTEXT
   5
41B
 100
AcDbEntity
   8
LEVEL002
 370
13
  62
1
 100
AcDbMText
  10
 5752.1150891211
  20
 1244.9921185372
  30
0.0
  40
 51.428571428572
  41
0.0
  71
4
  72
1
   1
\T1.000000;注意板
   7
GMM001
  44
 0.79999984000003
   0
MTEXT
   5
41C
 100
AcDbEntity
   8
LEVEL002
 370
13
  62
1
 100
AcDbMText
  10
 6352.1150891211
  20
 789.21086853719
  30
0.0
  40
 42.857142857142
  41
0.0
  71
5
  72
1
   1
\T1.000000;ＭＺＨ０８０Ｗ
   7
GMM001
  44
 0.79999984000003
   0
MTEXT
   5
41D
 100
AcDbEntity
   8
LEVEL002
 370
13
  62
2
 100
AcDbMText
  10
 5522.1150891211
  20
 914.99211853719
  30
0.0
  40
 38.571428571428
  41
0.0
  71
4
  72
1
   1
\T1.370378;図面番号
   7
GMM001
  44
 0.79999984000003
   0
LINE
   5
41E
 100
AcDbEntity
   8
LEVEL002
 370
13
 100
AcDbLine
   6
CONTINUOUS
  62
5
  10
 3502.1150891211
  20
 1497.8474575966
  30
0.0
  11
 3296.6650891211
  21
 1292.3974575965
  31
0.0
   0
LINE
   5
41F
 100
AcDbEntity
   8
LEVEL002
 370
13
 100
AcDbLine
   6
CONTINUOUS
  62
5
  10
 3296.6650891211
  20
 1257.0421185372
  30
0.0
  11
 3502.1150891211
  21
 1462.4921185372
  31
0.0
   0
LINE
   5
420
 100
AcDbEntity
   8
LEVEL002
 370
13
 100
AcDbLine
   6
CONTINUOUS
  62
5
  10
 3502.1150891211
  20
 1427.1367794779
  30
0.0
  11
 3296.6650891211
  21
 1221.6867794779
  31
0.0
   0
LINE
   5
421
 100
AcDbEntity
   8
LEVEL002
 370
13
 100
AcDbLine
   6
CONTINUOUS
  62
5
  10
 3502.1150891211
  20
 612.49211853719
  30
0.0
  11
 3502.1150891211
  21
 1812.4921185372
  31
0.0
   0
LINE
   5
422
 100
AcDbEntity
   8
LEVEL002
 370
13
 100
AcDbLine
   6
CONTINUOUS
  62
5
  10
 3562.7952839677
  20
 1812.4921185372
  30
0.0
  11
 3510.2952839677
  21
 1759.9921185372
  31
0.0
   0
LINE
   5
423
 100
AcDbEntity
   8
LEVEL002
 370
13
 100
AcDbLine
   6
CONTINUOUS
  62
5
  10
 3526.2051865439
  20
 1759.9921185372
  30
0.0
  11
 3578.7051865439
  21
 1812.4921185372
  31
0.0
   0
LINE
   5
424
 100
AcDbEntity
   8
LEVEL002
 370
13
 100
AcDbLine
   6
CONTINUOUS
  62
5
  10
 3594.6150891215
  20
 1812.4921185372
  30
0.0
  11
 3542.1150891215
  21
 1759.9921185372
  31
0.0
   0
LINE
   5
425
 100
AcDbEntity
   8
LEVEL002
 370
13
 100
AcDbLine
   6
CONTINUOUS
  62
5
  10
 3558.0249916975
  20
 1759.9921185372
  30
0.0
  11
 3610.5249916975
  21
 1812.4921185372
  31
0.0
   0
LINE
   5
426
 100
AcDbEntity
   8
LEVEL002
 370
13
 100
AcDbLine
   6
CONTINUOUS
  62
5
  10
 3615.2952839681
  20
 1759.9921185372
  30
0.0
  11
 3586.6601378327
  21
 1788.6272646725
  31
0.0
   0
LINE
   5
427
 100
AcDbEntity
   8
LEVEL002
 370
13
 100
AcDbLine
   6
CONTINUOUS
  62
5
  10
 3594.6150891209
  20
 1796.5822159607
  30
0.0
  11
 3631.2051865445
  21
 1759.9921185372
  31
0.0
   0
LINE
   5
428
 100
AcDbEntity
   8
LEVEL002
 370
13
 100
AcDbLine
   6
CONTINUOUS
  62
5
  10
 3647.1150891209
  20
 1759.9921185372
  30
0.0
  11
 3602.5700404091
  21
 1804.5371672489
  31
0.0
   0
LINE
   5
429
 100
AcDbEntity
   8
LEVEL002
 370
13
 100
AcDbLine
   6
CONTINUOUS
  62
5
  10
 3610.5249916975
  20
 1812.4921185372
  30
0.0
  11
 3663.0249916977
  21
 1759.9921185372
  31
0.0
   0
LINE
   5
42A
 100
AcDbEntity
   8
LEVEL002
 370
13
 100
AcDbLine
   6
CONTINUOUS
  62
5
  10
 3663.0249916977
  20
 1759.9921185372
  30
0.0
  11
 3715.5249916977
  21
 1812.4921185372
  31
0.0
   0
LINE
   5
42B
 100
AcDbEntity
   8
LEVEL002
 370
13
 100
AcDbLine
   6
CONTINUOUS
  62
5
  10
 3667.7952839679
  20
 1812.4921185372
  30
0.0
  11
 3639.1601378327
  21
 1783.8569724020
  31
0.0
   0
LINE
   5
42C
 100
AcDbEntity
   8
LEVEL002
 370
13
 100
AcDbLine
   6
CONTINUOUS
  62
5
  10
 3647.1150891209
  20
 1775.9020211140
  30
0.0
  11
 3683.7051865441
  21
 1812.4921185372
  31
0.0
   0
LINE
   5
42D
 100
AcDbEntity
   8
LEVEL002
 370
13
 100
AcDbLine
   6
CONTINUOUS
  62
5
  10
 3699.6150891217
  20
 1812.4921185372
  30
0.0
  11
 3655.0700404097
  21
 1767.9470698252
  31
0.0
   0
LINE
   5
42E
 100
AcDbEntity
   8
LEVEL002
 370
13
 100
AcDbLine
   6
CONTINUOUS
  62
5
  10
 3720.2952839683
  20
 1759.9921185372
  30
0.0
  11
 3691.6601378329
  21
 1788.6272646725
  31
0.0
   0
LINE
   5
42F
 100
AcDbEntity
   8
LEVEL002
 370
13
 100
AcDbLine
   6
CONTINUOUS
  62
5
  10
 3699.6150891211
  20
 1796.5822159607
  30
0.0
  11
 3736.2051865447
  21
 1759.9921185372
  31
0.0
   0
LINE
   5
430
 100
AcDbEntity
   8
LEVEL002
 370
13
 100
AcDbLine
   6
CONTINUOUS
  62
5
  10
 3752.1150891211
  20
 1759.9921185372
  30
0.0
  11
 3707.5700404093
  21
 1804.5371672489
  31
0.0
   0
LINE
   5
431
 100
AcDbEntity
   8
LEVEL002
 370
13
 100
AcDbLine
   6
CONTINUOUS
  62
5
  10
 3715.5249916977
  20
 1812.4921185372
  30
0.0
  11
 3752.1150891211
  21
 1775.9020211139
  31
0.0
   0
LINE
   5
432
 100
AcDbEntity
   8
LEVEL002
 370
13
 100
AcDbLine
   6
CONTINUOUS
  62
5
  10
 3296.6650891211
  20
 1812.4921185372
  30
0.0
  11
 3752.1150891211
  21
 1812.4921185372
  31
0.0
   0
LINE
   5
433
 100
AcDbEntity
   8
LEVEL002
 370
13
 100
AcDbLine
   6
CONTINUOUS
  62
5
  10
 3502.1150891211
  20
 612.49211853719
  30
0.0
  11
 3452.1150891211
  21
 512.49211853719
  31
0.0
   0
LINE
   5
434
 100
AcDbEntity
   8
LEVEL002
 370
13
 100
AcDbLine
   6
CONTINUOUS
  62
5
  10
 3452.1150891211
  20
 612.49211853719
  30
0.0
  11
 3492.1150891211
  21
 592.49211853719
  31
0.0
   0
LINE
   5
435
 100
AcDbEntity
   8
LEVEL002
 370
13
 100
AcDbLine
   6
CONTINUOUS
  62
5
  10
 3452.1150891211
  20
 612.49211853719
  30
0.0
  11
 3402.1150891211
  21
 512.49211853719
  31
0.0
   0
LINE
   5
436
 100
AcDbEntity
   8
LEVEL002
 370
13
 100
AcDbLine
   6
CONTINUOUS
  62
5
  10
 3402.1150891211
  20
 612.49211853719
  30
0.0
  11
 3442.1150891211
  21
 592.49211853719
  31
0.0
   0
LINE
   5
437
 100
AcDbEntity
   8
LEVEL002
 370
13
 100
AcDbLine
   6
CONTINUOUS
  62
5
  10
 3402.1150891211
  20
 612.49211853719
  30
0.0
  11
 3352.1150891211
  21
 512.49211853719
  31
0.0
   0
LINE
   5
438
 100
AcDbEntity
   8
LEVEL002
 370
13
 100
AcDbLine
   6
CONTINUOUS
  62
5
  10
 3352.1150891211
  20
 612.49211853719
  30
0.0
  11
 3392.1150891211
  21
 592.49211853719
  31
0.0
   0
LINE
   5
439
 100
AcDbEntity
   8
LEVEL002
 370
13
 100
AcDbLine
   6
CONTINUOUS
  62
5
  10
 3502.1150891211
  20
 512.49211853719
  30
0.0
  11
 3462.1150891211
  21
 532.49211853719
  31
0.0
   0
LINE
   5
43A
 100
AcDbEntity
   8
LEVEL002
 370
13
 100
AcDbLine
   6
CONTINUOUS
  62
5
  10
 3452.1150891211
  20
 512.49211853719
  30
0.0
  11
 3412.1150891211
  21
 532.49211853719
  31
0.0
   0
LINE
   5
43B
 100
AcDbEntity
   8
LEVEL002
 370
13
 100
AcDbLine
   6
CONTINUOUS
  62
5
  10
 3402.1150891211
  20
 512.49211853719
  30
0.0
  11
 3362.1150891211
  21
 532.49211853719
  31
0.0
   0
LINE
   5
43C
 100
AcDbEntity
   8
LEVEL002
 370
13
 100
AcDbLine
   6
CONTINUOUS
  62
5
  10
 3502.1150891211
  20
 512.49211853719
  30
0.0
  11
 3502.1150891211
  21
 612.49211853719
  31
0.0
   0
LINE
   5
43D
 100
AcDbEntity
   8
LEVEL002
 370
13
 100
AcDbLine
   6
CONTINUOUS
  62
5
  10
 3502.1150891211
  20
 612.49211853719
  30
0.0
  11
 3002.1150891211
  21
 612.49211853719
  31
0.0
   0
LINE
   5
43E
 100
AcDbEntity
   8
LEVEL002
 370
13
 100
AcDbLine
   6
CONTINUOUS
  62
5
  10
 3002.1150891211
  20
 612.49211853719
  30
0.0
  11
 3502.1150891211
  21
 612.49211853719
  31
0.0
   0
LINE
   5
43F
 100
AcDbEntity
   8
LEVEL002
 370
13
 100
AcDbLine
   6
CONTINUOUS
  62
5
  10
 3152.1150891211
  20
 612.49211853719
  30
0.0
  11
 3102.1150891211
  21
 512.49211853719
  31
0.0
   0
LINE
   5
440
 100
AcDbEntity
   8
LEVEL002
 370
13
 100
AcDbLine
   6
CONTINUOUS
  62
5
  10
 3102.1150891211
  20
 612.49211853719
  30
0.0
  11
 3142.1150891211
  21
 592.49211853719
  31
0.0
   0
LINE
   5
441
 100
AcDbEntity
   8
LEVEL002
 370
13
 100
AcDbLine
   6
CONTINUOUS
  62
5
  10
 3102.1150891211
  20
 612.49211853719
  30
0.0
  11
 3052.1150891211
  21
 512.49211853719
  31
0.0
   0
LINE
   5
442
 100
AcDbEntity
   8
LEVEL002
 370
13
 100
AcDbLine
   6
CONTINUOUS
  62
5
  10
 3052.1150891211
  20
 612.49211853719
  30
0.0
  11
 3092.1150891211
  21
 592.49211853719
  31
0.0
   0
LINE
   5
443
 100
AcDbEntity
   8
LEVEL002
 370
13
 100
AcDbLine
   6
CONTINUOUS
  62
5
  10
 3052.1150891211
  20
 612.49211853719
  30
0.0
  11
 3002.1150891211
  21
 512.49211853719
  31
0.0
   0
LINE
   5
444
 100
AcDbEntity
   8
LEVEL002
 370
13
 100
AcDbLine
   6
CONTINUOUS
  62
5
  10
 3002.1150891211
  20
 612.49211853719
  30
0.0
  11
 3042.1150891211
  21
 592.49211853719
  31
0.0
   0
LINE
   5
445
 100
AcDbEntity
   8
LEVEL002
 370
13
 100
AcDbLine
   6
CONTINUOUS
  62
5
  10
 3152.1150891211
  20
 512.49211853719
  30
0.0
  11
 3112.1150891211
  21
 532.49211853719
  31
0.0
   0
LINE
   5
446
 100
AcDbEntity
   8
LEVEL002
 370
13
 100
AcDbLine
   6
CONTINUOUS
  62
5
  10
 3102.1150891211
  20
 512.49211853719
  30
0.0
  11
 3062.1150891211
  21
 532.49211853719
  31
0.0
   0
LINE
   5
447
 100
AcDbEntity
   8
LEVEL002
 370
13
 100
AcDbLine
   6
CONTINUOUS
  62
5
  10
 3052.1150891211
  20
 512.49211853719
  30
0.0
  11
 3012.1150891211
  21
 532.49211853719
  31
0.0
   0
LINE
   5
448
 100
AcDbEntity
   8
LEVEL002
 370
13
 100
AcDbLine
   6
CONTINUOUS
  62
5
  10
 3002.1150891211
  20
 612.49211853719
  30
0.0
  11
 3002.1150891211
  21
 512.49211853719
  31
0.0
   0
LINE
   5
449
 100
AcDbEntity
   8
LEVEL002
 370
13
 100
AcDbLine
   6
CONTINUOUS
  62
5
  10
 3002.1150891211
  20
 512.49211853719
  30
0.0
  11
 3502.1150891211
  21
 512.49211853719
  31
0.0
   0
LINE
   5
44A
 100
AcDbEntity
   8
LEVEL002
 370
13
 100
AcDbLine
   6
CONTINUOUS
  62
5
  10
 3207.5650891211
  20
 1203.2974575965
  30
0.0
  11
 3002.1150891211
  21
 997.84745759655
  31
0.0
   0
LINE
   5
44B
 100
AcDbEntity
   8
LEVEL002
 370
13
 100
AcDbLine
   6
CONTINUOUS
  62
5
  10
 3002.1150891211
  20
 962.49211853724
  30
0.0
  11
 3207.5650891211
  21
 1167.9421185372
  31
0.0
   0
LINE
   5
44C
 100
AcDbEntity
   8
LEVEL002
 370
13
 100
AcDbLine
   6
CONTINUOUS
  62
5
  10
 3207.5650891211
  20
 1132.5867794779
  30
0.0
  11
 3002.1150891211
  21
 927.13677947792
  31
0.0
   0
LINE
   5
44D
 100
AcDbEntity
   8
LEVEL002
 370
13
 100
AcDbLine
   6
CONTINUOUS
  62
5
  10
 3002.1150891211
  20
 1812.4921185372
  30
0.0
  11
 3002.1150891211
  21
 612.49211853719
  31
0.0
   0
LINE
   5
44E
 100
AcDbEntity
   8
LEVEL002
 370
13
 100
AcDbLine
   6
CONTINUOUS
  62
5
  10
 2913.0249916977
  20
 1759.9921185372
  30
0.0
  11
 2965.5249916977
  21
 1812.4921185372
  31
0.0
   0
LINE
   5
44F
 100
AcDbEntity
   8
LEVEL002
 370
13
 100
AcDbLine
   6
CONTINUOUS
  62
5
  10
 2897.1150891209
  20
 1775.9020211140
  30
0.0
  11
 2933.7051865441
  21
 1812.4921185372
  31
0.0
   0
LINE
   5
450
 100
AcDbEntity
   8
LEVEL002
 370
13
 100
AcDbLine
   6
CONTINUOUS
  62
5
  10
 2949.6150891217
  20
 1812.4921185372
  30
0.0
  11
 2905.0700404097
  21
 1767.9470698252
  31
0.0
   0
LINE
   5
451
 100
AcDbEntity
   8
LEVEL002
 370
13
 100
AcDbLine
   6
CONTINUOUS
  62
5
  10
 2970.2952839683
  20
 1759.9921185372
  30
0.0
  11
 2941.6601378329
  21
 1788.6272646725
  31
0.0
   0
LINE
   5
452
 100
AcDbEntity
   8
LEVEL002
 370
13
 100
AcDbLine
   6
CONTINUOUS
  62
5
  10
 2949.6150891211
  20
 1796.5822159607
  30
0.0
  11
 2986.2051865447
  21
 1759.9921185372
  31
0.0
   0
LINE
   5
453
 100
AcDbEntity
   8
LEVEL002
 370
13
 100
AcDbLine
   6
CONTINUOUS
  62
5
  10
 3002.1150891211
  20
 1759.9921185372
  30
0.0
  11
 2957.5700404093
  21
 1804.5371672489
  31
0.0
   0
LINE
   5
454
 100
AcDbEntity
   8
LEVEL002
 370
13
 100
AcDbLine
   6
CONTINUOUS
  62
5
  10
 2812.7952839677
  20
 1812.4921185372
  30
0.0
  11
 2760.2952839677
  21
 1759.9921185372
  31
0.0
   0
LINE
   5
455
 100
AcDbEntity
   8
LEVEL002
 370
13
 100
AcDbLine
   6
CONTINUOUS
  62
5
  10
 2776.2051865439
  20
 1759.9921185372
  30
0.0
  11
 2828.7051865439
  21
 1812.4921185372
  31
0.0
   0
LINE
   5
456
 100
AcDbEntity
   8
LEVEL002
 370
13
 100
AcDbLine
   6
CONTINUOUS
  62
5
  10
 2844.6150891215
  20
 1812.4921185372
  30
0.0
  11
 2792.1150891215
  21
 1759.9921185372
  31
0.0
   0
LINE
   5
457
 100
AcDbEntity
   8
LEVEL002
 370
13
 100
AcDbLine
   6
CONTINUOUS
  62
5
  10
 2808.0249916975
  20
 1759.9921185372
  30
0.0
  11
 2860.5249916975
  21
 1812.4921185372
  31
0.0
   0
LINE
   5
458
 100
AcDbEntity
   8
LEVEL002
 370
13
 100
AcDbLine
   6
CONTINUOUS
  62
5
  10
 2865.2952839681
  20
 1759.9921185372
  30
0.0
  11
 2836.6601378327
  21
 1788.6272646725
  31
0.0
   0
LINE
   5
459
 100
AcDbEntity
   8
LEVEL002
 370
13
 100
AcDbLine
   6
CONTINUOUS
  62
5
  10
 2844.6150891209
  20
 1796.5822159607
  30
0.0
  11
 2881.2051865445
  21
 1759.9921185372
  31
0.0
   0
LINE
   5
45A
 100
AcDbEntity
   8
LEVEL002
 370
13
 100
AcDbLine
   6
CONTINUOUS
  62
5
  10
 2897.1150891209
  20
 1759.9921185372
  30
0.0
  11
 2852.5700404091
  21
 1804.5371672489
  31
0.0
   0
LINE
   5
45B
 100
AcDbEntity
   8
LEVEL002
 370
13
 100
AcDbLine
   6
CONTINUOUS
  62
5
  10
 2860.5249916975
  20
 1812.4921185372
  30
0.0
  11
 2913.0249916977
  21
 1759.9921185372
  31
0.0
   0
LINE
   5
45C
 100
AcDbEntity
   8
LEVEL002
 370
13
 100
AcDbLine
   6
CONTINUOUS
  62
5
  10
 2917.7952839679
  20
 1812.4921185372
  30
0.0
  11
 2889.1601378327
  21
 1783.8569724020
  31
0.0
   0
LINE
   5
45D
 100
AcDbEntity
   8
LEVEL002
 370
13
 100
AcDbLine
   6
CONTINUOUS
  62
5
  10
 2965.5249916977
  20
 1812.4921185372
  30
0.0
  11
 3002.1150891211
  21
 1775.9020211139
  31
0.0
   0
LINE
   5
45E
 100
AcDbEntity
   8
LEVEL002
 370
13
 100
AcDbLine
   6
CONTINUOUS
  62
5
  10
 3207.5650891211
  20
 1812.4921185372
  30
0.0
  11
 2752.1150891211
  21
 1812.4921185372
  31
0.0
   0
ENDSEC
  0
SECTION
  2
OBJECTS
  0
DICTIONARY
  5
C
100
AcDbDictionary
  3
ACAD_GROUP
350
D
  3
ACAD_MLINESTYLE
350
1B
  3
DWGPROPS
350
1C
  0
DICTIONARY
  5
D
102
{ACAD_REACTORS
330
C
102
}
100
AcDbDictionary
  0
DICTIONARY
  5
1B
102
{ACAD_REACTORS
330
C
102
}
100
AcDbDictionary
  3
STANDARD
350
1D
  0
MLINESTYLE
  5
1D
102
{ACAD_REACTORS
330
1B
102
}
100
AcDbMlineStyle
  2
STANDARD
 70
     0
  3

 62
   256
 51
90.0
 52
90.0
 71
     2
 49
0.5
 62
   256
  6
BYLAYER
 49
-0.5
 62
   256
  6
BYLAYER
   0
XRECORD
   5
1C
 102
{ACAD_REACTORS
 330
C
 102
}
 330
C
 100
AcDbXrecord
 280
1
   1
DWGPROPS COOKIE
   2
 
   3
 
   4
 
   6
 
   7
MZH080W
   8
 
   9

 300
 = 
 301
 = 
 302
 = 
 303
 = 
 304
 = 
 305
 = 
 306
 = 
 307
 = 
 308
 = 
 309
 = 
  40
0.0
  41
 2460341.5000000
  42
 2460341.5000000
   1

  90
10
   0
ENDSEC
   0
EOF
