   0
SECTION
   2
HEADER
   9
$ACADVER
   1
AC1015
   9
$DWGCODEPAGE
   3
ANSI_932
   9
$LIMMIN
  10
0.0
  20
0.0
   9
$LIMMAX
  10
 8400.0000000000
  20
 5940.0000000000
   9
$EXTMIN
  10
0.0
  20
0.0
  30
0.0
   9
$EXTMAX
  10
 8400.0000000000
  20
 5940.0000000000
  30
0.0
   9
$LTSCALE
  40
 168.00000000000
   9
$HANDSEED
   5
3C3
   0
ENDSEC
   0
SECTION
   2
TABLES
  0
TABLE
  2
VPORT
  5
8
100
AcDbSymbolTable
 70
     1
  0
VPORT
  5
3C2
100
AcDbSymbolTableRecord
100
AcDbViewportTableRecord
  2
*ACTIVE
 70
     0
 10
0.0
 20
0.0
 11
1.0
 21
1.0
  12
 4200.0000000000
  22
 2970.0000000000
 13
0.0
 23
0.0
 14
1.0
 24
1.0
 15
0.0
 25
0.0
 16
0.0
 26
0.0
 36
1.0
 17
0.0
 27
0.0
 37
0.0
  40
 8400.0000000000
  41
 1.4787878787879
 42
50.0
 43
0.0
 44
0.0
 50
0.0
 51
0.0
 71
     0
 72
   100
 73
     1
 74
     1
 75
     0
 76
     0
 77
     0
 78
     0
  0
ENDTAB
  0
TABLE
  2
LTYPE
  5
5
100
AcDbSymbolTable
 70
    25
  0
LTYPE
  5
12
100
AcDbSymbolTableRecord
100
AcDbLinetypeTableRecord
  2
BYBLOCK
 70
     0
  3

 72
    65
 73
     0
 40
0.0
  0
LTYPE
  5
13
100
AcDbSymbolTableRecord
100
AcDbLinetypeTableRecord
  2
BYLAYER
 70
     0
  3

 72
    65
 73
     0
 40
0.0
  0
LTYPE
  5
14
100
AcDbSymbolTableRecord
100
AcDbLinetypeTableRecord
  2
CONTINUOUS
 70
     0
  3
Solid line
 72
    65
 73
     0
 40
0.0
  0
LTYPE
  5
20
100
AcDbSymbolTableRecord
100
AcDbLinetypeTableRecord
  2
BORDER
 70
     0
  3
__ __ . __ __ . __ __ . __ __ . __ __ . __ __ .
 72
    65
 73
     6
 40
1.75
 49
0.5
 74
     0
 49
-0.25
 74
     0
 49
0.5
 74
     0
 49
-0.25
 74
     0
 49
0.0
 74
     0
 49
-0.25
 74
     0
  0
LTYPE
  5
21
100
AcDbSymbolTableRecord
100
AcDbLinetypeTableRecord
  2
BORDER2
 70
     0
  3
__.__.__.__.__.__.__.__.__.__.__.__.__.__.__.__
 72
    65
 73
     6
 40
0.875
 49
0.25
 74
     0
 49
-0.125
 74
     0
 49
0.25
 74
     0
 49
-0.125
 74
     0
 49
0.0
 74
     0
 49
-0.125
 74
     0
  0
LTYPE
  5
22
100
AcDbSymbolTableRecord
100
AcDbLinetypeTableRecord
  2
BORDERX2
 70
     0
  3
____  ____  .  ____  ____  .  ____  ____  .  __
 72
    65
 73
     6
 40
3.5
 49
1.0
 74
     0
 49
-0.5
 74
     0
 49
1.0
 74
     0
 49
-0.5
 74
     0
 49
0.0
 74
     0
 49
-0.5
 74
     0
  0
LTYPE
  5
23
100
AcDbSymbolTableRecord
100
AcDbLinetypeTableRecord
  2
CENTER
 70
     0
  3
____ _ ____ _ ____ _ ____ _ ____ _ ____ _ ____ 
 72
    65
 73
     4
 40
2.0
 49
1.25
 74
     0
 49
-0.25
 74
     0
 49
0.25
 74
     0
 49
-0.25
 74
     0
  0
LTYPE
  5
24
100
AcDbSymbolTableRecord
100
AcDbLinetypeTableRecord
  2
CENTER2
 70
     0
  3
___ _ ___ _ ___ _ ___ _ ___ _ ___ _ ___ _ ___ _
 72
    65
 73
     4
 40
1.125
 49
0.75
 74
     0
 49
-0.125
 74
     0
 49
0.125
 74
     0
 49
-0.125
 74
     0
  0
LTYPE
  5
25
100
AcDbSymbolTableRecord
100
AcDbLinetypeTableRecord
  2
CENTERX2
 70
     0
  3
________  __  ________  __  ________  __  _____
 72
    65
 73
     4
 40
4.0
 49
2.5
 74
     0
 49
-0.5
 74
     0
 49
0.5
 74
     0
 49
-0.5
 74
     0
  0
LTYPE
  5
26
100
AcDbSymbolTableRecord
100
AcDbLinetypeTableRecord
  2
DASHDOT
 70
     0
  3
__ . __ . __ . __ . __ . __ . __ . __ . __ . __
 72
    65
 73
     4
 40
1.0
 49
0.5
 74
     0
 49
-0.25
 74
     0
 49
0.0
 74
     0
 49
-0.25
 74
     0
  0
LTYPE
  5
27
100
AcDbSymbolTableRecord
100
AcDbLinetypeTableRecord
  2
DASHDOT2
 70
     0
  3
_._._._._._._._._._._._._._._._._._._._._._._._
 72
    65
 73
     4
 40
0.5
 49
0.25
 74
     0
 49
-0.125
 74
     0
 49
0.0
 74
     0
 49
-0.125
 74
     0
  0
LTYPE
  5
28
100
AcDbSymbolTableRecord
100
AcDbLinetypeTableRecord
  2
DASHDOTX2
 70
     0
  3
____  .  ____  .  ____  .  ____  .  ____  .  __
 72
    65
 73
     4
 40
2.0
 49
1.0
 74
     0
 49
-0.5
 74
     0
 49
0.0
 74
     0
 49
-0.5
 74
     0
  0
LTYPE
  5
29
100
AcDbSymbolTableRecord
100
AcDbLinetypeTableRecord
  2
DASHED
 70
     0
  3
__ __ __ __ __ __ __ __ __ __ __ __ __ __ __ __
 72
    65
 73
     2
 40
0.75
 49
0.5
 74
     0
 49
-0.25
 74
     0
  0
LTYPE
  5
2A
100
AcDbSymbolTableRecord
100
AcDbLinetypeTableRecord
  2
DASHED2
 70
     0
  3
_ _ _ _ _ _ _ _ _ _ _ _ _ _ _ _ _ _ _ _ _ _ _ _
 72
    65
 73
     2
 40
0.375
 49
0.25
 74
     0
 49
-0.125
 74
     0
  0
LTYPE
  5
2B
100
AcDbSymbolTableRecord
100
AcDbLinetypeTableRecord
  2
DASHEDX2
 70
     0
  3
____  ____  ____  ____  ____  ____  ____  ____ 
 72
    65
 73
     2
 40
1.5
 49
1.0
 74
     0
 49
-0.5
 74
     0
  0
LTYPE
  5
2C
100
AcDbSymbolTableRecord
100
AcDbLinetypeTableRecord
  2
DIVIDE
 70
     0
  3
____ . . ____ . . ____ . . ____ . . ____ . . __
 72
    65
 73
     6
 40
1.25
 49
0.5
 74
     0
 49
-0.25
 74
     0
 49
0.0
 74
     0
 49
-0.25
 74
     0
 49
0.0
 74
     0
 49
-0.25
 74
     0
  0
LTYPE
  5
2D
100
AcDbSymbolTableRecord
100
AcDbLinetypeTableRecord
  2
DIVIDE2
 70
     0
  3
__..__..__..__..__..__..__..__..__..__..__..__.
 72
    65
 73
     6
 40
0.625
 49
0.25
 74
     0
 49
-0.125
 74
     0
 49
0.0
 74
     0
 49
-0.125
 74
     0
 49
0.0
 74
     0
 49
-0.125
 74
     0
  0
LTYPE
  5
2E
100
AcDbSymbolTableRecord
100
AcDbLinetypeTableRecord
  2
DIVIDEX2
 70
     0
  3
________  .  .  ________  .  .  ________  .  . 
 72
    65
 73
     6
 40
2.5
 49
1.0
 74
     0
 49
-0.5
 74
     0
 49
0.0
 74
     0
 49
-0.5
 74
     0
 49
0.0
 74
     0
 49
-0.5
 74
     0
  0
LTYPE
  5
2F
100
AcDbSymbolTableRecord
100
AcDbLinetypeTableRecord
  2
DOT
 70
     0
  3
. . . . . . . . . . . . . . . . . . . . . . . .
 72
    65
 73
     2
 40
0.25
 49
0.0
 74
     0
 49
-0.25
 74
     0
  0
LTYPE
  5
30
100
AcDbSymbolTableRecord
100
AcDbLinetypeTableRecord
  2
DOT2
 70
     0
  3
...............................................
 72
    65
 73
     2
 40
0.125
 49
0.0
 74
     0
 49
-0.125
 74
     0
  0
LTYPE
  5
31
100
AcDbSymbolTableRecord
100
AcDbLinetypeTableRecord
  2
DOTX2
 70
     0
  3
.  .  .  .  .  .  .  .  .  .  .  .  .  .  .  . 
 72
    65
 73
     2
 40
0.5
 49
0.0
 74
     0
 49
-0.5
 74
     0
  0
LTYPE
  5
32
100
AcDbSymbolTableRecord
100
AcDbLinetypeTableRecord
  2
HIDDEN
 70
     0
  3
__ __ __ __ __ __ __ __ __ __ __ __ __ __ __ __
 72
    65
 73
     2
 40
0.375
 49
0.25
 74
     0
 49
-0.125
 74
     0
  0
LTYPE
  5
33
100
AcDbSymbolTableRecord
100
AcDbLinetypeTableRecord
  2
HIDDEN2
 70
     0
  3
_ _ _ _ _ _ _ _ _ _ _ _ _ _ _ _ _ _ _ _ _ _ _ _
 72
    65
 73
     2
 40
0.1875
 49
0.125
 74
     0
 49
-0.0625
 74
     0
  0
LTYPE
  5
34
100
AcDbSymbolTableRecord
100
AcDbLinetypeTableRecord
  2
HIDDENX2
 70
     0
  3
____ ____ ____ ____ ____ ____ ____ ____ ____ __
 72
    65
 73
     2
 40
0.75
 49
0.5
 74
     0
 49
-0.25
 74
     0
  0
LTYPE
  5
35
100
AcDbSymbolTableRecord
100
AcDbLinetypeTableRecord
  2
PHANTOM
 70
     0
  3
______  __  __  ______  __  __  ______  __  __ 
 72
    65
 73
     6
 40
2.5
 49
1.25
 74
     0
 49
-0.25
 74
     0
 49
0.25
 74
     0
 49
-0.25
 74
     0
 49
0.25
 74
     0
 49
-0.25
 74
     0
  0
LTYPE
  5
36
100
AcDbSymbolTableRecord
100
AcDbLinetypeTableRecord
  2
PHANTOM2
 70
     0
  3
___ _ _ ___ _ _ ___ _ _ ___ _ _ ___ _ _ ___ _ _
 72
    65
 73
     6
 40
1.25
 49
0.625
 74
     0
 49
-0.125
 74
     0
 49
0.125
 74
     0
 49
-0.125
 74
     0
 49
0.125
 74
     0
 49
-0.125
 74
     0
  0
LTYPE
  5
37
100
AcDbSymbolTableRecord
100
AcDbLinetypeTableRecord
  2
PHANTOMX2
 70
     0
  3
____________    ____    ____    ____________   
 72
    65
 73
     6
 40
5.0
 49
2.5
 74
     0
 49
-0.5
 74
     0
 49
0.5
 74
     0
 49
-0.5
 74
     0
 49
0.5
 74
     0
 49
-0.5
 74
     0
  0
ENDTAB
   0
TABLE
   2
LAYER
   5
2
 100
AcDbSymbolTable
  70
2
   0
LAYER
   5
E
 100
AcDbSymbolTableRecord
 100
AcDbLayerTableRecord
   2
0
  70
0
  62
7
   6
CONTINUOUS
 390
30
   0
LAYER
   5
39
 100
AcDbSymbolTableRecord
 100
AcDbLayerTableRecord
   2
LEVEL001
  70
0
  62
7
   6
CONTINUOUS
 390
30
   0
ENDTAB
  0
TABLE
  2
STYLE
  5
3
100
AcDbSymbolTable
  70
7
  0
STYLE
  5
F
100
AcDbSymbolTableRecord
100
AcDbTextStyleTableRecord
  2
STANDARD
 70
     0
 40
0.0
 41
1.0
 50
0.0
 71
     0
 42
0.2
  3
TXT
  4
BIGFONT
  0
STYLE
  5
38
100
AcDbSymbolTableRecord
100
AcDbTextStyleTableRecord
  2
STANDARD1
 70
     4
 40
0.0
 41
1.0
 50
0.0
 71
     0
 42
0.2
  3
TXT
  4
BIGFONT
   0
STYLE
   5
3A
 100
AcDbSymbolTableRecord
 100
AcDbTextStyleTableRecord
   2
GMM001
  70
0
  40
0.0
  41
 1.0000000000000
  50
0.0
  71
     0
  42
1.0
   3

   4

1001
ACAD
1000
ＭＳ ゴシック
1071
32817
   0
STYLE
   5
3B
 100
AcDbSymbolTableRecord
 100
AcDbTextStyleTableRecord
   2
GMM002
  70
0
  40
0.0
  41
 1.0000000000000
  50
0.0
  71
     0
  42
1.0
   3
txt.shx
   4
bigfont.shx
   0
STYLE
   5
3C
 100
AcDbSymbolTableRecord
 100
AcDbTextStyleTableRecord
   2
GMM003
  70
0
  40
0.0
  41
 0.75000000000000
  50
0.0
  71
     0
  42
1.0
   3
txt.shx
   4
bigfont.shx
   0
STYLE
   5
3D
 100
AcDbSymbolTableRecord
 100
AcDbTextStyleTableRecord
   2
GMM004
  70
0
  40
0.0
  41
 0.66666666666667
  50
0.0
  71
     0
  42
1.0
   3

   4

1001
ACAD
1000
ＭＳ ゴシック
1071
32817
   0
STYLE
   5
3E
 100
AcDbSymbolTableRecord
 100
AcDbTextStyleTableRecord
   2
GMM005
  70
0
  40
0.0
  41
 1.5000000000000
  50
0.0
  71
     0
  42
1.0
   3

   4

1001
ACAD
1000
ＭＳ ゴシック
1071
32817
   0
ENDTAB
  0
TABLE
  2
VIEW
  5
6
100
AcDbSymbolTable
 70
     0
  0
ENDTAB
  0
TABLE
  2
UCS
  5
7
100
AcDbSymbolTable
 70
     0
  0
ENDTAB
  0
TABLE
  2
APPID
  5
9
100
AcDbSymbolTable
 70
     1
  0
APPID
  5
10
100
AcDbSymbolTableRecord
100
AcDbRegAppTableRecord
  2
ACAD
 70
     0
  0
ENDTAB
   0
TABLE
   2
DIMSTYLE
   5
A
 100
AcDbSymbolTable
  70
10
 100
AcDbDimStyleTable
  0
DIMSTYLE
105
1D
100
AcDbSymbolTableRecord
100
AcDbDimStyleTableRecord
  2
STANDARD
 70
     0
  3

  4

  5

  6

  7

 40
1.0
 41
0.18
 42
0.0625
 43
0.38
 44
0.18
 45
0.0
 46
0.0
 47
0.0
 48
0.0
140
0.18
141
0.09
142
0.0
143
25.4
144
1.0
145
0.0
146
1.0
147
0.09
 71
     0
 72
     0
 73
     1
 74
     1
 75
     0
 76
     0
 77
     0
 78
     0
170
     0
171
     2
172
     0
173
     0
174
     0
175
     0
176
     0
177
     0
178
     0
270
     2
271
     4
272
     4
273
     2
274
     2
340
F
275
     0
280
     0
281
     0
282
     0
283
     1
284
     0
285
     0
286
     0
287
     3
288
     0
   0
DIMSTYLE
 105
3F
 100
AcDbSymbolTableRecord
 100
AcDbDimStyleTableRecord
   2
GMM001
  70
0
   3

   4

   5

   6
_OPEN
   7
_OPEN
  40
 1.0000000000000
  41
 42.000000000000
  42
 30.000000000000
  43
 160.00000000000
  44
 30.000000000000
  45
0.0
  46
0.0
  47
0.0
  48
0.0
 140
 60.000000000000
 141
 20.000000000000
 142
0.0
 143
 0.39400000000000E-1
 144
 1.0000000000000
 145
0.0
 146
 0.83333333333333
 147
0.0
  71
0
  72
0
  73
0
  74
0
  75
0
  76
0
  77
0
  78
8
 170
0
 171
2
 172
1
 173
1
 174
0
 175
0
 176
1
 177
1
 178
7
 270
2
 271
1
 272
0
 273
2
 274
2
 340
3B
 275
0
 280
0
 281
0
 282
0
 283
1
 284
0
 285
0
 286
0
 287
3
 288
1
   0
DIMSTYLE
 105
40
 100
AcDbSymbolTableRecord
 100
AcDbDimStyleTableRecord
   2
GMM002
  70
0
   3

   4

   5

   6
_OPEN
   7
_OPEN
  40
 1.0000000000000
  41
 30.000000000000
  42
 30.000000000000
  43
 160.00000000000
  44
 30.000000000000
  45
0.0
  46
0.0
  47
0.0
  48
0.0
 140
 66.000000000000
 141
 20.000000000000
 142
0.0
 143
 0.39400000000000E-1
 144
 1.0000000000000
 145
0.0
 146
 0.75757575757576
 147
0.0
  71
0
  72
0
  73
0
  74
0
  75
0
  76
0
  77
0
  78
8
 170
0
 171
2
 172
1
 173
1
 174
0
 175
0
 176
1
 177
1
 178
7
 270
2
 271
1
 272
0
 273
2
 274
2
 340
3B
 275
0
 280
0
 281
0
 282
0
 283
1
 284
0
 285
0
 286
0
 287
3
 288
1
   0
DIMSTYLE
 105
41
 100
AcDbSymbolTableRecord
 100
AcDbDimStyleTableRecord
   2
GMM003
  70
0
   3
□<>
   4

   5

   6
_OPEN
   7
_OPEN
  40
 1.0000000000000
  41
 42.000000000000
  42
 30.000000000000
  43
 160.00000000000
  44
 30.000000000000
  45
0.0
  46
0.0
  47
0.0
  48
0.0
 140
 60.000000000000
 141
 20.000000000000
 142
0.0
 143
 0.39400000000000E-1
 144
 1.0000000000000
 145
0.0
 146
 0.83333333333333
 147
 25.714285714286
  71
0
  72
0
  73
0
  74
0
  75
0
  76
0
  77
3
  78
8
 170
0
 171
2
 172
1
 173
1
 174
0
 175
0
 176
6
 177
6
 178
1
 270
2
 271
6
 272
0
 273
2
 274
2
 340
3B
 275
1
 280
0
 281
0
 282
0
 283
1
 284
0
 285
0
 286
0
 287
3
 288
0
   0
DIMSTYLE
 105
42
 100
AcDbSymbolTableRecord
 100
AcDbDimStyleTableRecord
   2
GMM004
  70
0
   3

   4

   5

   6
_OPEN
   7
_OPEN
  40
 1.0000000000000
  41
 42.000000000000
  42
 30.000000000000
  43
 160.00000000000
  44
 30.000000000000
  45
0.0
  46
0.0
  47
0.0
  48
0.0
 140
 60.000000000000
 141
 20.000000000000
 142
0.0
 143
 0.39400000000000E-1
 144
 1.0000000000000
 145
0.0
 146
 0.83333333333333
 147
 25.714285714286
  71
0
  72
0
  73
0
  74
0
  75
0
  76
0
  77
3
  78
8
 170
0
 171
2
 172
1
 173
1
 174
0
 175
0
 176
6
 177
6
 178
1
 270
2
 271
6
 272
0
 273
2
 274
2
 340
3B
 275
1
 280
0
 281
0
 282
0
 283
1
 284
0
 285
0
 286
0
 287
3
 288
0
   0
DIMSTYLE
 105
43
 100
AcDbSymbolTableRecord
 100
AcDbDimStyleTableRecord
   2
GMM005
  70
0
   3

   4

   5

   6
_OPEN
   7
_OPEN
  40
 1.0000000000000
  41
 42.000000000000
  42
 30.000000000000
  43
 160.00000000000
  44
 30.000000000000
  45
0.0
  46
0.0
  47
0.0
  48
0.0
 140
 60.000000000000
 141
 20.000000000000
 142
0.0
 143
 0.39400000000000E-1
 144
 1.0000000000000
 145
0.0
 146
 0.83333333333333
 147
 25.714285714286
  71
0
  72
0
  73
0
  74
0
  75
0
  76
0
  77
3
  78
8
 170
0
 171
2
 172
1
 173
1
 174
0
 175
0
 176
6
 177
6
 178
1
 270
2
 271
6
 272
0
 273
2
 274
2
 340
3B
 275
1
 280
0
 281
0
 282
0
 283
1
 284
0
 285
0
 286
0
 287
3
 288
0
   0
DIMSTYLE
 105
44
 100
AcDbSymbolTableRecord
 100
AcDbDimStyleTableRecord
   2
GMM006
  70
0
   3

   4

   5

   6
_OPEN
   7
_OPEN
  40
 1.0000000000000
  41
 42.000000000000
  42
 30.000000000000
  43
 160.00000000000
  44
 30.000000000000
  45
0.0
  46
0.0
  47
0.0
  48
0.0
 140
 60.000000000000
 141
 20.000000000000
 142
0.0
 143
 0.39400000000000E-1
 144
 1.0000000000000
 145
0.0
 146
 0.83333333333333
 147
 25.714285714286
  71
0
  72
0
  73
0
  74
0
  75
0
  76
0
  77
3
  78
8
 170
0
 171
2
 172
1
 173
1
 174
0
 175
0
 176
6
 177
6
 178
1
 270
2
 271
6
 272
0
 273
2
 274
2
 340
3B
 275
1
 280
0
 281
0
 282
0
 283
1
 284
0
 285
0
 286
0
 287
3
 288
0
   0
DIMSTYLE
 105
45
 100
AcDbSymbolTableRecord
 100
AcDbDimStyleTableRecord
   2
GMM007
  70
0
   3
%%c<>
   4

   5

   6
_OPEN
   7
_OPEN
  40
 1.0000000000000
  41
 42.000000000000
  42
 30.000000000000
  43
 160.00000000000
  44
 30.000000000000
  45
0.0
  46
0.0
  47
0.0
  48
0.0
 140
 60.000000000000
 141
 20.000000000000
 142
0.0
 143
 0.39400000000000E-1
 144
 1.0000000000000
 145
0.0
 146
 0.83333333333333
 147
 14.000000000000
  71
0
  72
0
  73
0
  74
0
  75
0
  76
0
  77
3
  78
8
 170
0
 171
2
 172
1
 173
1
 174
0
 175
0
 176
6
 177
6
 178
1
 270
2
 271
6
 272
0
 273
2
 274
2
 340
3B
 275
0
 280
0
 281
0
 282
0
 283
1
 284
0
 285
0
 286
0
 287
0
 288
1
   0
DIMSTYLE
 105
46
 100
AcDbSymbolTableRecord
 100
AcDbDimStyleTableRecord
   2
GMM008
  70
0
   3

   4

   5

   6
_OPEN
   7
_OPEN
  40
 1.0000000000000
  41
 42.000000000000
  42
 30.000000000000
  43
 160.00000000000
  44
 30.000000000000
  45
0.0
  46
0.0
  47
0.0
  48
0.0
 140
 60.000000000000
 141
 20.000000000000
 142
0.0
 143
 0.39400000000000E-1
 144
 1.0000000000000
 145
0.0
 146
 0.83333333333333
 147
 14.000000000000
  71
0
  72
0
  73
0
  74
0
  75
0
  76
0
  77
3
  78
8
 170
0
 171
2
 172
1
 173
1
 174
0
 175
0
 176
6
 177
6
 178
1
 270
2
 271
6
 272
0
 273
2
 274
2
 340
3B
 275
0
 280
0
 281
0
 282
0
 283
1
 284
0
 285
0
 286
0
 287
3
 288
1
   0
ENDTAB
  0
TABLE
  2
BLOCK_RECORD
  5
1
100
AcDbSymbolTable
 70
     0
  0
BLOCK_RECORD
  5
18
100
AcDbSymbolTableRecord
100
AcDbBlockTableRecord
  2
*MODEL_SPACE
  0
BLOCK_RECORD
  5
15
100
AcDbSymbolTableRecord
100
AcDbBlockTableRecord
  2
*PAPER_SPACE
   0
BLOCK_RECORD
   5
47
 100
AcDbSymbolTableRecord
 100
AcDbBlockTableRecord
   2
*D14
   0
BLOCK_RECORD
   5
48
 100
AcDbSymbolTableRecord
 100
AcDbBlockTableRecord
   2
*D15
   0
BLOCK_RECORD
   5
49
 100
AcDbSymbolTableRecord
 100
AcDbBlockTableRecord
   2
*D16
   0
BLOCK_RECORD
   5
4A
 100
AcDbSymbolTableRecord
 100
AcDbBlockTableRecord
   2
*D17
   0
BLOCK_RECORD
   5
4B
 100
AcDbSymbolTableRecord
 100
AcDbBlockTableRecord
   2
*D18
   0
BLOCK_RECORD
   5
4C
 100
AcDbSymbolTableRecord
 100
AcDbBlockTableRecord
   2
*D19
   0
BLOCK_RECORD
   5
4D
 100
AcDbSymbolTableRecord
 100
AcDbBlockTableRecord
   2
*D20
   0
BLOCK_RECORD
   5
4E
 100
AcDbSymbolTableRecord
 100
AcDbBlockTableRecord
   2
_ARCHTICK
   0
BLOCK_RECORD
   5
4F
 100
AcDbSymbolTableRecord
 100
AcDbBlockTableRecord
   2
_BOXBLANK
   0
BLOCK_RECORD
   5
50
 100
AcDbSymbolTableRecord
 100
AcDbBlockTableRecord
   2
_BOXFILLED
   0
BLOCK_RECORD
   5
51
 100
AcDbSymbolTableRecord
 100
AcDbBlockTableRecord
   2
_CLOSED
   0
BLOCK_RECORD
   5
52
 100
AcDbSymbolTableRecord
 100
AcDbBlockTableRecord
   2
_CLOSEDBLANK
   0
BLOCK_RECORD
   5
53
 100
AcDbSymbolTableRecord
 100
AcDbBlockTableRecord
   2
_DATUMBLANK
   0
BLOCK_RECORD
   5
54
 100
AcDbSymbolTableRecord
 100
AcDbBlockTableRecord
   2
_DATUMFILLED
   0
BLOCK_RECORD
   5
55
 100
AcDbSymbolTableRecord
 100
AcDbBlockTableRecord
   2
_DOT
   0
BLOCK_RECORD
   5
56
 100
AcDbSymbolTableRecord
 100
AcDbBlockTableRecord
   2
_DOTBLANK
   0
BLOCK_RECORD
   5
57
 100
AcDbSymbolTableRecord
 100
AcDbBlockTableRecord
   2
_DOTSMALL
   0
BLOCK_RECORD
   5
58
 100
AcDbSymbolTableRecord
 100
AcDbBlockTableRecord
   2
_INTEGRAL
   0
BLOCK_RECORD
   5
59
 100
AcDbSymbolTableRecord
 100
AcDbBlockTableRecord
   2
_NONE
   0
BLOCK_RECORD
   5
5A
 100
AcDbSymbolTableRecord
 100
AcDbBlockTableRecord
   2
_OBLIQUE
   0
BLOCK_RECORD
   5
5B
 100
AcDbSymbolTableRecord
 100
AcDbBlockTableRecord
   2
_OPEN
   0
BLOCK_RECORD
   5
5C
 100
AcDbSymbolTableRecord
 100
AcDbBlockTableRecord
   2
_OPEN30
   0
BLOCK_RECORD
   5
5D
 100
AcDbSymbolTableRecord
 100
AcDbBlockTableRecord
   2
_OPEN90
   0
BLOCK_RECORD
   5
5E
 100
AcDbSymbolTableRecord
 100
AcDbBlockTableRecord
   2
_ORIGIN
   0
ENDTAB
   0
ENDSEC
  0
SECTION
  2
BLOCKS
  0
BLOCK
  5
19
100
AcDbEntity
  8
0
100
AcDbBlockBegin
  2
*MODEL_SPACE
 70
     0
 10
0.0
 20
0.0
 30
0.0
  3
*MODEL_SPACE
  1

  0
ENDBLK
  5
1A
100
AcDbEntity
  8
0
100
AcDbBlockEnd
  0
BLOCK
  5
16
100
AcDbEntity
 67
     1
  8
0
100
AcDbBlockBegin
  2
*PAPER_SPACE
 70
     0
 10
0.0
 20
0.0
 30
0.0
  3
*PAPER_SPACE
  1

  0
ENDBLK
  5
17
100
AcDbEntity
 67
     1
  8
0
100
AcDbBlockEnd
   0
BLOCK
   5
5F
 100
AcDbEntity
   8
0
 100
AcDbBlockBegin
   2
_ARCHTICK
  70
0
  10
0.0
  20
0.0
  30
0.0
   3
_ARCHTICK
   0
POLYLINE
   5
60
 100
AcDbEntity
   8
0
 370
-2
   6
BYBLOCK
  62
0
 100
AcDb2dPolyline
  66
1
  10
0.0
  20
0.0
  30
0.0
  70
1
  40
 0.15000000000000
  41
 0.15000000000000
   0
VERTEX
   5
61
 100
AcDbEntity
   8
0
   6
BYBLOCK
  62
0
 100
AcDbVertex
 100
AcDb2dVertex
  10
-0.50000000000000
  20
-0.50000000000000
  30
0.0
  40
 0.15000000000000
  41
 0.15000000000000
   0
VERTEX
   5
62
 100
AcDbEntity
   8
0
   6
BYBLOCK
  62
0
 100
AcDbVertex
 100
AcDb2dVertex
  10
 0.50000000000000
  20
 0.50000000000000
  30
0.0
  40
 0.15000000000000
  41
 0.15000000000000
   0
SEQEND
   5
63
 100
AcDbEntity
   8
0
   6
BYBLOCK
  62
0
   0
ENDBLK
   5
64
 100
AcDbEntity
   8
0
 100
AcDbBlockEnd
   0
BLOCK
   5
65
 100
AcDbEntity
   8
0
 100
AcDbBlockBegin
   2
_OBLIQUE
  70
0
  10
0.0
  20
0.0
  30
0.0
   3
_OBLIQUE
   0
LINE
   5
66
 100
AcDbEntity
   8
0
 370
-2
 100
AcDbLine
   6
BYBLOCK
  62
0
  10
-0.50000000000000
  20
-0.50000000000000
  30
0.0
  11
 0.50000000000000
  21
 0.50000000000000
  31
0.0
   0
ENDBLK
   5
67
 100
AcDbEntity
   8
0
 100
AcDbBlockEnd
   0
BLOCK
   5
68
 100
AcDbEntity
   8
0
 100
AcDbBlockBegin
   2
_BOXBLANK
  70
0
  10
0.0
  20
0.0
  30
0.0
   3
_BOXBLANK
   0
LINE
   5
69
 100
AcDbEntity
   8
0
 370
-2
 100
AcDbLine
   6
BYBLOCK
  62
0
  10
-0.50000000000000
  20
-0.50000000000000
  30
0.0
  11
 0.50000000000000
  21
-0.50000000000000
  31
0.0
   0
LINE
   5
6A
 100
AcDbEntity
   8
0
 370
-2
 100
AcDbLine
   6
BYBLOCK
  62
0
  10
 0.50000000000000
  20
-0.50000000000000
  30
0.0
  11
 0.50000000000000
  21
 0.50000000000000
  31
0.0
   0
LINE
   5
6B
 100
AcDbEntity
   8
0
 370
-2
 100
AcDbLine
   6
BYBLOCK
  62
0
  10
 0.50000000000000
  20
 0.50000000000000
  30
0.0
  11
-0.50000000000000
  21
 0.50000000000000
  31
0.0
   0
LINE
   5
6C
 100
AcDbEntity
   8
0
 370
-2
 100
AcDbLine
   6
BYBLOCK
  62
0
  10
-0.50000000000000
  20
 0.50000000000000
  30
0.0
  11
-0.50000000000000
  21
-0.50000000000000
  31
0.0
   0
LINE
   5
6D
 100
AcDbEntity
   8
0
 370
-2
 100
AcDbLine
   6
BYBLOCK
  62
0
  10
-0.50000000000000
  20
0.0
  30
0.0
  11
-1.0000000000000
  21
0.0
  31
0.0
   0
ENDBLK
   5
6E
 100
AcDbEntity
   8
0
 100
AcDbBlockEnd
   0
BLOCK
   5
6F
 100
AcDbEntity
   8
0
 100
AcDbBlockBegin
   2
_BOXFILLED
  70
0
  10
0.0
  20
0.0
  30
0.0
   3
_BOXFILLED
   0
SOLID
   5
70
 100
AcDbEntity
   8
0
 100
AcDbTrace
   6
BYBLOCK
  62
0
  10
-0.50000000000000
  20
 0.50000000000000
  30
0.0
  11
 0.50000000000000
  21
 0.50000000000000
  31
0.0
  12
-0.50000000000000
  22
-0.50000000000000
  32
0.0
  13
 0.50000000000000
  23
-0.50000000000000
  33
0.0
   0
LINE
   5
71
 100
AcDbEntity
   8
0
 370
-2
 100
AcDbLine
   6
BYBLOCK
  62
0
  10
-0.50000000000000
  20
0.0
  30
0.0
  11
-1.0000000000000
  21
0.0
  31
0.0
   0
ENDBLK
   5
72
 100
AcDbEntity
   8
0
 100
AcDbBlockEnd
   0
BLOCK
   5
73
 100
AcDbEntity
   8
0
 100
AcDbBlockBegin
   2
_CLOSED
  70
0
  10
0.0
  20
0.0
  30
0.0
   3
_CLOSED
   0
LINE
   5
74
 100
AcDbEntity
   8
0
 370
-2
 100
AcDbLine
   6
BYBLOCK
  62
0
  10
-1.0000000000000
  20
 0.16666666666667
  30
0.0
  11
0.0
  21
0.0
  31
0.0
   0
LINE
   5
75
 100
AcDbEntity
   8
0
 370
-2
 100
AcDbLine
   6
BYBLOCK
  62
0
  10
0.0
  20
0.0
  30
0.0
  11
-1.0000000000000
  21
-0.16666666666667
  31
0.0
   0
LINE
   5
76
 100
AcDbEntity
   8
0
 370
-2
 100
AcDbLine
   6
BYBLOCK
  62
0
  10
-1.0000000000000
  20
 0.16666666666667
  30
0.0
  11
-1.0000000000000
  21
-0.16666666666667
  31
0.0
   0
LINE
   5
77
 100
AcDbEntity
   8
0
 370
-2
 100
AcDbLine
   6
BYBLOCK
  62
0
  10
0.0
  20
0.0
  30
0.0
  11
-1.0000000000000
  21
0.0
  31
0.0
   0
ENDBLK
   5
78
 100
AcDbEntity
   8
0
 100
AcDbBlockEnd
   0
BLOCK
   5
79
 100
AcDbEntity
   8
0
 100
AcDbBlockBegin
   2
_OPEN
  70
0
  10
0.0
  20
0.0
  30
0.0
   3
_OPEN
   0
LINE
   5
7A
 100
AcDbEntity
   8
0
 370
-2
 100
AcDbLine
   6
BYBLOCK
  62
0
  10
-1.0000000000000
  20
 0.16666666666667
  30
0.0
  11
0.0
  21
0.0
  31
0.0
   0
LINE
   5
7B
 100
AcDbEntity
   8
0
 370
-2
 100
AcDbLine
   6
BYBLOCK
  62
0
  10
0.0
  20
0.0
  30
0.0
  11
-1.0000000000000
  21
-0.16666666666667
  31
0.0
   0
LINE
   5
7C
 100
AcDbEntity
   8
0
 370
-2
 100
AcDbLine
   6
BYBLOCK
  62
0
  10
0.0
  20
0.0
  30
0.0
  11
-1.0000000000000
  21
0.0
  31
0.0
   0
ENDBLK
   5
7D
 100
AcDbEntity
   8
0
 100
AcDbBlockEnd
   0
BLOCK
   5
7E
 100
AcDbEntity
   8
0
 100
AcDbBlockBegin
   2
_OPEN30
  70
0
  10
0.0
  20
0.0
  30
0.0
   3
_OPEN30
   0
LINE
   5
7F
 100
AcDbEntity
   8
0
 370
-2
 100
AcDbLine
   6
BYBLOCK
  62
0
  10
-1.0000000000000
  20
 0.26794919243110
  30
0.0
  11
0.0
  21
0.0
  31
0.0
   0
LINE
   5
80
 100
AcDbEntity
   8
0
 370
-2
 100
AcDbLine
   6
BYBLOCK
  62
0
  10
0.0
  20
0.0
  30
0.0
  11
-1.0000000000000
  21
-0.26794919243110
  31
0.0
   0
LINE
   5
81
 100
AcDbEntity
   8
0
 370
-2
 100
AcDbLine
   6
BYBLOCK
  62
0
  10
0.0
  20
0.0
  30
0.0
  11
-1.0000000000000
  21
0.0
  31
0.0
   0
ENDBLK
   5
82
 100
AcDbEntity
   8
0
 100
AcDbBlockEnd
   0
BLOCK
   5
83
 100
AcDbEntity
   8
0
 100
AcDbBlockBegin
   2
_OPEN90
  70
0
  10
0.0
  20
0.0
  30
0.0
   3
_OPEN90
   0
LINE
   5
84
 100
AcDbEntity
   8
0
 370
-2
 100
AcDbLine
   6
BYBLOCK
  62
0
  10
-0.50000000000000
  20
 0.50000000000000
  30
0.0
  11
0.0
  21
0.0
  31
0.0
   0
LINE
   5
85
 100
AcDbEntity
   8
0
 370
-2
 100
AcDbLine
   6
BYBLOCK
  62
0
  10
0.0
  20
0.0
  30
0.0
  11
-0.50000000000000
  21
-0.50000000000000
  31
0.0
   0
LINE
   5
86
 100
AcDbEntity
   8
0
 370
-2
 100
AcDbLine
   6
BYBLOCK
  62
0
  10
0.0
  20
0.0
  30
0.0
  11
-1.0000000000000
  21
0.0
  31
0.0
   0
ENDBLK
   5
87
 100
AcDbEntity
   8
0
 100
AcDbBlockEnd
   0
BLOCK
   5
88
 100
AcDbEntity
   8
0
 100
AcDbBlockBegin
   2
_CLOSEDBLANK
  70
0
  10
0.0
  20
0.0
  30
0.0
   3
_CLOSEDBLANK
   0
LINE
   5
89
 100
AcDbEntity
   8
0
 370
-2
 100
AcDbLine
   6
BYBLOCK
  62
0
  10
-1.0000000000000
  20
 0.16666666666667
  30
0.0
  11
0.0
  21
0.0
  31
0.0
   0
LINE
   5
8A
 100
AcDbEntity
   8
0
 370
-2
 100
AcDbLine
   6
BYBLOCK
  62
0
  10
0.0
  20
0.0
  30
0.0
  11
-1.0000000000000
  21
-0.16666666666667
  31
0.0
   0
LINE
   5
8B
 100
AcDbEntity
   8
0
 370
-2
 100
AcDbLine
   6
BYBLOCK
  62
0
  10
-1.0000000000000
  20
 0.16666666666667
  30
0.0
  11
-1.0000000000000
  21
-0.16666666666667
  31
0.0
   0
ENDBLK
   5
8C
 100
AcDbEntity
   8
0
 100
AcDbBlockEnd
   0
BLOCK
   5
8D
 100
AcDbEntity
   8
0
 100
AcDbBlockBegin
   2
_DOT
  70
0
  10
0.0
  20
0.0
  30
0.0
   3
_DOT
   0
POLYLINE
   5
8E
 100
AcDbEntity
   8
0
 370
-2
   6
BYBLOCK
  62
0
 100
AcDb2dPolyline
  66
1
  10
0.0
  20
0.0
  30
0.0
  70
1
  40
 0.50000000000000
  41
 0.50000000000000
   0
VERTEX
   5
8F
 100
AcDbEntity
   8
0
   6
BYBLOCK
  62
0
 100
AcDbVertex
 100
AcDb2dVertex
  10
-0.25000000000000
  20
0.0
  30
0.0
  42
 1.0000000000000
  40
 0.50000000000000
  41
 0.50000000000000
   0
VERTEX
   5
90
 100
AcDbEntity
   8
0
   6
BYBLOCK
  62
0
 100
AcDbVertex
 100
AcDb2dVertex
  10
 0.25000000000000
  20
0.0
  30
0.0
  42
 1.0000000000000
  40
 0.50000000000000
  41
 0.50000000000000
   0
SEQEND
   5
91
 100
AcDbEntity
   8
0
   6
BYBLOCK
  62
0
   0
LINE
   5
92
 100
AcDbEntity
   8
0
 370
-2
 100
AcDbLine
   6
BYBLOCK
  62
0
  10
-0.50000000000000
  20
0.0
  30
0.0
  11
-1.0000000000000
  21
0.0
  31
0.0
   0
ENDBLK
   5
93
 100
AcDbEntity
   8
0
 100
AcDbBlockEnd
   0
BLOCK
   5
94
 100
AcDbEntity
   8
0
 100
AcDbBlockBegin
   2
_DOTSMALL
  70
0
  10
0.0
  20
0.0
  30
0.0
   3
_DOTSMALL
   0
POLYLINE
   5
95
 100
AcDbEntity
   8
0
 370
-2
   6
BYBLOCK
  62
0
 100
AcDb2dPolyline
  66
1
  10
0.0
  20
0.0
  30
0.0
  70
1
  40
 0.50000000000000
  41
 0.50000000000000
   0
VERTEX
   5
96
 100
AcDbEntity
   8
0
   6
BYBLOCK
  62
0
 100
AcDbVertex
 100
AcDb2dVertex
  10
-0.62500000000000E-1
  20
0.0
  30
0.0
  42
 1.0000000000000
  40
 0.50000000000000
  41
 0.50000000000000
   0
VERTEX
   5
97
 100
AcDbEntity
   8
0
   6
BYBLOCK
  62
0
 100
AcDbVertex
 100
AcDb2dVertex
  10
 0.62500000000000E-1
  20
0.0
  30
0.0
  42
 1.0000000000000
  40
 0.50000000000000
  41
 0.50000000000000
   0
SEQEND
   5
98
 100
AcDbEntity
   8
0
   6
BYBLOCK
  62
0
   0
ENDBLK
   5
99
 100
AcDbEntity
   8
0
 100
AcDbBlockEnd
   0
BLOCK
   5
9A
 100
AcDbEntity
   8
0
 100
AcDbBlockBegin
   2
_DATUMBLANK
  70
0
  10
0.0
  20
0.0
  30
0.0
   3
_DATUMBLANK
   0
LINE
   5
9B
 100
AcDbEntity
   8
0
 370
-2
 100
AcDbLine
   6
BYBLOCK
  62
0
  10
0.0
  20
 0.57735027000000
  30
0.0
  11
-1.0000000000000
  21
0.0
  31
0.0
   0
LINE
   5
9C
 100
AcDbEntity
   8
0
 370
-2
 100
AcDbLine
   6
BYBLOCK
  62
0
  10
-1.0000000000000
  20
0.0
  30
0.0
  11
0.0
  21
-0.57735027000000
  31
0.0
   0
LINE
   5
9D
 100
AcDbEntity
   8
0
 370
-2
 100
AcDbLine
   6
BYBLOCK
  62
0
  10
0.0
  20
-0.57735027000000
  30
0.0
  11
0.0
  21
 0.57735027000000
  31
0.0
   0
ENDBLK
   5
9E
 100
AcDbEntity
   8
0
 100
AcDbBlockEnd
   0
BLOCK
   5
9F
 100
AcDbEntity
   8
0
 100
AcDbBlockBegin
   2
_DATUMFILLED
  70
0
  10
0.0
  20
0.0
  30
0.0
   3
_DATUMFILLED
   0
SOLID
   5
A0
 100
AcDbEntity
   8
0
 100
AcDbTrace
   6
BYBLOCK
  62
0
  10
0.0
  20
 0.57735027000000
  30
0.0
  11
-1.0000000000000
  21
0.0
  31
0.0
  12
0.0
  22
-0.57735027000000
  32
0.0
  13
0.0
  23
-0.57735027000000
  33
0.0
   0
ENDBLK
   5
A1
 100
AcDbEntity
   8
0
 100
AcDbBlockEnd
   0
BLOCK
   5
A2
 100
AcDbEntity
   8
0
 100
AcDbBlockBegin
   2
_ORIGIN
  70
0
  10
0.0
  20
0.0
  30
0.0
   3
_ORIGIN
   0
CIRCLE
   5
A3
 100
AcDbEntity
   8
0
 370
-2
 100
AcDbCircle
   6
BYBLOCK
  62
0
  10
0.0
  20
0.0
  30
0.0
  40
 0.50000000000000
   0
LINE
   5
A4
 100
AcDbEntity
   8
0
 370
-2
 100
AcDbLine
   6
BYBLOCK
  62
0
  10
0.0
  20
0.0
  30
0.0
  11
-1.0000000000000
  21
0.0
  31
0.0
   0
ENDBLK
   5
A5
 100
AcDbEntity
   8
0
 100
AcDbBlockEnd
   0
BLOCK
   5
A6
 100
AcDbEntity
   8
0
 100
AcDbBlockBegin
   2
_NONE
  70
0
  10
0.0
  20
0.0
  30
0.0
   3
_NONE
   0
CIRCLE
   5
A7
 100
AcDbEntity
   8
0
 370
-2
 100
AcDbCircle
   6
BYBLOCK
  62
0
  10
0.0
  20
0.0
  30
0.0
  40
 0.25000000000000
   0
ENDBLK
   5
A8
 100
AcDbEntity
   8
0
 100
AcDbBlockEnd
   0
BLOCK
   5
A9
 100
AcDbEntity
   8
0
 100
AcDbBlockBegin
   2
_DOTBLANK
  70
0
  10
0.0
  20
0.0
  30
0.0
   3
_DOTBLANK
   0
CIRCLE
   5
AA
 100
AcDbEntity
   8
0
 370
-2
 100
AcDbCircle
   6
BYBLOCK
  62
0
  10
0.0
  20
0.0
  30
0.0
  40
 0.50000000000000
   0
LINE
   5
AB
 100
AcDbEntity
   8
0
 370
-2
 100
AcDbLine
   6
BYBLOCK
  62
0
  10
-0.50000000000000
  20
0.0
  30
0.0
  11
-1.0000000000000
  21
0.0
  31
0.0
   0
ENDBLK
   5
AC
 100
AcDbEntity
   8
0
 100
AcDbBlockEnd
   0
BLOCK
   5
AD
 100
AcDbEntity
   8
0
 100
AcDbBlockBegin
   2
_INTEGRAL
  70
0
  10
0.0
  20
0.0
  30
0.0
   3
_INTEGRAL
   0
ARC
   5
AE
 100
AcDbEntity
   8
0
 370
-2
   6
BYBLOCK
  62
0
 100
AcDbCircle
  10
 0.44488800000000
  20
-0.91335000000000E-1
  30
0.0
  40
 0.45416700000000
 100
AcDbArc
  50
 102.00000000000
  51
 168.00000000000
   0
ARC
   5
AF
 100
AcDbEntity
   8
0
 370
-2
   6
BYBLOCK
  62
0
 100
AcDbCircle
  10
-0.44488800000000
  20
 0.91335000000000E-1
  30
0.0
  40
 0.45416700000000
 100
AcDbArc
  50
 282.00000000000
  51
 348.00000000000
   0
ENDBLK
   5
B0
 100
AcDbEntity
   8
0
 100
AcDbBlockEnd
   0
BLOCK
   5
B1
 100
AcDbEntity
   8
0
 100
AcDbBlockBegin
   2
*D14
  70
65
  10
0.0
  20
0.0
  30
0.0
   3
*D14
   0
LINE
   5
B2
 100
AcDbEntity
   8
0
 370
13
 100
AcDbLine
   6
CONTINUOUS
  62
6
  10
 1235.0228162296
  20
 770.33465984781
  30
0.0
  11
 1235.0228162296
  21
 570.33465984781
  31
0.0
   0
LINE
   5
B3
 100
AcDbEntity
   8
0
 370
13
 100
AcDbLine
   6
CONTINUOUS
  62
6
  10
 1735.0228162296
  20
 770.33465984781
  30
0.0
  11
 1735.0228162296
  21
 570.33465984781
  31
0.0
   0
LINE
   5
B4
 100
AcDbEntity
   8
0
 370
13
 100
AcDbLine
   6
CONTINUOUS
  62
6
  10
 1235.0228162296
  20
 600.33465984781
  30
0.0
  11
 1485.0228162296
  21
 600.33465984781
  31
0.0
   0
LINE
   5
B5
 100
AcDbEntity
   8
0
 370
13
 100
AcDbLine
   6
CONTINUOUS
  62
6
  10
 1735.0228162296
  20
 600.33465984781
  30
0.0
  11
 1485.0228162296
  21
 600.33465984781
  31
0.0
   0
INSERT
   5
B6
 100
AcDbEntity
   8
0
   6
CONTINUOUS
  62
6
 100
AcDbBlockReference
   2
_OPEN
  10
 1235.0228162296
  20
 600.33465984781
  30
0.0
  41
 42.000000000000
  42
 42.000000000000
  43
 42.000000000000
  50
 180.00000000000
   0
INSERT
   5
B7
 100
AcDbEntity
   8
0
   6
CONTINUOUS
  62
6
 100
AcDbBlockReference
   2
_OPEN
  10
 1735.0228162296
  20
 600.33465984781
  30
0.0
  41
 42.000000000000
  42
 42.000000000000
  43
 42.000000000000
  50
0.0
   0
MTEXT
   5
B8
 100
AcDbEntity
   8
0
 370
13
  62
1
 100
AcDbMText
  10
 1485.0228162296
  20
 626.04894556210
  30
0.0
  40
 60.000000000000
  41
0.0
  71
8
  72
1
   1
\A1;□500
   7
GMM002
   0
ENDBLK
   5
B9
 100
AcDbEntity
   8
0
 100
AcDbBlockEnd
   0
BLOCK
   5
BA
 100
AcDbEntity
   8
0
 100
AcDbBlockBegin
   2
*D15
  70
65
  10
0.0
  20
0.0
  30
0.0
   3
*D15
   0
LINE
   5
BB
 100
AcDbEntity
   8
0
 370
13
 100
AcDbLine
   6
CONTINUOUS
  62
6
  10
 1205.0228162296
  20
 900.33465984781
  30
0.0
  11
 705.02281622962
  21
 900.33465984781
  31
0.0
   0
LINE
   5
BC
 100
AcDbEntity
   8
0
 370
13
 100
AcDbLine
   6
CONTINUOUS
  62
6
  10
 955.02281622962
  20
 1800.3346598478
  30
0.0
  11
 705.02281622962
  21
 1800.3346598478
  31
0.0
   0
LINE
   5
BD
 100
AcDbEntity
   8
0
 370
13
 100
AcDbLine
   6
CONTINUOUS
  62
6
  10
 735.02281622962
  20
 900.33465984781
  30
0.0
  11
 735.02281622962
  21
 1350.3346598478
  31
0.0
   0
LINE
   5
BE
 100
AcDbEntity
   8
0
 370
13
 100
AcDbLine
   6
CONTINUOUS
  62
6
  10
 735.02281622962
  20
 1800.3346598478
  30
0.0
  11
 735.02281622962
  21
 1350.3346598478
  31
0.0
   0
INSERT
   5
BF
 100
AcDbEntity
   8
0
   6
CONTINUOUS
  62
6
 100
AcDbBlockReference
   2
_OPEN
  10
 735.02281622962
  20
 900.33465984781
  30
0.0
  41
 42.000000000000
  42
 42.000000000000
  43
 42.000000000000
  50
 270.00000000000
   0
INSERT
   5
C0
 100
AcDbEntity
   8
0
   6
CONTINUOUS
  62
6
 100
AcDbBlockReference
   2
_OPEN
  10
 735.02281622962
  20
 1800.3346598478
  30
0.0
  41
 42.000000000000
  42
 42.000000000000
  43
 42.000000000000
  50
 90.000000000000
   0
MTEXT
   5
C1
 100
AcDbEntity
   8
0
 370
13
  62
1
 100
AcDbMText
  10
 709.30853051534
  20
 1350.3346598478
  30
0.0
  40
 60.000000000000
  41
0.0
  71
8
  72
1
   1
\A1;900
   7
GMM002
  11
0.0
  21
 1.0000000000000
  31
0.0
   0
ENDBLK
   5
C2
 100
AcDbEntity
   8
0
 100
AcDbBlockEnd
   0
BLOCK
   5
C3
 100
AcDbEntity
   8
0
 100
AcDbBlockBegin
   2
*D16
  70
65
  10
0.0
  20
0.0
  30
0.0
   3
*D16
   0
LINE
   5
C4
 100
AcDbEntity
   8
0
 370
13
 100
AcDbLine
   6
CONTINUOUS
  62
6
  10
 1205.0228162296
  20
 800.33465984781
  30
0.0
  11
 705.02281622962
  21
 800.33465984781
  31
0.0
   0
LINE
   5
C5
 100
AcDbEntity
   8
0
 370
13
 100
AcDbLine
   6
CONTINUOUS
  62
6
  10
 1205.0228162296
  20
 900.33465984781
  30
0.0
  11
 705.02281622962
  21
 900.33465984781
  31
0.0
   0
LINE
   5
C6
 100
AcDbEntity
   8
0
 370
13
 100
AcDbLine
   6
CONTINUOUS
  62
6
  10
 735.02281622962
  20
 800.33465984781
  30
0.0
  11
 735.02281622962
  21
 850.33465984781
  31
0.0
   0
LINE
   5
C7
 100
AcDbEntity
   8
0
 370
13
 100
AcDbLine
   6
CONTINUOUS
  62
6
  10
 735.02281622962
  20
 900.33465984781
  30
0.0
  11
 735.02281622962
  21
 850.33465984781
  31
0.0
   0
INSERT
   5
C8
 100
AcDbEntity
   8
0
   6
CONTINUOUS
  62
6
 100
AcDbBlockReference
   2
_OPEN
  10
 735.02281622962
  20
 800.33465984781
  30
0.0
  41
 42.000000000000
  42
 42.000000000000
  43
 42.000000000000
  50
 270.00000000000
   0
INSERT
   5
C9
 100
AcDbEntity
   8
0
   6
CONTINUOUS
  62
6
 100
AcDbBlockReference
   2
_OPEN
  10
 735.02281622962
  20
 900.33465984781
  30
0.0
  41
 42.000000000000
  42
 42.000000000000
  43
 42.000000000000
  50
 90.000000000000
   0
MTEXT
   5
CA
 100
AcDbEntity
   8
0
 370
13
  62
1
 100
AcDbMText
  10
 709.30853051534
  20
 850.33465984781
  30
0.0
  40
 60.000000000000
  41
0.0
  71
8
  72
1
   1
\A1;100
   7
GMM002
  11
0.0
  21
 1.0000000000000
  31
0.0
   0
ENDBLK
   5
CB
 100
AcDbEntity
   8
0
 100
AcDbBlockEnd
   0
BLOCK
   5
CC
 100
AcDbEntity
   8
0
 100
AcDbBlockBegin
   2
*D17
  70
65
  10
0.0
  20
0.0
  30
0.0
   3
*D17
   0
LINE
   5
CD
 100
AcDbEntity
   8
0
 370
13
 100
AcDbLine
   6
CONTINUOUS
  62
6
  10
 2885.0228162296
  20
 770.33465984781
  30
0.0
  11
 2885.0228162296
  21
 570.33465984781
  31
0.0
   0
LINE
   5
CE
 100
AcDbEntity
   8
0
 370
13
 100
AcDbLine
   6
CONTINUOUS
  62
6
  10
 2385.0228162296
  20
 770.33465984781
  30
0.0
  11
 2385.0228162296
  21
 570.33465984781
  31
0.0
   0
LINE
   5
CF
 100
AcDbEntity
   8
0
 370
13
 100
AcDbLine
   6
CONTINUOUS
  62
6
  10
 2885.0228162296
  20
 600.33465984781
  30
0.0
  11
 2635.0228162296
  21
 600.33465984781
  31
0.0
   0
LINE
   5
D0
 100
AcDbEntity
   8
0
 370
13
 100
AcDbLine
   6
CONTINUOUS
  62
6
  10
 2385.0228162296
  20
 600.33465984781
  30
0.0
  11
 2635.0228162296
  21
 600.33465984781
  31
0.0
   0
INSERT
   5
D1
 100
AcDbEntity
   8
0
   6
CONTINUOUS
  62
6
 100
AcDbBlockReference
   2
_OPEN
  10
 2885.0228162296
  20
 600.33465984781
  30
0.0
  41
 42.000000000000
  42
 42.000000000000
  43
 42.000000000000
  50
0.0
   0
INSERT
   5
D2
 100
AcDbEntity
   8
0
   6
CONTINUOUS
  62
6
 100
AcDbBlockReference
   2
_OPEN
  10
 2385.0228162296
  20
 600.33465984781
  30
0.0
  41
 42.000000000000
  42
 42.000000000000
  43
 42.000000000000
  50
 180.00000000000
   0
MTEXT
   5
D3
 100
AcDbEntity
   8
0
 370
13
  62
1
 100
AcDbMText
  10
 2635.0228162296
  20
 626.04894556210
  30
0.0
  40
 60.000000000000
  41
0.0
  71
8
  72
1
   1
\A1;□500
   7
GMM002
   0
ENDBLK
   5
D4
 100
AcDbEntity
   8
0
 100
AcDbBlockEnd
   0
BLOCK
   5
D5
 100
AcDbEntity
   8
0
 100
AcDbBlockBegin
   2
*D18
  70
65
  10
0.0
  20
0.0
  30
0.0
   3
*D18
   0
LINE
   5
D6
 100
AcDbEntity
   8
0
 370
13
 100
AcDbLine
   6
CONTINUOUS
  62
6
  10
 955.02281622962
  20
 1800.3346598478
  30
0.0
  11
 705.02281622962
  21
 1800.3346598478
  31
0.0
   0
LINE
   5
D7
 100
AcDbEntity
   8
0
 370
13
 100
AcDbLine
   6
CONTINUOUS
  62
6
  10
 1416.8728162296
  20
 4300.3346598478
  30
0.0
  11
 705.02281622962
  21
 4300.3346598478
  31
0.0
   0
LINE
   5
D8
 100
AcDbEntity
   8
0
 370
13
 100
AcDbLine
   6
CONTINUOUS
  62
6
  10
 735.02281622962
  20
 1800.3346598478
  30
0.0
  11
 735.02281622962
  21
 3050.3346598478
  31
0.0
   0
LINE
   5
D9
 100
AcDbEntity
   8
0
 370
13
 100
AcDbLine
   6
CONTINUOUS
  62
6
  10
 735.02281622962
  20
 4300.3346598478
  30
0.0
  11
 735.02281622962
  21
 3050.3346598478
  31
0.0
   0
INSERT
   5
DA
 100
AcDbEntity
   8
0
   6
CONTINUOUS
  62
6
 100
AcDbBlockReference
   2
_OPEN
  10
 735.02281622962
  20
 1800.3346598478
  30
0.0
  41
 42.000000000000
  42
 42.000000000000
  43
 42.000000000000
  50
 270.00000000000
   0
INSERT
   5
DB
 100
AcDbEntity
   8
0
   6
CONTINUOUS
  62
6
 100
AcDbBlockReference
   2
_OPEN
  10
 735.02281622962
  20
 4300.3346598478
  30
0.0
  41
 42.000000000000
  42
 42.000000000000
  43
 42.000000000000
  50
 90.000000000000
   0
MTEXT
   5
DC
 100
AcDbEntity
   8
0
 370
13
  62
1
 100
AcDbMText
  10
 709.30853051534
  20
 3050.3346598478
  30
0.0
  40
 60.000000000000
  41
0.0
  71
8
  72
1
   1
\A1;2500(標準設置高さ)
   7
GMM002
  11
0.0
  21
 1.0000000000000
  31
0.0
   0
ENDBLK
   5
DD
 100
AcDbEntity
   8
0
 100
AcDbBlockEnd
   0
BLOCK
   5
DE
 100
AcDbEntity
   8
0
 100
AcDbBlockBegin
   2
*D19
  70
65
  10
0.0
  20
0.0
  30
0.0
   3
*D19
   0
LINE
   5
DF
 100
AcDbEntity
   8
LEVEL001
 370
13
 100
AcDbLine
   6
CONTINUOUS
  62
6
  10
 1134.2825276969
  20
 4530.3346598478
  30
0.0
  11
 1485.0228162296
  21
 4732.8346598478
  31
0.0
   0
LINE
   5
E0
 100
AcDbEntity
   8
LEVEL001
 370
13
 100
AcDbLine
   6
CONTINUOUS
  62
6
  10
 1485.0228162296
  20
 4732.8346598478
  30
0.0
  11
 1835.7631047623
  21
 4935.3346598478
  31
0.0
   0
INSERT
   5
E1
 100
AcDbEntity
   8
LEVEL001
   6
CONTINUOUS
  62
6
 100
AcDbBlockReference
   2
_OPEN
  10
 1134.2825276969
  20
 4530.3346598478
  30
0.0
  41
 42.000000000000
  42
 42.000000000000
  43
 42.000000000000
  50
 210.00000000000
   0
INSERT
   5
E2
 100
AcDbEntity
   8
LEVEL001
   6
CONTINUOUS
  62
6
 100
AcDbBlockReference
   2
_OPEN
  10
 1835.7631047623
  20
 4935.3346598478
  30
0.0
  41
 42.000000000000
  42
 42.000000000000
  43
 42.000000000000
  50
 29.999999999997
   0
MTEXT
   5
E3
 100
AcDbEntity
   8
LEVEL001
 370
13
  62
1
 100
AcDbMText
  10
 1478.0228162296
  20
 4744.9590155008
  30
0.0
  40
 60.000000000000
  41
0.0
  71
8
  72
1
   1
\A1;%%c800
   7
GMM002
  11
 0.86602540378446
  21
 0.49999999999996
  31
0.0
   0
ENDBLK
   5
E4
 100
AcDbEntity
   8
0
 100
AcDbBlockEnd
   0
BLOCK
   5
E5
 100
AcDbEntity
   8
0
 100
AcDbBlockBegin
   2
*D20
  70
65
  10
0.0
  20
0.0
  30
0.0
   3
*D20
   0
LINE
   5
E6
 100
AcDbEntity
   8
LEVEL001
 370
13
 100
AcDbLine
   6
CONTINUOUS
  62
6
  10
 2985.0228162296
  20
 4070.3346598478
  30
0.0
  11
 2985.0228162296
  21
 2770.3346598478
  31
0.0
   0
LINE
   5
E7
 100
AcDbEntity
   8
LEVEL001
 370
13
 100
AcDbLine
   6
CONTINUOUS
  62
6
  10
 2635.0228162296
  20
 2800.3346598478
  30
0.0
  11
 2810.0228162296
  21
 2800.3346598478
  31
0.0
   0
LINE
   5
E8
 100
AcDbEntity
   8
LEVEL001
 370
13
 100
AcDbLine
   6
CONTINUOUS
  62
6
  10
 2985.0228162296
  20
 2800.3346598478
  30
0.0
  11
 2810.0228162296
  21
 2800.3346598478
  31
0.0
   0
INSERT
   5
E9
 100
AcDbEntity
   8
LEVEL001
   6
CONTINUOUS
  62
6
 100
AcDbBlockReference
   2
_OPEN
  10
 2635.0228162296
  20
 2800.3346598478
  30
0.0
  41
 42.000000000000
  42
 42.000000000000
  43
 42.000000000000
  50
 180.00000000000
   0
INSERT
   5
EA
 100
AcDbEntity
   8
LEVEL001
   6
CONTINUOUS
  62
6
 100
AcDbBlockReference
   2
_OPEN
  10
 2985.0228162296
  20
 2800.3346598478
  30
0.0
  41
 42.000000000000
  42
 42.000000000000
  43
 42.000000000000
  50
0.0
   0
MTEXT
   5
EB
 100
AcDbEntity
   8
LEVEL001
 370
13
  62
1
 100
AcDbMText
  10
 2810.0228162296
  20
 2814.3346598478
  30
0.0
  40
 60.000000000000
  41
0.0
  71
8
  72
1
   1
\A1;350
   7
GMM002
   0
ENDBLK
   5
EC
 100
AcDbEntity
   8
0
 100
AcDbBlockEnd
   0
ENDSEC
   0
SECTION
   2
ENTITIES
   0
LINE
   5
ED
 100
AcDbEntity
   8
LEVEL001
 370
13
 100
AcDbLine
   6
CONTINUOUS
  62
7
  10
 8085.0228162296
  20
 5732.8346598478
  30
0.0
  11
 285.02281622962
  21
 5732.8346598478
  31
0.0
   0
LINE
   5
EE
 100
AcDbEntity
   8
LEVEL001
 370
13
 100
AcDbLine
   6
CONTINUOUS
  62
7
  10
 285.02281622962
  20
 5732.8346598478
  30
0.0
  11
 285.02281622962
  21
 232.83465984781
  31
0.0
   0
LINE
   5
EF
 100
AcDbEntity
   8
LEVEL001
 370
13
 100
AcDbLine
   6
CONTINUOUS
  62
7
  10
 285.02281622962
  20
 232.83465984781
  30
0.0
  11
 8085.0228162296
  21
 232.83465984781
  31
0.0
   0
LINE
   5
F0
 100
AcDbEntity
   8
LEVEL001
 370
13
 100
AcDbLine
   6
CONTINUOUS
  62
7
  10
 8085.0228162296
  20
 232.83465984781
  30
0.0
  11
 8085.0228162296
  21
 5732.8346598478
  31
0.0
   0
LINE
   5
F1
 100
AcDbEntity
   8
LEVEL001
 370
13
 100
AcDbLine
   6
CONTINUOUS
  62
2
  10
 5445.0228162296
  20
 712.83465984781
  30
0.0
  11
 7125.0228162296
  21
 712.83465984781
  31
0.0
   0
POINT
   5
F2
 100
AcDbEntity
   8
LEVEL001
 100
AcDbPoint
  62
3
  10
 6385.0228162296
  20
 772.83465984781
  30
0.0
   0
POINT
   5
F3
 100
AcDbEntity
   8
LEVEL001
 100
AcDbPoint
  62
3
  10
 6285.0228162296
  20
 772.83465984781
  30
0.0
   0
POINT
   5
F4
 100
AcDbEntity
   8
LEVEL001
 100
AcDbPoint
  62
3
  10
 6385.0228162296
  20
 872.83465984781
  30
0.0
   0
LINE
   5
F5
 100
AcDbEntity
   8
LEVEL001
 370
13
 100
AcDbLine
   6
CONTINUOUS
  62
6
  10
 5445.0228162296
  20
 2492.8346598478
  30
0.0
  11
 8085.0228162296
  21
 2492.8346598478
  31
0.0
   0
LINE
   5
F6
 100
AcDbEntity
   8
LEVEL001
 370
13
 100
AcDbLine
   6
CONTINUOUS
  62
6
  10
 5445.0228162296
  20
 1052.8346598478
  30
0.0
  11
 8085.0228162296
  21
 1052.8346598478
  31
0.0
   0
LINE
   5
F7
 100
AcDbEntity
   8
LEVEL001
 370
13
 100
AcDbLine
   6
CONTINUOUS
  62
6
  10
 5445.0228162296
  20
 1172.8346598478
  30
0.0
  11
 8085.0228162296
  21
 1172.8346598478
  31
0.0
   0
LINE
   5
F8
 100
AcDbEntity
   8
LEVEL001
 370
13
 100
AcDbLine
   6
CONTINUOUS
  62
6
  10
 5445.0228162296
  20
 1292.8346598478
  30
0.0
  11
 8085.0228162296
  21
 1292.8346598478
  31
0.0
   0
LINE
   5
F9
 100
AcDbEntity
   8
LEVEL001
 370
13
 100
AcDbLine
   6
CONTINUOUS
  62
6
  10
 5445.0228162296
  20
 1412.8346598478
  30
0.0
  11
 8085.0228162296
  21
 1412.8346598478
  31
0.0
   0
LINE
   5
FA
 100
AcDbEntity
   8
LEVEL001
 370
13
 100
AcDbLine
   6
CONTINUOUS
  62
6
  10
 5445.0228162296
  20
 1532.8346598478
  30
0.0
  11
 8085.0228162296
  21
 1532.8346598478
  31
0.0
   0
MTEXT
   5
FB
 100
AcDbEntity
   8
LEVEL001
 370
13
  62
1
 100
AcDbMText
  10
 7325.0228162296
  20
 1952.8346598478
  30
0.0
  40
 51.428571428572
  41
0.0
  71
4
  72
1
   1
\T1.000000;溶融亜鉛メッキ
   7
GMM001
  44
 0.79999984000003
   0
MTEXT
   5
FC
 100
AcDbEntity
   8
LEVEL001
 370
13
  62
1
 100
AcDbMText
  10
 7325.0228162296
  20
 2072.8346598478
  30
0.0
  40
 51.428571428572
  41
0.0
  71
4
  72
1
   1
\T1.000000;溶融亜鉛メッキ
   7
GMM001
  44
 0.79999984000003
   0
MTEXT
   5
FD
 100
AcDbEntity
   8
LEVEL001
 370
13
  62
1
 100
AcDbMText
  10
 6765.0228162296
  20
 1952.8346598478
  30
0.0
  40
 51.428571428572
  41
0.0
  71
4
  72
1
   1
\T1.000000;ＳＳ４００
   7
GMM001
  44
 0.79999984000003
   0
MTEXT
   5
FE
 100
AcDbEntity
   8
LEVEL001
 370
13
  62
1
 100
AcDbMText
  10
 6765.0228162296
  20
 2072.8346598478
  30
0.0
  40
 51.428571428572
  41
0.0
  71
4
  72
1
   1
\T1.000000;ＳＳ４００
   7
GMM001
  44
 0.79999984000003
   0
MTEXT
   5
FF
 100
AcDbEntity
   8
LEVEL001
 370
13
  62
1
 100
AcDbMText
  10
 5617.0228162296
  20
 1832.8346598478
  30
0.0
  40
 51.428571428572
  41
0.0
  71
6
  72
1
   1
\T1.000000;９
   7
GMM001
  44
 0.79999984000003
   0
MTEXT
   5
100
 100
AcDbEntity
   8
LEVEL001
 370
13
  62
1
 100
AcDbMText
  10
 5617.0228162296
  20
 1952.8346598478
  30
0.0
  40
 51.428571428572
  41
0.0
  71
6
  72
1
   1
\T1.000000;８
   7
GMM001
  44
 0.79999984000003
   0
MTEXT
   5
101
 100
AcDbEntity
   8
LEVEL001
 370
13
  62
1
 100
AcDbMText
  10
 5685.0228162296
  20
 1952.8346598478
  30
0.0
  40
 51.428571428572
  41
0.0
  71
4
  72
1
   1
\T1.000000;金具締付ボルトナット
   7
GMM001
  44
 0.79999984000003
   0
MTEXT
   5
102
 100
AcDbEntity
   8
LEVEL001
 370
13
  62
1
 100
AcDbMText
  10
 5617.0228162296
  20
 2072.8346598478
  30
0.0
  40
 51.428571428572
  41
0.0
  71
6
  72
1
   1
\T1.000000;７
   7
GMM001
  44
 0.79999984000003
   0
MTEXT
   5
103
 100
AcDbEntity
   8
LEVEL001
 370
13
  62
1
 100
AcDbMText
  10
 5685.0228162296
  20
 2072.8346598478
  30
0.0
  40
 51.428571428572
  41
0.0
  71
4
  72
1
   1
\T1.000000;裏板金具取付ボルト
   7
GMM001
  44
 0.79999984000003
   0
LINE
   5
104
 100
AcDbEntity
   8
LEVEL001
 370
13
 100
AcDbLine
   6
CONTINUOUS
  62
6
  10
 5445.0228162296
  20
 1652.8346598478
  30
0.0
  11
 8085.0228162296
  21
 1652.8346598478
  31
0.0
   0
LINE
   5
105
 100
AcDbEntity
   8
LEVEL001
 370
13
 100
AcDbLine
   6
CONTINUOUS
  62
6
  10
 5445.0228162296
  20
 1892.8346598478
  30
0.0
  11
 8085.0228162296
  21
 1892.8346598478
  31
0.0
   0
LINE
   5
106
 100
AcDbEntity
   8
LEVEL001
 370
13
 100
AcDbLine
   6
CONTINUOUS
  62
6
  10
 5445.0228162296
  20
 2012.8346598478
  30
0.0
  11
 8085.0228162296
  21
 2012.8346598478
  31
0.0
   0
MTEXT
   5
107
 100
AcDbEntity
   8
LEVEL001
 370
13
  62
1
 100
AcDbMText
  10
 5685.0228162296
  20
 2192.8346598478
  30
0.0
  40
 51.428571428572
  41
0.0
  71
4
  72
1
   1
\T1.000000;支柱取付金具
   7
GMM001
  44
 0.79999984000003
   0
MTEXT
   5
108
 100
AcDbEntity
   8
LEVEL001
 370
13
  62
1
 100
AcDbMText
  10
 5617.0228162296
  20
 2192.8346598478
  30
0.0
  40
 51.428571428572
  41
0.0
  71
6
  72
1
   1
\T1.000000;６
   7
GMM001
  44
 0.79999984000003
   0
MTEXT
   5
109
 100
AcDbEntity
   8
LEVEL001
 370
13
  62
1
 100
AcDbMText
  10
 6765.0228162296
  20
 2192.8346598478
  30
0.0
  40
 51.428571428572
  41
0.0
  71
4
  72
1
   1
\T1.000000;ＳＳ４００
   7
GMM001
  44
 0.79999984000003
   0
MTEXT
   5
10A
 100
AcDbEntity
   8
LEVEL001
 370
13
  62
1
 100
AcDbMText
  10
 5617.0228162296
  20
 2312.8346598478
  30
0.0
  40
 51.428571428572
  41
0.0
  71
6
  72
1
   1
\T1.000000;５
   7
GMM001
  44
 0.79999984000003
   0
MTEXT
   5
10B
 100
AcDbEntity
   8
LEVEL001
 370
13
  62
1
 100
AcDbMText
  10
 5685.0228162296
  20
 2312.8346598478
  30
0.0
  40
 51.428571428572
  41
0.0
  71
4
  72
1
   1
\T1.000000;裏板取付金具
   7
GMM001
  44
 0.79999984000003
   0
MTEXT
   5
10C
 100
AcDbEntity
   8
LEVEL001
 370
13
  62
1
 100
AcDbMText
  10
 5617.0228162296
  20
 2432.8346598478
  30
0.0
  40
 51.428571428572
  41
0.0
  71
6
  72
1
   1
\T1.000000;４
   7
GMM001
  44
 0.79999984000003
   0
MTEXT
   5
10D
 100
AcDbEntity
   8
LEVEL001
 370
13
  62
1
 100
AcDbMText
  10
 5685.0228162296
  20
 2432.8346598478
  30
0.0
  40
 51.428571428572
  41
0.0
  71
4
  72
1
   1
\T1.000000;リング
   7
GMM001
  44
 0.79999984000003
   0
MTEXT
   5
10E
 100
AcDbEntity
   8
LEVEL001
 370
13
  62
1
 100
AcDbMText
  10
 5617.0228162296
  20
 2552.8346598478
  30
0.0
  40
 51.428571428572
  41
0.0
  71
6
  72
1
   1
\T1.000000;３
   7
GMM001
  44
 0.79999984000003
   0
MTEXT
   5
10F
 100
AcDbEntity
   8
LEVEL001
 370
13
  62
1
 100
AcDbMText
  10
 5685.0228162296
  20
 2552.8346598478
  30
0.0
  40
 51.428571428572
  41
0.0
  71
4
  72
1
   1
\T1.000000;フード
   7
GMM001
  44
 0.79999984000003
   0
MTEXT
   5
110
 100
AcDbEntity
   8
LEVEL001
 370
13
  62
1
 100
AcDbMText
  10
 5617.0228162296
  20
 2672.8346598478
  30
0.0
  40
 51.428571428572
  41
0.0
  71
6
  72
1
   1
\T1.000000;２
   7
GMM001
  44
 0.79999984000003
   0
MTEXT
   5
111
 100
AcDbEntity
   8
LEVEL001
 370
13
  62
1
 100
AcDbMText
  10
 5617.0228162296
  20
 2792.8346598478
  30
0.0
  40
 51.428571428572
  41
0.0
  71
6
  72
1
   1
\T1.000000;１
   7
GMM001
  44
 0.79999984000003
   0
MTEXT
   5
112
 100
AcDbEntity
   8
LEVEL001
 370
13
  62
1
 100
AcDbMText
  10
 5685.0228162296
  20
 2672.8346598478
  30
0.0
  40
 51.428571428572
  41
0.0
  71
4
  72
1
   1
\T1.000000;バックプレート
   7
GMM001
  44
 0.79999984000003
   0
MTEXT
   5
113
 100
AcDbEntity
   8
LEVEL001
 370
13
  62
1
 100
AcDbMText
  10
 6765.0228162296
  20
 2312.8346598478
  30
0.0
  40
 51.428571428572
  41
0.0
  71
4
  72
1
   1
\T1.000000;ＳＳ４００
   7
GMM001
  44
 0.79999984000003
   0
MTEXT
   5
114
 100
AcDbEntity
   8
LEVEL001
 370
13
  62
1
 100
AcDbMText
  10
 6765.0228162296
  20
 2432.8346598478
  30
0.0
  40
 51.428571428572
  41
0.0
  71
4
  72
1
   1
\T1.000000;軟質ＰＶＣ
   7
GMM001
  44
 0.79999984000003
   0
MTEXT
   5
115
 100
AcDbEntity
   8
LEVEL001
 370
13
  62
1
 100
AcDbMText
  10
 6765.0228162296
  20
 2552.8346598478
  30
0.0
  40
 51.428571428572
  41
0.0
  71
4
  72
1
   1
\T1.000000;ＰＣ
   7
GMM001
  44
 0.79999984000003
   0
MTEXT
   5
116
 100
AcDbEntity
   8
LEVEL001
 370
13
  62
1
 100
AcDbMText
  10
 6765.0228162296
  20
 2792.8346598478
  30
0.0
  40
 51.428571428572
  41
0.0
  71
4
  72
1
   1
\T1.000000;ＳＵＳ３０４
   7
GMM001
  44
 0.79999984000003
   0
MTEXT
   5
117
 100
AcDbEntity
   8
LEVEL001
 370
13
  62
1
 100
AcDbMText
  10
 7325.0228162296
  20
 2192.8346598478
  30
0.0
  40
 51.428571428572
  41
0.0
  71
4
  72
1
   1
\T1.000000;溶融亜鉛メッキ
   7
GMM001
  44
 0.79999984000003
   0
MTEXT
   5
118
 100
AcDbEntity
   8
LEVEL001
 370
13
  62
1
 100
AcDbMText
  10
 7325.0228162296
  20
 2312.8346598478
  30
0.0
  40
 51.428571428572
  41
0.0
  71
4
  72
1
   1
\T1.000000;溶融亜鉛メッキ
   7
GMM001
  44
 0.79999984000003
   0
MTEXT
   5
119
 100
AcDbEntity
   8
LEVEL001
 370
13
  62
1
 100
AcDbMText
  10
 7325.0228162296
  20
 2792.8346598478
  30
0.0
  40
 51.428571428572
  41
0.0
  71
4
  72
1
   1
\T1.000000;t=0.9mm\T1.000000;・表面研磨
   7
GMM001
  44
 0.79999984000003
   0
MTEXT
   5
11A
 100
AcDbEntity
   8
LEVEL001
 370
13
  62
1
 100
AcDbMText
  10
 7325.0228162296
  20
 2552.8346598478
  30
0.0
  40
 51.428571428572
  41
0.0
  71
4
  72
1
   1
\T1.000000;ＵＶグレ－ド
   7
GMM001
  44
 0.79999984000003
   0
LINE
   5
11B
 100
AcDbEntity
   8
LEVEL001
 370
13
 100
AcDbLine
   6
CONTINUOUS
  62
6
  10
 5445.0228162296
  20
 2132.8346598478
  30
0.0
  11
 8085.0228162296
  21
 2132.8346598478
  31
0.0
   0
LINE
   5
11C
 100
AcDbEntity
   8
LEVEL001
 370
13
 100
AcDbLine
   6
CONTINUOUS
  62
6
  10
 5445.0228162296
  20
 2252.8346598478
  30
0.0
  11
 8085.0228162296
  21
 2252.8346598478
  31
0.0
   0
LINE
   5
11D
 100
AcDbEntity
   8
LEVEL001
 370
13
 100
AcDbLine
   6
CONTINUOUS
  62
6
  10
 5445.0228162296
  20
 2612.8346598478
  30
0.0
  11
 8085.0228162296
  21
 2612.8346598478
  31
0.0
   0
LINE
   5
11E
 100
AcDbEntity
   8
LEVEL001
 370
13
 100
AcDbLine
   6
CONTINUOUS
  62
6
  10
 5445.0228162296
  20
 2372.8346598478
  30
0.0
  11
 8085.0228162296
  21
 2372.8346598478
  31
0.0
   0
LINE
   5
11F
 100
AcDbEntity
   8
LEVEL001
 370
13
 100
AcDbLine
   6
CONTINUOUS
  62
6
  10
 5445.0228162296
  20
 2732.8346598478
  30
0.0
  11
 8085.0228162296
  21
 2732.8346598478
  31
0.0
   0
MTEXT
   5
120
 100
AcDbEntity
   8
LEVEL001
 370
13
  62
1
 100
AcDbMText
  10
 6085.0228162296
  20
 2932.8346598478
  30
0.0
  40
 51.428571428572
  41
0.0
  71
5
  72
1
   1
\T1.000000;名　　称
   7
GMM001
  44
 0.79999984000003
   0
MTEXT
   5
121
 100
AcDbEntity
   8
LEVEL001
 370
13
  62
1
 100
AcDbMText
  10
 6625.0228162296
  20
 2932.8346598478
  30
0.0
  40
 51.428571428572
  41
0.0
  71
5
  72
1
   1
\T1.000000;個数
   7
GMM001
  44
 0.79999984000003
   0
MTEXT
   5
122
 100
AcDbEntity
   8
LEVEL001
 370
13
  62
1
 100
AcDbMText
  10
 7005.0228162296
  20
 2932.8346598478
  30
0.0
  40
 51.428571428572
  41
0.0
  71
5
  72
1
   1
\T1.000000;材　　質
   7
GMM001
  44
 0.79999984000003
   0
MTEXT
   5
123
 100
AcDbEntity
   8
LEVEL001
 370
13
  62
1
 100
AcDbMText
  10
 7685.0228162296
  20
 2932.8346598478
  30
0.0
  40
 51.428571428572
  41
0.0
  71
5
  72
1
   1
\T1.000000;規格仕様
   7
GMM001
  44
 0.79999984000003
   0
LINE
   5
124
 100
AcDbEntity
   8
LEVEL001
 370
13
 100
AcDbLine
   6
CONTINUOUS
  62
6
  10
 5645.0228162296
  20
 3012.8346598478
  30
0.0
  11
 5645.0228162296
  21
 932.83465984781
  31
0.0
   0
LINE
   5
125
 100
AcDbEntity
   8
LEVEL001
 370
13
 100
AcDbLine
   6
CONTINUOUS
  62
6
  10
 6525.0228162296
  20
 3012.8346598478
  30
0.0
  11
 6525.0228162296
  21
 932.83465984781
  31
0.0
   0
LINE
   5
126
 100
AcDbEntity
   8
LEVEL001
 370
13
 100
AcDbLine
   6
CONTINUOUS
  62
6
  10
 6725.0228162296
  20
 3012.8346598478
  30
0.0
  11
 6725.0228162296
  21
 932.83465984781
  31
0.0
   0
LINE
   5
127
 100
AcDbEntity
   8
LEVEL001
 370
13
 100
AcDbLine
   6
CONTINUOUS
  62
6
  10
 7285.0228162296
  20
 3012.8346598478
  30
0.0
  11
 7285.0228162296
  21
 932.83465984781
  31
0.0
   0
LINE
   5
128
 100
AcDbEntity
   8
LEVEL001
 370
13
 100
AcDbLine
   6
CONTINUOUS
  62
2
  10
 5445.0228162296
  20
 3012.8346598478
  30
0.0
  11
 8085.0228162296
  21
 3012.8346598478
  31
0.0
   0
LINE
   5
129
 100
AcDbEntity
   8
LEVEL001
 370
13
 100
AcDbLine
   6
CONTINUOUS
  62
2
  10
 5445.0228162296
  20
 2852.8346598478
  30
0.0
  11
 8085.0228162296
  21
 2852.8346598478
  31
0.0
   0
MTEXT
   5
12A
 100
AcDbEntity
   8
LEVEL001
 370
13
  62
1
 100
AcDbMText
  10
 7325.0228162296
  20
 1832.8346598478
  30
0.0
  40
 51.428571428572
  41
0.0
  71
4
  72
1
   1
\T1.000000;静電粉体塗装
   7
GMM001
  44
 0.79999984000003
   0
MTEXT
   5
12B
 100
AcDbEntity
   8
LEVEL001
 370
13
  62
1
 100
AcDbMText
  10
 6765.0228162296
  20
 1832.8346598478
  30
0.0
  40
 51.428571428572
  41
0.0
  71
4
  72
1
   1
\T1.000000;ＳＴＫ４００
   7
GMM001
  44
 0.79999984000003
   0
MTEXT
   5
12C
 100
AcDbEntity
   8
LEVEL001
 370
13
  62
1
 100
AcDbMText
  10
 6697.0228162296
  20
 1832.8346598478
  30
0.0
  40
 51.428571428572
  41
0.0
  71
6
  72
1
   1
\T1.000000;１
   7
GMM001
  44
 0.79999984000003
   0
MTEXT
   5
12D
 100
AcDbEntity
   8
LEVEL001
 370
13
  62
1
 100
AcDbMText
  10
 5685.0228162296
  20
 1832.8346598478
  30
0.0
  40
 51.428571428572
  41
0.0
  71
4
  72
1
   1
\T1.000000;支柱
   7
GMM001
  44
 0.79999984000003
   0
MTEXT
   5
12E
 100
AcDbEntity
   8
LEVEL001
 370
13
  62
1
 100
AcDbMText
  10
 6697.0228162296
  20
 2792.8346598478
  30
0.0
  40
 51.428571428572
  41
0.0
  71
6
  72
1
   1
\T1.000000;１
   7
GMM001
  44
 0.79999984000003
   0
MTEXT
   5
12F
 100
AcDbEntity
   8
LEVEL001
 370
13
  62
1
 100
AcDbMText
  10
 6697.0228162296
  20
 2072.8346598478
  30
0.0
  40
 51.428571428572
  41
0.0
  71
6
  72
1
   1
\T1.000000;４
   7
GMM001
  44
 0.79999984000003
   0
MTEXT
   5
130
 100
AcDbEntity
   8
LEVEL001
 370
13
  62
1
 100
AcDbMText
  10
 6697.0228162296
  20
 1952.8346598478
  30
0.0
  40
 51.428571428572
  41
0.0
  71
6
  72
1
   1
\T1.000000;４
   7
GMM001
  44
 0.79999984000003
   0
MTEXT
   5
131
 100
AcDbEntity
   8
LEVEL001
 370
13
  62
1
 100
AcDbMText
  10
 6697.0228162296
  20
 2672.8346598478
  30
0.0
  40
 51.428571428572
  41
0.0
  71
6
  72
1
   1
\T1.000000;１
   7
GMM001
  44
 0.79999984000003
   0
MTEXT
   5
132
 100
AcDbEntity
   8
LEVEL001
 370
13
  62
1
 100
AcDbMText
  10
 6697.0228162296
  20
 2552.8346598478
  30
0.0
  40
 51.428571428572
  41
0.0
  71
6
  72
1
   1
\T1.000000;１
   7
GMM001
  44
 0.79999984000003
   0
MTEXT
   5
133
 100
AcDbEntity
   8
LEVEL001
 370
13
  62
1
 100
AcDbMText
  10
 6697.0228162296
  20
 2432.8346598478
  30
0.0
  40
 51.428571428572
  41
0.0
  71
6
  72
1
   1
\T1.000000;１
   7
GMM001
  44
 0.79999984000003
   0
MTEXT
   5
134
 100
AcDbEntity
   8
LEVEL001
 370
13
  62
1
 100
AcDbMText
  10
 6697.0228162296
  20
 2312.8346598478
  30
0.0
  40
 51.428571428572
  41
0.0
  71
6
  72
1
   1
\T1.000000;１
   7
GMM001
  44
 0.79999984000003
   0
MTEXT
   5
135
 100
AcDbEntity
   8
LEVEL001
 370
13
  62
1
 100
AcDbMText
  10
 6697.0228162296
  20
 2192.8346598478
  30
0.0
  40
 51.428571428572
  41
0.0
  71
6
  72
1
   1
\T1.000000;１
   7
GMM001
  44
 0.79999984000003
   0
CIRCLE
   5
136
 100
AcDbEntity
   8
LEVEL001
 370
13
 100
AcDbCircle
   6
CONTINUOUS
  62
7
  10
 4485.0228162296
  20
 4732.8346598478
  30
0.0
  40
 432.50000000000
   0
CIRCLE
   5
137
 100
AcDbEntity
   8
LEVEL001
 370
13
 100
AcDbCircle
   6
CONTINUOUS
  62
7
  10
 4308.2461209330
  20
 4909.6113551444
  30
0.0
  40
 47.500000000000
   0
CIRCLE
   5
138
 100
AcDbEntity
   8
LEVEL001
 370
13
 100
AcDbCircle
   6
CONTINUOUS
  62
6
  10
 4308.2461209330
  20
 4909.6113551444
  30
0.0
  40
 65.000000000000
   0
CIRCLE
   5
139
 100
AcDbEntity
   8
LEVEL001
 370
13
 100
AcDbCircle
   6
CONTINUOUS
  62
7
  10
 4661.7995115262
  20
 4909.6113551444
  30
0.0
  40
 47.500000000000
   0
CIRCLE
   5
13A
 100
AcDbEntity
   8
LEVEL001
 370
13
 100
AcDbCircle
   6
CONTINUOUS
  62
6
  10
 4661.7995115262
  20
 4909.6113551444
  30
0.0
  40
 65.000000000000
   0
CIRCLE
   5
13B
 100
AcDbEntity
   8
LEVEL001
 370
13
 100
AcDbCircle
   6
CONTINUOUS
  62
7
  10
 4661.7995115262
  20
 4556.0579645510
  30
0.0
  40
 47.500000000000
   0
CIRCLE
   5
13C
 100
AcDbEntity
   8
LEVEL001
 370
13
 100
AcDbCircle
   6
CONTINUOUS
  62
6
  10
 4661.7995115262
  20
 4556.0579645510
  30
0.0
  40
 65.000000000000
   0
CIRCLE
   5
13D
 100
AcDbEntity
   8
LEVEL001
 370
13
 100
AcDbCircle
   6
CONTINUOUS
  62
7
  10
 4308.2461209330
  20
 4556.0579645510
  30
0.0
  40
 47.500000000000
   0
CIRCLE
   5
13E
 100
AcDbEntity
   8
LEVEL001
 370
13
 100
AcDbCircle
   6
CONTINUOUS
  62
6
  10
 4308.2461209330
  20
 4556.0579645510
  30
0.0
  40
 65.000000000000
   0
ARC
   5
13F
 100
AcDbEntity
   8
LEVEL001
 370
13
   6
CONTINUOUS
  62
7
 100
AcDbCircle
  10
 4827.5228162296
  20
 4732.8346598478
  30
0.0
  40
 17.500000000000
 100
AcDbArc
  50
0.0
  51
 90.000000000000
   0
POINT
   5
140
 100
AcDbEntity
   8
LEVEL001
 100
AcDbPoint
  62
7
  10
 4845.0228162296
  20
 4750.3346598478
  30
0.0
   0
ARC
   5
141
 100
AcDbEntity
   8
LEVEL001
 370
13
   6
CONTINUOUS
  62
7
 100
AcDbCircle
  10
 4827.5228162296
  20
 4732.8346598478
  30
0.0
  40
 17.500000000000
 100
AcDbArc
  50
 270.00000000000
  51
0.0
   0
POINT
   5
142
 100
AcDbEntity
   8
LEVEL001
 100
AcDbPoint
  62
7
  10
 4845.0228162296
  20
 4715.3346598478
  30
0.0
   0
ARC
   5
143
 100
AcDbEntity
   8
LEVEL001
 370
13
   6
CONTINUOUS
  62
6
 100
AcDbCircle
  10
 4827.5228162296
  20
 4732.8346598478
  30
0.0
  40
 35.000000000000
 100
AcDbArc
  50
0.0
  51
 90.000000000000
   0
POINT
   5
144
 100
AcDbEntity
   8
LEVEL001
 100
AcDbPoint
  62
6
  10
 4862.5228162296
  20
 4767.8346598478
  30
0.0
   0
ARC
   5
145
 100
AcDbEntity
   8
LEVEL001
 370
13
   6
CONTINUOUS
  62
6
 100
AcDbCircle
  10
 4827.5228162296
  20
 4732.8346598478
  30
0.0
  40
 35.000000000000
 100
AcDbArc
  50
 270.00000000000
  51
0.0
   0
POINT
   5
146
 100
AcDbEntity
   8
LEVEL001
 100
AcDbPoint
  62
6
  10
 4862.5228162296
  20
 4697.8346598478
  30
0.0
   0
ARC
   5
147
 100
AcDbEntity
   8
LEVEL001
 370
13
   6
CONTINUOUS
  62
7
 100
AcDbCircle
  10
 4485.0228162296
  20
 5075.3346598478
  30
0.0
  40
 17.500000000000
 100
AcDbArc
  50
 90.000000000000
  51
 180.00000000000
   0
POINT
   5
148
 100
AcDbEntity
   8
LEVEL001
 100
AcDbPoint
  62
7
  10
 4467.5228162296
  20
 5092.8346598478
  30
0.0
   0
ARC
   5
149
 100
AcDbEntity
   8
LEVEL001
 370
13
   6
CONTINUOUS
  62
7
 100
AcDbCircle
  10
 4485.0228162296
  20
 5075.3346598478
  30
0.0
  40
 17.500000000000
 100
AcDbArc
  50
0.0
  51
 90.000000000000
   0
POINT
   5
14A
 100
AcDbEntity
   8
LEVEL001
 100
AcDbPoint
  62
7
  10
 4502.5228162296
  20
 5092.8346598478
  30
0.0
   0
ARC
   5
14B
 100
AcDbEntity
   8
LEVEL001
 370
13
   6
CONTINUOUS
  62
6
 100
AcDbCircle
  10
 4485.0228162296
  20
 5075.3346598478
  30
0.0
  40
 35.000000000000
 100
AcDbArc
  50
 90.000000000000
  51
 180.00000000000
   0
POINT
   5
14C
 100
AcDbEntity
   8
LEVEL001
 100
AcDbPoint
  62
6
  10
 4450.0228162296
  20
 5110.3346598478
  30
0.0
   0
ARC
   5
14D
 100
AcDbEntity
   8
LEVEL001
 370
13
   6
CONTINUOUS
  62
6
 100
AcDbCircle
  10
 4485.0228162296
  20
 5075.3346598478
  30
0.0
  40
 35.000000000000
 100
AcDbArc
  50
0.0
  51
 90.000000000000
   0
POINT
   5
14E
 100
AcDbEntity
   8
LEVEL001
 100
AcDbPoint
  62
6
  10
 4520.0228162296
  20
 5110.3346598478
  30
0.0
   0
ARC
   5
14F
 100
AcDbEntity
   8
LEVEL001
 370
13
   6
CONTINUOUS
  62
7
 100
AcDbCircle
  10
 4142.5228162296
  20
 4732.8346598476
  30
0.0
  40
 17.500000000000
 100
AcDbArc
  50
 180.00000000000
  51
 270.00000000000
   0
POINT
   5
150
 100
AcDbEntity
   8
LEVEL001
 100
AcDbPoint
  62
7
  10
 4125.0228162296
  20
 4715.3346598476
  30
0.0
   0
ARC
   5
151
 100
AcDbEntity
   8
LEVEL001
 370
13
   6
CONTINUOUS
  62
7
 100
AcDbCircle
  10
 4142.5228162296
  20
 4732.8346598476
  30
0.0
  40
 17.500000000000
 100
AcDbArc
  50
 90.000000000000
  51
 180.00000000000
   0
POINT
   5
152
 100
AcDbEntity
   8
LEVEL001
 100
AcDbPoint
  62
7
  10
 4125.0228162296
  20
 4750.3346598476
  30
0.0
   0
ARC
   5
153
 100
AcDbEntity
   8
LEVEL001
 370
13
   6
CONTINUOUS
  62
6
 100
AcDbCircle
  10
 4142.5228162296
  20
 4732.8346598476
  30
0.0
  40
 35.000000000000
 100
AcDbArc
  50
 180.00000000000
  51
 270.00000000000
   0
POINT
   5
154
 100
AcDbEntity
   8
LEVEL001
 100
AcDbPoint
  62
6
  10
 4107.5228162296
  20
 4697.8346598476
  30
0.0
   0
ARC
   5
155
 100
AcDbEntity
   8
LEVEL001
 370
13
   6
CONTINUOUS
  62
6
 100
AcDbCircle
  10
 4142.5228162296
  20
 4732.8346598476
  30
0.0
  40
 35.000000000000
 100
AcDbArc
  50
 90.000000000000
  51
 180.00000000000
   0
POINT
   5
156
 100
AcDbEntity
   8
LEVEL001
 100
AcDbPoint
  62
6
  10
 4107.5228162296
  20
 4767.8346598476
  30
0.0
   0
ARC
   5
157
 100
AcDbEntity
   8
LEVEL001
 370
13
   6
CONTINUOUS
  62
7
 100
AcDbCircle
  10
 4485.0228162296
  20
 4390.3346598478
  30
0.0
  40
 17.500000000000
 100
AcDbArc
  50
 270.00000000000
  51
0.0
   0
POINT
   5
158
 100
AcDbEntity
   8
LEVEL001
 100
AcDbPoint
  62
7
  10
 4502.5228162296
  20
 4372.8346598478
  30
0.0
   0
ARC
   5
159
 100
AcDbEntity
   8
LEVEL001
 370
13
   6
CONTINUOUS
  62
7
 100
AcDbCircle
  10
 4485.0228162296
  20
 4390.3346598478
  30
0.0
  40
 17.500000000000
 100
AcDbArc
  50
 180.00000000000
  51
 270.00000000000
   0
POINT
   5
15A
 100
AcDbEntity
   8
LEVEL001
 100
AcDbPoint
  62
7
  10
 4467.5228162296
  20
 4372.8346598478
  30
0.0
   0
ARC
   5
15B
 100
AcDbEntity
   8
LEVEL001
 370
13
   6
CONTINUOUS
  62
6
 100
AcDbCircle
  10
 4485.0228162296
  20
 4390.3346598478
  30
0.0
  40
 35.000000000000
 100
AcDbArc
  50
 270.00000000000
  51
0.0
   0
POINT
   5
15C
 100
AcDbEntity
   8
LEVEL001
 100
AcDbPoint
  62
6
  10
 4520.0228162296
  20
 4355.3346598478
  30
0.0
   0
ARC
   5
15D
 100
AcDbEntity
   8
LEVEL001
 370
13
   6
CONTINUOUS
  62
6
 100
AcDbCircle
  10
 4485.0228162296
  20
 4390.3346598478
  30
0.0
  40
 35.000000000000
 100
AcDbArc
  50
 180.00000000000
  51
 270.00000000000
   0
POINT
   5
15E
 100
AcDbEntity
   8
LEVEL001
 100
AcDbPoint
  62
6
  10
 4450.0228162296
  20
 4355.3346598478
  30
0.0
   0
LINE
   5
15F
 100
AcDbEntity
   8
LEVEL001
 370
13
 100
AcDbLine
   6
CONTINUOUS
  62
6
  10
 4450.0228162296
  20
 4858.8554914590
  30
0.0
  11
 4450.0228162296
  21
 5075.3346598478
  31
0.0
   0
ARC
   5
160
 100
AcDbEntity
   8
LEVEL001
 370
13
   6
CONTINUOUS
  62
6
 100
AcDbCircle
  10
 4430.0228162296
  20
 4858.8554914590
  30
0.0
  40
 20.000000000000
 100
AcDbArc
  50
 293.57817847826
  51
0.0
   0
LINE
   5
161
 100
AcDbEntity
   8
LEVEL001
 370
13
 100
AcDbLine
   6
CONTINUOUS
  62
6
  10
 4142.5228162296
  20
 4767.8346598476
  30
0.0
  11
 4359.0019846182
  21
 4767.8346598476
  31
0.0
   0
ARC
   5
162
 100
AcDbEntity
   8
LEVEL001
 370
13
   6
CONTINUOUS
  62
6
 100
AcDbCircle
  10
 4359.0019846182
  20
 4787.8346598476
  30
0.0
  40
 20.000000000000
 100
AcDbArc
  50
 270.00000000001
  51
 336.42182152184
   0
ARC
   5
163
 100
AcDbEntity
   8
LEVEL001
 370
13
   6
CONTINUOUS
  62
6
 100
AcDbCircle
  10
 4485.0228162296
  20
 4732.8346598478
  30
0.0
  40
 117.50000000000
 100
AcDbArc
  50
 113.57817847824
  51
 156.42182152184
   0
LINE
   5
164
 100
AcDbEntity
   8
LEVEL001
 370
13
 100
AcDbLine
   6
CONTINUOUS
  62
6
  10
 4359.0019846184
  20
 4697.8346598476
  30
0.0
  11
 4142.5228162296
  21
 4697.8346598476
  31
0.0
   0
ARC
   5
165
 100
AcDbEntity
   8
LEVEL001
 370
13
   6
CONTINUOUS
  62
6
 100
AcDbCircle
  10
 4359.0019846184
  20
 4677.8346598476
  30
0.0
  40
 20.000000000000
 100
AcDbArc
  50
 23.578178478247
  51
 90.000000000000
   0
LINE
   5
166
 100
AcDbEntity
   8
LEVEL001
 370
13
 100
AcDbLine
   6
CONTINUOUS
  62
6
  10
 4450.0228162296
  20
 4390.3346598478
  30
0.0
  11
 4450.0228162296
  21
 4606.8138282364
  31
0.0
   0
ARC
   5
167
 100
AcDbEntity
   8
LEVEL001
 370
13
   6
CONTINUOUS
  62
6
 100
AcDbCircle
  10
 4430.0228162296
  20
 4606.8138282364
  30
0.0
  40
 20.000000000000
 100
AcDbArc
  50
0.0
  51
 66.421821521857
   0
ARC
   5
168
 100
AcDbEntity
   8
LEVEL001
 370
13
   6
CONTINUOUS
  62
6
 100
AcDbCircle
  10
 4485.0228162296
  20
 4732.8346598478
  30
0.0
  40
 117.50000000000
 100
AcDbArc
  50
 203.57817847825
  51
 246.42182152184
   0
LINE
   5
169
 100
AcDbEntity
   8
LEVEL001
 370
13
 100
AcDbLine
   6
CONTINUOUS
  62
6
  10
 4520.0228162296
  20
 4606.8138282364
  30
0.0
  11
 4520.0228162296
  21
 4390.3346598478
  31
0.0
   0
ARC
   5
16A
 100
AcDbEntity
   8
LEVEL001
 370
13
   6
CONTINUOUS
  62
6
 100
AcDbCircle
  10
 4540.0228162296
  20
 4606.8138282364
  30
0.0
  40
 20.000000000000
 100
AcDbArc
  50
 113.57817847823
  51
 180.00000000000
   0
LINE
   5
16B
 100
AcDbEntity
   8
LEVEL001
 370
13
 100
AcDbLine
   6
CONTINUOUS
  62
6
  10
 4827.5228162296
  20
 4697.8346598478
  30
0.0
  11
 4611.0436478410
  21
 4697.8346598478
  31
0.0
   0
ARC
   5
16C
 100
AcDbEntity
   8
LEVEL001
 370
13
   6
CONTINUOUS
  62
6
 100
AcDbCircle
  10
 4611.0436478410
  20
 4677.8346598478
  30
0.0
  40
 20.000000000000
 100
AcDbArc
  50
 89.999999999990
  51
 156.42182152184
   0
ARC
   5
16D
 100
AcDbEntity
   8
LEVEL001
 370
13
   6
CONTINUOUS
  62
6
 100
AcDbCircle
  10
 4485.0228162296
  20
 4732.8346598478
  30
0.0
  40
 117.50000000000
 100
AcDbArc
  50
 293.57817847824
  51
 336.42182152184
   0
LINE
   5
16E
 100
AcDbEntity
   8
LEVEL001
 370
13
 100
AcDbLine
   6
CONTINUOUS
  62
6
  10
 4611.0436478408
  20
 4767.8346598478
  30
0.0
  11
 4827.5228162296
  21
 4767.8346598478
  31
0.0
   0
ARC
   5
16F
 100
AcDbEntity
   8
LEVEL001
 370
13
   6
CONTINUOUS
  62
6
 100
AcDbCircle
  10
 4611.0436478408
  20
 4787.8346598478
  30
0.0
  40
 20.000000000000
 100
AcDbArc
  50
 203.57817847825
  51
 270.00000000002
   0
LINE
   5
170
 100
AcDbEntity
   8
LEVEL001
 370
13
 100
AcDbLine
   6
CONTINUOUS
  62
7
  10
 4611.0436478408
  20
 4750.3346598478
  30
0.0
  11
 4827.5228162296
  21
 4750.3346598478
  31
0.0
   0
ARC
   5
171
 100
AcDbEntity
   8
LEVEL001
 370
13
   6
CONTINUOUS
  62
7
 100
AcDbCircle
  10
 4611.0436478408
  20
 4787.8346598478
  30
0.0
  40
 37.500000000000
 100
AcDbArc
  50
 203.57817847823
  51
 270.00000000000
   0
LINE
   5
172
 100
AcDbEntity
   8
LEVEL001
 370
13
 100
AcDbLine
   6
CONTINUOUS
  62
7
  10
 4827.5228162296
  20
 4715.3346598478
  30
0.0
  11
 4611.0436478410
  21
 4715.3346598478
  31
0.0
   0
ARC
   5
173
 100
AcDbEntity
   8
LEVEL001
 370
13
   6
CONTINUOUS
  62
7
 100
AcDbCircle
  10
 4611.0436478410
  20
 4677.8346598478
  30
0.0
  40
 37.500000000000
 100
AcDbArc
  50
 89.999999999994
  51
 156.42182152182
   0
LINE
   5
174
 100
AcDbEntity
   8
LEVEL001
 370
13
 100
AcDbLine
   6
CONTINUOUS
  62
7
  10
 4502.5228162296
  20
 4606.8138282364
  30
0.0
  11
 4502.5228162296
  21
 4390.3346598478
  31
0.0
   0
ARC
   5
175
 100
AcDbEntity
   8
LEVEL001
 370
13
   6
CONTINUOUS
  62
7
 100
AcDbCircle
  10
 4540.0228162296
  20
 4606.8138282364
  30
0.0
  40
 37.500000000000
 100
AcDbArc
  50
 113.57817847824
  51
 180.00000000000
   0
ARC
   5
176
 100
AcDbEntity
   8
LEVEL001
 370
13
   6
CONTINUOUS
  62
7
 100
AcDbCircle
  10
 4485.0228162296
  20
 4732.8346598478
  30
0.0
  40
 100.00000000000
 100
AcDbArc
  50
 293.57817847824
  51
 336.42182152184
   0
LINE
   5
177
 100
AcDbEntity
   8
LEVEL001
 370
13
 100
AcDbLine
   6
CONTINUOUS
  62
7
  10
 4467.5228162296
  20
 4390.3346598478
  30
0.0
  11
 4467.5228162296
  21
 4606.8138282364
  31
0.0
   0
ARC
   5
178
 100
AcDbEntity
   8
LEVEL001
 370
13
   6
CONTINUOUS
  62
7
 100
AcDbCircle
  10
 4430.0228162296
  20
 4606.8138282364
  30
0.0
  40
 37.500000000000
 100
AcDbArc
  50
0.0
  51
 66.421821521838
   0
LINE
   5
179
 100
AcDbEntity
   8
LEVEL001
 370
13
 100
AcDbLine
   6
CONTINUOUS
  62
7
  10
 4359.0019846184
  20
 4715.3346598476
  30
0.0
  11
 4142.5228162296
  21
 4715.3346598476
  31
0.0
   0
ARC
   5
17A
 100
AcDbEntity
   8
LEVEL001
 370
13
   6
CONTINUOUS
  62
7
 100
AcDbCircle
  10
 4359.0019846184
  20
 4677.8346598476
  30
0.0
  40
 37.500000000000
 100
AcDbArc
  50
 23.578178478230
  51
 90.000000000000
   0
ARC
   5
17B
 100
AcDbEntity
   8
LEVEL001
 370
13
   6
CONTINUOUS
  62
7
 100
AcDbCircle
  10
 4485.0228162296
  20
 4732.8346598478
  30
0.0
  40
 100.00000000000
 100
AcDbArc
  50
 203.57817847824
  51
 246.42182152184
   0
LINE
   5
17C
 100
AcDbEntity
   8
LEVEL001
 370
13
 100
AcDbLine
   6
CONTINUOUS
  62
7
  10
 4142.5228162296
  20
 4750.3346598476
  30
0.0
  11
 4359.0019846182
  21
 4750.3346598476
  31
0.0
   0
ARC
   5
17D
 100
AcDbEntity
   8
LEVEL001
 370
13
   6
CONTINUOUS
  62
7
 100
AcDbCircle
  10
 4359.0019846182
  20
 4787.8346598476
  30
0.0
  40
 37.500000000000
 100
AcDbArc
  50
 270.00000000000
  51
 336.42182152182
   0
LINE
   5
17E
 100
AcDbEntity
   8
LEVEL001
 370
13
 100
AcDbLine
   6
CONTINUOUS
  62
7
  10
 4467.5228162296
  20
 4858.8554914590
  30
0.0
  11
 4467.5228162296
  21
 5075.3346598478
  31
0.0
   0
ARC
   5
17F
 100
AcDbEntity
   8
LEVEL001
 370
13
   6
CONTINUOUS
  62
7
 100
AcDbCircle
  10
 4430.0228162296
  20
 4858.8554914590
  30
0.0
  40
 37.500000000000
 100
AcDbArc
  50
 293.57817847823
  51
0.0
   0
ARC
   5
180
 100
AcDbEntity
   8
LEVEL001
 370
13
   6
CONTINUOUS
  62
7
 100
AcDbCircle
  10
 4485.0228162296
  20
 4732.8346598478
  30
0.0
  40
 100.00000000000
 100
AcDbArc
  50
 113.57817847824
  51
 156.42182152184
   0
LINE
   5
181
 100
AcDbEntity
   8
LEVEL001
 370
13
 100
AcDbLine
   6
CONTINUOUS
  62
7
  10
 4502.5228162296
  20
 5075.3346598478
  30
0.0
  11
 4502.5228162296
  21
 4858.8554914590
  31
0.0
   0
ARC
   5
182
 100
AcDbEntity
   8
LEVEL001
 370
13
   6
CONTINUOUS
  62
7
 100
AcDbCircle
  10
 4540.0228162296
  20
 4858.8554914590
  30
0.0
  40
 37.500000000000
 100
AcDbArc
  50
 180.00000000000
  51
 246.42182152184
   0
ARC
   5
183
 100
AcDbEntity
   8
LEVEL001
 370
13
   6
CONTINUOUS
  62
7
 100
AcDbCircle
  10
 4485.0228162296
  20
 4732.8346598478
  30
0.0
  40
 100.00000000000
 100
AcDbArc
  50
 23.578178478247
  51
 66.421821521839
   0
LINE
   5
184
 100
AcDbEntity
   8
LEVEL001
 370
13
 100
AcDbLine
   6
CONTINUOUS
  62
6
  10
 4520.0228162296
  20
 5075.3346598478
  30
0.0
  11
 4520.0228162296
  21
 4858.8554914590
  31
0.0
   0
ARC
   5
185
 100
AcDbEntity
   8
LEVEL001
 370
13
   6
CONTINUOUS
  62
6
 100
AcDbCircle
  10
 4540.0228162296
  20
 4858.8554914590
  30
0.0
  40
 20.000000000000
 100
AcDbArc
  50
 180.00000000000
  51
 246.42182152182
   0
ARC
   5
186
 100
AcDbEntity
   8
LEVEL001
 370
13
   6
CONTINUOUS
  62
6
 100
AcDbCircle
  10
 4485.0228162296
  20
 4732.8346598478
  30
0.0
  40
 117.50000000000
 100
AcDbArc
  50
 23.578178478241
  51
 66.421821521839
   0
CIRCLE
   5
187
 100
AcDbEntity
   8
LEVEL001
 370
13
 100
AcDbCircle
   6
CONTINUOUS
  62
7
  10
 4485.0228162296
  20
 4732.8346598478
  30
0.0
  40
 407.50000000000
   0
CIRCLE
   5
188
 100
AcDbEntity
   8
LEVEL001
 370
13
 100
AcDbCircle
   6
CONTINUOUS
  62
7
  10
 4485.0228162296
  20
 4732.8346598478
  30
0.0
  40
 405.00000000000
   0
CIRCLE
   5
189
 100
AcDbEntity
   8
LEVEL001
 370
13
 100
AcDbCircle
   6
CONTINUOUS
  62
7
  10
 4485.0228162296
  20
 4732.8346598478
  30
0.0
  40
 412.50000000000
   0
LINE
   5
18A
 100
AcDbEntity
   8
LEVEL001
 370
13
 100
AcDbLine
   6
DASHDOT
  62
6
  10
 4435.0228162296
  20
 4797.8346598478
  30
0.0
  11
 4435.0228162296
  21
 4767.8346598478
  31
0.0
   0
LINE
   5
18B
 100
AcDbEntity
   8
LEVEL001
 370
13
 100
AcDbLine
   6
DASHDOT
  62
6
  10
 4420.0228162296
  20
 4782.8346598478
  30
0.0
  11
 4450.0228162296
  21
 4782.8346598478
  31
0.0
   0
LINE
   5
18C
 100
AcDbEntity
   8
LEVEL001
 370
13
 100
AcDbLine
   6
DASHDOT
  62
6
  10
 4435.0228162296
  20
 4697.8346598478
  30
0.0
  11
 4435.0228162296
  21
 4667.8346598478
  31
0.0
   0
LINE
   5
18D
 100
AcDbEntity
   8
LEVEL001
 370
13
 100
AcDbLine
   6
DASHDOT
  62
6
  10
 4420.0228162296
  20
 4682.8346598478
  30
0.0
  11
 4450.0228162296
  21
 4682.8346598478
  31
0.0
   0
LINE
   5
18E
 100
AcDbEntity
   8
LEVEL001
 370
13
 100
AcDbLine
   6
DASHDOT
  62
6
  10
 4535.0228162296
  20
 4697.8346598478
  30
0.0
  11
 4535.0228162296
  21
 4667.8346598478
  31
0.0
   0
LINE
   5
18F
 100
AcDbEntity
   8
LEVEL001
 370
13
 100
AcDbLine
   6
DASHDOT
  62
6
  10
 4520.0228162296
  20
 4682.8346598478
  30
0.0
  11
 4550.0228162296
  21
 4682.8346598478
  31
0.0
   0
LINE
   5
190
 100
AcDbEntity
   8
LEVEL001
 370
13
 100
AcDbLine
   6
DASHDOT
  62
6
  10
 4535.0228162296
  20
 4797.8346598478
  30
0.0
  11
 4535.0228162296
  21
 4767.8346598478
  31
0.0
   0
LINE
   5
191
 100
AcDbEntity
   8
LEVEL001
 370
13
 100
AcDbLine
   6
DASHDOT
  62
6
  10
 4520.0228162296
  20
 4782.8346598478
  30
0.0
  11
 4550.0228162296
  21
 4782.8346598478
  31
0.0
   0
LINE
   5
192
 100
AcDbEntity
   8
LEVEL001
 370
13
 100
AcDbLine
   6
DASHDOT
  62
6
  10
 4010.0228162296
  20
 4732.8346598478
  30
0.0
  11
 4960.0228162296
  21
 4732.8346598478
  31
0.0
   0
LINE
   5
193
 100
AcDbEntity
   8
LEVEL001
 370
13
 100
AcDbLine
   6
DASHDOT
  62
6
  10
 4485.0228162296
  20
 5207.8346598478
  30
0.0
  11
 4485.0228162296
  21
 4257.8346598478
  31
0.0
   0
CIRCLE
   5
194
 100
AcDbEntity
   8
LEVEL001
 370
13
 100
AcDbCircle
   6
CONTINUOUS
  62
3
  10
 4435.0228162296
  20
 4782.8346598478
  30
0.0
  40
 7.0000000000000
   0
CIRCLE
   5
195
 100
AcDbEntity
   8
LEVEL001
 370
13
 100
AcDbCircle
   6
CONTINUOUS
  62
3
  10
 4435.0228162296
  20
 4682.8346598478
  30
0.0
  40
 7.0000000000000
   0
CIRCLE
   5
196
 100
AcDbEntity
   8
LEVEL001
 370
13
 100
AcDbCircle
   6
CONTINUOUS
  62
3
  10
 4535.0228162296
  20
 4782.8346598478
  30
0.0
  40
 7.0000000000000
   0
CIRCLE
   5
197
 100
AcDbEntity
   8
LEVEL001
 370
13
 100
AcDbCircle
   6
CONTINUOUS
  62
3
  10
 4535.0228162296
  20
 4682.8346598478
  30
0.0
  40
 7.0000000000000
   0
LINE
   5
198
 100
AcDbEntity
   8
LEVEL001
 370
13
 100
AcDbLine
   6
DASHDOT
  62
6
  10
 1425.0227981440
  20
 1300.3346598478
  30
0.0
  11
 1545.0227981440
  21
 1300.3346598478
  31
0.0
   0
LINE
   5
199
 100
AcDbEntity
   8
LEVEL001
 370
13
 100
AcDbLine
   6
CONTINUOUS
  62
7
  10
 3023.1728162296
  20
 4904.3346598478
  30
0.0
  11
 2946.8728162296
  21
 4904.3346598478
  31
0.0
   0
LINE
   5
19A
 100
AcDbEntity
   8
LEVEL001
 370
13
 100
AcDbLine
   6
CONTINUOUS
  62
7
  10
 2946.8728162296
  20
 4904.3346598478
  30
0.0
  11
 2946.8728162296
  21
 4901.3346598478
  31
0.0
   0
LINE
   5
19B
 100
AcDbEntity
   8
LEVEL001
 370
13
 100
AcDbLine
   6
CONTINUOUS
  62
7
  10
 2946.8728162296
  20
 4901.3346598478
  30
0.0
  11
 3023.1728162296
  21
 4901.3346598478
  31
0.0
   0
LINE
   5
19C
 100
AcDbEntity
   8
LEVEL001
 370
13
 100
AcDbLine
   6
CONTINUOUS
  62
7
  10
 3023.1728162296
  20
 4901.3346598478
  30
0.0
  11
 3023.1728162296
  21
 4904.3346598478
  31
0.0
   0
LINE
   5
19D
 100
AcDbEntity
   8
LEVEL001
 370
13
 100
AcDbLine
   6
DOT
  62
1
  10
 3018.1728162296
  20
 4901.3346598478
  30
0.0
  11
 3018.1728162296
  21
 4874.3346598478
  31
0.0
   0
LINE
   5
19E
 100
AcDbEntity
   8
LEVEL001
 370
13
 100
AcDbLine
   6
DOT
  62
1
  10
 3018.1728162296
  20
 4874.3346598478
  30
0.0
  11
 2951.8728162296
  21
 4874.3346598478
  31
0.0
   0
LINE
   5
19F
 100
AcDbEntity
   8
LEVEL001
 370
13
 100
AcDbLine
   6
DOT
  62
1
  10
 2951.8728162296
  20
 4874.3346598478
  30
0.0
  11
 2951.8728162296
  21
 4901.3346598478
  31
0.0
   0
CIRCLE
   5
1A0
 100
AcDbEntity
   8
LEVEL001
 370
13
 100
AcDbCircle
   6
CONTINUOUS
  62
7
  10
 1485.0228162296
  20
 4732.8346598478
  30
0.0
  40
 432.50000000000
   0
CIRCLE
   5
1A1
 100
AcDbEntity
   8
LEVEL001
 370
13
 100
AcDbCircle
   6
CONTINUOUS
  62
7
  10
 1485.0228162296
  20
 4732.8346598478
  30
0.0
  40
 412.50000000000
   0
CIRCLE
   5
1A2
 100
AcDbEntity
   8
LEVEL001
 370
13
 100
AcDbCircle
   6
CONTINUOUS
  62
6
  10
 1485.0228162296
  20
 4732.8346598478
  30
0.0
  40
 405.00000000000
   0
CIRCLE
   5
1A3
 100
AcDbEntity
   8
LEVEL001
 370
13
 100
AcDbCircle
   6
CONTINUOUS
  62
6
  10
 1485.0228162296
  20
 4732.8346598478
  30
0.0
  40
 410.00000000000
   0
ARC
   5
1A4
 100
AcDbEntity
   8
LEVEL001
 370
13
   6
CONTINUOUS
  62
1
 100
AcDbCircle
  10
 1485.0228162296
  20
 4732.8346598478
  30
0.0
  40
 410.00000000000
 100
AcDbArc
  50
 6.1099891253627
  51
 173.89001087464
   0
ARC
   5
1A5
 100
AcDbEntity
   8
LEVEL001
 370
13
   6
CONTINUOUS
  62
1
 100
AcDbCircle
  10
 1485.0228162296
  20
 4732.8346598478
  30
0.0
  40
 411.50000000000
 100
AcDbArc
  50
 6.1099891253616
  51
 173.89001087464
   0
LINE
   5
1A6
 100
AcDbEntity
   8
LEVEL001
 370
13
 100
AcDbLine
   6
CONTINUOUS
  62
1
  10
 1077.3518611591
  20
 4776.4740043876
  30
0.0
  11
 1075.8603820552
  21
 4776.6336605262
  31
0.0
   0
LINE
   5
1A7
 100
AcDbEntity
   8
LEVEL001
 370
13
 100
AcDbLine
   6
CONTINUOUS
  62
1
  10
 1892.6937713002
  20
 4776.4740043876
  30
0.0
  11
 1894.1852504041
  21
 4776.6336605262
  31
0.0
   0
LINE
   5
1A8
 100
AcDbEntity
   8
LEVEL001
 370
13
 100
AcDbLine
   6
DASHDOT
  62
6
  10
 1010.0228162296
  20
 4732.8346598478
  30
0.0
  11
 1960.0228162296
  21
 4732.8346598478
  31
0.0
   0
CIRCLE
   5
1A9
 100
AcDbEntity
   8
LEVEL001
 370
13
 100
AcDbCircle
   6
CONTINUOUS
  62
7
  10
 1485.0227824275
  20
 1200.3346598478
  30
0.0
  40
 7.5000000000000
   0
LINE
   5
1AA
 100
AcDbEntity
   8
LEVEL001
 370
13
 100
AcDbLine
   6
DASHDOT
  62
6
  10
 1455.0227824275
  20
 1200.3346598478
  30
0.0
  11
 1515.0227824275
  21
 1200.3346598478
  31
0.0
   0
LINE
   5
1AB
 100
AcDbEntity
   8
LEVEL001
 370
13
 100
AcDbLine
   6
DASHDOT
  62
6
  10
 3041.2061711964
  20
 4777.8346598478
  30
0.0
  11
 3041.2061711964
  21
 4747.8346598478
  31
0.0
   0
LINE
   5
1AC
 100
AcDbEntity
   8
LEVEL001
 370
13
 100
AcDbLine
   6
DASHDOT
  62
6
  10
 3026.2061711964
  20
 4762.8346598478
  30
0.0
  11
 3056.2061711964
  21
 4762.8346598478
  31
0.0
   0
LINE
   5
1AD
 100
AcDbEntity
   8
LEVEL001
 370
13
 100
AcDbLine
   6
DASHDOT
  62
6
  10
 3041.2061711964
  20
 4717.8346598478
  30
0.0
  11
 3041.2061711964
  21
 4687.8346598478
  31
0.0
   0
LINE
   5
1AE
 100
AcDbEntity
   8
LEVEL001
 370
13
 100
AcDbLine
   6
DASHDOT
  62
6
  10
 3026.2061711964
  20
 4702.8346598478
  30
0.0
  11
 3056.2061711964
  21
 4702.8346598478
  31
0.0
   0
LINE
   5
1AF
 100
AcDbEntity
   8
LEVEL001
 370
13
 100
AcDbLine
   6
CONTINUOUS
  62
7
  10
 2946.8728162296
  20
 4787.8346598478
  30
0.0
  11
 2946.8728162296
  21
 4900.3346598478
  31
0.0
   0
LINE
   5
1B0
 100
AcDbEntity
   8
LEVEL001
 370
13
 100
AcDbLine
   6
CONTINUOUS
  62
7
  10
 2946.8728162296
  20
 4900.3346598478
  30
0.0
  11
 3023.1728162296
  21
 4900.3346598478
  31
0.0
   0
LINE
   5
1B1
 100
AcDbEntity
   8
LEVEL001
 370
13
 100
AcDbLine
   6
CONTINUOUS
  62
7
  10
 3023.1728162296
  20
 4900.3346598478
  30
0.0
  11
 3023.1728162296
  21
 4787.8346598478
  31
0.0
   0
LINE
   5
1B2
 100
AcDbEntity
   8
LEVEL001
 370
13
 100
AcDbLine
   6
CONTINUOUS
  62
6
  10
 3019.1662884284
  20
 4782.8346598478
  30
0.0
  11
 3019.1662884284
  21
 4682.8346598478
  31
0.0
   0
LINE
   5
1B3
 100
AcDbEntity
   8
LEVEL001
 370
13
 100
AcDbLine
   6
CONTINUOUS
  62
3
  10
 3034.2061711964
  20
 4755.8346598478
  30
0.0
  11
 3048.2061711964
  21
 4755.8346598478
  31
0.0
   0
LINE
   5
1B4
 100
AcDbEntity
   8
LEVEL001
 370
13
 100
AcDbLine
   6
CONTINUOUS
  62
3
  10
 3048.2061711964
  20
 4755.8346598478
  30
0.0
  11
 3048.2061711964
  21
 4769.8346598478
  31
0.0
   0
LINE
   5
1B5
 100
AcDbEntity
   8
LEVEL001
 370
13
 100
AcDbLine
   6
CONTINUOUS
  62
3
  10
 3048.2061711964
  20
 4769.8346598478
  30
0.0
  11
 3034.2061711964
  21
 4769.8346598478
  31
0.0
   0
LINE
   5
1B6
 100
AcDbEntity
   8
LEVEL001
 370
13
 100
AcDbLine
   6
CONTINUOUS
  62
3
  10
 3034.2061711964
  20
 4769.8346598478
  30
0.0
  11
 3034.2061711964
  21
 4755.8346598478
  31
0.0
   0
LINE
   5
1B7
 100
AcDbEntity
   8
LEVEL001
 370
13
 100
AcDbLine
   6
CONTINUOUS
  62
3
  10
 3034.2061711964
  20
 4695.8346598478
  30
0.0
  11
 3048.2061711964
  21
 4695.8346598478
  31
0.0
   0
LINE
   5
1B8
 100
AcDbEntity
   8
LEVEL001
 370
13
 100
AcDbLine
   6
CONTINUOUS
  62
3
  10
 3048.2061711964
  20
 4695.8346598478
  30
0.0
  11
 3048.2061711964
  21
 4709.8346598478
  31
0.0
   0
LINE
   5
1B9
 100
AcDbEntity
   8
LEVEL001
 370
13
 100
AcDbLine
   6
CONTINUOUS
  62
3
  10
 3048.2061711964
  20
 4709.8346598478
  30
0.0
  11
 3034.2061711964
  21
 4709.8346598478
  31
0.0
   0
LINE
   5
1BA
 100
AcDbEntity
   8
LEVEL001
 370
13
 100
AcDbLine
   6
CONTINUOUS
  62
3
  10
 3034.2061711964
  20
 4709.8346598478
  30
0.0
  11
 3034.2061711964
  21
 4695.8346598478
  31
0.0
   0
ARC
   5
1BB
 100
AcDbEntity
   8
LEVEL001
 370
13
   6
CONTINUOUS
  62
7
 100
AcDbCircle
  10
 2796.5394534888
  20
 4302.8346598478
  30
0.0
  40
 2.5000000000000
 100
AcDbArc
  50
 180.00000000000
  51
 270.00000000000
   0
POINT
   5
1BC
 100
AcDbEntity
   8
LEVEL001
 100
AcDbPoint
  62
7
  10
 2794.0394534888
  20
 4300.3346598478
  30
0.0
   0
LINE
   5
1BD
 100
AcDbEntity
   8
LEVEL001
 370
13
 100
AcDbLine
   6
CONTINUOUS
  62
7
  10
 2794.0394534888
  20
 5162.8346598478
  30
0.0
  11
 2794.0394534888
  21
 4302.8346598478
  31
0.0
   0
ARC
   5
1BE
 100
AcDbEntity
   8
LEVEL001
 370
13
   6
CONTINUOUS
  62
7
 100
AcDbCircle
  10
 2796.5394534888
  20
 5162.8346598478
  30
0.0
  40
 2.5000000000000
 100
AcDbArc
  50
 90.000000000000
  51
 180.00000000000
   0
POINT
   5
1BF
 100
AcDbEntity
   8
LEVEL001
 100
AcDbPoint
  62
7
  10
 2794.0394534888
  20
 5165.3346598478
  30
0.0
   0
ARC
   5
1C0
 100
AcDbEntity
   8
LEVEL001
 370
13
   6
CONTINUOUS
  62
7
 100
AcDbCircle
  10
 2796.5394534888
  20
 4302.8346598478
  30
0.0
  40
 2.5000000000000
 100
AcDbArc
  50
 270.00000000000
  51
0.0
   0
POINT
   5
1C1
 100
AcDbEntity
   8
LEVEL001
 100
AcDbPoint
  62
7
  10
 2799.0394534888
  20
 4300.3346598478
  30
0.0
   0
LINE
   5
1C2
 100
AcDbEntity
   8
LEVEL001
 370
13
 100
AcDbLine
   6
CONTINUOUS
  62
7
  10
 2799.0394534888
  20
 4302.8346598478
  30
0.0
  11
 2799.0394534888
  21
 5162.8346598478
  31
0.0
   0
ARC
   5
1C3
 100
AcDbEntity
   8
LEVEL001
 370
13
   6
CONTINUOUS
  62
7
 100
AcDbCircle
  10
 2796.5394534888
  20
 5162.8346598478
  30
0.0
  40
 2.5000000000000
 100
AcDbArc
  50
0.0
  51
 90.000000000000
   0
POINT
   5
1C4
 100
AcDbEntity
   8
LEVEL001
 100
AcDbPoint
  62
7
  10
 2799.0394534888
  20
 5165.3346598478
  30
0.0
   0
LINE
   5
1C5
 100
AcDbEntity
   8
LEVEL001
 370
13
 100
AcDbLine
   6
CONTINUOUS
  62
7
  10
 2774.6666405428
  20
 4326.7092224370
  30
0.0
  11
 2794.0394534888
  21
 4322.8346598478
  31
0.0
   0
ARC
   5
1C6
 100
AcDbEntity
   8
LEVEL001
 370
13
   6
CONTINUOUS
  62
7
 100
AcDbCircle
  10
 2776.0394534888
  20
 4333.5732871668
  30
0.0
  40
 7.0000000000000
 100
AcDbArc
  50
 180.00000000000
  51
 258.69006752594
   0
POINT
   5
1C7
 100
AcDbEntity
   8
LEVEL001
 100
AcDbPoint
  62
7
  10
 2769.0394534888
  20
 4327.8346598478
  30
0.0
   0
LINE
   5
1C8
 100
AcDbEntity
   8
LEVEL001
 370
13
 100
AcDbLine
   6
CONTINUOUS
  62
7
  10
 2769.0394534888
  20
 4785.1342584254
  30
0.0
  11
 2769.0394534888
  21
 4333.5732871668
  31
0.0
   0
ARC
   5
1C9
 100
AcDbEntity
   8
LEVEL001
 370
13
   6
CONTINUOUS
  62
7
 100
AcDbCircle
  10
 5742.2532029526
  20
 4732.8346598478
  30
0.0
  40
 3000.0000000000
 100
AcDbArc
  50
 178.16561308138
  51
 187.66225566077
   0
ARC
   5
1CA
 100
AcDbEntity
   8
LEVEL001
 370
13
   6
HIDDEN
  62
6
 100
AcDbCircle
  10
 5742.2532029526
  20
 4732.8346598478
  30
0.0
  40
 3000.0000000000
 100
AcDbArc
  50
 172.33774433923
  51
 178.16561308138
   0
LINE
   5
1CB
 100
AcDbEntity
   8
LEVEL001
 370
13
 100
AcDbLine
   6
HIDDEN
  62
6
  10
 2769.0394534888
  20
 5132.0960325288
  30
0.0
  11
 2769.0394534888
  21
 4785.1342584254
  31
0.0
   0
LINE
   5
1CC
 100
AcDbEntity
   8
LEVEL001
 370
13
 100
AcDbLine
   6
HIDDEN
  62
6
  10
 2794.0394534888
  20
 5142.8346598478
  30
0.0
  11
 2774.6666405428
  21
 5138.9600972586
  31
0.0
   0
ARC
   5
1CD
 100
AcDbEntity
   8
LEVEL001
 370
13
   6
HIDDEN
  62
6
 100
AcDbCircle
  10
 2776.0394534888
  20
 5132.0960325288
  30
0.0
  40
 7.0000000000000
 100
AcDbArc
  50
 101.30993247406
  51
 180.00000000000
   0
POINT
   5
1CE
 100
AcDbEntity
   8
LEVEL001
 100
AcDbPoint
  62
6
  10
 2769.0394534888
  20
 5137.8346598478
  30
0.0
   0
LINE
   5
1CF
 100
AcDbEntity
   8
LEVEL001
 370
13
 100
AcDbLine
   6
CONTINUOUS
  62
3
  10
 2794.0394534888
  20
 4776.4740043876
  30
0.0
  11
 2774.0394534888
  21
 4776.4740043874
  31
0.0
   0
LINE
   5
1D0
 100
AcDbEntity
   8
LEVEL001
 370
13
 100
AcDbLine
   6
CONTINUOUS
  62
3
  10
 2774.0394534888
  20
 4776.4740043874
  30
0.0
  11
 2709.0394534888
  21
 4889.0573068796
  31
0.0
   0
LINE
   5
1D1
 100
AcDbEntity
   8
LEVEL001
 370
13
 100
AcDbLine
   6
CONTINUOUS
  62
3
  10
 2709.0394534888
  20
 4889.0573068796
  30
0.0
  11
 2709.0394534888
  21
 5144.3346598478
  31
0.0
   0
LINE
   5
1D2
 100
AcDbEntity
   8
LEVEL001
 370
13
 100
AcDbLine
   6
CONTINUOUS
  62
3
  10
 2709.0394534888
  20
 5144.3346598478
  30
0.0
  11
 2794.0394534888
  21
 5144.3346598478
  31
0.0
   0
LINE
   5
1D3
 100
AcDbEntity
   8
LEVEL001
 370
13
 100
AcDbLine
   6
DASHDOT
  62
6
  10
 3111.2061711964
  20
 4732.8346598478
  30
0.0
  11
 2659.9984547870
  21
 4732.8346598478
  31
0.0
   0
LINE
   5
1D4
 100
AcDbEntity
   8
LEVEL001
 370
13
 100
AcDbLine
   6
DASHDOT
  62
6
  10
 2867.2394534888
  20
 4777.8346598478
  30
0.0
  11
 2867.2394534888
  21
 4747.8346598478
  31
0.0
   0
LINE
   5
1D5
 100
AcDbEntity
   8
LEVEL001
 370
13
 100
AcDbLine
   6
DASHDOT
  62
6
  10
 2852.2394534888
  20
 4762.8346598478
  30
0.0
  11
 2882.2394534888
  21
 4762.8346598478
  31
0.0
   0
LINE
   5
1D6
 100
AcDbEntity
   8
LEVEL001
 370
13
 100
AcDbLine
   6
DASHDOT
  62
6
  10
 2867.2394534888
  20
 4717.8346598478
  30
0.0
  11
 2867.2394534888
  21
 4687.8346598478
  31
0.0
   0
LINE
   5
1D7
 100
AcDbEntity
   8
LEVEL001
 370
13
 100
AcDbLine
   6
DASHDOT
  62
6
  10
 2852.2394534888
  20
 4702.8346598478
  30
0.0
  11
 2882.2394534888
  21
 4702.8346598478
  31
0.0
   0
LINE
   5
1D8
 100
AcDbEntity
   8
LEVEL001
 370
13
 100
AcDbLine
   6
CONTINUOUS
  62
7
  10
 2947.2394534888
  20
 4677.8346598478
  30
0.0
  11
 3061.2061711964
  21
 4677.8346598478
  31
0.0
   0
LINE
   5
1D9
 100
AcDbEntity
   8
LEVEL001
 370
13
 100
AcDbLine
   6
CONTINUOUS
  62
7
  10
 3061.2061711964
  20
 4677.8346598478
  30
0.0
  11
 3061.2061711964
  21
 4787.8346598478
  31
0.0
   0
LINE
   5
1DA
 100
AcDbEntity
   8
LEVEL001
 370
13
 100
AcDbLine
   6
CONTINUOUS
  62
7
  10
 3061.2061711964
  20
 4787.8346598478
  30
0.0
  11
 2947.2394534888
  21
 4787.8346598478
  31
0.0
   0
LINE
   5
1DB
 100
AcDbEntity
   8
LEVEL001
 370
13
 100
AcDbLine
   6
CONTINUOUS
  62
7
  10
 2892.2394534888
  20
 4787.8346598478
  30
0.0
  11
 2947.2394534888
  21
 4787.8346598478
  31
0.0
   0
LINE
   5
1DC
 100
AcDbEntity
   8
LEVEL001
 370
13
 100
AcDbLine
   6
CONTINUOUS
  62
7
  10
 2947.2394534888
  20
 4787.8346598478
  30
0.0
  11
 2947.2394534888
  21
 4677.8346598478
  31
0.0
   0
LINE
   5
1DD
 100
AcDbEntity
   8
LEVEL001
 370
13
 100
AcDbLine
   6
CONTINUOUS
  62
7
  10
 2947.2394534888
  20
 4677.8346598478
  30
0.0
  11
 2892.2394534888
  21
 4677.8346598478
  31
0.0
   0
LINE
   5
1DE
 100
AcDbEntity
   8
LEVEL001
 370
13
 100
AcDbLine
   6
CONTINUOUS
  62
7
  10
 2799.0394534888
  20
 4677.8346598478
  30
0.0
  11
 2892.2394534888
  21
 4677.8346598478
  31
0.0
   0
LINE
   5
1DF
 100
AcDbEntity
   8
LEVEL001
 370
13
 100
AcDbLine
   6
CONTINUOUS
  62
7
  10
 2892.2394534888
  20
 4677.8346598478
  30
0.0
  11
 2892.2394534888
  21
 4787.8346598478
  31
0.0
   0
LINE
   5
1E0
 100
AcDbEntity
   8
LEVEL001
 370
13
 100
AcDbLine
   6
CONTINUOUS
  62
7
  10
 2892.2394534888
  20
 4787.8346598478
  30
0.0
  11
 2799.0394534888
  21
 4787.8346598478
  31
0.0
   0
LINE
   5
1E1
 100
AcDbEntity
   8
LEVEL001
 370
13
 100
AcDbLine
   6
DASHDOT
  62
6
  10
 2916.3885761460
  20
 4743.4200736668
  30
0.0
  11
 2916.3885761460
  21
 4713.4200736668
  31
0.0
   0
LINE
   5
1E2
 100
AcDbEntity
   8
LEVEL001
 370
13
 100
AcDbLine
   6
DASHDOT
  62
6
  10
 2901.3885761460
  20
 4728.4200736668
  30
0.0
  11
 2931.3885761460
  21
 4728.4200736668
  31
0.0
   0
LINE
   5
1E3
 100
AcDbEntity
   8
LEVEL001
 370
13
 100
AcDbLine
   6
CONTINUOUS
  62
3
  10
 2860.2394534888
  20
 4755.8346598478
  30
0.0
  11
 2874.2394534888
  21
 4755.8346598478
  31
0.0
   0
LINE
   5
1E4
 100
AcDbEntity
   8
LEVEL001
 370
13
 100
AcDbLine
   6
CONTINUOUS
  62
3
  10
 2874.2394534888
  20
 4755.8346598478
  30
0.0
  11
 2874.2394534888
  21
 4769.8346598478
  31
0.0
   0
LINE
   5
1E5
 100
AcDbEntity
   8
LEVEL001
 370
13
 100
AcDbLine
   6
CONTINUOUS
  62
3
  10
 2874.2394534888
  20
 4769.8346598478
  30
0.0
  11
 2860.2394534888
  21
 4769.8346598478
  31
0.0
   0
LINE
   5
1E6
 100
AcDbEntity
   8
LEVEL001
 370
13
 100
AcDbLine
   6
CONTINUOUS
  62
3
  10
 2860.2394534888
  20
 4769.8346598478
  30
0.0
  11
 2860.2394534888
  21
 4755.8346598478
  31
0.0
   0
LINE
   5
1E7
 100
AcDbEntity
   8
LEVEL001
 370
13
 100
AcDbLine
   6
CONTINUOUS
  62
3
  10
 2860.2394534888
  20
 4695.8346598478
  30
0.0
  11
 2874.2394534888
  21
 4695.8346598478
  31
0.0
   0
LINE
   5
1E8
 100
AcDbEntity
   8
LEVEL001
 370
13
 100
AcDbLine
   6
CONTINUOUS
  62
3
  10
 2874.2394534888
  20
 4695.8346598478
  30
0.0
  11
 2874.2394534888
  21
 4709.8346598478
  31
0.0
   0
LINE
   5
1E9
 100
AcDbEntity
   8
LEVEL001
 370
13
 100
AcDbLine
   6
CONTINUOUS
  62
3
  10
 2874.2394534888
  20
 4709.8346598478
  30
0.0
  11
 2860.2394534888
  21
 4709.8346598478
  31
0.0
   0
LINE
   5
1EA
 100
AcDbEntity
   8
LEVEL001
 370
13
 100
AcDbLine
   6
CONTINUOUS
  62
3
  10
 2860.2394534888
  20
 4709.8346598478
  30
0.0
  11
 2860.2394534888
  21
 4695.8346598478
  31
0.0
   0
ARC
   5
1EB
 100
AcDbEntity
   8
LEVEL001
 370
13
   6
CONTINUOUS
  62
3
 100
AcDbCircle
  10
 2867.2394534888
  20
 4762.8346598478
  30
0.0
  40
 52.000000000000
 100
AcDbArc
  50
 298.73565374505
  51
 325.00000000000
   0
ARC
   5
1EC
 100
AcDbEntity
   8
LEVEL001
 370
13
   6
CONTINUOUS
  62
3
 100
AcDbCircle
  10
 2867.2394534888
  20
 4762.8346598478
  30
0.0
  40
 68.000000000000
 100
AcDbArc
  50
 291.57057830172
  51
 325.00000000001
   0
ARC
   5
1ED
 100
AcDbEntity
   8
LEVEL001
 370
13
   6
CONTINUOUS
  62
3
 100
AcDbCircle
  10
 2916.3885761460
  20
 4728.4200736668
  30
0.0
  40
 8.0000000000000
 100
AcDbArc
  50
 324.99999999992
  51
 145.00000000002
   0
CIRCLE
   5
1EE
 100
AcDbEntity
   8
LEVEL001
 370
13
 100
AcDbCircle
   6
CONTINUOUS
  62
1
  10
 1735.0228162296
  20
 2800.3346598478
  30
0.0
  40
 70.000000000000
   0
LEADER
   5
1EF
 100
AcDbEntity
   8
LEVEL001
 370
13
   6
CONTINUOUS
  62
1
 100
AcDbLeader
   3
GMM001
  73
3
  74
1
  75
0
  40
 60.000000000000
  41
0.0
  76
2
  10
 1523.1728162296
  20
 2675.3346598478
  30
0.0
  10
 1674.7350268685
  20
 2764.7624452142
  30
0.0
  77
1
   0
MTEXT
   5
1F0
 100
AcDbEntity
   8
LEVEL001
 370
13
  62
1
 100
AcDbMText
  10
 1735.0228162296
  20
 2800.3346598478
  30
0.0
  40
 57.142857142858
  41
0.0
  71
5
  72
1
   1
\T1.000000;9
   7
GMM001
  44
 0.79999984000003
   0
CIRCLE
   5
1F1
 100
AcDbEntity
   8
LEVEL001
 370
13
 100
AcDbCircle
   6
CONTINUOUS
  62
1
  10
 4035.0228162296
  20
 4382.8346598478
  30
0.0
  40
 69.999997913838
   0
MTEXT
   5
1F2
 100
AcDbEntity
   8
LEVEL001
 370
13
  62
1
 100
AcDbMText
  10
 4035.0228162296
  20
 4382.8346598478
  30
0.0
  40
 57.142857142858
  41
0.0
  71
5
  72
1
   1
\T1.000000;2
   7
GMM001
  44
 0.79999984000003
   0
LEADER
   5
1F3
 100
AcDbEntity
   8
LEVEL001
 370
13
   6
CONTINUOUS
  62
1
 100
AcDbLeader
   3
GMM002
  73
3
  74
1
  75
0
  40
 66.000000000000
  41
0.0
  76
2
  10
 4207.9228621524
  20
 4558.3098192288
  30
0.0
  10
 4085.0228162296
  20
 4431.8244517226
  30
0.0
  77
1
   0
CIRCLE
   5
1F4
 100
AcDbEntity
   8
LEVEL001
 370
13
 100
AcDbCircle
   6
CONTINUOUS
  62
1
  10
 2285.0228162296
  20
 4182.8346598478
  30
0.0
  40
 69.999997913838
   0
MTEXT
   5
1F5
 100
AcDbEntity
   8
LEVEL001
 370
13
  62
1
 100
AcDbMText
  10
 2285.0228162296
  20
 4182.8346598478
  30
0.0
  40
 57.142857142858
  41
0.0
  71
5
  72
1
   1
\T1.000000;1
   7
GMM001
  44
 0.79999984000003
   0
LEADER
   5
1F6
 100
AcDbEntity
   8
LEVEL001
 370
13
   6
CONTINUOUS
  62
1
 100
AcDbLeader
   3
GMM001
  73
3
  74
1
  75
0
  40
 60.000000000000
  41
0.0
  76
2
  10
 1598.1534613666
  20
 4432.8346598478
  30
0.0
  10
 2219.3655531988
  20
 4207.1065266742
  30
0.0
  77
1
   0
CIRCLE
   5
1F7
 100
AcDbEntity
   8
LEVEL001
 370
13
 100
AcDbCircle
   6
CONTINUOUS
  62
1
  10
 1735.0228162296
  20
 4182.8346598478
  30
0.0
  40
 69.999997913838
   0
MTEXT
   5
1F8
 100
AcDbEntity
   8
LEVEL001
 370
13
  62
1
 100
AcDbMText
  10
 1735.0228162296
  20
 4182.8346598478
  30
0.0
  40
 57.142857142858
  41
0.0
  71
5
  72
1
   1
\T1.000000;4
   7
GMM001
  44
 0.79999984000003
   0
LEADER
   5
1F9
 100
AcDbEntity
   8
LEVEL001
 370
13
   6
CONTINUOUS
  62
1
 100
AcDbLeader
   3
GMM001
  73
3
  74
1
  75
0
  40
 60.000000000000
  41
0.0
  76
2
  10
 1601.2369408590
  20
 4316.2407001740
  30
0.0
  10
 1685.5253430221
  20
 4232.3321330562
  30
0.0
  77
1
   0
CIRCLE
   5
1FA
 100
AcDbEntity
   8
LEVEL001
 370
13
 100
AcDbCircle
   6
CONTINUOUS
  62
1
  10
 3344.5166343572
  20
 5282.8346598478
  30
0.0
  40
 69.999997913838
   0
CIRCLE
   5
1FB
 100
AcDbEntity
   8
LEVEL001
 370
13
 100
AcDbCircle
   6
CONTINUOUS
  62
1
  10
 3484.5166301850
  20
 5282.8346598478
  30
0.0
  40
 69.999997913838
   0
CIRCLE
   5
1FC
 100
AcDbEntity
   8
LEVEL001
 370
13
 100
AcDbCircle
   6
CONTINUOUS
  62
1
  10
 3185.0228162296
  20
 5282.8346598478
  30
0.0
  40
 70.000000000000
   0
MTEXT
   5
1FD
 100
AcDbEntity
   8
LEVEL001
 370
13
  62
1
 100
AcDbMText
  10
 3344.5166343572
  20
 5282.8346598478
  30
0.0
  40
 57.142857142858
  41
0.0
  71
5
  72
1
   1
\T1.000000;6
   7
GMM001
  44
 0.79999984000003
   0
MTEXT
   5
1FE
 100
AcDbEntity
   8
LEVEL001
 370
13
  62
1
 100
AcDbMText
  10
 3484.5166301850
  20
 5282.8346598478
  30
0.0
  40
 57.142857142858
  41
0.0
  71
5
  72
1
   1
\T1.000000;8
   7
GMM001
  44
 0.79999984000003
   0
CIRCLE
   5
1FF
 100
AcDbEntity
   8
LEVEL001
 370
13
 100
AcDbCircle
   6
CONTINUOUS
  62
1
  10
 2285.0228162296
  20
 5282.8346598478
  30
0.0
  40
 69.999997913838
   0
MTEXT
   5
200
 100
AcDbEntity
   8
LEVEL001
 370
13
  62
1
 100
AcDbMText
  10
 2285.0228162296
  20
 5282.8346598478
  30
0.0
  40
 57.142857142858
  41
0.0
  71
5
  72
1
   1
\T1.000000;3
   7
GMM001
  44
 0.79999984000003
   0
MTEXT
   5
201
 100
AcDbEntity
   8
LEVEL001
 370
13
  62
1
 100
AcDbMText
  10
 3185.0228162296
  20
 5282.8346598478
  30
0.0
  40
 57.142857142858
  41
0.0
  71
5
  72
1
   1
\T1.000000;11
   7
GMM001
  44
 0.79999984000003
   0
CIRCLE
   5
202
 100
AcDbEntity
   8
LEVEL001
 370
13
 100
AcDbCircle
   6
CONTINUOUS
  62
1
  10
 2695.0228204020
  20
 5282.8346598478
  30
0.0
  40
 69.999997913838
   0
CIRCLE
   5
203
 100
AcDbEntity
   8
LEVEL001
 370
13
 100
AcDbCircle
   6
CONTINUOUS
  62
1
  10
 2835.0228162296
  20
 5282.8346598478
  30
0.0
  40
 69.999997913838
   0
MTEXT
   5
204
 100
AcDbEntity
   8
LEVEL001
 370
13
  62
1
 100
AcDbMText
  10
 2835.0228162296
  20
 5282.8346598478
  30
0.0
  40
 57.142857142858
  41
0.0
  71
5
  72
1
   1
\T1.000000;7
   7
GMM001
  44
 0.79999984000003
   0
MTEXT
   5
205
 100
AcDbEntity
   8
LEVEL001
 370
13
  62
1
 100
AcDbMText
  10
 2695.0228204020
  20
 5282.8346598478
  30
0.0
  40
 57.142857142858
  41
0.0
  71
5
  72
1
   1
\T1.000000;5
   7
GMM001
  44
 0.79999984000003
   0
LEADER
   5
206
 100
AcDbEntity
   8
LEVEL001
 370
13
   6
CONTINUOUS
  62
1
 100
AcDbLeader
   3
GMM001
  73
3
  74
1
  75
0
  40
 60.000000000000
  41
0.0
  76
2
  10
 2985.0228162296
  20
 4904.3346598478
  30
0.0
  10
 3151.5248480326
  20
 5221.3701487322
  30
0.0
  77
1
   0
LEADER
   5
207
 100
AcDbEntity
   8
LEVEL001
 370
13
   6
CONTINUOUS
  62
1
 100
AcDbLeader
   3
GMM001
  73
3
  74
1
  75
0
  40
 60.000000000000
  41
0.0
  76
2
  10
 2709.0394534888
  20
 5144.3346598478
  30
0.0
  10
 2351.4392845390
  20
 5260.7246520402
  30
0.0
  77
1
   0
LEADER
   5
208
 100
AcDbEntity
   8
LEVEL001
 370
13
   6
CONTINUOUS
  62
1
 100
AcDbLeader
   3
GMM001
  73
3
  74
1
  75
0
  40
 60.000000000000
  41
0.0
  76
2
  10
 1605.4952901069
  20
 5126.3046498572
  30
0.0
  10
 2216.6417056162
  20
 5267.8672479402
  30
0.0
  77
1
   0
LEADER
   5
209
 100
AcDbEntity
   8
LEVEL001
 370
13
   6
CONTINUOUS
  62
1
 100
AcDbLeader
   3
GMM001
  73
3
  74
1
  75
0
  40
 60.000000000000
  41
0.0
  76
2
  10
 2878.1359606648
  20
 4787.8346598478
  30
0.0
  10
 2840.6242717940
  20
 5213.0591383270
  30
0.0
  77
1
   0
LEADER
   5
20A
 100
AcDbEntity
   8
LEVEL001
 370
13
   6
CONTINUOUS
  62
1
 100
AcDbLeader
   3
GMM001
  73
3
  74
1
  75
0
  40
 60.000000000000
  41
0.0
  76
2
  10
 3061.2061711964
  20
 4787.8346598478
  30
0.0
  10
 3310.0494785816
  20
 5221.9083528806
  30
0.0
  77
1
   0
LEADER
   5
20B
 100
AcDbEntity
   8
LEVEL001
 370
13
   6
CONTINUOUS
  62
1
 100
AcDbLeader
   3
GMM001
  73
3
  74
1
  75
0
  40
 60.000000000000
  41
0.0
  76
2
  10
 2757.2908916326
  20
 4432.8346598478
  30
0.0
  10
 2346.9014183268
  20
 4215.5613815050
  30
0.0
  77
1
   0
LINE
   5
20C
 100
AcDbEntity
   8
LEVEL001
 370
13
 100
AcDbLine
   6
DASHDOT
  62
6
  10
 1485.0228162296
  20
 5207.8346598478
  30
0.0
  11
 1485.0228162296
  21
 800.33465984781
  31
0.0
   0
MTEXT
   5
20E
 100
AcDbEntity
   8
LEVEL001
 370
13
  62
1
 100
AcDbMText
  10
 1105.6714214391
  20
 1809.0645968881
  30
0.0
  40
 40.000000000000
  41
0.0
  71
7
  72
1
   1
\T1.000000;ＧＬ
   7
GMM003
  44
 0.79999984000003
   0
LINE
   5
20F
 100
AcDbEntity
   8
LEVEL001
 370
13
 100
AcDbLine
   6
CONTINUOUS
  62
1
  10
 1077.5227509943
  20
 1800.3346598478
  30
0.0
  11
 1052.5227509943
  21
 1850.3346598478
  31
0.0
   0
LINE
   5
210
 100
AcDbEntity
   8
LEVEL001
 370
13
 100
AcDbLine
   6
CONTINUOUS
  62
1
  10
 1052.5227509943
  20
 1850.3346598478
  30
0.0
  11
 1102.5227509943
  21
 1850.3346598478
  31
0.0
   0
LINE
   5
211
 100
AcDbEntity
   8
LEVEL001
 370
13
 100
AcDbLine
   6
CONTINUOUS
  62
1
  10
 1102.5227509943
  20
 1850.3346598478
  30
0.0
  11
 1077.5227509943
  21
 1800.3346598478
  31
0.0
   0
MTEXT
   5
212
 100
AcDbEntity
   8
LEVEL001
 370
13
  62
1
 100
AcDbMText
  10
 5545.0228162296
  20
 3092.8346598478
  30
0.0
  40
 57.142857142858
  41
0.0
  71
4
  72
1
   1
%%c\T1.000000;８００（シングル）
   7
GMM001
  44
 0.79999984000003
   0
MTEXT
   5
213
 100
AcDbEntity
   8
LEVEL001
 370
13
  62
1
 100
AcDbMText
  10
 5685.0228162296
  20
 2792.8346598478
  30
0.0
  40
 51.428571428572
  41
0.0
  71
4
  72
1
   1
\T1.000000;鏡面　Ｒ＝３０００
   7
GMM001
  44
 0.79999984000003
   0
LINE
   5
214
 100
AcDbEntity
   8
LEVEL001
 370
13
 100
AcDbLine
   6
DASHDOT
  62
6
  10
 2575.0227981440
  20
 1300.3346598478
  30
0.0
  11
 2695.0227981440
  21
 1300.3346598478
  31
0.0
   0
CIRCLE
   5
215
 100
AcDbEntity
   8
LEVEL001
 370
13
 100
AcDbCircle
   6
CONTINUOUS
  62
7
  10
 2635.0228162296
  20
 1300.3346598478
  30
0.0
  40
 7.5000000000000
   0
CIRCLE
   5
216
 100
AcDbEntity
   8
LEVEL001
 370
13
 100
AcDbCircle
   6
CONTINUOUS
  62
7
  10
 2635.0228162296
  20
 1300.3346598478
  30
0.0
  40
 7.5000000000000
   0
CIRCLE
   5
217
 100
AcDbEntity
   8
LEVEL001
 370
13
 100
AcDbCircle
   6
CONTINUOUS
  62
7
  10
 2635.0228162296
  20
 1300.3346598478
  30
0.0
  40
 7.5000000000000
   0
LINE
   5
218
 100
AcDbEntity
   8
LEVEL001
 370
13
 100
AcDbLine
   6
CONTINUOUS
  62
7
  10
 2596.8728162296
  20
 1207.8346598478
  30
0.0
  11
 2525.0227981440
  21
 1207.8346598478
  31
0.0
   0
LINE
   5
219
 100
AcDbEntity
   8
LEVEL001
 370
13
 100
AcDbLine
   6
CONTINUOUS
  62
7
  10
 2525.0227981440
  20
 1207.8346598478
  30
0.0
  11
 2525.0227981440
  21
 1192.8346598478
  31
0.0
   0
LINE
   5
21A
 100
AcDbEntity
   8
LEVEL001
 370
13
 100
AcDbLine
   6
CONTINUOUS
  62
7
  10
 2525.0227981440
  20
 1192.8346598478
  30
0.0
  11
 2596.8728162296
  21
 1192.8346598478
  31
0.0
   0
LINE
   5
21B
 100
AcDbEntity
   8
LEVEL001
 370
13
 100
AcDbLine
   6
DASHDOT
  62
6
  10
 2575.0228162296
  20
 1200.3346598478
  30
0.0
  11
 2695.0228162296
  21
 1200.3346598478
  31
0.0
   0
LINE
   5
21C
 100
AcDbEntity
   8
LEVEL001
 370
13
 100
AcDbLine
   6
CONTINUOUS
  62
7
  10
 2673.1728162296
  20
 1207.8346598478
  30
0.0
  11
 2745.0227981440
  21
 1207.8346598478
  31
0.0
   0
LINE
   5
21D
 100
AcDbEntity
   8
LEVEL001
 370
13
 100
AcDbLine
   6
CONTINUOUS
  62
7
  10
 2745.0227981440
  20
 1207.8346598478
  30
0.0
  11
 2745.0227981440
  21
 1192.8346598478
  31
0.0
   0
LINE
   5
21E
 100
AcDbEntity
   8
LEVEL001
 370
13
 100
AcDbLine
   6
CONTINUOUS
  62
7
  10
 2745.0227981440
  20
 1192.8346598478
  30
0.0
  11
 2673.1728162296
  21
 1192.8346598478
  31
0.0
   0
LINE
   5
21F
 100
AcDbEntity
   8
LEVEL001
 370
13
 100
AcDbLine
   6
DOT
  62
1
  10
 2673.1728162296
  20
 1192.8346598478
  30
0.0
  11
 2596.8728162296
  21
 1192.8346598478
  31
0.0
   0
LINE
   5
220
 100
AcDbEntity
   8
LEVEL001
 370
13
 100
AcDbLine
   6
DOT
  62
1
  10
 2596.8728162296
  20
 1207.8346598478
  30
0.0
  11
 2673.1728162296
  21
 1207.8346598478
  31
0.0
   0
CIRCLE
   5
221
 100
AcDbEntity
   8
LEVEL001
 370
13
 100
AcDbCircle
   6
CONTINUOUS
  62
1
  10
 2260.0228162296
  20
 1050.3346598478
  30
0.0
  40
 70.000000000000
   0
LEADER
   5
222
 100
AcDbEntity
   8
LEVEL001
 370
13
   6
CONTINUOUS
  62
1
 100
AcDbLeader
   3
GMM001
  73
3
  74
1
  75
0
  40
 60.000000000000
  41
0.0
  76
2
  10
 2525.0227981440
  20
 1192.8346598478
  30
0.0
  10
 2321.6744583696
  20
 1083.4869602422
  30
0.0
  77
1
   0
MTEXT
   5
223
 100
AcDbEntity
   8
LEVEL001
 370
13
  62
1
 100
AcDbMText
  10
 2260.0228162296
  20
 1050.3346598478
  30
0.0
  40
 57.142857142858
  41
0.0
  71
5
  72
1
   1
\T1.000000;10
   7
GMM001
  44
 0.79999984000003
   0
MTEXT
   5
225
 100
AcDbEntity
   8
LEVEL001
 370
13
  62
1
 100
AcDbMText
  10
 2255.6714214390
  20
 1809.0645968881
  30
0.0
  40
 40.000000000000
  41
0.0
  71
7
  72
1
   1
\T1.000000;ＧＬ
   7
GMM003
  44
 0.79999984000003
   0
LINE
   5
226
 100
AcDbEntity
   8
LEVEL001
 370
13
 100
AcDbLine
   6
CONTINUOUS
  62
1
  10
 2227.5227509942
  20
 1800.3346598478
  30
0.0
  11
 2202.5227509942
  21
 1850.3346598478
  31
0.0
   0
LINE
   5
227
 100
AcDbEntity
   8
LEVEL001
 370
13
 100
AcDbLine
   6
CONTINUOUS
  62
1
  10
 2202.5227509942
  20
 1850.3346598478
  30
0.0
  11
 2252.5227509942
  21
 1850.3346598478
  31
0.0
   0
LINE
   5
228
 100
AcDbEntity
   8
LEVEL001
 370
13
 100
AcDbLine
   6
CONTINUOUS
  62
1
  10
 2252.5227509942
  20
 1850.3346598478
  30
0.0
  11
 2227.5227509942
  21
 1800.3346598478
  31
0.0
   0
LINE
   5
229
 100
AcDbEntity
   8
LEVEL001
 370
13
 100
AcDbLine
   6
CONTINUOUS
  62
7
  10
 2583.1714299704
  20
 3621.8127738572
  30
0.0
  11
 2580.4575232070
  21
 3615.0280069484
  31
0.0
   0
ARC
   5
22A
 100
AcDbEntity
   8
LEVEL001
 370
13
   6
CONTINUOUS
  62
7
 100
AcDbCircle
  10
 2585.0999066614
  20
 3613.1710535666
  30
0.0
  40
 5.0000000000000
 100
AcDbArc
  50
 158.19859051373
  51
 180.00000000000
   0
LINE
   5
22B
 100
AcDbEntity
   8
LEVEL001
 370
13
 100
AcDbLine
   6
CONTINUOUS
  62
7
  10
 2580.0999066614
  20
 3613.1710535666
  30
0.0
  11
 2580.0999066614
  21
 3030.4544941462
  31
0.0
   0
LINE
   5
22C
 100
AcDbEntity
   8
LEVEL001
 370
13
 100
AcDbLine
   6
CONTINUOUS
  62
6
  10
 2587.0999066614
  20
 3550.8128348956
  30
0.0
  11
 2587.0999066614
  21
 3551.8127738564
  31
0.0
   0
ARC
   5
22D
 100
AcDbEntity
   8
LEVEL001
 370
13
   6
CONTINUOUS
  62
7
 100
AcDbCircle
  10
 2579.0999066614
  20
 3605.9651273982
  30
0.0
  40
 5.0000000000000
 100
AcDbArc
  50
0.0
  51
 21.801409486429
   0
LINE
   5
22E
 100
AcDbEntity
   8
LEVEL001
 370
13
 100
AcDbLine
   6
CONTINUOUS
  62
7
  10
 2581.9400192610
  20
 3612.3277579166
  30
0.0
  11
 2583.7422901158
  21
 3607.8220807800
  31
0.0
   0
ARC
   5
22F
 100
AcDbEntity
   8
LEVEL001
 370
13
   6
CONTINUOUS
  62
7
 100
AcDbCircle
  10
 2586.5824027154
  20
 3614.1847112984
  30
0.0
  40
 5.0000000000000
 100
AcDbArc
  50
 158.19859051371
  51
 201.80140948644
   0
LINE
   5
230
 100
AcDbEntity
   8
LEVEL001
 370
13
 100
AcDbLine
   6
CONTINUOUS
  62
7
  10
 2583.1714299704
  20
 3621.8127738572
  30
0.0
  11
 2584.0999066614
  21
 3621.4413831810
  31
0.0
   0
LINE
   5
231
 100
AcDbEntity
   8
LEVEL001
 370
13
 100
AcDbLine
   6
CONTINUOUS
  62
7
  10
 2584.0999066614
  20
 3621.4413831810
  30
0.0
  11
 2581.9400192610
  21
 3616.0416646802
  31
0.0
   0
LINE
   5
232
 100
AcDbEntity
   8
LEVEL001
 370
13
 100
AcDbLine
   6
CONTINUOUS
  62
7
  10
 2584.0999066614
  20
 3605.9651273982
  30
0.0
  11
 2584.0999066614
  21
 3037.6604203148
  31
0.0
   0
LINE
   5
233
 100
AcDbEntity
   8
LEVEL001
 370
13
 100
AcDbLine
   6
CONTINUOUS
  62
7
  10
 2587.0999066614
  20
 3551.8127738564
  30
0.0
  11
 2584.0999066614
  21
 3551.8127738564
  31
0.0
   0
LINE
   5
234
 100
AcDbEntity
   8
LEVEL001
 370
13
 100
AcDbLine
   6
CONTINUOUS
  62
6
  10
 2584.0999066614
  20
 3550.8128348956
  30
0.0
  11
 2587.0999066614
  21
 3550.8128348956
  31
0.0
   0
LINE
   5
235
 100
AcDbEntity
   8
LEVEL001
 370
13
 100
AcDbLine
   6
CONTINUOUS
  62
7
  10
 2587.5553854404
  20
 3536.8124077040
  30
0.0
  11
 2587.5558432044
  21
 3494.8124994206
  31
0.0
   0
ELLIPSE
   5
236
 100
AcDbEntity
   8
LEVEL001
 370
13
   6
CONTINUOUS
  62
7
 100
AcDbEllipse
  10
 2583.5553828906
  20
 3536.8125296552
  30
0.0
  11
-4.0000025516047
  21
0.0
  31
0.0
  40
 0.99999938800000
  41
 3.1415621657784
  42
-1.7073511820402
   0
LINE
   5
237
 100
AcDbEntity
   8
LEVEL001
 370
13
 100
AcDbLine
   6
CONTINUOUS
  62
6
  10
 2587.0999066614
  20
 3479.8127741374
  30
0.0
  11
 2587.0999066614
  21
 3480.8128046510
  31
0.0
   0
LINE
   5
238
 100
AcDbEntity
   8
LEVEL001
 370
13
 100
AcDbLine
   6
CONTINUOUS
  62
6
  10
 2587.0999066614
  20
 3480.8128046510
  30
0.0
  11
 2584.0999066614
  21
 3480.8128046510
  31
0.0
   0
ELLIPSE
   5
239
 100
AcDbEntity
   8
LEVEL001
 370
13
   6
CONTINUOUS
  62
7
 100
AcDbEllipse
  10
 2583.5558406532
  20
 3494.8125605732
  30
0.0
  11
-4.0000025516047
  21
0.0
  31
0.0
  40
 0.99999938800000
  41
 1.7072356670364
  42
 3.1415773654608
   0
LINE
   5
23A
 100
AcDbEntity
   8
LEVEL001
 370
13
 100
AcDbLine
   6
CONTINUOUS
  62
7
  10
 2584.0999066614
  20
 3479.8127741374
  30
0.0
  11
 2587.0999066614
  21
 3479.8127741374
  31
0.0
   0
LINE
   5
23B
 100
AcDbEntity
   8
LEVEL001
 370
13
 100
AcDbLine
   6
CONTINUOUS
  62
7
  10
 2587.5554126844
  20
 3534.3127741374
  30
0.0
  11
 2693.0999066614
  21
 3534.3127741374
  31
0.0
   0
LINE
   5
23C
 100
AcDbEntity
   8
LEVEL001
 370
13
 100
AcDbLine
   6
CONTINUOUS
  62
7
  10
 2693.0999066614
  20
 3534.3127741374
  30
0.0
  11
 2693.0999066614
  21
 3497.3127741374
  31
0.0
   0
LINE
   5
23D
 100
AcDbEntity
   8
LEVEL001
 370
13
 100
AcDbLine
   6
CONTINUOUS
  62
7
  10
 2693.0999066614
  20
 3497.3127741374
  30
0.0
  11
 2587.5558159534
  21
 3497.3127741374
  31
0.0
   0
LINE
   5
23E
 100
AcDbEntity
   8
LEVEL001
 370
13
 100
AcDbLine
   6
CONTINUOUS
  62
7
  10
 2584.0999066614
  20
 3497.3127741374
  30
0.0
  11
 2584.0999066614
  21
 3534.3127741374
  31
0.0
   0
LINE
   5
23F
 100
AcDbEntity
   8
LEVEL001
 370
13
 100
AcDbLine
   6
CONTINUOUS
  62
7
  10
 2584.0999066614
  20
 3163.8127735756
  30
0.0
  11
 2587.0999066614
  21
 3163.8127735756
  31
0.0
   0
LINE
   5
240
 100
AcDbEntity
   8
LEVEL001
 370
13
 100
AcDbLine
   6
CONTINUOUS
  62
6
  10
 2587.0999066614
  20
 3163.8127735756
  30
0.0
  11
 2587.0999066614
  21
 3162.8127430618
  31
0.0
   0
LINE
   5
241
 100
AcDbEntity
   8
LEVEL001
 370
13
 100
AcDbLine
   6
CONTINUOUS
  62
6
  10
 2587.0999066614
  20
 3162.8127430618
  30
0.0
  11
 2584.0999066614
  21
 3162.8127430618
  31
0.0
   0
LINE
   5
242
 100
AcDbEntity
   8
LEVEL001
 370
13
 100
AcDbLine
   6
CONTINUOUS
  62
7
  10
 2587.5553854404
  20
 3106.8131400088
  30
0.0
  11
 2587.5558432044
  21
 3148.8130482922
  31
0.0
   0
ELLIPSE
   5
243
 100
AcDbEntity
   8
LEVEL001
 370
13
   6
CONTINUOUS
  62
7
 100
AcDbEllipse
  10
 2583.5558406532
  20
 3148.8129871398
  30
0.0
  11
-4.0000025516047
  21
0.0
  31
0.0
  40
 0.99999938800000
  41
-3.1415773654608
  42
-1.7072356670364
   0
LINE
   5
244
 100
AcDbEntity
   8
LEVEL001
 370
13
 100
AcDbLine
   6
CONTINUOUS
  62
6
  10
 2587.0999066614
  20
 3092.8127128174
  30
0.0
  11
 2587.0999066614
  21
 3091.8127738564
  31
0.0
   0
LINE
   5
245
 100
AcDbEntity
   8
LEVEL001
 370
13
 100
AcDbLine
   6
CONTINUOUS
  62
6
  10
 2584.0999066614
  20
 3092.8127128174
  30
0.0
  11
 2587.0999066614
  21
 3092.8127128174
  31
0.0
   0
ELLIPSE
   5
246
 100
AcDbEntity
   8
LEVEL001
 370
13
   6
CONTINUOUS
  62
7
 100
AcDbEllipse
  10
 2583.5553828906
  20
 3106.8130180576
  30
0.0
  11
-4.0000025516047
  21
0.0
  31
0.0
  40
 0.99999938800000
  41
 1.7073511820402
  42
-3.1415621657857
   0
LINE
   5
247
 100
AcDbEntity
   8
LEVEL001
 370
13
 100
AcDbLine
   6
CONTINUOUS
  62
7
  10
 2587.0999066614
  20
 3091.8127738564
  30
0.0
  11
 2584.0999066614
  21
 3091.8127738564
  31
0.0
   0
ARC
   5
248
 100
AcDbEntity
   8
LEVEL001
 370
13
   6
CONTINUOUS
  62
7
 100
AcDbCircle
  10
 2585.0999066614
  20
 3030.4544941462
  30
0.0
  40
 5.0000000000000
 100
AcDbArc
  50
 180.00000000000
  51
 201.80140948643
   0
LINE
   5
249
 100
AcDbEntity
   8
LEVEL001
 370
13
 100
AcDbLine
   6
CONTINUOUS
  62
7
  10
 2583.1714299704
  20
 3021.8127738556
  30
0.0
  11
 2580.4575232070
  21
 3028.5975407644
  31
0.0
   0
ARC
   5
24A
 100
AcDbEntity
   8
LEVEL001
 370
13
   6
CONTINUOUS
  62
7
 100
AcDbCircle
  10
 2579.0999066614
  20
 3037.6604203148
  30
0.0
  40
 5.0000000000000
 100
AcDbArc
  50
 338.19859051373
  51
0.0
   0
LINE
   5
24B
 100
AcDbEntity
   8
LEVEL001
 370
13
 100
AcDbLine
   6
CONTINUOUS
  62
7
  10
 2581.9400192610
  20
 3031.2977897962
  30
0.0
  11
 2583.7422901158
  21
 3035.8034669330
  31
0.0
   0
ARC
   5
24C
 100
AcDbEntity
   8
LEVEL001
 370
13
   6
CONTINUOUS
  62
7
 100
AcDbCircle
  10
 2586.5824027154
  20
 3029.4408364144
  30
0.0
  40
 5.0000000000000
 100
AcDbArc
  50
 158.19859051356
  51
 201.80140948644
   0
LINE
   5
24D
 100
AcDbEntity
   8
LEVEL001
 370
13
 100
AcDbLine
   6
CONTINUOUS
  62
7
  10
 2583.1714299704
  20
 3021.8127738556
  30
0.0
  11
 2584.0999066614
  21
 3022.1841645320
  31
0.0
   0
LINE
   5
24E
 100
AcDbEntity
   8
LEVEL001
 370
13
 100
AcDbLine
   6
CONTINUOUS
  62
7
  10
 2584.0999066614
  20
 3022.1841645320
  30
0.0
  11
 2581.9400192610
  21
 3027.5838830326
  31
0.0
   0
LINE
   5
24F
 100
AcDbEntity
   8
LEVEL001
 370
13
 100
AcDbLine
   6
CONTINUOUS
  62
7
  10
 2587.5558159534
  20
 3146.3127738564
  30
0.0
  11
 2693.0999116336
  21
 3146.3127738564
  31
0.0
   0
LINE
   5
250
 100
AcDbEntity
   8
LEVEL001
 370
13
 100
AcDbLine
   6
CONTINUOUS
  62
7
  10
 2693.0999116336
  20
 3146.3127738564
  30
0.0
  11
 2693.0999116336
  21
 3109.3127738564
  31
0.0
   0
LINE
   5
251
 100
AcDbEntity
   8
LEVEL001
 370
13
 100
AcDbLine
   6
CONTINUOUS
  62
7
  10
 2693.0999116336
  20
 3109.3127738564
  30
0.0
  11
 2587.5554126844
  21
 3109.3127738564
  31
0.0
   0
LINE
   5
252
 100
AcDbEntity
   8
LEVEL001
 370
13
 100
AcDbLine
   6
CONTINUOUS
  62
6
  10
 2671.9279126332
  20
 3121.3127738564
  30
0.0
  11
 2599.8087408076
  21
 3121.3127738564
  31
0.0
   0
LINE
   5
253
 100
AcDbEntity
   8
LEVEL001
 370
13
 100
AcDbLine
   6
CONTINUOUS
  62
6
  10
 2599.8087408076
  20
 3134.3127738564
  30
0.0
  11
 2671.9279126332
  21
 3134.3127738564
  31
0.0
   0
LINE
   5
254
 100
AcDbEntity
   8
LEVEL001
 370
13
 100
AcDbLine
   6
CONTINUOUS
  62
6
  10
 2671.9279126332
  20
 3144.3127738564
  30
0.0
  11
 2671.9279126332
  21
 3135.3127738564
  31
0.0
   0
LINE
   5
255
 100
AcDbEntity
   8
LEVEL001
 370
13
 100
AcDbLine
   6
CONTINUOUS
  62
6
  10
 2671.9279126332
  20
 3120.3127738564
  30
0.0
  11
 2671.9279126332
  21
 3111.3127738564
  31
0.0
   0
LINE
   5
256
 100
AcDbEntity
   8
LEVEL001
 370
13
 100
AcDbLine
   6
CONTINUOUS
  62
7
  10
 2688.0999116336
  20
 3122.8127738564
  30
0.0
  11
 2678.0999116336
  21
 3122.8127738564
  31
0.0
   0
LINE
   5
257
 100
AcDbEntity
   8
LEVEL001
 370
13
 100
AcDbLine
   6
CONTINUOUS
  62
7
  10
 2678.0999116336
  20
 3122.8127738564
  30
0.0
  11
 2678.0999116336
  21
 3132.8127738564
  31
0.0
   0
LINE
   5
258
 100
AcDbEntity
   8
LEVEL001
 370
13
 100
AcDbLine
   6
CONTINUOUS
  62
7
  10
 2678.0999116336
  20
 3132.8127738564
  30
0.0
  11
 2688.0999116336
  21
 3132.8127738564
  31
0.0
   0
LINE
   5
259
 100
AcDbEntity
   8
LEVEL001
 370
13
 100
AcDbLine
   6
CONTINUOUS
  62
7
  10
 2688.0999116336
  20
 3132.8127738564
  30
0.0
  11
 2688.0999116336
  21
 3122.8127738564
  31
0.0
   0
LINE
   5
25A
 100
AcDbEntity
   8
LEVEL001
 370
13
 100
AcDbLine
   6
CONTINUOUS
  62
6
  10
 2674.2464376746
  20
 3134.3127738564
  30
0.0
  11
 2674.2464376746
  21
 3121.3127738564
  31
0.0
   0
LINE
   5
25B
 100
AcDbEntity
   8
LEVEL001
 370
13
 100
AcDbLine
   6
CONTINUOUS
  62
6
  10
 2598.5478462380
  20
 3133.3127738564
  30
0.0
  11
 2598.5478462380
  21
 3122.3127738564
  31
0.0
   0
LINE
   5
25C
 100
AcDbEntity
   8
LEVEL001
 370
13
 100
AcDbLine
   6
CONTINUOUS
  62
6
  10
 2598.5478462380
  20
 3144.3127738564
  30
0.0
  11
 2598.5478462380
  21
 3135.3127738564
  31
0.0
   0
LINE
   5
25D
 100
AcDbEntity
   8
LEVEL001
 370
13
 100
AcDbLine
   6
CONTINUOUS
  62
6
  10
 2598.5478462380
  20
 3120.3127738564
  30
0.0
  11
 2598.5478462380
  21
 3111.3127738564
  31
0.0
   0
LINE
   5
25E
 100
AcDbEntity
   8
LEVEL001
 370
13
 100
AcDbLine
   6
CONTINUOUS
  62
6
  10
 2671.9279076610
  20
 3532.3127741374
  30
0.0
  11
 2671.9279076610
  21
 3523.3127741374
  31
0.0
   0
LINE
   5
25F
 100
AcDbEntity
   8
LEVEL001
 370
13
 100
AcDbLine
   6
CONTINUOUS
  62
6
  10
 2671.9279076610
  20
 3508.3127741374
  30
0.0
  11
 2671.9279076610
  21
 3499.3127741374
  31
0.0
   0
LINE
   5
260
 100
AcDbEntity
   8
LEVEL001
 370
13
 100
AcDbLine
   6
CONTINUOUS
  62
7
  10
 2688.0999066614
  20
 3510.8127741374
  30
0.0
  11
 2678.0999066614
  21
 3510.8127741374
  31
0.0
   0
LINE
   5
261
 100
AcDbEntity
   8
LEVEL001
 370
13
 100
AcDbLine
   6
CONTINUOUS
  62
7
  10
 2678.0999066614
  20
 3510.8127741374
  30
0.0
  11
 2678.0999066614
  21
 3520.8127741374
  31
0.0
   0
LINE
   5
262
 100
AcDbEntity
   8
LEVEL001
 370
13
 100
AcDbLine
   6
CONTINUOUS
  62
7
  10
 2678.0999066614
  20
 3520.8127741374
  30
0.0
  11
 2688.0999066614
  21
 3520.8127741374
  31
0.0
   0
LINE
   5
263
 100
AcDbEntity
   8
LEVEL001
 370
13
 100
AcDbLine
   6
CONTINUOUS
  62
7
  10
 2688.0999066614
  20
 3520.8127741374
  30
0.0
  11
 2688.0999066614
  21
 3510.8127741374
  31
0.0
   0
LINE
   5
264
 100
AcDbEntity
   8
LEVEL001
 370
13
 100
AcDbLine
   6
CONTINUOUS
  62
6
  10
 2674.2464327022
  20
 3522.3127741374
  30
0.0
  11
 2674.2464327022
  21
 3509.3127741374
  31
0.0
   0
LINE
   5
265
 100
AcDbEntity
   8
LEVEL001
 370
13
 100
AcDbLine
   6
CONTINUOUS
  62
6
  10
 2598.5478412656
  20
 3521.3127741374
  30
0.0
  11
 2598.5478412656
  21
 3510.3127741374
  31
0.0
   0
LINE
   5
266
 100
AcDbEntity
   8
LEVEL001
 370
13
 100
AcDbLine
   6
CONTINUOUS
  62
6
  10
 2598.5478412656
  20
 3508.3127741374
  30
0.0
  11
 2598.5478412656
  21
 3499.3127741374
  31
0.0
   0
LINE
   5
267
 100
AcDbEntity
   8
LEVEL001
 370
13
 100
AcDbLine
   6
CONTINUOUS
  62
6
  10
 2598.5478412656
  20
 3532.3127741374
  30
0.0
  11
 2598.5478412656
  21
 3523.3127741374
  31
0.0
   0
LINE
   5
268
 100
AcDbEntity
   8
LEVEL001
 370
13
 100
AcDbLine
   6
CONTINUOUS
  62
6
  10
 2671.9279076610
  20
 3509.3127741374
  30
0.0
  11
 2599.8087358352
  21
 3509.3127741374
  31
0.0
   0
LINE
   5
269
 100
AcDbEntity
   8
LEVEL001
 370
13
 100
AcDbLine
   6
CONTINUOUS
  62
6
  10
 2599.8087358352
  20
 3522.3127741374
  30
0.0
  11
 2671.9279076610
  21
 3522.3127741374
  31
0.0
   0
LINE
   5
26A
 100
AcDbEntity
   8
LEVEL001
 370
13
 100
AcDbLine
   6
CONTINUOUS
  62
7
  10
 2673.1728162296
  20
 3146.3127738564
  30
0.0
  11
 2673.1728162296
  21
 3497.3127741374
  31
0.0
   0
LINE
   5
26B
 100
AcDbEntity
   8
LEVEL001
 370
13
 100
AcDbLine
   6
CONTINUOUS
  62
7
  10
 2596.8728162296
  20
 3497.3127741374
  30
0.0
  11
 2596.8728162296
  21
 3146.3127738564
  31
0.0
   0
ARC
   5
26C
 100
AcDbEntity
   8
LEVEL001
 370
13
   6
CONTINUOUS
  62
7
 100
AcDbCircle
  10
 2646.8728162296
  20
 4216.3565455582
  30
0.0
  40
 300.00000000000
 100
AcDbArc
  50
 322.12501634890
  51
0.0
   0
ARC
   5
26D
 100
AcDbEntity
   8
LEVEL001
 370
13
   6
DASHDOT
  62
6
 100
AcDbCircle
  10
 2646.8728162296
  20
 4216.3565455582
  30
0.0
  40
 338.15000000000
 100
AcDbArc
  50
 322.12501634890
  51
0.0
   0
ARC
   5
26E
 100
AcDbEntity
   8
LEVEL001
 370
13
   6
CONTINUOUS
  62
7
 100
AcDbCircle
  10
 2646.8728162296
  20
 4216.3565455582
  30
0.0
  40
 376.30000000000
 100
AcDbArc
  50
 322.12501634890
  51
0.0
   0
POINT
   5
26F
 100
AcDbEntity
   8
LEVEL001
 100
AcDbPoint
  62
2
  10
 2985.0228162296
  20
 4100.3346598478
  30
0.0
   0
LINE
   5
270
 100
AcDbEntity
   8
LEVEL001
 370
13
 100
AcDbLine
   6
CONTINUOUS
  62
7
  10
 2883.6784814424
  20
 4032.1743615038
  30
0.0
  11
 2676.1395768308
  21
 3765.3386270030
  31
0.0
   0
ARC
   5
271
 100
AcDbEntity
   8
LEVEL001
 370
13
   6
CONTINUOUS
  62
7
 100
AcDbCircle
  10
 2973.1728162296
  20
 3534.3127741374
  30
0.0
  40
 300.00000000000
 100
AcDbArc
  50
 142.12501634890
  51
 180.00000000000
   0
ARC
   5
272
 100
AcDbEntity
   8
LEVEL001
 370
13
   6
DASHDOT
  62
6
 100
AcDbCircle
  10
 2973.1728162296
  20
 3534.3127741374
  30
0.0
  40
 338.15000000000
 100
AcDbArc
  50
 142.12501634890
  51
 180.00000000000
   0
ARC
   5
273
 100
AcDbEntity
   8
LEVEL001
 370
13
   6
CONTINUOUS
  62
7
 100
AcDbCircle
  10
 2973.1728162296
  20
 3534.3127741374
  30
0.0
  40
 376.30000000000
 100
AcDbArc
  50
 142.12501634890
  51
 180.00000000000
   0
LINE
   5
274
 100
AcDbEntity
   8
LEVEL001
 370
13
 100
AcDbLine
   6
CONTINUOUS
  62
7
  10
 2736.3671510168
  20
 3718.4949581918
  30
0.0
  11
 2943.9060556284
  21
 3985.3306926924
  31
0.0
   0
POINT
   5
275
 100
AcDbEntity
   8
LEVEL001
 100
AcDbPoint
  62
2
  10
 2635.0228162296
  20
 3650.3346598478
  30
0.0
   0
LINE
   5
276
 100
AcDbEntity
   8
LEVEL001
 370
13
 100
AcDbLine
   6
DASHDOT
  62
6
  10
 2706.2533639238
  20
 3741.9167925974
  30
0.0
  11
 2913.7922685354
  21
 4008.7525270982
  31
0.0
   0
LEADER
   5
277
 100
AcDbEntity
   8
LEVEL001
 370
13
   6
CONTINUOUS
  62
1
 100
AcDbLeader
   3
GMM001
  73
3
  74
1
  75
0
  40
 60.000000000000
  41
0.0
  76
2
  10
 2693.0999116336
  20
 3146.3127738564
  30
0.0
  10
 3116.0100896146
  20
 3210.0976739792
  30
0.0
  77
1
   0
CIRCLE
   5
278
 100
AcDbEntity
   8
LEVEL001
 370
13
 100
AcDbCircle
   6
CONTINUOUS
  62
1
  10
 3185.0228162296
  20
 3221.8127738572
  30
0.0
  40
 70.000000000000
   0
CIRCLE
   5
279
 100
AcDbEntity
   8
LEVEL001
 370
13
 100
AcDbCircle
   6
CONTINUOUS
  62
1
  10
 3325.0228162296
  20
 3221.8127738572
  30
0.0
  40
 70.000000000000
   0
LINE
   5
27A
 100
AcDbEntity
   8
LEVEL001
 370
13
 100
AcDbLine
   6
CONTINUOUS
  62
7
  10
 2946.8728162296
  20
 4216.3565455582
  30
0.0
  11
 2946.8728162296
  21
 4677.8346598478
  31
0.0
   0
LINE
   5
27B
 100
AcDbEntity
   8
LEVEL001
 370
13
 100
AcDbLine
   6
DASHDOT
  62
6
  10
 2985.0228162296
  20
 4950.3346598478
  30
0.0
  11
 2985.0228162296
  21
 4216.3565455582
  31
0.0
   0
LINE
   5
27C
 100
AcDbEntity
   8
LEVEL001
 370
13
 100
AcDbLine
   6
CONTINUOUS
  62
7
  10
 3023.1728162296
  20
 4677.8346598478
  30
0.0
  11
 3023.1728162296
  21
 4216.3565455582
  31
0.0
   0
LINE
   5
27D
 100
AcDbEntity
   8
LEVEL001
 370
13
 100
AcDbLine
   6
CONTINUOUS
  62
7
  10
 2596.8728162296
  20
 3109.3127738564
  30
0.0
  11
 2596.8728162296
  21
 900.33465984781
  31
0.0
   0
LINE
   5
27E
 100
AcDbEntity
   8
LEVEL001
 370
13
 100
AcDbLine
   6
CONTINUOUS
  62
7
  10
 2596.8728162296
  20
 900.33465984781
  30
0.0
  11
 2673.1728162296
  21
 900.33465984781
  31
0.0
   0
LINE
   5
27F
 100
AcDbEntity
   8
LEVEL001
 370
13
 100
AcDbLine
   6
CONTINUOUS
  62
7
  10
 2673.1728162296
  20
 900.33465984781
  30
0.0
  11
 2673.1728162296
  21
 3109.3127738564
  31
0.0
   0
LINE
   5
280
 100
AcDbEntity
   8
LEVEL001
 370
13
 100
AcDbLine
   6
DASHDOT
  62
6
  10
 2635.0228162296
  20
 3534.3127741374
  30
0.0
  11
 2635.0228162296
  21
 800.33465984781
  31
0.0
   0
LINE
   5
281
 100
AcDbEntity
   8
LEVEL001
 370
13
 100
AcDbLine
   6
CONTINUOUS
  62
7
  10
 1523.1728162296
  20
 3621.8127738572
  30
0.0
  11
 1523.1728162296
  21
 4302.0303610828
  31
0.0
   0
LINE
   5
282
 100
AcDbEntity
   8
LEVEL001
 370
13
 100
AcDbLine
   6
CONTINUOUS
  62
7
  10
 1446.8728162296
  20
 4302.0303490366
  30
0.0
  11
 1446.8728162296
  21
 3621.8127738572
  31
0.0
   0
ARC
   5
283
 100
AcDbEntity
   8
LEVEL001
 370
13
   6
CONTINUOUS
  62
7
 100
AcDbCircle
  10
 1415.0250573383
  20
 3601.8127738572
  30
0.0
  40
 20.000000000000
 100
AcDbArc
  50
 90.000000000000
  51
 180.00000000000
   0
LINE
   5
284
 100
AcDbEntity
   8
LEVEL001
 370
13
 100
AcDbLine
   6
CONTINUOUS
  62
7
  10
 1395.0250573383
  20
 3601.8127738572
  30
0.0
  11
 1395.0250573383
  21
 3041.8119891116
  31
0.0
   0
LINE
   5
285
 100
AcDbEntity
   8
LEVEL001
 370
13
 100
AcDbLine
   6
CONTINUOUS
  62
7
  10
 1555.0224414986
  20
 3621.8127738572
  30
0.0
  11
 1415.0250573383
  21
 3621.8127738572
  31
0.0
   0
ARC
   5
286
 100
AcDbEntity
   8
LEVEL001
 370
13
   6
CONTINUOUS
  62
7
 100
AcDbCircle
  10
 1555.0224414986
  20
 3601.8127738572
  30
0.0
  40
 20.000000000000
 100
AcDbArc
  50
0.0
  51
 90.000000000000
   0
LINE
   5
287
 100
AcDbEntity
   8
LEVEL001
 370
13
 100
AcDbLine
   6
CONTINUOUS
  62
7
  10
 1575.0224414986
  20
 3041.8119891116
  30
0.0
  11
 1575.0224414986
  21
 3601.8127738572
  31
0.0
   0
LINE
   5
288
 100
AcDbEntity
   8
LEVEL001
 370
13
 100
AcDbLine
   6
CONTINUOUS
  62
7
  10
 1415.0250573383
  20
 3021.8119891116
  30
0.0
  11
 1555.0224414986
  21
 3021.8119891116
  31
0.0
   0
ARC
   5
289
 100
AcDbEntity
   8
LEVEL001
 370
13
   6
CONTINUOUS
  62
7
 100
AcDbCircle
  10
 1555.0224414986
  20
 3041.8119891116
  30
0.0
  40
 20.000000000000
 100
AcDbArc
  50
 270.00000000000
  51
0.0
   0
ARC
   5
28A
 100
AcDbEntity
   8
LEVEL001
 370
13
   6
CONTINUOUS
  62
7
 100
AcDbCircle
  10
 1415.0250573383
  20
 3041.8119891116
  30
0.0
  40
 20.000000000000
 100
AcDbArc
  50
 180.00000000000
  51
 270.00000000000
   0
LINE
   5
28B
 100
AcDbEntity
   8
LEVEL001
 370
13
 100
AcDbLine
   6
CONTINUOUS
  62
7
  10
 1446.8728162296
  20
 3021.8119891116
  30
0.0
  11
 1446.8728162296
  21
 900.33465984781
  31
0.0
   0
LINE
   5
28C
 100
AcDbEntity
   8
LEVEL001
 370
13
 100
AcDbLine
   6
CONTINUOUS
  62
7
  10
 1446.8728162296
  20
 900.33465984781
  30
0.0
  11
 1523.1728162296
  21
 900.33465984781
  31
0.0
   0
LINE
   5
28D
 100
AcDbEntity
   8
LEVEL001
 370
13
 100
AcDbLine
   6
CONTINUOUS
  62
7
  10
 1523.1728162296
  20
 900.33465984781
  30
0.0
  11
 1523.1728162296
  21
 3021.8119891116
  31
0.0
   0
CIRCLE
   5
28E
 100
AcDbEntity
   8
LEVEL001
 370
13
 100
AcDbCircle
   6
CONTINUOUS
  62
1
  10
 1735.0228162296
  20
 3221.8127738572
  30
0.0
  40
 70.000000000000
   0
LEADER
   5
28F
 100
AcDbEntity
   8
LEVEL001
 370
13
   6
CONTINUOUS
  62
1
 100
AcDbLeader
   3
GMM001
  73
3
  74
1
  75
0
  40
 60.000000000000
  41
0.0
  76
2
  10
 1575.0225091185
  20
 3381.8130809690
  30
0.0
  10
 1685.5253415468
  20
 3271.3102485406
  30
0.0
  77
1
   0
MTEXT
   5
290
 100
AcDbEntity
   8
LEVEL001
 370
13
  62
1
 100
AcDbMText
  10
 1735.0228162296
  20
 3221.8127738572
  30
0.0
  40
 57.142857142858
  41
0.0
  71
5
  72
1
   1
\T1.000000;12
   7
GMM001
  44
 0.79999984000003
   0
MTEXT
   5
291
 100
AcDbEntity
   8
LEVEL001
 370
13
  62
1
 100
AcDbMText
  10
 3185.0228162296
  20
 3221.8127738572
  30
0.0
  40
 57.142857142858
  41
0.0
  71
5
  72
1
   1
\T1.000000;13
   7
GMM001
  44
 0.79999984000003
   0
MTEXT
   5
292
 100
AcDbEntity
   8
LEVEL001
 370
13
  62
1
 100
AcDbMText
  10
 3325.0228162296
  20
 3221.8127738572
  30
0.0
  40
 57.142857142858
  41
0.0
  71
5
  72
1
   1
\T1.000000;14
   7
GMM001
  44
 0.79999984000003
   0
MTEXT
   5
293
 100
AcDbEntity
   8
LEVEL001
 370
13
  62
1
 100
AcDbMText
  10
 4485.0228162296
  20
 5532.8346598478
  30
0.0
  40
 57.142857142858
  41
0.0
  71
5
  72
1
   1
\T1.000000;背　面　図
   7
GMM001
  44
 0.79999984000003
   0
MTEXT
   5
294
 100
AcDbEntity
   8
LEVEL001
 370
13
  62
1
 100
AcDbMText
  10
 2985.0228162296
  20
 5532.8346598478
  30
0.0
  40
 57.142857142858
  41
0.0
  71
5
  72
1
   1
\T1.000000;側　面　図
   7
GMM001
  44
 0.79999984000003
   0
MTEXT
   5
295
 100
AcDbEntity
   8
LEVEL001
 370
13
  62
1
 100
AcDbMText
  10
 1485.0228162296
  20
 5532.8346598478
  30
0.0
  40
 57.142857142858
  41
0.0
  71
5
  72
1
   1
\T1.000000;正　面　図
   7
GMM001
  44
 0.79999984000003
   0
MTEXT
   5
296
 100
AcDbEntity
   8
LEVEL001
 370
13
  62
1
 100
AcDbMText
  10
 5545.0228162296
  20
 3252.8346598478
  30
0.0
  40
 57.142857142858
  41
0.0
  71
4
  72
1
   1
\T1.000000;ステンレスミラー　＜Ｚタイプ＞
   7
GMM001
  44
 0.79999984000003
   0
MTEXT
   5
297
 100
AcDbEntity
   8
LEVEL001
 370
13
  62
1
 100
AcDbMText
  10
 6765.0228162296
  20
 2672.8346598478
  30
0.0
  40
 51.428571428572
  41
0.0
  71
4
  72
1
   1
\T1.000000;高耐食溶融めっき鋼板
   7
GMM004
  44
 0.79999984000003
   0
ARC
   5
298
 100
AcDbEntity
   8
LEVEL001
 370
13
   6
CONTINUOUS
  62
5
 100
AcDbCircle
  10
 1543.4234212713
  20
 3383.5973312230
  30
0.0
  40
 5.5826340442110
 100
AcDbArc
  50
 274.79665758005
  51
 36.910963374394
   0
LINE
   5
299
 100
AcDbEntity
   8
LEVEL001
 370
13
 100
AcDbLine
   6
CONTINUOUS
  62
5
  10
 1548.4620777624
  20
 3289.9458727392
  30
0.0
  11
 1533.1297417936
  21
 3300.0465804460
  31
0.0
   0
LINE
   5
29A
 100
AcDbEntity
   8
LEVEL001
 370
13
 100
AcDbLine
   6
CONTINUOUS
  62
5
  10
 1533.1297417936
  20
 3300.0465804460
  30
0.0
  11
 1525.2388118530
  21
 3290.5159410816
  31
0.0
   0
LINE
   5
29B
 100
AcDbEntity
   8
LEVEL001
 370
13
 100
AcDbLine
   6
CONTINUOUS
  62
5
  10
 1525.2388118530
  20
 3290.5159410816
  30
0.0
  11
 1506.6896180698
  21
 3290.5159410816
  31
0.0
   0
LINE
   5
29C
 100
AcDbEntity
   8
LEVEL001
 370
13
 100
AcDbLine
   6
CONTINUOUS
  62
5
  10
 1506.6896180698
  20
 3290.5159410816
  30
0.0
  11
 1506.6896180698
  21
 3335.4024143534
  31
0.0
   0
LINE
   5
29D
 100
AcDbEntity
   8
LEVEL001
 370
13
 100
AcDbLine
   6
CONTINUOUS
  62
5
  10
 1506.6896180698
  20
 3335.4024143534
  30
0.0
  11
 1540.2009696102
  21
 3335.4024143534
  31
0.0
   0
ARC
   5
29E
 100
AcDbEntity
   8
LEVEL001
 370
13
   6
CONTINUOUS
  62
5
 100
AcDbCircle
  10
 1545.0079673216
  20
 3284.7021655780
  30
0.0
  40
 6.2791196620726
 100
AcDbArc
  50
 269.99562647876
  51
 56.626490037651
   0
ARC
   5
29F
 100
AcDbEntity
   8
LEVEL001
 370
13
   6
CONTINUOUS
  62
5
 100
AcDbCircle
  10
 1548.7804136736
  20
 3178.2336479416
  30
0.0
  40
 4.7515310421130
 100
AcDbArc
  50
 274.70409570311
  51
 59.112293256555
   0
LINE
   5
2A0
 100
AcDbEntity
   8
LEVEL001
 370
13
 100
AcDbLine
   6
CONTINUOUS
  62
5
  10
 1551.2196460396
  20
 3182.3112934276
  30
0.0
  11
 1533.2856866132
  21
 3192.7644791512
  31
0.0
   0
LINE
   5
2A1
 100
AcDbEntity
   8
LEVEL001
 370
13
 100
AcDbLine
   6
CONTINUOUS
  62
5
  10
 1533.2856866132
  20
 3192.7644791512
  30
0.0
  11
 1526.7268489180
  21
 3184.0535419108
  31
0.0
   0
LINE
   5
2A2
 100
AcDbEntity
   8
LEVEL001
 370
13
 100
AcDbLine
   6
CONTINUOUS
  62
5
  10
 1526.7268489180
  20
 3184.0535419108
  30
0.0
  11
 1510.9779480202
  21
 3184.0535419108
  31
0.0
   0
LINE
   5
2A3
 100
AcDbEntity
   8
LEVEL001
 370
13
 100
AcDbLine
   6
CONTINUOUS
  62
5
  10
 1510.9779480202
  20
 3184.0535419108
  30
0.0
  11
 1520.0654721634
  21
 3192.2520890296
  31
0.0
   0
LINE
   5
2A4
 100
AcDbEntity
   8
LEVEL001
 370
13
 100
AcDbLine
   6
CONTINUOUS
  62
5
  10
 1520.0654721634
  20
 3192.2520890296
  30
0.0
  11
 1523.8572811324
  21
 3192.7644791512
  31
0.0
   0
LINE
   5
2A5
 100
AcDbEntity
   8
LEVEL001
 370
13
 100
AcDbLine
   6
CONTINUOUS
  62
5
  10
 1523.8572811324
  20
 3192.7644791512
  30
0.0
  11
 1525.4969905562
  21
 3195.1213516394
  31
0.0
   0
LINE
   5
2A6
 100
AcDbEntity
   8
LEVEL001
 370
13
 100
AcDbLine
   6
CONTINUOUS
  62
5
  10
 1525.4969905562
  20
 3195.1213516394
  30
0.0
  11
 1522.8325008895
  21
 3199.7331679084
  31
0.0
   0
LINE
   5
2A7
 100
AcDbEntity
   8
LEVEL001
 370
13
 100
AcDbLine
   6
CONTINUOUS
  62
5
  10
 1522.8325008895
  20
 3199.7331679084
  30
0.0
  11
 1539.3318290111
  21
 3199.7331679084
  31
0.0
   0
LINE
   5
2A8
 100
AcDbEntity
   8
LEVEL001
 370
13
 100
AcDbLine
   6
CONTINUOUS
  62
5
  10
 1542.5087087992
  20
 3208.9563426822
  30
0.0
  11
 1523.8572811324
  21
 3219.2042976992
  31
0.0
   0
LINE
   5
2A9
 100
AcDbEntity
   8
LEVEL001
 370
13
 100
AcDbLine
   6
CONTINUOUS
  62
5
  10
 1523.8572811324
  20
 3219.2042976992
  30
0.0
  11
 1517.7082944993
  21
 3209.6736583348
  31
0.0
   0
LINE
   5
2AA
 100
AcDbEntity
   8
LEVEL001
 370
13
 100
AcDbLine
   6
CONTINUOUS
  62
5
  10
 1517.7082944993
  20
 3209.6736583348
  30
0.0
  11
 1496.2898381063
  21
 3209.6736583348
  31
0.0
   0
LINE
   5
2AB
 100
AcDbEntity
   8
LEVEL001
 370
13
 100
AcDbLine
   6
CONTINUOUS
  62
5
  10
 1496.2898381063
  20
 3209.6736583348
  30
0.0
  11
 1496.2898381063
  21
 3216.0274179110
  31
0.0
   0
LINE
   5
2AC
 100
AcDbEntity
   8
LEVEL001
 370
13
 100
AcDbLine
   6
CONTINUOUS
  62
5
  10
 1496.2898381063
  20
 3216.0274179110
  30
0.0
  11
 1498.4144718321
  21
 3219.7253853300
  31
0.0
   0
LINE
   5
2AD
 100
AcDbEntity
   8
LEVEL001
 370
13
 100
AcDbLine
   6
CONTINUOUS
  62
5
  10
 1498.4144718321
  20
 3219.7253853300
  30
0.0
  11
 1497.5944645323
  21
 3221.4674812254
  31
0.0
   0
LINE
   5
2AE
 100
AcDbEntity
   8
LEVEL001
 370
13
 100
AcDbLine
   6
CONTINUOUS
  62
5
  10
 1497.5944645323
  20
 3221.4674812254
  30
0.0
  11
 1472.8218212276
  21
 3222.0738654846
  31
0.0
   0
LINE
   5
2AF
 100
AcDbEntity
   8
LEVEL001
 370
13
 100
AcDbLine
   6
CONTINUOUS
  62
5
  10
 1472.8218212276
  20
 3222.0738654846
  30
0.0
  11
 1472.8218212276
  21
 3209.6736583348
  31
0.0
   0
LINE
   5
2B0
 100
AcDbEntity
   8
LEVEL001
 370
13
 100
AcDbLine
   6
CONTINUOUS
  62
5
  10
 1472.8218212276
  20
 3209.6736583348
  30
0.0
  11
 1423.3595424283
  21
 3209.6736583348
  31
0.0
   0
LINE
   5
2B1
 100
AcDbEntity
   8
LEVEL001
 370
13
 100
AcDbLine
   6
CONTINUOUS
  62
5
  10
 1423.3595424283
  20
 3209.6736583348
  30
0.0
  11
 1427.8328088965
  21
 3199.7331679084
  31
0.0
   0
LINE
   5
2B2
 100
AcDbEntity
   8
LEVEL001
 370
13
 100
AcDbLine
   6
CONTINUOUS
  62
5
  10
 1427.8328088965
  20
 3199.7331679084
  30
0.0
  11
 1445.4597614962
  21
 3199.7331679084
  31
0.0
   0
LINE
   5
2B3
 100
AcDbEntity
   8
LEVEL001
 370
13
 100
AcDbLine
   6
CONTINUOUS
  62
5
  10
 1445.4597614962
  20
 3199.7331679084
  30
0.0
  11
 1455.4002519226
  21
 3184.0535419108
  31
0.0
   0
LINE
   5
2B4
 100
AcDbEntity
   8
LEVEL001
 370
13
 100
AcDbLine
   6
CONTINUOUS
  62
5
  10
 1455.4002519226
  20
 3184.0535419108
  30
0.0
  11
 1420.6849819611
  21
 3184.0535419108
  31
0.0
   0
LINE
   5
2B5
 100
AcDbEntity
   8
LEVEL001
 370
13
 100
AcDbLine
   6
CONTINUOUS
  62
5
  10
 1420.6849819611
  20
 3184.0535419108
  30
0.0
  11
 1425.5854945104
  21
 3173.4981223034
  31
0.0
   0
LINE
   5
2B6
 100
AcDbEntity
   8
LEVEL001
 370
13
 100
AcDbLine
   6
CONTINUOUS
  62
5
  10
 1425.5854945104
  20
 3173.4981223034
  30
0.0
  11
 1549.1700855538
  21
 3173.4981223034
  31
0.0
   0
ARC
   5
2B7
 100
AcDbEntity
   8
LEVEL001
 370
13
   6
CONTINUOUS
  62
5
 100
AcDbCircle
  10
 1541.7742294216
  20
 3101.7037322062
  30
0.0
  40
 8.9390233475260
 100
AcDbArc
  50
 229.60790187555
  51
 6.7933956221352
   0
ARC
   5
2B8
 100
AcDbEntity
   8
LEVEL001
 370
13
   6
CONTINUOUS
  62
5
 100
AcDbCircle
  10
 1526.4654879158
  20
 3090.6723966166
  30
0.0
  40
 27.037970213950
 100
AcDbArc
  50
 26.557897354809
  51
 98.092162593092
   0
ARC
   5
2B9
 100
AcDbEntity
   8
LEVEL001
 370
13
   6
CONTINUOUS
  62
5
 100
AcDbCircle
  10
 1433.9373981437
  20
 3086.4142032946
  30
0.0
  40
 10.212310248246
 100
AcDbArc
  50
 146.66668479793
  51
 331.70163256432
   0
ARC
   5
2BA
 100
AcDbEntity
   8
LEVEL001
 370
13
   6
CONTINUOUS
  62
5
 100
AcDbCircle
  10
 1539.7837875639
  20
 3340.4483747600
  30
0.0
  40
 5.0631766002424
 100
AcDbArc
  50
 274.72626205415
  51
 43.105625042959
   0
LINE
   5
2BB
 100
AcDbEntity
   8
LEVEL001
 370
13
 100
AcDbLine
   6
CONTINUOUS
  62
5
  10
 1543.4803884578
  20
 3343.9082734748
  30
0.0
  11
 1527.0832942199
  21
 3356.9232572178
  31
0.0
   0
LINE
   5
2BC
 100
AcDbEntity
   8
LEVEL001
 370
13
 100
AcDbLine
   6
CONTINUOUS
  62
5
  10
 1527.0832942199
  20
 3356.9232572178
  30
0.0
  11
 1519.4996762818
  21
 3347.4950043250
  31
0.0
   0
LINE
   5
2BD
 100
AcDbEntity
   8
LEVEL001
 370
13
 100
AcDbLine
   6
CONTINUOUS
  62
5
  10
 1519.4996762818
  20
 3347.4950043250
  30
0.0
  11
 1506.6896180698
  21
 3347.4950043250
  31
0.0
   0
LINE
   5
2BE
 100
AcDbEntity
   8
LEVEL001
 370
13
 100
AcDbLine
   6
CONTINUOUS
  62
5
  10
 1506.6896180698
  20
 3347.4950043250
  30
0.0
  11
 1506.6896180698
  21
 3378.0342490202
  31
0.0
   0
LINE
   5
2BF
 100
AcDbEntity
   8
LEVEL001
 370
13
 100
AcDbLine
   6
CONTINUOUS
  62
5
  10
 1506.6896180698
  20
 3378.0342490202
  30
0.0
  11
 1543.8902395198
  21
 3378.0342490202
  31
0.0
   0
LINE
   5
2C0
 100
AcDbEntity
   8
LEVEL001
 370
13
 100
AcDbLine
   6
CONTINUOUS
  62
5
  10
 1547.8871266077
  20
 3386.9501117916
  30
0.0
  11
 1534.0519829770
  21
 3399.0427017634
  31
0.0
   0
LINE
   5
2C1
 100
AcDbEntity
   8
LEVEL001
 370
13
 100
AcDbLine
   6
CONTINUOUS
  62
5
  10
 1534.0519829770
  20
 3399.0427017634
  30
0.0
  11
 1522.1644711243
  21
 3388.9996722774
  31
0.0
   0
LINE
   5
2C2
 100
AcDbEntity
   8
LEVEL001
 370
13
 100
AcDbLine
   6
CONTINUOUS
  62
5
  10
 1522.1644711243
  20
 3388.9996722774
  30
0.0
  11
 1506.6896180698
  21
 3388.9996722774
  31
0.0
   0
LINE
   5
2C3
 100
AcDbEntity
   8
LEVEL001
 370
13
 100
AcDbLine
   6
CONTINUOUS
  62
5
  10
 1506.6896180698
  20
 3388.9996722774
  30
0.0
  11
 1506.6896180698
  21
 3404.4742201562
  31
0.0
   0
LINE
   5
2C4
 100
AcDbEntity
   8
LEVEL001
 370
13
 100
AcDbLine
   6
CONTINUOUS
  62
5
  10
 1506.6896180698
  20
 3404.4742201562
  30
0.0
  11
 1510.2766540958
  21
 3406.3188551110
  31
0.0
   0
LINE
   5
2C5
 100
AcDbEntity
   8
LEVEL001
 370
13
 100
AcDbLine
   6
CONTINUOUS
  62
5
  10
 1510.2766540958
  20
 3406.3188551110
  30
0.0
  11
 1510.5839660983
  21
 3408.9833447776
  31
0.0
   0
LINE
   5
2C6
 100
AcDbEntity
   8
LEVEL001
 370
13
 100
AcDbLine
   6
CONTINUOUS
  62
5
  10
 1510.5839660983
  20
 3408.9833447776
  30
0.0
  11
 1481.6844308268
  21
 3413.4924693992
  31
0.0
   0
LINE
   5
2C7
 100
AcDbEntity
   8
LEVEL001
 370
13
 100
AcDbLine
   6
CONTINUOUS
  62
5
  10
 1481.6844308268
  20
 3413.4924693992
  30
0.0
  11
 1481.6844308268
  21
 3388.9996722774
  31
0.0
   0
LINE
   5
2C8
 100
AcDbEntity
   8
LEVEL001
 370
13
 100
AcDbLine
   6
CONTINUOUS
  62
5
  10
 1481.6844308268
  20
 3388.9996722774
  30
0.0
  11
 1452.2725054338
  21
 3388.9996722774
  31
0.0
   0
LINE
   5
2C9
 100
AcDbEntity
   8
LEVEL001
 370
13
 100
AcDbLine
   6
CONTINUOUS
  62
5
  10
 1452.2725054338
  20
 3388.9996722774
  30
0.0
  11
 1456.6792435837
  21
 3378.0342490202
  31
0.0
   0
LINE
   5
2CA
 100
AcDbEntity
   8
LEVEL001
 370
13
 100
AcDbLine
   6
CONTINUOUS
  62
5
  10
 1456.6792435837
  20
 3378.0342490202
  30
0.0
  11
 1481.6844308268
  21
 3378.0342490202
  31
0.0
   0
LINE
   5
2CB
 100
AcDbEntity
   8
LEVEL001
 370
13
 100
AcDbLine
   6
CONTINUOUS
  62
5
  10
 1481.6844308268
  20
 3378.0342490202
  30
0.0
  11
 1481.6844308268
  21
 3347.4950043250
  31
0.0
   0
LINE
   5
2CC
 100
AcDbEntity
   8
LEVEL001
 370
13
 100
AcDbLine
   6
CONTINUOUS
  62
5
  10
 1481.6844308268
  20
 3347.4950043250
  30
0.0
  11
 1453.9122148576
  21
 3347.4950043250
  31
0.0
   0
LINE
   5
2CD
 100
AcDbEntity
   8
LEVEL001
 370
13
 100
AcDbLine
   6
CONTINUOUS
  62
5
  10
 1453.9122148576
  20
 3347.4950043250
  30
0.0
  11
 1458.8313431289
  21
 3335.4024143534
  31
0.0
   0
LINE
   5
2CE
 100
AcDbEntity
   8
LEVEL001
 370
13
 100
AcDbLine
   6
CONTINUOUS
  62
5
  10
 1458.8313431289
  20
 3335.4024143534
  30
0.0
  11
 1481.6844308268
  21
 3335.4024143534
  31
0.0
   0
LINE
   5
2CF
 100
AcDbEntity
   8
LEVEL001
 370
13
 100
AcDbLine
   6
CONTINUOUS
  62
5
  10
 1481.6844308268
  20
 3335.4024143534
  30
0.0
  11
 1481.6844308268
  21
 3290.5159410816
  31
0.0
   0
LINE
   5
2D0
 100
AcDbEntity
   8
LEVEL001
 370
13
 100
AcDbLine
   6
CONTINUOUS
  62
5
  10
 1481.6844308268
  20
 3290.5159410816
  30
0.0
  11
 1449.1981647051
  21
 3290.5159410816
  31
0.0
   0
LINE
   5
2D1
 100
AcDbEntity
   8
LEVEL001
 370
13
 100
AcDbLine
   6
CONTINUOUS
  62
5
  10
 1449.1981647051
  20
 3290.5159410816
  30
0.0
  11
 1454.6296830979
  21
 3278.4230459342
  31
0.0
   0
LINE
   5
2D2
 100
AcDbEntity
   8
LEVEL001
 370
13
 100
AcDbLine
   6
CONTINUOUS
  62
5
  10
 1454.6296830979
  20
 3278.4230459342
  30
0.0
  11
 1545.0074880216
  21
 3278.4230459342
  31
0.0
   0
ARC
   5
2D3
 100
AcDbEntity
   8
LEVEL001
 370
13
   6
CONTINUOUS
  62
5
 100
AcDbCircle
  10
 1539.3392163043
  20
 3204.8893415332
  30
0.0
  40
 5.1561789168066
 100
AcDbArc
  50
 269.91791191256
  51
 52.070025543603
   0
LINE
   5
2D4
 100
AcDbEntity
   8
LEVEL001
 370
13
 100
AcDbLine
   6
CONTINUOUS
  62
5
  10
 1438.9326620813
  20
 3114.4691933986
  30
0.0
  11
 1438.4202719599
  21
 3109.3452921842
  31
0.0
   0
LINE
   5
2D5
 100
AcDbEntity
   8
LEVEL001
 370
13
 100
AcDbLine
   6
CONTINUOUS
  62
5
  10
 1438.4202719599
  20
 3109.3452921842
  30
0.0
  11
 1436.4729453578
  21
 3105.7584087460
  31
0.0
   0
LINE
   5
2D6
 100
AcDbEntity
   8
LEVEL001
 370
13
 100
AcDbLine
   6
CONTINUOUS
  62
5
  10
 1436.4729453578
  20
 3105.7584087460
  30
0.0
  11
 1425.4051356290
  21
 3092.0259567628
  31
0.0
   0
LINE
   5
2D7
 100
AcDbEntity
   8
LEVEL001
 370
13
 100
AcDbLine
   6
CONTINUOUS
  62
5
  10
 1485.0227485984
  20
 3571.8153711748
  30
0.0
  11
 1430.0227502375
  21
 3501.8153732610
  31
0.0
   0
LINE
   5
2D8
 100
AcDbEntity
   8
LEVEL001
 370
13
 100
AcDbLine
   6
CONTINUOUS
  62
5
  10
 1430.0227502375
  20
 3501.8153732610
  30
0.0
  11
 1460.0227493434
  21
 3501.8153732610
  31
0.0
   0
LINE
   5
2D9
 100
AcDbEntity
   8
LEVEL001
 370
13
 100
AcDbLine
   6
CONTINUOUS
  62
5
  10
 1460.0227493434
  20
 3501.8153732610
  30
0.0
  11
 1460.0227493434
  21
 3471.8153741550
  31
0.0
   0
LINE
   5
2DA
 100
AcDbEntity
   8
LEVEL001
 370
13
 100
AcDbLine
   6
CONTINUOUS
  62
5
  10
 1460.0227493434
  20
 3471.8153741550
  30
0.0
  11
 1510.0227478533
  21
 3471.8153741550
  31
0.0
   0
LINE
   5
2DB
 100
AcDbEntity
   8
LEVEL001
 370
13
 100
AcDbLine
   6
CONTINUOUS
  62
5
  10
 1510.0227478533
  20
 3471.8153741550
  30
0.0
  11
 1510.0227478533
  21
 3501.8153732610
  31
0.0
   0
LINE
   5
2DC
 100
AcDbEntity
   8
LEVEL001
 370
13
 100
AcDbLine
   6
CONTINUOUS
  62
5
  10
 1510.0227478533
  20
 3501.8153732610
  30
0.0
  11
 1540.0227469593
  21
 3501.8153732610
  31
0.0
   0
LINE
   5
2DD
 100
AcDbEntity
   8
LEVEL001
 370
13
 100
AcDbLine
   6
CONTINUOUS
  62
5
  10
 1540.0227469593
  20
 3501.8153732610
  30
0.0
  11
 1485.0227485984
  21
 3571.8153711748
  31
0.0
   0
LINE
   5
2DE
 100
AcDbEntity
   8
LEVEL001
 370
13
 100
AcDbLine
   6
CONTINUOUS
  62
5
  10
 1415.3798063380
  20
 3405.8064649894
  30
0.0
  11
 1430.6489709220
  21
 3403.5518263848
  31
0.0
   0
ARC
   5
2DF
 100
AcDbEntity
   8
LEVEL001
 370
13
   6
CONTINUOUS
  62
5
 100
AcDbCircle
  10
 1429.2662590858
  20
 3383.0186204322
  30
0.0
  40
 20.579709393390
 100
AcDbArc
  50
 10.432218603620
  51
 86.147502468978
   0
ARC
   5
2E0
 100
AcDbEntity
   8
LEVEL001
 370
13
   6
CONTINUOUS
  62
5
 100
AcDbCircle
  10
 1435.6219209904
  20
 3386.4429757462
  30
0.0
  40
 13.887146297480
 100
AcDbArc
  50
 284.73811645763
  51
 1.2463330418676
   0
LINE
   5
2E1
 100
AcDbEntity
   8
LEVEL001
 370
13
 100
AcDbLine
   6
CONTINUOUS
  62
5
  10
 1439.1548300435
  20
 3373.0127342774
  30
0.0
  11
 1415.3798063380
  21
 3405.8064649894
  31
0.0
   0
ARC
   5
2E2
 100
AcDbEntity
   8
LEVEL001
 370
13
   6
CONTINUOUS
  62
5
 100
AcDbCircle
  10
 1422.9270163247
  20
 3346.2014665458
  30
0.0
  40
 20.228108756896
 100
AcDbArc
  50
 1.0517504590305
  51
 78.795792274237
   0
ARC
   5
2E3
 100
AcDbEntity
   8
LEVEL001
 370
13
   6
CONTINUOUS
  62
5
 100
AcDbCircle
  10
 1428.1834468302
  20
 3348.3512524454
  30
0.0
  40
 15.073557642890
 100
AcDbArc
  50
 288.65956808359
  51
 353.22403827745
   0
LINE
   5
2E4
 100
AcDbEntity
   8
LEVEL001
 370
13
 100
AcDbLine
   6
CONTINUOUS
  62
5
  10
 1417.7366788263
  20
 3320.0302529462
  30
0.0
  11
 1424.7053675835
  21
 3281.1900746604
  31
0.0
   0
ARC
   5
2E5
 100
AcDbEntity
   8
LEVEL001
 370
13
   6
CONTINUOUS
  62
5
 100
AcDbCircle
  10
 1434.6877849051
  20
 3284.8220198470
  30
0.0
  40
 10.622602384609
 100
AcDbArc
  50
 199.99311911334
  51
 1.9679733410707
   0
LINE
   5
2E6
 100
AcDbEntity
   8
LEVEL001
 370
13
 100
AcDbLine
   6
CONTINUOUS
  62
5
  10
 1445.3041218524
  20
 3285.1868091604
  30
0.0
  11
 1442.1269368885
  21
 3302.3010664628
  31
0.0
   0
LINE
   5
2E7
 100
AcDbEntity
   8
LEVEL001
 370
13
 100
AcDbLine
   6
CONTINUOUS
  62
5
  10
 1442.1269368885
  20
 3302.3010664628
  30
0.0
  11
 1454.4246049790
  21
 3361.7398464298
  31
0.0
   0
LINE
   5
2E8
 100
AcDbEntity
   8
LEVEL001
 370
13
 100
AcDbLine
   6
CONTINUOUS
  62
5
  10
 1454.4246049790
  20
 3361.7398464298
  30
0.0
  11
 1431.5715172812
  21
 3311.8318584152
  31
0.0
   0
LINE
   5
2E9
 100
AcDbEntity
   8
LEVEL001
 370
13
 100
AcDbLine
   6
CONTINUOUS
  62
5
  10
 1431.5715172812
  20
 3311.8318584152
  30
0.0
  11
 1417.7366788263
  21
 3320.0302529462
  31
0.0
   0
ARC
   5
2EA
 100
AcDbEntity
   8
LEVEL001
 370
13
   6
CONTINUOUS
  62
5
 100
AcDbCircle
  10
 1455.6210904760
  20
 3177.8765892906
  30
0.0
  40
 22.293228438698
 100
AcDbArc
  50
 35.161132790332
  51
 78.641284698045
   0
ARC
   5
2EB
 100
AcDbEntity
   8
LEVEL001
 370
13
   6
CONTINUOUS
  62
5
 100
AcDbCircle
  10
 1467.5011314713
  20
 3188.9333012260
  30
0.0
  40
 6.5907971086860
 100
AcDbArc
  50
 312.23536417695
  51
 15.681870099121
   0
LINE
   5
2EC
 100
AcDbEntity
   8
LEVEL001
 370
13
 100
AcDbLine
   6
CONTINUOUS
  62
5
  10
 1471.9313183245
  20
 3184.0535419108
  30
0.0
  11
 1490.8583197135
  21
 3184.0535419108
  31
0.0
   0
LINE
   5
2ED
 100
AcDbEntity
   8
LEVEL001
 370
13
 100
AcDbLine
   6
CONTINUOUS
  62
5
  10
 1490.8583197135
  20
 3184.0535419108
  30
0.0
  11
 1501.3115054372
  21
 3199.7331679084
  31
0.0
   0
LINE
   5
2EE
 100
AcDbEntity
   8
LEVEL001
 370
13
 100
AcDbLine
   6
CONTINUOUS
  62
5
  10
 1501.3115054372
  20
 3199.7331679084
  30
0.0
  11
 1460.0117630156
  21
 3199.7331679084
  31
0.0
   0
ARC
   5
2EF
 100
AcDbEntity
   8
LEVEL001
 370
13
   6
CONTINUOUS
  62
5
 100
AcDbCircle
  10
 1444.9594833640
  20
 3149.4676055826
  30
0.0
  40
 31.206602120202
 100
AcDbArc
  50
 246.86700487446
  51
 289.54634462667
   0
LINE
   5
2F0
 100
AcDbEntity
   8
LEVEL001
 370
13
 100
AcDbLine
   6
CONTINUOUS
  62
5
  10
 1455.4002519226
  20
 3149.4151762438
  30
0.0
  11
 1455.4002519226
  21
 3155.8713222916
  31
0.0
   0
LINE
   5
2F1
 100
AcDbEntity
   8
LEVEL001
 370
13
 100
AcDbLine
   6
CONTINUOUS
  62
5
  10
 1455.4002519226
  20
 3155.8713222916
  30
0.0
  11
 1511.9694641039
  21
 3155.8713222916
  31
0.0
   0
LINE
   5
2F2
 100
AcDbEntity
   8
LEVEL001
 370
13
 100
AcDbLine
   6
CONTINUOUS
  62
5
  10
 1511.9694641039
  20
 3155.8713222916
  30
0.0
  11
 1511.9694641039
  21
 3149.4151762438
  31
0.0
   0
LINE
   5
2F3
 100
AcDbEntity
   8
LEVEL001
 370
13
 100
AcDbLine
   6
CONTINUOUS
  62
5
  10
 1511.9694641039
  20
 3149.4151762438
  30
0.0
  11
 1455.4002519226
  21
 3149.4151762438
  31
0.0
   0
LINE
   5
2F4
 100
AcDbEntity
   8
LEVEL001
 370
13
 100
AcDbLine
   6
CONTINUOUS
  62
5
  10
 1538.5121268871
  20
 3162.8400110488
  30
0.0
  11
 1518.5283017991
  21
 3171.8584128796
  31
0.0
   0
LINE
   5
2F5
 100
AcDbEntity
   8
LEVEL001
 370
13
 100
AcDbLine
   6
CONTINUOUS
  62
5
  10
 1518.5283017991
  20
 3171.8584128796
  30
0.0
  11
 1511.9694641039
  21
 3164.1722558822
  31
0.0
   0
LINE
   5
2F6
 100
AcDbEntity
   8
LEVEL001
 370
13
 100
AcDbLine
   6
CONTINUOUS
  62
5
  10
 1511.9694641039
  20
 3164.1722558822
  30
0.0
  11
 1455.4002519226
  21
 3164.1722558822
  31
0.0
   0
LINE
   5
2F7
 100
AcDbEntity
   8
LEVEL001
 370
13
 100
AcDbLine
   6
CONTINUOUS
  62
5
  10
 1455.4002519226
  20
 3164.1722558822
  30
0.0
  11
 1455.4002519226
  21
 3165.9145043654
  31
0.0
   0
LINE
   5
2F8
 100
AcDbEntity
   8
LEVEL001
 370
13
 100
AcDbLine
   6
CONTINUOUS
  62
5
  10
 1455.4002519226
  20
 3165.9145043654
  30
0.0
  11
 1432.7522423437
  21
 3170.5260154584
  31
0.0
   0
LINE
   5
2F9
 100
AcDbEntity
   8
LEVEL001
 370
13
 100
AcDbLine
   6
CONTINUOUS
  62
5
  10
 1432.7522423437
  20
 3170.5260154584
  30
0.0
  11
 1432.6994469351
  21
 3120.7701575662
  31
0.0
   0
LINE
   5
2FA
 100
AcDbEntity
   8
LEVEL001
 370
13
 100
AcDbLine
   6
CONTINUOUS
  62
5
  10
 1455.4002519226
  20
 3133.4280856558
  30
0.0
  11
 1455.4002519226
  21
 3140.2907258322
  31
0.0
   0
LINE
   5
2FB
 100
AcDbEntity
   8
LEVEL001
 370
13
 100
AcDbLine
   6
CONTINUOUS
  62
5
  10
 1455.4002519226
  20
 3140.2907258322
  30
0.0
  11
 1511.9694641039
  21
 3140.2907258322
  31
0.0
   0
LINE
   5
2FC
 100
AcDbEntity
   8
LEVEL001
 370
13
 100
AcDbLine
   6
CONTINUOUS
  62
5
  10
 1511.9694641039
  20
 3140.2907258322
  30
0.0
  11
 1511.9694641039
  21
 3133.4280856558
  31
0.0
   0
LINE
   5
2FD
 100
AcDbEntity
   8
LEVEL001
 370
13
 100
AcDbLine
   6
CONTINUOUS
  62
5
  10
 1511.9694641039
  20
 3133.4280856558
  30
0.0
  11
 1455.4002519226
  21
 3133.4280856558
  31
0.0
   0
ARC
   5
2FE
 100
AcDbEntity
   8
LEVEL001
 370
13
   6
CONTINUOUS
  62
5
 100
AcDbCircle
  10
 1535.0131513625
  20
 3160.2279182440
  30
0.0
  40
 4.3664469013676
 100
AcDbArc
  50
 266.15058922022
  51
 36.742470507466
   0
LINE
   5
2FF
 100
AcDbEntity
   8
LEVEL001
 370
13
 100
AcDbLine
   6
CONTINUOUS
  62
5
  10
 1455.4002519226
  20
 3120.0594031930
  30
0.0
  11
 1455.4002519226
  21
 3124.8198400628
  31
0.0
   0
LINE
   5
300
 100
AcDbEntity
   8
LEVEL001
 370
13
 100
AcDbLine
   6
CONTINUOUS
  62
5
  10
 1455.4002519226
  20
 3124.8198400628
  30
0.0
  11
 1511.9694641039
  21
 3124.8198400628
  31
0.0
   0
LINE
   5
301
 100
AcDbEntity
   8
LEVEL001
 370
13
 100
AcDbLine
   6
CONTINUOUS
  62
5
  10
 1511.9694641039
  20
 3124.8198400628
  30
0.0
  11
 1511.9694641039
  21
 3119.9007117914
  31
0.0
   0
LINE
   5
302
 100
AcDbEntity
   8
LEVEL001
 370
13
 100
AcDbLine
   6
CONTINUOUS
  62
5
  10
 1511.9694641039
  20
 3119.9007117914
  30
0.0
  11
 1528.8789484632
  21
 3119.9007117914
  31
0.0
   0
LINE
   5
303
 100
AcDbEntity
   8
LEVEL001
 370
13
 100
AcDbLine
   6
CONTINUOUS
  62
5
  10
 1528.8789484632
  20
 3119.9007117914
  30
0.0
  11
 1532.5679131970
  21
 3121.9502722772
  31
0.0
   0
LINE
   5
304
 100
AcDbEntity
   8
LEVEL001
 370
13
 100
AcDbLine
   6
CONTINUOUS
  62
5
  10
 1532.5679131970
  20
 3121.9502722772
  30
0.0
  11
 1534.7200127423
  21
 3126.3570104272
  31
0.0
   0
LINE
   5
305
 100
AcDbEntity
   8
LEVEL001
 370
13
 100
AcDbLine
   6
CONTINUOUS
  62
5
  10
 1534.7200127423
  20
 3126.3570104272
  30
0.0
  11
 1534.7132988753
  21
 3155.8714748796
  31
0.0
   0
ARC
   5
306
 100
AcDbEntity
   8
LEVEL001
 370
13
   6
CONTINUOUS
  62
5
 100
AcDbCircle
  10
 1419.9493139635
  20
 3095.4719901900
  30
0.0
  40
 26.856307183018
 100
AcDbArc
  50
 328.83298190802
  51
 45.020901175864
   0
LINE
   5
307
 100
AcDbEntity
   8
LEVEL001
 370
13
 100
AcDbLine
   6
CONTINUOUS
  62
5
  10
 1522.5569271673
  20
 3117.2362221248
  30
0.0
  11
 1535.9816093844
  21
 3094.8955245484
  31
0.0
   0
ARC
   5
308
 100
AcDbEntity
   8
LEVEL001
 370
13
   6
CONTINUOUS
  62
5
 100
AcDbCircle
  10
 1528.2882465218
  20
 3084.7198538272
  30
0.0
  40
 8.7884995702356
 100
AcDbArc
  50
 268.04310640370
  51
 95.976315924698
   0
ARC
   5
309
 100
AcDbEntity
   8
LEVEL001
 370
13
   6
CONTINUOUS
  62
5
 100
AcDbCircle
  10
 1461.0873055525
  20
 3082.5460708948
  30
0.0
  40
 6.6095999893666
 100
AcDbArc
  50
 179.99949488494
  51
 269.90651577928
   0
LINE
   5
30A
 100
AcDbEntity
   8
LEVEL001
 370
13
 100
AcDbLine
   6
CONTINUOUS
  62
5
  10
 1461.0765212847
  20
 3075.9364797032
  30
0.0
  11
 1527.9881403843
  21
 3075.9364797032
  31
0.0
   0
LINE
   5
30B
 100
AcDbEntity
   8
LEVEL001
 370
13
 100
AcDbLine
   6
CONTINUOUS
  62
5
  10
 1527.3732112034
  20
 3093.4605880676
  30
0.0
  11
 1519.9946713843
  21
 3111.9072427914
  31
0.0
   0
LINE
   5
30C
 100
AcDbEntity
   8
LEVEL001
 370
13
 100
AcDbLine
   6
CONTINUOUS
  62
5
  10
 1519.9946713843
  20
 3111.9072427914
  30
0.0
  11
 1519.7895932654
  21
 3101.6591351866
  31
0.0
   0
LINE
   5
30D
 100
AcDbEntity
   8
LEVEL001
 370
13
 100
AcDbLine
   6
CONTINUOUS
  62
5
  10
 1519.7895932654
  20
 3101.6591351866
  30
0.0
  11
 1517.0881773303
  21
 3093.4605880676
  31
0.0
   0
LINE
   5
30E
 100
AcDbEntity
   8
LEVEL001
 370
13
 100
AcDbLine
   6
CONTINUOUS
  62
5
  10
 1517.0881773303
  20
 3093.4605880676
  30
0.0
  11
 1477.2285593775
  21
 3093.4605880676
  31
0.0
   0
LINE
   5
30F
 100
AcDbEntity
   8
LEVEL001
 370
13
 100
AcDbLine
   6
CONTINUOUS
  62
5
  10
 1477.2285593775
  20
 3093.4605880676
  30
0.0
  11
 1477.2285593775
  21
 3109.3452921842
  31
0.0
   0
LINE
   5
310
 100
AcDbEntity
   8
LEVEL001
 370
13
 100
AcDbLine
   6
CONTINUOUS
  62
5
  10
 1477.2285593775
  20
 3109.3452921842
  30
0.0
  11
 1479.2781198633
  21
 3112.3170938534
  31
0.0
   0
LINE
   5
311
 100
AcDbEntity
   8
LEVEL001
 370
13
 100
AcDbLine
   6
CONTINUOUS
  62
5
  10
 1479.2781198633
  20
 3112.3170938534
  30
0.0
  11
 1477.4336374964
  21
 3114.4691933986
  31
0.0
   0
LINE
   5
312
 100
AcDbEntity
   8
LEVEL001
 370
13
 100
AcDbLine
   6
CONTINUOUS
  62
5
  10
 1477.4336374964
  20
 3114.4691933986
  30
0.0
  11
 1454.4777055634
  21
 3117.5435341272
  31
0.0
   0
LINE
   5
313
 100
AcDbEntity
   8
LEVEL001
 370
13
 100
AcDbLine
   6
CONTINUOUS
  62
5
  10
 1454.4777055634
  20
 3117.5435341272
  30
0.0
  11
 1454.4777055634
  21
 3082.5461291644
  31
0.0
   0
LINE
   5
314
 100
AcDbEntity
   8
LEVEL001
 370
13
 100
AcDbLine
   6
CONTINUOUS
  62
5
  10
 1497.3338444229
  20
 3097.7647871582
  30
0.0
  11
 1483.1916939654
  21
 3119.0808570796
  31
0.0
   0
ARC
   5
315
 100
AcDbEntity
   8
LEVEL001
 370
13
   6
CONTINUOUS
  62
5
 100
AcDbCircle
  10
 1502.2141953797
  20
 3105.4842720368
  30
0.0
  40
 9.1328129430768
 100
AcDbArc
  50
 237.69843463472
  51
 18.768732377672
   0
ARC
   5
316
 100
AcDbEntity
   8
LEVEL001
 370
13
   6
CONTINUOUS
  62
5
 100
AcDbCircle
  10
 1484.6789201152
  20
 3081.1810190716
  30
0.0
  40
 37.929006876678
 100
AcDbArc
  50
 46.131549416340
  51
 92.247188603538
   0
LINE
   5
317
 100
AcDbEntity
   8
LEVEL001
 370
13
 100
AcDbLine
   6
CONTINUOUS
  62
5
  10
 1411.9503589105
  20
 3368.3731944778
  30
0.0
  11
 1426.8574671287
  21
 3366.0440455202
  31
0.0
   0
LINE
   5
318
 100
AcDbEntity
   8
LEVEL001
 370
13
 100
AcDbLine
   6
CONTINUOUS
  62
5
  10
 1433.0061485861
  20
 3334.0700169320
  30
0.0
  11
 1411.9503589105
  21
 3366.3236117522
  31
0.0
   0
LINE
   5
319
 100
AcDbEntity
   8
LEVEL001
 370
13
 100
AcDbLine
   6
CONTINUOUS
  62
5
  10
 1735.0228162296
  20
 900.33465984781
  30
0.0
  11
 1685.0228162296
  21
 800.33465984781
  31
0.0
   0
LINE
   5
31A
 100
AcDbEntity
   8
LEVEL001
 370
13
 100
AcDbLine
   6
CONTINUOUS
  62
5
  10
 1685.0228162296
  20
 900.33465984781
  30
0.0
  11
 1725.0228162296
  21
 880.33465984781
  31
0.0
   0
LINE
   5
31B
 100
AcDbEntity
   8
LEVEL001
 370
13
 100
AcDbLine
   6
CONTINUOUS
  62
5
  10
 1685.0228162296
  20
 900.33465984781
  30
0.0
  11
 1635.0228162296
  21
 800.33465984781
  31
0.0
   0
LINE
   5
31C
 100
AcDbEntity
   8
LEVEL001
 370
13
 100
AcDbLine
   6
CONTINUOUS
  62
5
  10
 1635.0228162296
  20
 900.33465984781
  30
0.0
  11
 1675.0228162296
  21
 880.33465984781
  31
0.0
   0
LINE
   5
31D
 100
AcDbEntity
   8
LEVEL001
 370
13
 100
AcDbLine
   6
CONTINUOUS
  62
5
  10
 1635.0228162296
  20
 900.33465984781
  30
0.0
  11
 1585.0228162296
  21
 800.33465984781
  31
0.0
   0
LINE
   5
31E
 100
AcDbEntity
   8
LEVEL001
 370
13
 100
AcDbLine
   6
CONTINUOUS
  62
5
  10
 1585.0228162296
  20
 900.33465984781
  30
0.0
  11
 1625.0228162296
  21
 880.33465984781
  31
0.0
   0
LINE
   5
31F
 100
AcDbEntity
   8
LEVEL001
 370
13
 100
AcDbLine
   6
CONTINUOUS
  62
5
  10
 1735.0228162296
  20
 800.33465984781
  30
0.0
  11
 1695.0228162296
  21
 820.33465984781
  31
0.0
   0
LINE
   5
320
 100
AcDbEntity
   8
LEVEL001
 370
13
 100
AcDbLine
   6
CONTINUOUS
  62
5
  10
 1685.0228162296
  20
 800.33465984781
  30
0.0
  11
 1645.0228162296
  21
 820.33465984781
  31
0.0
   0
LINE
   5
321
 100
AcDbEntity
   8
LEVEL001
 370
13
 100
AcDbLine
   6
CONTINUOUS
  62
5
  10
 1635.0228162296
  20
 800.33465984781
  30
0.0
  11
 1595.0228162296
  21
 820.33465984781
  31
0.0
   0
LINE
   5
322
 100
AcDbEntity
   8
LEVEL001
 370
13
 100
AcDbLine
   6
CONTINUOUS
  62
5
  10
 1235.0228162296
  20
 800.33465984781
  30
0.0
  11
 1735.0228162296
  21
 800.33465984781
  31
0.0
   0
LINE
   5
323
 100
AcDbEntity
   8
LEVEL001
 370
13
 100
AcDbLine
   6
CONTINUOUS
  62
5
  10
 1735.0228162296
  20
 800.33465984781
  30
0.0
  11
 1735.0228162296
  21
 900.33465984781
  31
0.0
   0
LINE
   5
324
 100
AcDbEntity
   8
LEVEL001
 370
13
 100
AcDbLine
   6
CONTINUOUS
  62
5
  10
 1735.0228162296
  20
 900.33465984781
  30
0.0
  11
 1235.0228162296
  21
 900.33465984781
  31
0.0
   0
LINE
   5
325
 100
AcDbEntity
   8
LEVEL001
 370
13
 100
AcDbLine
   6
CONTINUOUS
  62
5
  10
 1735.0228162296
  20
 1623.8399989071
  30
0.0
  11
 1523.1728162296
  21
 1411.9899989071
  31
0.0
   0
LINE
   5
326
 100
AcDbEntity
   8
LEVEL001
 370
13
 100
AcDbLine
   6
CONTINUOUS
  62
5
  10
 1523.1728162296
  20
 1376.6346598478
  30
0.0
  11
 1735.0228162296
  21
 1588.4846598478
  31
0.0
   0
LINE
   5
327
 100
AcDbEntity
   8
LEVEL001
 370
13
 100
AcDbLine
   6
CONTINUOUS
  62
5
  10
 1735.0228162296
  20
 1553.1293207885
  30
0.0
  11
 1523.1728162296
  21
 1341.2793207885
  31
0.0
   0
LINE
   5
328
 100
AcDbEntity
   8
LEVEL001
 370
13
 100
AcDbLine
   6
CONTINUOUS
  62
5
  10
 1235.0228162296
  20
 900.33465984781
  30
0.0
  11
 1735.0228162296
  21
 900.33465984781
  31
0.0
   0
LINE
   5
329
 100
AcDbEntity
   8
LEVEL001
 370
13
 100
AcDbLine
   6
CONTINUOUS
  62
5
  10
 1735.0228162296
  20
 900.33465984781
  30
0.0
  11
 1735.0228162296
  21
 1800.3346598478
  31
0.0
   0
LINE
   5
32A
 100
AcDbEntity
   8
LEVEL001
 370
13
 100
AcDbLine
   6
CONTINUOUS
  62
5
  10
 1795.7030110763
  20
 1800.3346598478
  30
0.0
  11
 1743.2030110763
  21
 1747.8346598478
  31
0.0
   0
LINE
   5
32B
 100
AcDbEntity
   8
LEVEL001
 370
13
 100
AcDbLine
   6
CONTINUOUS
  62
5
  10
 1759.1129136523
  20
 1747.8346598478
  30
0.0
  11
 1811.6129136523
  21
 1800.3346598478
  31
0.0
   0
LINE
   5
32C
 100
AcDbEntity
   8
LEVEL001
 370
13
 100
AcDbLine
   6
CONTINUOUS
  62
5
  10
 1827.5228162300
  20
 1800.3346598478
  30
0.0
  11
 1775.0228162300
  21
 1747.8346598478
  31
0.0
   0
LINE
   5
32D
 100
AcDbEntity
   8
LEVEL001
 370
13
 100
AcDbLine
   6
CONTINUOUS
  62
5
  10
 1790.9327188060
  20
 1747.8346598478
  30
0.0
  11
 1843.4327188060
  21
 1800.3346598478
  31
0.0
   0
LINE
   5
32E
 100
AcDbEntity
   8
LEVEL001
 370
13
 100
AcDbLine
   6
CONTINUOUS
  62
5
  10
 1848.2030110766
  20
 1747.8346598478
  30
0.0
  11
 1819.5678649413
  21
 1776.4698059831
  31
0.0
   0
LINE
   5
32F
 100
AcDbEntity
   8
LEVEL001
 370
13
 100
AcDbLine
   6
CONTINUOUS
  62
5
  10
 1827.5228162295
  20
 1784.4247572713
  30
0.0
  11
 1864.1129136530
  21
 1747.8346598478
  31
0.0
   0
LINE
   5
330
 100
AcDbEntity
   8
LEVEL001
 370
13
 100
AcDbLine
   6
CONTINUOUS
  62
5
  10
 1880.0228162294
  20
 1747.8346598478
  30
0.0
  11
 1835.4777675177
  21
 1792.3797085595
  31
0.0
   0
LINE
   5
331
 100
AcDbEntity
   8
LEVEL001
 370
13
 100
AcDbLine
   6
CONTINUOUS
  62
5
  10
 1843.4327188060
  20
 1800.3346598478
  30
0.0
  11
 1895.9327188062
  21
 1747.8346598478
  31
0.0
   0
LINE
   5
332
 100
AcDbEntity
   8
LEVEL001
 370
13
 100
AcDbLine
   6
CONTINUOUS
  62
5
  10
 1895.9327188062
  20
 1747.8346598478
  30
0.0
  11
 1948.4327188062
  21
 1800.3346598478
  31
0.0
   0
LINE
   5
333
 100
AcDbEntity
   8
LEVEL001
 370
13
 100
AcDbLine
   6
CONTINUOUS
  62
5
  10
 1900.7030110765
  20
 1800.3346598478
  30
0.0
  11
 1872.0678649413
  21
 1771.6995137126
  31
0.0
   0
LINE
   5
334
 100
AcDbEntity
   8
LEVEL001
 370
13
 100
AcDbLine
   6
CONTINUOUS
  62
5
  10
 1880.0228162293
  20
 1763.7445624246
  30
0.0
  11
 1916.6129136526
  21
 1800.3346598478
  31
0.0
   0
LINE
   5
335
 100
AcDbEntity
   8
LEVEL001
 370
13
 100
AcDbLine
   6
CONTINUOUS
  62
5
  10
 1932.5228162302
  20
 1800.3346598478
  30
0.0
  11
 1887.9777675181
  21
 1755.7896111358
  31
0.0
   0
LINE
   5
336
 100
AcDbEntity
   8
LEVEL001
 370
13
 100
AcDbLine
   6
CONTINUOUS
  62
5
  10
 1953.2030110768
  20
 1747.8346598478
  30
0.0
  11
 1924.5678649414
  21
 1776.4698059831
  31
0.0
   0
LINE
   5
337
 100
AcDbEntity
   8
LEVEL001
 370
13
 100
AcDbLine
   6
CONTINUOUS
  62
5
  10
 1932.5228162296
  20
 1784.4247572713
  30
0.0
  11
 1969.1129136532
  21
 1747.8346598478
  31
0.0
   0
LINE
   5
338
 100
AcDbEntity
   8
LEVEL001
 370
13
 100
AcDbLine
   6
CONTINUOUS
  62
5
  10
 1985.0228162296
  20
 1747.8346598478
  30
0.0
  11
 1940.4777675178
  21
 1792.3797085595
  31
0.0
   0
LINE
   5
339
 100
AcDbEntity
   8
LEVEL001
 370
13
 100
AcDbLine
   6
CONTINUOUS
  62
5
  10
 1948.4327188062
  20
 1800.3346598478
  30
0.0
  11
 1985.0228162296
  21
 1763.7445624245
  31
0.0
   0
LINE
   5
33A
 100
AcDbEntity
   8
LEVEL001
 370
13
 100
AcDbLine
   6
CONTINUOUS
  62
5
  10
 1523.1728162296
  20
 1800.3346598478
  30
0.0
  11
 1985.0228162296
  21
 1800.3346598478
  31
0.0
   0
LINE
   5
33B
 100
AcDbEntity
   8
LEVEL001
 370
13
 100
AcDbLine
   6
CONTINUOUS
  62
5
  10
 1385.0228162296
  20
 900.33465984781
  30
0.0
  11
 1335.0228162296
  21
 800.33465984781
  31
0.0
   0
LINE
   5
33C
 100
AcDbEntity
   8
LEVEL001
 370
13
 100
AcDbLine
   6
CONTINUOUS
  62
5
  10
 1335.0228162296
  20
 900.33465984781
  30
0.0
  11
 1375.0228162296
  21
 880.33465984781
  31
0.0
   0
LINE
   5
33D
 100
AcDbEntity
   8
LEVEL001
 370
13
 100
AcDbLine
   6
CONTINUOUS
  62
5
  10
 1335.0228162296
  20
 900.33465984781
  30
0.0
  11
 1285.0228162296
  21
 800.33465984781
  31
0.0
   0
LINE
   5
33E
 100
AcDbEntity
   8
LEVEL001
 370
13
 100
AcDbLine
   6
CONTINUOUS
  62
5
  10
 1285.0228162296
  20
 900.33465984781
  30
0.0
  11
 1325.0228162296
  21
 880.33465984781
  31
0.0
   0
LINE
   5
33F
 100
AcDbEntity
   8
LEVEL001
 370
13
 100
AcDbLine
   6
CONTINUOUS
  62
5
  10
 1285.0228162296
  20
 900.33465984781
  30
0.0
  11
 1235.0228162296
  21
 800.33465984781
  31
0.0
   0
LINE
   5
340
 100
AcDbEntity
   8
LEVEL001
 370
13
 100
AcDbLine
   6
CONTINUOUS
  62
5
  10
 1235.0228162296
  20
 900.33465984781
  30
0.0
  11
 1275.0228162296
  21
 880.33465984781
  31
0.0
   0
LINE
   5
341
 100
AcDbEntity
   8
LEVEL001
 370
13
 100
AcDbLine
   6
CONTINUOUS
  62
5
  10
 1385.0228162296
  20
 800.33465984781
  30
0.0
  11
 1345.0228162296
  21
 820.33465984781
  31
0.0
   0
LINE
   5
342
 100
AcDbEntity
   8
LEVEL001
 370
13
 100
AcDbLine
   6
CONTINUOUS
  62
5
  10
 1335.0228162296
  20
 800.33465984781
  30
0.0
  11
 1295.0228162296
  21
 820.33465984781
  31
0.0
   0
LINE
   5
343
 100
AcDbEntity
   8
LEVEL001
 370
13
 100
AcDbLine
   6
CONTINUOUS
  62
5
  10
 1285.0228162296
  20
 800.33465984781
  30
0.0
  11
 1245.0228162296
  21
 820.33465984781
  31
0.0
   0
LINE
   5
344
 100
AcDbEntity
   8
LEVEL001
 370
13
 100
AcDbLine
   6
CONTINUOUS
  62
5
  10
 1235.0228162296
  20
 900.33465984781
  30
0.0
  11
 1235.0228162296
  21
 800.33465984781
  31
0.0
   0
LINE
   5
345
 100
AcDbEntity
   8
LEVEL001
 370
13
 100
AcDbLine
   6
CONTINUOUS
  62
5
  10
 1446.8728162296
  20
 1335.6899989071
  30
0.0
  11
 1235.0228162296
  21
 1123.8399989071
  31
0.0
   0
LINE
   5
346
 100
AcDbEntity
   8
LEVEL001
 370
13
 100
AcDbLine
   6
CONTINUOUS
  62
5
  10
 1235.0228162296
  20
 1088.4846598478
  30
0.0
  11
 1446.8728162296
  21
 1300.3346598478
  31
0.0
   0
LINE
   5
347
 100
AcDbEntity
   8
LEVEL001
 370
13
 100
AcDbLine
   6
CONTINUOUS
  62
5
  10
 1446.8728162296
  20
 1264.9793207885
  30
0.0
  11
 1235.0228162296
  21
 1053.1293207885
  31
0.0
   0
LINE
   5
348
 100
AcDbEntity
   8
LEVEL001
 370
13
 100
AcDbLine
   6
CONTINUOUS
  62
5
  10
 1235.0228162296
  20
 1800.3346598478
  30
0.0
  11
 1235.0228162296
  21
 900.33465984781
  31
0.0
   0
LINE
   5
349
 100
AcDbEntity
   8
LEVEL001
 370
13
 100
AcDbLine
   6
CONTINUOUS
  62
5
  10
 1145.9327188062
  20
 1747.8346598478
  30
0.0
  11
 1198.4327188062
  21
 1800.3346598478
  31
0.0
   0
LINE
   5
34A
 100
AcDbEntity
   8
LEVEL001
 370
13
 100
AcDbLine
   6
CONTINUOUS
  62
5
  10
 1130.0228162293
  20
 1763.7445624246
  30
0.0
  11
 1166.6129136525
  21
 1800.3346598478
  31
0.0
   0
LINE
   5
34B
 100
AcDbEntity
   8
LEVEL001
 370
13
 100
AcDbLine
   6
CONTINUOUS
  62
5
  10
 1182.5228162301
  20
 1800.3346598478
  30
0.0
  11
 1137.9777675181
  21
 1755.7896111358
  31
0.0
   0
LINE
   5
34C
 100
AcDbEntity
   8
LEVEL001
 370
13
 100
AcDbLine
   6
CONTINUOUS
  62
5
  10
 1203.2030110768
  20
 1747.8346598478
  30
0.0
  11
 1174.5678649415
  21
 1776.4698059831
  31
0.0
   0
LINE
   5
34D
 100
AcDbEntity
   8
LEVEL001
 370
13
 100
AcDbLine
   6
CONTINUOUS
  62
5
  10
 1182.5228162297
  20
 1784.4247572713
  30
0.0
  11
 1219.1129136532
  21
 1747.8346598478
  31
0.0
   0
LINE
   5
34E
 100
AcDbEntity
   8
LEVEL001
 370
13
 100
AcDbLine
   6
CONTINUOUS
  62
5
  10
 1235.0228162296
  20
 1747.8346598478
  30
0.0
  11
 1190.4777675179
  21
 1792.3797085595
  31
0.0
   0
LINE
   5
34F
 100
AcDbEntity
   8
LEVEL001
 370
13
 100
AcDbLine
   6
CONTINUOUS
  62
5
  10
 1045.7030110763
  20
 1800.3346598478
  30
0.0
  11
 993.20301107631
  21
 1747.8346598478
  31
0.0
   0
LINE
   5
350
 100
AcDbEntity
   8
LEVEL001
 370
13
 100
AcDbLine
   6
CONTINUOUS
  62
5
  10
 1009.1129136523
  20
 1747.8346598478
  30
0.0
  11
 1061.6129136523
  21
 1800.3346598478
  31
0.0
   0
LINE
   5
351
 100
AcDbEntity
   8
LEVEL001
 370
13
 100
AcDbLine
   6
CONTINUOUS
  62
5
  10
 1077.5228162300
  20
 1800.3346598478
  30
0.0
  11
 1025.0228162300
  21
 1747.8346598478
  31
0.0
   0
LINE
   5
352
 100
AcDbEntity
   8
LEVEL001
 370
13
 100
AcDbLine
   6
CONTINUOUS
  62
5
  10
 1040.9327188060
  20
 1747.8346598478
  30
0.0
  11
 1093.4327188060
  21
 1800.3346598478
  31
0.0
   0
LINE
   5
353
 100
AcDbEntity
   8
LEVEL001
 370
13
 100
AcDbLine
   6
CONTINUOUS
  62
5
  10
 1098.2030110766
  20
 1747.8346598478
  30
0.0
  11
 1069.5678649413
  21
 1776.4698059831
  31
0.0
   0
LINE
   5
354
 100
AcDbEntity
   8
LEVEL001
 370
13
 100
AcDbLine
   6
CONTINUOUS
  62
5
  10
 1077.5228162295
  20
 1784.4247572713
  30
0.0
  11
 1114.1129136530
  21
 1747.8346598478
  31
0.0
   0
LINE
   5
355
 100
AcDbEntity
   8
LEVEL001
 370
13
 100
AcDbLine
   6
CONTINUOUS
  62
5
  10
 1130.0228162294
  20
 1747.8346598478
  30
0.0
  11
 1085.4777675177
  21
 1792.3797085595
  31
0.0
   0
LINE
   5
356
 100
AcDbEntity
   8
LEVEL001
 370
13
 100
AcDbLine
   6
CONTINUOUS
  62
5
  10
 1093.4327188060
  20
 1800.3346598478
  30
0.0
  11
 1145.9327188062
  21
 1747.8346598478
  31
0.0
   0
LINE
   5
357
 100
AcDbEntity
   8
LEVEL001
 370
13
 100
AcDbLine
   6
CONTINUOUS
  62
5
  10
 1150.7030110765
  20
 1800.3346598478
  30
0.0
  11
 1122.0678649413
  21
 1771.6995137126
  31
0.0
   0
LINE
   5
358
 100
AcDbEntity
   8
LEVEL001
 370
13
 100
AcDbLine
   6
CONTINUOUS
  62
5
  10
 1198.4327188062
  20
 1800.3346598478
  30
0.0
  11
 1235.0228162296
  21
 1763.7445624245
  31
0.0
   0
LINE
   5
359
 100
AcDbEntity
   8
LEVEL001
 370
13
 100
AcDbLine
   6
CONTINUOUS
  62
5
  10
 1446.8728162296
  20
 1800.3346598478
  30
0.0
  11
 985.02281622962
  21
 1800.3346598478
  31
0.0
   0
LINE
   5
35A
 100
AcDbEntity
   8
LEVEL001
 370
13
 100
AcDbLine
   6
CONTINUOUS
  62
5
  10
 2385.0228162296
  20
 1800.3346598478
  30
0.0
  11
 2385.0228162296
  21
 900.33465984781
  31
0.0
   0
LINE
   5
35B
 100
AcDbEntity
   8
LEVEL001
 370
13
 100
AcDbLine
   6
CONTINUOUS
  62
5
  10
 2295.9327188062
  20
 1747.8346598478
  30
0.0
  11
 2348.4327188062
  21
 1800.3346598478
  31
0.0
   0
LINE
   5
35C
 100
AcDbEntity
   8
LEVEL001
 370
13
 100
AcDbLine
   6
CONTINUOUS
  62
5
  10
 2280.0228162294
  20
 1763.7445624246
  30
0.0
  11
 2316.6129136526
  21
 1800.3346598478
  31
0.0
   0
LINE
   5
35D
 100
AcDbEntity
   8
LEVEL001
 370
13
 100
AcDbLine
   6
CONTINUOUS
  62
5
  10
 2332.5228162302
  20
 1800.3346598478
  30
0.0
  11
 2287.9777675182
  21
 1755.7896111358
  31
0.0
   0
LINE
   5
35E
 100
AcDbEntity
   8
LEVEL001
 370
13
 100
AcDbLine
   6
CONTINUOUS
  62
5
  10
 2353.2030110768
  20
 1747.8346598478
  30
0.0
  11
 2324.5678649414
  21
 1776.4698059831
  31
0.0
   0
LINE
   5
35F
 100
AcDbEntity
   8
LEVEL001
 370
13
 100
AcDbLine
   6
CONTINUOUS
  62
5
  10
 2332.5228162296
  20
 1784.4247572713
  30
0.0
  11
 2369.1129136532
  21
 1747.8346598478
  31
0.0
   0
LINE
   5
360
 100
AcDbEntity
   8
LEVEL001
 370
13
 100
AcDbLine
   6
CONTINUOUS
  62
5
  10
 2385.0228162296
  20
 1747.8346598478
  30
0.0
  11
 2340.4777675178
  21
 1792.3797085595
  31
0.0
   0
LINE
   5
361
 100
AcDbEntity
   8
LEVEL001
 370
13
 100
AcDbLine
   6
CONTINUOUS
  62
5
  10
 2195.7030110762
  20
 1800.3346598478
  30
0.0
  11
 2143.2030110762
  21
 1747.8346598478
  31
0.0
   0
LINE
   5
362
 100
AcDbEntity
   8
LEVEL001
 370
13
 100
AcDbLine
   6
CONTINUOUS
  62
5
  10
 2159.1129136524
  20
 1747.8346598478
  30
0.0
  11
 2211.6129136524
  21
 1800.3346598478
  31
0.0
   0
LINE
   5
363
 100
AcDbEntity
   8
LEVEL001
 370
13
 100
AcDbLine
   6
CONTINUOUS
  62
5
  10
 2227.5228162300
  20
 1800.3346598478
  30
0.0
  11
 2175.0228162300
  21
 1747.8346598478
  31
0.0
   0
LINE
   5
364
 100
AcDbEntity
   8
LEVEL001
 370
13
 100
AcDbLine
   6
CONTINUOUS
  62
5
  10
 2190.9327188060
  20
 1747.8346598478
  30
0.0
  11
 2243.4327188060
  21
 1800.3346598478
  31
0.0
   0
LINE
   5
365
 100
AcDbEntity
   8
LEVEL001
 370
13
 100
AcDbLine
   6
CONTINUOUS
  62
5
  10
 2248.2030110766
  20
 1747.8346598478
  30
0.0
  11
 2219.5678649412
  21
 1776.4698059831
  31
0.0
   0
LINE
   5
366
 100
AcDbEntity
   8
LEVEL001
 370
13
 100
AcDbLine
   6
CONTINUOUS
  62
5
  10
 2227.5228162294
  20
 1784.4247572713
  30
0.0
  11
 2264.1129136530
  21
 1747.8346598478
  31
0.0
   0
LINE
   5
367
 100
AcDbEntity
   8
LEVEL001
 370
13
 100
AcDbLine
   6
CONTINUOUS
  62
5
  10
 2280.0228162294
  20
 1747.8346598478
  30
0.0
  11
 2235.4777675176
  21
 1792.3797085595
  31
0.0
   0
LINE
   5
368
 100
AcDbEntity
   8
LEVEL001
 370
13
 100
AcDbLine
   6
CONTINUOUS
  62
5
  10
 2243.4327188060
  20
 1800.3346598478
  30
0.0
  11
 2295.9327188062
  21
 1747.8346598478
  31
0.0
   0
LINE
   5
369
 100
AcDbEntity
   8
LEVEL001
 370
13
 100
AcDbLine
   6
CONTINUOUS
  62
5
  10
 2300.7030110764
  20
 1800.3346598478
  30
0.0
  11
 2272.0678649412
  21
 1771.6995137126
  31
0.0
   0
LINE
   5
36A
 100
AcDbEntity
   8
LEVEL001
 370
13
 100
AcDbLine
   6
CONTINUOUS
  62
5
  10
 2348.4327188062
  20
 1800.3346598478
  30
0.0
  11
 2385.0228162296
  21
 1763.7445624245
  31
0.0
   0
LINE
   5
36B
 100
AcDbEntity
   8
LEVEL001
 370
13
 100
AcDbLine
   6
CONTINUOUS
  62
5
  10
 2596.8728162296
  20
 1800.3346598478
  30
0.0
  11
 2135.0228162296
  21
 1800.3346598478
  31
0.0
   0
LINE
   5
36C
 100
AcDbEntity
   8
LEVEL001
 370
13
 100
AcDbLine
   6
CONTINUOUS
  62
5
  10
 2885.0228162296
  20
 1623.8399989071
  30
0.0
  11
 2673.1728162296
  21
 1411.9899989071
  31
0.0
   0
LINE
   5
36D
 100
AcDbEntity
   8
LEVEL001
 370
13
 100
AcDbLine
   6
CONTINUOUS
  62
5
  10
 2673.1728162296
  20
 1376.6346598478
  30
0.0
  11
 2885.0228162296
  21
 1588.4846598478
  31
0.0
   0
LINE
   5
36E
 100
AcDbEntity
   8
LEVEL001
 370
13
 100
AcDbLine
   6
CONTINUOUS
  62
5
  10
 2885.0228162296
  20
 1553.1293207885
  30
0.0
  11
 2673.1728162296
  21
 1341.2793207885
  31
0.0
   0
LINE
   5
36F
 100
AcDbEntity
   8
LEVEL001
 370
13
 100
AcDbLine
   6
CONTINUOUS
  62
5
  10
 2885.0228162296
  20
 900.33465984781
  30
0.0
  11
 2885.0228162296
  21
 1800.3346598478
  31
0.0
   0
LINE
   5
370
 100
AcDbEntity
   8
LEVEL001
 370
13
 100
AcDbLine
   6
CONTINUOUS
  62
5
  10
 2945.7030110762
  20
 1800.3346598478
  30
0.0
  11
 2893.2030110762
  21
 1747.8346598478
  31
0.0
   0
LINE
   5
371
 100
AcDbEntity
   8
LEVEL001
 370
13
 100
AcDbLine
   6
CONTINUOUS
  62
5
  10
 2909.1129136524
  20
 1747.8346598478
  30
0.0
  11
 2961.6129136524
  21
 1800.3346598478
  31
0.0
   0
LINE
   5
372
 100
AcDbEntity
   8
LEVEL001
 370
13
 100
AcDbLine
   6
CONTINUOUS
  62
5
  10
 2977.5228162300
  20
 1800.3346598478
  30
0.0
  11
 2925.0228162300
  21
 1747.8346598478
  31
0.0
   0
LINE
   5
373
 100
AcDbEntity
   8
LEVEL001
 370
13
 100
AcDbLine
   6
CONTINUOUS
  62
5
  10
 2940.9327188060
  20
 1747.8346598478
  30
0.0
  11
 2993.4327188060
  21
 1800.3346598478
  31
0.0
   0
LINE
   5
374
 100
AcDbEntity
   8
LEVEL001
 370
13
 100
AcDbLine
   6
CONTINUOUS
  62
5
  10
 2998.2030110766
  20
 1747.8346598478
  30
0.0
  11
 2969.5678649412
  21
 1776.4698059831
  31
0.0
   0
LINE
   5
375
 100
AcDbEntity
   8
LEVEL001
 370
13
 100
AcDbLine
   6
CONTINUOUS
  62
5
  10
 2977.5228162294
  20
 1784.4247572713
  30
0.0
  11
 3014.1129136530
  21
 1747.8346598478
  31
0.0
   0
LINE
   5
376
 100
AcDbEntity
   8
LEVEL001
 370
13
 100
AcDbLine
   6
CONTINUOUS
  62
5
  10
 3030.0228162294
  20
 1747.8346598478
  30
0.0
  11
 2985.4777675176
  21
 1792.3797085595
  31
0.0
   0
LINE
   5
377
 100
AcDbEntity
   8
LEVEL001
 370
13
 100
AcDbLine
   6
CONTINUOUS
  62
5
  10
 2993.4327188060
  20
 1800.3346598478
  30
0.0
  11
 3045.9327188062
  21
 1747.8346598478
  31
0.0
   0
LINE
   5
378
 100
AcDbEntity
   8
LEVEL001
 370
13
 100
AcDbLine
   6
CONTINUOUS
  62
5
  10
 3045.9327188062
  20
 1747.8346598478
  30
0.0
  11
 3098.4327188062
  21
 1800.3346598478
  31
0.0
   0
LINE
   5
379
 100
AcDbEntity
   8
LEVEL001
 370
13
 100
AcDbLine
   6
CONTINUOUS
  62
5
  10
 3050.7030110764
  20
 1800.3346598478
  30
0.0
  11
 3022.0678649412
  21
 1771.6995137126
  31
0.0
   0
LINE
   5
37A
 100
AcDbEntity
   8
LEVEL001
 370
13
 100
AcDbLine
   6
CONTINUOUS
  62
5
  10
 3030.0228162294
  20
 1763.7445624246
  30
0.0
  11
 3066.6129136526
  21
 1800.3346598478
  31
0.0
   0
LINE
   5
37B
 100
AcDbEntity
   8
LEVEL001
 370
13
 100
AcDbLine
   6
CONTINUOUS
  62
5
  10
 3082.5228162302
  20
 1800.3346598478
  30
0.0
  11
 3037.9777675182
  21
 1755.7896111358
  31
0.0
   0
LINE
   5
37C
 100
AcDbEntity
   8
LEVEL001
 370
13
 100
AcDbLine
   6
CONTINUOUS
  62
5
  10
 3103.2030110768
  20
 1747.8346598478
  30
0.0
  11
 3074.5678649414
  21
 1776.4698059831
  31
0.0
   0
LINE
   5
37D
 100
AcDbEntity
   8
LEVEL001
 370
13
 100
AcDbLine
   6
CONTINUOUS
  62
5
  10
 3082.5228162296
  20
 1784.4247572713
  30
0.0
  11
 3119.1129136532
  21
 1747.8346598478
  31
0.0
   0
LINE
   5
37E
 100
AcDbEntity
   8
LEVEL001
 370
13
 100
AcDbLine
   6
CONTINUOUS
  62
5
  10
 3135.0228162296
  20
 1747.8346598478
  30
0.0
  11
 3090.4777675178
  21
 1792.3797085595
  31
0.0
   0
LINE
   5
37F
 100
AcDbEntity
   8
LEVEL001
 370
13
 100
AcDbLine
   6
CONTINUOUS
  62
5
  10
 3098.4327188062
  20
 1800.3346598478
  30
0.0
  11
 3135.0228162296
  21
 1763.7445624245
  31
0.0
   0
LINE
   5
380
 100
AcDbEntity
   8
LEVEL001
 370
13
 100
AcDbLine
   6
CONTINUOUS
  62
5
  10
 2673.1728162296
  20
 1800.3346598478
  30
0.0
  11
 3135.0228162296
  21
 1800.3346598478
  31
0.0
   0
LINE
   5
381
 100
AcDbEntity
   8
LEVEL001
 370
13
 100
AcDbLine
   6
CONTINUOUS
  62
5
  10
 2885.0228162296
  20
 900.33465984781
  30
0.0
  11
 2835.0228162296
  21
 800.33465984781
  31
0.0
   0
LINE
   5
382
 100
AcDbEntity
   8
LEVEL001
 370
13
 100
AcDbLine
   6
CONTINUOUS
  62
5
  10
 2835.0228162296
  20
 900.33465984781
  30
0.0
  11
 2875.0228162296
  21
 880.33465984781
  31
0.0
   0
LINE
   5
383
 100
AcDbEntity
   8
LEVEL001
 370
13
 100
AcDbLine
   6
CONTINUOUS
  62
5
  10
 2835.0228162296
  20
 900.33465984781
  30
0.0
  11
 2785.0228162296
  21
 800.33465984781
  31
0.0
   0
LINE
   5
384
 100
AcDbEntity
   8
LEVEL001
 370
13
 100
AcDbLine
   6
CONTINUOUS
  62
5
  10
 2785.0228162296
  20
 900.33465984781
  30
0.0
  11
 2825.0228162296
  21
 880.33465984781
  31
0.0
   0
LINE
   5
385
 100
AcDbEntity
   8
LEVEL001
 370
13
 100
AcDbLine
   6
CONTINUOUS
  62
5
  10
 2785.0228162296
  20
 900.33465984781
  30
0.0
  11
 2735.0228162296
  21
 800.33465984781
  31
0.0
   0
LINE
   5
386
 100
AcDbEntity
   8
LEVEL001
 370
13
 100
AcDbLine
   6
CONTINUOUS
  62
5
  10
 2735.0228162296
  20
 900.33465984781
  30
0.0
  11
 2775.0228162296
  21
 880.33465984781
  31
0.0
   0
LINE
   5
387
 100
AcDbEntity
   8
LEVEL001
 370
13
 100
AcDbLine
   6
CONTINUOUS
  62
5
  10
 2885.0228162296
  20
 800.33465984781
  30
0.0
  11
 2845.0228162296
  21
 820.33465984781
  31
0.0
   0
LINE
   5
388
 100
AcDbEntity
   8
LEVEL001
 370
13
 100
AcDbLine
   6
CONTINUOUS
  62
5
  10
 2835.0228162296
  20
 800.33465984781
  30
0.0
  11
 2795.0228162296
  21
 820.33465984781
  31
0.0
   0
LINE
   5
389
 100
AcDbEntity
   8
LEVEL001
 370
13
 100
AcDbLine
   6
CONTINUOUS
  62
5
  10
 2785.0228162296
  20
 800.33465984781
  30
0.0
  11
 2745.0228162296
  21
 820.33465984781
  31
0.0
   0
LINE
   5
38A
 100
AcDbEntity
   8
LEVEL001
 370
13
 100
AcDbLine
   6
CONTINUOUS
  62
5
  10
 2385.0228162296
  20
 800.33465984781
  30
0.0
  11
 2885.0228162296
  21
 800.33465984781
  31
0.0
   0
LINE
   5
38B
 100
AcDbEntity
   8
LEVEL001
 370
13
 100
AcDbLine
   6
CONTINUOUS
  62
5
  10
 2885.0228162296
  20
 800.33465984781
  30
0.0
  11
 2885.0228162296
  21
 900.33465984781
  31
0.0
   0
LINE
   5
38C
 100
AcDbEntity
   8
LEVEL001
 370
13
 100
AcDbLine
   6
CONTINUOUS
  62
5
  10
 2885.0228162296
  20
 900.33465984781
  30
0.0
  11
 2385.0228162296
  21
 900.33465984781
  31
0.0
   0
LINE
   5
38D
 100
AcDbEntity
   8
LEVEL001
 370
13
 100
AcDbLine
   6
CONTINUOUS
  62
5
  10
 2385.0228162296
  20
 900.33465984781
  30
0.0
  11
 2885.0228162296
  21
 900.33465984781
  31
0.0
   0
LINE
   5
38E
 100
AcDbEntity
   8
LEVEL001
 370
13
 100
AcDbLine
   6
CONTINUOUS
  62
5
  10
 2535.0228162296
  20
 900.33465984781
  30
0.0
  11
 2485.0228162296
  21
 800.33465984781
  31
0.0
   0
LINE
   5
38F
 100
AcDbEntity
   8
LEVEL001
 370
13
 100
AcDbLine
   6
CONTINUOUS
  62
5
  10
 2485.0228162296
  20
 900.33465984781
  30
0.0
  11
 2525.0228162296
  21
 880.33465984781
  31
0.0
   0
LINE
   5
390
 100
AcDbEntity
   8
LEVEL001
 370
13
 100
AcDbLine
   6
CONTINUOUS
  62
5
  10
 2485.0228162296
  20
 900.33465984781
  30
0.0
  11
 2435.0228162296
  21
 800.33465984781
  31
0.0
   0
LINE
   5
391
 100
AcDbEntity
   8
LEVEL001
 370
13
 100
AcDbLine
   6
CONTINUOUS
  62
5
  10
 2435.0228162296
  20
 900.33465984781
  30
0.0
  11
 2475.0228162296
  21
 880.33465984781
  31
0.0
   0
LINE
   5
392
 100
AcDbEntity
   8
LEVEL001
 370
13
 100
AcDbLine
   6
CONTINUOUS
  62
5
  10
 2435.0228162296
  20
 900.33465984781
  30
0.0
  11
 2385.0228162296
  21
 800.33465984781
  31
0.0
   0
LINE
   5
393
 100
AcDbEntity
   8
LEVEL001
 370
13
 100
AcDbLine
   6
CONTINUOUS
  62
5
  10
 2385.0228162296
  20
 900.33465984781
  30
0.0
  11
 2425.0228162296
  21
 880.33465984781
  31
0.0
   0
LINE
   5
394
 100
AcDbEntity
   8
LEVEL001
 370
13
 100
AcDbLine
   6
CONTINUOUS
  62
5
  10
 2535.0228162296
  20
 800.33465984781
  30
0.0
  11
 2495.0228162296
  21
 820.33465984781
  31
0.0
   0
LINE
   5
395
 100
AcDbEntity
   8
LEVEL001
 370
13
 100
AcDbLine
   6
CONTINUOUS
  62
5
  10
 2485.0228162296
  20
 800.33465984781
  30
0.0
  11
 2445.0228162296
  21
 820.33465984781
  31
0.0
   0
LINE
   5
396
 100
AcDbEntity
   8
LEVEL001
 370
13
 100
AcDbLine
   6
CONTINUOUS
  62
5
  10
 2435.0228162296
  20
 800.33465984781
  30
0.0
  11
 2395.0228162296
  21
 820.33465984781
  31
0.0
   0
LINE
   5
397
 100
AcDbEntity
   8
LEVEL001
 370
13
 100
AcDbLine
   6
CONTINUOUS
  62
5
  10
 2385.0228162296
  20
 900.33465984781
  30
0.0
  11
 2385.0228162296
  21
 800.33465984781
  31
0.0
   0
LINE
   5
398
 100
AcDbEntity
   8
LEVEL001
 370
13
 100
AcDbLine
   6
CONTINUOUS
  62
5
  10
 2596.8728162296
  20
 1335.6899989071
  30
0.0
  11
 2385.0228162296
  21
 1123.8399989071
  31
0.0
   0
LINE
   5
399
 100
AcDbEntity
   8
LEVEL001
 370
13
 100
AcDbLine
   6
CONTINUOUS
  62
5
  10
 2385.0228162296
  20
 1088.4846598478
  30
0.0
  11
 2596.8728162296
  21
 1300.3346598478
  31
0.0
   0
LINE
   5
39A
 100
AcDbEntity
   8
LEVEL001
 370
13
 100
AcDbLine
   6
CONTINUOUS
  62
5
  10
 2596.8728162296
  20
 1264.9793207885
  30
0.0
  11
 2385.0228162296
  21
 1053.1293207885
  31
0.0
   0
MTEXT
   5
39B
 100
AcDbEntity
   8
LEVEL001
 370
13
  62
1
 100
AcDbMText
  10
 1835.0228162296
  20
 2821.7632312764
  30
0.0
  40
 42.857142857142
  41
0.0
  71
1
  72
1
   1
{\T1.000000;支柱}\P%%c{\T1.000000;７６}{\T1.000000;.}{\T1.000000;３×３}{\T1.000000;.}{\T1.000000;２ｔ}\P{\T1.000000;×４０００Ｌ}
   7
GMM001
  44
 0.79999984000003
   0
MTEXT
   5
39C
 100
AcDbEntity
   8
LEVEL001
 370
13
  62
2
 100
AcDbMText
  10
 5455.0228162296
  20
 902.83465984781
  30
0.0
  40
 38.571428571428
  41
0.0
  71
4
  72
1
   1
\T1.370378;図面番号
   7
GMM001
  44
 0.79999984000003
   0
LWPOLYLINE
   5
39D
 100
AcDbEntity
   8
0
 370
13
   6
CONTINUOUS
  62
2
 100
AcDbPolyline
  90
4
  70
1
  10
 5445.0228162296
  20
 932.83465984781
  10
 8085.0228162296
  20
 932.83465984781
  10
 8085.0228162296
  20
 3332.8346598478
  10
 5445.0228162296
  20
 3332.8346598478
   0
MTEXT
   5
39E
 100
AcDbEntity
   8
LEVEL001
 370
13
  62
1
 100
AcDbMText
  10
 6285.0228162296
  20
 777.05340984781
  30
0.0
  40
 42.857142857142
  41
0.0
  71
5
  72
1
   1
\T1.000000;ＭＺＨ０８０ＳＵＰ
   7
GMM001
  44
 0.79999984000003
   0
MTEXT
   5
39F
 100
AcDbEntity
   8
LEVEL001
 370
13
  62
1
 100
AcDbMText
  10
 5685.0228162296
  20
 1232.8346598478
  30
0.0
  40
 51.428571428572
  41
0.0
  71
4
  72
1
   1
\T1.000000;注意板取付バンド
   7
GMM001
  44
 0.79999984000003
   0
MTEXT
   5
3A0
 100
AcDbEntity
   8
LEVEL001
 370
13
  62
1
 100
AcDbMText
  10
 5685.0228162296
  20
 1112.8346598478
  30
0.0
  40
 51.428571428572
  41
0.0
  71
4
  72
1
   1
\T1.000000;同上ボルトナット
   7
GMM001
  44
 0.79999984000003
   0
MTEXT
   5
3A1
 100
AcDbEntity
   8
LEVEL001
 370
13
  62
1
 100
AcDbMText
  10
 5617.0228162296
  20
 1112.8346598478
  30
0.0
  40
 51.428571428572
  41
0.0
  71
6
  72
1
   1
\T1.000000;１４
   7
GMM001
  44
 0.79999984000003
   0
MTEXT
   5
3A2
 100
AcDbEntity
   8
LEVEL001
 370
13
  62
1
 100
AcDbMText
  10
 5617.0228162296
  20
 1232.8346598478
  30
0.0
  40
 51.428571428572
  41
0.0
  71
6
  72
1
   1
\T1.000000;１３
   7
GMM001
  44
 0.79999984000003
   0
MTEXT
   5
3A3
 100
AcDbEntity
   8
LEVEL001
 370
13
  62
1
 100
AcDbMText
  10
 5617.0228162296
  20
 1352.8346598478
  30
0.0
  40
 51.428571428572
  41
0.0
  71
6
  72
1
   1
\T1.000000;１２
   7
GMM001
  44
 0.79999984000003
   0
MTEXT
   5
3A4
 100
AcDbEntity
   8
LEVEL001
 370
13
  62
1
 100
AcDbMText
  10
 5617.0228162296
  20
 1472.8346598478
  30
0.0
  40
 51.428571428572
  41
0.0
  71
6
  72
1
   1
\T1.000000;１１
   7
GMM001
  44
 0.79999984000003
   0
MTEXT
   5
3A5
 100
AcDbEntity
   8
LEVEL001
 370
13
  62
1
 100
AcDbMText
  10
 5617.0228162296
  20
 1592.8346598478
  30
0.0
  40
 51.428571428572
  41
0.0
  71
6
  72
1
   1
\T1.000000;１０
   7
GMM001
  44
 0.79999984000003
   0
MTEXT
   5
3A6
 100
AcDbEntity
   8
LEVEL001
 370
13
  62
1
 100
AcDbMText
  10
 5685.0228162296
  20
 1472.8346598478
  30
0.0
  40
 51.428571428572
  41
0.0
  71
4
  72
1
   1
\T1.000000;キャップ
   7
GMM001
  44
 0.79999984000003
   0
MTEXT
   5
3A7
 100
AcDbEntity
   8
LEVEL001
 370
13
  62
1
 100
AcDbMText
  10
 5685.0228162296
  20
 1592.8346598478
  30
0.0
  40
 51.428571428572
  41
0.0
  71
4
  72
1
   1
\T1.000000;根入れ鉄筋
   7
GMM001
  44
 0.79999984000003
   0
MTEXT
   5
3A8
 100
AcDbEntity
   8
LEVEL001
 370
13
  62
1
 100
AcDbMText
  10
 6697.0228162296
  20
 1352.8346598478
  30
0.0
  40
 51.428571428572
  41
0.0
  71
6
  72
1
   1
\T1.000000;１
   7
GMM001
  44
 0.79999984000003
   0
MTEXT
   5
3A9
 100
AcDbEntity
   8
LEVEL001
 370
13
  62
1
 100
AcDbMText
  10
 6697.0228162296
  20
 1472.8346598478
  30
0.0
  40
 51.428571428572
  41
0.0
  71
6
  72
1
   1
\T1.000000;１
   7
GMM001
  44
 0.79999984000003
   0
MTEXT
   5
3AA
 100
AcDbEntity
   8
LEVEL001
 370
13
  62
1
 100
AcDbMText
  10
 6697.0228162296
  20
 1592.8346598478
  30
0.0
  40
 51.428571428572
  41
0.0
  71
6
  72
1
   1
\T1.000000;１
   7
GMM001
  44
 0.79999984000003
   0
MTEXT
   5
3AB
 100
AcDbEntity
   8
LEVEL001
 370
13
  62
1
 100
AcDbMText
  10
 6775.0228162296
  20
 1469.9818752396
  30
0.0
  40
 51.428571428572
  41
0.0
  71
4
  72
1
   1
\T1.000000;ＰＥ
   7
GMM001
  44
 0.79999984000003
   0
MTEXT
   5
3AC
 100
AcDbEntity
   8
LEVEL001
 370
13
  62
1
 100
AcDbMText
  10
 6765.0228162296
  20
 1592.8346598478
  30
0.0
  40
 51.428571428572
  41
0.0
  71
4
  72
1
   1
\T1.000000;ＳＤ２９５Ａ
   7
GMM001
  44
 0.79999984000003
   0
MTEXT
   5
3AD
 100
AcDbEntity
   8
LEVEL001
 370
13
  62
1
 100
AcDbMText
  10
 6697.0228162296
  20
 1232.8346598478
  30
0.0
  40
 51.428571428572
  41
0.0
  71
6
  72
1
   1
\T1.000000;１式
   7
GMM001
  44
 0.79999984000003
   0
MTEXT
   5
3AE
 100
AcDbEntity
   8
LEVEL001
 370
13
  62
1
 100
AcDbMText
  10
 6697.0228162296
  20
 1112.8346598478
  30
0.0
  40
 51.428571428572
  41
0.0
  71
6
  72
1
   1
\T1.000000;１式
   7
GMM001
  44
 0.79999984000003
   0
MTEXT
   5
3AF
 100
AcDbEntity
   8
LEVEL001
 370
13
  62
1
 100
AcDbMText
  10
 6765.0228162296
  20
 1112.8346598478
  30
0.0
  40
 51.428571428572
  41
0.0
  71
4
  72
1
   1
\T1.000000;―
   7
GMM001
  44
 0.79999984000003
   0
MTEXT
   5
3B0
 100
AcDbEntity
   8
LEVEL001
 370
13
  62
1
 100
AcDbMText
  10
 6765.0228162296
  20
 1232.8346598478
  30
0.0
  40
 51.428571428572
  41
0.0
  71
4
  72
1
   1
\T1.000000;―
   7
GMM001
  44
 0.79999984000003
   0
MTEXT
   5
3B1
 100
AcDbEntity
   8
LEVEL001
 370
13
  62
1
 100
AcDbMText
  10
 6765.0228162296
  20
 1352.8346598478
  30
0.0
  40
 51.428571428572
  41
0.0
  71
4
  72
1
   1
\T1.000000;―
   7
GMM001
  44
 0.79999984000003
   0
MTEXT
   5
3B2
 100
AcDbEntity
   8
LEVEL001
 370
13
  62
1
 100
AcDbMText
  10
 7325.0228162296
  20
 1232.8346598478
  30
0.0
  40
 51.428571428572
  41
0.0
  71
4
  72
1
   1
\T1.000000;―
   7
GMM001
  44
 0.79999984000003
   0
MTEXT
   5
3B3
 100
AcDbEntity
   8
LEVEL001
 370
13
  62
1
 100
AcDbMText
  10
 7325.0228162296
  20
 1112.8346598478
  30
0.0
  40
 51.428571428572
  41
0.0
  71
4
  72
1
   1
\T1.000000;―
   7
GMM001
  44
 0.79999984000003
   0
MTEXT
   5
3B4
 100
AcDbEntity
   8
LEVEL001
 370
13
  62
1
 100
AcDbMText
  10
 7324.7326219862
  20
 2726.0082947366
  30
0.0
  40
 34.285714285714
  41
0.0
  71
1
  72
1
   1
{\T1.000000;ＺＡＭ処理鋼板}\P{\T1.000000;プレス成型}
   7
GMM005
  44
 1.0099997980000
   0
MTEXT
   5
3B5
 100
AcDbEntity
   8
LEVEL001
 370
13
  62
1
 100
AcDbMText
  10
 5685.0228162296
  20
 3512.8346598478
  30
0.0
  40
 51.428580000000
  41
0.0
  71
1
  72
1
   1
{\T1.000000;※構成部材は改良のため、変更する場合があります。}\P{\T1.000000;※本図は道路反射鏡ハンドブックに基づいています。}
   7
GMM001
  44
 0.79999984000003
   0
MTEXT
   5
3B6
 100
AcDbEntity
   8
LEVEL001
 370
13
  62
1
 100
AcDbMText
  10
 5685.0228162296
  20
 1352.8346598478
  30
0.0
  40
 51.428571428572
  41
0.0
  71
4
  72
1
   1
\T1.000000;注意板
   7
GMM001
  44
 0.79999984000003
   0
MTEXT
   5
3B7
 100
AcDbEntity
   8
0
 370
13
  62
1
 100
AcDbMText
  10
 6696.0017899836
  20
 1679.1035096022
  30
0.0
  40
 51.428571428571
  41
0.0
  71
9
  72
1
   1
\T1.000000;１
   7
GMM001
  44
 0.79999984000003
   0
MTEXT
   5
3B8
 100
AcDbEntity
   8
0
 370
13
  62
1
 100
AcDbMText
  10
 6764.6062073611
  20
 1679.1035096022
  30
0.0
  40
 51.428571428571
  41
0.0
  71
7
  72
1
   1
\T1.000000;ＳＴＫ４００
   7
GMM001
  44
 0.79999984000003
   0
MTEXT
   5
3B9
 100
AcDbEntity
   8
0
 370
13
  62
1
 100
AcDbMText
  10
 7326.4043454796
  20
 1718.6947308187
  30
0.0
  40
 34.285720000000
  41
0.0
  71
4
  72
1
   1
{\T1.000000;下地亜鉛メッキ}\P{\T1.000000;＋静電粉体塗装}
   7
GMM005
  44
 0.79999984000003
   0
LINE
   5
3BA
 100
AcDbEntity
   8
0
 370
13
 100
AcDbLine
   6
CONTINUOUS
  62
6
  10
 6525.0228162296
  20
 1772.8346598478
  30
0.0
  11
 8085.0228162296
  21
 1772.8346598478
  31
0.0
   0
DIMENSION
   5
3BB
 100
AcDbEntity
   8
0
 370
13
   6
CONTINUOUS
  62
1
 100
AcDbDimension
   2
*D14
  10
 1735.0228162296
  20
 600.33465984781
  30
0.0
  11
 1485.0228162296
  21
 600.33465984781
  31
0.0
  70
0
   3
GMM003
 100
AcDbAlignedDimension
  13
 1235.0228162296
  23
 800.33465984781
  33
0.0
  14
 1735.0228162296
  24
 800.33465984781
  34
0.0
 100
AcDbRotatedDimension
   0
DIMENSION
   5
3BC
 100
AcDbEntity
   8
0
 370
13
   6
CONTINUOUS
  62
1
 100
AcDbDimension
   2
*D15
  10
 735.02281622962
  20
 1800.3346598478
  30
0.0
  11
 735.02281622962
  21
 1350.3346598478
  31
0.0
  70
0
   3
GMM004
 100
AcDbAlignedDimension
  13
 1235.0228162296
  23
 900.33465984781
  33
0.0
  14
 985.02281622962
  24
 1800.3346598478
  34
0.0
  50
 90.000000000000
 100
AcDbRotatedDimension
   0
DIMENSION
   5
3BD
 100
AcDbEntity
   8
0
 370
13
   6
CONTINUOUS
  62
1
 100
AcDbDimension
   2
*D16
  10
 735.02281622962
  20
 900.33465984781
  30
0.0
  11
 735.02281622962
  21
 850.33465984781
  31
0.0
  70
0
   3
GMM005
 100
AcDbAlignedDimension
  13
 1235.0228162296
  23
 800.33465984781
  33
0.0
  14
 1235.0228162296
  24
 900.33465984781
  34
0.0
  50
 90.000000000000
 100
AcDbRotatedDimension
   0
DIMENSION
   5
3BE
 100
AcDbEntity
   8
0
 370
13
   6
CONTINUOUS
  62
1
 100
AcDbDimension
   2
*D17
  10
 2385.0228162296
  20
 600.33465984781
  30
0.0
  11
 2635.0228162296
  21
 600.33465984781
  31
0.0
  70
0
   3
GMM003
 100
AcDbAlignedDimension
  13
 2885.0228162296
  23
 800.33465984781
  33
0.0
  14
 2385.0228162296
  24
 800.33465984781
  34
0.0
  50
 180.00000000000
 100
AcDbRotatedDimension
   0
DIMENSION
   5
3BF
 100
AcDbEntity
   8
0
 370
13
   6
CONTINUOUS
  62
1
 100
AcDbDimension
   2
*D18
  10
 735.02281622962
  20
 4300.3346598478
  30
0.0
  11
 735.02281622962
  21
 3050.3346598478
  31
0.0
  70
0
   1
\A1;2500(標準設置高さ)
   3
GMM006
 100
AcDbAlignedDimension
  13
 985.02281622962
  23
 1800.3346598478
  33
0.0
  14
 1446.8728162296
  24
 4300.3346598478
  34
0.0
  50
 90.000000000000
 100
AcDbRotatedDimension
   0
DIMENSION
   5
3C0
 100
AcDbEntity
   8
LEVEL001
 370
13
   6
CONTINUOUS
  62
1
 100
AcDbDimension
   2
*D19
  10
 1134.2825276969
  20
 4530.3346598478
  30
0.0
  11
 1485.0228162296
  21
 4732.8346598478
  31
0.0
  70
131
   1
\A1;%%c800
   3
GMM007
 100
AcDbDiametricDimension
  15
 1835.7631047623
  25
 4935.3346598478
  35
0.0
   0
DIMENSION
   5
3C1
 100
AcDbEntity
   8
LEVEL001
 370
13
   6
CONTINUOUS
  62
1
 100
AcDbDimension
   2
*D20
  10
 2985.0228162296
  20
 2800.3346598478
  30
0.0
  11
 2810.0228162296
  21
 2800.3346598478
  31
0.0
  70
128
   1
\A1;350
   3
GMM008
 100
AcDbAlignedDimension
  13
 2635.0228162296
  23
 2800.3346598478
  33
0.0
  14
 2985.0228162296
  24
 4100.3346598478
  34
0.0
 100
AcDbRotatedDimension
   0
ENDSEC
  0
SECTION
  2
OBJECTS
  0
DICTIONARY
  5
C
100
AcDbDictionary
  3
ACAD_GROUP
350
D
  3
ACAD_MLINESTYLE
350
1B
  3
DWGPROPS
350
1C
  0
DICTIONARY
  5
D
102
{ACAD_REACTORS
330
C
102
}
100
AcDbDictionary
  0
DICTIONARY
  5
1B
102
{ACAD_REACTORS
330
C
102
}
100
AcDbDictionary
  3
STANDARD
350
1D
  0
MLINESTYLE
  5
1D
102
{ACAD_REACTORS
330
1B
102
}
100
AcDbMlineStyle
  2
STANDARD
 70
     0
  3

 62
   256
 51
90.0
 52
90.0
 71
     2
 49
0.5
 62
   256
  6
BYLAYER
 49
-0.5
 62
   256
  6
BYLAYER
   0
XRECORD
   5
1C
 102
{ACAD_REACTORS
 330
C
 102
}
 330
C
 100
AcDbXrecord
 280
1
   1
DWGPROPS COOKIE
   2
 
   3
 
   4
 
   6
 
   7
MZH080SUP
   8
 
   9

 300
 = 
 301
 = 
 302
 = 
 303
 = 
 304
 = 
 305
 = 
 306
 = 
 307
 = 
 308
 = 
 309
 = 
  40
0.0
  41
 2460341.5000000
  42
 2460341.5000000
   1

  90
10
   0
ENDSEC
   0
EOF
