   0
SECTION
   2
HEADER
   9
$ACADVER
   1
AC1015
   9
$DWGCODEPAGE
   3
ANSI_932
   9
$LIMMIN
  10
0.0
  20
0.0
   9
$LIMMAX
  10
 8400.0000000000
  20
 5940.0000000000
   9
$EXTMIN
  10
0.0
  20
0.0
  30
0.0
   9
$EXTMAX
  10
 8400.0000000000
  20
 5940.0000000000
  30
0.0
   9
$LTSCALE
  40
 168.00000000000
   9
$HANDSEED
   5
3C7
   0
ENDSEC
   0
SECTION
   2
TABLES
  0
TABLE
  2
VPORT
  5
8
100
AcDbSymbolTable
 70
     1
  0
VPORT
  5
3C6
100
AcDbSymbolTableRecord
100
AcDbViewportTableRecord
  2
*ACTIVE
 70
     0
 10
0.0
 20
0.0
 11
1.0
 21
1.0
  12
 4200.0000000000
  22
 2970.0000000000
 13
0.0
 23
0.0
 14
1.0
 24
1.0
 15
0.0
 25
0.0
 16
0.0
 26
0.0
 36
1.0
 17
0.0
 27
0.0
 37
0.0
  40
 8400.0000000000
  41
 1.4787878787879
 42
50.0
 43
0.0
 44
0.0
 50
0.0
 51
0.0
 71
     0
 72
   100
 73
     1
 74
     1
 75
     0
 76
     0
 77
     0
 78
     0
  0
ENDTAB
  0
TABLE
  2
LTYPE
  5
5
100
AcDbSymbolTable
 70
    25
  0
LTYPE
  5
12
100
AcDbSymbolTableRecord
100
AcDbLinetypeTableRecord
  2
BYBLOCK
 70
     0
  3

 72
    65
 73
     0
 40
0.0
  0
LTYPE
  5
13
100
AcDbSymbolTableRecord
100
AcDbLinetypeTableRecord
  2
BYLAYER
 70
     0
  3

 72
    65
 73
     0
 40
0.0
  0
LTYPE
  5
14
100
AcDbSymbolTableRecord
100
AcDbLinetypeTableRecord
  2
CONTINUOUS
 70
     0
  3
Solid line
 72
    65
 73
     0
 40
0.0
  0
LTYPE
  5
20
100
AcDbSymbolTableRecord
100
AcDbLinetypeTableRecord
  2
BORDER
 70
     0
  3
__ __ . __ __ . __ __ . __ __ . __ __ . __ __ .
 72
    65
 73
     6
 40
1.75
 49
0.5
 74
     0
 49
-0.25
 74
     0
 49
0.5
 74
     0
 49
-0.25
 74
     0
 49
0.0
 74
     0
 49
-0.25
 74
     0
  0
LTYPE
  5
21
100
AcDbSymbolTableRecord
100
AcDbLinetypeTableRecord
  2
BORDER2
 70
     0
  3
__.__.__.__.__.__.__.__.__.__.__.__.__.__.__.__
 72
    65
 73
     6
 40
0.875
 49
0.25
 74
     0
 49
-0.125
 74
     0
 49
0.25
 74
     0
 49
-0.125
 74
     0
 49
0.0
 74
     0
 49
-0.125
 74
     0
  0
LTYPE
  5
22
100
AcDbSymbolTableRecord
100
AcDbLinetypeTableRecord
  2
BORDERX2
 70
     0
  3
____  ____  .  ____  ____  .  ____  ____  .  __
 72
    65
 73
     6
 40
3.5
 49
1.0
 74
     0
 49
-0.5
 74
     0
 49
1.0
 74
     0
 49
-0.5
 74
     0
 49
0.0
 74
     0
 49
-0.5
 74
     0
  0
LTYPE
  5
23
100
AcDbSymbolTableRecord
100
AcDbLinetypeTableRecord
  2
CENTER
 70
     0
  3
____ _ ____ _ ____ _ ____ _ ____ _ ____ _ ____ 
 72
    65
 73
     4
 40
2.0
 49
1.25
 74
     0
 49
-0.25
 74
     0
 49
0.25
 74
     0
 49
-0.25
 74
     0
  0
LTYPE
  5
24
100
AcDbSymbolTableRecord
100
AcDbLinetypeTableRecord
  2
CENTER2
 70
     0
  3
___ _ ___ _ ___ _ ___ _ ___ _ ___ _ ___ _ ___ _
 72
    65
 73
     4
 40
1.125
 49
0.75
 74
     0
 49
-0.125
 74
     0
 49
0.125
 74
     0
 49
-0.125
 74
     0
  0
LTYPE
  5
25
100
AcDbSymbolTableRecord
100
AcDbLinetypeTableRecord
  2
CENTERX2
 70
     0
  3
________  __  ________  __  ________  __  _____
 72
    65
 73
     4
 40
4.0
 49
2.5
 74
     0
 49
-0.5
 74
     0
 49
0.5
 74
     0
 49
-0.5
 74
     0
  0
LTYPE
  5
26
100
AcDbSymbolTableRecord
100
AcDbLinetypeTableRecord
  2
DASHDOT
 70
     0
  3
__ . __ . __ . __ . __ . __ . __ . __ . __ . __
 72
    65
 73
     4
 40
1.0
 49
0.5
 74
     0
 49
-0.25
 74
     0
 49
0.0
 74
     0
 49
-0.25
 74
     0
  0
LTYPE
  5
27
100
AcDbSymbolTableRecord
100
AcDbLinetypeTableRecord
  2
DASHDOT2
 70
     0
  3
_._._._._._._._._._._._._._._._._._._._._._._._
 72
    65
 73
     4
 40
0.5
 49
0.25
 74
     0
 49
-0.125
 74
     0
 49
0.0
 74
     0
 49
-0.125
 74
     0
  0
LTYPE
  5
28
100
AcDbSymbolTableRecord
100
AcDbLinetypeTableRecord
  2
DASHDOTX2
 70
     0
  3
____  .  ____  .  ____  .  ____  .  ____  .  __
 72
    65
 73
     4
 40
2.0
 49
1.0
 74
     0
 49
-0.5
 74
     0
 49
0.0
 74
     0
 49
-0.5
 74
     0
  0
LTYPE
  5
29
100
AcDbSymbolTableRecord
100
AcDbLinetypeTableRecord
  2
DASHED
 70
     0
  3
__ __ __ __ __ __ __ __ __ __ __ __ __ __ __ __
 72
    65
 73
     2
 40
0.75
 49
0.5
 74
     0
 49
-0.25
 74
     0
  0
LTYPE
  5
2A
100
AcDbSymbolTableRecord
100
AcDbLinetypeTableRecord
  2
DASHED2
 70
     0
  3
_ _ _ _ _ _ _ _ _ _ _ _ _ _ _ _ _ _ _ _ _ _ _ _
 72
    65
 73
     2
 40
0.375
 49
0.25
 74
     0
 49
-0.125
 74
     0
  0
LTYPE
  5
2B
100
AcDbSymbolTableRecord
100
AcDbLinetypeTableRecord
  2
DASHEDX2
 70
     0
  3
____  ____  ____  ____  ____  ____  ____  ____ 
 72
    65
 73
     2
 40
1.5
 49
1.0
 74
     0
 49
-0.5
 74
     0
  0
LTYPE
  5
2C
100
AcDbSymbolTableRecord
100
AcDbLinetypeTableRecord
  2
DIVIDE
 70
     0
  3
____ . . ____ . . ____ . . ____ . . ____ . . __
 72
    65
 73
     6
 40
1.25
 49
0.5
 74
     0
 49
-0.25
 74
     0
 49
0.0
 74
     0
 49
-0.25
 74
     0
 49
0.0
 74
     0
 49
-0.25
 74
     0
  0
LTYPE
  5
2D
100
AcDbSymbolTableRecord
100
AcDbLinetypeTableRecord
  2
DIVIDE2
 70
     0
  3
__..__..__..__..__..__..__..__..__..__..__..__.
 72
    65
 73
     6
 40
0.625
 49
0.25
 74
     0
 49
-0.125
 74
     0
 49
0.0
 74
     0
 49
-0.125
 74
     0
 49
0.0
 74
     0
 49
-0.125
 74
     0
  0
LTYPE
  5
2E
100
AcDbSymbolTableRecord
100
AcDbLinetypeTableRecord
  2
DIVIDEX2
 70
     0
  3
________  .  .  ________  .  .  ________  .  . 
 72
    65
 73
     6
 40
2.5
 49
1.0
 74
     0
 49
-0.5
 74
     0
 49
0.0
 74
     0
 49
-0.5
 74
     0
 49
0.0
 74
     0
 49
-0.5
 74
     0
  0
LTYPE
  5
2F
100
AcDbSymbolTableRecord
100
AcDbLinetypeTableRecord
  2
DOT
 70
     0
  3
. . . . . . . . . . . . . . . . . . . . . . . .
 72
    65
 73
     2
 40
0.25
 49
0.0
 74
     0
 49
-0.25
 74
     0
  0
LTYPE
  5
30
100
AcDbSymbolTableRecord
100
AcDbLinetypeTableRecord
  2
DOT2
 70
     0
  3
...............................................
 72
    65
 73
     2
 40
0.125
 49
0.0
 74
     0
 49
-0.125
 74
     0
  0
LTYPE
  5
31
100
AcDbSymbolTableRecord
100
AcDbLinetypeTableRecord
  2
DOTX2
 70
     0
  3
.  .  .  .  .  .  .  .  .  .  .  .  .  .  .  . 
 72
    65
 73
     2
 40
0.5
 49
0.0
 74
     0
 49
-0.5
 74
     0
  0
LTYPE
  5
32
100
AcDbSymbolTableRecord
100
AcDbLinetypeTableRecord
  2
HIDDEN
 70
     0
  3
__ __ __ __ __ __ __ __ __ __ __ __ __ __ __ __
 72
    65
 73
     2
 40
0.375
 49
0.25
 74
     0
 49
-0.125
 74
     0
  0
LTYPE
  5
33
100
AcDbSymbolTableRecord
100
AcDbLinetypeTableRecord
  2
HIDDEN2
 70
     0
  3
_ _ _ _ _ _ _ _ _ _ _ _ _ _ _ _ _ _ _ _ _ _ _ _
 72
    65
 73
     2
 40
0.1875
 49
0.125
 74
     0
 49
-0.0625
 74
     0
  0
LTYPE
  5
34
100
AcDbSymbolTableRecord
100
AcDbLinetypeTableRecord
  2
HIDDENX2
 70
     0
  3
____ ____ ____ ____ ____ ____ ____ ____ ____ __
 72
    65
 73
     2
 40
0.75
 49
0.5
 74
     0
 49
-0.25
 74
     0
  0
LTYPE
  5
35
100
AcDbSymbolTableRecord
100
AcDbLinetypeTableRecord
  2
PHANTOM
 70
     0
  3
______  __  __  ______  __  __  ______  __  __ 
 72
    65
 73
     6
 40
2.5
 49
1.25
 74
     0
 49
-0.25
 74
     0
 49
0.25
 74
     0
 49
-0.25
 74
     0
 49
0.25
 74
     0
 49
-0.25
 74
     0
  0
LTYPE
  5
36
100
AcDbSymbolTableRecord
100
AcDbLinetypeTableRecord
  2
PHANTOM2
 70
     0
  3
___ _ _ ___ _ _ ___ _ _ ___ _ _ ___ _ _ ___ _ _
 72
    65
 73
     6
 40
1.25
 49
0.625
 74
     0
 49
-0.125
 74
     0
 49
0.125
 74
     0
 49
-0.125
 74
     0
 49
0.125
 74
     0
 49
-0.125
 74
     0
  0
LTYPE
  5
37
100
AcDbSymbolTableRecord
100
AcDbLinetypeTableRecord
  2
PHANTOMX2
 70
     0
  3
____________    ____    ____    ____________   
 72
    65
 73
     6
 40
5.0
 49
2.5
 74
     0
 49
-0.5
 74
     0
 49
0.5
 74
     0
 49
-0.5
 74
     0
 49
0.5
 74
     0
 49
-0.5
 74
     0
  0
ENDTAB
   0
TABLE
   2
LAYER
   5
2
 100
AcDbSymbolTable
  70
2
   0
LAYER
   5
E
 100
AcDbSymbolTableRecord
 100
AcDbLayerTableRecord
   2
0
  70
0
  62
7
   6
CONTINUOUS
 390
30
   0
LAYER
   5
39
 100
AcDbSymbolTableRecord
 100
AcDbLayerTableRecord
   2
LEVEL001
  70
0
  62
7
   6
CONTINUOUS
 390
30
   0
ENDTAB
  0
TABLE
  2
STYLE
  5
3
100
AcDbSymbolTable
  70
8
  0
STYLE
  5
F
100
AcDbSymbolTableRecord
100
AcDbTextStyleTableRecord
  2
STANDARD
 70
     0
 40
0.0
 41
1.0
 50
0.0
 71
     0
 42
0.2
  3
TXT
  4
BIGFONT
  0
STYLE
  5
38
100
AcDbSymbolTableRecord
100
AcDbTextStyleTableRecord
  2
STANDARD1
 70
     4
 40
0.0
 41
1.0
 50
0.0
 71
     0
 42
0.2
  3
TXT
  4
BIGFONT
   0
STYLE
   5
3A
 100
AcDbSymbolTableRecord
 100
AcDbTextStyleTableRecord
   2
GMM001
  70
0
  40
0.0
  41
 0.66666666666667
  50
0.0
  71
     0
  42
1.0
   3
txt.shx
   4
bigfont.shx
   0
STYLE
   5
3B
 100
AcDbSymbolTableRecord
 100
AcDbTextStyleTableRecord
   2
GMM002
  70
0
  40
0.0
  41
 1.0000000000000
  50
0.0
  71
     0
  42
1.0
   3

   4

1001
ACAD
1000
ＭＳ ゴシック
1071
32817
   0
STYLE
   5
3C
 100
AcDbSymbolTableRecord
 100
AcDbTextStyleTableRecord
   2
GMM003
  70
0
  40
0.0
  41
 0.66666666666667
  50
0.0
  71
     0
  42
1.0
   3

   4

1001
ACAD
1000
ＭＳ ゴシック
1071
32817
   0
STYLE
   5
3D
 100
AcDbSymbolTableRecord
 100
AcDbTextStyleTableRecord
   2
GMM004
  70
0
  40
0.0
  41
 1.5000000000000
  50
0.0
  71
     0
  42
1.0
   3

   4

1001
ACAD
1000
ＭＳ ゴシック
1071
32817
   0
STYLE
   5
3E
 100
AcDbSymbolTableRecord
 100
AcDbTextStyleTableRecord
   2
GMM005
  70
0
  40
0.0
  41
 1.0000000000000
  50
0.0
  71
     0
  42
1.0
   3
txt.shx
   4
bigfont.shx
   0
STYLE
   5
3F
 100
AcDbSymbolTableRecord
 100
AcDbTextStyleTableRecord
   2
GMM006
  70
0
  40
0.0
  41
 0.75000000000000
  50
0.0
  71
     0
  42
1.0
   3
txt.shx
   4
bigfont.shx
   0
ENDTAB
  0
TABLE
  2
VIEW
  5
6
100
AcDbSymbolTable
 70
     0
  0
ENDTAB
  0
TABLE
  2
UCS
  5
7
100
AcDbSymbolTable
 70
     0
  0
ENDTAB
  0
TABLE
  2
APPID
  5
9
100
AcDbSymbolTable
 70
     1
  0
APPID
  5
10
100
AcDbSymbolTableRecord
100
AcDbRegAppTableRecord
  2
ACAD
 70
     0
  0
ENDTAB
   0
TABLE
   2
DIMSTYLE
   5
A
 100
AcDbSymbolTable
  70
9
 100
AcDbDimStyleTable
  0
DIMSTYLE
105
1D
100
AcDbSymbolTableRecord
100
AcDbDimStyleTableRecord
  2
STANDARD
 70
     0
  3

  4

  5

  6

  7

 40
1.0
 41
0.18
 42
0.0625
 43
0.38
 44
0.18
 45
0.0
 46
0.0
 47
0.0
 48
0.0
140
0.18
141
0.09
142
0.0
143
25.4
144
1.0
145
0.0
146
1.0
147
0.09
 71
     0
 72
     0
 73
     1
 74
     1
 75
     0
 76
     0
 77
     0
 78
     0
170
     0
171
     2
172
     0
173
     0
174
     0
175
     0
176
     0
177
     0
178
     0
270
     2
271
     4
272
     4
273
     2
274
     2
340
F
275
     0
280
     0
281
     0
282
     0
283
     1
284
     0
285
     0
286
     0
287
     3
288
     0
   0
DIMSTYLE
 105
40
 100
AcDbSymbolTableRecord
 100
AcDbDimStyleTableRecord
   2
GMM001
  70
0
   3

   4

   5

   6
_OPEN
   7
_OPEN
  40
 1.0000000000000
  41
 30.000000000000
  42
 30.000000000000
  43
 160.00000000000
  44
 30.000000000000
  45
0.0
  46
 37.500000000000
  47
0.0
  48
0.0
 140
 66.000000000000
 141
 20.000000000000
 142
0.0
 143
 0.39400000000000E-1
 144
 1.0000000000000
 145
0.0
 146
 0.62500000000000
 147
0.0
  71
0
  72
0
  73
0
  74
0
  75
1
  76
1
  77
0
  78
8
 170
0
 171
2
 172
1
 173
1
 174
0
 175
0
 176
1
 177
1
 178
7
 270
2
 271
1
 272
0
 273
2
 274
2
 340
F
 275
0
 280
0
 281
0
 282
0
 283
1
 284
0
 285
0
 286
0
 287
3
 288
1
   0
DIMSTYLE
 105
41
 100
AcDbSymbolTableRecord
 100
AcDbDimStyleTableRecord
   2
GMM002
  70
0
   3

   4

   5

   6
_OPEN
   7
_OPEN
  40
 1.0000000000000
  41
 42.000000000000
  42
 30.000000000000
  43
 160.00000000000
  44
 30.000000000000
  45
0.0
  46
 52.500000000000
  47
0.0
  48
0.0
 140
 60.000000000000
 141
 20.000000000000
 142
0.0
 143
 0.39400000000000E-1
 144
 1.0000000000000
 145
0.0
 146
 0.62500000000000
 147
0.0
  71
0
  72
0
  73
0
  74
0
  75
1
  76
1
  77
0
  78
8
 170
0
 171
2
 172
1
 173
1
 174
0
 175
0
 176
1
 177
1
 178
7
 270
2
 271
1
 272
0
 273
2
 274
2
 340
F
 275
0
 280
0
 281
0
 282
0
 283
1
 284
0
 285
0
 286
0
 287
3
 288
1
   0
DIMSTYLE
 105
42
 100
AcDbSymbolTableRecord
 100
AcDbDimStyleTableRecord
   2
GMM003
  70
0
   3
□<>
   4

   5

   6
_OPEN
   7
_OPEN
  40
 1.0000000000000
  41
 42.000000000000
  42
 30.000000000000
  43
 160.00000000000
  44
 30.000000000000
  45
0.0
  46
0.0
  47
0.0
  48
0.0
 140
 60.000000000000
 141
 20.000000000000
 142
0.0
 143
 0.39400000000000E-1
 144
 1.0000000000000
 145
0.0
 146
 0.83333333333333
 147
 25.714285714286
  71
0
  72
0
  73
0
  74
0
  75
0
  76
0
  77
3
  78
8
 170
0
 171
2
 172
1
 173
1
 174
0
 175
0
 176
6
 177
6
 178
1
 270
2
 271
6
 272
0
 273
2
 274
2
 340
3E
 275
1
 280
0
 281
0
 282
0
 283
1
 284
0
 285
0
 286
0
 287
3
 288
0
   0
DIMSTYLE
 105
43
 100
AcDbSymbolTableRecord
 100
AcDbDimStyleTableRecord
   2
GMM004
  70
0
   3

   4

   5

   6
_OPEN
   7
_OPEN
  40
 1.0000000000000
  41
 42.000000000000
  42
 30.000000000000
  43
 160.00000000000
  44
 30.000000000000
  45
0.0
  46
0.0
  47
0.0
  48
0.0
 140
 60.000000000000
 141
 20.000000000000
 142
0.0
 143
 0.39400000000000E-1
 144
 1.0000000000000
 145
0.0
 146
 0.83333333333333
 147
 25.714285714286
  71
0
  72
0
  73
0
  74
0
  75
0
  76
0
  77
3
  78
8
 170
0
 171
2
 172
1
 173
1
 174
0
 175
0
 176
6
 177
6
 178
1
 270
2
 271
6
 272
0
 273
2
 274
2
 340
3E
 275
1
 280
0
 281
0
 282
0
 283
1
 284
0
 285
0
 286
0
 287
3
 288
0
   0
DIMSTYLE
 105
44
 100
AcDbSymbolTableRecord
 100
AcDbDimStyleTableRecord
   2
GMM005
  70
0
   3
%%c<>
   4

   5

   6
_OPEN
   7
_OPEN
  40
 1.0000000000000
  41
 42.000000000000
  42
 30.000000000000
  43
 160.00000000000
  44
 30.000000000000
  45
0.0
  46
0.0
  47
0.0
  48
0.0
 140
 60.000000000000
 141
 20.000000000000
 142
0.0
 143
 0.39400000000000E-1
 144
 1.0000000000000
 145
0.0
 146
 0.83333333333333
 147
 25.714285714286
  71
0
  72
0
  73
0
  74
0
  75
0
  76
0
  77
3
  78
8
 170
0
 171
2
 172
1
 173
1
 174
0
 175
0
 176
6
 177
6
 178
1
 270
2
 271
6
 272
0
 273
2
 274
2
 340
3E
 275
1
 280
0
 281
0
 282
0
 283
1
 284
0
 285
0
 286
0
 287
0
 288
0
   0
DIMSTYLE
 105
45
 100
AcDbSymbolTableRecord
 100
AcDbDimStyleTableRecord
   2
GMM006
  70
0
   3

   4

   5

   6
_OPEN
   7
_OPEN
  40
 1.0000000000000
  41
 42.000000000000
  42
 30.000000000000
  43
 160.00000000000
  44
 30.000000000000
  45
0.0
  46
0.0
  47
0.0
  48
0.0
 140
 60.000000000000
 141
 20.000000000000
 142
0.0
 143
 0.39400000000000E-1
 144
 1.0000000000000
 145
0.0
 146
 0.83333333333333
 147
 25.714285714286
  71
0
  72
0
  73
0
  74
0
  75
0
  76
0
  77
3
  78
8
 170
0
 171
2
 172
1
 173
1
 174
0
 175
0
 176
6
 177
6
 178
1
 270
2
 271
6
 272
0
 273
2
 274
2
 340
3E
 275
1
 280
0
 281
0
 282
0
 283
1
 284
0
 285
0
 286
0
 287
3
 288
0
   0
DIMSTYLE
 105
46
 100
AcDbSymbolTableRecord
 100
AcDbDimStyleTableRecord
   2
GMM007
  70
0
   3

   4

   5

   6
_OPEN
   7
_OPEN
  40
 1.0000000000000
  41
 42.000000000000
  42
 30.000000000000
  43
 160.00000000000
  44
 30.000000000000
  45
0.0
  46
0.0
  47
0.0
  48
0.0
 140
 60.000000000000
 141
 20.000000000000
 142
0.0
 143
 0.39400000000000E-1
 144
 1.0000000000000
 145
0.0
 146
 0.83333333333333
 147
 25.714285714286
  71
0
  72
0
  73
0
  74
0
  75
0
  76
1
  77
3
  78
8
 170
0
 171
2
 172
1
 173
1
 174
0
 175
0
 176
6
 177
6
 178
1
 270
2
 271
6
 272
0
 273
2
 274
2
 340
3E
 275
1
 280
0
 281
0
 282
0
 283
1
 284
0
 285
0
 286
0
 287
3
 288
0
   0
ENDTAB
  0
TABLE
  2
BLOCK_RECORD
  5
1
100
AcDbSymbolTable
 70
     0
  0
BLOCK_RECORD
  5
18
100
AcDbSymbolTableRecord
100
AcDbBlockTableRecord
  2
*MODEL_SPACE
  0
BLOCK_RECORD
  5
15
100
AcDbSymbolTableRecord
100
AcDbBlockTableRecord
  2
*PAPER_SPACE
   0
BLOCK_RECORD
   5
47
 100
AcDbSymbolTableRecord
 100
AcDbBlockTableRecord
   2
*D14
   0
BLOCK_RECORD
   5
48
 100
AcDbSymbolTableRecord
 100
AcDbBlockTableRecord
   2
*D15
   0
BLOCK_RECORD
   5
49
 100
AcDbSymbolTableRecord
 100
AcDbBlockTableRecord
   2
*D16
   0
BLOCK_RECORD
   5
4A
 100
AcDbSymbolTableRecord
 100
AcDbBlockTableRecord
   2
*D17
   0
BLOCK_RECORD
   5
4B
 100
AcDbSymbolTableRecord
 100
AcDbBlockTableRecord
   2
*D18
   0
BLOCK_RECORD
   5
4C
 100
AcDbSymbolTableRecord
 100
AcDbBlockTableRecord
   2
*D19
   0
BLOCK_RECORD
   5
4D
 100
AcDbSymbolTableRecord
 100
AcDbBlockTableRecord
   2
*D20
   0
BLOCK_RECORD
   5
4E
 100
AcDbSymbolTableRecord
 100
AcDbBlockTableRecord
   2
_ARCHTICK
   0
BLOCK_RECORD
   5
4F
 100
AcDbSymbolTableRecord
 100
AcDbBlockTableRecord
   2
_BOXBLANK
   0
BLOCK_RECORD
   5
50
 100
AcDbSymbolTableRecord
 100
AcDbBlockTableRecord
   2
_BOXFILLED
   0
BLOCK_RECORD
   5
51
 100
AcDbSymbolTableRecord
 100
AcDbBlockTableRecord
   2
_CLOSED
   0
BLOCK_RECORD
   5
52
 100
AcDbSymbolTableRecord
 100
AcDbBlockTableRecord
   2
_CLOSEDBLANK
   0
BLOCK_RECORD
   5
53
 100
AcDbSymbolTableRecord
 100
AcDbBlockTableRecord
   2
_DATUMBLANK
   0
BLOCK_RECORD
   5
54
 100
AcDbSymbolTableRecord
 100
AcDbBlockTableRecord
   2
_DATUMFILLED
   0
BLOCK_RECORD
   5
55
 100
AcDbSymbolTableRecord
 100
AcDbBlockTableRecord
   2
_DOT
   0
BLOCK_RECORD
   5
56
 100
AcDbSymbolTableRecord
 100
AcDbBlockTableRecord
   2
_DOTBLANK
   0
BLOCK_RECORD
   5
57
 100
AcDbSymbolTableRecord
 100
AcDbBlockTableRecord
   2
_DOTSMALL
   0
BLOCK_RECORD
   5
58
 100
AcDbSymbolTableRecord
 100
AcDbBlockTableRecord
   2
_INTEGRAL
   0
BLOCK_RECORD
   5
59
 100
AcDbSymbolTableRecord
 100
AcDbBlockTableRecord
   2
_NONE
   0
BLOCK_RECORD
   5
5A
 100
AcDbSymbolTableRecord
 100
AcDbBlockTableRecord
   2
_OBLIQUE
   0
BLOCK_RECORD
   5
5B
 100
AcDbSymbolTableRecord
 100
AcDbBlockTableRecord
   2
_OPEN
   0
BLOCK_RECORD
   5
5C
 100
AcDbSymbolTableRecord
 100
AcDbBlockTableRecord
   2
_OPEN30
   0
BLOCK_RECORD
   5
5D
 100
AcDbSymbolTableRecord
 100
AcDbBlockTableRecord
   2
_OPEN90
   0
BLOCK_RECORD
   5
5E
 100
AcDbSymbolTableRecord
 100
AcDbBlockTableRecord
   2
_ORIGIN
   0
ENDTAB
   0
ENDSEC
  0
SECTION
  2
BLOCKS
  0
BLOCK
  5
19
100
AcDbEntity
  8
0
100
AcDbBlockBegin
  2
*MODEL_SPACE
 70
     0
 10
0.0
 20
0.0
 30
0.0
  3
*MODEL_SPACE
  1

  0
ENDBLK
  5
1A
100
AcDbEntity
  8
0
100
AcDbBlockEnd
  0
BLOCK
  5
16
100
AcDbEntity
 67
     1
  8
0
100
AcDbBlockBegin
  2
*PAPER_SPACE
 70
     0
 10
0.0
 20
0.0
 30
0.0
  3
*PAPER_SPACE
  1

  0
ENDBLK
  5
17
100
AcDbEntity
 67
     1
  8
0
100
AcDbBlockEnd
   0
BLOCK
   5
5F
 100
AcDbEntity
   8
0
 100
AcDbBlockBegin
   2
_ARCHTICK
  70
0
  10
0.0
  20
0.0
  30
0.0
   3
_ARCHTICK
   0
POLYLINE
   5
60
 100
AcDbEntity
   8
0
 370
-2
   6
BYBLOCK
  62
0
 100
AcDb2dPolyline
  66
1
  10
0.0
  20
0.0
  30
0.0
  70
1
  40
 0.15000000000000
  41
 0.15000000000000
   0
VERTEX
   5
61
 100
AcDbEntity
   8
0
   6
BYBLOCK
  62
0
 100
AcDbVertex
 100
AcDb2dVertex
  10
-0.50000000000000
  20
-0.50000000000000
  30
0.0
  40
 0.15000000000000
  41
 0.15000000000000
   0
VERTEX
   5
62
 100
AcDbEntity
   8
0
   6
BYBLOCK
  62
0
 100
AcDbVertex
 100
AcDb2dVertex
  10
 0.50000000000000
  20
 0.50000000000000
  30
0.0
  40
 0.15000000000000
  41
 0.15000000000000
   0
SEQEND
   5
63
 100
AcDbEntity
   8
0
   6
BYBLOCK
  62
0
   0
ENDBLK
   5
64
 100
AcDbEntity
   8
0
 100
AcDbBlockEnd
   0
BLOCK
   5
65
 100
AcDbEntity
   8
0
 100
AcDbBlockBegin
   2
_OBLIQUE
  70
0
  10
0.0
  20
0.0
  30
0.0
   3
_OBLIQUE
   0
LINE
   5
66
 100
AcDbEntity
   8
0
 370
-2
 100
AcDbLine
   6
BYBLOCK
  62
0
  10
-0.50000000000000
  20
-0.50000000000000
  30
0.0
  11
 0.50000000000000
  21
 0.50000000000000
  31
0.0
   0
ENDBLK
   5
67
 100
AcDbEntity
   8
0
 100
AcDbBlockEnd
   0
BLOCK
   5
68
 100
AcDbEntity
   8
0
 100
AcDbBlockBegin
   2
_BOXBLANK
  70
0
  10
0.0
  20
0.0
  30
0.0
   3
_BOXBLANK
   0
LINE
   5
69
 100
AcDbEntity
   8
0
 370
-2
 100
AcDbLine
   6
BYBLOCK
  62
0
  10
-0.50000000000000
  20
-0.50000000000000
  30
0.0
  11
 0.50000000000000
  21
-0.50000000000000
  31
0.0
   0
LINE
   5
6A
 100
AcDbEntity
   8
0
 370
-2
 100
AcDbLine
   6
BYBLOCK
  62
0
  10
 0.50000000000000
  20
-0.50000000000000
  30
0.0
  11
 0.50000000000000
  21
 0.50000000000000
  31
0.0
   0
LINE
   5
6B
 100
AcDbEntity
   8
0
 370
-2
 100
AcDbLine
   6
BYBLOCK
  62
0
  10
 0.50000000000000
  20
 0.50000000000000
  30
0.0
  11
-0.50000000000000
  21
 0.50000000000000
  31
0.0
   0
LINE
   5
6C
 100
AcDbEntity
   8
0
 370
-2
 100
AcDbLine
   6
BYBLOCK
  62
0
  10
-0.50000000000000
  20
 0.50000000000000
  30
0.0
  11
-0.50000000000000
  21
-0.50000000000000
  31
0.0
   0
LINE
   5
6D
 100
AcDbEntity
   8
0
 370
-2
 100
AcDbLine
   6
BYBLOCK
  62
0
  10
-0.50000000000000
  20
0.0
  30
0.0
  11
-1.0000000000000
  21
0.0
  31
0.0
   0
ENDBLK
   5
6E
 100
AcDbEntity
   8
0
 100
AcDbBlockEnd
   0
BLOCK
   5
6F
 100
AcDbEntity
   8
0
 100
AcDbBlockBegin
   2
_BOXFILLED
  70
0
  10
0.0
  20
0.0
  30
0.0
   3
_BOXFILLED
   0
SOLID
   5
70
 100
AcDbEntity
   8
0
 100
AcDbTrace
   6
BYBLOCK
  62
0
  10
-0.50000000000000
  20
 0.50000000000000
  30
0.0
  11
 0.50000000000000
  21
 0.50000000000000
  31
0.0
  12
-0.50000000000000
  22
-0.50000000000000
  32
0.0
  13
 0.50000000000000
  23
-0.50000000000000
  33
0.0
   0
LINE
   5
71
 100
AcDbEntity
   8
0
 370
-2
 100
AcDbLine
   6
BYBLOCK
  62
0
  10
-0.50000000000000
  20
0.0
  30
0.0
  11
-1.0000000000000
  21
0.0
  31
0.0
   0
ENDBLK
   5
72
 100
AcDbEntity
   8
0
 100
AcDbBlockEnd
   0
BLOCK
   5
73
 100
AcDbEntity
   8
0
 100
AcDbBlockBegin
   2
_CLOSED
  70
0
  10
0.0
  20
0.0
  30
0.0
   3
_CLOSED
   0
LINE
   5
74
 100
AcDbEntity
   8
0
 370
-2
 100
AcDbLine
   6
BYBLOCK
  62
0
  10
-1.0000000000000
  20
 0.16666666666667
  30
0.0
  11
0.0
  21
0.0
  31
0.0
   0
LINE
   5
75
 100
AcDbEntity
   8
0
 370
-2
 100
AcDbLine
   6
BYBLOCK
  62
0
  10
0.0
  20
0.0
  30
0.0
  11
-1.0000000000000
  21
-0.16666666666667
  31
0.0
   0
LINE
   5
76
 100
AcDbEntity
   8
0
 370
-2
 100
AcDbLine
   6
BYBLOCK
  62
0
  10
-1.0000000000000
  20
 0.16666666666667
  30
0.0
  11
-1.0000000000000
  21
-0.16666666666667
  31
0.0
   0
LINE
   5
77
 100
AcDbEntity
   8
0
 370
-2
 100
AcDbLine
   6
BYBLOCK
  62
0
  10
0.0
  20
0.0
  30
0.0
  11
-1.0000000000000
  21
0.0
  31
0.0
   0
ENDBLK
   5
78
 100
AcDbEntity
   8
0
 100
AcDbBlockEnd
   0
BLOCK
   5
79
 100
AcDbEntity
   8
0
 100
AcDbBlockBegin
   2
_OPEN
  70
0
  10
0.0
  20
0.0
  30
0.0
   3
_OPEN
   0
LINE
   5
7A
 100
AcDbEntity
   8
0
 370
-2
 100
AcDbLine
   6
BYBLOCK
  62
0
  10
-1.0000000000000
  20
 0.16666666666667
  30
0.0
  11
0.0
  21
0.0
  31
0.0
   0
LINE
   5
7B
 100
AcDbEntity
   8
0
 370
-2
 100
AcDbLine
   6
BYBLOCK
  62
0
  10
0.0
  20
0.0
  30
0.0
  11
-1.0000000000000
  21
-0.16666666666667
  31
0.0
   0
LINE
   5
7C
 100
AcDbEntity
   8
0
 370
-2
 100
AcDbLine
   6
BYBLOCK
  62
0
  10
0.0
  20
0.0
  30
0.0
  11
-1.0000000000000
  21
0.0
  31
0.0
   0
ENDBLK
   5
7D
 100
AcDbEntity
   8
0
 100
AcDbBlockEnd
   0
BLOCK
   5
7E
 100
AcDbEntity
   8
0
 100
AcDbBlockBegin
   2
_OPEN30
  70
0
  10
0.0
  20
0.0
  30
0.0
   3
_OPEN30
   0
LINE
   5
7F
 100
AcDbEntity
   8
0
 370
-2
 100
AcDbLine
   6
BYBLOCK
  62
0
  10
-1.0000000000000
  20
 0.26794919243110
  30
0.0
  11
0.0
  21
0.0
  31
0.0
   0
LINE
   5
80
 100
AcDbEntity
   8
0
 370
-2
 100
AcDbLine
   6
BYBLOCK
  62
0
  10
0.0
  20
0.0
  30
0.0
  11
-1.0000000000000
  21
-0.26794919243110
  31
0.0
   0
LINE
   5
81
 100
AcDbEntity
   8
0
 370
-2
 100
AcDbLine
   6
BYBLOCK
  62
0
  10
0.0
  20
0.0
  30
0.0
  11
-1.0000000000000
  21
0.0
  31
0.0
   0
ENDBLK
   5
82
 100
AcDbEntity
   8
0
 100
AcDbBlockEnd
   0
BLOCK
   5
83
 100
AcDbEntity
   8
0
 100
AcDbBlockBegin
   2
_OPEN90
  70
0
  10
0.0
  20
0.0
  30
0.0
   3
_OPEN90
   0
LINE
   5
84
 100
AcDbEntity
   8
0
 370
-2
 100
AcDbLine
   6
BYBLOCK
  62
0
  10
-0.50000000000000
  20
 0.50000000000000
  30
0.0
  11
0.0
  21
0.0
  31
0.0
   0
LINE
   5
85
 100
AcDbEntity
   8
0
 370
-2
 100
AcDbLine
   6
BYBLOCK
  62
0
  10
0.0
  20
0.0
  30
0.0
  11
-0.50000000000000
  21
-0.50000000000000
  31
0.0
   0
LINE
   5
86
 100
AcDbEntity
   8
0
 370
-2
 100
AcDbLine
   6
BYBLOCK
  62
0
  10
0.0
  20
0.0
  30
0.0
  11
-1.0000000000000
  21
0.0
  31
0.0
   0
ENDBLK
   5
87
 100
AcDbEntity
   8
0
 100
AcDbBlockEnd
   0
BLOCK
   5
88
 100
AcDbEntity
   8
0
 100
AcDbBlockBegin
   2
_CLOSEDBLANK
  70
0
  10
0.0
  20
0.0
  30
0.0
   3
_CLOSEDBLANK
   0
LINE
   5
89
 100
AcDbEntity
   8
0
 370
-2
 100
AcDbLine
   6
BYBLOCK
  62
0
  10
-1.0000000000000
  20
 0.16666666666667
  30
0.0
  11
0.0
  21
0.0
  31
0.0
   0
LINE
   5
8A
 100
AcDbEntity
   8
0
 370
-2
 100
AcDbLine
   6
BYBLOCK
  62
0
  10
0.0
  20
0.0
  30
0.0
  11
-1.0000000000000
  21
-0.16666666666667
  31
0.0
   0
LINE
   5
8B
 100
AcDbEntity
   8
0
 370
-2
 100
AcDbLine
   6
BYBLOCK
  62
0
  10
-1.0000000000000
  20
 0.16666666666667
  30
0.0
  11
-1.0000000000000
  21
-0.16666666666667
  31
0.0
   0
ENDBLK
   5
8C
 100
AcDbEntity
   8
0
 100
AcDbBlockEnd
   0
BLOCK
   5
8D
 100
AcDbEntity
   8
0
 100
AcDbBlockBegin
   2
_DOT
  70
0
  10
0.0
  20
0.0
  30
0.0
   3
_DOT
   0
POLYLINE
   5
8E
 100
AcDbEntity
   8
0
 370
-2
   6
BYBLOCK
  62
0
 100
AcDb2dPolyline
  66
1
  10
0.0
  20
0.0
  30
0.0
  70
1
  40
 0.50000000000000
  41
 0.50000000000000
   0
VERTEX
   5
8F
 100
AcDbEntity
   8
0
   6
BYBLOCK
  62
0
 100
AcDbVertex
 100
AcDb2dVertex
  10
-0.25000000000000
  20
0.0
  30
0.0
  42
 1.0000000000000
  40
 0.50000000000000
  41
 0.50000000000000
   0
VERTEX
   5
90
 100
AcDbEntity
   8
0
   6
BYBLOCK
  62
0
 100
AcDbVertex
 100
AcDb2dVertex
  10
 0.25000000000000
  20
0.0
  30
0.0
  42
 1.0000000000000
  40
 0.50000000000000
  41
 0.50000000000000
   0
SEQEND
   5
91
 100
AcDbEntity
   8
0
   6
BYBLOCK
  62
0
   0
LINE
   5
92
 100
AcDbEntity
   8
0
 370
-2
 100
AcDbLine
   6
BYBLOCK
  62
0
  10
-0.50000000000000
  20
0.0
  30
0.0
  11
-1.0000000000000
  21
0.0
  31
0.0
   0
ENDBLK
   5
93
 100
AcDbEntity
   8
0
 100
AcDbBlockEnd
   0
BLOCK
   5
94
 100
AcDbEntity
   8
0
 100
AcDbBlockBegin
   2
_DOTSMALL
  70
0
  10
0.0
  20
0.0
  30
0.0
   3
_DOTSMALL
   0
POLYLINE
   5
95
 100
AcDbEntity
   8
0
 370
-2
   6
BYBLOCK
  62
0
 100
AcDb2dPolyline
  66
1
  10
0.0
  20
0.0
  30
0.0
  70
1
  40
 0.50000000000000
  41
 0.50000000000000
   0
VERTEX
   5
96
 100
AcDbEntity
   8
0
   6
BYBLOCK
  62
0
 100
AcDbVertex
 100
AcDb2dVertex
  10
-0.62500000000000E-1
  20
0.0
  30
0.0
  42
 1.0000000000000
  40
 0.50000000000000
  41
 0.50000000000000
   0
VERTEX
   5
97
 100
AcDbEntity
   8
0
   6
BYBLOCK
  62
0
 100
AcDbVertex
 100
AcDb2dVertex
  10
 0.62500000000000E-1
  20
0.0
  30
0.0
  42
 1.0000000000000
  40
 0.50000000000000
  41
 0.50000000000000
   0
SEQEND
   5
98
 100
AcDbEntity
   8
0
   6
BYBLOCK
  62
0
   0
ENDBLK
   5
99
 100
AcDbEntity
   8
0
 100
AcDbBlockEnd
   0
BLOCK
   5
9A
 100
AcDbEntity
   8
0
 100
AcDbBlockBegin
   2
_DATUMBLANK
  70
0
  10
0.0
  20
0.0
  30
0.0
   3
_DATUMBLANK
   0
LINE
   5
9B
 100
AcDbEntity
   8
0
 370
-2
 100
AcDbLine
   6
BYBLOCK
  62
0
  10
0.0
  20
 0.57735027000000
  30
0.0
  11
-1.0000000000000
  21
0.0
  31
0.0
   0
LINE
   5
9C
 100
AcDbEntity
   8
0
 370
-2
 100
AcDbLine
   6
BYBLOCK
  62
0
  10
-1.0000000000000
  20
0.0
  30
0.0
  11
0.0
  21
-0.57735027000000
  31
0.0
   0
LINE
   5
9D
 100
AcDbEntity
   8
0
 370
-2
 100
AcDbLine
   6
BYBLOCK
  62
0
  10
0.0
  20
-0.57735027000000
  30
0.0
  11
0.0
  21
 0.57735027000000
  31
0.0
   0
ENDBLK
   5
9E
 100
AcDbEntity
   8
0
 100
AcDbBlockEnd
   0
BLOCK
   5
9F
 100
AcDbEntity
   8
0
 100
AcDbBlockBegin
   2
_DATUMFILLED
  70
0
  10
0.0
  20
0.0
  30
0.0
   3
_DATUMFILLED
   0
SOLID
   5
A0
 100
AcDbEntity
   8
0
 100
AcDbTrace
   6
BYBLOCK
  62
0
  10
0.0
  20
 0.57735027000000
  30
0.0
  11
-1.0000000000000
  21
0.0
  31
0.0
  12
0.0
  22
-0.57735027000000
  32
0.0
  13
0.0
  23
-0.57735027000000
  33
0.0
   0
ENDBLK
   5
A1
 100
AcDbEntity
   8
0
 100
AcDbBlockEnd
   0
BLOCK
   5
A2
 100
AcDbEntity
   8
0
 100
AcDbBlockBegin
   2
_ORIGIN
  70
0
  10
0.0
  20
0.0
  30
0.0
   3
_ORIGIN
   0
CIRCLE
   5
A3
 100
AcDbEntity
   8
0
 370
-2
 100
AcDbCircle
   6
BYBLOCK
  62
0
  10
0.0
  20
0.0
  30
0.0
  40
 0.50000000000000
   0
LINE
   5
A4
 100
AcDbEntity
   8
0
 370
-2
 100
AcDbLine
   6
BYBLOCK
  62
0
  10
0.0
  20
0.0
  30
0.0
  11
-1.0000000000000
  21
0.0
  31
0.0
   0
ENDBLK
   5
A5
 100
AcDbEntity
   8
0
 100
AcDbBlockEnd
   0
BLOCK
   5
A6
 100
AcDbEntity
   8
0
 100
AcDbBlockBegin
   2
_NONE
  70
0
  10
0.0
  20
0.0
  30
0.0
   3
_NONE
   0
CIRCLE
   5
A7
 100
AcDbEntity
   8
0
 370
-2
 100
AcDbCircle
   6
BYBLOCK
  62
0
  10
0.0
  20
0.0
  30
0.0
  40
 0.25000000000000
   0
ENDBLK
   5
A8
 100
AcDbEntity
   8
0
 100
AcDbBlockEnd
   0
BLOCK
   5
A9
 100
AcDbEntity
   8
0
 100
AcDbBlockBegin
   2
_DOTBLANK
  70
0
  10
0.0
  20
0.0
  30
0.0
   3
_DOTBLANK
   0
CIRCLE
   5
AA
 100
AcDbEntity
   8
0
 370
-2
 100
AcDbCircle
   6
BYBLOCK
  62
0
  10
0.0
  20
0.0
  30
0.0
  40
 0.50000000000000
   0
LINE
   5
AB
 100
AcDbEntity
   8
0
 370
-2
 100
AcDbLine
   6
BYBLOCK
  62
0
  10
-0.50000000000000
  20
0.0
  30
0.0
  11
-1.0000000000000
  21
0.0
  31
0.0
   0
ENDBLK
   5
AC
 100
AcDbEntity
   8
0
 100
AcDbBlockEnd
   0
BLOCK
   5
AD
 100
AcDbEntity
   8
0
 100
AcDbBlockBegin
   2
_INTEGRAL
  70
0
  10
0.0
  20
0.0
  30
0.0
   3
_INTEGRAL
   0
ARC
   5
AE
 100
AcDbEntity
   8
0
 370
-2
   6
BYBLOCK
  62
0
 100
AcDbCircle
  10
 0.44488800000000
  20
-0.91335000000000E-1
  30
0.0
  40
 0.45416700000000
 100
AcDbArc
  50
 102.00000000000
  51
 168.00000000000
   0
ARC
   5
AF
 100
AcDbEntity
   8
0
 370
-2
   6
BYBLOCK
  62
0
 100
AcDbCircle
  10
-0.44488800000000
  20
 0.91335000000000E-1
  30
0.0
  40
 0.45416700000000
 100
AcDbArc
  50
 282.00000000000
  51
 348.00000000000
   0
ENDBLK
   5
B0
 100
AcDbEntity
   8
0
 100
AcDbBlockEnd
   0
BLOCK
   5
B1
 100
AcDbEntity
   8
0
 100
AcDbBlockBegin
   2
*D14
  70
65
  10
0.0
  20
0.0
  30
0.0
   3
*D14
   0
LINE
   5
B2
 100
AcDbEntity
   8
0
 370
13
 100
AcDbLine
   6
CONTINUOUS
  62
6
  10
 1753.2877791474
  20
 764.30076577732
  30
0.0
  11
 1753.2877791474
  21
 564.30076577732
  31
0.0
   0
LINE
   5
B3
 100
AcDbEntity
   8
0
 370
13
 100
AcDbLine
   6
CONTINUOUS
  62
6
  10
 1253.2877791474
  20
 764.30076577732
  30
0.0
  11
 1253.2877791474
  21
 564.30076577732
  31
0.0
   0
LINE
   5
B4
 100
AcDbEntity
   8
0
 370
13
 100
AcDbLine
   6
CONTINUOUS
  62
6
  10
 1753.2877791474
  20
 594.30076577732
  30
0.0
  11
 1503.2877791474
  21
 594.30076577732
  31
0.0
   0
LINE
   5
B5
 100
AcDbEntity
   8
0
 370
13
 100
AcDbLine
   6
CONTINUOUS
  62
6
  10
 1253.2877791474
  20
 594.30076577732
  30
0.0
  11
 1503.2877791474
  21
 594.30076577732
  31
0.0
   0
INSERT
   5
B6
 100
AcDbEntity
   8
0
   6
CONTINUOUS
  62
6
 100
AcDbBlockReference
   2
_OPEN
  10
 1753.2877791474
  20
 594.30076577732
  30
0.0
  41
 42.000000000000
  42
 42.000000000000
  43
 42.000000000000
  50
0.0
   0
INSERT
   5
B7
 100
AcDbEntity
   8
0
   6
CONTINUOUS
  62
6
 100
AcDbBlockReference
   2
_OPEN
  10
 1253.2877791474
  20
 594.30076577732
  30
0.0
  41
 42.000000000000
  42
 42.000000000000
  43
 42.000000000000
  50
 180.00000000000
   0
MTEXT
   5
B8
 100
AcDbEntity
   8
0
 370
13
  62
1
 100
AcDbMText
  10
 1503.2877791474
  20
 620.01505149161
  30
0.0
  40
 60.000000000000
  41
0.0
  71
8
  72
1
   1
\A1;□500
   7
GMM005
   0
ENDBLK
   5
B9
 100
AcDbEntity
   8
0
 100
AcDbBlockEnd
   0
BLOCK
   5
BA
 100
AcDbEntity
   8
0
 100
AcDbBlockBegin
   2
*D15
  70
65
  10
0.0
  20
0.0
  30
0.0
   3
*D15
   0
LINE
   5
BB
 100
AcDbEntity
   8
0
 370
13
 100
AcDbLine
   6
CONTINUOUS
  62
6
  10
 2403.2877791474
  20
 764.30076577732
  30
0.0
  11
 2403.2877791474
  21
 564.30076577732
  31
0.0
   0
LINE
   5
BC
 100
AcDbEntity
   8
0
 370
13
 100
AcDbLine
   6
CONTINUOUS
  62
6
  10
 2903.2877791474
  20
 764.30076577732
  30
0.0
  11
 2903.2877791474
  21
 564.30076577732
  31
0.0
   0
LINE
   5
BD
 100
AcDbEntity
   8
0
 370
13
 100
AcDbLine
   6
CONTINUOUS
  62
6
  10
 2403.2877791474
  20
 594.30076577732
  30
0.0
  11
 2653.2877791474
  21
 594.30076577732
  31
0.0
   0
LINE
   5
BE
 100
AcDbEntity
   8
0
 370
13
 100
AcDbLine
   6
CONTINUOUS
  62
6
  10
 2903.2877791474
  20
 594.30076577732
  30
0.0
  11
 2653.2877791474
  21
 594.30076577732
  31
0.0
   0
INSERT
   5
BF
 100
AcDbEntity
   8
0
   6
CONTINUOUS
  62
6
 100
AcDbBlockReference
   2
_OPEN
  10
 2403.2877791474
  20
 594.30076577732
  30
0.0
  41
 42.000000000000
  42
 42.000000000000
  43
 42.000000000000
  50
 180.00000000000
   0
INSERT
   5
C0
 100
AcDbEntity
   8
0
   6
CONTINUOUS
  62
6
 100
AcDbBlockReference
   2
_OPEN
  10
 2903.2877791474
  20
 594.30076577732
  30
0.0
  41
 42.000000000000
  42
 42.000000000000
  43
 42.000000000000
  50
0.0
   0
MTEXT
   5
C1
 100
AcDbEntity
   8
0
 370
13
  62
1
 100
AcDbMText
  10
 2653.2877791474
  20
 620.01505149161
  30
0.0
  40
 60.000000000000
  41
0.0
  71
8
  72
1
   1
\A1;□500
   7
GMM005
   0
ENDBLK
   5
C2
 100
AcDbEntity
   8
0
 100
AcDbBlockEnd
   0
BLOCK
   5
C3
 100
AcDbEntity
   8
0
 100
AcDbBlockBegin
   2
*D16
  70
65
  10
0.0
  20
0.0
  30
0.0
   3
*D16
   0
LINE
   5
C4
 100
AcDbEntity
   8
0
 370
13
 100
AcDbLine
   6
CONTINUOUS
  62
6
  10
 1435.1377791474
  20
 4294.3007657773
  30
0.0
  11
 723.28777914739
  21
 4294.3007657773
  31
0.0
   0
LINE
   5
C5
 100
AcDbEntity
   8
0
 370
13
 100
AcDbLine
   6
CONTINUOUS
  62
6
  10
 973.28777914739
  20
 1794.3007657773
  30
0.0
  11
 723.28777914739
  21
 1794.3007657773
  31
0.0
   0
LINE
   5
C6
 100
AcDbEntity
   8
0
 370
13
 100
AcDbLine
   6
CONTINUOUS
  62
6
  10
 753.28777914739
  20
 4294.3007657773
  30
0.0
  11
 753.28777914739
  21
 3044.3007657773
  31
0.0
   0
LINE
   5
C7
 100
AcDbEntity
   8
0
 370
13
 100
AcDbLine
   6
CONTINUOUS
  62
6
  10
 753.28777914739
  20
 1794.3007657773
  30
0.0
  11
 753.28777914739
  21
 3044.3007657773
  31
0.0
   0
INSERT
   5
C8
 100
AcDbEntity
   8
0
   6
CONTINUOUS
  62
6
 100
AcDbBlockReference
   2
_OPEN
  10
 753.28777914739
  20
 4294.3007657773
  30
0.0
  41
 42.000000000000
  42
 42.000000000000
  43
 42.000000000000
  50
 90.000000000000
   0
INSERT
   5
C9
 100
AcDbEntity
   8
0
   6
CONTINUOUS
  62
6
 100
AcDbBlockReference
   2
_OPEN
  10
 753.28777914739
  20
 1794.3007657773
  30
0.0
  41
 42.000000000000
  42
 42.000000000000
  43
 42.000000000000
  50
 270.00000000000
   0
MTEXT
   5
CA
 100
AcDbEntity
   8
0
 370
13
  62
1
 100
AcDbMText
  10
 727.57349343311
  20
 3044.3007657773
  30
0.0
  40
 60.000000000000
  41
0.0
  71
8
  72
1
   1
\A1;2500(標準設置高さ)
   7
GMM005
  11
0.0
  21
 1.0000000000000
  31
0.0
   0
ENDBLK
   5
CB
 100
AcDbEntity
   8
0
 100
AcDbBlockEnd
   0
BLOCK
   5
CC
 100
AcDbEntity
   8
0
 100
AcDbBlockBegin
   2
*D17
  70
65
  10
0.0
  20
0.0
  30
0.0
   3
*D17
   0
LINE
   5
CD
 100
AcDbEntity
   8
0
 370
13
 100
AcDbLine
   6
CONTINUOUS
  62
6
  10
 1152.5474906147
  20
 4524.3007657773
  30
0.0
  11
 1503.2877791474
  21
 4726.8007657773
  31
0.0
   0
LINE
   5
CE
 100
AcDbEntity
   8
0
 370
13
 100
AcDbLine
   6
CONTINUOUS
  62
6
  10
 1503.2877791474
  20
 4726.8007657773
  30
0.0
  11
 1854.0280676801
  21
 4929.3007657773
  31
0.0
   0
INSERT
   5
CF
 100
AcDbEntity
   8
0
   6
CONTINUOUS
  62
6
 100
AcDbBlockReference
   2
_OPEN
  10
 1152.5474906147
  20
 4524.3007657773
  30
0.0
  41
 42.000000000000
  42
 42.000000000000
  43
 42.000000000000
  50
 210.00000000000
   0
INSERT
   5
D0
 100
AcDbEntity
   8
0
   6
CONTINUOUS
  62
6
 100
AcDbBlockReference
   2
_OPEN
  10
 1854.0280676801
  20
 4929.3007657773
  30
0.0
  41
 42.000000000000
  42
 42.000000000000
  43
 42.000000000000
  50
 29.999999999997
   0
MTEXT
   5
D1
 100
AcDbEntity
   8
0
 370
13
  62
1
 100
AcDbMText
  10
 1490.4306362902
  20
 4749.0699904461
  30
0.0
  40
 60.000000000000
  41
0.0
  71
8
  72
1
   1
\A1;%%c800
   7
GMM005
  11
 0.86602540378446
  21
 0.49999999999996
  31
0.0
   0
ENDBLK
   5
D2
 100
AcDbEntity
   8
0
 100
AcDbBlockEnd
   0
BLOCK
   5
D3
 100
AcDbEntity
   8
0
 100
AcDbBlockBegin
   2
*D18
  70
65
  10
0.0
  20
0.0
  30
0.0
   3
*D18
   0
LINE
   5
D4
 100
AcDbEntity
   8
0
 370
13
 100
AcDbLine
   6
CONTINUOUS
  62
6
  10
 973.28777914739
  20
 1794.3007657773
  30
0.0
  11
 723.28777914739
  21
 1794.3007657773
  31
0.0
   0
LINE
   5
D5
 100
AcDbEntity
   8
0
 370
13
 100
AcDbLine
   6
CONTINUOUS
  62
6
  10
 1223.2877791474
  20
 894.30076577732
  30
0.0
  11
 723.28777914739
  21
 894.30076577732
  31
0.0
   0
LINE
   5
D6
 100
AcDbEntity
   8
0
 370
13
 100
AcDbLine
   6
CONTINUOUS
  62
6
  10
 753.28777914739
  20
 1794.3007657773
  30
0.0
  11
 753.28777914739
  21
 1344.3007657773
  31
0.0
   0
LINE
   5
D7
 100
AcDbEntity
   8
0
 370
13
 100
AcDbLine
   6
CONTINUOUS
  62
6
  10
 753.28777914739
  20
 894.30076577732
  30
0.0
  11
 753.28777914739
  21
 1344.3007657773
  31
0.0
   0
INSERT
   5
D8
 100
AcDbEntity
   8
0
   6
CONTINUOUS
  62
6
 100
AcDbBlockReference
   2
_OPEN
  10
 753.28777914739
  20
 1794.3007657773
  30
0.0
  41
 42.000000000000
  42
 42.000000000000
  43
 42.000000000000
  50
 90.000000000000
   0
INSERT
   5
D9
 100
AcDbEntity
   8
0
   6
CONTINUOUS
  62
6
 100
AcDbBlockReference
   2
_OPEN
  10
 753.28777914739
  20
 894.30076577732
  30
0.0
  41
 42.000000000000
  42
 42.000000000000
  43
 42.000000000000
  50
 270.00000000000
   0
MTEXT
   5
DA
 100
AcDbEntity
   8
0
 370
13
  62
1
 100
AcDbMText
  10
 727.57349343311
  20
 1344.3007657773
  30
0.0
  40
 60.000000000000
  41
0.0
  71
8
  72
1
   1
\A1;900
   7
GMM005
  11
0.0
  21
 1.0000000000000
  31
0.0
   0
ENDBLK
   5
DB
 100
AcDbEntity
   8
0
 100
AcDbBlockEnd
   0
BLOCK
   5
DC
 100
AcDbEntity
   8
0
 100
AcDbBlockBegin
   2
*D19
  70
65
  10
0.0
  20
0.0
  30
0.0
   3
*D19
   0
LINE
   5
DD
 100
AcDbEntity
   8
0
 370
13
 100
AcDbLine
   6
CONTINUOUS
  62
6
  10
 1223.2877791474
  20
 894.30076577732
  30
0.0
  11
 723.28777914739
  21
 894.30076577732
  31
0.0
   0
LINE
   5
DE
 100
AcDbEntity
   8
0
 370
13
 100
AcDbLine
   6
CONTINUOUS
  62
6
  10
 1223.2877791474
  20
 794.30076577732
  30
0.0
  11
 723.28777914739
  21
 794.30076577732
  31
0.0
   0
LINE
   5
DF
 100
AcDbEntity
   8
0
 370
13
 100
AcDbLine
   6
CONTINUOUS
  62
6
  10
 753.28777914739
  20
 894.30076577732
  30
0.0
  11
 753.28777914739
  21
 844.30076577732
  31
0.0
   0
LINE
   5
E0
 100
AcDbEntity
   8
0
 370
13
 100
AcDbLine
   6
CONTINUOUS
  62
6
  10
 753.28777914739
  20
 794.30076577732
  30
0.0
  11
 753.28777914739
  21
 844.30076577732
  31
0.0
   0
INSERT
   5
E1
 100
AcDbEntity
   8
0
   6
CONTINUOUS
  62
6
 100
AcDbBlockReference
   2
_OPEN
  10
 753.28777914739
  20
 894.30076577732
  30
0.0
  41
 42.000000000000
  42
 42.000000000000
  43
 42.000000000000
  50
 90.000000000000
   0
INSERT
   5
E2
 100
AcDbEntity
   8
0
   6
CONTINUOUS
  62
6
 100
AcDbBlockReference
   2
_OPEN
  10
 753.28777914739
  20
 794.30076577732
  30
0.0
  41
 42.000000000000
  42
 42.000000000000
  43
 42.000000000000
  50
 270.00000000000
   0
MTEXT
   5
E3
 100
AcDbEntity
   8
0
 370
13
  62
1
 100
AcDbMText
  10
 727.57349343311
  20
 844.30076577732
  30
0.0
  40
 60.000000000000
  41
0.0
  71
8
  72
1
   1
\A1;100
   7
GMM005
  11
0.0
  21
 1.0000000000000
  31
0.0
   0
ENDBLK
   5
E4
 100
AcDbEntity
   8
0
 100
AcDbBlockEnd
   0
BLOCK
   5
E5
 100
AcDbEntity
   8
0
 100
AcDbBlockBegin
   2
*D20
  70
65
  10
0.0
  20
0.0
  30
0.0
   3
*D20
   0
LINE
   5
E6
 100
AcDbEntity
   8
0
 370
13
 100
AcDbLine
   6
CONTINUOUS
  62
6
  10
 2653.2877791474
  20
 1724.3007657786
  30
0.0
  11
 2653.2877791474
  21
 2824.3007657773
  31
0.0
   0
LINE
   5
E7
 100
AcDbEntity
   8
0
 370
13
 100
AcDbLine
   6
CONTINUOUS
  62
6
  10
 2653.2877791474
  20
 2794.3007657773
  30
0.0
  11
 2828.2877791474
  21
 2794.3007657773
  31
0.0
   0
LINE
   5
E8
 100
AcDbEntity
   8
0
 370
13
 100
AcDbLine
   6
CONTINUOUS
  62
6
  10
 3003.2877791474
  20
 2794.3007657773
  30
0.0
  11
 2828.2877791474
  21
 2794.3007657773
  31
0.0
   0
INSERT
   5
E9
 100
AcDbEntity
   8
0
   6
CONTINUOUS
  62
6
 100
AcDbBlockReference
   2
_OPEN
  10
 2653.2877791474
  20
 2794.3007657773
  30
0.0
  41
 42.000000000000
  42
 42.000000000000
  43
 42.000000000000
  50
 180.00000000000
   0
INSERT
   5
EA
 100
AcDbEntity
   8
0
   6
CONTINUOUS
  62
6
 100
AcDbBlockReference
   2
_OPEN
  10
 3003.2877791474
  20
 2794.3007657773
  30
0.0
  41
 42.000000000000
  42
 42.000000000000
  43
 42.000000000000
  50
0.0
   0
MTEXT
   5
EB
 100
AcDbEntity
   8
0
 370
13
  62
1
 100
AcDbMText
  10
 2828.2877791474
  20
 2820.0150514916
  30
0.0
  40
 60.000000000000
  41
0.0
  71
8
  72
1
   1
\A1;350
   7
GMM005
   0
ENDBLK
   5
EC
 100
AcDbEntity
   8
0
 100
AcDbBlockEnd
   0
ENDSEC
   0
SECTION
   2
ENTITIES
   0
LINE
   5
ED
 100
AcDbEntity
   8
LEVEL001
 370
13
 100
AcDbLine
   6
CONTINUOUS
  62
7
  10
 8103.2877791474
  20
 5726.8007657773
  30
0.0
  11
 303.28777914739
  21
 5726.8007657773
  31
0.0
   0
LINE
   5
EE
 100
AcDbEntity
   8
LEVEL001
 370
13
 100
AcDbLine
   6
CONTINUOUS
  62
7
  10
 303.28777914739
  20
 5726.8007657773
  30
0.0
  11
 303.28777914739
  21
 226.80076577732
  31
0.0
   0
LINE
   5
EF
 100
AcDbEntity
   8
LEVEL001
 370
13
 100
AcDbLine
   6
CONTINUOUS
  62
7
  10
 303.28777914739
  20
 226.80076577732
  30
0.0
  11
 8103.2877791474
  21
 226.80076577732
  31
0.0
   0
LINE
   5
F0
 100
AcDbEntity
   8
LEVEL001
 370
13
 100
AcDbLine
   6
CONTINUOUS
  62
7
  10
 8103.2877791474
  20
 226.80076577732
  30
0.0
  11
 8103.2877791474
  21
 5726.8007657773
  31
0.0
   0
LINE
   5
F1
 100
AcDbEntity
   8
LEVEL001
 370
13
 100
AcDbLine
   6
CONTINUOUS
  62
2
  10
 5463.2877791474
  20
 706.80076577732
  30
0.0
  11
 7143.2877791474
  21
 706.80076577732
  31
0.0
   0
POINT
   5
F2
 100
AcDbEntity
   8
LEVEL001
 100
AcDbPoint
  62
3
  10
 6403.2877791474
  20
 766.80076577732
  30
0.0
   0
POINT
   5
F3
 100
AcDbEntity
   8
LEVEL001
 100
AcDbPoint
  62
3
  10
 6303.2877791474
  20
 766.80076577732
  30
0.0
   0
POINT
   5
F4
 100
AcDbEntity
   8
LEVEL001
 100
AcDbPoint
  62
3
  10
 6403.2877791474
  20
 866.80076577732
  30
0.0
   0
CIRCLE
   5
F5
 100
AcDbEntity
   8
LEVEL001
 370
13
 100
AcDbCircle
   6
CONTINUOUS
  62
7
  10
 4503.2877791474
  20
 4726.8007657773
  30
0.0
  40
 432.50000000000
   0
CIRCLE
   5
F6
 100
AcDbEntity
   8
LEVEL001
 370
13
 100
AcDbCircle
   6
CONTINUOUS
  62
7
  10
 4326.5110838508
  20
 4903.5774610739
  30
0.0
  40
 47.500000000000
   0
CIRCLE
   5
F7
 100
AcDbEntity
   8
LEVEL001
 370
13
 100
AcDbCircle
   6
CONTINUOUS
  62
6
  10
 4326.5110838508
  20
 4903.5774610739
  30
0.0
  40
 65.000000000000
   0
CIRCLE
   5
F8
 100
AcDbEntity
   8
LEVEL001
 370
13
 100
AcDbCircle
   6
CONTINUOUS
  62
7
  10
 4680.0644744440
  20
 4903.5774610739
  30
0.0
  40
 47.500000000000
   0
CIRCLE
   5
F9
 100
AcDbEntity
   8
LEVEL001
 370
13
 100
AcDbCircle
   6
CONTINUOUS
  62
6
  10
 4680.0644744440
  20
 4903.5774610739
  30
0.0
  40
 65.000000000000
   0
CIRCLE
   5
FA
 100
AcDbEntity
   8
LEVEL001
 370
13
 100
AcDbCircle
   6
CONTINUOUS
  62
7
  10
 4680.0644744440
  20
 4550.0240704805
  30
0.0
  40
 47.500000000000
   0
CIRCLE
   5
FB
 100
AcDbEntity
   8
LEVEL001
 370
13
 100
AcDbCircle
   6
CONTINUOUS
  62
6
  10
 4680.0644744440
  20
 4550.0240704805
  30
0.0
  40
 65.000000000000
   0
CIRCLE
   5
FC
 100
AcDbEntity
   8
LEVEL001
 370
13
 100
AcDbCircle
   6
CONTINUOUS
  62
7
  10
 4326.5110838508
  20
 4550.0240704805
  30
0.0
  40
 47.500000000000
   0
CIRCLE
   5
FD
 100
AcDbEntity
   8
LEVEL001
 370
13
 100
AcDbCircle
   6
CONTINUOUS
  62
6
  10
 4326.5110838508
  20
 4550.0240704805
  30
0.0
  40
 65.000000000000
   0
ARC
   5
FE
 100
AcDbEntity
   8
LEVEL001
 370
13
   6
CONTINUOUS
  62
7
 100
AcDbCircle
  10
 4845.7877791474
  20
 4726.8007657773
  30
0.0
  40
 17.500000000000
 100
AcDbArc
  50
0.0
  51
 90.000000000003
   0
POINT
   5
FF
 100
AcDbEntity
   8
LEVEL001
 100
AcDbPoint
  62
7
  10
 4863.2877791474
  20
 4744.3007657773
  30
0.0
   0
ARC
   5
100
 100
AcDbEntity
   8
LEVEL001
 370
13
   6
CONTINUOUS
  62
7
 100
AcDbCircle
  10
 4845.7877791474
  20
 4726.8007657773
  30
0.0
  40
 17.500000000000
 100
AcDbArc
  50
 270.00000000000
  51
0.0
   0
POINT
   5
101
 100
AcDbEntity
   8
LEVEL001
 100
AcDbPoint
  62
7
  10
 4863.2877791474
  20
 4709.3007657773
  30
0.0
   0
ARC
   5
102
 100
AcDbEntity
   8
LEVEL001
 370
13
   6
CONTINUOUS
  62
6
 100
AcDbCircle
  10
 4845.7877791474
  20
 4726.8007657773
  30
0.0
  40
 35.000000000000
 100
AcDbArc
  50
0.0
  51
 90.000000000001
   0
POINT
   5
103
 100
AcDbEntity
   8
LEVEL001
 100
AcDbPoint
  62
6
  10
 4880.7877791474
  20
 4761.8007657773
  30
0.0
   0
ARC
   5
104
 100
AcDbEntity
   8
LEVEL001
 370
13
   6
CONTINUOUS
  62
6
 100
AcDbCircle
  10
 4845.7877791474
  20
 4726.8007657773
  30
0.0
  40
 35.000000000000
 100
AcDbArc
  50
 270.00000000000
  51
0.0
   0
POINT
   5
105
 100
AcDbEntity
   8
LEVEL001
 100
AcDbPoint
  62
6
  10
 4880.7877791474
  20
 4691.8007657773
  30
0.0
   0
ARC
   5
106
 100
AcDbEntity
   8
LEVEL001
 370
13
   6
CONTINUOUS
  62
7
 100
AcDbCircle
  10
 4503.2877791474
  20
 5069.3007657773
  30
0.0
  40
 17.500000000000
 100
AcDbArc
  50
 90.000000000000
  51
 180.00000000000
   0
POINT
   5
107
 100
AcDbEntity
   8
LEVEL001
 100
AcDbPoint
  62
7
  10
 4485.7877791474
  20
 5086.8007657773
  30
0.0
   0
ARC
   5
108
 100
AcDbEntity
   8
LEVEL001
 370
13
   6
CONTINUOUS
  62
7
 100
AcDbCircle
  10
 4503.2877791474
  20
 5069.3007657773
  30
0.0
  40
 17.500000000000
 100
AcDbArc
  50
0.0
  51
 90.000000000000
   0
POINT
   5
109
 100
AcDbEntity
   8
LEVEL001
 100
AcDbPoint
  62
7
  10
 4520.7877791474
  20
 5086.8007657773
  30
0.0
   0
ARC
   5
10A
 100
AcDbEntity
   8
LEVEL001
 370
13
   6
CONTINUOUS
  62
6
 100
AcDbCircle
  10
 4503.2877791474
  20
 5069.3007657773
  30
0.0
  40
 35.000000000000
 100
AcDbArc
  50
 90.000000000000
  51
 180.00000000000
   0
POINT
   5
10B
 100
AcDbEntity
   8
LEVEL001
 100
AcDbPoint
  62
6
  10
 4468.2877791474
  20
 5104.3007657773
  30
0.0
   0
ARC
   5
10C
 100
AcDbEntity
   8
LEVEL001
 370
13
   6
CONTINUOUS
  62
6
 100
AcDbCircle
  10
 4503.2877791474
  20
 5069.3007657773
  30
0.0
  40
 35.000000000000
 100
AcDbArc
  50
0.0
  51
 90.000000000000
   0
POINT
   5
10D
 100
AcDbEntity
   8
LEVEL001
 100
AcDbPoint
  62
6
  10
 4538.2877791474
  20
 5104.3007657773
  30
0.0
   0
ARC
   5
10E
 100
AcDbEntity
   8
LEVEL001
 370
13
   6
CONTINUOUS
  62
7
 100
AcDbCircle
  10
 4160.7877791474
  20
 4726.8007657771
  30
0.0
  40
 17.500000000000
 100
AcDbArc
  50
 180.00000000000
  51
 270.00000000000
   0
POINT
   5
10F
 100
AcDbEntity
   8
LEVEL001
 100
AcDbPoint
  62
7
  10
 4143.2877791474
  20
 4709.3007657771
  30
0.0
   0
ARC
   5
110
 100
AcDbEntity
   8
LEVEL001
 370
13
   6
CONTINUOUS
  62
7
 100
AcDbCircle
  10
 4160.7877791474
  20
 4726.8007657771
  30
0.0
  40
 17.500000000000
 100
AcDbArc
  50
 90.000000000000
  51
 180.00000000000
   0
POINT
   5
111
 100
AcDbEntity
   8
LEVEL001
 100
AcDbPoint
  62
7
  10
 4143.2877791474
  20
 4744.3007657771
  30
0.0
   0
ARC
   5
112
 100
AcDbEntity
   8
LEVEL001
 370
13
   6
CONTINUOUS
  62
6
 100
AcDbCircle
  10
 4160.7877791474
  20
 4726.8007657771
  30
0.0
  40
 35.000000000000
 100
AcDbArc
  50
 180.00000000000
  51
 270.00000000000
   0
POINT
   5
113
 100
AcDbEntity
   8
LEVEL001
 100
AcDbPoint
  62
6
  10
 4125.7877791474
  20
 4691.8007657771
  30
0.0
   0
ARC
   5
114
 100
AcDbEntity
   8
LEVEL001
 370
13
   6
CONTINUOUS
  62
6
 100
AcDbCircle
  10
 4160.7877791474
  20
 4726.8007657771
  30
0.0
  40
 35.000000000000
 100
AcDbArc
  50
 90.000000000000
  51
 180.00000000000
   0
POINT
   5
115
 100
AcDbEntity
   8
LEVEL001
 100
AcDbPoint
  62
6
  10
 4125.7877791474
  20
 4761.8007657771
  30
0.0
   0
ARC
   5
116
 100
AcDbEntity
   8
LEVEL001
 370
13
   6
CONTINUOUS
  62
7
 100
AcDbCircle
  10
 4503.2877791474
  20
 4384.3007657773
  30
0.0
  40
 17.500000000000
 100
AcDbArc
  50
 270.00000000000
  51
0.0
   0
POINT
   5
117
 100
AcDbEntity
   8
LEVEL001
 100
AcDbPoint
  62
7
  10
 4520.7877791474
  20
 4366.8007657773
  30
0.0
   0
ARC
   5
118
 100
AcDbEntity
   8
LEVEL001
 370
13
   6
CONTINUOUS
  62
7
 100
AcDbCircle
  10
 4503.2877791474
  20
 4384.3007657773
  30
0.0
  40
 17.500000000000
 100
AcDbArc
  50
 180.00000000000
  51
 270.00000000000
   0
POINT
   5
119
 100
AcDbEntity
   8
LEVEL001
 100
AcDbPoint
  62
7
  10
 4485.7877791474
  20
 4366.8007657773
  30
0.0
   0
ARC
   5
11A
 100
AcDbEntity
   8
LEVEL001
 370
13
   6
CONTINUOUS
  62
6
 100
AcDbCircle
  10
 4503.2877791474
  20
 4384.3007657773
  30
0.0
  40
 35.000000000000
 100
AcDbArc
  50
 270.00000000000
  51
0.0
   0
POINT
   5
11B
 100
AcDbEntity
   8
LEVEL001
 100
AcDbPoint
  62
6
  10
 4538.2877791474
  20
 4349.3007657773
  30
0.0
   0
ARC
   5
11C
 100
AcDbEntity
   8
LEVEL001
 370
13
   6
CONTINUOUS
  62
6
 100
AcDbCircle
  10
 4503.2877791474
  20
 4384.3007657773
  30
0.0
  40
 35.000000000000
 100
AcDbArc
  50
 180.00000000000
  51
 270.00000000000
   0
POINT
   5
11D
 100
AcDbEntity
   8
LEVEL001
 100
AcDbPoint
  62
6
  10
 4468.2877791474
  20
 4349.3007657773
  30
0.0
   0
LINE
   5
11E
 100
AcDbEntity
   8
LEVEL001
 370
13
 100
AcDbLine
   6
CONTINUOUS
  62
6
  10
 4468.2877791474
  20
 4852.8215973885
  30
0.0
  11
 4468.2877791474
  21
 5069.3007657773
  31
0.0
   0
ARC
   5
11F
 100
AcDbEntity
   8
LEVEL001
 370
13
   6
CONTINUOUS
  62
6
 100
AcDbCircle
  10
 4448.2877791474
  20
 4852.8215973885
  30
0.0
  40
 20.000000000000
 100
AcDbArc
  50
 293.57817847825
  51
 359.99999999999
   0
LINE
   5
120
 100
AcDbEntity
   8
LEVEL001
 370
13
 100
AcDbLine
   6
CONTINUOUS
  62
6
  10
 4160.7877791474
  20
 4761.8007657771
  30
0.0
  11
 4377.2669475360
  21
 4761.8007657771
  31
0.0
   0
ARC
   5
121
 100
AcDbEntity
   8
LEVEL001
 370
13
   6
CONTINUOUS
  62
6
 100
AcDbCircle
  10
 4377.2669475360
  20
 4781.8007657771
  30
0.0
  40
 20.000000000000
 100
AcDbArc
  50
 270.00000000001
  51
 336.42182152184
   0
ARC
   5
122
 100
AcDbEntity
   8
LEVEL001
 370
13
   6
CONTINUOUS
  62
6
 100
AcDbCircle
  10
 4503.2877791474
  20
 4726.8007657773
  30
0.0
  40
 117.50000000000
 100
AcDbArc
  50
 113.57817847824
  51
 156.42182152184
   0
LINE
   5
123
 100
AcDbEntity
   8
LEVEL001
 370
13
 100
AcDbLine
   6
CONTINUOUS
  62
6
  10
 4377.2669475362
  20
 4691.8007657771
  30
0.0
  11
 4160.7877791474
  21
 4691.8007657771
  31
0.0
   0
ARC
   5
124
 100
AcDbEntity
   8
LEVEL001
 370
13
   6
CONTINUOUS
  62
6
 100
AcDbCircle
  10
 4377.2669475362
  20
 4671.8007657771
  30
0.0
  40
 20.000000000000
 100
AcDbArc
  50
 23.578178478236
  51
 89.999999999995
   0
LINE
   5
125
 100
AcDbEntity
   8
LEVEL001
 370
13
 100
AcDbLine
   6
CONTINUOUS
  62
6
  10
 4468.2877791474
  20
 4384.3007657773
  30
0.0
  11
 4468.2877791474
  21
 4600.7799341659
  31
0.0
   0
ARC
   5
126
 100
AcDbEntity
   8
LEVEL001
 370
13
   6
CONTINUOUS
  62
6
 100
AcDbCircle
  10
 4448.2877791474
  20
 4600.7799341659
  30
0.0
  40
 20.000000000000
 100
AcDbArc
  50
 0.52110207901098E-11
  51
 66.421821521855
   0
ARC
   5
127
 100
AcDbEntity
   8
LEVEL001
 370
13
   6
CONTINUOUS
  62
6
 100
AcDbCircle
  10
 4503.2877791474
  20
 4726.8007657773
  30
0.0
  40
 117.50000000000
 100
AcDbArc
  50
 203.57817847824
  51
 246.42182152184
   0
LINE
   5
128
 100
AcDbEntity
   8
LEVEL001
 370
13
 100
AcDbLine
   6
CONTINUOUS
  62
6
  10
 4538.2877791474
  20
 4600.7799341659
  30
0.0
  11
 4538.2877791474
  21
 4384.3007657773
  31
0.0
   0
ARC
   5
129
 100
AcDbEntity
   8
LEVEL001
 370
13
   6
CONTINUOUS
  62
6
 100
AcDbCircle
  10
 4558.2877791474
  20
 4600.7799341659
  30
0.0
  40
 20.000000000000
 100
AcDbArc
  50
 113.57817847823
  51
 179.99999999999
   0
LINE
   5
12A
 100
AcDbEntity
   8
LEVEL001
 370
13
 100
AcDbLine
   6
CONTINUOUS
  62
6
  10
 4845.7877791474
  20
 4691.8007657773
  30
0.0
  11
 4629.3086107588
  21
 4691.8007657773
  31
0.0
   0
ARC
   5
12B
 100
AcDbEntity
   8
LEVEL001
 370
13
   6
CONTINUOUS
  62
6
 100
AcDbCircle
  10
 4629.3086107588
  20
 4671.8007657773
  30
0.0
  40
 20.000000000000
 100
AcDbArc
  50
 89.999999999995
  51
 156.42182152183
   0
ARC
   5
12C
 100
AcDbEntity
   8
LEVEL001
 370
13
   6
CONTINUOUS
  62
6
 100
AcDbCircle
  10
 4503.2877791474
  20
 4726.8007657773
  30
0.0
  40
 117.50000000000
 100
AcDbArc
  50
 293.57817847824
  51
 336.42182152184
   0
LINE
   5
12D
 100
AcDbEntity
   8
LEVEL001
 370
13
 100
AcDbLine
   6
CONTINUOUS
  62
6
  10
 4629.3086107586
  20
 4761.8007657773
  30
0.0
  11
 4845.7877791474
  21
 4761.8007657773
  31
0.0
   0
ARC
   5
12E
 100
AcDbEntity
   8
LEVEL001
 370
13
   6
CONTINUOUS
  62
6
 100
AcDbCircle
  10
 4629.3086107586
  20
 4781.8007657773
  30
0.0
  40
 20.000000000000
 100
AcDbArc
  50
 203.57817847825
  51
 270.00000000001
   0
LINE
   5
12F
 100
AcDbEntity
   8
LEVEL001
 370
13
 100
AcDbLine
   6
CONTINUOUS
  62
7
  10
 4629.3086107586
  20
 4744.3007657773
  30
0.0
  11
 4845.7877791474
  21
 4744.3007657773
  31
0.0
   0
ARC
   5
130
 100
AcDbEntity
   8
LEVEL001
 370
13
   6
CONTINUOUS
  62
7
 100
AcDbCircle
  10
 4629.3086107586
  20
 4781.8007657773
  30
0.0
  40
 37.500000000000
 100
AcDbArc
  50
 203.57817847824
  51
 270.00000000000
   0
LINE
   5
131
 100
AcDbEntity
   8
LEVEL001
 370
13
 100
AcDbLine
   6
CONTINUOUS
  62
7
  10
 4845.7877791474
  20
 4709.3007657773
  30
0.0
  11
 4629.3086107588
  21
 4709.3007657773
  31
0.0
   0
ARC
   5
132
 100
AcDbEntity
   8
LEVEL001
 370
13
   6
CONTINUOUS
  62
7
 100
AcDbCircle
  10
 4629.3086107588
  20
 4671.8007657773
  30
0.0
  40
 37.500000000000
 100
AcDbArc
  50
 89.999999999999
  51
 156.42182152184
   0
LINE
   5
133
 100
AcDbEntity
   8
LEVEL001
 370
13
 100
AcDbLine
   6
CONTINUOUS
  62
7
  10
 4520.7877791474
  20
 4600.7799341659
  30
0.0
  11
 4520.7877791474
  21
 4384.3007657773
  31
0.0
   0
ARC
   5
134
 100
AcDbEntity
   8
LEVEL001
 370
13
   6
CONTINUOUS
  62
7
 100
AcDbCircle
  10
 4558.2877791474
  20
 4600.7799341659
  30
0.0
  40
 37.500000000000
 100
AcDbArc
  50
 113.57817847824
  51
 180.00000000000
   0
ARC
   5
135
 100
AcDbEntity
   8
LEVEL001
 370
13
   6
CONTINUOUS
  62
7
 100
AcDbCircle
  10
 4503.2877791474
  20
 4726.8007657773
  30
0.0
  40
 100.00000000000
 100
AcDbArc
  50
 293.57817847824
  51
 336.42182152184
   0
LINE
   5
136
 100
AcDbEntity
   8
LEVEL001
 370
13
 100
AcDbLine
   6
CONTINUOUS
  62
7
  10
 4485.7877791474
  20
 4384.3007657773
  30
0.0
  11
 4485.7877791474
  21
 4600.7799341659
  31
0.0
   0
ARC
   5
137
 100
AcDbEntity
   8
LEVEL001
 370
13
   6
CONTINUOUS
  62
7
 100
AcDbCircle
  10
 4448.2877791474
  20
 4600.7799341659
  30
0.0
  40
 37.500000000000
 100
AcDbArc
  50
0.0
  51
 66.421821521838
   0
LINE
   5
138
 100
AcDbEntity
   8
LEVEL001
 370
13
 100
AcDbLine
   6
CONTINUOUS
  62
7
  10
 4377.2669475362
  20
 4709.3007657771
  30
0.0
  11
 4160.7877791474
  21
 4709.3007657771
  31
0.0
   0
ARC
   5
139
 100
AcDbEntity
   8
LEVEL001
 370
13
   6
CONTINUOUS
  62
7
 100
AcDbCircle
  10
 4377.2669475362
  20
 4671.8007657771
  30
0.0
  40
 37.500000000000
 100
AcDbArc
  50
 23.578178478241
  51
 90.000000000001
   0
ARC
   5
13A
 100
AcDbEntity
   8
LEVEL001
 370
13
   6
CONTINUOUS
  62
7
 100
AcDbCircle
  10
 4503.2877791474
  20
 4726.8007657773
  30
0.0
  40
 100.00000000000
 100
AcDbArc
  50
 203.57817847824
  51
 246.42182152184
   0
LINE
   5
13B
 100
AcDbEntity
   8
LEVEL001
 370
13
 100
AcDbLine
   6
CONTINUOUS
  62
7
  10
 4160.7877791474
  20
 4744.3007657771
  30
0.0
  11
 4377.2669475360
  21
 4744.3007657771
  31
0.0
   0
ARC
   5
13C
 100
AcDbEntity
   8
LEVEL001
 370
13
   6
CONTINUOUS
  62
7
 100
AcDbCircle
  10
 4377.2669475360
  20
 4781.8007657771
  30
0.0
  40
 37.500000000000
 100
AcDbArc
  50
 270.00000000000
  51
 336.42182152184
   0
LINE
   5
13D
 100
AcDbEntity
   8
LEVEL001
 370
13
 100
AcDbLine
   6
CONTINUOUS
  62
7
  10
 4485.7877791474
  20
 4852.8215973885
  30
0.0
  11
 4485.7877791474
  21
 5069.3007657773
  31
0.0
   0
ARC
   5
13E
 100
AcDbEntity
   8
LEVEL001
 370
13
   6
CONTINUOUS
  62
7
 100
AcDbCircle
  10
 4448.2877791474
  20
 4852.8215973885
  30
0.0
  40
 37.500000000000
 100
AcDbArc
  50
 293.57817847824
  51
0.0
   0
ARC
   5
13F
 100
AcDbEntity
   8
LEVEL001
 370
13
   6
CONTINUOUS
  62
7
 100
AcDbCircle
  10
 4503.2877791474
  20
 4726.8007657773
  30
0.0
  40
 100.00000000000
 100
AcDbArc
  50
 113.57817847824
  51
 156.42182152184
   0
LINE
   5
140
 100
AcDbEntity
   8
LEVEL001
 370
13
 100
AcDbLine
   6
CONTINUOUS
  62
7
  10
 4520.7877791474
  20
 5069.3007657773
  30
0.0
  11
 4520.7877791474
  21
 4852.8215973885
  31
0.0
   0
ARC
   5
141
 100
AcDbEntity
   8
LEVEL001
 370
13
   6
CONTINUOUS
  62
7
 100
AcDbCircle
  10
 4558.2877791474
  20
 4852.8215973885
  30
0.0
  40
 37.500000000000
 100
AcDbArc
  50
 180.00000000000
  51
 246.42182152184
   0
ARC
   5
142
 100
AcDbEntity
   8
LEVEL001
 370
13
   6
CONTINUOUS
  62
7
 100
AcDbCircle
  10
 4503.2877791474
  20
 4726.8007657773
  30
0.0
  40
 100.00000000000
 100
AcDbArc
  50
 23.578178478244
  51
 66.421821521839
   0
LINE
   5
143
 100
AcDbEntity
   8
LEVEL001
 370
13
 100
AcDbLine
   6
CONTINUOUS
  62
6
  10
 4538.2877791474
  20
 5069.3007657773
  30
0.0
  11
 4538.2877791474
  21
 4852.8215973885
  31
0.0
   0
ARC
   5
144
 100
AcDbEntity
   8
LEVEL001
 370
13
   6
CONTINUOUS
  62
6
 100
AcDbCircle
  10
 4558.2877791474
  20
 4852.8215973885
  30
0.0
  40
 20.000000000000
 100
AcDbArc
  50
 179.99999999999
  51
 246.42182152182
   0
ARC
   5
145
 100
AcDbEntity
   8
LEVEL001
 370
13
   6
CONTINUOUS
  62
6
 100
AcDbCircle
  10
 4503.2877791474
  20
 4726.8007657773
  30
0.0
  40
 117.50000000000
 100
AcDbArc
  50
 23.578178478241
  51
 66.421821521841
   0
CIRCLE
   5
146
 100
AcDbEntity
   8
LEVEL001
 370
13
 100
AcDbCircle
   6
CONTINUOUS
  62
7
  10
 4503.2877791474
  20
 4726.8007657773
  30
0.0
  40
 407.50000000000
   0
CIRCLE
   5
147
 100
AcDbEntity
   8
LEVEL001
 370
13
 100
AcDbCircle
   6
CONTINUOUS
  62
7
  10
 4503.2877791474
  20
 4726.8007657773
  30
0.0
  40
 405.00000000000
   0
CIRCLE
   5
148
 100
AcDbEntity
   8
LEVEL001
 370
13
 100
AcDbCircle
   6
CONTINUOUS
  62
7
  10
 4503.2877791474
  20
 4726.8007657773
  30
0.0
  40
 412.50000000000
   0
LINE
   5
149
 100
AcDbEntity
   8
LEVEL001
 370
13
 100
AcDbLine
   6
DASHDOT
  62
6
  10
 4453.2877791474
  20
 4791.8007657773
  30
0.0
  11
 4453.2877791474
  21
 4761.8007657773
  31
0.0
   0
LINE
   5
14A
 100
AcDbEntity
   8
LEVEL001
 370
13
 100
AcDbLine
   6
DASHDOT
  62
6
  10
 4438.2877791474
  20
 4776.8007657773
  30
0.0
  11
 4468.2877791474
  21
 4776.8007657773
  31
0.0
   0
LINE
   5
14B
 100
AcDbEntity
   8
LEVEL001
 370
13
 100
AcDbLine
   6
DASHDOT
  62
6
  10
 4453.2877791474
  20
 4691.8007657773
  30
0.0
  11
 4453.2877791474
  21
 4661.8007657773
  31
0.0
   0
LINE
   5
14C
 100
AcDbEntity
   8
LEVEL001
 370
13
 100
AcDbLine
   6
DASHDOT
  62
6
  10
 4438.2877791474
  20
 4676.8007657773
  30
0.0
  11
 4468.2877791474
  21
 4676.8007657773
  31
0.0
   0
LINE
   5
14D
 100
AcDbEntity
   8
LEVEL001
 370
13
 100
AcDbLine
   6
DASHDOT
  62
6
  10
 4553.2877791474
  20
 4691.8007657773
  30
0.0
  11
 4553.2877791474
  21
 4661.8007657773
  31
0.0
   0
LINE
   5
14E
 100
AcDbEntity
   8
LEVEL001
 370
13
 100
AcDbLine
   6
DASHDOT
  62
6
  10
 4538.2877791474
  20
 4676.8007657773
  30
0.0
  11
 4568.2877791474
  21
 4676.8007657773
  31
0.0
   0
LINE
   5
14F
 100
AcDbEntity
   8
LEVEL001
 370
13
 100
AcDbLine
   6
DASHDOT
  62
6
  10
 4553.2877791474
  20
 4791.8007657773
  30
0.0
  11
 4553.2877791474
  21
 4761.8007657773
  31
0.0
   0
LINE
   5
150
 100
AcDbEntity
   8
LEVEL001
 370
13
 100
AcDbLine
   6
DASHDOT
  62
6
  10
 4538.2877791474
  20
 4776.8007657773
  30
0.0
  11
 4568.2877791474
  21
 4776.8007657773
  31
0.0
   0
LINE
   5
151
 100
AcDbEntity
   8
LEVEL001
 370
13
 100
AcDbLine
   6
DASHDOT
  62
6
  10
 4028.2877791474
  20
 4726.8007657773
  30
0.0
  11
 4978.2877791474
  21
 4726.8007657773
  31
0.0
   0
LINE
   5
152
 100
AcDbEntity
   8
LEVEL001
 370
13
 100
AcDbLine
   6
DASHDOT
  62
6
  10
 4503.2877791474
  20
 5201.8007657773
  30
0.0
  11
 4503.2877791474
  21
 4251.8007657773
  31
0.0
   0
CIRCLE
   5
153
 100
AcDbEntity
   8
LEVEL001
 370
13
 100
AcDbCircle
   6
CONTINUOUS
  62
3
  10
 4453.2877791474
  20
 4776.8007657773
  30
0.0
  40
 7.0000000000000
   0
CIRCLE
   5
154
 100
AcDbEntity
   8
LEVEL001
 370
13
 100
AcDbCircle
   6
CONTINUOUS
  62
3
  10
 4453.2877791474
  20
 4676.8007657773
  30
0.0
  40
 7.0000000000000
   0
CIRCLE
   5
155
 100
AcDbEntity
   8
LEVEL001
 370
13
 100
AcDbCircle
   6
CONTINUOUS
  62
3
  10
 4553.2877791474
  20
 4776.8007657773
  30
0.0
  40
 7.0000000000000
   0
CIRCLE
   5
156
 100
AcDbEntity
   8
LEVEL001
 370
13
 100
AcDbCircle
   6
CONTINUOUS
  62
3
  10
 4553.2877791474
  20
 4676.8007657773
  30
0.0
  40
 7.0000000000000
   0
LINE
   5
157
 100
AcDbEntity
   8
LEVEL001
 370
13
 100
AcDbLine
   6
DASHDOT
  62
6
  10
 1443.2877610618
  20
 1294.3007657773
  30
0.0
  11
 1563.2877610618
  21
 1294.3007657773
  31
0.0
   0
LINE
   5
158
 100
AcDbEntity
   8
LEVEL001
 370
13
 100
AcDbLine
   6
CONTINUOUS
  62
7
  10
 2951.4363928882
  20
 4194.3007657773
  30
0.0
  11
 2948.7224861248
  21
 4187.5159988685
  31
0.0
   0
ARC
   5
159
 100
AcDbEntity
   8
LEVEL001
 370
13
   6
CONTINUOUS
  62
7
 100
AcDbCircle
  10
 2953.3648695792
  20
 4185.6590454867
  30
0.0
  40
 5.0000000000000
 100
AcDbArc
  50
 158.19859051366
  51
 180.00000000002
   0
LINE
   5
15A
 100
AcDbEntity
   8
LEVEL001
 370
13
 100
AcDbLine
   6
CONTINUOUS
  62
7
  10
 2948.3648695792
  20
 4185.6590454867
  30
0.0
  11
 2948.3648695792
  21
 3602.9424860663
  31
0.0
   0
LINE
   5
15B
 100
AcDbEntity
   8
LEVEL001
 370
13
 100
AcDbLine
   6
CONTINUOUS
  62
6
  10
 2955.3648695792
  20
 4123.3008268155
  30
0.0
  11
 2955.3648695792
  21
 4124.3007657765
  31
0.0
   0
ARC
   5
15C
 100
AcDbEntity
   8
LEVEL001
 370
13
   6
CONTINUOUS
  62
7
 100
AcDbCircle
  10
 2947.3648695792
  20
 4178.4531193183
  30
0.0
  40
 5.0000000000000
 100
AcDbArc
  50
 0.31266124740659E-10
  51
 21.801409486400
   0
LINE
   5
15D
 100
AcDbEntity
   8
LEVEL001
 370
13
 100
AcDbLine
   6
CONTINUOUS
  62
7
  10
 2950.2049821788
  20
 4184.8157498367
  30
0.0
  11
 2952.0072530336
  21
 4180.3100726999
  31
0.0
   0
ARC
   5
15E
 100
AcDbEntity
   8
LEVEL001
 370
13
   6
CONTINUOUS
  62
7
 100
AcDbCircle
  10
 2954.8473656332
  20
 4186.6727032185
  30
0.0
  40
 5.0000000000000
 100
AcDbArc
  50
 158.19859051367
  51
 201.80140948633
   0
LINE
   5
15F
 100
AcDbEntity
   8
LEVEL001
 370
13
 100
AcDbLine
   6
CONTINUOUS
  62
7
  10
 2951.4363928882
  20
 4194.3007657773
  30
0.0
  11
 2952.3648695792
  21
 4193.9293751009
  31
0.0
   0
LINE
   5
160
 100
AcDbEntity
   8
LEVEL001
 370
13
 100
AcDbLine
   6
CONTINUOUS
  62
7
  10
 2952.3648695792
  20
 4193.9293751009
  30
0.0
  11
 2950.2049821788
  21
 4188.5296566003
  31
0.0
   0
LINE
   5
161
 100
AcDbEntity
   8
LEVEL001
 370
13
 100
AcDbLine
   6
CONTINUOUS
  62
7
  10
 2952.3648695792
  20
 4178.4531193183
  30
0.0
  11
 2952.3648695792
  21
 3610.1484122347
  31
0.0
   0
LINE
   5
162
 100
AcDbEntity
   8
LEVEL001
 370
13
 100
AcDbLine
   6
CONTINUOUS
  62
7
  10
 2955.3648695792
  20
 4124.3007657765
  30
0.0
  11
 2952.3648695792
  21
 4124.3007657765
  31
0.0
   0
LINE
   5
163
 100
AcDbEntity
   8
LEVEL001
 370
13
 100
AcDbLine
   6
CONTINUOUS
  62
6
  10
 2952.3648695792
  20
 4123.3008268155
  30
0.0
  11
 2955.3648695792
  21
 4123.3008268155
  31
0.0
   0
LINE
   5
164
 100
AcDbEntity
   8
LEVEL001
 370
13
 100
AcDbLine
   6
CONTINUOUS
  62
7
  10
 2955.8203483582
  20
 4109.3003996241
  30
0.0
  11
 2955.8208061222
  21
 4067.3004913407
  31
0.0
   0
ELLIPSE
   5
165
 100
AcDbEntity
   8
LEVEL001
 370
13
   6
CONTINUOUS
  62
7
 100
AcDbEllipse
  10
 2951.8203458084
  20
 4109.3005215753
  30
0.0
  11
-4.0000025516047
  21
0.0
  31
0.0
  40
 0.99999938800000
  41
 3.1415621657859
  42
-1.7073511820401
   0
LINE
   5
166
 100
AcDbEntity
   8
LEVEL001
 370
13
 100
AcDbLine
   6
CONTINUOUS
  62
6
  10
 2955.3648695792
  20
 4052.3007660573
  30
0.0
  11
 2955.3648695792
  21
 4053.3007965711
  31
0.0
   0
LINE
   5
167
 100
AcDbEntity
   8
LEVEL001
 370
13
 100
AcDbLine
   6
CONTINUOUS
  62
6
  10
 2955.3648695792
  20
 4053.3007965711
  30
0.0
  11
 2952.3648695792
  21
 4053.3007965711
  31
0.0
   0
ELLIPSE
   5
168
 100
AcDbEntity
   8
LEVEL001
 370
13
   6
CONTINUOUS
  62
7
 100
AcDbEllipse
  10
 2951.8208035710
  20
 4067.3005524931
  30
0.0
  11
-4.0000025516047
  21
0.0
  31
0.0
  40
 0.99999938800000
  41
 1.7072356670369
  42
 3.1415773654629
   0
LINE
   5
169
 100
AcDbEntity
   8
LEVEL001
 370
13
 100
AcDbLine
   6
CONTINUOUS
  62
7
  10
 2952.3648695792
  20
 4052.3007660573
  30
0.0
  11
 2955.3648695792
  21
 4052.3007660573
  31
0.0
   0
LINE
   5
16A
 100
AcDbEntity
   8
LEVEL001
 370
13
 100
AcDbLine
   6
CONTINUOUS
  62
7
  10
 2955.8203756022
  20
 4106.8007660573
  30
0.0
  11
 3061.3648695792
  21
 4106.8007660573
  31
0.0
   0
LINE
   5
16B
 100
AcDbEntity
   8
LEVEL001
 370
13
 100
AcDbLine
   6
CONTINUOUS
  62
7
  10
 3061.3648695792
  20
 4106.8007660573
  30
0.0
  11
 3061.3648695792
  21
 4069.8007660573
  31
0.0
   0
LINE
   5
16C
 100
AcDbEntity
   8
LEVEL001
 370
13
 100
AcDbLine
   6
CONTINUOUS
  62
7
  10
 3061.3648695792
  20
 4069.8007660573
  30
0.0
  11
 2955.8207788712
  21
 4069.8007660573
  31
0.0
   0
LINE
   5
16D
 100
AcDbEntity
   8
LEVEL001
 370
13
 100
AcDbLine
   6
CONTINUOUS
  62
7
  10
 2952.3648695792
  20
 4069.8007660573
  30
0.0
  11
 2952.3648695792
  21
 4106.8007660573
  31
0.0
   0
LINE
   5
16E
 100
AcDbEntity
   8
LEVEL001
 370
13
 100
AcDbLine
   6
CONTINUOUS
  62
6
  10
 3040.1928705788
  20
 4081.8007660573
  30
0.0
  11
 2968.0736987530
  21
 4081.8007660573
  31
0.0
   0
LINE
   5
16F
 100
AcDbEntity
   8
LEVEL001
 370
13
 100
AcDbLine
   6
CONTINUOUS
  62
6
  10
 2968.0736987530
  20
 4094.8007660573
  30
0.0
  11
 3040.1928705788
  21
 4094.8007660573
  31
0.0
   0
LINE
   5
170
 100
AcDbEntity
   8
LEVEL001
 370
13
 100
AcDbLine
   6
CONTINUOUS
  62
6
  10
 2966.8128041834
  20
 4093.8007660573
  30
0.0
  11
 2966.8128041834
  21
 4082.8007660573
  31
0.0
   0
LINE
   5
171
 100
AcDbEntity
   8
LEVEL001
 370
13
 100
AcDbLine
   6
CONTINUOUS
  62
6
  10
 2966.8128041834
  20
 4080.8007660573
  30
0.0
  11
 2966.8128041834
  21
 4071.8007660573
  31
0.0
   0
LINE
   5
172
 100
AcDbEntity
   8
LEVEL001
 370
13
 100
AcDbLine
   6
CONTINUOUS
  62
6
  10
 2966.8128041834
  20
 4104.8007660573
  30
0.0
  11
 2966.8128041834
  21
 4095.8007660573
  31
0.0
   0
LINE
   5
173
 100
AcDbEntity
   8
LEVEL001
 370
13
 100
AcDbLine
   6
CONTINUOUS
  62
6
  10
 3040.1928705788
  20
 4104.8007660573
  30
0.0
  11
 3040.1928705788
  21
 4095.8007660573
  31
0.0
   0
LINE
   5
174
 100
AcDbEntity
   8
LEVEL001
 370
13
 100
AcDbLine
   6
CONTINUOUS
  62
6
  10
 3040.1928705788
  20
 4080.8007660573
  30
0.0
  11
 3040.1928705788
  21
 4071.8007660573
  31
0.0
   0
LINE
   5
175
 100
AcDbEntity
   8
LEVEL001
 370
13
 100
AcDbLine
   6
CONTINUOUS
  62
6
  10
 3042.5113956200
  20
 4094.8007660573
  30
0.0
  11
 3042.5113956200
  21
 4081.8007660573
  31
0.0
   0
LINE
   5
176
 100
AcDbEntity
   8
LEVEL001
 370
13
 100
AcDbLine
   6
CONTINUOUS
  62
7
  10
 3056.3648695792
  20
 4083.3007660573
  30
0.0
  11
 3046.3648695792
  21
 4083.3007660573
  31
0.0
   0
LINE
   5
177
 100
AcDbEntity
   8
LEVEL001
 370
13
 100
AcDbLine
   6
CONTINUOUS
  62
7
  10
 3046.3648695792
  20
 4083.3007660573
  30
0.0
  11
 3046.3648695792
  21
 4093.3007660573
  31
0.0
   0
LINE
   5
178
 100
AcDbEntity
   8
LEVEL001
 370
13
 100
AcDbLine
   6
CONTINUOUS
  62
7
  10
 3046.3648695792
  20
 4093.3007660573
  30
0.0
  11
 3056.3648695792
  21
 4093.3007660573
  31
0.0
   0
LINE
   5
179
 100
AcDbEntity
   8
LEVEL001
 370
13
 100
AcDbLine
   6
CONTINUOUS
  62
7
  10
 3056.3648695792
  20
 4093.3007660573
  30
0.0
  11
 3056.3648695792
  21
 4083.3007660573
  31
0.0
   0
LINE
   5
17A
 100
AcDbEntity
   8
LEVEL001
 370
13
 100
AcDbLine
   6
CONTINUOUS
  62
7
  10
 3041.4377791474
  20
 4898.3007657773
  30
0.0
  11
 2965.1377791474
  21
 4898.3007657773
  31
0.0
   0
LINE
   5
17B
 100
AcDbEntity
   8
LEVEL001
 370
13
 100
AcDbLine
   6
CONTINUOUS
  62
7
  10
 2965.1377791474
  20
 4898.3007657773
  30
0.0
  11
 2965.1377791474
  21
 4895.3007657773
  31
0.0
   0
LINE
   5
17C
 100
AcDbEntity
   8
LEVEL001
 370
13
 100
AcDbLine
   6
CONTINUOUS
  62
7
  10
 2965.1377791474
  20
 4895.3007657773
  30
0.0
  11
 3041.4377791474
  21
 4895.3007657773
  31
0.0
   0
LINE
   5
17D
 100
AcDbEntity
   8
LEVEL001
 370
13
 100
AcDbLine
   6
CONTINUOUS
  62
7
  10
 3041.4377791474
  20
 4895.3007657773
  30
0.0
  11
 3041.4377791474
  21
 4898.3007657773
  31
0.0
   0
LINE
   5
17E
 100
AcDbEntity
   8
LEVEL001
 370
13
 100
AcDbLine
   6
DOT
  62
1
  10
 3036.4377791474
  20
 4895.3007657773
  30
0.0
  11
 3036.4377791474
  21
 4868.3007657773
  31
0.0
   0
LINE
   5
17F
 100
AcDbEntity
   8
LEVEL001
 370
13
 100
AcDbLine
   6
DOT
  62
1
  10
 3036.4377791474
  20
 4868.3007657773
  30
0.0
  11
 2970.1377791474
  21
 4868.3007657773
  31
0.0
   0
LINE
   5
180
 100
AcDbEntity
   8
LEVEL001
 370
13
 100
AcDbLine
   6
DOT
  62
1
  10
 2970.1377791474
  20
 4868.3007657773
  30
0.0
  11
 2970.1377791474
  21
 4895.3007657773
  31
0.0
   0
LINE
   5
181
 100
AcDbEntity
   8
LEVEL001
 370
13
 100
AcDbLine
   6
CONTINUOUS
  62
7
  10
 2955.8207788712
  20
 3718.8007657765
  30
0.0
  11
 3061.3648745514
  21
 3718.8007657765
  31
0.0
   0
LINE
   5
182
 100
AcDbEntity
   8
LEVEL001
 370
13
 100
AcDbLine
   6
CONTINUOUS
  62
7
  10
 3061.3648745514
  20
 3718.8007657765
  30
0.0
  11
 3061.3648745514
  21
 3681.8007657765
  31
0.0
   0
LINE
   5
183
 100
AcDbEntity
   8
LEVEL001
 370
13
 100
AcDbLine
   6
CONTINUOUS
  62
7
  10
 3061.3648745514
  20
 3681.8007657765
  30
0.0
  11
 2955.8203756022
  21
 3681.8007657765
  31
0.0
   0
LINE
   5
184
 100
AcDbEntity
   8
LEVEL001
 370
13
 100
AcDbLine
   6
CONTINUOUS
  62
6
  10
 3040.1928755510
  20
 3693.8007657765
  30
0.0
  11
 2968.0737037254
  21
 3693.8007657765
  31
0.0
   0
LINE
   5
185
 100
AcDbEntity
   8
LEVEL001
 370
13
 100
AcDbLine
   6
CONTINUOUS
  62
6
  10
 2968.0737037254
  20
 3706.8007657765
  30
0.0
  11
 3040.1928755510
  21
 3706.8007657765
  31
0.0
   0
LINE
   5
186
 100
AcDbEntity
   8
LEVEL001
 370
13
 100
AcDbLine
   6
CONTINUOUS
  62
6
  10
 3040.1928755510
  20
 3716.8007657765
  30
0.0
  11
 3040.1928755510
  21
 3707.8007657765
  31
0.0
   0
LINE
   5
187
 100
AcDbEntity
   8
LEVEL001
 370
13
 100
AcDbLine
   6
CONTINUOUS
  62
6
  10
 3040.1928755510
  20
 3692.8007657765
  30
0.0
  11
 3040.1928755510
  21
 3683.8007657765
  31
0.0
   0
LINE
   5
188
 100
AcDbEntity
   8
LEVEL001
 370
13
 100
AcDbLine
   6
CONTINUOUS
  62
7
  10
 3056.3648745514
  20
 3695.3007657765
  30
0.0
  11
 3046.3648745514
  21
 3695.3007657765
  31
0.0
   0
LINE
   5
189
 100
AcDbEntity
   8
LEVEL001
 370
13
 100
AcDbLine
   6
CONTINUOUS
  62
7
  10
 3046.3648745514
  20
 3695.3007657765
  30
0.0
  11
 3046.3648745514
  21
 3705.3007657765
  31
0.0
   0
LINE
   5
18A
 100
AcDbEntity
   8
LEVEL001
 370
13
 100
AcDbLine
   6
CONTINUOUS
  62
7
  10
 3046.3648745514
  20
 3705.3007657765
  30
0.0
  11
 3056.3648745514
  21
 3705.3007657765
  31
0.0
   0
LINE
   5
18B
 100
AcDbEntity
   8
LEVEL001
 370
13
 100
AcDbLine
   6
CONTINUOUS
  62
7
  10
 3056.3648745514
  20
 3705.3007657765
  30
0.0
  11
 3056.3648745514
  21
 3695.3007657765
  31
0.0
   0
LINE
   5
18C
 100
AcDbEntity
   8
LEVEL001
 370
13
 100
AcDbLine
   6
CONTINUOUS
  62
6
  10
 3042.5114005924
  20
 3706.8007657765
  30
0.0
  11
 3042.5114005924
  21
 3693.8007657765
  31
0.0
   0
ARC
   5
18D
 100
AcDbEntity
   8
LEVEL001
 370
13
   6
CONTINUOUS
  62
7
 100
AcDbCircle
  10
 2947.3648695792
  20
 3610.1484122347
  30
0.0
  40
 5.0000000000000
 100
AcDbArc
  50
 338.19859051360
  51
 359.99999999993
   0
LINE
   5
18E
 100
AcDbEntity
   8
LEVEL001
 370
13
 100
AcDbLine
   6
CONTINUOUS
  62
7
  10
 2950.2049821788
  20
 3603.7857817163
  30
0.0
  11
 2952.0072530336
  21
 3608.2914588529
  31
0.0
   0
ARC
   5
18F
 100
AcDbEntity
   8
LEVEL001
 370
13
   6
CONTINUOUS
  62
7
 100
AcDbCircle
  10
 2954.8473656332
  20
 3601.9288283345
  30
0.0
  40
 5.0000000000000
 100
AcDbArc
  50
 158.19859051366
  51
 201.80140948634
   0
LINE
   5
190
 100
AcDbEntity
   8
LEVEL001
 370
13
 100
AcDbLine
   6
CONTINUOUS
  62
7
  10
 2952.3648695792
  20
 3736.3007654955
  30
0.0
  11
 2955.3648695792
  21
 3736.3007654955
  31
0.0
   0
LINE
   5
191
 100
AcDbEntity
   8
LEVEL001
 370
13
 100
AcDbLine
   6
CONTINUOUS
  62
6
  10
 2955.3648695792
  20
 3736.3007654955
  30
0.0
  11
 2955.3648695792
  21
 3735.3007349819
  31
0.0
   0
LINE
   5
192
 100
AcDbEntity
   8
LEVEL001
 370
13
 100
AcDbLine
   6
CONTINUOUS
  62
6
  10
 2955.3648695792
  20
 3735.3007349819
  30
0.0
  11
 2952.3648695792
  21
 3735.3007349819
  31
0.0
   0
LINE
   5
193
 100
AcDbEntity
   8
LEVEL001
 370
13
 100
AcDbLine
   6
CONTINUOUS
  62
6
  10
 2955.3648695792
  20
 3665.3007047375
  30
0.0
  11
 2955.3648695792
  21
 3664.3007657765
  31
0.0
   0
LINE
   5
194
 100
AcDbEntity
   8
LEVEL001
 370
13
 100
AcDbLine
   6
CONTINUOUS
  62
6
  10
 2952.3648695792
  20
 3665.3007047375
  30
0.0
  11
 2955.3648695792
  21
 3665.3007047375
  31
0.0
   0
LINE
   5
195
 100
AcDbEntity
   8
LEVEL001
 370
13
 100
AcDbLine
   6
CONTINUOUS
  62
7
  10
 2955.3648695792
  20
 3664.3007657765
  30
0.0
  11
 2952.3648695792
  21
 3664.3007657765
  31
0.0
   0
LINE
   5
196
 100
AcDbEntity
   8
LEVEL001
 370
13
 100
AcDbLine
   6
CONTINUOUS
  62
7
  10
 2955.8203483582
  20
 3679.3011319289
  30
0.0
  11
 2955.8208061222
  21
 3721.3010402123
  31
0.0
   0
ELLIPSE
   5
197
 100
AcDbEntity
   8
LEVEL001
 370
13
   6
CONTINUOUS
  62
7
 100
AcDbEllipse
  10
 2951.8208035710
  20
 3721.3009790597
  30
0.0
  11
-4.0000025516047
  21
0.0
  31
0.0
  40
 0.99999938800000
  41
-3.1415773654630
  42
-1.7072356670369
   0
ELLIPSE
   5
198
 100
AcDbEntity
   8
LEVEL001
 370
13
   6
CONTINUOUS
  62
7
 100
AcDbEllipse
  10
 2951.8203458084
  20
 3679.3010099777
  30
0.0
  11
-4.0000025516047
  21
0.0
  31
0.0
  40
 0.99999938800000
  41
 1.7073511820401
  42
-3.1415621657859
   0
LINE
   5
199
 100
AcDbEntity
   8
LEVEL001
 370
13
 100
AcDbLine
   6
CONTINUOUS
  62
6
  10
 2966.8128091558
  20
 3705.8007657765
  30
0.0
  11
 2966.8128091558
  21
 3694.8007657765
  31
0.0
   0
LINE
   5
19A
 100
AcDbEntity
   8
LEVEL001
 370
13
 100
AcDbLine
   6
CONTINUOUS
  62
6
  10
 2966.8128091558
  20
 3716.8007657765
  30
0.0
  11
 2966.8128091558
  21
 3707.8007657765
  31
0.0
   0
LINE
   5
19B
 100
AcDbEntity
   8
LEVEL001
 370
13
 100
AcDbLine
   6
CONTINUOUS
  62
6
  10
 2966.8128091558
  20
 3692.8007657765
  30
0.0
  11
 2966.8128091558
  21
 3683.8007657765
  31
0.0
   0
ARC
   5
19C
 100
AcDbEntity
   8
LEVEL001
 370
13
   6
CONTINUOUS
  62
7
 100
AcDbCircle
  10
 2953.3648695792
  20
 3602.9424860663
  30
0.0
  40
 5.0000000000000
 100
AcDbArc
  50
 179.99999999999
  51
 201.80140948634
   0
LINE
   5
19D
 100
AcDbEntity
   8
LEVEL001
 370
13
 100
AcDbLine
   6
CONTINUOUS
  62
7
  10
 2951.4363928882
  20
 3594.3007657757
  30
0.0
  11
 2948.7224861248
  21
 3601.0855326845
  31
0.0
   0
LINE
   5
19E
 100
AcDbEntity
   8
LEVEL001
 370
13
 100
AcDbLine
   6
CONTINUOUS
  62
7
  10
 2951.4363928882
  20
 3594.3007657757
  30
0.0
  11
 2952.3648695792
  21
 3594.6721564521
  31
0.0
   0
LINE
   5
19F
 100
AcDbEntity
   8
LEVEL001
 370
13
 100
AcDbLine
   6
CONTINUOUS
  62
7
  10
 2952.3648695792
  20
 3594.6721564521
  30
0.0
  11
 2950.2049821788
  21
 3600.0718749527
  31
0.0
   0
LINE
   5
1A0
 100
AcDbEntity
   8
LEVEL001
 370
13
 100
AcDbLine
   6
CONTINUOUS
  62
7
  10
 1541.4377791474
  20
 4194.3007657773
  30
0.0
  11
 1541.4377791474
  21
 4295.9964670123
  31
0.0
   0
LINE
   5
1A1
 100
AcDbEntity
   8
LEVEL001
 370
13
 100
AcDbLine
   6
CONTINUOUS
  62
7
  10
 1465.1377791474
  20
 4295.9964549661
  30
0.0
  11
 1465.1377791474
  21
 4194.3007657773
  31
0.0
   0
ARC
   5
1A2
 100
AcDbEntity
   8
LEVEL001
 370
13
   6
CONTINUOUS
  62
7
 100
AcDbCircle
  10
 1433.2900202561
  20
 4174.3007657773
  30
0.0
  40
 20.000000000000
 100
AcDbArc
  50
 90.000000000000
  51
 180.00000000000
   0
LINE
   5
1A3
 100
AcDbEntity
   8
LEVEL001
 370
13
 100
AcDbLine
   6
CONTINUOUS
  62
7
  10
 1413.2900202561
  20
 4174.3007657773
  30
0.0
  11
 1413.2900202561
  21
 3614.2999810315
  31
0.0
   0
LINE
   5
1A4
 100
AcDbEntity
   8
LEVEL001
 370
13
 100
AcDbLine
   6
CONTINUOUS
  62
7
  10
 1573.2874044164
  20
 4194.3007657773
  30
0.0
  11
 1433.2900202561
  21
 4194.3007657773
  31
0.0
   0
ARC
   5
1A5
 100
AcDbEntity
   8
LEVEL001
 370
13
   6
CONTINUOUS
  62
7
 100
AcDbCircle
  10
 1573.2874044164
  20
 4174.3007657773
  30
0.0
  40
 20.000000000000
 100
AcDbArc
  50
0.0
  51
 90.000000000000
   0
LINE
   5
1A6
 100
AcDbEntity
   8
LEVEL001
 370
13
 100
AcDbLine
   6
CONTINUOUS
  62
7
  10
 1593.2874044164
  20
 3614.2999810315
  30
0.0
  11
 1593.2874044164
  21
 4174.3007657773
  31
0.0
   0
LINE
   5
1A7
 100
AcDbEntity
   8
LEVEL001
 370
13
 100
AcDbLine
   6
CONTINUOUS
  62
7
  10
 1433.2900202561
  20
 3594.2999810315
  30
0.0
  11
 1573.2874044164
  21
 3594.2999810315
  31
0.0
   0
ARC
   5
1A8
 100
AcDbEntity
   8
LEVEL001
 370
13
   6
CONTINUOUS
  62
7
 100
AcDbCircle
  10
 1573.2874044164
  20
 3614.2999810315
  30
0.0
  40
 20.000000000000
 100
AcDbArc
  50
 270.00000000000
  51
0.0
   0
ARC
   5
1A9
 100
AcDbEntity
   8
LEVEL001
 370
13
   6
CONTINUOUS
  62
7
 100
AcDbCircle
  10
 1433.2900202561
  20
 3614.2999810315
  30
0.0
  40
 20.000000000000
 100
AcDbArc
  50
 180.00000000000
  51
 270.00000000000
   0
LINE
   5
1AA
 100
AcDbEntity
   8
LEVEL001
 370
13
 100
AcDbLine
   6
CONTINUOUS
  62
7
  10
 2965.1377791474
  20
 3718.8007657765
  30
0.0
  11
 2965.1377791474
  21
 4069.8007660573
  31
0.0
   0
LINE
   5
1AB
 100
AcDbEntity
   8
LEVEL001
 370
13
 100
AcDbLine
   6
CONTINUOUS
  62
7
  10
 3041.4377791474
  20
 4069.8007660573
  30
0.0
  11
 3041.4377791474
  21
 3718.8007657765
  31
0.0
   0
LINE
   5
1AC
 100
AcDbEntity
   8
LEVEL001
 370
13
 100
AcDbLine
   6
CONTINUOUS
  62
7
  10
 1465.1377791474
  20
 3594.2999810315
  30
0.0
  11
 1465.1377791474
  21
 894.30076577732
  31
0.0
   0
LINE
   5
1AD
 100
AcDbEntity
   8
LEVEL001
 370
13
 100
AcDbLine
   6
CONTINUOUS
  62
7
  10
 1465.1377791474
  20
 894.30076577732
  30
0.0
  11
 1541.4377791474
  21
 894.30076577732
  31
0.0
   0
LINE
   5
1AE
 100
AcDbEntity
   8
LEVEL001
 370
13
 100
AcDbLine
   6
CONTINUOUS
  62
7
  10
 1541.4377791474
  20
 894.30076577732
  30
0.0
  11
 1541.4377791474
  21
 3594.2999810315
  31
0.0
   0
CIRCLE
   5
1AF
 100
AcDbEntity
   8
LEVEL001
 370
13
 100
AcDbCircle
   6
CONTINUOUS
  62
7
  10
 1503.2877791474
  20
 4726.8007657773
  30
0.0
  40
 432.50000000000
   0
CIRCLE
   5
1B0
 100
AcDbEntity
   8
LEVEL001
 370
13
 100
AcDbCircle
   6
CONTINUOUS
  62
7
  10
 1503.2877791474
  20
 4726.8007657773
  30
0.0
  40
 412.50000000000
   0
CIRCLE
   5
1B1
 100
AcDbEntity
   8
LEVEL001
 370
13
 100
AcDbCircle
   6
CONTINUOUS
  62
6
  10
 1503.2877791474
  20
 4726.8007657773
  30
0.0
  40
 405.00000000000
   0
CIRCLE
   5
1B2
 100
AcDbEntity
   8
LEVEL001
 370
13
 100
AcDbCircle
   6
CONTINUOUS
  62
6
  10
 1503.2877791474
  20
 4726.8007657773
  30
0.0
  40
 410.00000000000
   0
ARC
   5
1B3
 100
AcDbEntity
   8
LEVEL001
 370
13
   6
CONTINUOUS
  62
1
 100
AcDbCircle
  10
 1503.2877791474
  20
 4726.8007657773
  30
0.0
  40
 410.00000000000
 100
AcDbArc
  50
 6.1099891253632
  51
 173.89001087464
   0
ARC
   5
1B4
 100
AcDbEntity
   8
LEVEL001
 370
13
   6
CONTINUOUS
  62
1
 100
AcDbCircle
  10
 1503.2877791474
  20
 4726.8007657773
  30
0.0
  40
 411.50000000000
 100
AcDbArc
  50
 6.1099891253619
  51
 173.89001087464
   0
LINE
   5
1B5
 100
AcDbEntity
   8
LEVEL001
 370
13
 100
AcDbLine
   6
CONTINUOUS
  62
1
  10
 1095.6168240768
  20
 4770.4401103171
  30
0.0
  11
 1094.1253449729
  21
 4770.5997664557
  31
0.0
   0
LINE
   5
1B6
 100
AcDbEntity
   8
LEVEL001
 370
13
 100
AcDbLine
   6
CONTINUOUS
  62
1
  10
 1910.9587342180
  20
 4770.4401103171
  30
0.0
  11
 1912.4502133219
  21
 4770.5997664557
  31
0.0
   0
LINE
   5
1B7
 100
AcDbEntity
   8
LEVEL001
 370
13
 100
AcDbLine
   6
DASHDOT
  62
6
  10
 1028.2877791474
  20
 4726.8007657773
  30
0.0
  11
 1978.2877791474
  21
 4726.8007657773
  31
0.0
   0
CIRCLE
   5
1B8
 100
AcDbEntity
   8
LEVEL001
 370
13
 100
AcDbCircle
   6
CONTINUOUS
  62
7
  10
 1503.2877453453
  20
 1194.3007657773
  30
0.0
  40
 7.5000000000000
   0
LINE
   5
1B9
 100
AcDbEntity
   8
LEVEL001
 370
13
 100
AcDbLine
   6
DASHDOT
  62
6
  10
 1473.2877453453
  20
 1194.3007657773
  30
0.0
  11
 1533.2877453453
  21
 1194.3007657773
  31
0.0
   0
LINE
   5
1BA
 100
AcDbEntity
   8
LEVEL001
 370
13
 100
AcDbLine
   6
DASHDOT
  62
6
  10
 3059.4711341142
  20
 4771.8007657773
  30
0.0
  11
 3059.4711341142
  21
 4741.8007657773
  31
0.0
   0
LINE
   5
1BB
 100
AcDbEntity
   8
LEVEL001
 370
13
 100
AcDbLine
   6
DASHDOT
  62
6
  10
 3044.4711341142
  20
 4756.8007657773
  30
0.0
  11
 3074.4711341142
  21
 4756.8007657773
  31
0.0
   0
LINE
   5
1BC
 100
AcDbEntity
   8
LEVEL001
 370
13
 100
AcDbLine
   6
DASHDOT
  62
6
  10
 3059.4711341142
  20
 4711.8007657773
  30
0.0
  11
 3059.4711341142
  21
 4681.8007657773
  31
0.0
   0
LINE
   5
1BD
 100
AcDbEntity
   8
LEVEL001
 370
13
 100
AcDbLine
   6
DASHDOT
  62
6
  10
 3044.4711341142
  20
 4696.8007657773
  30
0.0
  11
 3074.4711341142
  21
 4696.8007657773
  31
0.0
   0
LINE
   5
1BE
 100
AcDbEntity
   8
LEVEL001
 370
13
 100
AcDbLine
   6
CONTINUOUS
  62
7
  10
 2965.1377791474
  20
 4781.8007657773
  30
0.0
  11
 2965.1377791474
  21
 4894.3007657773
  31
0.0
   0
LINE
   5
1BF
 100
AcDbEntity
   8
LEVEL001
 370
13
 100
AcDbLine
   6
CONTINUOUS
  62
7
  10
 2965.1377791474
  20
 4894.3007657773
  30
0.0
  11
 3041.4377791474
  21
 4894.3007657773
  31
0.0
   0
LINE
   5
1C0
 100
AcDbEntity
   8
LEVEL001
 370
13
 100
AcDbLine
   6
CONTINUOUS
  62
7
  10
 3041.4377791474
  20
 4894.3007657773
  30
0.0
  11
 3041.4377791474
  21
 4781.8007657773
  31
0.0
   0
LINE
   5
1C1
 100
AcDbEntity
   8
LEVEL001
 370
13
 100
AcDbLine
   6
CONTINUOUS
  62
7
  10
 2965.1377791474
  20
 4106.8007660573
  30
0.0
  11
 2965.1377791474
  21
 4671.8007657773
  31
0.0
   0
LINE
   5
1C2
 100
AcDbEntity
   8
LEVEL001
 370
13
 100
AcDbLine
   6
CONTINUOUS
  62
7
  10
 3041.4377791474
  20
 4671.8007657773
  30
0.0
  11
 3041.4377791474
  21
 4106.8007660573
  31
0.0
   0
LINE
   5
1C3
 100
AcDbEntity
   8
LEVEL001
 370
13
 100
AcDbLine
   6
CONTINUOUS
  62
6
  10
 3037.4312513462
  20
 4776.8007657773
  30
0.0
  11
 3037.4312513462
  21
 4676.8007657773
  31
0.0
   0
LINE
   5
1C4
 100
AcDbEntity
   8
LEVEL001
 370
13
 100
AcDbLine
   6
CONTINUOUS
  62
3
  10
 3052.4711341142
  20
 4749.8007657773
  30
0.0
  11
 3066.4711341142
  21
 4749.8007657773
  31
0.0
   0
LINE
   5
1C5
 100
AcDbEntity
   8
LEVEL001
 370
13
 100
AcDbLine
   6
CONTINUOUS
  62
3
  10
 3066.4711341142
  20
 4749.8007657773
  30
0.0
  11
 3066.4711341142
  21
 4763.8007657773
  31
0.0
   0
LINE
   5
1C6
 100
AcDbEntity
   8
LEVEL001
 370
13
 100
AcDbLine
   6
CONTINUOUS
  62
3
  10
 3066.4711341142
  20
 4763.8007657773
  30
0.0
  11
 3052.4711341142
  21
 4763.8007657773
  31
0.0
   0
LINE
   5
1C7
 100
AcDbEntity
   8
LEVEL001
 370
13
 100
AcDbLine
   6
CONTINUOUS
  62
3
  10
 3052.4711341142
  20
 4763.8007657773
  30
0.0
  11
 3052.4711341142
  21
 4749.8007657773
  31
0.0
   0
LINE
   5
1C8
 100
AcDbEntity
   8
LEVEL001
 370
13
 100
AcDbLine
   6
CONTINUOUS
  62
3
  10
 3052.4711341142
  20
 4689.8007657773
  30
0.0
  11
 3066.4711341142
  21
 4689.8007657773
  31
0.0
   0
LINE
   5
1C9
 100
AcDbEntity
   8
LEVEL001
 370
13
 100
AcDbLine
   6
CONTINUOUS
  62
3
  10
 3066.4711341142
  20
 4689.8007657773
  30
0.0
  11
 3066.4711341142
  21
 4703.8007657773
  31
0.0
   0
LINE
   5
1CA
 100
AcDbEntity
   8
LEVEL001
 370
13
 100
AcDbLine
   6
CONTINUOUS
  62
3
  10
 3066.4711341142
  20
 4703.8007657773
  30
0.0
  11
 3052.4711341142
  21
 4703.8007657773
  31
0.0
   0
LINE
   5
1CB
 100
AcDbEntity
   8
LEVEL001
 370
13
 100
AcDbLine
   6
CONTINUOUS
  62
3
  10
 3052.4711341142
  20
 4703.8007657773
  30
0.0
  11
 3052.4711341142
  21
 4689.8007657773
  31
0.0
   0
ARC
   5
1CC
 100
AcDbEntity
   8
LEVEL001
 370
13
   6
CONTINUOUS
  62
7
 100
AcDbCircle
  10
 2814.8044164066
  20
 4296.8007657773
  30
0.0
  40
 2.5000000000000
 100
AcDbArc
  50
 180.00000000000
  51
 270.00000000000
   0
POINT
   5
1CD
 100
AcDbEntity
   8
LEVEL001
 100
AcDbPoint
  62
7
  10
 2812.3044164066
  20
 4294.3007657773
  30
0.0
   0
LINE
   5
1CE
 100
AcDbEntity
   8
LEVEL001
 370
13
 100
AcDbLine
   6
CONTINUOUS
  62
7
  10
 2812.3044164066
  20
 5156.8007657773
  30
0.0
  11
 2812.3044164066
  21
 4296.8007657773
  31
0.0
   0
ARC
   5
1CF
 100
AcDbEntity
   8
LEVEL001
 370
13
   6
CONTINUOUS
  62
7
 100
AcDbCircle
  10
 2814.8044164066
  20
 5156.8007657773
  30
0.0
  40
 2.5000000000000
 100
AcDbArc
  50
 90.000000000000
  51
 180.00000000000
   0
POINT
   5
1D0
 100
AcDbEntity
   8
LEVEL001
 100
AcDbPoint
  62
7
  10
 2812.3044164066
  20
 5159.3007657773
  30
0.0
   0
ARC
   5
1D1
 100
AcDbEntity
   8
LEVEL001
 370
13
   6
CONTINUOUS
  62
7
 100
AcDbCircle
  10
 2814.8044164066
  20
 4296.8007657773
  30
0.0
  40
 2.5000000000000
 100
AcDbArc
  50
 270.00000000000
  51
0.0
   0
POINT
   5
1D2
 100
AcDbEntity
   8
LEVEL001
 100
AcDbPoint
  62
7
  10
 2817.3044164066
  20
 4294.3007657773
  30
0.0
   0
LINE
   5
1D3
 100
AcDbEntity
   8
LEVEL001
 370
13
 100
AcDbLine
   6
CONTINUOUS
  62
7
  10
 2817.3044164066
  20
 4296.8007657773
  30
0.0
  11
 2817.3044164066
  21
 5156.8007657773
  31
0.0
   0
ARC
   5
1D4
 100
AcDbEntity
   8
LEVEL001
 370
13
   6
CONTINUOUS
  62
7
 100
AcDbCircle
  10
 2814.8044164066
  20
 5156.8007657773
  30
0.0
  40
 2.5000000000000
 100
AcDbArc
  50
0.0
  51
 90.000000000000
   0
POINT
   5
1D5
 100
AcDbEntity
   8
LEVEL001
 100
AcDbPoint
  62
7
  10
 2817.3044164066
  20
 5159.3007657773
  30
0.0
   0
LINE
   5
1D6
 100
AcDbEntity
   8
LEVEL001
 370
13
 100
AcDbLine
   6
CONTINUOUS
  62
7
  10
 2792.9316034606
  20
 4320.6753283665
  30
0.0
  11
 2812.3044164066
  21
 4316.8007657773
  31
0.0
   0
ARC
   5
1D7
 100
AcDbEntity
   8
LEVEL001
 370
13
   6
CONTINUOUS
  62
7
 100
AcDbCircle
  10
 2794.3044164066
  20
 4327.5393930963
  30
0.0
  40
 7.0000000000000
 100
AcDbArc
  50
 180.00000000001
  51
 258.69006752597
   0
POINT
   5
1D8
 100
AcDbEntity
   8
LEVEL001
 100
AcDbPoint
  62
7
  10
 2787.3044164066
  20
 4321.8007657773
  30
0.0
   0
LINE
   5
1D9
 100
AcDbEntity
   8
LEVEL001
 370
13
 100
AcDbLine
   6
CONTINUOUS
  62
7
  10
 2787.3044164066
  20
 4779.1003643549
  30
0.0
  11
 2787.3044164066
  21
 4327.5393930963
  31
0.0
   0
ARC
   5
1DA
 100
AcDbEntity
   8
LEVEL001
 370
13
   6
CONTINUOUS
  62
7
 100
AcDbCircle
  10
 5760.5181658704
  20
 4726.8007657773
  30
0.0
  40
 3000.0000000000
 100
AcDbArc
  50
 178.16561308138
  51
 187.66225566077
   0
ARC
   5
1DB
 100
AcDbEntity
   8
LEVEL001
 370
13
   6
HIDDEN
  62
6
 100
AcDbCircle
  10
 5760.5181658704
  20
 4726.8007657773
  30
0.0
  40
 3000.0000000000
 100
AcDbArc
  50
 172.33774433923
  51
 178.16561308138
   0
LINE
   5
1DC
 100
AcDbEntity
   8
LEVEL001
 370
13
 100
AcDbLine
   6
HIDDEN
  62
6
  10
 2787.3044164066
  20
 5126.0621384583
  30
0.0
  11
 2787.3044164066
  21
 4779.1003643549
  31
0.0
   0
LINE
   5
1DD
 100
AcDbEntity
   8
LEVEL001
 370
13
 100
AcDbLine
   6
HIDDEN
  62
6
  10
 2812.3044164066
  20
 5136.8007657773
  30
0.0
  11
 2792.9316034606
  21
 5132.9262031881
  31
0.0
   0
ARC
   5
1DE
 100
AcDbEntity
   8
LEVEL001
 370
13
   6
HIDDEN
  62
6
 100
AcDbCircle
  10
 2794.3044164066
  20
 5126.0621384583
  30
0.0
  40
 7.0000000000000
 100
AcDbArc
  50
 101.30993247403
  51
 179.99999999999
   0
POINT
   5
1DF
 100
AcDbEntity
   8
LEVEL001
 100
AcDbPoint
  62
6
  10
 2787.3044164066
  20
 5131.8007657773
  30
0.0
   0
LINE
   5
1E0
 100
AcDbEntity
   8
LEVEL001
 370
13
 100
AcDbLine
   6
CONTINUOUS
  62
3
  10
 2812.3044164066
  20
 4770.4401103171
  30
0.0
  11
 2792.3044164066
  21
 4770.4401103169
  31
0.0
   0
LINE
   5
1E1
 100
AcDbEntity
   8
LEVEL001
 370
13
 100
AcDbLine
   6
CONTINUOUS
  62
3
  10
 2792.3044164066
  20
 4770.4401103169
  30
0.0
  11
 2727.3044164066
  21
 4883.0234128091
  31
0.0
   0
LINE
   5
1E2
 100
AcDbEntity
   8
LEVEL001
 370
13
 100
AcDbLine
   6
CONTINUOUS
  62
3
  10
 2727.3044164066
  20
 4883.0234128091
  30
0.0
  11
 2727.3044164066
  21
 5138.3007657773
  31
0.0
   0
LINE
   5
1E3
 100
AcDbEntity
   8
LEVEL001
 370
13
 100
AcDbLine
   6
CONTINUOUS
  62
3
  10
 2727.3044164066
  20
 5138.3007657773
  30
0.0
  11
 2812.3044164066
  21
 5138.3007657773
  31
0.0
   0
LINE
   5
1E4
 100
AcDbEntity
   8
LEVEL001
 370
13
 100
AcDbLine
   6
DASHDOT
  62
6
  10
 3129.4711341142
  20
 4726.8007657773
  30
0.0
  11
 2678.2634177048
  21
 4726.8007657773
  31
0.0
   0
LINE
   5
1E5
 100
AcDbEntity
   8
LEVEL001
 370
13
 100
AcDbLine
   6
DASHDOT
  62
6
  10
 2885.5044164066
  20
 4771.8007657773
  30
0.0
  11
 2885.5044164066
  21
 4741.8007657773
  31
0.0
   0
LINE
   5
1E6
 100
AcDbEntity
   8
LEVEL001
 370
13
 100
AcDbLine
   6
DASHDOT
  62
6
  10
 2870.5044164066
  20
 4756.8007657773
  30
0.0
  11
 2900.5044164066
  21
 4756.8007657773
  31
0.0
   0
LINE
   5
1E7
 100
AcDbEntity
   8
LEVEL001
 370
13
 100
AcDbLine
   6
DASHDOT
  62
6
  10
 2885.5044164066
  20
 4711.8007657773
  30
0.0
  11
 2885.5044164066
  21
 4681.8007657773
  31
0.0
   0
LINE
   5
1E8
 100
AcDbEntity
   8
LEVEL001
 370
13
 100
AcDbLine
   6
DASHDOT
  62
6
  10
 2870.5044164066
  20
 4696.8007657773
  30
0.0
  11
 2900.5044164066
  21
 4696.8007657773
  31
0.0
   0
LINE
   5
1E9
 100
AcDbEntity
   8
LEVEL001
 370
13
 100
AcDbLine
   6
CONTINUOUS
  62
7
  10
 2965.5044164066
  20
 4671.8007657773
  30
0.0
  11
 3079.4711341142
  21
 4671.8007657773
  31
0.0
   0
LINE
   5
1EA
 100
AcDbEntity
   8
LEVEL001
 370
13
 100
AcDbLine
   6
CONTINUOUS
  62
7
  10
 3079.4711341142
  20
 4671.8007657773
  30
0.0
  11
 3079.4711341142
  21
 4781.8007657773
  31
0.0
   0
LINE
   5
1EB
 100
AcDbEntity
   8
LEVEL001
 370
13
 100
AcDbLine
   6
CONTINUOUS
  62
7
  10
 3079.4711341142
  20
 4781.8007657773
  30
0.0
  11
 2965.5044164066
  21
 4781.8007657773
  31
0.0
   0
LINE
   5
1EC
 100
AcDbEntity
   8
LEVEL001
 370
13
 100
AcDbLine
   6
CONTINUOUS
  62
7
  10
 2910.5044164066
  20
 4781.8007657773
  30
0.0
  11
 2965.5044164066
  21
 4781.8007657773
  31
0.0
   0
LINE
   5
1ED
 100
AcDbEntity
   8
LEVEL001
 370
13
 100
AcDbLine
   6
CONTINUOUS
  62
7
  10
 2965.5044164066
  20
 4781.8007657773
  30
0.0
  11
 2965.5044164066
  21
 4671.8007657773
  31
0.0
   0
LINE
   5
1EE
 100
AcDbEntity
   8
LEVEL001
 370
13
 100
AcDbLine
   6
CONTINUOUS
  62
7
  10
 2965.5044164066
  20
 4671.8007657773
  30
0.0
  11
 2910.5044164066
  21
 4671.8007657773
  31
0.0
   0
LINE
   5
1EF
 100
AcDbEntity
   8
LEVEL001
 370
13
 100
AcDbLine
   6
CONTINUOUS
  62
7
  10
 2817.3044164066
  20
 4671.8007657773
  30
0.0
  11
 2910.5044164066
  21
 4671.8007657773
  31
0.0
   0
LINE
   5
1F0
 100
AcDbEntity
   8
LEVEL001
 370
13
 100
AcDbLine
   6
CONTINUOUS
  62
7
  10
 2910.5044164066
  20
 4671.8007657773
  30
0.0
  11
 2910.5044164066
  21
 4781.8007657773
  31
0.0
   0
LINE
   5
1F1
 100
AcDbEntity
   8
LEVEL001
 370
13
 100
AcDbLine
   6
CONTINUOUS
  62
7
  10
 2910.5044164066
  20
 4781.8007657773
  30
0.0
  11
 2817.3044164066
  21
 4781.8007657773
  31
0.0
   0
LINE
   5
1F2
 100
AcDbEntity
   8
LEVEL001
 370
13
 100
AcDbLine
   6
DASHDOT
  62
6
  10
 2934.6535390638
  20
 4737.3861795963
  30
0.0
  11
 2934.6535390638
  21
 4707.3861795963
  31
0.0
   0
LINE
   5
1F3
 100
AcDbEntity
   8
LEVEL001
 370
13
 100
AcDbLine
   6
DASHDOT
  62
6
  10
 2919.6535390638
  20
 4722.3861795963
  30
0.0
  11
 2949.6535390638
  21
 4722.3861795963
  31
0.0
   0
LINE
   5
1F4
 100
AcDbEntity
   8
LEVEL001
 370
13
 100
AcDbLine
   6
CONTINUOUS
  62
3
  10
 2878.5044164066
  20
 4749.8007657773
  30
0.0
  11
 2892.5044164066
  21
 4749.8007657773
  31
0.0
   0
LINE
   5
1F5
 100
AcDbEntity
   8
LEVEL001
 370
13
 100
AcDbLine
   6
CONTINUOUS
  62
3
  10
 2892.5044164066
  20
 4749.8007657773
  30
0.0
  11
 2892.5044164066
  21
 4763.8007657773
  31
0.0
   0
LINE
   5
1F6
 100
AcDbEntity
   8
LEVEL001
 370
13
 100
AcDbLine
   6
CONTINUOUS
  62
3
  10
 2892.5044164066
  20
 4763.8007657773
  30
0.0
  11
 2878.5044164066
  21
 4763.8007657773
  31
0.0
   0
LINE
   5
1F7
 100
AcDbEntity
   8
LEVEL001
 370
13
 100
AcDbLine
   6
CONTINUOUS
  62
3
  10
 2878.5044164066
  20
 4763.8007657773
  30
0.0
  11
 2878.5044164066
  21
 4749.8007657773
  31
0.0
   0
LINE
   5
1F8
 100
AcDbEntity
   8
LEVEL001
 370
13
 100
AcDbLine
   6
CONTINUOUS
  62
3
  10
 2878.5044164066
  20
 4689.8007657773
  30
0.0
  11
 2892.5044164066
  21
 4689.8007657773
  31
0.0
   0
LINE
   5
1F9
 100
AcDbEntity
   8
LEVEL001
 370
13
 100
AcDbLine
   6
CONTINUOUS
  62
3
  10
 2892.5044164066
  20
 4689.8007657773
  30
0.0
  11
 2892.5044164066
  21
 4703.8007657773
  31
0.0
   0
LINE
   5
1FA
 100
AcDbEntity
   8
LEVEL001
 370
13
 100
AcDbLine
   6
CONTINUOUS
  62
3
  10
 2892.5044164066
  20
 4703.8007657773
  30
0.0
  11
 2878.5044164066
  21
 4703.8007657773
  31
0.0
   0
LINE
   5
1FB
 100
AcDbEntity
   8
LEVEL001
 370
13
 100
AcDbLine
   6
CONTINUOUS
  62
3
  10
 2878.5044164066
  20
 4703.8007657773
  30
0.0
  11
 2878.5044164066
  21
 4689.8007657773
  31
0.0
   0
ARC
   5
1FC
 100
AcDbEntity
   8
LEVEL001
 370
13
   6
CONTINUOUS
  62
3
 100
AcDbCircle
  10
 2885.5044164066
  20
 4756.8007657773
  30
0.0
  40
 52.000000000000
 100
AcDbArc
  50
 298.73565374506
  51
 325.00000000000
   0
ARC
   5
1FD
 100
AcDbEntity
   8
LEVEL001
 370
13
   6
CONTINUOUS
  62
3
 100
AcDbCircle
  10
 2885.5044164066
  20
 4756.8007657773
  30
0.0
  40
 68.000000000000
 100
AcDbArc
  50
 291.57057830172
  51
 325.00000000000
   0
ARC
   5
1FE
 100
AcDbEntity
   8
LEVEL001
 370
13
   6
CONTINUOUS
  62
3
 100
AcDbCircle
  10
 2934.6535390638
  20
 4722.3861795963
  30
0.0
  40
 8.0000000000000
 100
AcDbArc
  50
 324.99999999998
  51
 144.99999999998
   0
CIRCLE
   5
1FF
 100
AcDbEntity
   8
LEVEL001
 370
13
 100
AcDbCircle
   6
CONTINUOUS
  62
1
  10
 1753.2877791474
  20
 3794.3007657773
  30
0.0
  40
 70.000000000000
   0
CIRCLE
   5
200
 100
AcDbEntity
   8
LEVEL001
 370
13
 100
AcDbCircle
   6
CONTINUOUS
  62
1
  10
 3203.2877791474
  20
 3794.3007657773
  30
0.0
  40
 70.000000000000
   0
CIRCLE
   5
201
 100
AcDbEntity
   8
LEVEL001
 370
13
 100
AcDbCircle
   6
CONTINUOUS
  62
1
  10
 3343.2877791474
  20
 3794.3007657773
  30
0.0
  40
 70.000000000000
   0
CIRCLE
   5
202
 100
AcDbEntity
   8
LEVEL001
 370
13
 100
AcDbCircle
   6
CONTINUOUS
  62
1
  10
 1753.2877791474
  20
 2794.3007657773
  30
0.0
  40
 70.000000000000
   0
CIRCLE
   5
203
 100
AcDbEntity
   8
LEVEL001
 370
13
 100
AcDbCircle
   6
CONTINUOUS
  62
1
  10
 4053.2877791474
  20
 4376.8007657773
  30
0.0
  40
 69.999997913838
   0
MTEXT
   5
205
 100
AcDbEntity
   8
LEVEL001
 370
13
  62
1
 100
AcDbMText
  10
 4053.2877791474
  20
 4376.8007657773
  30
0.0
  40
 60.000000000001
  41
0.0
  71
5
  72
1
   1
\T1.000000;2
   7
GMM001
  44
 0.79999984000003
   0
LEADER
   5
206
 100
AcDbEntity
   8
LEVEL001
 370
13
   6
CONTINUOUS
  62
1
 100
AcDbLeader
   3
GMM001
  73
3
  74
1
  75
0
  40
 66.000000000000
  41
0.0
  76
2
  10
 4226.1878250702
  20
 4552.2759251583
  30
0.0
  10
 4103.2877791474
  20
 4425.7905576521
  30
0.0
  77
1
   0
CIRCLE
   5
207
 100
AcDbEntity
   8
LEVEL001
 370
13
 100
AcDbCircle
   6
CONTINUOUS
  62
1
  10
 2303.2877791474
  20
 4176.8007657773
  30
0.0
  40
 69.999997913838
   0
CIRCLE
   5
208
 100
AcDbEntity
   8
LEVEL001
 370
13
 100
AcDbCircle
   6
CONTINUOUS
  62
1
  10
 1753.2877791474
  20
 4176.8007657773
  30
0.0
  40
 69.999997913838
   0
CIRCLE
   5
209
 100
AcDbEntity
   8
LEVEL001
 370
13
 100
AcDbCircle
   6
CONTINUOUS
  62
1
  10
 3362.7815972750
  20
 5276.8007657773
  30
0.0
  40
 69.999997913838
   0
CIRCLE
   5
20A
 100
AcDbEntity
   8
LEVEL001
 370
13
 100
AcDbCircle
   6
CONTINUOUS
  62
1
  10
 3502.7815931028
  20
 5276.8007657773
  30
0.0
  40
 69.999997913838
   0
CIRCLE
   5
20B
 100
AcDbEntity
   8
LEVEL001
 370
13
 100
AcDbCircle
   6
CONTINUOUS
  62
1
  10
 3203.2877791474
  20
 5276.8007657773
  30
0.0
  40
 70.000000000000
   0
CIRCLE
   5
20C
 100
AcDbEntity
   8
LEVEL001
 370
13
 100
AcDbCircle
   6
CONTINUOUS
  62
1
  10
 2303.2877791474
  20
 5276.8007657773
  30
0.0
  40
 69.999997913838
   0
CIRCLE
   5
20D
 100
AcDbEntity
   8
LEVEL001
 370
13
 100
AcDbCircle
   6
CONTINUOUS
  62
1
  10
 2713.2877833198
  20
 5276.8007657773
  30
0.0
  40
 69.999997913838
   0
CIRCLE
   5
20E
 100
AcDbEntity
   8
LEVEL001
 370
13
 100
AcDbCircle
   6
CONTINUOUS
  62
1
  10
 2853.2877791474
  20
 5276.8007657773
  30
0.0
  40
 69.999997913838
   0
LINE
   5
20F
 100
AcDbEntity
   8
LEVEL001
 370
13
 100
AcDbLine
   6
DASHDOT
  62
6
  10
 1503.2877791474
  20
 5201.8007657773
  30
0.0
  11
 1503.2877791474
  21
 794.30076577732
  31
0.0
   0
LINE
   5
210
 100
AcDbEntity
   8
LEVEL001
 370
13
 100
AcDbLine
   6
CONTINUOUS
  62
1
  10
 1095.7877139121
  20
 1794.3007657773
  30
0.0
  11
 1070.7877139121
  21
 1844.3007657773
  31
0.0
   0
LINE
   5
211
 100
AcDbEntity
   8
LEVEL001
 370
13
 100
AcDbLine
   6
CONTINUOUS
  62
1
  10
 1070.7877139121
  20
 1844.3007657773
  30
0.0
  11
 1120.7877139121
  21
 1844.3007657773
  31
0.0
   0
LINE
   5
212
 100
AcDbEntity
   8
LEVEL001
 370
13
 100
AcDbLine
   6
CONTINUOUS
  62
1
  10
 1120.7877139121
  20
 1844.3007657773
  30
0.0
  11
 1095.7877139121
  21
 1794.3007657773
  31
0.0
   0
LINE
   5
213
 100
AcDbEntity
   8
LEVEL001
 370
13
 100
AcDbLine
   6
DASHDOT
  62
6
  10
 2593.2877610618
  20
 1294.3007657773
  30
0.0
  11
 2713.2877610618
  21
 1294.3007657773
  31
0.0
   0
CIRCLE
   5
214
 100
AcDbEntity
   8
LEVEL001
 370
13
 100
AcDbCircle
   6
CONTINUOUS
  62
7
  10
 2653.2877791474
  20
 1294.3007657773
  30
0.0
  40
 7.5000000000000
   0
CIRCLE
   5
215
 100
AcDbEntity
   8
LEVEL001
 370
13
 100
AcDbCircle
   6
CONTINUOUS
  62
7
  10
 2653.2877791474
  20
 1294.3007657773
  30
0.0
  40
 7.5000000000000
   0
CIRCLE
   5
216
 100
AcDbEntity
   8
LEVEL001
 370
13
 100
AcDbCircle
   6
CONTINUOUS
  62
7
  10
 2653.2877791474
  20
 1294.3007657773
  30
0.0
  40
 7.5000000000000
   0
LINE
   5
217
 100
AcDbEntity
   8
LEVEL001
 370
13
 100
AcDbLine
   6
CONTINUOUS
  62
7
  10
 2615.1377791474
  20
 1201.8007657773
  30
0.0
  11
 2543.2877610618
  21
 1201.8007657773
  31
0.0
   0
LINE
   5
218
 100
AcDbEntity
   8
LEVEL001
 370
13
 100
AcDbLine
   6
CONTINUOUS
  62
7
  10
 2543.2877610618
  20
 1201.8007657773
  30
0.0
  11
 2543.2877610618
  21
 1186.8007657773
  31
0.0
   0
LINE
   5
219
 100
AcDbEntity
   8
LEVEL001
 370
13
 100
AcDbLine
   6
CONTINUOUS
  62
7
  10
 2543.2877610618
  20
 1186.8007657773
  30
0.0
  11
 2615.1377791474
  21
 1186.8007657773
  31
0.0
   0
LINE
   5
21A
 100
AcDbEntity
   8
LEVEL001
 370
13
 100
AcDbLine
   6
DASHDOT
  62
6
  10
 2593.2877791474
  20
 1194.3007657773
  30
0.0
  11
 2713.2877791474
  21
 1194.3007657773
  31
0.0
   0
LINE
   5
21B
 100
AcDbEntity
   8
LEVEL001
 370
13
 100
AcDbLine
   6
CONTINUOUS
  62
7
  10
 2691.4377791474
  20
 1201.8007657773
  30
0.0
  11
 2763.2877610618
  21
 1201.8007657773
  31
0.0
   0
LINE
   5
21C
 100
AcDbEntity
   8
LEVEL001
 370
13
 100
AcDbLine
   6
CONTINUOUS
  62
7
  10
 2763.2877610618
  20
 1201.8007657773
  30
0.0
  11
 2763.2877610618
  21
 1186.8007657773
  31
0.0
   0
LINE
   5
21D
 100
AcDbEntity
   8
LEVEL001
 370
13
 100
AcDbLine
   6
CONTINUOUS
  62
7
  10
 2763.2877610618
  20
 1186.8007657773
  30
0.0
  11
 2691.4377791474
  21
 1186.8007657773
  31
0.0
   0
LINE
   5
21E
 100
AcDbEntity
   8
LEVEL001
 370
13
 100
AcDbLine
   6
DOT
  62
1
  10
 2691.4377791474
  20
 1186.8007657773
  30
0.0
  11
 2615.1377791474
  21
 1186.8007657773
  31
0.0
   0
LINE
   5
21F
 100
AcDbEntity
   8
LEVEL001
 370
13
 100
AcDbLine
   6
DOT
  62
1
  10
 2615.1377791474
  20
 1201.8007657773
  30
0.0
  11
 2691.4377791474
  21
 1201.8007657773
  31
0.0
   0
CIRCLE
   5
220
 100
AcDbEntity
   8
LEVEL001
 370
13
 100
AcDbCircle
   6
CONTINUOUS
  62
1
  10
 2278.2877791474
  20
 1044.3007657773
  30
0.0
  40
 70.000000000000
   0
LINE
   5
221
 100
AcDbEntity
   8
LEVEL001
 370
13
 100
AcDbLine
   6
CONTINUOUS
  62
1
  10
 2245.7877139120
  20
 1794.3007657773
  30
0.0
  11
 2220.7877139120
  21
 1844.3007657773
  31
0.0
   0
LINE
   5
222
 100
AcDbEntity
   8
LEVEL001
 370
13
 100
AcDbLine
   6
CONTINUOUS
  62
1
  10
 2220.7877139120
  20
 1844.3007657773
  30
0.0
  11
 2270.7877139120
  21
 1844.3007657773
  31
0.0
   0
LINE
   5
223
 100
AcDbEntity
   8
LEVEL001
 370
13
 100
AcDbLine
   6
CONTINUOUS
  62
1
  10
 2270.7877139120
  20
 1844.3007657773
  30
0.0
  11
 2245.7877139120
  21
 1794.3007657773
  31
0.0
   0
ARC
   5
224
 100
AcDbEntity
   8
LEVEL001
 370
13
   6
CONTINUOUS
  62
7
 100
AcDbCircle
  10
 2665.1377791474
  20
 2260.3226514877
  30
0.0
  40
 300.00000000000
 100
AcDbArc
  50
 322.12501634890
  51
 360.00000000000
   0
ARC
   5
225
 100
AcDbEntity
   8
LEVEL001
 370
13
   6
DASHDOT
  62
6
 100
AcDbCircle
  10
 2665.1377791474
  20
 2260.3226514877
  30
0.0
  40
 338.15000000000
 100
AcDbArc
  50
 322.12501634890
  51
 0.77051911727190E-13
   0
LINE
   5
226
 100
AcDbEntity
   8
LEVEL001
 370
13
 100
AcDbLine
   6
DASHDOT
  62
6
  10
 2724.5183268416
  20
 1785.8828985270
  30
0.0
  11
 2932.0572314532
  21
 2052.7186330277
  31
0.0
   0
LINE
   5
227
 100
AcDbEntity
   8
LEVEL001
 370
13
 100
AcDbLine
   6
CONTINUOUS
  62
7
  10
 2901.9434443602
  20
 2076.1404674333
  30
0.0
  11
 2694.4045397486
  21
 1809.3047329326
  31
0.0
   0
LINE
   5
228
 100
AcDbEntity
   8
LEVEL001
 370
13
 100
AcDbLine
   6
CONTINUOUS
  62
7
  10
 2754.6321139346
  20
 1762.4610641214
  30
0.0
  11
 2962.1710185462
  21
 2029.2967986219
  31
0.0
   0
ARC
   5
229
 100
AcDbEntity
   8
LEVEL001
 370
13
   6
CONTINUOUS
  62
7
 100
AcDbCircle
  10
 2665.1377791474
  20
 2260.3226514877
  30
0.0
  40
 376.30000000000
 100
AcDbArc
  50
 322.12501634890
  51
 0.13848048870874E-12
   0
ARC
   5
22A
 100
AcDbEntity
   8
LEVEL001
 370
13
   6
CONTINUOUS
  62
7
 100
AcDbCircle
  10
 2991.4377791474
  20
 1578.2788800669
  30
0.0
  40
 300.00000000000
 100
AcDbArc
  50
 142.12501634890
  51
 180.00000000000
   0
ARC
   5
22B
 100
AcDbEntity
   8
LEVEL001
 370
13
   6
DASHDOT
  62
6
 100
AcDbCircle
  10
 2991.4377791474
  20
 1578.2788800669
  30
0.0
  40
 338.15000000000
 100
AcDbArc
  50
 142.12501634890
  51
 180.00000000000
   0
ARC
   5
22C
 100
AcDbEntity
   8
LEVEL001
 370
13
   6
CONTINUOUS
  62
7
 100
AcDbCircle
  10
 2991.4377791474
  20
 1578.2788800669
  30
0.0
  40
 376.30000000000
 100
AcDbArc
  50
 142.12501634890
  51
 180.00000000000
   0
LINE
   5
22D
 100
AcDbEntity
   8
LEVEL001
 370
13
 100
AcDbLine
   6
CONTINUOUS
  62
7
  10
 3041.4377791474
  20
 3681.8007657765
  30
0.0
  11
 3041.4377791474
  21
 2260.3226514877
  31
0.0
   0
LINE
   5
22E
 100
AcDbEntity
   8
LEVEL001
 370
13
 100
AcDbLine
   6
CONTINUOUS
  62
7
  10
 2965.1377791474
  20
 2260.3226514877
  30
0.0
  11
 2965.1377791474
  21
 3681.8007657765
  31
0.0
   0
LINE
   5
22F
 100
AcDbEntity
   8
LEVEL001
 370
13
 100
AcDbLine
   6
CONTINUOUS
  62
7
  10
 2615.1377791474
  20
 1578.2788800669
  30
0.0
  11
 2615.1377791474
  21
 894.30076577732
  31
0.0
   0
LINE
   5
230
 100
AcDbEntity
   8
LEVEL001
 370
13
 100
AcDbLine
   6
CONTINUOUS
  62
7
  10
 2615.1377791474
  20
 894.30076577732
  30
0.0
  11
 2691.4377791474
  21
 894.30076577732
  31
0.0
   0
LINE
   5
231
 100
AcDbEntity
   8
LEVEL001
 370
13
 100
AcDbLine
   6
CONTINUOUS
  62
7
  10
 2691.4377791474
  20
 894.30076577732
  30
0.0
  11
 2691.4377791474
  21
 1578.2788800669
  31
0.0
   0
LINE
   5
232
 100
AcDbEntity
   8
LEVEL001
 370
13
 100
AcDbLine
   6
DASHDOT
  62
6
  10
 3003.2877791474
  20
 4944.3007657773
  30
0.0
  11
 3003.2877791474
  21
 2260.3226514877
  31
0.0
   0
POINT
   5
233
 100
AcDbEntity
   8
LEVEL001
 100
AcDbPoint
  62
3
  10
 3003.2877791474
  20
 2144.3007657787
  30
0.0
   0
POINT
   5
234
 100
AcDbEntity
   8
LEVEL001
 100
AcDbPoint
  62
3
  10
 2653.2877791474
  20
 1694.3007657786
  30
0.0
   0
LINE
   5
235
 100
AcDbEntity
   8
LEVEL001
 370
13
 100
AcDbLine
   6
DASHDOT
  62
6
  10
 2653.2877791474
  20
 1578.2788800669
  30
0.0
  11
 2653.2877791474
  21
 794.30076577732
  31
0.0
   0
LEADER
   5
236
 100
AcDbEntity
   8
LEVEL001
 370
13
   6
CONTINUOUS
  62
1
 100
AcDbLeader
   3
GMM002
  73
3
  74
1
  75
0
  40
 60.000000000000
  41
0.0
  76
2
  10
 1593.2874720363
  20
 3954.3010728889
  30
0.0
  10
 1703.7903044646
  20
 3843.7982404607
  30
0.0
  77
1
   0
MTEXT
   5
237
 100
AcDbEntity
   8
LEVEL001
 370
13
  62
1
 100
AcDbMText
  10
 1753.2877791474
  20
 3794.3007657773
  30
0.0
  40
 57.142857142858
  41
0.0
  71
5
  72
1
   1
\T1.000000;12
   7
GMM002
  44
 0.79999984000003
   0
LEADER
   5
238
 100
AcDbEntity
   8
LEVEL001
 370
13
   6
CONTINUOUS
  62
1
 100
AcDbLeader
   3
GMM002
  73
3
  74
1
  75
0
  40
 60.000000000000
  41
0.0
  76
2
  10
 3061.3648745514
  20
 3718.8007657765
  30
0.0
  10
 3141.9303888354
  20
 3760.6069881009
  30
0.0
  77
1
   0
MTEXT
   5
239
 100
AcDbEntity
   8
LEVEL001
 370
13
  62
1
 100
AcDbMText
  10
 3203.2877791474
  20
 3794.3007657773
  30
0.0
  40
 57.142857142858
  41
0.0
  71
5
  72
1
   1
\T1.000000;13
   7
GMM002
  44
 0.79999984000003
   0
MTEXT
   5
23A
 100
AcDbEntity
   8
LEVEL001
 370
13
  62
1
 100
AcDbMText
  10
 3343.2877791474
  20
 3794.3007657773
  30
0.0
  40
 57.142857142858
  41
0.0
  71
5
  72
1
   1
\T1.000000;14
   7
GMM002
  44
 0.79999984000003
   0
LEADER
   5
23B
 100
AcDbEntity
   8
LEVEL001
 370
13
   6
CONTINUOUS
  62
1
 100
AcDbLeader
   3
GMM002
  73
3
  74
1
  75
0
  40
 60.000000000000
  41
0.0
  76
2
  10
 1541.4377791474
  20
 2669.3007657773
  30
0.0
  10
 1692.9999897862
  20
 2758.7285511437
  30
0.0
  77
1
   0
MTEXT
   5
23C
 100
AcDbEntity
   8
LEVEL001
 370
13
  62
1
 100
AcDbMText
  10
 1753.2877791474
  20
 2794.3007657773
  30
0.0
  40
 57.142857142858
  41
0.0
  71
5
  72
1
   1
\T1.000000;9
   7
GMM002
  44
 0.79999984000003
   0
MTEXT
   5
23D
 100
AcDbEntity
   8
LEVEL001
 370
13
  62
1
 100
AcDbMText
  10
 2303.2877791474
  20
 4176.8007657773
  30
0.0
  40
 57.142857142858
  41
0.0
  71
5
  72
1
   1
\T1.000000;1
   7
GMM002
  44
 0.79999984000003
   0
LEADER
   5
23E
 100
AcDbEntity
   8
LEVEL001
 370
13
   6
CONTINUOUS
  62
1
 100
AcDbLeader
   3
GMM002
  73
3
  74
1
  75
0
  40
 60.000000000000
  41
0.0
  76
2
  10
 1616.4184242844
  20
 4426.8007657773
  30
0.0
  10
 2237.6305161166
  20
 4201.0726326037
  30
0.0
  77
1
   0
MTEXT
   5
23F
 100
AcDbEntity
   8
LEVEL001
 370
13
  62
1
 100
AcDbMText
  10
 1753.2877791474
  20
 4176.8007657773
  30
0.0
  40
 57.142857142858
  41
0.0
  71
5
  72
1
   1
\T1.000000;4
   7
GMM002
  44
 0.79999984000003
   0
LEADER
   5
240
 100
AcDbEntity
   8
LEVEL001
 370
13
   6
CONTINUOUS
  62
1
 100
AcDbLeader
   3
GMM002
  73
3
  74
1
  75
0
  40
 60.000000000000
  41
0.0
  76
2
  10
 1619.5019037768
  20
 4310.2068061035
  30
0.0
  10
 1703.7903059399
  20
 4226.2982389857
  30
0.0
  77
1
   0
MTEXT
   5
241
 100
AcDbEntity
   8
LEVEL001
 370
13
  62
1
 100
AcDbMText
  10
 3362.7815972750
  20
 5276.8007657773
  30
0.0
  40
 57.142857142858
  41
0.0
  71
5
  72
1
   1
\T1.000000;6
   7
GMM002
  44
 0.79999984000003
   0
MTEXT
   5
242
 100
AcDbEntity
   8
LEVEL001
 370
13
  62
1
 100
AcDbMText
  10
 3502.7815931028
  20
 5276.8007657773
  30
0.0
  40
 57.142857142858
  41
0.0
  71
5
  72
1
   1
\T1.000000;8
   7
GMM002
  44
 0.79999984000003
   0
MTEXT
   5
243
 100
AcDbEntity
   8
LEVEL001
 370
13
  62
1
 100
AcDbMText
  10
 2303.2877791474
  20
 5276.8007657773
  30
0.0
  40
 57.142857142858
  41
0.0
  71
5
  72
1
   1
\T1.000000;3
   7
GMM002
  44
 0.79999984000003
   0
MTEXT
   5
244
 100
AcDbEntity
   8
LEVEL001
 370
13
  62
1
 100
AcDbMText
  10
 3203.2877791474
  20
 5276.8007657773
  30
0.0
  40
 57.142857142858
  41
0.0
  71
5
  72
1
   1
\T1.000000;11
   7
GMM002
  44
 0.79999984000003
   0
MTEXT
   5
245
 100
AcDbEntity
   8
LEVEL001
 370
13
  62
1
 100
AcDbMText
  10
 2853.2877791474
  20
 5276.8007657773
  30
0.0
  40
 57.142857142858
  41
0.0
  71
5
  72
1
   1
\T1.000000;7
   7
GMM002
  44
 0.79999984000003
   0
MTEXT
   5
246
 100
AcDbEntity
   8
LEVEL001
 370
13
  62
1
 100
AcDbMText
  10
 2713.2877833198
  20
 5276.8007657773
  30
0.0
  40
 57.142857142858
  41
0.0
  71
5
  72
1
   1
\T1.000000;5
   7
GMM002
  44
 0.79999984000003
   0
LEADER
   5
247
 100
AcDbEntity
   8
LEVEL001
 370
13
   6
CONTINUOUS
  62
1
 100
AcDbLeader
   3
GMM002
  73
3
  74
1
  75
0
  40
 60.000000000000
  41
0.0
  76
2
  10
 3003.2877791474
  20
 4898.3007657773
  30
0.0
  10
 3169.7898109504
  20
 5215.3362546617
  30
0.0
  77
1
   0
LEADER
   5
248
 100
AcDbEntity
   8
LEVEL001
 370
13
   6
CONTINUOUS
  62
1
 100
AcDbLeader
   3
GMM002
  73
3
  74
1
  75
0
  40
 60.000000000000
  41
0.0
  76
2
  10
 2727.3044164066
  20
 5138.3007657773
  30
0.0
  10
 2369.7042474568
  20
 5254.6907579697
  30
0.0
  77
1
   0
LEADER
   5
249
 100
AcDbEntity
   8
LEVEL001
 370
13
   6
CONTINUOUS
  62
1
 100
AcDbLeader
   3
GMM002
  73
3
  74
1
  75
0
  40
 60.000000000000
  41
0.0
  76
2
  10
 1623.7602530247
  20
 5120.2707557867
  30
0.0
  10
 2234.9066685340
  20
 5261.8333538697
  30
0.0
  77
1
   0
LEADER
   5
24A
 100
AcDbEntity
   8
LEVEL001
 370
13
   6
CONTINUOUS
  62
1
 100
AcDbLeader
   3
GMM002
  73
3
  74
1
  75
0
  40
 60.000000000000
  41
0.0
  76
2
  10
 2896.4009235826
  20
 4781.8007657773
  30
0.0
  10
 2858.8892347118
  20
 5207.0252442565
  30
0.0
  77
1
   0
LEADER
   5
24B
 100
AcDbEntity
   8
LEVEL001
 370
13
   6
CONTINUOUS
  62
1
 100
AcDbLeader
   3
GMM002
  73
3
  74
1
  75
0
  40
 60.000000000000
  41
0.0
  76
2
  10
 3079.4711341142
  20
 4781.8007657773
  30
0.0
  10
 3328.3144414994
  20
 5215.8744588101
  30
0.0
  77
1
   0
LEADER
   5
24C
 100
AcDbEntity
   8
LEVEL001
 370
13
   6
CONTINUOUS
  62
1
 100
AcDbLeader
   3
GMM002
  73
3
  74
1
  75
0
  40
 60.000000000000
  41
0.0
  76
2
  10
 2775.5558545504
  20
 4426.8007657773
  30
0.0
  10
 2365.1663812446
  20
 4209.5274874345
  30
0.0
  77
1
   0
LEADER
   5
24D
 100
AcDbEntity
   8
LEVEL001
 370
13
   6
CONTINUOUS
  62
1
 100
AcDbLeader
   3
GMM002
  73
3
  74
1
  75
0
  40
 60.000000000000
  41
0.0
  76
2
  10
 2543.2877610618
  20
 1186.8007657773
  30
0.0
  10
 2339.9394212874
  20
 1077.4530661717
  30
0.0
  77
1
   0
MTEXT
   5
24E
 100
AcDbEntity
   8
LEVEL001
 370
13
  62
1
 100
AcDbMText
  10
 2278.2877791474
  20
 1044.3007657773
  30
0.0
  40
 57.142857142858
  41
0.0
  71
5
  72
1
   1
\T1.000000;10
   7
GMM002
  44
 0.79999984000003
   0
MTEXT
   5
24F
 100
AcDbEntity
   8
LEVEL001
 370
13
  62
1
 100
AcDbMText
  10
 3003.2877791474
  20
 5526.8007657773
  30
0.0
  40
 57.142857142858
  41
0.0
  71
5
  72
1
   1
\T1.000000;側　面　図
   7
GMM002
  44
 0.79999984000003
   0
MTEXT
   5
250
 100
AcDbEntity
   8
LEVEL001
 370
13
  62
1
 100
AcDbMText
  10
 1503.2877791474
  20
 5526.8007657773
  30
0.0
  40
 57.142857142858
  41
0.0
  71
5
  72
1
   1
\T1.000000;正　面　図
   7
GMM002
  44
 0.79999984000003
   0
MTEXT
   5
251
 100
AcDbEntity
   8
LEVEL001
 370
13
  62
1
 100
AcDbMText
  10
 4503.2877791474
  20
 5526.8007657773
  30
0.0
  40
 57.142857142858
  41
0.0
  71
5
  72
1
   1
\T1.000000;背　面　図
   7
GMM002
  44
 0.79999984000003
   0
LINE
   5
252
 100
AcDbEntity
   8
LEVEL001
 370
13
 100
AcDbLine
   6
CONTINUOUS
  62
6
  10
 5463.2877791474
  20
 2486.8007657773
  30
0.0
  11
 8103.2877791474
  21
 2486.8007657773
  31
0.0
   0
LINE
   5
253
 100
AcDbEntity
   8
LEVEL001
 370
13
 100
AcDbLine
   6
CONTINUOUS
  62
6
  10
 5463.2877791474
  20
 1046.8007657773
  30
0.0
  11
 8103.2877791474
  21
 1046.8007657773
  31
0.0
   0
MTEXT
   5
254
 100
AcDbEntity
   8
LEVEL001
 370
13
  62
1
 100
AcDbMText
  10
 7343.2877791474
  20
 1946.8007657773
  30
0.0
  40
 51.428571428572
  41
0.0
  71
4
  72
1
   1
\T1.000000;溶融亜鉛メッキ
   7
GMM002
  44
 0.79999984000003
   0
MTEXT
   5
255
 100
AcDbEntity
   8
LEVEL001
 370
13
  62
1
 100
AcDbMText
  10
 7343.2877791474
  20
 2066.8007657773
  30
0.0
  40
 51.428571428572
  41
0.0
  71
4
  72
1
   1
\T1.000000;溶融亜鉛メッキ
   7
GMM002
  44
 0.79999984000003
   0
MTEXT
   5
256
 100
AcDbEntity
   8
LEVEL001
 370
13
  62
1
 100
AcDbMText
  10
 6783.2877791474
  20
 1946.8007657773
  30
0.0
  40
 51.428571428572
  41
0.0
  71
4
  72
1
   1
\T1.000000;ＳＳ４００
   7
GMM002
  44
 0.79999984000003
   0
MTEXT
   5
257
 100
AcDbEntity
   8
LEVEL001
 370
13
  62
1
 100
AcDbMText
  10
 6783.2877791474
  20
 2066.8007657773
  30
0.0
  40
 51.428571428572
  41
0.0
  71
4
  72
1
   1
\T1.000000;ＳＳ４００
   7
GMM002
  44
 0.79999984000003
   0
MTEXT
   5
258
 100
AcDbEntity
   8
LEVEL001
 370
13
  62
1
 100
AcDbMText
  10
 5635.2877791474
  20
 1826.8007657773
  30
0.0
  40
 51.428571428572
  41
0.0
  71
6
  72
1
   1
\T1.000000;９
   7
GMM002
  44
 0.79999984000003
   0
MTEXT
   5
259
 100
AcDbEntity
   8
LEVEL001
 370
13
  62
1
 100
AcDbMText
  10
 5635.2877791474
  20
 1946.8007657773
  30
0.0
  40
 51.428571428572
  41
0.0
  71
6
  72
1
   1
\T1.000000;８
   7
GMM002
  44
 0.79999984000003
   0
MTEXT
   5
25A
 100
AcDbEntity
   8
LEVEL001
 370
13
  62
1
 100
AcDbMText
  10
 5703.2877791474
  20
 1946.8007657773
  30
0.0
  40
 51.428571428572
  41
0.0
  71
4
  72
1
   1
\T1.000000;金具締付ボルトナット
   7
GMM002
  44
 0.79999984000003
   0
MTEXT
   5
25B
 100
AcDbEntity
   8
LEVEL001
 370
13
  62
1
 100
AcDbMText
  10
 5635.2877791474
  20
 2066.8007657773
  30
0.0
  40
 51.428571428572
  41
0.0
  71
6
  72
1
   1
\T1.000000;７
   7
GMM002
  44
 0.79999984000003
   0
MTEXT
   5
25C
 100
AcDbEntity
   8
LEVEL001
 370
13
  62
1
 100
AcDbMText
  10
 5703.2877791474
  20
 2066.8007657773
  30
0.0
  40
 51.428571428572
  41
0.0
  71
4
  72
1
   1
\T1.000000;裏板金具取付ボルト
   7
GMM002
  44
 0.79999984000003
   0
LINE
   5
25D
 100
AcDbEntity
   8
LEVEL001
 370
13
 100
AcDbLine
   6
CONTINUOUS
  62
6
  10
 5463.2877791474
  20
 1886.8007657773
  30
0.0
  11
 8103.2877791474
  21
 1886.8007657773
  31
0.0
   0
LINE
   5
25E
 100
AcDbEntity
   8
LEVEL001
 370
13
 100
AcDbLine
   6
CONTINUOUS
  62
6
  10
 5463.2877791474
  20
 2006.8007657773
  30
0.0
  11
 8103.2877791474
  21
 2006.8007657773
  31
0.0
   0
MTEXT
   5
25F
 100
AcDbEntity
   8
LEVEL001
 370
13
  62
1
 100
AcDbMText
  10
 5703.2877791474
  20
 2186.8007657773
  30
0.0
  40
 51.428571428572
  41
0.0
  71
4
  72
1
   1
\T1.000000;支柱取付金具
   7
GMM002
  44
 0.79999984000003
   0
MTEXT
   5
260
 100
AcDbEntity
   8
LEVEL001
 370
13
  62
1
 100
AcDbMText
  10
 5635.2877791474
  20
 2186.8007657773
  30
0.0
  40
 51.428571428572
  41
0.0
  71
6
  72
1
   1
\T1.000000;６
   7
GMM002
  44
 0.79999984000003
   0
MTEXT
   5
261
 100
AcDbEntity
   8
LEVEL001
 370
13
  62
1
 100
AcDbMText
  10
 6783.2877791474
  20
 2186.8007657773
  30
0.0
  40
 51.428571428572
  41
0.0
  71
4
  72
1
   1
\T1.000000;ＳＳ４００
   7
GMM002
  44
 0.79999984000003
   0
MTEXT
   5
262
 100
AcDbEntity
   8
LEVEL001
 370
13
  62
1
 100
AcDbMText
  10
 5635.2877791474
  20
 2306.8007657773
  30
0.0
  40
 51.428571428572
  41
0.0
  71
6
  72
1
   1
\T1.000000;５
   7
GMM002
  44
 0.79999984000003
   0
MTEXT
   5
263
 100
AcDbEntity
   8
LEVEL001
 370
13
  62
1
 100
AcDbMText
  10
 5703.2877791474
  20
 2306.8007657773
  30
0.0
  40
 51.428571428572
  41
0.0
  71
4
  72
1
   1
\T1.000000;裏板取付金具
   7
GMM002
  44
 0.79999984000003
   0
MTEXT
   5
264
 100
AcDbEntity
   8
LEVEL001
 370
13
  62
1
 100
AcDbMText
  10
 5635.2877791474
  20
 2426.8007657773
  30
0.0
  40
 51.428571428572
  41
0.0
  71
6
  72
1
   1
\T1.000000;４
   7
GMM002
  44
 0.79999984000003
   0
MTEXT
   5
265
 100
AcDbEntity
   8
LEVEL001
 370
13
  62
1
 100
AcDbMText
  10
 5703.2877791474
  20
 2426.8007657773
  30
0.0
  40
 51.428571428572
  41
0.0
  71
4
  72
1
   1
\T1.000000;リング
   7
GMM002
  44
 0.79999984000003
   0
MTEXT
   5
266
 100
AcDbEntity
   8
LEVEL001
 370
13
  62
1
 100
AcDbMText
  10
 5635.2877791474
  20
 2546.8007657773
  30
0.0
  40
 51.428571428572
  41
0.0
  71
6
  72
1
   1
\T1.000000;３
   7
GMM002
  44
 0.79999984000003
   0
MTEXT
   5
267
 100
AcDbEntity
   8
LEVEL001
 370
13
  62
1
 100
AcDbMText
  10
 5703.2877791474
  20
 2546.8007657773
  30
0.0
  40
 51.428571428572
  41
0.0
  71
4
  72
1
   1
\T1.000000;フード
   7
GMM002
  44
 0.79999984000003
   0
MTEXT
   5
268
 100
AcDbEntity
   8
LEVEL001
 370
13
  62
1
 100
AcDbMText
  10
 5635.2877791474
  20
 2666.8007657773
  30
0.0
  40
 51.428571428572
  41
0.0
  71
6
  72
1
   1
\T1.000000;２
   7
GMM002
  44
 0.79999984000003
   0
MTEXT
   5
269
 100
AcDbEntity
   8
LEVEL001
 370
13
  62
1
 100
AcDbMText
  10
 5635.2877791474
  20
 2786.8007657773
  30
0.0
  40
 51.428571428572
  41
0.0
  71
6
  72
1
   1
\T1.000000;１
   7
GMM002
  44
 0.79999984000003
   0
MTEXT
   5
26A
 100
AcDbEntity
   8
LEVEL001
 370
13
  62
1
 100
AcDbMText
  10
 5703.2877791474
  20
 2666.8007657773
  30
0.0
  40
 51.428571428572
  41
0.0
  71
4
  72
1
   1
\T1.000000;バックプレート
   7
GMM002
  44
 0.79999984000003
   0
MTEXT
   5
26B
 100
AcDbEntity
   8
LEVEL001
 370
13
  62
1
 100
AcDbMText
  10
 6783.2877791474
  20
 2306.8007657773
  30
0.0
  40
 51.428571428572
  41
0.0
  71
4
  72
1
   1
\T1.000000;ＳＳ４００
   7
GMM002
  44
 0.79999984000003
   0
MTEXT
   5
26C
 100
AcDbEntity
   8
LEVEL001
 370
13
  62
1
 100
AcDbMText
  10
 6783.2877791474
  20
 2426.8007657773
  30
0.0
  40
 51.428571428572
  41
0.0
  71
4
  72
1
   1
\T1.000000;軟質ＰＶＣ
   7
GMM002
  44
 0.79999984000003
   0
MTEXT
   5
26D
 100
AcDbEntity
   8
LEVEL001
 370
13
  62
1
 100
AcDbMText
  10
 6783.2877791474
  20
 2546.8007657773
  30
0.0
  40
 51.428571428572
  41
0.0
  71
4
  72
1
   1
\T1.000000;ＰＣ
   7
GMM002
  44
 0.79999984000003
   0
MTEXT
   5
26E
 100
AcDbEntity
   8
LEVEL001
 370
13
  62
1
 100
AcDbMText
  10
 6783.2877791474
  20
 2786.8007657773
  30
0.0
  40
 51.428571428572
  41
0.0
  71
4
  72
1
   1
\T1.000000;ＳＵＳ３０４
   7
GMM002
  44
 0.79999984000003
   0
MTEXT
   5
26F
 100
AcDbEntity
   8
LEVEL001
 370
13
  62
1
 100
AcDbMText
  10
 7343.2877791474
  20
 2186.8007657773
  30
0.0
  40
 51.428571428572
  41
0.0
  71
4
  72
1
   1
\T1.000000;溶融亜鉛メッキ
   7
GMM002
  44
 0.79999984000003
   0
MTEXT
   5
270
 100
AcDbEntity
   8
LEVEL001
 370
13
  62
1
 100
AcDbMText
  10
 7343.2877791474
  20
 2306.8007657773
  30
0.0
  40
 51.428571428572
  41
0.0
  71
4
  72
1
   1
\T1.000000;溶融亜鉛メッキ
   7
GMM002
  44
 0.79999984000003
   0
MTEXT
   5
271
 100
AcDbEntity
   8
LEVEL001
 370
13
  62
1
 100
AcDbMText
  10
 7343.2877791474
  20
 2786.8007657773
  30
0.0
  40
 51.428571428572
  41
0.0
  71
4
  72
1
   1
\T1.000000;t=0.9mm\T1.000000;・表面研磨
   7
GMM002
  44
 0.79999984000003
   0
MTEXT
   5
272
 100
AcDbEntity
   8
LEVEL001
 370
13
  62
1
 100
AcDbMText
  10
 7343.2877791474
  20
 2546.8007657773
  30
0.0
  40
 51.428571428572
  41
0.0
  71
4
  72
1
   1
\T1.000000;ＵＶグレ－ド
   7
GMM002
  44
 0.79999984000003
   0
LINE
   5
273
 100
AcDbEntity
   8
LEVEL001
 370
13
 100
AcDbLine
   6
CONTINUOUS
  62
6
  10
 5463.2877791474
  20
 2126.8007657773
  30
0.0
  11
 8103.2877791474
  21
 2126.8007657773
  31
0.0
   0
LINE
   5
274
 100
AcDbEntity
   8
LEVEL001
 370
13
 100
AcDbLine
   6
CONTINUOUS
  62
6
  10
 5463.2877791474
  20
 2246.8007657773
  30
0.0
  11
 8103.2877791474
  21
 2246.8007657773
  31
0.0
   0
LINE
   5
275
 100
AcDbEntity
   8
LEVEL001
 370
13
 100
AcDbLine
   6
CONTINUOUS
  62
6
  10
 5463.2877791474
  20
 2606.8007657773
  30
0.0
  11
 8103.2877791474
  21
 2606.8007657773
  31
0.0
   0
LINE
   5
276
 100
AcDbEntity
   8
LEVEL001
 370
13
 100
AcDbLine
   6
CONTINUOUS
  62
6
  10
 5463.2877791474
  20
 2366.8007657773
  30
0.0
  11
 8103.2877791474
  21
 2366.8007657773
  31
0.0
   0
LINE
   5
277
 100
AcDbEntity
   8
LEVEL001
 370
13
 100
AcDbLine
   6
CONTINUOUS
  62
6
  10
 5463.2877791474
  20
 2726.8007657773
  30
0.0
  11
 8103.2877791474
  21
 2726.8007657773
  31
0.0
   0
MTEXT
   5
278
 100
AcDbEntity
   8
LEVEL001
 370
13
  62
1
 100
AcDbMText
  10
 6103.2877791474
  20
 2926.8007657773
  30
0.0
  40
 51.428571428572
  41
0.0
  71
5
  72
1
   1
\T1.000000;名　　称
   7
GMM002
  44
 0.79999984000003
   0
MTEXT
   5
279
 100
AcDbEntity
   8
LEVEL001
 370
13
  62
1
 100
AcDbMText
  10
 6643.2877791474
  20
 2926.8007657773
  30
0.0
  40
 51.428571428572
  41
0.0
  71
5
  72
1
   1
\T1.000000;個数
   7
GMM002
  44
 0.79999984000003
   0
MTEXT
   5
27A
 100
AcDbEntity
   8
LEVEL001
 370
13
  62
1
 100
AcDbMText
  10
 7023.2877791474
  20
 2926.8007657773
  30
0.0
  40
 51.428571428572
  41
0.0
  71
5
  72
1
   1
\T1.000000;材　　質
   7
GMM002
  44
 0.79999984000003
   0
LINE
   5
27B
 100
AcDbEntity
   8
LEVEL001
 370
13
 100
AcDbLine
   6
CONTINUOUS
  62
6
  10
 5663.2877791474
  20
 3006.8007657773
  30
0.0
  11
 5663.2877791474
  21
 926.80076577732
  31
0.0
   0
LINE
   5
27C
 100
AcDbEntity
   8
LEVEL001
 370
13
 100
AcDbLine
   6
CONTINUOUS
  62
6
  10
 6543.2877791474
  20
 3006.8007657773
  30
0.0
  11
 6543.2877791474
  21
 926.80076577732
  31
0.0
   0
LINE
   5
27D
 100
AcDbEntity
   8
LEVEL001
 370
13
 100
AcDbLine
   6
CONTINUOUS
  62
6
  10
 6743.2877791474
  20
 3006.8007657773
  30
0.0
  11
 6743.2877791474
  21
 926.80076577732
  31
0.0
   0
LINE
   5
27E
 100
AcDbEntity
   8
LEVEL001
 370
13
 100
AcDbLine
   6
CONTINUOUS
  62
6
  10
 7303.2877791474
  20
 3006.8007657773
  30
0.0
  11
 7303.2877791474
  21
 926.80076577732
  31
0.0
   0
LINE
   5
27F
 100
AcDbEntity
   8
LEVEL001
 370
13
 100
AcDbLine
   6
CONTINUOUS
  62
2
  10
 5463.2877791474
  20
 3006.8007657773
  30
0.0
  11
 8103.2877791474
  21
 3006.8007657773
  31
0.0
   0
LINE
   5
280
 100
AcDbEntity
   8
LEVEL001
 370
13
 100
AcDbLine
   6
CONTINUOUS
  62
2
  10
 5463.2877791474
  20
 2846.8007657773
  30
0.0
  11
 8103.2877791474
  21
 2846.8007657773
  31
0.0
   0
MTEXT
   5
281
 100
AcDbEntity
   8
LEVEL001
 370
13
  62
1
 100
AcDbMText
  10
 7343.2877791474
  20
 1826.8007657773
  30
0.0
  40
 51.428571428572
  41
0.0
  71
4
  72
1
   1
\T1.000000;静電粉体塗装
   7
GMM002
  44
 0.79999984000003
   0
MTEXT
   5
282
 100
AcDbEntity
   8
LEVEL001
 370
13
  62
1
 100
AcDbMText
  10
 6783.2877791474
  20
 1826.8007657773
  30
0.0
  40
 51.428571428572
  41
0.0
  71
4
  72
1
   1
\T1.000000;ＳＴＫ４００
   7
GMM002
  44
 0.79999984000003
   0
MTEXT
   5
283
 100
AcDbEntity
   8
LEVEL001
 370
13
  62
1
 100
AcDbMText
  10
 6715.2877791474
  20
 1826.8007657773
  30
0.0
  40
 51.428571428572
  41
0.0
  71
6
  72
1
   1
\T1.000000;１
   7
GMM002
  44
 0.79999984000003
   0
MTEXT
   5
284
 100
AcDbEntity
   8
LEVEL001
 370
13
  62
1
 100
AcDbMText
  10
 5703.2877791474
  20
 1826.8007657773
  30
0.0
  40
 51.428571428572
  41
0.0
  71
4
  72
1
   1
\T1.000000;支柱
   7
GMM002
  44
 0.79999984000003
   0
MTEXT
   5
285
 100
AcDbEntity
   8
LEVEL001
 370
13
  62
1
 100
AcDbMText
  10
 6715.2877791474
  20
 2786.8007657773
  30
0.0
  40
 51.428571428572
  41
0.0
  71
6
  72
1
   1
\T1.000000;１
   7
GMM002
  44
 0.79999984000003
   0
MTEXT
   5
286
 100
AcDbEntity
   8
LEVEL001
 370
13
  62
1
 100
AcDbMText
  10
 6715.2877791474
  20
 2066.8007657773
  30
0.0
  40
 51.428571428572
  41
0.0
  71
6
  72
1
   1
\T1.000000;４
   7
GMM002
  44
 0.79999984000003
   0
MTEXT
   5
287
 100
AcDbEntity
   8
LEVEL001
 370
13
  62
1
 100
AcDbMText
  10
 6715.2877791474
  20
 1946.8007657773
  30
0.0
  40
 51.428571428572
  41
0.0
  71
6
  72
1
   1
\T1.000000;４
   7
GMM002
  44
 0.79999984000003
   0
MTEXT
   5
288
 100
AcDbEntity
   8
LEVEL001
 370
13
  62
1
 100
AcDbMText
  10
 6715.2877791474
  20
 2666.8007657773
  30
0.0
  40
 51.428571428572
  41
0.0
  71
6
  72
1
   1
\T1.000000;１
   7
GMM002
  44
 0.79999984000003
   0
MTEXT
   5
289
 100
AcDbEntity
   8
LEVEL001
 370
13
  62
1
 100
AcDbMText
  10
 6715.2877791474
  20
 2546.8007657773
  30
0.0
  40
 51.428571428572
  41
0.0
  71
6
  72
1
   1
\T1.000000;１
   7
GMM002
  44
 0.79999984000003
   0
MTEXT
   5
28A
 100
AcDbEntity
   8
LEVEL001
 370
13
  62
1
 100
AcDbMText
  10
 6715.2877791474
  20
 2426.8007657773
  30
0.0
  40
 51.428571428572
  41
0.0
  71
6
  72
1
   1
\T1.000000;１
   7
GMM002
  44
 0.79999984000003
   0
MTEXT
   5
28B
 100
AcDbEntity
   8
LEVEL001
 370
13
  62
1
 100
AcDbMText
  10
 6715.2877791474
  20
 2306.8007657773
  30
0.0
  40
 51.428571428572
  41
0.0
  71
6
  72
1
   1
\T1.000000;１
   7
GMM002
  44
 0.79999984000003
   0
MTEXT
   5
28C
 100
AcDbEntity
   8
LEVEL001
 370
13
  62
1
 100
AcDbMText
  10
 6715.2877791474
  20
 2186.8007657773
  30
0.0
  40
 51.428571428572
  41
0.0
  71
6
  72
1
   1
\T1.000000;１
   7
GMM002
  44
 0.79999984000003
   0
MTEXT
   5
28D
 100
AcDbEntity
   8
LEVEL001
 370
13
  62
1
 100
AcDbMText
  10
 5563.2877791474
  20
 3086.8007657773
  30
0.0
  40
 57.142857142858
  41
0.0
  71
4
  72
1
   1
%%c\T1.000000;８００（シングル）
   7
GMM002
  44
 0.79999984000003
   0
MTEXT
   5
28E
 100
AcDbEntity
   8
LEVEL001
 370
13
  62
1
 100
AcDbMText
  10
 5703.2877791474
  20
 2786.8007657773
  30
0.0
  40
 51.428571428572
  41
0.0
  71
4
  72
1
   1
\T1.000000;鏡面　Ｒ＝３０００
   7
GMM002
  44
 0.79999984000003
   0
MTEXT
   5
28F
 100
AcDbEntity
   8
LEVEL001
 370
13
  62
1
 100
AcDbMText
  10
 5563.2877791474
  20
 3246.8007657773
  30
0.0
  40
 57.142857142858
  41
0.0
  71
4
  72
1
   1
\T1.000000;ステンレスミラー　＜Ｚタイプ＞
   7
GMM002
  44
 0.79999984000003
   0
MTEXT
   5
290
 100
AcDbEntity
   8
LEVEL001
 370
13
  62
1
 100
AcDbMText
  10
 6783.2877791474
  20
 2666.8007657773
  30
0.0
  40
 51.428571428572
  41
0.0
  71
4
  72
1
   1
\T1.000000;高耐食溶融めっき鋼板
   7
GMM003
  44
 0.79999984000003
   0
MTEXT
   5
291
 100
AcDbEntity
   8
LEVEL001
 370
13
  62
1
 100
AcDbMText
  10
 5635.2877791474
  20
 1106.8007657773
  30
0.0
  40
 51.428571428572
  41
0.0
  71
6
  72
1
   1
\T1.000000;１４
   7
GMM002
  44
 0.79999984000003
   0
LINE
   5
292
 100
AcDbEntity
   8
LEVEL001
 370
13
 100
AcDbLine
   6
CONTINUOUS
  62
6
  10
 5463.2877791474
  20
 1166.8007657773
  30
0.0
  11
 8103.2877791474
  21
 1166.8007657773
  31
0.0
   0
MTEXT
   5
293
 100
AcDbEntity
   8
LEVEL001
 370
13
  62
1
 100
AcDbMText
  10
 5635.2877791474
  20
 1226.8007657773
  30
0.0
  40
 51.428571428572
  41
0.0
  71
6
  72
1
   1
\T1.000000;１３
   7
GMM002
  44
 0.79999984000003
   0
MTEXT
   5
294
 100
AcDbEntity
   8
LEVEL001
 370
13
  62
1
 100
AcDbMText
  10
 5635.2877791474
  20
 1346.8007657773
  30
0.0
  40
 51.428571428572
  41
0.0
  71
6
  72
1
   1
\T1.000000;１２
   7
GMM002
  44
 0.79999984000003
   0
LINE
   5
295
 100
AcDbEntity
   8
LEVEL001
 370
13
 100
AcDbLine
   6
CONTINUOUS
  62
6
  10
 5463.2877791474
  20
 1286.8007657773
  30
0.0
  11
 8103.2877791474
  21
 1286.8007657773
  31
0.0
   0
LINE
   5
296
 100
AcDbEntity
   8
LEVEL001
 370
13
 100
AcDbLine
   6
CONTINUOUS
  62
6
  10
 5463.2877791474
  20
 1406.8007657773
  30
0.0
  11
 8103.2877791474
  21
 1406.8007657773
  31
0.0
   0
MTEXT
   5
297
 100
AcDbEntity
   8
LEVEL001
 370
13
  62
1
 100
AcDbMText
  10
 5635.2877791474
  20
 1466.8007657773
  30
0.0
  40
 51.428571428572
  41
0.0
  71
6
  72
1
   1
\T1.000000;１１
   7
GMM002
  44
 0.79999984000003
   0
MTEXT
   5
298
 100
AcDbEntity
   8
LEVEL001
 370
13
  62
1
 100
AcDbMText
  10
 5635.2877791474
  20
 1586.8007657773
  30
0.0
  40
 51.428571428572
  41
0.0
  71
6
  72
1
   1
\T1.000000;１０
   7
GMM002
  44
 0.79999984000003
   0
LINE
   5
299
 100
AcDbEntity
   8
LEVEL001
 370
13
 100
AcDbLine
   6
CONTINUOUS
  62
6
  10
 5463.2877791474
  20
 1526.8007657773
  30
0.0
  11
 8103.2877791474
  21
 1526.8007657773
  31
0.0
   0
MTEXT
   5
29A
 100
AcDbEntity
   8
LEVEL001
 370
13
  62
1
 100
AcDbMText
  10
 5703.2877791474
  20
 1106.8007657773
  30
0.0
  40
 51.428571428572
  41
0.0
  71
4
  72
1
   1
\T1.000000;同上ボルトナット
   7
GMM002
  44
 0.79999984000003
   0
MTEXT
   5
29B
 100
AcDbEntity
   8
LEVEL001
 370
13
  62
1
 100
AcDbMText
  10
 5703.2877791474
  20
 1226.8007657773
  30
0.0
  40
 51.428571428572
  41
0.0
  71
4
  72
1
   1
\T1.000000;注意板取付バンド
   7
GMM002
  44
 0.79999984000003
   0
MTEXT
   5
29C
 100
AcDbEntity
   8
LEVEL001
 370
13
  62
1
 100
AcDbMText
  10
 5703.2877791474
  20
 1466.8007657773
  30
0.0
  40
 51.428571428572
  41
0.0
  71
4
  72
1
   1
\T1.000000;キャップ
   7
GMM002
  44
 0.79999984000003
   0
MTEXT
   5
29D
 100
AcDbEntity
   8
LEVEL001
 370
13
  62
1
 100
AcDbMText
  10
 5703.2877791474
  20
 1586.8007657773
  30
0.0
  40
 51.428571428572
  41
0.0
  71
4
  72
1
   1
\T1.000000;根入れ鉄筋
   7
GMM002
  44
 0.79999984000003
   0
MTEXT
   5
29E
 100
AcDbEntity
   8
LEVEL001
 370
13
  62
1
 100
AcDbMText
  10
 6715.2877791474
  20
 1346.8007657773
  30
0.0
  40
 51.428571428572
  41
0.0
  71
6
  72
1
   1
\T1.000000;１
   7
GMM002
  44
 0.79999984000003
   0
MTEXT
   5
29F
 100
AcDbEntity
   8
LEVEL001
 370
13
  62
1
 100
AcDbMText
  10
 6715.2877791474
  20
 1466.8007657773
  30
0.0
  40
 51.428571428572
  41
0.0
  71
6
  72
1
   1
\T1.000000;１
   7
GMM002
  44
 0.79999984000003
   0
MTEXT
   5
2A0
 100
AcDbEntity
   8
LEVEL001
 370
13
  62
1
 100
AcDbMText
  10
 6715.2877791474
  20
 1586.8007657773
  30
0.0
  40
 51.428571428572
  41
0.0
  71
6
  72
1
   1
\T1.000000;１
   7
GMM002
  44
 0.79999984000003
   0
MTEXT
   5
2A1
 100
AcDbEntity
   8
LEVEL001
 370
13
  62
1
 100
AcDbMText
  10
 6783.2877791474
  20
 1586.8007657773
  30
0.0
  40
 51.428571428572
  41
0.0
  71
4
  72
1
   1
\T1.000000;ＳＤ２９５Ａ
   7
GMM002
  44
 0.79999984000003
   0
MTEXT
   5
2A2
 100
AcDbEntity
   8
LEVEL001
 370
13
  62
1
 100
AcDbMText
  10
 6793.2877791474
  20
 1463.9479811691
  30
0.0
  40
 51.428571428572
  41
0.0
  71
4
  72
1
   1
\T1.000000;ＰＥ
   7
GMM002
  44
 0.79999984000003
   0
MTEXT
   5
2A3
 100
AcDbEntity
   8
LEVEL001
 370
13
  62
1
 100
AcDbMText
  10
 5703.2877791474
  20
 1346.8007657773
  30
0.0
  40
 51.428571428572
  41
0.0
  71
4
  72
1
   1
\T1.000000;注意板
   7
GMM002
  44
 0.79999984000003
   0
MTEXT
   5
2A4
 100
AcDbEntity
   8
0
 370
13
  62
1
 100
AcDbMText
  10
 6782.8711702788
  20
 1673.0696155317
  30
0.0
  40
 51.428571428571
  41
0.0
  71
7
  72
1
   1
\T1.000000;ＳＴＫ４００
   7
GMM002
  44
 0.79999984000003
   0
MTEXT
   5
2A5
 100
AcDbEntity
   8
0
 370
13
  62
1
 100
AcDbMText
  10
 7344.6693083973
  20
 1712.6608367482
  30
0.0
  40
 34.285720000000
  41
0.0
  71
4
  72
1
   1
{\T1.000000;下地亜鉛メッキ}\P{\T1.000000;＋静電粉体塗装}
   7
GMM004
  44
 0.79999984000003
   0
LINE
   5
2A6
 100
AcDbEntity
   8
0
 370
13
 100
AcDbLine
   6
CONTINUOUS
  62
6
  10
 6543.2877791474
  20
 1766.8007657773
  30
0.0
  11
 8103.2877791474
  21
 1766.8007657773
  31
0.0
   0
MTEXT
   5
2A7
 100
AcDbEntity
   8
0
 370
13
  62
1
 100
AcDbMText
  10
 6714.2667529014
  20
 1673.0696155317
  30
0.0
  40
 51.428571428571
  41
0.0
  71
9
  72
1
   1
\T1.000000;１
   7
GMM002
  44
 0.79999984000003
   0
MTEXT
   5
2A8
 100
AcDbEntity
   8
LEVEL001
 370
13
  62
1
 100
AcDbMText
  10
 6783.2877791474
  20
 1346.8007657773
  30
0.0
  40
 51.428571428572
  41
0.0
  71
4
  72
1
   1
\T1.000000;―
   7
GMM002
  44
 0.79999984000003
   0
MTEXT
   5
2A9
 100
AcDbEntity
   8
LEVEL001
 370
13
  62
1
 100
AcDbMText
  10
 6783.2877791474
  20
 1226.8007657773
  30
0.0
  40
 51.428571428572
  41
0.0
  71
4
  72
1
   1
\T1.000000;―
   7
GMM002
  44
 0.79999984000003
   0
MTEXT
   5
2AA
 100
AcDbEntity
   8
LEVEL001
 370
13
  62
1
 100
AcDbMText
  10
 6715.2877791474
  20
 1226.8007657773
  30
0.0
  40
 51.428571428572
  41
0.0
  71
6
  72
1
   1
\T1.000000;１式
   7
GMM002
  44
 0.79999984000003
   0
MTEXT
   5
2AB
 100
AcDbEntity
   8
LEVEL001
 370
13
  62
1
 100
AcDbMText
  10
 6715.2877791474
  20
 1106.8007657773
  30
0.0
  40
 51.428571428572
  41
0.0
  71
6
  72
1
   1
\T1.000000;１式
   7
GMM002
  44
 0.79999984000003
   0
MTEXT
   5
2AC
 100
AcDbEntity
   8
LEVEL001
 370
13
  62
1
 100
AcDbMText
  10
 6783.2877791474
  20
 1106.8007657773
  30
0.0
  40
 51.428571428572
  41
0.0
  71
4
  72
1
   1
\T1.000000;―
   7
GMM002
  44
 0.79999984000003
   0
MTEXT
   5
2AD
 100
AcDbEntity
   8
LEVEL001
 370
13
  62
1
 100
AcDbMText
  10
 7343.2877791474
  20
 1226.8007657773
  30
0.0
  40
 51.428571428572
  41
0.0
  71
4
  72
1
   1
\T1.000000;―
   7
GMM002
  44
 0.79999984000003
   0
MTEXT
   5
2AE
 100
AcDbEntity
   8
LEVEL001
 370
13
  62
1
 100
AcDbMText
  10
 7343.2877791474
  20
 1106.8007657773
  30
0.0
  40
 51.428571428572
  41
0.0
  71
4
  72
1
   1
\T1.000000;―
   7
GMM002
  44
 0.79999984000003
   0
MTEXT
   5
2AF
 100
AcDbEntity
   8
LEVEL001
 370
13
  62
1
 100
AcDbMText
  10
 5703.2877791474
  20
 3506.8007657773
  30
0.0
  40
 51.428580000000
  41
0.0
  71
1
  72
1
   1
{\T1.000000;※構成部材は改良のため、変更する場合があります。}\P{\T1.000000;※本図は道路反射鏡ハンドブックに基づいています。}
   7
GMM002
  44
 0.79999984000003
   0
LINE
   5
2B0
 100
AcDbEntity
   8
LEVEL001
 370
13
 100
AcDbLine
   6
CONTINUOUS
  62
6
  10
 5463.2877791474
  20
 1646.8007657773
  30
0.0
  11
 8103.2877791474
  21
 1646.8007657773
  31
0.0
   0
LWPOLYLINE
   5
2B1
 100
AcDbEntity
   8
0
 370
13
   6
CONTINUOUS
  62
2
 100
AcDbPolyline
  90
4
  70
1
  10
 5463.2877791474
  20
 926.80076577732
  10
 8103.2877791474
  20
 926.80076577732
  10
 8103.2877791474
  20
 3326.8007657773
  10
 5463.2877791474
  20
 3326.8007657773
   0
MTEXT
   5
2B2
 100
AcDbEntity
   8
LEVEL001
 370
13
  62
1
 100
AcDbMText
  10
 7351.3367615227
  20
 2720.8473217449
  30
0.0
  40
 34.285714285714
  41
0.0
  71
1
  72
1
   1
{\T1.000000;ＺＡＭ処理鋼板}\P{\T1.000000;プレス成型}
   7
GMM004
  44
 1.0099997980000
   0
MTEXT
   5
2B3
 100
AcDbEntity
   8
LEVEL001
 370
13
  62
1
 100
AcDbMText
  10
 7703.2877791474
  20
 2926.8007657773
  30
0.0
  40
 51.428571428572
  41
0.0
  71
5
  72
1
   1
\T1.000000;規格仕様
   7
GMM002
  44
 0.79999984000003
   0
LINE
   5
2B4
 100
AcDbEntity
   8
LEVEL001
 370
13
 100
AcDbLine
   6
CONTINUOUS
  62
2
  10
 5463.2877791474
  20
 706.80076577732
  30
0.0
  11
 7143.2877791474
  21
 706.80076577732
  31
0.0
   0
MTEXT
   5
2B5
 100
AcDbEntity
   8
LEVEL001
 370
13
  62
2
 100
AcDbMText
  10
 5473.2877791474
  20
 896.80076577732
  30
0.0
  40
 38.571428571428
  41
0.0
  71
4
  72
1
   1
\T1.370378;図面番号
   7
GMM002
  44
 0.79999984000003
   0
MTEXT
   5
2B6
 100
AcDbEntity
   8
LEVEL001
 370
13
  62
1
 100
AcDbMText
  10
 6303.2877791474
  20
 771.01951577732
  30
0.0
  40
 42.857142857142
  41
0.0
  71
5
  72
1
   1
\T1.000000;ＭＺＨ０８０ＳＣＰ
   7
GMM002
  44
 0.79999984000003
   0
ARC
   5
2B7
 100
AcDbEntity
   8
LEVEL001
 370
13
   6
CONTINUOUS
  62
5
 100
AcDbCircle
  10
 1561.6883841891
  20
 3956.0853231431
  30
0.0
  40
 5.5826340442110
 100
AcDbArc
  50
 274.79665758006
  51
 36.910963374456
   0
LINE
   5
2B8
 100
AcDbEntity
   8
LEVEL001
 370
13
 100
AcDbLine
   6
CONTINUOUS
  62
5
  10
 1566.7270406802
  20
 3862.4338646593
  30
0.0
  11
 1551.3947047114
  21
 3872.5345723661
  31
0.0
   0
LINE
   5
2B9
 100
AcDbEntity
   8
LEVEL001
 370
13
 100
AcDbLine
   6
CONTINUOUS
  62
5
  10
 1551.3947047114
  20
 3872.5345723661
  30
0.0
  11
 1543.5037747708
  21
 3863.0039330017
  31
0.0
   0
LINE
   5
2BA
 100
AcDbEntity
   8
LEVEL001
 370
13
 100
AcDbLine
   6
CONTINUOUS
  62
5
  10
 1543.5037747708
  20
 3863.0039330017
  30
0.0
  11
 1524.9545809876
  21
 3863.0039330017
  31
0.0
   0
LINE
   5
2BB
 100
AcDbEntity
   8
LEVEL001
 370
13
 100
AcDbLine
   6
CONTINUOUS
  62
5
  10
 1524.9545809876
  20
 3863.0039330017
  30
0.0
  11
 1524.9545809876
  21
 3907.8904062733
  31
0.0
   0
LINE
   5
2BC
 100
AcDbEntity
   8
LEVEL001
 370
13
 100
AcDbLine
   6
CONTINUOUS
  62
5
  10
 1524.9545809876
  20
 3907.8904062733
  30
0.0
  11
 1558.4659325280
  21
 3907.8904062733
  31
0.0
   0
ARC
   5
2BD
 100
AcDbEntity
   8
LEVEL001
 370
13
   6
CONTINUOUS
  62
5
 100
AcDbCircle
  10
 1563.2729302393
  20
 3857.1901574981
  30
0.0
  40
 6.2791196620726
 100
AcDbArc
  50
 269.99562647873
  51
 56.626490037661
   0
ARC
   5
2BE
 100
AcDbEntity
   8
LEVEL001
 370
13
   6
CONTINUOUS
  62
5
 100
AcDbCircle
  10
 1567.0453765913
  20
 3750.7216398617
  30
0.0
  40
 4.7515310421130
 100
AcDbArc
  50
 274.70409570313
  51
 59.112293256523
   0
LINE
   5
2BF
 100
AcDbEntity
   8
LEVEL001
 370
13
 100
AcDbLine
   6
CONTINUOUS
  62
5
  10
 1569.4846089574
  20
 3754.7992853475
  30
0.0
  11
 1551.5506495309
  21
 3765.2524710711
  31
0.0
   0
LINE
   5
2C0
 100
AcDbEntity
   8
LEVEL001
 370
13
 100
AcDbLine
   6
CONTINUOUS
  62
5
  10
 1551.5506495309
  20
 3765.2524710711
  30
0.0
  11
 1544.9918118358
  21
 3756.5415338307
  31
0.0
   0
LINE
   5
2C1
 100
AcDbEntity
   8
LEVEL001
 370
13
 100
AcDbLine
   6
CONTINUOUS
  62
5
  10
 1544.9918118358
  20
 3756.5415338307
  30
0.0
  11
 1529.2429109379
  21
 3756.5415338307
  31
0.0
   0
LINE
   5
2C2
 100
AcDbEntity
   8
LEVEL001
 370
13
 100
AcDbLine
   6
CONTINUOUS
  62
5
  10
 1529.2429109379
  20
 3756.5415338307
  30
0.0
  11
 1538.3304350812
  21
 3764.7400809497
  31
0.0
   0
LINE
   5
2C3
 100
AcDbEntity
   8
LEVEL001
 370
13
 100
AcDbLine
   6
CONTINUOUS
  62
5
  10
 1538.3304350812
  20
 3764.7400809497
  30
0.0
  11
 1542.1222440502
  21
 3765.2524710711
  31
0.0
   0
LINE
   5
2C4
 100
AcDbEntity
   8
LEVEL001
 370
13
 100
AcDbLine
   6
CONTINUOUS
  62
5
  10
 1542.1222440502
  20
 3765.2524710711
  30
0.0
  11
 1543.7619534740
  21
 3767.6093435595
  31
0.0
   0
LINE
   5
2C5
 100
AcDbEntity
   8
LEVEL001
 370
13
 100
AcDbLine
   6
CONTINUOUS
  62
5
  10
 1543.7619534740
  20
 3767.6093435595
  30
0.0
  11
 1541.0974638073
  21
 3772.2211598283
  31
0.0
   0
LINE
   5
2C6
 100
AcDbEntity
   8
LEVEL001
 370
13
 100
AcDbLine
   6
CONTINUOUS
  62
5
  10
 1541.0974638073
  20
 3772.2211598283
  30
0.0
  11
 1557.5967919289
  21
 3772.2211598283
  31
0.0
   0
LINE
   5
2C7
 100
AcDbEntity
   8
LEVEL001
 370
13
 100
AcDbLine
   6
CONTINUOUS
  62
5
  10
 1560.7736717170
  20
 3781.4443346023
  30
0.0
  11
 1542.1222440502
  21
 3791.6922896191
  31
0.0
   0
LINE
   5
2C8
 100
AcDbEntity
   8
LEVEL001
 370
13
 100
AcDbLine
   6
CONTINUOUS
  62
5
  10
 1542.1222440502
  20
 3791.6922896191
  30
0.0
  11
 1535.9732574171
  21
 3782.1616502547
  31
0.0
   0
LINE
   5
2C9
 100
AcDbEntity
   8
LEVEL001
 370
13
 100
AcDbLine
   6
CONTINUOUS
  62
5
  10
 1535.9732574171
  20
 3782.1616502547
  30
0.0
  11
 1514.5548010241
  21
 3782.1616502547
  31
0.0
   0
LINE
   5
2CA
 100
AcDbEntity
   8
LEVEL001
 370
13
 100
AcDbLine
   6
CONTINUOUS
  62
5
  10
 1514.5548010241
  20
 3782.1616502547
  30
0.0
  11
 1514.5548010241
  21
 3788.5154098311
  31
0.0
   0
LINE
   5
2CB
 100
AcDbEntity
   8
LEVEL001
 370
13
 100
AcDbLine
   6
CONTINUOUS
  62
5
  10
 1514.5548010241
  20
 3788.5154098311
  30
0.0
  11
 1516.6794347499
  21
 3792.2133772501
  31
0.0
   0
LINE
   5
2CC
 100
AcDbEntity
   8
LEVEL001
 370
13
 100
AcDbLine
   6
CONTINUOUS
  62
5
  10
 1516.6794347499
  20
 3792.2133772501
  30
0.0
  11
 1515.8594274501
  21
 3793.9554731455
  31
0.0
   0
LINE
   5
2CD
 100
AcDbEntity
   8
LEVEL001
 370
13
 100
AcDbLine
   6
CONTINUOUS
  62
5
  10
 1515.8594274501
  20
 3793.9554731455
  30
0.0
  11
 1491.0867841454
  21
 3794.5618574047
  31
0.0
   0
LINE
   5
2CE
 100
AcDbEntity
   8
LEVEL001
 370
13
 100
AcDbLine
   6
CONTINUOUS
  62
5
  10
 1491.0867841454
  20
 3794.5618574047
  30
0.0
  11
 1491.0867841454
  21
 3782.1616502547
  31
0.0
   0
LINE
   5
2CF
 100
AcDbEntity
   8
LEVEL001
 370
13
 100
AcDbLine
   6
CONTINUOUS
  62
5
  10
 1491.0867841454
  20
 3782.1616502547
  30
0.0
  11
 1441.6245053461
  21
 3782.1616502547
  31
0.0
   0
LINE
   5
2D0
 100
AcDbEntity
   8
LEVEL001
 370
13
 100
AcDbLine
   6
CONTINUOUS
  62
5
  10
 1441.6245053461
  20
 3782.1616502547
  30
0.0
  11
 1446.0977718143
  21
 3772.2211598283
  31
0.0
   0
LINE
   5
2D1
 100
AcDbEntity
   8
LEVEL001
 370
13
 100
AcDbLine
   6
CONTINUOUS
  62
5
  10
 1446.0977718143
  20
 3772.2211598283
  30
0.0
  11
 1463.7247244140
  21
 3772.2211598283
  31
0.0
   0
LINE
   5
2D2
 100
AcDbEntity
   8
LEVEL001
 370
13
 100
AcDbLine
   6
CONTINUOUS
  62
5
  10
 1463.7247244140
  20
 3772.2211598283
  30
0.0
  11
 1473.6652148404
  21
 3756.5415338307
  31
0.0
   0
LINE
   5
2D3
 100
AcDbEntity
   8
LEVEL001
 370
13
 100
AcDbLine
   6
CONTINUOUS
  62
5
  10
 1473.6652148404
  20
 3756.5415338307
  30
0.0
  11
 1438.9499448789
  21
 3756.5415338307
  31
0.0
   0
LINE
   5
2D4
 100
AcDbEntity
   8
LEVEL001
 370
13
 100
AcDbLine
   6
CONTINUOUS
  62
5
  10
 1438.9499448789
  20
 3756.5415338307
  30
0.0
  11
 1443.8504574282
  21
 3745.9861142235
  31
0.0
   0
LINE
   5
2D5
 100
AcDbEntity
   8
LEVEL001
 370
13
 100
AcDbLine
   6
CONTINUOUS
  62
5
  10
 1443.8504574282
  20
 3745.9861142235
  30
0.0
  11
 1567.4350484716
  21
 3745.9861142235
  31
0.0
   0
ARC
   5
2D6
 100
AcDbEntity
   8
LEVEL001
 370
13
   6
CONTINUOUS
  62
5
 100
AcDbCircle
  10
 1560.0391923394
  20
 3674.1917241261
  30
0.0
  40
 8.9390233475260
 100
AcDbArc
  50
 229.60790187559
  51
 6.7933956220937
   0
ARC
   5
2D7
 100
AcDbEntity
   8
LEVEL001
 370
13
   6
CONTINUOUS
  62
5
 100
AcDbCircle
  10
 1544.7304508336
  20
 3663.1603885367
  30
0.0
  40
 27.037970213950
 100
AcDbArc
  50
 26.557897354817
  51
 98.092162593095
   0
ARC
   5
2D8
 100
AcDbEntity
   8
LEVEL001
 370
13
   6
CONTINUOUS
  62
5
 100
AcDbCircle
  10
 1452.2023610614
  20
 3658.9021952145
  30
0.0
  40
 10.212310248246
 100
AcDbArc
  50
 146.66668479801
  51
 331.70163256428
   0
ARC
   5
2D9
 100
AcDbEntity
   8
LEVEL001
 370
13
   6
CONTINUOUS
  62
5
 100
AcDbCircle
  10
 1558.0487504817
  20
 3912.9363666801
  30
0.0
  40
 5.0631766002424
 100
AcDbArc
  50
 274.72626205416
  51
 43.105625042977
   0
LINE
   5
2DA
 100
AcDbEntity
   8
LEVEL001
 370
13
 100
AcDbLine
   6
CONTINUOUS
  62
5
  10
 1561.7453513755
  20
 3916.3962653949
  30
0.0
  11
 1545.3482571377
  21
 3929.4112491379
  31
0.0
   0
LINE
   5
2DB
 100
AcDbEntity
   8
LEVEL001
 370
13
 100
AcDbLine
   6
CONTINUOUS
  62
5
  10
 1545.3482571377
  20
 3929.4112491379
  30
0.0
  11
 1537.7646391996
  21
 3919.9829962449
  31
0.0
   0
LINE
   5
2DC
 100
AcDbEntity
   8
LEVEL001
 370
13
 100
AcDbLine
   6
CONTINUOUS
  62
5
  10
 1537.7646391996
  20
 3919.9829962449
  30
0.0
  11
 1524.9545809876
  21
 3919.9829962449
  31
0.0
   0
LINE
   5
2DD
 100
AcDbEntity
   8
LEVEL001
 370
13
 100
AcDbLine
   6
CONTINUOUS
  62
5
  10
 1524.9545809876
  20
 3919.9829962449
  30
0.0
  11
 1524.9545809876
  21
 3950.5222409403
  31
0.0
   0
LINE
   5
2DE
 100
AcDbEntity
   8
LEVEL001
 370
13
 100
AcDbLine
   6
CONTINUOUS
  62
5
  10
 1524.9545809876
  20
 3950.5222409403
  30
0.0
  11
 1562.1552024376
  21
 3950.5222409403
  31
0.0
   0
LINE
   5
2DF
 100
AcDbEntity
   8
LEVEL001
 370
13
 100
AcDbLine
   6
CONTINUOUS
  62
5
  10
 1566.1520895255
  20
 3959.4381037117
  30
0.0
  11
 1552.3169458948
  21
 3971.5306936833
  31
0.0
   0
LINE
   5
2E0
 100
AcDbEntity
   8
LEVEL001
 370
13
 100
AcDbLine
   6
CONTINUOUS
  62
5
  10
 1552.3169458948
  20
 3971.5306936833
  30
0.0
  11
 1540.4294340421
  21
 3961.4876641975
  31
0.0
   0
LINE
   5
2E1
 100
AcDbEntity
   8
LEVEL001
 370
13
 100
AcDbLine
   6
CONTINUOUS
  62
5
  10
 1540.4294340421
  20
 3961.4876641975
  30
0.0
  11
 1524.9545809876
  21
 3961.4876641975
  31
0.0
   0
LINE
   5
2E2
 100
AcDbEntity
   8
LEVEL001
 370
13
 100
AcDbLine
   6
CONTINUOUS
  62
5
  10
 1524.9545809876
  20
 3961.4876641975
  30
0.0
  11
 1524.9545809876
  21
 3976.9622120761
  31
0.0
   0
LINE
   5
2E3
 100
AcDbEntity
   8
LEVEL001
 370
13
 100
AcDbLine
   6
CONTINUOUS
  62
5
  10
 1524.9545809876
  20
 3976.9622120761
  30
0.0
  11
 1528.5416170135
  21
 3978.8068470309
  31
0.0
   0
LINE
   5
2E4
 100
AcDbEntity
   8
LEVEL001
 370
13
 100
AcDbLine
   6
CONTINUOUS
  62
5
  10
 1528.5416170135
  20
 3978.8068470309
  30
0.0
  11
 1528.8489290161
  21
 3981.4713366977
  31
0.0
   0
LINE
   5
2E5
 100
AcDbEntity
   8
LEVEL001
 370
13
 100
AcDbLine
   6
CONTINUOUS
  62
5
  10
 1528.8489290161
  20
 3981.4713366977
  30
0.0
  11
 1499.9493937446
  21
 3985.9804613191
  31
0.0
   0
LINE
   5
2E6
 100
AcDbEntity
   8
LEVEL001
 370
13
 100
AcDbLine
   6
CONTINUOUS
  62
5
  10
 1499.9493937446
  20
 3985.9804613191
  30
0.0
  11
 1499.9493937446
  21
 3961.4876641975
  31
0.0
   0
LINE
   5
2E7
 100
AcDbEntity
   8
LEVEL001
 370
13
 100
AcDbLine
   6
CONTINUOUS
  62
5
  10
 1499.9493937446
  20
 3961.4876641975
  30
0.0
  11
 1470.5374683516
  21
 3961.4876641975
  31
0.0
   0
LINE
   5
2E8
 100
AcDbEntity
   8
LEVEL001
 370
13
 100
AcDbLine
   6
CONTINUOUS
  62
5
  10
 1470.5374683516
  20
 3961.4876641975
  30
0.0
  11
 1474.9442065015
  21
 3950.5222409403
  31
0.0
   0
LINE
   5
2E9
 100
AcDbEntity
   8
LEVEL001
 370
13
 100
AcDbLine
   6
CONTINUOUS
  62
5
  10
 1474.9442065015
  20
 3950.5222409403
  30
0.0
  11
 1499.9493937446
  21
 3950.5222409403
  31
0.0
   0
LINE
   5
2EA
 100
AcDbEntity
   8
LEVEL001
 370
13
 100
AcDbLine
   6
CONTINUOUS
  62
5
  10
 1499.9493937446
  20
 3950.5222409403
  30
0.0
  11
 1499.9493937446
  21
 3919.9829962449
  31
0.0
   0
LINE
   5
2EB
 100
AcDbEntity
   8
LEVEL001
 370
13
 100
AcDbLine
   6
CONTINUOUS
  62
5
  10
 1499.9493937446
  20
 3919.9829962449
  30
0.0
  11
 1472.1771777754
  21
 3919.9829962449
  31
0.0
   0
LINE
   5
2EC
 100
AcDbEntity
   8
LEVEL001
 370
13
 100
AcDbLine
   6
CONTINUOUS
  62
5
  10
 1472.1771777754
  20
 3919.9829962449
  30
0.0
  11
 1477.0963060467
  21
 3907.8904062733
  31
0.0
   0
LINE
   5
2ED
 100
AcDbEntity
   8
LEVEL001
 370
13
 100
AcDbLine
   6
CONTINUOUS
  62
5
  10
 1477.0963060467
  20
 3907.8904062733
  30
0.0
  11
 1499.9493937446
  21
 3907.8904062733
  31
0.0
   0
LINE
   5
2EE
 100
AcDbEntity
   8
LEVEL001
 370
13
 100
AcDbLine
   6
CONTINUOUS
  62
5
  10
 1499.9493937446
  20
 3907.8904062733
  30
0.0
  11
 1499.9493937446
  21
 3863.0039330017
  31
0.0
   0
LINE
   5
2EF
 100
AcDbEntity
   8
LEVEL001
 370
13
 100
AcDbLine
   6
CONTINUOUS
  62
5
  10
 1499.9493937446
  20
 3863.0039330017
  30
0.0
  11
 1467.4631276229
  21
 3863.0039330017
  31
0.0
   0
LINE
   5
2F0
 100
AcDbEntity
   8
LEVEL001
 370
13
 100
AcDbLine
   6
CONTINUOUS
  62
5
  10
 1467.4631276229
  20
 3863.0039330017
  30
0.0
  11
 1472.8946460157
  21
 3850.9110378543
  31
0.0
   0
LINE
   5
2F1
 100
AcDbEntity
   8
LEVEL001
 370
13
 100
AcDbLine
   6
CONTINUOUS
  62
5
  10
 1472.8946460157
  20
 3850.9110378543
  30
0.0
  11
 1563.2724509394
  21
 3850.9110378543
  31
0.0
   0
ARC
   5
2F2
 100
AcDbEntity
   8
LEVEL001
 370
13
   6
CONTINUOUS
  62
5
 100
AcDbCircle
  10
 1557.6041792220
  20
 3777.3773334533
  30
0.0
  40
 5.1561789168066
 100
AcDbArc
  50
 269.91791191260
  51
 52.070025543550
   0
LINE
   5
2F3
 100
AcDbEntity
   8
LEVEL001
 370
13
 100
AcDbLine
   6
CONTINUOUS
  62
5
  10
 1457.1976249991
  20
 3686.9571853187
  30
0.0
  11
 1456.6852348777
  21
 3681.8332841041
  31
0.0
   0
LINE
   5
2F4
 100
AcDbEntity
   8
LEVEL001
 370
13
 100
AcDbLine
   6
CONTINUOUS
  62
5
  10
 1456.6852348777
  20
 3681.8332841041
  30
0.0
  11
 1454.7379082756
  21
 3678.2464006661
  31
0.0
   0
LINE
   5
2F5
 100
AcDbEntity
   8
LEVEL001
 370
13
 100
AcDbLine
   6
CONTINUOUS
  62
5
  10
 1454.7379082756
  20
 3678.2464006661
  30
0.0
  11
 1443.6700985468
  21
 3664.5139486827
  31
0.0
   0
LINE
   5
2F6
 100
AcDbEntity
   8
LEVEL001
 370
13
 100
AcDbLine
   6
CONTINUOUS
  62
5
  10
 1503.2877115162
  20
 4144.3033630949
  30
0.0
  11
 1448.2877131553
  21
 4074.3033651811
  31
0.0
   0
LINE
   5
2F7
 100
AcDbEntity
   8
LEVEL001
 370
13
 100
AcDbLine
   6
CONTINUOUS
  62
5
  10
 1448.2877131553
  20
 4074.3033651811
  30
0.0
  11
 1478.2877122612
  21
 4074.3033651811
  31
0.0
   0
LINE
   5
2F8
 100
AcDbEntity
   8
LEVEL001
 370
13
 100
AcDbLine
   6
CONTINUOUS
  62
5
  10
 1478.2877122612
  20
 4074.3033651811
  30
0.0
  11
 1478.2877122612
  21
 4044.3033660751
  31
0.0
   0
LINE
   5
2F9
 100
AcDbEntity
   8
LEVEL001
 370
13
 100
AcDbLine
   6
CONTINUOUS
  62
5
  10
 1478.2877122612
  20
 4044.3033660751
  30
0.0
  11
 1528.2877107711
  21
 4044.3033660751
  31
0.0
   0
LINE
   5
2FA
 100
AcDbEntity
   8
LEVEL001
 370
13
 100
AcDbLine
   6
CONTINUOUS
  62
5
  10
 1528.2877107711
  20
 4044.3033660751
  30
0.0
  11
 1528.2877107711
  21
 4074.3033651811
  31
0.0
   0
LINE
   5
2FB
 100
AcDbEntity
   8
LEVEL001
 370
13
 100
AcDbLine
   6
CONTINUOUS
  62
5
  10
 1528.2877107711
  20
 4074.3033651811
  30
0.0
  11
 1558.2877098770
  21
 4074.3033651811
  31
0.0
   0
LINE
   5
2FC
 100
AcDbEntity
   8
LEVEL001
 370
13
 100
AcDbLine
   6
CONTINUOUS
  62
5
  10
 1558.2877098770
  20
 4074.3033651811
  30
0.0
  11
 1503.2877115162
  21
 4144.3033630949
  31
0.0
   0
LINE
   5
2FD
 100
AcDbEntity
   8
LEVEL001
 370
13
 100
AcDbLine
   6
CONTINUOUS
  62
5
  10
 1433.6447692557
  20
 3978.2944569095
  30
0.0
  11
 1448.9139338397
  21
 3976.0398183049
  31
0.0
   0
ARC
   5
2FE
 100
AcDbEntity
   8
LEVEL001
 370
13
   6
CONTINUOUS
  62
5
 100
AcDbCircle
  10
 1447.5312220036
  20
 3955.5066123521
  30
0.0
  40
 20.579709393390
 100
AcDbArc
  50
 10.432218603615
  51
 86.147502468973
   0
ARC
   5
2FF
 100
AcDbEntity
   8
LEVEL001
 370
13
   6
CONTINUOUS
  62
5
 100
AcDbCircle
  10
 1453.8868839082
  20
 3958.9309676663
  30
0.0
  40
 13.887146297480
 100
AcDbArc
  50
 284.73811645763
  51
 1.2463330419109
   0
LINE
   5
300
 100
AcDbEntity
   8
LEVEL001
 370
13
 100
AcDbLine
   6
CONTINUOUS
  62
5
  10
 1457.4197929613
  20
 3945.5007261975
  30
0.0
  11
 1433.6447692557
  21
 3978.2944569095
  31
0.0
   0
ARC
   5
301
 100
AcDbEntity
   8
LEVEL001
 370
13
   6
CONTINUOUS
  62
5
 100
AcDbCircle
  10
 1441.1919792425
  20
 3918.6894584657
  30
0.0
  40
 20.228108756896
 100
AcDbArc
  50
 1.0517504590265
  51
 78.795792274236
   0
ARC
   5
302
 100
AcDbEntity
   8
LEVEL001
 370
13
   6
CONTINUOUS
  62
5
 100
AcDbCircle
  10
 1446.4484097480
  20
 3920.8392443655
  30
0.0
  40
 15.073557642890
 100
AcDbArc
  50
 288.65956808361
  51
 353.22403827743
   0
LINE
   5
303
 100
AcDbEntity
   8
LEVEL001
 370
13
 100
AcDbLine
   6
CONTINUOUS
  62
5
  10
 1436.0016417441
  20
 3892.5182448663
  30
0.0
  11
 1442.9703305013
  21
 3853.6780665805
  31
0.0
   0
ARC
   5
304
 100
AcDbEntity
   8
LEVEL001
 370
13
   6
CONTINUOUS
  62
5
 100
AcDbCircle
  10
 1452.9527478229
  20
 3857.3100117669
  30
0.0
  40
 10.622602384609
 100
AcDbArc
  50
 199.99311911329
  51
 1.9679733411069
   0
LINE
   5
305
 100
AcDbEntity
   8
LEVEL001
 370
13
 100
AcDbLine
   6
CONTINUOUS
  62
5
  10
 1463.5690847702
  20
 3857.6748010805
  30
0.0
  11
 1460.3918998063
  21
 3874.7890583829
  31
0.0
   0
LINE
   5
306
 100
AcDbEntity
   8
LEVEL001
 370
13
 100
AcDbLine
   6
CONTINUOUS
  62
5
  10
 1460.3918998063
  20
 3874.7890583829
  30
0.0
  11
 1472.6895678968
  21
 3934.2278383497
  31
0.0
   0
LINE
   5
307
 100
AcDbEntity
   8
LEVEL001
 370
13
 100
AcDbLine
   6
CONTINUOUS
  62
5
  10
 1472.6895678968
  20
 3934.2278383497
  30
0.0
  11
 1449.8364801990
  21
 3884.3198503351
  31
0.0
   0
LINE
   5
308
 100
AcDbEntity
   8
LEVEL001
 370
13
 100
AcDbLine
   6
CONTINUOUS
  62
5
  10
 1449.8364801990
  20
 3884.3198503351
  30
0.0
  11
 1436.0016417441
  21
 3892.5182448663
  31
0.0
   0
ARC
   5
309
 100
AcDbEntity
   8
LEVEL001
 370
13
   6
CONTINUOUS
  62
5
 100
AcDbCircle
  10
 1473.8860533938
  20
 3750.3645812107
  30
0.0
  40
 22.293228438698
 100
AcDbArc
  50
 35.161132790347
  51
 78.641284698049
   0
ARC
   5
30A
 100
AcDbEntity
   8
LEVEL001
 370
13
   6
CONTINUOUS
  62
5
 100
AcDbCircle
  10
 1485.7660943891
  20
 3761.4212931459
  30
0.0
  40
 6.5907971086860
 100
AcDbArc
  50
 312.23536417699
  51
 15.681870099107
   0
LINE
   5
30B
 100
AcDbEntity
   8
LEVEL001
 370
13
 100
AcDbLine
   6
CONTINUOUS
  62
5
  10
 1490.1962812423
  20
 3756.5415338307
  30
0.0
  11
 1509.1232826313
  21
 3756.5415338307
  31
0.0
   0
LINE
   5
30C
 100
AcDbEntity
   8
LEVEL001
 370
13
 100
AcDbLine
   6
CONTINUOUS
  62
5
  10
 1509.1232826313
  20
 3756.5415338307
  30
0.0
  11
 1519.5764683549
  21
 3772.2211598283
  31
0.0
   0
LINE
   5
30D
 100
AcDbEntity
   8
LEVEL001
 370
13
 100
AcDbLine
   6
CONTINUOUS
  62
5
  10
 1519.5764683549
  20
 3772.2211598283
  30
0.0
  11
 1478.2767259334
  21
 3772.2211598283
  31
0.0
   0
ARC
   5
30E
 100
AcDbEntity
   8
LEVEL001
 370
13
   6
CONTINUOUS
  62
5
 100
AcDbCircle
  10
 1463.2244462817
  20
 3721.9555975027
  30
0.0
  40
 31.206602120202
 100
AcDbArc
  50
 246.86700487446
  51
 289.54634462667
   0
LINE
   5
30F
 100
AcDbEntity
   8
LEVEL001
 370
13
 100
AcDbLine
   6
CONTINUOUS
  62
5
  10
 1473.6652148404
  20
 3721.9031681639
  30
0.0
  11
 1473.6652148404
  21
 3728.3593142117
  31
0.0
   0
LINE
   5
310
 100
AcDbEntity
   8
LEVEL001
 370
13
 100
AcDbLine
   6
CONTINUOUS
  62
5
  10
 1473.6652148404
  20
 3728.3593142117
  30
0.0
  11
 1530.2344270217
  21
 3728.3593142117
  31
0.0
   0
LINE
   5
311
 100
AcDbEntity
   8
LEVEL001
 370
13
 100
AcDbLine
   6
CONTINUOUS
  62
5
  10
 1530.2344270217
  20
 3728.3593142117
  30
0.0
  11
 1530.2344270217
  21
 3721.9031681639
  31
0.0
   0
LINE
   5
312
 100
AcDbEntity
   8
LEVEL001
 370
13
 100
AcDbLine
   6
CONTINUOUS
  62
5
  10
 1530.2344270217
  20
 3721.9031681639
  30
0.0
  11
 1473.6652148404
  21
 3721.9031681639
  31
0.0
   0
LINE
   5
313
 100
AcDbEntity
   8
LEVEL001
 370
13
 100
AcDbLine
   6
CONTINUOUS
  62
5
  10
 1556.7770898049
  20
 3735.3280029689
  30
0.0
  11
 1536.7932647168
  21
 3744.3464047997
  31
0.0
   0
LINE
   5
314
 100
AcDbEntity
   8
LEVEL001
 370
13
 100
AcDbLine
   6
CONTINUOUS
  62
5
  10
 1536.7932647168
  20
 3744.3464047997
  30
0.0
  11
 1530.2344270217
  21
 3736.6602478021
  31
0.0
   0
LINE
   5
315
 100
AcDbEntity
   8
LEVEL001
 370
13
 100
AcDbLine
   6
CONTINUOUS
  62
5
  10
 1530.2344270217
  20
 3736.6602478021
  30
0.0
  11
 1473.6652148404
  21
 3736.6602478021
  31
0.0
   0
LINE
   5
316
 100
AcDbEntity
   8
LEVEL001
 370
13
 100
AcDbLine
   6
CONTINUOUS
  62
5
  10
 1473.6652148404
  20
 3736.6602478021
  30
0.0
  11
 1473.6652148404
  21
 3738.4024962855
  31
0.0
   0
LINE
   5
317
 100
AcDbEntity
   8
LEVEL001
 370
13
 100
AcDbLine
   6
CONTINUOUS
  62
5
  10
 1473.6652148404
  20
 3738.4024962855
  30
0.0
  11
 1451.0172052614
  21
 3743.0140073785
  31
0.0
   0
LINE
   5
318
 100
AcDbEntity
   8
LEVEL001
 370
13
 100
AcDbLine
   6
CONTINUOUS
  62
5
  10
 1451.0172052614
  20
 3743.0140073785
  30
0.0
  11
 1450.9644098529
  21
 3693.2581494863
  31
0.0
   0
LINE
   5
319
 100
AcDbEntity
   8
LEVEL001
 370
13
 100
AcDbLine
   6
CONTINUOUS
  62
5
  10
 1473.6652148404
  20
 3705.9160775759
  30
0.0
  11
 1473.6652148404
  21
 3712.7787177521
  31
0.0
   0
LINE
   5
31A
 100
AcDbEntity
   8
LEVEL001
 370
13
 100
AcDbLine
   6
CONTINUOUS
  62
5
  10
 1473.6652148404
  20
 3712.7787177521
  30
0.0
  11
 1530.2344270217
  21
 3712.7787177521
  31
0.0
   0
LINE
   5
31B
 100
AcDbEntity
   8
LEVEL001
 370
13
 100
AcDbLine
   6
CONTINUOUS
  62
5
  10
 1530.2344270217
  20
 3712.7787177521
  30
0.0
  11
 1530.2344270217
  21
 3705.9160775759
  31
0.0
   0
LINE
   5
31C
 100
AcDbEntity
   8
LEVEL001
 370
13
 100
AcDbLine
   6
CONTINUOUS
  62
5
  10
 1530.2344270217
  20
 3705.9160775759
  30
0.0
  11
 1473.6652148404
  21
 3705.9160775759
  31
0.0
   0
ARC
   5
31D
 100
AcDbEntity
   8
LEVEL001
 370
13
   6
CONTINUOUS
  62
5
 100
AcDbCircle
  10
 1553.2781142803
  20
 3732.7159101641
  30
0.0
  40
 4.3664469013676
 100
AcDbArc
  50
 266.15058922023
  51
 36.742470507522
   0
LINE
   5
31E
 100
AcDbEntity
   8
LEVEL001
 370
13
 100
AcDbLine
   6
CONTINUOUS
  62
5
  10
 1473.6652148404
  20
 3692.5473951129
  30
0.0
  11
 1473.6652148404
  21
 3697.3078319827
  31
0.0
   0
LINE
   5
31F
 100
AcDbEntity
   8
LEVEL001
 370
13
 100
AcDbLine
   6
CONTINUOUS
  62
5
  10
 1473.6652148404
  20
 3697.3078319827
  30
0.0
  11
 1530.2344270217
  21
 3697.3078319827
  31
0.0
   0
LINE
   5
320
 100
AcDbEntity
   8
LEVEL001
 370
13
 100
AcDbLine
   6
CONTINUOUS
  62
5
  10
 1530.2344270217
  20
 3697.3078319827
  30
0.0
  11
 1530.2344270217
  21
 3692.3887037115
  31
0.0
   0
LINE
   5
321
 100
AcDbEntity
   8
LEVEL001
 370
13
 100
AcDbLine
   6
CONTINUOUS
  62
5
  10
 1530.2344270217
  20
 3692.3887037115
  30
0.0
  11
 1547.1439113810
  21
 3692.3887037115
  31
0.0
   0
LINE
   5
322
 100
AcDbEntity
   8
LEVEL001
 370
13
 100
AcDbLine
   6
CONTINUOUS
  62
5
  10
 1547.1439113810
  20
 3692.3887037115
  30
0.0
  11
 1550.8328761148
  21
 3694.4382641973
  31
0.0
   0
LINE
   5
323
 100
AcDbEntity
   8
LEVEL001
 370
13
 100
AcDbLine
   6
CONTINUOUS
  62
5
  10
 1550.8328761148
  20
 3694.4382641973
  30
0.0
  11
 1552.9849756601
  21
 3698.8450023471
  31
0.0
   0
LINE
   5
324
 100
AcDbEntity
   8
LEVEL001
 370
13
 100
AcDbLine
   6
CONTINUOUS
  62
5
  10
 1552.9849756601
  20
 3698.8450023471
  30
0.0
  11
 1552.9782617931
  21
 3728.3594667995
  31
0.0
   0
ARC
   5
325
 100
AcDbEntity
   8
LEVEL001
 370
13
   6
CONTINUOUS
  62
5
 100
AcDbCircle
  10
 1438.2142768813
  20
 3667.9599821101
  30
0.0
  40
 26.856307183018
 100
AcDbArc
  50
 328.83298190804
  51
 45.020901175867
   0
LINE
   5
326
 100
AcDbEntity
   8
LEVEL001
 370
13
 100
AcDbLine
   6
CONTINUOUS
  62
5
  10
 1540.8218900851
  20
 3689.7242140447
  30
0.0
  11
 1554.2465723022
  21
 3667.3835164683
  31
0.0
   0
ARC
   5
327
 100
AcDbEntity
   8
LEVEL001
 370
13
   6
CONTINUOUS
  62
5
 100
AcDbCircle
  10
 1546.5532094396
  20
 3657.2078457473
  30
0.0
  40
 8.7884995702356
 100
AcDbArc
  50
 268.04310640372
  51
 95.976315924690
   0
ARC
   5
328
 100
AcDbEntity
   8
LEVEL001
 370
13
   6
CONTINUOUS
  62
5
 100
AcDbCircle
  10
 1479.3522684703
  20
 3655.0340628147
  30
0.0
  40
 6.6095999893666
 100
AcDbArc
  50
 179.99949488502
  51
 269.90651577928
   0
LINE
   5
329
 100
AcDbEntity
   8
LEVEL001
 370
13
 100
AcDbLine
   6
CONTINUOUS
  62
5
  10
 1479.3414842025
  20
 3648.4244716233
  30
0.0
  11
 1546.2531033021
  21
 3648.4244716233
  31
0.0
   0
LINE
   5
32A
 100
AcDbEntity
   8
LEVEL001
 370
13
 100
AcDbLine
   6
CONTINUOUS
  62
5
  10
 1545.6381741212
  20
 3665.9485799877
  30
0.0
  11
 1538.2596343020
  21
 3684.3952347113
  31
0.0
   0
LINE
   5
32B
 100
AcDbEntity
   8
LEVEL001
 370
13
 100
AcDbLine
   6
CONTINUOUS
  62
5
  10
 1538.2596343020
  20
 3684.3952347113
  30
0.0
  11
 1538.0545561832
  21
 3674.1471271067
  31
0.0
   0
LINE
   5
32C
 100
AcDbEntity
   8
LEVEL001
 370
13
 100
AcDbLine
   6
CONTINUOUS
  62
5
  10
 1538.0545561832
  20
 3674.1471271067
  30
0.0
  11
 1535.3531402480
  21
 3665.9485799877
  31
0.0
   0
LINE
   5
32D
 100
AcDbEntity
   8
LEVEL001
 370
13
 100
AcDbLine
   6
CONTINUOUS
  62
5
  10
 1535.3531402480
  20
 3665.9485799877
  30
0.0
  11
 1495.4935222953
  21
 3665.9485799877
  31
0.0
   0
LINE
   5
32E
 100
AcDbEntity
   8
LEVEL001
 370
13
 100
AcDbLine
   6
CONTINUOUS
  62
5
  10
 1495.4935222953
  20
 3665.9485799877
  30
0.0
  11
 1495.4935222953
  21
 3681.8332841041
  31
0.0
   0
LINE
   5
32F
 100
AcDbEntity
   8
LEVEL001
 370
13
 100
AcDbLine
   6
CONTINUOUS
  62
5
  10
 1495.4935222953
  20
 3681.8332841041
  30
0.0
  11
 1497.5430827811
  21
 3684.8050857733
  31
0.0
   0
LINE
   5
330
 100
AcDbEntity
   8
LEVEL001
 370
13
 100
AcDbLine
   6
CONTINUOUS
  62
5
  10
 1497.5430827811
  20
 3684.8050857733
  30
0.0
  11
 1495.6986004142
  21
 3686.9571853187
  31
0.0
   0
LINE
   5
331
 100
AcDbEntity
   8
LEVEL001
 370
13
 100
AcDbLine
   6
CONTINUOUS
  62
5
  10
 1495.6986004142
  20
 3686.9571853187
  30
0.0
  11
 1472.7426684812
  21
 3690.0315260473
  31
0.0
   0
LINE
   5
332
 100
AcDbEntity
   8
LEVEL001
 370
13
 100
AcDbLine
   6
CONTINUOUS
  62
5
  10
 1472.7426684812
  20
 3690.0315260473
  30
0.0
  11
 1472.7426684812
  21
 3655.0341210845
  31
0.0
   0
LINE
   5
333
 100
AcDbEntity
   8
LEVEL001
 370
13
 100
AcDbLine
   6
CONTINUOUS
  62
5
  10
 1515.5988073407
  20
 3670.2527790781
  30
0.0
  11
 1501.4566568832
  21
 3691.5688489995
  31
0.0
   0
ARC
   5
334
 100
AcDbEntity
   8
LEVEL001
 370
13
   6
CONTINUOUS
  62
5
 100
AcDbCircle
  10
 1520.4791582975
  20
 3677.9722639567
  30
0.0
  40
 9.1328129430768
 100
AcDbArc
  50
 237.69843463473
  51
 18.768732377694
   0
ARC
   5
335
 100
AcDbEntity
   8
LEVEL001
 370
13
   6
CONTINUOUS
  62
5
 100
AcDbCircle
  10
 1502.9438830329
  20
 3653.6690109915
  30
0.0
  40
 37.929006876678
 100
AcDbArc
  50
 46.131549416337
  51
 92.247188603537
   0
LINE
   5
336
 100
AcDbEntity
   8
LEVEL001
 370
13
 100
AcDbLine
   6
CONTINUOUS
  62
5
  10
 1430.2153218282
  20
 3940.8611863979
  30
0.0
  11
 1445.1224300465
  21
 3938.5320374403
  31
0.0
   0
LINE
   5
337
 100
AcDbEntity
   8
LEVEL001
 370
13
 100
AcDbLine
   6
CONTINUOUS
  62
5
  10
 1451.2711115039
  20
 3906.5580088521
  30
0.0
  11
 1430.2153218282
  21
 3938.8116036721
  31
0.0
   0
LINE
   5
338
 100
AcDbEntity
   8
LEVEL001
 370
13
 100
AcDbLine
   6
CONTINUOUS
  62
5
  10
 2903.2877791474
  20
 894.30076577732
  30
0.0
  11
 2853.2877791474
  21
 794.30076577732
  31
0.0
   0
LINE
   5
339
 100
AcDbEntity
   8
LEVEL001
 370
13
 100
AcDbLine
   6
CONTINUOUS
  62
5
  10
 2853.2877791474
  20
 894.30076577732
  30
0.0
  11
 2893.2877791474
  21
 874.30076577732
  31
0.0
   0
LINE
   5
33A
 100
AcDbEntity
   8
LEVEL001
 370
13
 100
AcDbLine
   6
CONTINUOUS
  62
5
  10
 2853.2877791474
  20
 894.30076577732
  30
0.0
  11
 2803.2877791474
  21
 794.30076577732
  31
0.0
   0
LINE
   5
33B
 100
AcDbEntity
   8
LEVEL001
 370
13
 100
AcDbLine
   6
CONTINUOUS
  62
5
  10
 2803.2877791474
  20
 894.30076577732
  30
0.0
  11
 2843.2877791474
  21
 874.30076577732
  31
0.0
   0
LINE
   5
33C
 100
AcDbEntity
   8
LEVEL001
 370
13
 100
AcDbLine
   6
CONTINUOUS
  62
5
  10
 2903.2877791474
  20
 794.30076577732
  30
0.0
  11
 2863.2877791474
  21
 814.30076577732
  31
0.0
   0
LINE
   5
33D
 100
AcDbEntity
   8
LEVEL001
 370
13
 100
AcDbLine
   6
CONTINUOUS
  62
5
  10
 2853.2877791474
  20
 794.30076577732
  30
0.0
  11
 2813.2877791474
  21
 814.30076577732
  31
0.0
   0
LINE
   5
33E
 100
AcDbEntity
   8
LEVEL001
 370
13
 100
AcDbLine
   6
CONTINUOUS
  62
5
  10
 2403.2877791474
  20
 794.30076577732
  30
0.0
  11
 2903.2877791474
  21
 794.30076577732
  31
0.0
   0
LINE
   5
33F
 100
AcDbEntity
   8
LEVEL001
 370
13
 100
AcDbLine
   6
CONTINUOUS
  62
5
  10
 2903.2877791474
  20
 794.30076577732
  30
0.0
  11
 2903.2877791474
  21
 894.30076577732
  31
0.0
   0
LINE
   5
340
 100
AcDbEntity
   8
LEVEL001
 370
13
 100
AcDbLine
   6
CONTINUOUS
  62
5
  10
 2903.2877791474
  20
 894.30076577732
  30
0.0
  11
 2403.2877791474
  21
 894.30076577732
  31
0.0
   0
LINE
   5
341
 100
AcDbEntity
   8
LEVEL001
 370
13
 100
AcDbLine
   6
CONTINUOUS
  62
5
  10
 2903.2877791474
  20
 1617.8061048366
  30
0.0
  11
 2691.4377791474
  21
 1405.9561048366
  31
0.0
   0
LINE
   5
342
 100
AcDbEntity
   8
LEVEL001
 370
13
 100
AcDbLine
   6
CONTINUOUS
  62
5
  10
 2691.4377791474
  20
 1370.6007657773
  30
0.0
  11
 2903.2877791474
  21
 1582.4507657773
  31
0.0
   0
LINE
   5
343
 100
AcDbEntity
   8
LEVEL001
 370
13
 100
AcDbLine
   6
CONTINUOUS
  62
5
  10
 2903.2877791474
  20
 1547.0954267180
  30
0.0
  11
 2691.4377791474
  21
 1335.2454267180
  31
0.0
   0
LINE
   5
344
 100
AcDbEntity
   8
LEVEL001
 370
13
 100
AcDbLine
   6
CONTINUOUS
  62
5
  10
 2403.2877791474
  20
 894.30076577732
  30
0.0
  11
 2903.2877791474
  21
 894.30076577732
  31
0.0
   0
LINE
   5
345
 100
AcDbEntity
   8
LEVEL001
 370
13
 100
AcDbLine
   6
CONTINUOUS
  62
5
  10
 2903.2877791474
  20
 894.30076577732
  30
0.0
  11
 2903.2877791474
  21
 1794.3007657773
  31
0.0
   0
LINE
   5
346
 100
AcDbEntity
   8
LEVEL001
 370
13
 100
AcDbLine
   6
CONTINUOUS
  62
5
  10
 2963.9679739940
  20
 1794.3007657773
  30
0.0
  11
 2911.4679739940
  21
 1741.8007657773
  31
0.0
   0
LINE
   5
347
 100
AcDbEntity
   8
LEVEL001
 370
13
 100
AcDbLine
   6
CONTINUOUS
  62
5
  10
 2927.3778765702
  20
 1741.8007657773
  30
0.0
  11
 2979.8778765702
  21
 1794.3007657773
  31
0.0
   0
LINE
   5
348
 100
AcDbEntity
   8
LEVEL001
 370
13
 100
AcDbLine
   6
CONTINUOUS
  62
5
  10
 2995.7877791478
  20
 1794.3007657773
  30
0.0
  11
 2943.2877791478
  21
 1741.8007657773
  31
0.0
   0
LINE
   5
349
 100
AcDbEntity
   8
LEVEL001
 370
13
 100
AcDbLine
   6
CONTINUOUS
  62
5
  10
 2959.1976817238
  20
 1741.8007657773
  30
0.0
  11
 3011.6976817238
  21
 1794.3007657773
  31
0.0
   0
LINE
   5
34A
 100
AcDbEntity
   8
LEVEL001
 370
13
 100
AcDbLine
   6
CONTINUOUS
  62
5
  10
 3016.4679739944
  20
 1741.8007657773
  30
0.0
  11
 2987.8328278590
  21
 1770.4359119126
  31
0.0
   0
LINE
   5
34B
 100
AcDbEntity
   8
LEVEL001
 370
13
 100
AcDbLine
   6
CONTINUOUS
  62
5
  10
 2995.7877791472
  20
 1778.3908632008
  30
0.0
  11
 3032.3778765708
  21
 1741.8007657773
  31
0.0
   0
LINE
   5
34C
 100
AcDbEntity
   8
LEVEL001
 370
13
 100
AcDbLine
   6
CONTINUOUS
  62
5
  10
 3048.2877791472
  20
 1741.8007657773
  30
0.0
  11
 3003.7427304354
  21
 1786.3458144890
  31
0.0
   0
LINE
   5
34D
 100
AcDbEntity
   8
LEVEL001
 370
13
 100
AcDbLine
   6
CONTINUOUS
  62
5
  10
 3011.6976817238
  20
 1794.3007657773
  30
0.0
  11
 3064.1976817240
  21
 1741.8007657773
  31
0.0
   0
LINE
   5
34E
 100
AcDbEntity
   8
LEVEL001
 370
13
 100
AcDbLine
   6
CONTINUOUS
  62
5
  10
 3064.1976817240
  20
 1741.8007657773
  30
0.0
  11
 3116.6976817240
  21
 1794.3007657773
  31
0.0
   0
LINE
   5
34F
 100
AcDbEntity
   8
LEVEL001
 370
13
 100
AcDbLine
   6
CONTINUOUS
  62
5
  10
 3068.9679739942
  20
 1794.3007657773
  30
0.0
  11
 3040.3328278590
  21
 1765.6656196421
  31
0.0
   0
LINE
   5
350
 100
AcDbEntity
   8
LEVEL001
 370
13
 100
AcDbLine
   6
CONTINUOUS
  62
5
  10
 3048.2877791472
  20
 1757.7106683541
  30
0.0
  11
 3084.8778765704
  21
 1794.3007657773
  31
0.0
   0
LINE
   5
351
 100
AcDbEntity
   8
LEVEL001
 370
13
 100
AcDbLine
   6
CONTINUOUS
  62
5
  10
 3100.7877791480
  20
 1794.3007657773
  30
0.0
  11
 3056.2427304360
  21
 1749.7557170653
  31
0.0
   0
LINE
   5
352
 100
AcDbEntity
   8
LEVEL001
 370
13
 100
AcDbLine
   6
CONTINUOUS
  62
5
  10
 3121.4679739946
  20
 1741.8007657773
  30
0.0
  11
 3092.8328278592
  21
 1770.4359119126
  31
0.0
   0
LINE
   5
353
 100
AcDbEntity
   8
LEVEL001
 370
13
 100
AcDbLine
   6
CONTINUOUS
  62
5
  10
 3100.7877791474
  20
 1778.3908632008
  30
0.0
  11
 3137.3778765710
  21
 1741.8007657773
  31
0.0
   0
LINE
   5
354
 100
AcDbEntity
   8
LEVEL001
 370
13
 100
AcDbLine
   6
CONTINUOUS
  62
5
  10
 3153.2877791474
  20
 1741.8007657773
  30
0.0
  11
 3108.7427304356
  21
 1786.3458144890
  31
0.0
   0
LINE
   5
355
 100
AcDbEntity
   8
LEVEL001
 370
13
 100
AcDbLine
   6
CONTINUOUS
  62
5
  10
 3116.6976817240
  20
 1794.3007657773
  30
0.0
  11
 3153.2877791474
  21
 1757.7106683540
  31
0.0
   0
LINE
   5
356
 100
AcDbEntity
   8
LEVEL001
 370
13
 100
AcDbLine
   6
CONTINUOUS
  62
5
  10
 2779.3963263336
  20
 1794.3007657773
  30
0.0
  11
 3153.2877791474
  21
 1794.3007657773
  31
0.0
   0
LINE
   5
357
 100
AcDbEntity
   8
LEVEL001
 370
13
 100
AcDbLine
   6
CONTINUOUS
  62
5
  10
 2803.2877791474
  20
 894.30076577732
  30
0.0
  11
 2753.2877791474
  21
 794.30076577732
  31
0.0
   0
LINE
   5
358
 100
AcDbEntity
   8
LEVEL001
 370
13
 100
AcDbLine
   6
CONTINUOUS
  62
5
  10
 2753.2877791474
  20
 894.30076577732
  30
0.0
  11
 2793.2877791474
  21
 874.30076577732
  31
0.0
   0
LINE
   5
359
 100
AcDbEntity
   8
LEVEL001
 370
13
 100
AcDbLine
   6
CONTINUOUS
  62
5
  10
 2803.2877791474
  20
 794.30076577732
  30
0.0
  11
 2763.2877791474
  21
 814.30076577732
  31
0.0
   0
LINE
   5
35A
 100
AcDbEntity
   8
LEVEL001
 370
13
 100
AcDbLine
   6
CONTINUOUS
  62
5
  10
 2553.2877791474
  20
 894.30076577732
  30
0.0
  11
 2503.2877791474
  21
 794.30076577732
  31
0.0
   0
LINE
   5
35B
 100
AcDbEntity
   8
LEVEL001
 370
13
 100
AcDbLine
   6
CONTINUOUS
  62
5
  10
 2503.2877791474
  20
 894.30076577732
  30
0.0
  11
 2543.2877791474
  21
 874.30076577732
  31
0.0
   0
LINE
   5
35C
 100
AcDbEntity
   8
LEVEL001
 370
13
 100
AcDbLine
   6
CONTINUOUS
  62
5
  10
 2503.2877791474
  20
 894.30076577732
  30
0.0
  11
 2453.2877791474
  21
 794.30076577732
  31
0.0
   0
LINE
   5
35D
 100
AcDbEntity
   8
LEVEL001
 370
13
 100
AcDbLine
   6
CONTINUOUS
  62
5
  10
 2453.2877791474
  20
 894.30076577732
  30
0.0
  11
 2493.2877791474
  21
 874.30076577732
  31
0.0
   0
LINE
   5
35E
 100
AcDbEntity
   8
LEVEL001
 370
13
 100
AcDbLine
   6
CONTINUOUS
  62
5
  10
 2453.2877791474
  20
 894.30076577732
  30
0.0
  11
 2403.2877791474
  21
 794.30076577732
  31
0.0
   0
LINE
   5
35F
 100
AcDbEntity
   8
LEVEL001
 370
13
 100
AcDbLine
   6
CONTINUOUS
  62
5
  10
 2403.2877791474
  20
 894.30076577732
  30
0.0
  11
 2443.2877791474
  21
 874.30076577732
  31
0.0
   0
LINE
   5
360
 100
AcDbEntity
   8
LEVEL001
 370
13
 100
AcDbLine
   6
CONTINUOUS
  62
5
  10
 2553.2877791474
  20
 794.30076577732
  30
0.0
  11
 2513.2877791474
  21
 814.30076577732
  31
0.0
   0
LINE
   5
361
 100
AcDbEntity
   8
LEVEL001
 370
13
 100
AcDbLine
   6
CONTINUOUS
  62
5
  10
 2503.2877791474
  20
 794.30076577732
  30
0.0
  11
 2463.2877791474
  21
 814.30076577732
  31
0.0
   0
LINE
   5
362
 100
AcDbEntity
   8
LEVEL001
 370
13
 100
AcDbLine
   6
CONTINUOUS
  62
5
  10
 2453.2877791474
  20
 794.30076577732
  30
0.0
  11
 2413.2877791474
  21
 814.30076577732
  31
0.0
   0
LINE
   5
363
 100
AcDbEntity
   8
LEVEL001
 370
13
 100
AcDbLine
   6
CONTINUOUS
  62
5
  10
 2403.2877791474
  20
 894.30076577732
  30
0.0
  11
 2403.2877791474
  21
 794.30076577732
  31
0.0
   0
LINE
   5
364
 100
AcDbEntity
   8
LEVEL001
 370
13
 100
AcDbLine
   6
CONTINUOUS
  62
5
  10
 2403.2877791474
  20
 1794.3007657773
  30
0.0
  11
 2403.2877791474
  21
 894.30076577732
  31
0.0
   0
LINE
   5
365
 100
AcDbEntity
   8
LEVEL001
 370
13
 100
AcDbLine
   6
CONTINUOUS
  62
5
  10
 2615.1377791474
  20
 1329.6561048366
  30
0.0
  11
 2403.2877791474
  21
 1117.8061048366
  31
0.0
   0
LINE
   5
366
 100
AcDbEntity
   8
LEVEL001
 370
13
 100
AcDbLine
   6
CONTINUOUS
  62
5
  10
 2403.2877791474
  20
 1082.4507657773
  30
0.0
  11
 2615.1377791474
  21
 1294.3007657773
  31
0.0
   0
LINE
   5
367
 100
AcDbEntity
   8
LEVEL001
 370
13
 100
AcDbLine
   6
CONTINUOUS
  62
5
  10
 2615.1377791474
  20
 1258.9454267180
  30
0.0
  11
 2403.2877791474
  21
 1047.0954267180
  31
0.0
   0
LINE
   5
368
 100
AcDbEntity
   8
LEVEL001
 370
13
 100
AcDbLine
   6
CONTINUOUS
  62
5
  10
 2314.1976817240
  20
 1741.8007657773
  30
0.0
  11
 2366.6976817240
  21
 1794.3007657773
  31
0.0
   0
LINE
   5
369
 100
AcDbEntity
   8
LEVEL001
 370
13
 100
AcDbLine
   6
CONTINUOUS
  62
5
  10
 2298.2877791472
  20
 1757.7106683541
  30
0.0
  11
 2334.8778765704
  21
 1794.3007657773
  31
0.0
   0
LINE
   5
36A
 100
AcDbEntity
   8
LEVEL001
 370
13
 100
AcDbLine
   6
CONTINUOUS
  62
5
  10
 2350.7877791480
  20
 1794.3007657773
  30
0.0
  11
 2306.2427304360
  21
 1749.7557170653
  31
0.0
   0
LINE
   5
36B
 100
AcDbEntity
   8
LEVEL001
 370
13
 100
AcDbLine
   6
CONTINUOUS
  62
5
  10
 2371.4679739946
  20
 1741.8007657773
  30
0.0
  11
 2342.8328278592
  21
 1770.4359119126
  31
0.0
   0
LINE
   5
36C
 100
AcDbEntity
   8
LEVEL001
 370
13
 100
AcDbLine
   6
CONTINUOUS
  62
5
  10
 2350.7877791474
  20
 1778.3908632008
  30
0.0
  11
 2387.3778765710
  21
 1741.8007657773
  31
0.0
   0
LINE
   5
36D
 100
AcDbEntity
   8
LEVEL001
 370
13
 100
AcDbLine
   6
CONTINUOUS
  62
5
  10
 2403.2877791474
  20
 1741.8007657773
  30
0.0
  11
 2358.7427304356
  21
 1786.3458144890
  31
0.0
   0
LINE
   5
36E
 100
AcDbEntity
   8
LEVEL001
 370
13
 100
AcDbLine
   6
CONTINUOUS
  62
5
  10
 2213.9679739940
  20
 1794.3007657773
  30
0.0
  11
 2161.4679739940
  21
 1741.8007657773
  31
0.0
   0
LINE
   5
36F
 100
AcDbEntity
   8
LEVEL001
 370
13
 100
AcDbLine
   6
CONTINUOUS
  62
5
  10
 2177.3778765702
  20
 1741.8007657773
  30
0.0
  11
 2229.8778765702
  21
 1794.3007657773
  31
0.0
   0
LINE
   5
370
 100
AcDbEntity
   8
LEVEL001
 370
13
 100
AcDbLine
   6
CONTINUOUS
  62
5
  10
 2245.7877791478
  20
 1794.3007657773
  30
0.0
  11
 2193.2877791478
  21
 1741.8007657773
  31
0.0
   0
LINE
   5
371
 100
AcDbEntity
   8
LEVEL001
 370
13
 100
AcDbLine
   6
CONTINUOUS
  62
5
  10
 2209.1976817238
  20
 1741.8007657773
  30
0.0
  11
 2261.6976817238
  21
 1794.3007657773
  31
0.0
   0
LINE
   5
372
 100
AcDbEntity
   8
LEVEL001
 370
13
 100
AcDbLine
   6
CONTINUOUS
  62
5
  10
 2266.4679739944
  20
 1741.8007657773
  30
0.0
  11
 2237.8328278590
  21
 1770.4359119126
  31
0.0
   0
LINE
   5
373
 100
AcDbEntity
   8
LEVEL001
 370
13
 100
AcDbLine
   6
CONTINUOUS
  62
5
  10
 2245.7877791472
  20
 1778.3908632008
  30
0.0
  11
 2282.3778765708
  21
 1741.8007657773
  31
0.0
   0
LINE
   5
374
 100
AcDbEntity
   8
LEVEL001
 370
13
 100
AcDbLine
   6
CONTINUOUS
  62
5
  10
 2298.2877791472
  20
 1741.8007657773
  30
0.0
  11
 2253.7427304354
  21
 1786.3458144890
  31
0.0
   0
LINE
   5
375
 100
AcDbEntity
   8
LEVEL001
 370
13
 100
AcDbLine
   6
CONTINUOUS
  62
5
  10
 2261.6976817238
  20
 1794.3007657773
  30
0.0
  11
 2314.1976817240
  21
 1741.8007657773
  31
0.0
   0
LINE
   5
376
 100
AcDbEntity
   8
LEVEL001
 370
13
 100
AcDbLine
   6
CONTINUOUS
  62
5
  10
 2318.9679739942
  20
 1794.3007657773
  30
0.0
  11
 2290.3328278590
  21
 1765.6656196421
  31
0.0
   0
LINE
   5
377
 100
AcDbEntity
   8
LEVEL001
 370
13
 100
AcDbLine
   6
CONTINUOUS
  62
5
  10
 2366.6976817240
  20
 1794.3007657773
  30
0.0
  11
 2403.2877791474
  21
 1757.7106683540
  31
0.0
   0
LINE
   5
378
 100
AcDbEntity
   8
LEVEL001
 370
13
 100
AcDbLine
   6
CONTINUOUS
  62
5
  10
 2683.3205370234
  20
 1794.3007657773
  30
0.0
  11
 2153.2877791474
  21
 1794.3007657773
  31
0.0
   0
MTEXT
   5
379
 100
AcDbEntity
   8
LEVEL001
 370
13
  62
1
 100
AcDbMText
  10
 1853.2877791474
  20
 2815.7293372059
  30
0.0
  40
 42.857142857142
  41
0.0
  71
1
  72
1
   1
{\T1.000000;支柱}\P%%c{\T1.000000;７６}{\T1.000000;.}{\T1.000000;３×３}{\T1.000000;.}{\T1.000000;２ｔ}\P{\T1.000000;×４０００Ｌ}
   7
GMM002
  44
 0.79999984000003
   0
LINE
   5
37A
 100
AcDbEntity
   8
LEVEL001
 370
13
 100
AcDbLine
   6
CONTINUOUS
  62
5
  10
 1753.2877791474
  20
 894.30076577732
  30
0.0
  11
 1703.2877791474
  21
 794.30076577732
  31
0.0
   0
LINE
   5
37B
 100
AcDbEntity
   8
LEVEL001
 370
13
 100
AcDbLine
   6
CONTINUOUS
  62
5
  10
 1703.2877791474
  20
 894.30076577732
  30
0.0
  11
 1743.2877791474
  21
 874.30076577732
  31
0.0
   0
LINE
   5
37C
 100
AcDbEntity
   8
LEVEL001
 370
13
 100
AcDbLine
   6
CONTINUOUS
  62
5
  10
 1703.2877791474
  20
 894.30076577732
  30
0.0
  11
 1653.2877791474
  21
 794.30076577732
  31
0.0
   0
LINE
   5
37D
 100
AcDbEntity
   8
LEVEL001
 370
13
 100
AcDbLine
   6
CONTINUOUS
  62
5
  10
 1653.2877791474
  20
 894.30076577732
  30
0.0
  11
 1693.2877791474
  21
 874.30076577732
  31
0.0
   0
LINE
   5
37E
 100
AcDbEntity
   8
LEVEL001
 370
13
 100
AcDbLine
   6
CONTINUOUS
  62
5
  10
 1653.2877791474
  20
 894.30076577732
  30
0.0
  11
 1603.2877791474
  21
 794.30076577732
  31
0.0
   0
LINE
   5
37F
 100
AcDbEntity
   8
LEVEL001
 370
13
 100
AcDbLine
   6
CONTINUOUS
  62
5
  10
 1603.2877791474
  20
 894.30076577732
  30
0.0
  11
 1643.2877791474
  21
 874.30076577732
  31
0.0
   0
LINE
   5
380
 100
AcDbEntity
   8
LEVEL001
 370
13
 100
AcDbLine
   6
CONTINUOUS
  62
5
  10
 1753.2877791474
  20
 794.30076577732
  30
0.0
  11
 1713.2877791474
  21
 814.30076577732
  31
0.0
   0
LINE
   5
381
 100
AcDbEntity
   8
LEVEL001
 370
13
 100
AcDbLine
   6
CONTINUOUS
  62
5
  10
 1703.2877791474
  20
 794.30076577732
  30
0.0
  11
 1663.2877791474
  21
 814.30076577732
  31
0.0
   0
LINE
   5
382
 100
AcDbEntity
   8
LEVEL001
 370
13
 100
AcDbLine
   6
CONTINUOUS
  62
5
  10
 1653.2877791474
  20
 794.30076577732
  30
0.0
  11
 1613.2877791474
  21
 814.30076577732
  31
0.0
   0
LINE
   5
383
 100
AcDbEntity
   8
LEVEL001
 370
13
 100
AcDbLine
   6
CONTINUOUS
  62
5
  10
 1253.2877791474
  20
 794.30076577732
  30
0.0
  11
 1753.2877791474
  21
 794.30076577732
  31
0.0
   0
LINE
   5
384
 100
AcDbEntity
   8
LEVEL001
 370
13
 100
AcDbLine
   6
CONTINUOUS
  62
5
  10
 1753.2877791474
  20
 794.30076577732
  30
0.0
  11
 1753.2877791474
  21
 894.30076577732
  31
0.0
   0
LINE
   5
385
 100
AcDbEntity
   8
LEVEL001
 370
13
 100
AcDbLine
   6
CONTINUOUS
  62
5
  10
 1753.2877791474
  20
 894.30076577732
  30
0.0
  11
 1253.2877791474
  21
 894.30076577732
  31
0.0
   0
LINE
   5
386
 100
AcDbEntity
   8
LEVEL001
 370
13
 100
AcDbLine
   6
CONTINUOUS
  62
5
  10
 1253.2877791474
  20
 894.30076577732
  30
0.0
  11
 1753.2877791474
  21
 894.30076577732
  31
0.0
   0
LINE
   5
387
 100
AcDbEntity
   8
LEVEL001
 370
13
 100
AcDbLine
   6
CONTINUOUS
  62
5
  10
 1753.2877791474
  20
 894.30076577732
  30
0.0
  11
 1753.2877791474
  21
 1794.3007657773
  31
0.0
   0
LINE
   5
388
 100
AcDbEntity
   8
LEVEL001
 370
13
 100
AcDbLine
   6
CONTINUOUS
  62
5
  10
 1753.2877791474
  20
 1617.8061048366
  30
0.0
  11
 1541.4377791474
  21
 1405.9561048366
  31
0.0
   0
LINE
   5
389
 100
AcDbEntity
   8
LEVEL001
 370
13
 100
AcDbLine
   6
CONTINUOUS
  62
5
  10
 1541.4377791474
  20
 1370.6007657773
  30
0.0
  11
 1753.2877791474
  21
 1582.4507657773
  31
0.0
   0
LINE
   5
38A
 100
AcDbEntity
   8
LEVEL001
 370
13
 100
AcDbLine
   6
CONTINUOUS
  62
5
  10
 1753.2877791474
  20
 1547.0954267180
  30
0.0
  11
 1541.4377791474
  21
 1335.2454267180
  31
0.0
   0
LINE
   5
38B
 100
AcDbEntity
   8
LEVEL001
 370
13
 100
AcDbLine
   6
CONTINUOUS
  62
5
  10
 1813.9679739941
  20
 1794.3007657773
  30
0.0
  11
 1761.4679739941
  21
 1741.8007657773
  31
0.0
   0
LINE
   5
38C
 100
AcDbEntity
   8
LEVEL001
 370
13
 100
AcDbLine
   6
CONTINUOUS
  62
5
  10
 1777.3778765701
  20
 1741.8007657773
  30
0.0
  11
 1829.8778765701
  21
 1794.3007657773
  31
0.0
   0
LINE
   5
38D
 100
AcDbEntity
   8
LEVEL001
 370
13
 100
AcDbLine
   6
CONTINUOUS
  62
5
  10
 1845.7877791477
  20
 1794.3007657773
  30
0.0
  11
 1793.2877791477
  21
 1741.8007657773
  31
0.0
   0
LINE
   5
38E
 100
AcDbEntity
   8
LEVEL001
 370
13
 100
AcDbLine
   6
CONTINUOUS
  62
5
  10
 1809.1976817238
  20
 1741.8007657773
  30
0.0
  11
 1861.6976817238
  21
 1794.3007657773
  31
0.0
   0
LINE
   5
38F
 100
AcDbEntity
   8
LEVEL001
 370
13
 100
AcDbLine
   6
CONTINUOUS
  62
5
  10
 1866.4679739944
  20
 1741.8007657773
  30
0.0
  11
 1837.8328278591
  21
 1770.4359119126
  31
0.0
   0
LINE
   5
390
 100
AcDbEntity
   8
LEVEL001
 370
13
 100
AcDbLine
   6
CONTINUOUS
  62
5
  10
 1845.7877791473
  20
 1778.3908632008
  30
0.0
  11
 1882.3778765708
  21
 1741.8007657773
  31
0.0
   0
LINE
   5
391
 100
AcDbEntity
   8
LEVEL001
 370
13
 100
AcDbLine
   6
CONTINUOUS
  62
5
  10
 1898.2877791472
  20
 1741.8007657773
  30
0.0
  11
 1853.7427304355
  21
 1786.3458144890
  31
0.0
   0
LINE
   5
392
 100
AcDbEntity
   8
LEVEL001
 370
13
 100
AcDbLine
   6
CONTINUOUS
  62
5
  10
 1861.6976817238
  20
 1794.3007657773
  30
0.0
  11
 1914.1976817240
  21
 1741.8007657773
  31
0.0
   0
LINE
   5
393
 100
AcDbEntity
   8
LEVEL001
 370
13
 100
AcDbLine
   6
CONTINUOUS
  62
5
  10
 1914.1976817240
  20
 1741.8007657773
  30
0.0
  11
 1966.6976817240
  21
 1794.3007657773
  31
0.0
   0
LINE
   5
394
 100
AcDbEntity
   8
LEVEL001
 370
13
 100
AcDbLine
   6
CONTINUOUS
  62
5
  10
 1918.9679739943
  20
 1794.3007657773
  30
0.0
  11
 1890.3328278591
  21
 1765.6656196421
  31
0.0
   0
LINE
   5
395
 100
AcDbEntity
   8
LEVEL001
 370
13
 100
AcDbLine
   6
CONTINUOUS
  62
5
  10
 1898.2877791471
  20
 1757.7106683541
  30
0.0
  11
 1934.8778765704
  21
 1794.3007657773
  31
0.0
   0
LINE
   5
396
 100
AcDbEntity
   8
LEVEL001
 370
13
 100
AcDbLine
   6
CONTINUOUS
  62
5
  10
 1950.7877791480
  20
 1794.3007657773
  30
0.0
  11
 1906.2427304359
  21
 1749.7557170653
  31
0.0
   0
LINE
   5
397
 100
AcDbEntity
   8
LEVEL001
 370
13
 100
AcDbLine
   6
CONTINUOUS
  62
5
  10
 1971.4679739946
  20
 1741.8007657773
  30
0.0
  11
 1942.8328278592
  21
 1770.4359119126
  31
0.0
   0
LINE
   5
398
 100
AcDbEntity
   8
LEVEL001
 370
13
 100
AcDbLine
   6
CONTINUOUS
  62
5
  10
 1950.7877791474
  20
 1778.3908632008
  30
0.0
  11
 1987.3778765710
  21
 1741.8007657773
  31
0.0
   0
LINE
   5
399
 100
AcDbEntity
   8
LEVEL001
 370
13
 100
AcDbLine
   6
CONTINUOUS
  62
5
  10
 2003.2877791474
  20
 1741.8007657773
  30
0.0
  11
 1958.7427304356
  21
 1786.3458144890
  31
0.0
   0
LINE
   5
39A
 100
AcDbEntity
   8
LEVEL001
 370
13
 100
AcDbLine
   6
CONTINUOUS
  62
5
  10
 1966.6976817240
  20
 1794.3007657773
  30
0.0
  11
 2003.2877791474
  21
 1757.7106683540
  31
0.0
   0
LINE
   5
39B
 100
AcDbEntity
   8
LEVEL001
 370
13
 100
AcDbLine
   6
CONTINUOUS
  62
5
  10
 1541.4377791474
  20
 1794.3007657773
  30
0.0
  11
 2003.2877791474
  21
 1794.3007657773
  31
0.0
   0
LINE
   5
39C
 100
AcDbEntity
   8
LEVEL001
 370
13
 100
AcDbLine
   6
CONTINUOUS
  62
5
  10
 1465.1377791474
  20
 1329.6561048366
  30
0.0
  11
 1253.2877791474
  21
 1117.8061048366
  31
0.0
   0
LINE
   5
39D
 100
AcDbEntity
   8
LEVEL001
 370
13
 100
AcDbLine
   6
CONTINUOUS
  62
5
  10
 1253.2877791474
  20
 1082.4507657773
  30
0.0
  11
 1465.1377791474
  21
 1294.3007657773
  31
0.0
   0
LINE
   5
39E
 100
AcDbEntity
   8
LEVEL001
 370
13
 100
AcDbLine
   6
CONTINUOUS
  62
5
  10
 1465.1377791474
  20
 1258.9454267180
  30
0.0
  11
 1253.2877791474
  21
 1047.0954267180
  31
0.0
   0
LINE
   5
39F
 100
AcDbEntity
   8
LEVEL001
 370
13
 100
AcDbLine
   6
CONTINUOUS
  62
5
  10
 1253.2877791474
  20
 1794.3007657773
  30
0.0
  11
 1253.2877791474
  21
 894.30076577732
  31
0.0
   0
LINE
   5
3A0
 100
AcDbEntity
   8
LEVEL001
 370
13
 100
AcDbLine
   6
CONTINUOUS
  62
5
  10
 1164.1976817240
  20
 1741.8007657773
  30
0.0
  11
 1216.6976817240
  21
 1794.3007657773
  31
0.0
   0
LINE
   5
3A1
 100
AcDbEntity
   8
LEVEL001
 370
13
 100
AcDbLine
   6
CONTINUOUS
  62
5
  10
 1148.2877791471
  20
 1757.7106683541
  30
0.0
  11
 1184.8778765703
  21
 1794.3007657773
  31
0.0
   0
LINE
   5
3A2
 100
AcDbEntity
   8
LEVEL001
 370
13
 100
AcDbLine
   6
CONTINUOUS
  62
5
  10
 1200.7877791479
  20
 1794.3007657773
  30
0.0
  11
 1156.2427304359
  21
 1749.7557170653
  31
0.0
   0
LINE
   5
3A3
 100
AcDbEntity
   8
LEVEL001
 370
13
 100
AcDbLine
   6
CONTINUOUS
  62
5
  10
 1221.4679739945
  20
 1741.8007657773
  30
0.0
  11
 1192.8328278592
  21
 1770.4359119126
  31
0.0
   0
LINE
   5
3A4
 100
AcDbEntity
   8
LEVEL001
 370
13
 100
AcDbLine
   6
CONTINUOUS
  62
5
  10
 1200.7877791475
  20
 1778.3908632008
  30
0.0
  11
 1237.3778765710
  21
 1741.8007657773
  31
0.0
   0
LINE
   5
3A5
 100
AcDbEntity
   8
LEVEL001
 370
13
 100
AcDbLine
   6
CONTINUOUS
  62
5
  10
 1253.2877791474
  20
 1741.8007657773
  30
0.0
  11
 1208.7427304357
  21
 1786.3458144890
  31
0.0
   0
LINE
   5
3A6
 100
AcDbEntity
   8
LEVEL001
 370
13
 100
AcDbLine
   6
CONTINUOUS
  62
5
  10
 1063.9679739941
  20
 1794.3007657773
  30
0.0
  11
 1011.4679739941
  21
 1741.8007657773
  31
0.0
   0
LINE
   5
3A7
 100
AcDbEntity
   8
LEVEL001
 370
13
 100
AcDbLine
   6
CONTINUOUS
  62
5
  10
 1027.3778765701
  20
 1741.8007657773
  30
0.0
  11
 1079.8778765701
  21
 1794.3007657773
  31
0.0
   0
LINE
   5
3A8
 100
AcDbEntity
   8
LEVEL001
 370
13
 100
AcDbLine
   6
CONTINUOUS
  62
5
  10
 1095.7877791477
  20
 1794.3007657773
  30
0.0
  11
 1043.2877791477
  21
 1741.8007657773
  31
0.0
   0
LINE
   5
3A9
 100
AcDbEntity
   8
LEVEL001
 370
13
 100
AcDbLine
   6
CONTINUOUS
  62
5
  10
 1059.1976817238
  20
 1741.8007657773
  30
0.0
  11
 1111.6976817238
  21
 1794.3007657773
  31
0.0
   0
LINE
   5
3AA
 100
AcDbEntity
   8
LEVEL001
 370
13
 100
AcDbLine
   6
CONTINUOUS
  62
5
  10
 1116.4679739944
  20
 1741.8007657773
  30
0.0
  11
 1087.8328278591
  21
 1770.4359119126
  31
0.0
   0
LINE
   5
3AB
 100
AcDbEntity
   8
LEVEL001
 370
13
 100
AcDbLine
   6
CONTINUOUS
  62
5
  10
 1095.7877791473
  20
 1778.3908632008
  30
0.0
  11
 1132.3778765708
  21
 1741.8007657773
  31
0.0
   0
LINE
   5
3AC
 100
AcDbEntity
   8
LEVEL001
 370
13
 100
AcDbLine
   6
CONTINUOUS
  62
5
  10
 1148.2877791472
  20
 1741.8007657773
  30
0.0
  11
 1103.7427304355
  21
 1786.3458144890
  31
0.0
   0
LINE
   5
3AD
 100
AcDbEntity
   8
LEVEL001
 370
13
 100
AcDbLine
   6
CONTINUOUS
  62
5
  10
 1111.6976817238
  20
 1794.3007657773
  30
0.0
  11
 1164.1976817240
  21
 1741.8007657773
  31
0.0
   0
LINE
   5
3AE
 100
AcDbEntity
   8
LEVEL001
 370
13
 100
AcDbLine
   6
CONTINUOUS
  62
5
  10
 1168.9679739943
  20
 1794.3007657773
  30
0.0
  11
 1140.3328278591
  21
 1765.6656196421
  31
0.0
   0
LINE
   5
3AF
 100
AcDbEntity
   8
LEVEL001
 370
13
 100
AcDbLine
   6
CONTINUOUS
  62
5
  10
 1216.6976817240
  20
 1794.3007657773
  30
0.0
  11
 1253.2877791474
  21
 1757.7106683540
  31
0.0
   0
LINE
   5
3B0
 100
AcDbEntity
   8
LEVEL001
 370
13
 100
AcDbLine
   6
CONTINUOUS
  62
5
  10
 1465.1377791474
  20
 1794.3007657773
  30
0.0
  11
 1003.2877791474
  21
 1794.3007657773
  31
0.0
   0
LINE
   5
3B1
 100
AcDbEntity
   8
LEVEL001
 370
13
 100
AcDbLine
   6
CONTINUOUS
  62
5
  10
 1403.2877791474
  20
 894.30076577732
  30
0.0
  11
 1353.2877791474
  21
 794.30076577732
  31
0.0
   0
LINE
   5
3B2
 100
AcDbEntity
   8
LEVEL001
 370
13
 100
AcDbLine
   6
CONTINUOUS
  62
5
  10
 1353.2877791474
  20
 894.30076577732
  30
0.0
  11
 1393.2877791474
  21
 874.30076577732
  31
0.0
   0
LINE
   5
3B3
 100
AcDbEntity
   8
LEVEL001
 370
13
 100
AcDbLine
   6
CONTINUOUS
  62
5
  10
 1353.2877791474
  20
 894.30076577732
  30
0.0
  11
 1303.2877791474
  21
 794.30076577732
  31
0.0
   0
LINE
   5
3B4
 100
AcDbEntity
   8
LEVEL001
 370
13
 100
AcDbLine
   6
CONTINUOUS
  62
5
  10
 1303.2877791474
  20
 894.30076577732
  30
0.0
  11
 1343.2877791474
  21
 874.30076577732
  31
0.0
   0
LINE
   5
3B5
 100
AcDbEntity
   8
LEVEL001
 370
13
 100
AcDbLine
   6
CONTINUOUS
  62
5
  10
 1303.2877791474
  20
 894.30076577732
  30
0.0
  11
 1253.2877791474
  21
 794.30076577732
  31
0.0
   0
LINE
   5
3B6
 100
AcDbEntity
   8
LEVEL001
 370
13
 100
AcDbLine
   6
CONTINUOUS
  62
5
  10
 1253.2877791474
  20
 894.30076577732
  30
0.0
  11
 1293.2877791474
  21
 874.30076577732
  31
0.0
   0
LINE
   5
3B7
 100
AcDbEntity
   8
LEVEL001
 370
13
 100
AcDbLine
   6
CONTINUOUS
  62
5
  10
 1403.2877791474
  20
 794.30076577732
  30
0.0
  11
 1363.2877791474
  21
 814.30076577732
  31
0.0
   0
LINE
   5
3B8
 100
AcDbEntity
   8
LEVEL001
 370
13
 100
AcDbLine
   6
CONTINUOUS
  62
5
  10
 1353.2877791474
  20
 794.30076577732
  30
0.0
  11
 1313.2877791474
  21
 814.30076577732
  31
0.0
   0
LINE
   5
3B9
 100
AcDbEntity
   8
LEVEL001
 370
13
 100
AcDbLine
   6
CONTINUOUS
  62
5
  10
 1303.2877791474
  20
 794.30076577732
  30
0.0
  11
 1263.2877791474
  21
 814.30076577732
  31
0.0
   0
LINE
   5
3BA
 100
AcDbEntity
   8
LEVEL001
 370
13
 100
AcDbLine
   6
CONTINUOUS
  62
5
  10
 1253.2877791474
  20
 894.30076577732
  30
0.0
  11
 1253.2877791474
  21
 794.30076577732
  31
0.0
   0
DIMENSION
   5
3BB
 100
AcDbEntity
   8
0
 370
13
   6
CONTINUOUS
  62
1
 100
AcDbDimension
   2
*D14
  10
 1253.2877791474
  20
 594.30076577732
  30
0.0
  11
 1503.2877791474
  21
 594.30076577732
  31
0.0
  70
0
   3
GMM003
 100
AcDbAlignedDimension
  13
 1753.2877791474
  23
 794.30076577732
  33
0.0
  14
 1253.2877791474
  24
 794.30076577732
  34
0.0
  50
 180.00000000000
 100
AcDbRotatedDimension
   0
DIMENSION
   5
3BC
 100
AcDbEntity
   8
0
 370
13
   6
CONTINUOUS
  62
1
 100
AcDbDimension
   2
*D15
  10
 2903.2877791474
  20
 594.30076577732
  30
0.0
  11
 2653.2877791474
  21
 594.30076577732
  31
0.0
  70
0
   3
GMM003
 100
AcDbAlignedDimension
  13
 2403.2877791474
  23
 794.30076577732
  33
0.0
  14
 2903.2877791474
  24
 794.30076577732
  34
0.0
 100
AcDbRotatedDimension
   0
DIMENSION
   5
3BD
 100
AcDbEntity
   8
0
 370
13
   6
CONTINUOUS
  62
1
 100
AcDbDimension
   2
*D16
  10
 753.28777914739
  20
 1794.3007657773
  30
0.0
  11
 753.28777914739
  21
 3044.3007657773
  31
0.0
  70
0
   1
\A1;2500(標準設置高さ)
   3
GMM004
 100
AcDbAlignedDimension
  13
 1465.1377791474
  23
 4294.3007657773
  33
0.0
  14
 1003.2877791474
  24
 1794.3007657773
  34
0.0
  50
 270.00000000000
 100
AcDbRotatedDimension
   0
DIMENSION
   5
3BE
 100
AcDbEntity
   8
0
 370
13
   6
CONTINUOUS
  62
1
 100
AcDbDimension
   2
*D17
  10
 1152.5474906147
  20
 4524.3007657773
  30
0.0
  11
 1490.4306362902
  21
 4749.0699904461
  31
0.0
  70
3
   1
\A1;%%c800
   3
GMM005
 100
AcDbDiametricDimension
  15
 1854.0280676801
  25
 4929.3007657773
  35
0.0
   0
DIMENSION
   5
3BF
 100
AcDbEntity
   8
0
 370
13
   6
CONTINUOUS
  62
1
 100
AcDbDimension
   2
*D18
  10
 753.28777914739
  20
 894.30076577732
  30
0.0
  11
 753.28777914739
  21
 1344.3007657773
  31
0.0
  70
0
   3
GMM006
 100
AcDbAlignedDimension
  13
 1003.2877791474
  23
 1794.3007657773
  33
0.0
  14
 1253.2877791474
  24
 894.30076577732
  34
0.0
  50
 270.00000000000
 100
AcDbRotatedDimension
   0
DIMENSION
   5
3C0
 100
AcDbEntity
   8
0
 370
13
   6
CONTINUOUS
  62
1
 100
AcDbDimension
   2
*D19
  10
 753.28777914739
  20
 794.30076577732
  30
0.0
  11
 753.28777914739
  21
 844.30076577732
  31
0.0
  70
0
   3
GMM006
 100
AcDbAlignedDimension
  13
 1253.2877791474
  23
 894.30076577732
  33
0.0
  14
 1253.2877791474
  24
 794.30076577732
  34
0.0
  50
 270.00000000000
 100
AcDbRotatedDimension
   0
DIMENSION
   5
3C1
 100
AcDbEntity
   8
0
 370
13
   6
CONTINUOUS
  62
1
 100
AcDbDimension
   2
*D20
  10
 3003.2877791474
  20
 2794.3007657773
  30
0.0
  11
 2828.2877791474
  21
 2794.3007657773
  31
0.0
  70
0
   3
GMM007
 100
AcDbAlignedDimension
  13
 2653.2877791474
  23
 1694.3007657786
  33
0.0
  14
 3003.2877791474
  24
 2144.3007657787
  34
0.0
 100
AcDbRotatedDimension
   0
MTEXT
   5
3C3
 100
AcDbEntity
   8
LEVEL001
 370
13
  62
1
 100
AcDbMText
  10
 2273.9363843568
  20
 1803.0307028176
  30
0.0
  40
 40.000000000000
  41
0.0
  71
7
  72
1
   1
\T1.000000;ＧＬ
   7
GMM006
  44
 0.79999984000003
   0
MTEXT
   5
3C5
 100
AcDbEntity
   8
LEVEL001
 370
13
  62
1
 100
AcDbMText
  10
 1123.9363843569
  20
 1803.0307028176
  30
0.0
  40
 40.000000000000
  41
0.0
  71
7
  72
1
   1
\T1.000000;ＧＬ
   7
GMM006
  44
 0.79999984000003
   0
ENDSEC
  0
SECTION
  2
OBJECTS
  0
DICTIONARY
  5
C
100
AcDbDictionary
  3
ACAD_GROUP
350
D
  3
ACAD_MLINESTYLE
350
1B
  3
DWGPROPS
350
1C
  0
DICTIONARY
  5
D
102
{ACAD_REACTORS
330
C
102
}
100
AcDbDictionary
  0
DICTIONARY
  5
1B
102
{ACAD_REACTORS
330
C
102
}
100
AcDbDictionary
  3
STANDARD
350
1D
  0
MLINESTYLE
  5
1D
102
{ACAD_REACTORS
330
1B
102
}
100
AcDbMlineStyle
  2
STANDARD
 70
     0
  3

 62
   256
 51
90.0
 52
90.0
 71
     2
 49
0.5
 62
   256
  6
BYLAYER
 49
-0.5
 62
   256
  6
BYLAYER
   0
XRECORD
   5
1C
 102
{ACAD_REACTORS
 330
C
 102
}
 330
C
 100
AcDbXrecord
 280
1
   1
DWGPROPS COOKIE
   2
 
   3
 
   4
 
   6
 
   7
MZH080SCP
   8
 
   9

 300
 = 
 301
 = 
 302
 = 
 303
 = 
 304
 = 
 305
 = 
 306
 = 
 307
 = 
 308
 = 
 309
 = 
  40
0.0
  41
 2460341.5000000
  42
 2460342.5000000
   1

  90
10
   0
ENDSEC
   0
EOF
