   0
SECTION
   2
HEADER
   9
$ACADVER
   1
AC1015
   9
$DWGCODEPAGE
   3
ANSI_932
   9
$LIMMIN
  10
0.0
  20
0.0
   9
$LIMMAX
  10
 8400.0000000000
  20
 5940.0000000000
   9
$EXTMIN
  10
0.0
  20
0.0
  30
0.0
   9
$EXTMAX
  10
 8400.0000000000
  20
 5940.0000000000
  30
0.0
   9
$LTSCALE
  40
 168.00000000000
   9
$HANDSEED
   5
47D
   0
ENDSEC
   0
SECTION
   2
TABLES
  0
TABLE
  2
VPORT
  5
8
100
AcDbSymbolTable
 70
     1
  0
VPORT
  5
47C
100
AcDbSymbolTableRecord
100
AcDbViewportTableRecord
  2
*ACTIVE
 70
     0
 10
0.0
 20
0.0
 11
1.0
 21
1.0
  12
 4200.0000000000
  22
 2970.0000000000
 13
0.0
 23
0.0
 14
1.0
 24
1.0
 15
0.0
 25
0.0
 16
0.0
 26
0.0
 36
1.0
 17
0.0
 27
0.0
 37
0.0
  40
 8400.0000000000
  41
 1.4787878787879
 42
50.0
 43
0.0
 44
0.0
 50
0.0
 51
0.0
 71
     0
 72
   100
 73
     1
 74
     1
 75
     0
 76
     0
 77
     0
 78
     0
  0
ENDTAB
  0
TABLE
  2
LTYPE
  5
5
100
AcDbSymbolTable
 70
    25
  0
LTYPE
  5
12
100
AcDbSymbolTableRecord
100
AcDbLinetypeTableRecord
  2
BYBLOCK
 70
     0
  3

 72
    65
 73
     0
 40
0.0
  0
LTYPE
  5
13
100
AcDbSymbolTableRecord
100
AcDbLinetypeTableRecord
  2
BYLAYER
 70
     0
  3

 72
    65
 73
     0
 40
0.0
  0
LTYPE
  5
14
100
AcDbSymbolTableRecord
100
AcDbLinetypeTableRecord
  2
CONTINUOUS
 70
     0
  3
Solid line
 72
    65
 73
     0
 40
0.0
  0
LTYPE
  5
20
100
AcDbSymbolTableRecord
100
AcDbLinetypeTableRecord
  2
BORDER
 70
     0
  3
__ __ . __ __ . __ __ . __ __ . __ __ . __ __ .
 72
    65
 73
     6
 40
1.75
 49
0.5
 74
     0
 49
-0.25
 74
     0
 49
0.5
 74
     0
 49
-0.25
 74
     0
 49
0.0
 74
     0
 49
-0.25
 74
     0
  0
LTYPE
  5
21
100
AcDbSymbolTableRecord
100
AcDbLinetypeTableRecord
  2
BORDER2
 70
     0
  3
__.__.__.__.__.__.__.__.__.__.__.__.__.__.__.__
 72
    65
 73
     6
 40
0.875
 49
0.25
 74
     0
 49
-0.125
 74
     0
 49
0.25
 74
     0
 49
-0.125
 74
     0
 49
0.0
 74
     0
 49
-0.125
 74
     0
  0
LTYPE
  5
22
100
AcDbSymbolTableRecord
100
AcDbLinetypeTableRecord
  2
BORDERX2
 70
     0
  3
____  ____  .  ____  ____  .  ____  ____  .  __
 72
    65
 73
     6
 40
3.5
 49
1.0
 74
     0
 49
-0.5
 74
     0
 49
1.0
 74
     0
 49
-0.5
 74
     0
 49
0.0
 74
     0
 49
-0.5
 74
     0
  0
LTYPE
  5
23
100
AcDbSymbolTableRecord
100
AcDbLinetypeTableRecord
  2
CENTER
 70
     0
  3
____ _ ____ _ ____ _ ____ _ ____ _ ____ _ ____ 
 72
    65
 73
     4
 40
2.0
 49
1.25
 74
     0
 49
-0.25
 74
     0
 49
0.25
 74
     0
 49
-0.25
 74
     0
  0
LTYPE
  5
24
100
AcDbSymbolTableRecord
100
AcDbLinetypeTableRecord
  2
CENTER2
 70
     0
  3
___ _ ___ _ ___ _ ___ _ ___ _ ___ _ ___ _ ___ _
 72
    65
 73
     4
 40
1.125
 49
0.75
 74
     0
 49
-0.125
 74
     0
 49
0.125
 74
     0
 49
-0.125
 74
     0
  0
LTYPE
  5
25
100
AcDbSymbolTableRecord
100
AcDbLinetypeTableRecord
  2
CENTERX2
 70
     0
  3
________  __  ________  __  ________  __  _____
 72
    65
 73
     4
 40
4.0
 49
2.5
 74
     0
 49
-0.5
 74
     0
 49
0.5
 74
     0
 49
-0.5
 74
     0
  0
LTYPE
  5
26
100
AcDbSymbolTableRecord
100
AcDbLinetypeTableRecord
  2
DASHDOT
 70
     0
  3
__ . __ . __ . __ . __ . __ . __ . __ . __ . __
 72
    65
 73
     4
 40
1.0
 49
0.5
 74
     0
 49
-0.25
 74
     0
 49
0.0
 74
     0
 49
-0.25
 74
     0
  0
LTYPE
  5
27
100
AcDbSymbolTableRecord
100
AcDbLinetypeTableRecord
  2
DASHDOT2
 70
     0
  3
_._._._._._._._._._._._._._._._._._._._._._._._
 72
    65
 73
     4
 40
0.5
 49
0.25
 74
     0
 49
-0.125
 74
     0
 49
0.0
 74
     0
 49
-0.125
 74
     0
  0
LTYPE
  5
28
100
AcDbSymbolTableRecord
100
AcDbLinetypeTableRecord
  2
DASHDOTX2
 70
     0
  3
____  .  ____  .  ____  .  ____  .  ____  .  __
 72
    65
 73
     4
 40
2.0
 49
1.0
 74
     0
 49
-0.5
 74
     0
 49
0.0
 74
     0
 49
-0.5
 74
     0
  0
LTYPE
  5
29
100
AcDbSymbolTableRecord
100
AcDbLinetypeTableRecord
  2
DASHED
 70
     0
  3
__ __ __ __ __ __ __ __ __ __ __ __ __ __ __ __
 72
    65
 73
     2
 40
0.75
 49
0.5
 74
     0
 49
-0.25
 74
     0
  0
LTYPE
  5
2A
100
AcDbSymbolTableRecord
100
AcDbLinetypeTableRecord
  2
DASHED2
 70
     0
  3
_ _ _ _ _ _ _ _ _ _ _ _ _ _ _ _ _ _ _ _ _ _ _ _
 72
    65
 73
     2
 40
0.375
 49
0.25
 74
     0
 49
-0.125
 74
     0
  0
LTYPE
  5
2B
100
AcDbSymbolTableRecord
100
AcDbLinetypeTableRecord
  2
DASHEDX2
 70
     0
  3
____  ____  ____  ____  ____  ____  ____  ____ 
 72
    65
 73
     2
 40
1.5
 49
1.0
 74
     0
 49
-0.5
 74
     0
  0
LTYPE
  5
2C
100
AcDbSymbolTableRecord
100
AcDbLinetypeTableRecord
  2
DIVIDE
 70
     0
  3
____ . . ____ . . ____ . . ____ . . ____ . . __
 72
    65
 73
     6
 40
1.25
 49
0.5
 74
     0
 49
-0.25
 74
     0
 49
0.0
 74
     0
 49
-0.25
 74
     0
 49
0.0
 74
     0
 49
-0.25
 74
     0
  0
LTYPE
  5
2D
100
AcDbSymbolTableRecord
100
AcDbLinetypeTableRecord
  2
DIVIDE2
 70
     0
  3
__..__..__..__..__..__..__..__..__..__..__..__.
 72
    65
 73
     6
 40
0.625
 49
0.25
 74
     0
 49
-0.125
 74
     0
 49
0.0
 74
     0
 49
-0.125
 74
     0
 49
0.0
 74
     0
 49
-0.125
 74
     0
  0
LTYPE
  5
2E
100
AcDbSymbolTableRecord
100
AcDbLinetypeTableRecord
  2
DIVIDEX2
 70
     0
  3
________  .  .  ________  .  .  ________  .  . 
 72
    65
 73
     6
 40
2.5
 49
1.0
 74
     0
 49
-0.5
 74
     0
 49
0.0
 74
     0
 49
-0.5
 74
     0
 49
0.0
 74
     0
 49
-0.5
 74
     0
  0
LTYPE
  5
2F
100
AcDbSymbolTableRecord
100
AcDbLinetypeTableRecord
  2
DOT
 70
     0
  3
. . . . . . . . . . . . . . . . . . . . . . . .
 72
    65
 73
     2
 40
0.25
 49
0.0
 74
     0
 49
-0.25
 74
     0
  0
LTYPE
  5
30
100
AcDbSymbolTableRecord
100
AcDbLinetypeTableRecord
  2
DOT2
 70
     0
  3
...............................................
 72
    65
 73
     2
 40
0.125
 49
0.0
 74
     0
 49
-0.125
 74
     0
  0
LTYPE
  5
31
100
AcDbSymbolTableRecord
100
AcDbLinetypeTableRecord
  2
DOTX2
 70
     0
  3
.  .  .  .  .  .  .  .  .  .  .  .  .  .  .  . 
 72
    65
 73
     2
 40
0.5
 49
0.0
 74
     0
 49
-0.5
 74
     0
  0
LTYPE
  5
32
100
AcDbSymbolTableRecord
100
AcDbLinetypeTableRecord
  2
HIDDEN
 70
     0
  3
__ __ __ __ __ __ __ __ __ __ __ __ __ __ __ __
 72
    65
 73
     2
 40
0.375
 49
0.25
 74
     0
 49
-0.125
 74
     0
  0
LTYPE
  5
33
100
AcDbSymbolTableRecord
100
AcDbLinetypeTableRecord
  2
HIDDEN2
 70
     0
  3
_ _ _ _ _ _ _ _ _ _ _ _ _ _ _ _ _ _ _ _ _ _ _ _
 72
    65
 73
     2
 40
0.1875
 49
0.125
 74
     0
 49
-0.0625
 74
     0
  0
LTYPE
  5
34
100
AcDbSymbolTableRecord
100
AcDbLinetypeTableRecord
  2
HIDDENX2
 70
     0
  3
____ ____ ____ ____ ____ ____ ____ ____ ____ __
 72
    65
 73
     2
 40
0.75
 49
0.5
 74
     0
 49
-0.25
 74
     0
  0
LTYPE
  5
35
100
AcDbSymbolTableRecord
100
AcDbLinetypeTableRecord
  2
PHANTOM
 70
     0
  3
______  __  __  ______  __  __  ______  __  __ 
 72
    65
 73
     6
 40
2.5
 49
1.25
 74
     0
 49
-0.25
 74
     0
 49
0.25
 74
     0
 49
-0.25
 74
     0
 49
0.25
 74
     0
 49
-0.25
 74
     0
  0
LTYPE
  5
36
100
AcDbSymbolTableRecord
100
AcDbLinetypeTableRecord
  2
PHANTOM2
 70
     0
  3
___ _ _ ___ _ _ ___ _ _ ___ _ _ ___ _ _ ___ _ _
 72
    65
 73
     6
 40
1.25
 49
0.625
 74
     0
 49
-0.125
 74
     0
 49
0.125
 74
     0
 49
-0.125
 74
     0
 49
0.125
 74
     0
 49
-0.125
 74
     0
  0
LTYPE
  5
37
100
AcDbSymbolTableRecord
100
AcDbLinetypeTableRecord
  2
PHANTOMX2
 70
     0
  3
____________    ____    ____    ____________   
 72
    65
 73
     6
 40
5.0
 49
2.5
 74
     0
 49
-0.5
 74
     0
 49
0.5
 74
     0
 49
-0.5
 74
     0
 49
0.5
 74
     0
 49
-0.5
 74
     0
  0
ENDTAB
   0
TABLE
   2
LAYER
   5
2
 100
AcDbSymbolTable
  70
2
   0
LAYER
   5
E
 100
AcDbSymbolTableRecord
 100
AcDbLayerTableRecord
   2
0
  70
0
  62
7
   6
CONTINUOUS
 390
30
   0
LAYER
   5
39
 100
AcDbSymbolTableRecord
 100
AcDbLayerTableRecord
   2
LEVEL001
  70
0
  62
7
   6
CONTINUOUS
 390
30
   0
ENDTAB
  0
TABLE
  2
STYLE
  5
3
100
AcDbSymbolTable
  70
7
  0
STYLE
  5
F
100
AcDbSymbolTableRecord
100
AcDbTextStyleTableRecord
  2
STANDARD
 70
     0
 40
0.0
 41
1.0
 50
0.0
 71
     0
 42
0.2
  3
TXT
  4
BIGFONT
  0
STYLE
  5
38
100
AcDbSymbolTableRecord
100
AcDbTextStyleTableRecord
  2
STANDARD1
 70
     4
 40
0.0
 41
1.0
 50
0.0
 71
     0
 42
0.2
  3
TXT
  4
BIGFONT
   0
STYLE
   5
3A
 100
AcDbSymbolTableRecord
 100
AcDbTextStyleTableRecord
   2
GMM001
  70
0
  40
0.0
  41
 1.0000000000000
  50
0.0
  71
     0
  42
1.0
   3

   4

1001
ACAD
1000
ＭＳ ゴシック
1071
32817
   0
STYLE
   5
3B
 100
AcDbSymbolTableRecord
 100
AcDbTextStyleTableRecord
   2
GMM002
  70
0
  40
0.0
  41
 1.0000000000000
  50
0.0
  71
     0
  42
1.0
   3
txt.shx
   4
bigfont.shx
   0
STYLE
   5
3C
 100
AcDbSymbolTableRecord
 100
AcDbTextStyleTableRecord
   2
GMM003
  70
0
  40
0.0
  41
 0.75000000000000
  50
0.0
  71
     0
  42
1.0
   3
txt.shx
   4
bigfont.shx
   0
STYLE
   5
3D
 100
AcDbSymbolTableRecord
 100
AcDbTextStyleTableRecord
   2
GMM004
  70
0
  40
0.0
  41
 0.66666666666667
  50
0.0
  71
     0
  42
1.0
   3

   4

1001
ACAD
1000
ＭＳ ゴシック
1071
32817
   0
STYLE
   5
3E
 100
AcDbSymbolTableRecord
 100
AcDbTextStyleTableRecord
   2
GMM005
  70
0
  40
0.0
  41
 1.5000000000000
  50
0.0
  71
     0
  42
1.0
   3

   4

1001
ACAD
1000
ＭＳ ゴシック
1071
32817
   0
ENDTAB
  0
TABLE
  2
VIEW
  5
6
100
AcDbSymbolTable
 70
     0
  0
ENDTAB
  0
TABLE
  2
UCS
  5
7
100
AcDbSymbolTable
 70
     0
  0
ENDTAB
  0
TABLE
  2
APPID
  5
9
100
AcDbSymbolTable
 70
     1
  0
APPID
  5
10
100
AcDbSymbolTableRecord
100
AcDbRegAppTableRecord
  2
ACAD
 70
     0
  0
ENDTAB
   0
TABLE
   2
DIMSTYLE
   5
A
 100
AcDbSymbolTable
  70
9
 100
AcDbDimStyleTable
  0
DIMSTYLE
105
1D
100
AcDbSymbolTableRecord
100
AcDbDimStyleTableRecord
  2
STANDARD
 70
     0
  3

  4

  5

  6

  7

 40
1.0
 41
0.18
 42
0.0625
 43
0.38
 44
0.18
 45
0.0
 46
0.0
 47
0.0
 48
0.0
140
0.18
141
0.09
142
0.0
143
25.4
144
1.0
145
0.0
146
1.0
147
0.09
 71
     0
 72
     0
 73
     1
 74
     1
 75
     0
 76
     0
 77
     0
 78
     0
170
     0
171
     2
172
     0
173
     0
174
     0
175
     0
176
     0
177
     0
178
     0
270
     2
271
     4
272
     4
273
     2
274
     2
340
F
275
     0
280
     0
281
     0
282
     0
283
     1
284
     0
285
     0
286
     0
287
     3
288
     0
   0
DIMSTYLE
 105
3F
 100
AcDbSymbolTableRecord
 100
AcDbDimStyleTableRecord
   2
GMM001
  70
0
   3

   4

   5

   6
_OPEN
   7
_OPEN
  40
 1.0000000000000
  41
 30.000000000000
  42
 30.000000000000
  43
 160.00000000000
  44
 30.000000000000
  45
0.0
  46
0.0
  47
0.0
  48
0.0
 140
 66.000000000000
 141
 20.000000000000
 142
0.0
 143
 0.39400000000000E-1
 144
 1.0000000000000
 145
0.0
 146
 0.75757575757576
 147
0.0
  71
0
  72
0
  73
0
  74
0
  75
0
  76
0
  77
0
  78
8
 170
0
 171
2
 172
1
 173
1
 174
0
 175
0
 176
1
 177
1
 178
7
 270
2
 271
1
 272
0
 273
2
 274
2
 340
3B
 275
0
 280
0
 281
0
 282
0
 283
1
 284
0
 285
0
 286
0
 287
3
 288
1
   0
DIMSTYLE
 105
40
 100
AcDbSymbolTableRecord
 100
AcDbDimStyleTableRecord
   2
GMM002
  70
0
   3

   4

   5

   6
_OPEN
   7
_OPEN
  40
 1.0000000000000
  41
 42.000000000000
  42
 30.000000000000
  43
 160.00000000000
  44
 30.000000000000
  45
0.0
  46
0.0
  47
0.0
  48
0.0
 140
 60.000000000000
 141
 20.000000000000
 142
0.0
 143
 0.39400000000000E-1
 144
 1.0000000000000
 145
0.0
 146
 0.83333333333333
 147
0.0
  71
0
  72
0
  73
0
  74
0
  75
0
  76
0
  77
0
  78
8
 170
0
 171
2
 172
1
 173
1
 174
0
 175
0
 176
1
 177
1
 178
7
 270
2
 271
1
 272
0
 273
2
 274
2
 340
3B
 275
0
 280
0
 281
0
 282
0
 283
1
 284
0
 285
0
 286
0
 287
3
 288
1
   0
DIMSTYLE
 105
41
 100
AcDbSymbolTableRecord
 100
AcDbDimStyleTableRecord
   2
GMM003
  70
0
   3
%%c<>
   4

   5

   6
_OPEN
   7
_OPEN
  40
 1.0000000000000
  41
 42.000000000000
  42
 30.000000000000
  43
 160.00000000000
  44
 30.000000000000
  45
0.0
  46
0.0
  47
0.0
  48
0.0
 140
 60.000000000000
 141
 20.000000000000
 142
0.0
 143
 0.39400000000000E-1
 144
 1.0000000000000
 145
0.0
 146
 0.83333333333333
 147
 14.000000000000
  71
0
  72
0
  73
0
  74
0
  75
0
  76
0
  77
3
  78
8
 170
0
 171
2
 172
1
 173
1
 174
0
 175
0
 176
6
 177
6
 178
1
 270
2
 271
1
 272
0
 273
2
 274
2
 340
3B
 275
0
 280
0
 281
0
 282
0
 283
1
 284
0
 285
0
 286
0
 287
0
 288
1
   0
DIMSTYLE
 105
42
 100
AcDbSymbolTableRecord
 100
AcDbDimStyleTableRecord
   2
GMM004
  70
0
   3

   4

   5

   6
_OPEN
   7
_OPEN
  40
 1.0000000000000
  41
 42.000000000000
  42
 30.000000000000
  43
 160.00000000000
  44
 30.000000000000
  45
0.0
  46
0.0
  47
0.0
  48
0.0
 140
 60.000000000000
 141
 20.000000000000
 142
0.0
 143
 0.39400000000000E-1
 144
 1.0000000000000
 145
0.0
 146
 0.83333333333333
 147
 25.714285714286
  71
0
  72
0
  73
0
  74
0
  75
0
  76
0
  77
3
  78
8
 170
0
 171
2
 172
1
 173
1
 174
0
 175
0
 176
6
 177
6
 178
1
 270
2
 271
6
 272
0
 273
2
 274
2
 340
3B
 275
1
 280
0
 281
0
 282
0
 283
1
 284
0
 285
0
 286
0
 287
3
 288
0
   0
DIMSTYLE
 105
43
 100
AcDbSymbolTableRecord
 100
AcDbDimStyleTableRecord
   2
GMM005
  70
0
   3

   4

   5

   6
_OPEN
   7
_OPEN
  40
 1.0000000000000
  41
 42.000000000000
  42
 30.000000000000
  43
 160.00000000000
  44
 30.000000000000
  45
0.0
  46
0.0
  47
0.0
  48
0.0
 140
 60.000000000000
 141
 20.000000000000
 142
0.0
 143
 0.39400000000000E-1
 144
 1.0000000000000
 145
0.0
 146
 0.83333333333333
 147
 25.714285714286
  71
0
  72
0
  73
0
  74
0
  75
0
  76
0
  77
3
  78
8
 170
0
 171
2
 172
1
 173
1
 174
0
 175
0
 176
6
 177
6
 178
1
 270
2
 271
6
 272
0
 273
2
 274
2
 340
3B
 275
1
 280
0
 281
0
 282
0
 283
1
 284
0
 285
0
 286
0
 287
3
 288
0
   0
DIMSTYLE
 105
44
 100
AcDbSymbolTableRecord
 100
AcDbDimStyleTableRecord
   2
GMM006
  70
0
   3
□<>
   4

   5

   6
_OPEN
   7
_OPEN
  40
 1.0000000000000
  41
 42.000000000000
  42
 30.000000000000
  43
 160.00000000000
  44
 30.000000000000
  45
0.0
  46
0.0
  47
0.0
  48
0.0
 140
 60.000000000000
 141
 20.000000000000
 142
0.0
 143
 0.39400000000000E-1
 144
 1.0000000000000
 145
0.0
 146
 0.83333333333333
 147
 14.000000000000
  71
0
  72
0
  73
0
  74
0
  75
0
  76
0
  77
3
  78
8
 170
0
 171
2
 172
1
 173
1
 174
0
 175
0
 176
6
 177
6
 178
1
 270
2
 271
1
 272
0
 273
2
 274
2
 340
3B
 275
0
 280
0
 281
0
 282
0
 283
1
 284
0
 285
0
 286
0
 287
3
 288
1
   0
DIMSTYLE
 105
45
 100
AcDbSymbolTableRecord
 100
AcDbDimStyleTableRecord
   2
GMM007
  70
0
   3

   4

   5

   6
_OPEN
   7
_OPEN
  40
 1.0000000000000
  41
 42.000000000000
  42
 30.000000000000
  43
 160.00000000000
  44
 30.000000000000
  45
0.0
  46
0.0
  47
0.0
  48
0.0
 140
 60.000000000000
 141
 20.000000000000
 142
0.0
 143
 0.39400000000000E-1
 144
 1.0000000000000
 145
0.0
 146
 0.83333333333333
 147
 25.714285714286
  71
0
  72
0
  73
0
  74
0
  75
0
  76
1
  77
3
  78
8
 170
0
 171
2
 172
1
 173
1
 174
0
 175
0
 176
6
 177
6
 178
1
 270
2
 271
6
 272
0
 273
2
 274
2
 340
3B
 275
1
 280
0
 281
0
 282
0
 283
1
 284
0
 285
0
 286
0
 287
3
 288
0
   0
ENDTAB
  0
TABLE
  2
BLOCK_RECORD
  5
1
100
AcDbSymbolTable
 70
     0
  0
BLOCK_RECORD
  5
18
100
AcDbSymbolTableRecord
100
AcDbBlockTableRecord
  2
*MODEL_SPACE
  0
BLOCK_RECORD
  5
15
100
AcDbSymbolTableRecord
100
AcDbBlockTableRecord
  2
*PAPER_SPACE
   0
BLOCK_RECORD
   5
46
 100
AcDbSymbolTableRecord
 100
AcDbBlockTableRecord
   2
*D15
   0
BLOCK_RECORD
   5
47
 100
AcDbSymbolTableRecord
 100
AcDbBlockTableRecord
   2
*D16
   0
BLOCK_RECORD
   5
48
 100
AcDbSymbolTableRecord
 100
AcDbBlockTableRecord
   2
*D17
   0
BLOCK_RECORD
   5
49
 100
AcDbSymbolTableRecord
 100
AcDbBlockTableRecord
   2
*D18
   0
BLOCK_RECORD
   5
4A
 100
AcDbSymbolTableRecord
 100
AcDbBlockTableRecord
   2
*D19
   0
BLOCK_RECORD
   5
4B
 100
AcDbSymbolTableRecord
 100
AcDbBlockTableRecord
   2
*D20
   0
BLOCK_RECORD
   5
4C
 100
AcDbSymbolTableRecord
 100
AcDbBlockTableRecord
   2
*D21
   0
BLOCK_RECORD
   5
4D
 100
AcDbSymbolTableRecord
 100
AcDbBlockTableRecord
   2
*D22
   0
BLOCK_RECORD
   5
4E
 100
AcDbSymbolTableRecord
 100
AcDbBlockTableRecord
   2
_ARCHTICK
   0
BLOCK_RECORD
   5
4F
 100
AcDbSymbolTableRecord
 100
AcDbBlockTableRecord
   2
_BOXBLANK
   0
BLOCK_RECORD
   5
50
 100
AcDbSymbolTableRecord
 100
AcDbBlockTableRecord
   2
_BOXFILLED
   0
BLOCK_RECORD
   5
51
 100
AcDbSymbolTableRecord
 100
AcDbBlockTableRecord
   2
_CLOSED
   0
BLOCK_RECORD
   5
52
 100
AcDbSymbolTableRecord
 100
AcDbBlockTableRecord
   2
_CLOSEDBLANK
   0
BLOCK_RECORD
   5
53
 100
AcDbSymbolTableRecord
 100
AcDbBlockTableRecord
   2
_DATUMBLANK
   0
BLOCK_RECORD
   5
54
 100
AcDbSymbolTableRecord
 100
AcDbBlockTableRecord
   2
_DATUMFILLED
   0
BLOCK_RECORD
   5
55
 100
AcDbSymbolTableRecord
 100
AcDbBlockTableRecord
   2
_DOT
   0
BLOCK_RECORD
   5
56
 100
AcDbSymbolTableRecord
 100
AcDbBlockTableRecord
   2
_DOTBLANK
   0
BLOCK_RECORD
   5
57
 100
AcDbSymbolTableRecord
 100
AcDbBlockTableRecord
   2
_DOTSMALL
   0
BLOCK_RECORD
   5
58
 100
AcDbSymbolTableRecord
 100
AcDbBlockTableRecord
   2
_INTEGRAL
   0
BLOCK_RECORD
   5
59
 100
AcDbSymbolTableRecord
 100
AcDbBlockTableRecord
   2
_NONE
   0
BLOCK_RECORD
   5
5A
 100
AcDbSymbolTableRecord
 100
AcDbBlockTableRecord
   2
_OBLIQUE
   0
BLOCK_RECORD
   5
5B
 100
AcDbSymbolTableRecord
 100
AcDbBlockTableRecord
   2
_OPEN
   0
BLOCK_RECORD
   5
5C
 100
AcDbSymbolTableRecord
 100
AcDbBlockTableRecord
   2
_OPEN30
   0
BLOCK_RECORD
   5
5D
 100
AcDbSymbolTableRecord
 100
AcDbBlockTableRecord
   2
_OPEN90
   0
BLOCK_RECORD
   5
5E
 100
AcDbSymbolTableRecord
 100
AcDbBlockTableRecord
   2
_ORIGIN
   0
ENDTAB
   0
ENDSEC
  0
SECTION
  2
BLOCKS
  0
BLOCK
  5
19
100
AcDbEntity
  8
0
100
AcDbBlockBegin
  2
*MODEL_SPACE
 70
     0
 10
0.0
 20
0.0
 30
0.0
  3
*MODEL_SPACE
  1

  0
ENDBLK
  5
1A
100
AcDbEntity
  8
0
100
AcDbBlockEnd
  0
BLOCK
  5
16
100
AcDbEntity
 67
     1
  8
0
100
AcDbBlockBegin
  2
*PAPER_SPACE
 70
     0
 10
0.0
 20
0.0
 30
0.0
  3
*PAPER_SPACE
  1

  0
ENDBLK
  5
17
100
AcDbEntity
 67
     1
  8
0
100
AcDbBlockEnd
   0
BLOCK
   5
5F
 100
AcDbEntity
   8
0
 100
AcDbBlockBegin
   2
_ARCHTICK
  70
0
  10
0.0
  20
0.0
  30
0.0
   3
_ARCHTICK
   0
POLYLINE
   5
60
 100
AcDbEntity
   8
0
 370
-2
   6
BYBLOCK
  62
0
 100
AcDb2dPolyline
  66
1
  10
0.0
  20
0.0
  30
0.0
  70
1
  40
 0.15000000000000
  41
 0.15000000000000
   0
VERTEX
   5
61
 100
AcDbEntity
   8
0
   6
BYBLOCK
  62
0
 100
AcDbVertex
 100
AcDb2dVertex
  10
-0.50000000000000
  20
-0.50000000000000
  30
0.0
  40
 0.15000000000000
  41
 0.15000000000000
   0
VERTEX
   5
62
 100
AcDbEntity
   8
0
   6
BYBLOCK
  62
0
 100
AcDbVertex
 100
AcDb2dVertex
  10
 0.50000000000000
  20
 0.50000000000000
  30
0.0
  40
 0.15000000000000
  41
 0.15000000000000
   0
SEQEND
   5
63
 100
AcDbEntity
   8
0
   6
BYBLOCK
  62
0
   0
ENDBLK
   5
64
 100
AcDbEntity
   8
0
 100
AcDbBlockEnd
   0
BLOCK
   5
65
 100
AcDbEntity
   8
0
 100
AcDbBlockBegin
   2
_OBLIQUE
  70
0
  10
0.0
  20
0.0
  30
0.0
   3
_OBLIQUE
   0
LINE
   5
66
 100
AcDbEntity
   8
0
 370
-2
 100
AcDbLine
   6
BYBLOCK
  62
0
  10
-0.50000000000000
  20
-0.50000000000000
  30
0.0
  11
 0.50000000000000
  21
 0.50000000000000
  31
0.0
   0
ENDBLK
   5
67
 100
AcDbEntity
   8
0
 100
AcDbBlockEnd
   0
BLOCK
   5
68
 100
AcDbEntity
   8
0
 100
AcDbBlockBegin
   2
_BOXBLANK
  70
0
  10
0.0
  20
0.0
  30
0.0
   3
_BOXBLANK
   0
LINE
   5
69
 100
AcDbEntity
   8
0
 370
-2
 100
AcDbLine
   6
BYBLOCK
  62
0
  10
-0.50000000000000
  20
-0.50000000000000
  30
0.0
  11
 0.50000000000000
  21
-0.50000000000000
  31
0.0
   0
LINE
   5
6A
 100
AcDbEntity
   8
0
 370
-2
 100
AcDbLine
   6
BYBLOCK
  62
0
  10
 0.50000000000000
  20
-0.50000000000000
  30
0.0
  11
 0.50000000000000
  21
 0.50000000000000
  31
0.0
   0
LINE
   5
6B
 100
AcDbEntity
   8
0
 370
-2
 100
AcDbLine
   6
BYBLOCK
  62
0
  10
 0.50000000000000
  20
 0.50000000000000
  30
0.0
  11
-0.50000000000000
  21
 0.50000000000000
  31
0.0
   0
LINE
   5
6C
 100
AcDbEntity
   8
0
 370
-2
 100
AcDbLine
   6
BYBLOCK
  62
0
  10
-0.50000000000000
  20
 0.50000000000000
  30
0.0
  11
-0.50000000000000
  21
-0.50000000000000
  31
0.0
   0
LINE
   5
6D
 100
AcDbEntity
   8
0
 370
-2
 100
AcDbLine
   6
BYBLOCK
  62
0
  10
-0.50000000000000
  20
0.0
  30
0.0
  11
-1.0000000000000
  21
0.0
  31
0.0
   0
ENDBLK
   5
6E
 100
AcDbEntity
   8
0
 100
AcDbBlockEnd
   0
BLOCK
   5
6F
 100
AcDbEntity
   8
0
 100
AcDbBlockBegin
   2
_BOXFILLED
  70
0
  10
0.0
  20
0.0
  30
0.0
   3
_BOXFILLED
   0
SOLID
   5
70
 100
AcDbEntity
   8
0
 100
AcDbTrace
   6
BYBLOCK
  62
0
  10
-0.50000000000000
  20
 0.50000000000000
  30
0.0
  11
 0.50000000000000
  21
 0.50000000000000
  31
0.0
  12
-0.50000000000000
  22
-0.50000000000000
  32
0.0
  13
 0.50000000000000
  23
-0.50000000000000
  33
0.0
   0
LINE
   5
71
 100
AcDbEntity
   8
0
 370
-2
 100
AcDbLine
   6
BYBLOCK
  62
0
  10
-0.50000000000000
  20
0.0
  30
0.0
  11
-1.0000000000000
  21
0.0
  31
0.0
   0
ENDBLK
   5
72
 100
AcDbEntity
   8
0
 100
AcDbBlockEnd
   0
BLOCK
   5
73
 100
AcDbEntity
   8
0
 100
AcDbBlockBegin
   2
_CLOSED
  70
0
  10
0.0
  20
0.0
  30
0.0
   3
_CLOSED
   0
LINE
   5
74
 100
AcDbEntity
   8
0
 370
-2
 100
AcDbLine
   6
BYBLOCK
  62
0
  10
-1.0000000000000
  20
 0.16666666666667
  30
0.0
  11
0.0
  21
0.0
  31
0.0
   0
LINE
   5
75
 100
AcDbEntity
   8
0
 370
-2
 100
AcDbLine
   6
BYBLOCK
  62
0
  10
0.0
  20
0.0
  30
0.0
  11
-1.0000000000000
  21
-0.16666666666667
  31
0.0
   0
LINE
   5
76
 100
AcDbEntity
   8
0
 370
-2
 100
AcDbLine
   6
BYBLOCK
  62
0
  10
-1.0000000000000
  20
 0.16666666666667
  30
0.0
  11
-1.0000000000000
  21
-0.16666666666667
  31
0.0
   0
LINE
   5
77
 100
AcDbEntity
   8
0
 370
-2
 100
AcDbLine
   6
BYBLOCK
  62
0
  10
0.0
  20
0.0
  30
0.0
  11
-1.0000000000000
  21
0.0
  31
0.0
   0
ENDBLK
   5
78
 100
AcDbEntity
   8
0
 100
AcDbBlockEnd
   0
BLOCK
   5
79
 100
AcDbEntity
   8
0
 100
AcDbBlockBegin
   2
_OPEN
  70
0
  10
0.0
  20
0.0
  30
0.0
   3
_OPEN
   0
LINE
   5
7A
 100
AcDbEntity
   8
0
 370
-2
 100
AcDbLine
   6
BYBLOCK
  62
0
  10
-1.0000000000000
  20
 0.16666666666667
  30
0.0
  11
0.0
  21
0.0
  31
0.0
   0
LINE
   5
7B
 100
AcDbEntity
   8
0
 370
-2
 100
AcDbLine
   6
BYBLOCK
  62
0
  10
0.0
  20
0.0
  30
0.0
  11
-1.0000000000000
  21
-0.16666666666667
  31
0.0
   0
LINE
   5
7C
 100
AcDbEntity
   8
0
 370
-2
 100
AcDbLine
   6
BYBLOCK
  62
0
  10
0.0
  20
0.0
  30
0.0
  11
-1.0000000000000
  21
0.0
  31
0.0
   0
ENDBLK
   5
7D
 100
AcDbEntity
   8
0
 100
AcDbBlockEnd
   0
BLOCK
   5
7E
 100
AcDbEntity
   8
0
 100
AcDbBlockBegin
   2
_OPEN30
  70
0
  10
0.0
  20
0.0
  30
0.0
   3
_OPEN30
   0
LINE
   5
7F
 100
AcDbEntity
   8
0
 370
-2
 100
AcDbLine
   6
BYBLOCK
  62
0
  10
-1.0000000000000
  20
 0.26794919243110
  30
0.0
  11
0.0
  21
0.0
  31
0.0
   0
LINE
   5
80
 100
AcDbEntity
   8
0
 370
-2
 100
AcDbLine
   6
BYBLOCK
  62
0
  10
0.0
  20
0.0
  30
0.0
  11
-1.0000000000000
  21
-0.26794919243110
  31
0.0
   0
LINE
   5
81
 100
AcDbEntity
   8
0
 370
-2
 100
AcDbLine
   6
BYBLOCK
  62
0
  10
0.0
  20
0.0
  30
0.0
  11
-1.0000000000000
  21
0.0
  31
0.0
   0
ENDBLK
   5
82
 100
AcDbEntity
   8
0
 100
AcDbBlockEnd
   0
BLOCK
   5
83
 100
AcDbEntity
   8
0
 100
AcDbBlockBegin
   2
_OPEN90
  70
0
  10
0.0
  20
0.0
  30
0.0
   3
_OPEN90
   0
LINE
   5
84
 100
AcDbEntity
   8
0
 370
-2
 100
AcDbLine
   6
BYBLOCK
  62
0
  10
-0.50000000000000
  20
 0.50000000000000
  30
0.0
  11
0.0
  21
0.0
  31
0.0
   0
LINE
   5
85
 100
AcDbEntity
   8
0
 370
-2
 100
AcDbLine
   6
BYBLOCK
  62
0
  10
0.0
  20
0.0
  30
0.0
  11
-0.50000000000000
  21
-0.50000000000000
  31
0.0
   0
LINE
   5
86
 100
AcDbEntity
   8
0
 370
-2
 100
AcDbLine
   6
BYBLOCK
  62
0
  10
0.0
  20
0.0
  30
0.0
  11
-1.0000000000000
  21
0.0
  31
0.0
   0
ENDBLK
   5
87
 100
AcDbEntity
   8
0
 100
AcDbBlockEnd
   0
BLOCK
   5
88
 100
AcDbEntity
   8
0
 100
AcDbBlockBegin
   2
_CLOSEDBLANK
  70
0
  10
0.0
  20
0.0
  30
0.0
   3
_CLOSEDBLANK
   0
LINE
   5
89
 100
AcDbEntity
   8
0
 370
-2
 100
AcDbLine
   6
BYBLOCK
  62
0
  10
-1.0000000000000
  20
 0.16666666666667
  30
0.0
  11
0.0
  21
0.0
  31
0.0
   0
LINE
   5
8A
 100
AcDbEntity
   8
0
 370
-2
 100
AcDbLine
   6
BYBLOCK
  62
0
  10
0.0
  20
0.0
  30
0.0
  11
-1.0000000000000
  21
-0.16666666666667
  31
0.0
   0
LINE
   5
8B
 100
AcDbEntity
   8
0
 370
-2
 100
AcDbLine
   6
BYBLOCK
  62
0
  10
-1.0000000000000
  20
 0.16666666666667
  30
0.0
  11
-1.0000000000000
  21
-0.16666666666667
  31
0.0
   0
ENDBLK
   5
8C
 100
AcDbEntity
   8
0
 100
AcDbBlockEnd
   0
BLOCK
   5
8D
 100
AcDbEntity
   8
0
 100
AcDbBlockBegin
   2
_DOT
  70
0
  10
0.0
  20
0.0
  30
0.0
   3
_DOT
   0
POLYLINE
   5
8E
 100
AcDbEntity
   8
0
 370
-2
   6
BYBLOCK
  62
0
 100
AcDb2dPolyline
  66
1
  10
0.0
  20
0.0
  30
0.0
  70
1
  40
 0.50000000000000
  41
 0.50000000000000
   0
VERTEX
   5
8F
 100
AcDbEntity
   8
0
   6
BYBLOCK
  62
0
 100
AcDbVertex
 100
AcDb2dVertex
  10
-0.25000000000000
  20
0.0
  30
0.0
  42
 1.0000000000000
  40
 0.50000000000000
  41
 0.50000000000000
   0
VERTEX
   5
90
 100
AcDbEntity
   8
0
   6
BYBLOCK
  62
0
 100
AcDbVertex
 100
AcDb2dVertex
  10
 0.25000000000000
  20
0.0
  30
0.0
  42
 1.0000000000000
  40
 0.50000000000000
  41
 0.50000000000000
   0
SEQEND
   5
91
 100
AcDbEntity
   8
0
   6
BYBLOCK
  62
0
   0
LINE
   5
92
 100
AcDbEntity
   8
0
 370
-2
 100
AcDbLine
   6
BYBLOCK
  62
0
  10
-0.50000000000000
  20
0.0
  30
0.0
  11
-1.0000000000000
  21
0.0
  31
0.0
   0
ENDBLK
   5
93
 100
AcDbEntity
   8
0
 100
AcDbBlockEnd
   0
BLOCK
   5
94
 100
AcDbEntity
   8
0
 100
AcDbBlockBegin
   2
_DOTSMALL
  70
0
  10
0.0
  20
0.0
  30
0.0
   3
_DOTSMALL
   0
POLYLINE
   5
95
 100
AcDbEntity
   8
0
 370
-2
   6
BYBLOCK
  62
0
 100
AcDb2dPolyline
  66
1
  10
0.0
  20
0.0
  30
0.0
  70
1
  40
 0.50000000000000
  41
 0.50000000000000
   0
VERTEX
   5
96
 100
AcDbEntity
   8
0
   6
BYBLOCK
  62
0
 100
AcDbVertex
 100
AcDb2dVertex
  10
-0.62500000000000E-1
  20
0.0
  30
0.0
  42
 1.0000000000000
  40
 0.50000000000000
  41
 0.50000000000000
   0
VERTEX
   5
97
 100
AcDbEntity
   8
0
   6
BYBLOCK
  62
0
 100
AcDbVertex
 100
AcDb2dVertex
  10
 0.62500000000000E-1
  20
0.0
  30
0.0
  42
 1.0000000000000
  40
 0.50000000000000
  41
 0.50000000000000
   0
SEQEND
   5
98
 100
AcDbEntity
   8
0
   6
BYBLOCK
  62
0
   0
ENDBLK
   5
99
 100
AcDbEntity
   8
0
 100
AcDbBlockEnd
   0
BLOCK
   5
9A
 100
AcDbEntity
   8
0
 100
AcDbBlockBegin
   2
_DATUMBLANK
  70
0
  10
0.0
  20
0.0
  30
0.0
   3
_DATUMBLANK
   0
LINE
   5
9B
 100
AcDbEntity
   8
0
 370
-2
 100
AcDbLine
   6
BYBLOCK
  62
0
  10
0.0
  20
 0.57735027000000
  30
0.0
  11
-1.0000000000000
  21
0.0
  31
0.0
   0
LINE
   5
9C
 100
AcDbEntity
   8
0
 370
-2
 100
AcDbLine
   6
BYBLOCK
  62
0
  10
-1.0000000000000
  20
0.0
  30
0.0
  11
0.0
  21
-0.57735027000000
  31
0.0
   0
LINE
   5
9D
 100
AcDbEntity
   8
0
 370
-2
 100
AcDbLine
   6
BYBLOCK
  62
0
  10
0.0
  20
-0.57735027000000
  30
0.0
  11
0.0
  21
 0.57735027000000
  31
0.0
   0
ENDBLK
   5
9E
 100
AcDbEntity
   8
0
 100
AcDbBlockEnd
   0
BLOCK
   5
9F
 100
AcDbEntity
   8
0
 100
AcDbBlockBegin
   2
_DATUMFILLED
  70
0
  10
0.0
  20
0.0
  30
0.0
   3
_DATUMFILLED
   0
SOLID
   5
A0
 100
AcDbEntity
   8
0
 100
AcDbTrace
   6
BYBLOCK
  62
0
  10
0.0
  20
 0.57735027000000
  30
0.0
  11
-1.0000000000000
  21
0.0
  31
0.0
  12
0.0
  22
-0.57735027000000
  32
0.0
  13
0.0
  23
-0.57735027000000
  33
0.0
   0
ENDBLK
   5
A1
 100
AcDbEntity
   8
0
 100
AcDbBlockEnd
   0
BLOCK
   5
A2
 100
AcDbEntity
   8
0
 100
AcDbBlockBegin
   2
_ORIGIN
  70
0
  10
0.0
  20
0.0
  30
0.0
   3
_ORIGIN
   0
CIRCLE
   5
A3
 100
AcDbEntity
   8
0
 370
-2
 100
AcDbCircle
   6
BYBLOCK
  62
0
  10
0.0
  20
0.0
  30
0.0
  40
 0.50000000000000
   0
LINE
   5
A4
 100
AcDbEntity
   8
0
 370
-2
 100
AcDbLine
   6
BYBLOCK
  62
0
  10
0.0
  20
0.0
  30
0.0
  11
-1.0000000000000
  21
0.0
  31
0.0
   0
ENDBLK
   5
A5
 100
AcDbEntity
   8
0
 100
AcDbBlockEnd
   0
BLOCK
   5
A6
 100
AcDbEntity
   8
0
 100
AcDbBlockBegin
   2
_NONE
  70
0
  10
0.0
  20
0.0
  30
0.0
   3
_NONE
   0
CIRCLE
   5
A7
 100
AcDbEntity
   8
0
 370
-2
 100
AcDbCircle
   6
BYBLOCK
  62
0
  10
0.0
  20
0.0
  30
0.0
  40
 0.25000000000000
   0
ENDBLK
   5
A8
 100
AcDbEntity
   8
0
 100
AcDbBlockEnd
   0
BLOCK
   5
A9
 100
AcDbEntity
   8
0
 100
AcDbBlockBegin
   2
_DOTBLANK
  70
0
  10
0.0
  20
0.0
  30
0.0
   3
_DOTBLANK
   0
CIRCLE
   5
AA
 100
AcDbEntity
   8
0
 370
-2
 100
AcDbCircle
   6
BYBLOCK
  62
0
  10
0.0
  20
0.0
  30
0.0
  40
 0.50000000000000
   0
LINE
   5
AB
 100
AcDbEntity
   8
0
 370
-2
 100
AcDbLine
   6
BYBLOCK
  62
0
  10
-0.50000000000000
  20
0.0
  30
0.0
  11
-1.0000000000000
  21
0.0
  31
0.0
   0
ENDBLK
   5
AC
 100
AcDbEntity
   8
0
 100
AcDbBlockEnd
   0
BLOCK
   5
AD
 100
AcDbEntity
   8
0
 100
AcDbBlockBegin
   2
_INTEGRAL
  70
0
  10
0.0
  20
0.0
  30
0.0
   3
_INTEGRAL
   0
ARC
   5
AE
 100
AcDbEntity
   8
0
 370
-2
   6
BYBLOCK
  62
0
 100
AcDbCircle
  10
 0.44488800000000
  20
-0.91335000000000E-1
  30
0.0
  40
 0.45416700000000
 100
AcDbArc
  50
 102.00000000000
  51
 168.00000000000
   0
ARC
   5
AF
 100
AcDbEntity
   8
0
 370
-2
   6
BYBLOCK
  62
0
 100
AcDbCircle
  10
-0.44488800000000
  20
 0.91335000000000E-1
  30
0.0
  40
 0.45416700000000
 100
AcDbArc
  50
 282.00000000000
  51
 348.00000000000
   0
ENDBLK
   5
B0
 100
AcDbEntity
   8
0
 100
AcDbBlockEnd
   0
BLOCK
   5
B1
 100
AcDbEntity
   8
0
 100
AcDbBlockBegin
   2
*D15
  70
65
  10
0.0
  20
0.0
  30
0.0
   3
*D15
   0
LINE
   5
B2
 100
AcDbEntity
   8
LEVEL001
 370
13
 100
AcDbLine
   6
CONTINUOUS
  62
6
  10
 1358.1124672552
  20
 4859.0589887643
  30
0.0
  11
 1093.9747191011
  21
 4706.5589887640
  31
0.0
   0
LINE
   5
B3
 100
AcDbEntity
   8
LEVEL001
 370
13
 100
AcDbLine
   6
CONTINUOUS
  62
6
  10
 1093.9747191011
  20
 4706.5589887640
  30
0.0
  11
 829.83697094700
  21
 4554.0589887638
  31
0.0
   0
INSERT
   5
B4
 100
AcDbEntity
   8
LEVEL001
   6
CONTINUOUS
  62
6
 100
AcDbBlockReference
   2
_OPEN
  10
 1358.1124672552
  20
 4859.0589887643
  30
0.0
  41
 42.000000000000
  42
 42.000000000000
  43
 42.000000000000
  50
 30.000000000055
   0
INSERT
   5
B5
 100
AcDbEntity
   8
LEVEL001
   6
CONTINUOUS
  62
6
 100
AcDbBlockReference
   2
_OPEN
  10
 829.83697094700
  20
 4554.0589887638
  30
0.0
  41
 42.000000000000
  42
 42.000000000000
  43
 42.000000000000
  50
 210.00000000006
   0
MTEXT
   5
B6
 100
AcDbEntity
   8
LEVEL001
 370
13
  62
1
 100
AcDbMText
  10
 1086.9747191011
  20
 4718.6833444170
  30
0.0
  40
 60.000000000000
  41
0.0
  71
8
  72
1
   1
\A1;%%c600
   7
GMM002
  11
 0.86602540378395
  21
 0.50000000000084
  31
0.0
   0
ENDBLK
   5
B7
 100
AcDbEntity
   8
0
 100
AcDbBlockEnd
   0
BLOCK
   5
B8
 100
AcDbEntity
   8
0
 100
AcDbBlockBegin
   2
*D16
  70
65
  10
0.0
  20
0.0
  30
0.0
   3
*D16
   0
LINE
   5
B9
 100
AcDbEntity
   8
LEVEL001
 370
13
 100
AcDbLine
   6
CONTINUOUS
  62
6
  10
 2158.1124672553
  20
 4859.0589887643
  30
0.0
  11
 1893.9747191012
  21
 4706.5589887640
  31
0.0
   0
LINE
   5
BA
 100
AcDbEntity
   8
LEVEL001
 370
13
 100
AcDbLine
   6
CONTINUOUS
  62
6
  10
 1893.9747191012
  20
 4706.5589887640
  30
0.0
  11
 1629.8369709470
  21
 4554.0589887638
  31
0.0
   0
INSERT
   5
BB
 100
AcDbEntity
   8
LEVEL001
   6
CONTINUOUS
  62
6
 100
AcDbBlockReference
   2
_OPEN
  10
 2158.1124672553
  20
 4859.0589887643
  30
0.0
  41
 42.000000000000
  42
 42.000000000000
  43
 42.000000000000
  50
 30.000000000055
   0
INSERT
   5
BC
 100
AcDbEntity
   8
LEVEL001
   6
CONTINUOUS
  62
6
 100
AcDbBlockReference
   2
_OPEN
  10
 1629.8369709470
  20
 4554.0589887638
  30
0.0
  41
 42.000000000000
  42
 42.000000000000
  43
 42.000000000000
  50
 210.00000000006
   0
MTEXT
   5
BD
 100
AcDbEntity
   8
LEVEL001
 370
13
  62
1
 100
AcDbMText
  10
 1886.9747191011
  20
 4718.6833444170
  30
0.0
  40
 60.000000000000
  41
0.0
  71
8
  72
1
   1
\A1;%%c600
   7
GMM002
  11
 0.86602540378396
  21
 0.50000000000084
  31
0.0
   0
ENDBLK
   5
BE
 100
AcDbEntity
   8
0
 100
AcDbBlockEnd
   0
BLOCK
   5
BF
 100
AcDbEntity
   8
0
 100
AcDbBlockBegin
   2
*D17
  70
65
  10
0.0
  20
0.0
  30
0.0
   3
*D17
   0
LINE
   5
C0
 100
AcDbEntity
   8
0
 370
13
 100
AcDbLine
   6
CONTINUOUS
  62
6
  10
 1213.9747191011
  20
 874.05898876406
  30
0.0
  11
 713.97471910111
  21
 874.05898876406
  31
0.0
   0
LINE
   5
C1
 100
AcDbEntity
   8
0
 370
13
 100
AcDbLine
   6
CONTINUOUS
  62
6
  10
 1213.9747191011
  20
 774.05898876406
  30
0.0
  11
 713.97471910111
  21
 774.05898876406
  31
0.0
   0
LINE
   5
C2
 100
AcDbEntity
   8
0
 370
13
 100
AcDbLine
   6
CONTINUOUS
  62
6
  10
 743.97471910111
  20
 874.05898876406
  30
0.0
  11
 743.97471910111
  21
 824.05898876406
  31
0.0
   0
LINE
   5
C3
 100
AcDbEntity
   8
0
 370
13
 100
AcDbLine
   6
CONTINUOUS
  62
6
  10
 743.97471910111
  20
 774.05898876406
  30
0.0
  11
 743.97471910111
  21
 824.05898876406
  31
0.0
   0
INSERT
   5
C4
 100
AcDbEntity
   8
0
   6
CONTINUOUS
  62
6
 100
AcDbBlockReference
   2
_OPEN
  10
 743.97471910111
  20
 874.05898876406
  30
0.0
  41
 42.000000000000
  42
 42.000000000000
  43
 42.000000000000
  50
 90.000000000000
   0
INSERT
   5
C5
 100
AcDbEntity
   8
0
   6
CONTINUOUS
  62
6
 100
AcDbBlockReference
   2
_OPEN
  10
 743.97471910111
  20
 774.05898876406
  30
0.0
  41
 42.000000000000
  42
 42.000000000000
  43
 42.000000000000
  50
 270.00000000000
   0
MTEXT
   5
C6
 100
AcDbEntity
   8
0
 370
13
  62
1
 100
AcDbMText
  10
 718.26043338682
  20
 824.05898876406
  30
0.0
  40
 60.000000000000
  41
0.0
  71
8
  72
1
   1
\A1;100
   7
GMM002
  11
0.0
  21
 1.0000000000000
  31
0.0
   0
ENDBLK
   5
C7
 100
AcDbEntity
   8
0
 100
AcDbBlockEnd
   0
BLOCK
   5
C8
 100
AcDbEntity
   8
0
 100
AcDbBlockBegin
   2
*D18
  70
65
  10
0.0
  20
0.0
  30
0.0
   3
*D18
   0
LINE
   5
C9
 100
AcDbEntity
   8
0
 370
13
 100
AcDbLine
   6
CONTINUOUS
  62
6
  10
 1213.9747191011
  20
 874.05898876406
  30
0.0
  11
 713.97471910111
  21
 874.05898876406
  31
0.0
   0
LINE
   5
CA
 100
AcDbEntity
   8
0
 370
13
 100
AcDbLine
   6
CONTINUOUS
  62
6
  10
 963.97471910111
  20
 1874.0589887641
  30
0.0
  11
 713.97471910111
  21
 1874.0589887641
  31
0.0
   0
LINE
   5
CB
 100
AcDbEntity
   8
0
 370
13
 100
AcDbLine
   6
CONTINUOUS
  62
6
  10
 743.97471910111
  20
 874.05898876406
  30
0.0
  11
 743.97471910111
  21
 1374.0589887641
  31
0.0
   0
LINE
   5
CC
 100
AcDbEntity
   8
0
 370
13
 100
AcDbLine
   6
CONTINUOUS
  62
6
  10
 743.97471910111
  20
 1874.0589887641
  30
0.0
  11
 743.97471910111
  21
 1374.0589887641
  31
0.0
   0
INSERT
   5
CD
 100
AcDbEntity
   8
0
   6
CONTINUOUS
  62
6
 100
AcDbBlockReference
   2
_OPEN
  10
 743.97471910111
  20
 874.05898876406
  30
0.0
  41
 42.000000000000
  42
 42.000000000000
  43
 42.000000000000
  50
 270.00000000000
   0
INSERT
   5
CE
 100
AcDbEntity
   8
0
   6
CONTINUOUS
  62
6
 100
AcDbBlockReference
   2
_OPEN
  10
 743.97471910111
  20
 1874.0589887641
  30
0.0
  41
 42.000000000000
  42
 42.000000000000
  43
 42.000000000000
  50
 90.000000000000
   0
MTEXT
   5
CF
 100
AcDbEntity
   8
0
 370
13
  62
1
 100
AcDbMText
  10
 718.26043338682
  20
 1374.0589887641
  30
0.0
  40
 60.000000000000
  41
0.0
  71
8
  72
1
   1
\A1;1000
   7
GMM002
  11
0.0
  21
 1.0000000000000
  31
0.0
   0
ENDBLK
   5
D0
 100
AcDbEntity
   8
0
 100
AcDbBlockEnd
   0
BLOCK
   5
D1
 100
AcDbEntity
   8
0
 100
AcDbBlockBegin
   2
*D19
  70
65
  10
0.0
  20
0.0
  30
0.0
   3
*D19
   0
LINE
   5
D2
 100
AcDbEntity
   8
0
 370
13
 100
AcDbLine
   6
CONTINUOUS
  62
6
  10
 963.97471910111
  20
 1874.0589887641
  30
0.0
  11
 713.97471910111
  21
 1874.0589887641
  31
0.0
   0
LINE
   5
D3
 100
AcDbEntity
   8
0
 370
13
 100
AcDbLine
   6
CONTINUOUS
  62
6
  10
 1063.9747191011
  20
 4374.0589887640
  30
0.0
  11
 713.97471910111
  21
 4374.0589887640
  31
0.0
   0
LINE
   5
D4
 100
AcDbEntity
   8
0
 370
13
 100
AcDbLine
   6
CONTINUOUS
  62
6
  10
 743.97471910111
  20
 1874.0589887641
  30
0.0
  11
 743.97471910111
  21
 3124.0589887641
  31
0.0
   0
LINE
   5
D5
 100
AcDbEntity
   8
0
 370
13
 100
AcDbLine
   6
CONTINUOUS
  62
6
  10
 743.97471910111
  20
 4374.0589887640
  30
0.0
  11
 743.97471910111
  21
 3124.0589887641
  31
0.0
   0
INSERT
   5
D6
 100
AcDbEntity
   8
0
   6
CONTINUOUS
  62
6
 100
AcDbBlockReference
   2
_OPEN
  10
 743.97471910111
  20
 1874.0589887641
  30
0.0
  41
 42.000000000000
  42
 42.000000000000
  43
 42.000000000000
  50
 270.00000000000
   0
INSERT
   5
D7
 100
AcDbEntity
   8
0
   6
CONTINUOUS
  62
6
 100
AcDbBlockReference
   2
_OPEN
  10
 743.97471910111
  20
 4374.0589887640
  30
0.0
  41
 42.000000000000
  42
 42.000000000000
  43
 42.000000000000
  50
 90.000000000000
   0
MTEXT
   5
D8
 100
AcDbEntity
   8
0
 370
13
  62
1
 100
AcDbMText
  10
 718.26043338682
  20
 3124.0589887641
  30
0.0
  40
 60.000000000000
  41
0.0
  71
8
  72
1
   1
\A1;2500(標準設置高さ)
   7
GMM002
  11
0.0
  21
 1.0000000000000
  31
0.0
   0
ENDBLK
   5
D9
 100
AcDbEntity
   8
0
 100
AcDbBlockEnd
   0
BLOCK
   5
DA
 100
AcDbEntity
   8
0
 100
AcDbBlockBegin
   2
*D20
  70
65
  10
0.0
  20
0.0
  30
0.0
   3
*D20
   0
LINE
   5
DB
 100
AcDbEntity
   8
LEVEL001
 370
13
 100
AcDbLine
   6
CONTINUOUS
  62
6
  10
 1243.9747191011
  20
 744.05898876406
  30
0.0
  11
 1243.9747191011
  21
 544.05898876406
  31
0.0
   0
LINE
   5
DC
 100
AcDbEntity
   8
LEVEL001
 370
13
 100
AcDbLine
   6
CONTINUOUS
  62
6
  10
 1743.9747191011
  20
 744.05898876406
  30
0.0
  11
 1743.9747191011
  21
 544.05898876406
  31
0.0
   0
LINE
   5
DD
 100
AcDbEntity
   8
LEVEL001
 370
13
 100
AcDbLine
   6
CONTINUOUS
  62
6
  10
 1243.9747191011
  20
 574.05898876406
  30
0.0
  11
 1493.9747191011
  21
 574.05898876406
  31
0.0
   0
LINE
   5
DE
 100
AcDbEntity
   8
LEVEL001
 370
13
 100
AcDbLine
   6
CONTINUOUS
  62
6
  10
 1743.9747191011
  20
 574.05898876406
  30
0.0
  11
 1493.9747191011
  21
 574.05898876406
  31
0.0
   0
INSERT
   5
DF
 100
AcDbEntity
   8
LEVEL001
   6
CONTINUOUS
  62
6
 100
AcDbBlockReference
   2
_OPEN
  10
 1243.9747191011
  20
 574.05898876406
  30
0.0
  41
 42.000000000000
  42
 42.000000000000
  43
 42.000000000000
  50
 180.00000000000
   0
INSERT
   5
E0
 100
AcDbEntity
   8
LEVEL001
   6
CONTINUOUS
  62
6
 100
AcDbBlockReference
   2
_OPEN
  10
 1743.9747191011
  20
 574.05898876406
  30
0.0
  41
 42.000000000000
  42
 42.000000000000
  43
 42.000000000000
  50
0.0
   0
MTEXT
   5
E1
 100
AcDbEntity
   8
LEVEL001
 370
13
  62
1
 100
AcDbMText
  10
 1493.9747191011
  20
 588.05898876406
  30
0.0
  40
 60.000000000000
  41
0.0
  71
8
  72
1
   1
\A1;□500
   7
GMM002
   0
ENDBLK
   5
E2
 100
AcDbEntity
   8
0
 100
AcDbBlockEnd
   0
BLOCK
   5
E3
 100
AcDbEntity
   8
0
 100
AcDbBlockBegin
   2
*D21
  70
65
  10
0.0
  20
0.0
  30
0.0
   3
*D21
   0
LINE
   5
E4
 100
AcDbEntity
   8
LEVEL001
 370
13
 100
AcDbLine
   6
CONTINUOUS
  62
6
  10
 2593.9747191011
  20
 744.05898876406
  30
0.0
  11
 2593.9747191011
  21
 544.05898876406
  31
0.0
   0
LINE
   5
E5
 100
AcDbEntity
   8
LEVEL001
 370
13
 100
AcDbLine
   6
CONTINUOUS
  62
6
  10
 3093.9747191011
  20
 744.05898876406
  30
0.0
  11
 3093.9747191011
  21
 544.05898876406
  31
0.0
   0
LINE
   5
E6
 100
AcDbEntity
   8
LEVEL001
 370
13
 100
AcDbLine
   6
CONTINUOUS
  62
6
  10
 2593.9747191011
  20
 574.05898876406
  30
0.0
  11
 2843.9747191011
  21
 574.05898876406
  31
0.0
   0
LINE
   5
E7
 100
AcDbEntity
   8
LEVEL001
 370
13
 100
AcDbLine
   6
CONTINUOUS
  62
6
  10
 3093.9747191011
  20
 574.05898876406
  30
0.0
  11
 2843.9747191011
  21
 574.05898876406
  31
0.0
   0
INSERT
   5
E8
 100
AcDbEntity
   8
LEVEL001
   6
CONTINUOUS
  62
6
 100
AcDbBlockReference
   2
_OPEN
  10
 2593.9747191011
  20
 574.05898876406
  30
0.0
  41
 42.000000000000
  42
 42.000000000000
  43
 42.000000000000
  50
 180.00000000000
   0
INSERT
   5
E9
 100
AcDbEntity
   8
LEVEL001
   6
CONTINUOUS
  62
6
 100
AcDbBlockReference
   2
_OPEN
  10
 3093.9747191011
  20
 574.05898876406
  30
0.0
  41
 42.000000000000
  42
 42.000000000000
  43
 42.000000000000
  50
0.0
   0
MTEXT
   5
EA
 100
AcDbEntity
   8
LEVEL001
 370
13
  62
1
 100
AcDbMText
  10
 2843.9747191011
  20
 588.05898876406
  30
0.0
  40
 60.000000000000
  41
0.0
  71
8
  72
1
   1
\A1;□500
   7
GMM002
   0
ENDBLK
   5
EB
 100
AcDbEntity
   8
0
 100
AcDbBlockEnd
   0
BLOCK
   5
EC
 100
AcDbEntity
   8
0
 100
AcDbBlockBegin
   2
*D22
  70
65
  10
0.0
  20
0.0
  30
0.0
   3
*D22
   0
LINE
   5
ED
 100
AcDbEntity
   8
0
 370
13
 100
AcDbLine
   6
CONTINUOUS
  62
6
  10
 3193.9747191011
  20
 4044.0589887640
  30
0.0
  11
 3193.9747191011
  21
 2644.0589887640
  31
0.0
   0
LINE
   5
EE
 100
AcDbEntity
   8
0
 370
13
 100
AcDbLine
   6
CONTINUOUS
  62
6
  10
 3193.9747191011
  20
 2674.0589887640
  30
0.0
  11
 3018.9747191011
  21
 2674.0589887640
  31
0.0
   0
LINE
   5
EF
 100
AcDbEntity
   8
0
 370
13
 100
AcDbLine
   6
CONTINUOUS
  62
6
  10
 2843.9747191011
  20
 2674.0589887640
  30
0.0
  11
 3018.9747191011
  21
 2674.0589887640
  31
0.0
   0
INSERT
   5
F0
 100
AcDbEntity
   8
0
   6
CONTINUOUS
  62
6
 100
AcDbBlockReference
   2
_OPEN
  10
 3193.9747191011
  20
 2674.0589887640
  30
0.0
  41
 42.000000000000
  42
 42.000000000000
  43
 42.000000000000
  50
0.0
   0
INSERT
   5
F1
 100
AcDbEntity
   8
0
   6
CONTINUOUS
  62
6
 100
AcDbBlockReference
   2
_OPEN
  10
 2843.9747191011
  20
 2674.0589887640
  30
0.0
  41
 42.000000000000
  42
 42.000000000000
  43
 42.000000000000
  50
 180.00000000000
   0
MTEXT
   5
F2
 100
AcDbEntity
   8
0
 370
13
  62
1
 100
AcDbMText
  10
 3018.9747191011
  20
 2699.7732744783
  30
0.0
  40
 60.000000000000
  41
0.0
  71
8
  72
1
   1
\A1;350
   7
GMM002
   0
ENDBLK
   5
F3
 100
AcDbEntity
   8
0
 100
AcDbBlockEnd
   0
ENDSEC
   0
SECTION
   2
ENTITIES
   0
LINE
   5
F4
 100
AcDbEntity
   8
LEVEL001
 370
13
 100
AcDbLine
   6
CONTINUOUS
  62
7
  10
 8093.9747191011
  20
 5706.5589887640
  30
0.0
  11
 293.97471910111
  21
 5706.5589887640
  31
0.0
   0
LINE
   5
F5
 100
AcDbEntity
   8
LEVEL001
 370
13
 100
AcDbLine
   6
CONTINUOUS
  62
7
  10
 293.97471910111
  20
 5706.5589887640
  30
0.0
  11
 293.97471910111
  21
 206.55898876404
  31
0.0
   0
LINE
   5
F6
 100
AcDbEntity
   8
LEVEL001
 370
13
 100
AcDbLine
   6
CONTINUOUS
  62
7
  10
 293.97471910111
  20
 206.55898876404
  30
0.0
  11
 8093.9747191011
  21
 206.55898876404
  31
0.0
   0
LINE
   5
F7
 100
AcDbEntity
   8
LEVEL001
 370
13
 100
AcDbLine
   6
CONTINUOUS
  62
7
  10
 8093.9747191011
  20
 206.55898876404
  30
0.0
  11
 8093.9747191011
  21
 5706.5589887640
  31
0.0
   0
LINE
   5
F8
 100
AcDbEntity
   8
LEVEL001
 370
13
 100
AcDbLine
   6
CONTINUOUS
  62
2
  10
 5453.9747191011
  20
 686.55898876404
  30
0.0
  11
 7133.9747191011
  21
 686.55898876404
  31
0.0
   0
POINT
   5
F9
 100
AcDbEntity
   8
LEVEL001
 100
AcDbPoint
  62
3
  10
 6293.9747191011
  20
 746.55898876404
  30
0.0
   0
MTEXT
   5
FA
 100
AcDbEntity
   8
LEVEL001
 370
13
  62
1
 100
AcDbMText
  10
 5625.9747191011
  20
 966.55898876404
  30
0.0
  40
 51.428571428572
  41
0.0
  71
6
  72
1
   1
\T1.000000;１６
   7
GMM001
  44
 0.79999984000003
   0
MTEXT
   5
FB
 100
AcDbEntity
   8
LEVEL001
 370
13
  62
1
 100
AcDbMText
  10
 6783.9747191011
  20
 1323.7062041558
  30
0.0
  40
 51.428571428572
  41
0.0
  71
4
  72
1
   1
\T1.000000;ＰＥ
   7
GMM001
  44
 0.79999984000003
   0
MTEXT
   5
FC
 100
AcDbEntity
   8
LEVEL001
 370
13
  62
1
 100
AcDbMText
  10
 5693.9747191011
  20
 966.55898876404
  30
0.0
  40
 51.428571428572
  41
0.0
  71
4
  72
1
   1
\T1.000000;同上ボルトナット
   7
GMM001
  44
 0.79999984000003
   0
MTEXT
   5
FD
 100
AcDbEntity
   8
LEVEL001
 370
13
  62
1
 100
AcDbMText
  10
 5625.9747191011
  20
 1086.5589887640
  30
0.0
  40
 51.428571428572
  41
0.0
  71
6
  72
1
   1
\T1.000000;１５
   7
GMM001
  44
 0.79999984000003
   0
MTEXT
   5
FE
 100
AcDbEntity
   8
LEVEL001
 370
13
  62
1
 100
AcDbMText
  10
 5693.9747191011
  20
 1086.5589887640
  30
0.0
  40
 51.428571428572
  41
0.0
  71
4
  72
1
   1
\T1.000000;注意板取付バンド
   7
GMM001
  44
 0.79999984000003
   0
LINE
   5
FF
 100
AcDbEntity
   8
LEVEL001
 370
13
 100
AcDbLine
   6
CONTINUOUS
  62
6
  10
 5453.9747191011
  20
 1026.5589887640
  30
0.0
  11
 8093.9747191011
  21
 1026.5589887640
  31
0.0
   0
MTEXT
   5
100
 100
AcDbEntity
   8
LEVEL001
 370
13
  62
1
 100
AcDbMText
  10
 5625.9747191011
  20
 1206.5589887640
  30
0.0
  40
 51.428571428572
  41
0.0
  71
6
  72
1
   1
\T1.000000;１４
   7
GMM001
  44
 0.79999984000003
   0
MTEXT
   5
101
 100
AcDbEntity
   8
LEVEL001
 370
13
  62
1
 100
AcDbMText
  10
 6705.9747191011
  20
 1206.5589887640
  30
0.0
  40
 51.428571428572
  41
0.0
  71
6
  72
1
   1
\T1.000000;１
   7
GMM001
  44
 0.79999984000003
   0
LINE
   5
102
 100
AcDbEntity
   8
LEVEL001
 370
13
 100
AcDbLine
   6
CONTINUOUS
  62
6
  10
 5453.9747191011
  20
 1146.5589887640
  30
0.0
  11
 8093.9747191011
  21
 1146.5589887640
  31
0.0
   0
LINE
   5
103
 100
AcDbEntity
   8
LEVEL001
 370
13
 100
AcDbLine
   6
CONTINUOUS
  62
6
  10
 5453.9747191011
  20
 1266.5589887640
  30
0.0
  11
 8093.9747191011
  21
 1266.5589887640
  31
0.0
   0
MTEXT
   5
104
 100
AcDbEntity
   8
LEVEL001
 370
13
  62
1
 100
AcDbMText
  10
 5625.9747191011
  20
 1326.5589887640
  30
0.0
  40
 51.428571428572
  41
0.0
  71
6
  72
1
   1
\T1.000000;１３
   7
GMM001
  44
 0.79999984000003
   0
MTEXT
   5
105
 100
AcDbEntity
   8
LEVEL001
 370
13
  62
1
 100
AcDbMText
  10
 5693.9747191011
  20
 1326.5589887640
  30
0.0
  40
 51.428571428572
  41
0.0
  71
4
  72
1
   1
\T1.000000;キャップ
   7
GMM001
  44
 0.79999984000003
   0
MTEXT
   5
106
 100
AcDbEntity
   8
LEVEL001
 370
13
  62
1
 100
AcDbMText
  10
 6705.9747191011
  20
 1326.5589887640
  30
0.0
  40
 51.428571428572
  41
0.0
  71
6
  72
1
   1
\T1.000000;１
   7
GMM001
  44
 0.79999984000003
   0
MTEXT
   5
107
 100
AcDbEntity
   8
LEVEL001
 370
13
  62
1
 100
AcDbMText
  10
 5625.9747191011
  20
 1446.5589887640
  30
0.0
  40
 51.428571428572
  41
0.0
  71
6
  72
1
   1
\T1.000000;１２
   7
GMM001
  44
 0.79999984000003
   0
MTEXT
   5
108
 100
AcDbEntity
   8
LEVEL001
 370
13
  62
1
 100
AcDbMText
  10
 5693.9747191011
  20
 1446.5589887640
  30
0.0
  40
 51.428571428572
  41
0.0
  71
4
  72
1
   1
\T1.000000;根入れ鉄筋
   7
GMM001
  44
 0.79999984000003
   0
MTEXT
   5
109
 100
AcDbEntity
   8
LEVEL001
 370
13
  62
1
 100
AcDbMText
  10
 6705.9747191011
  20
 1446.5589887640
  30
0.0
  40
 51.428571428572
  41
0.0
  71
6
  72
1
   1
\T1.000000;１
   7
GMM001
  44
 0.79999984000003
   0
MTEXT
   5
10A
 100
AcDbEntity
   8
LEVEL001
 370
13
  62
1
 100
AcDbMText
  10
 6773.9747191011
  20
 1446.5589887640
  30
0.0
  40
 51.428571428572
  41
0.0
  71
4
  72
1
   1
\T1.000000;ＳＤ２９５Ａ
   7
GMM001
  44
 0.79999984000003
   0
LINE
   5
10B
 100
AcDbEntity
   8
LEVEL001
 370
13
 100
AcDbLine
   6
CONTINUOUS
  62
6
  10
 5453.9747191011
  20
 1386.5589887640
  30
0.0
  11
 8093.9747191011
  21
 1386.5589887640
  31
0.0
   0
LINE
   5
10C
 100
AcDbEntity
   8
LEVEL001
 370
13
 100
AcDbLine
   6
CONTINUOUS
  62
6
  10
 5453.9747191011
  20
 1506.5589887640
  30
0.0
  11
 8093.9747191011
  21
 1506.5589887640
  31
0.0
   0
LINE
   5
10D
 100
AcDbEntity
   8
LEVEL001
 370
13
 100
AcDbLine
   6
CONTINUOUS
  62
7
  10
 1423.3442696133
  20
 4755.2382009928
  30
0.0
  11
 1454.6233214131
  21
 4774.7835218192
  31
0.0
   0
LINE
   5
10E
 100
AcDbEntity
   8
LEVEL001
 370
13
 100
AcDbLine
   6
CONTINUOUS
  62
7
  10
 1454.6233214131
  20
 4774.7835218192
  30
0.0
  11
 1454.6233214131
  21
 4704.0328176176
  31
0.0
   0
LINE
   5
10F
 100
AcDbEntity
   8
LEVEL001
 370
13
 100
AcDbLine
   6
CONTINUOUS
  62
7
  10
 1454.6233214131
  20
 4704.0328176176
  30
0.0
  11
 1426.8430914560
  21
 4686.6738033284
  31
0.0
   0
LINE
   5
110
 100
AcDbEntity
   8
LEVEL001
 370
13
 100
AcDbLine
   6
CONTINUOUS
  62
7
  10
 1535.3247191011
  20
 4589.0589472358
  30
0.0
  11
 1535.3247191011
  21
 4574.0589472358
  31
0.0
   0
LINE
   5
111
 100
AcDbEntity
   8
LEVEL001
 370
13
 100
AcDbLine
   6
CONTINUOUS
  62
7
  10
 1535.3247191011
  20
 4574.0589472358
  30
0.0
  11
 1418.9747268750
  21
 4574.0589472358
  31
0.0
   0
LINE
   5
112
 100
AcDbEntity
   8
LEVEL001
 370
13
 100
AcDbLine
   6
CONTINUOUS
  62
7
  10
 1418.9747268750
  20
 4574.0589472358
  30
0.0
  11
 1418.9747268750
  21
 4630.0414928440
  31
0.0
   0
LINE
   5
113
 100
AcDbEntity
   8
LEVEL001
 370
13
 100
AcDbLine
   6
CONTINUOUS
  62
7
  10
 1426.6962182549
  20
 4684.0589472358
  30
0.0
  11
 1535.3247191011
  21
 4684.0589472358
  31
0.0
   0
LINE
   5
114
 100
AcDbEntity
   8
LEVEL001
 370
13
 100
AcDbLine
   6
CONTINUOUS
  62
7
  10
 1535.3247191011
  20
 4684.0589472358
  30
0.0
  11
 1535.3247191011
  21
 4649.0589472358
  31
0.0
   0
LINE
   5
115
 100
AcDbEntity
   8
LEVEL001
 370
13
 100
AcDbLine
   6
CONTINUOUS
  62
7
  10
 1565.2208157370
  20
 4649.0589472358
  30
0.0
  11
 1533.3261167891
  21
 4649.0589472358
  31
0.0
   0
LINE
   5
116
 100
AcDbEntity
   8
LEVEL001
 370
13
 100
AcDbLine
   6
CONTINUOUS
  62
7
  10
 1533.3261167891
  20
 4649.0589472358
  30
0.0
  11
 1533.3261167891
  21
 4589.0589472358
  31
0.0
   0
LINE
   5
117
 100
AcDbEntity
   8
LEVEL001
 370
13
 100
AcDbLine
   6
CONTINUOUS
  62
7
  10
 1533.3261167891
  20
 4589.0589472358
  30
0.0
  11
 1581.1183611374
  21
 4589.0589472358
  31
0.0
   0
LINE
   5
118
 100
AcDbEntity
   8
LEVEL001
 370
13
 100
AcDbLine
   6
CONTINUOUS
  62
7
  10
 1452.6247191011
  20
 4702.7839522862
  30
0.0
  11
 1452.6247191011
  21
 4684.0589472358
  31
0.0
   0
LINE
   5
119
 100
AcDbEntity
   8
LEVEL001
 370
13
 100
AcDbLine
   6
CONTINUOUS
  62
7
  10
 1452.6247191011
  20
 4684.0589472358
  30
0.0
  11
 1561.2524007701
  21
 4684.0589472358
  31
0.0
   0
LINE
   5
11A
 100
AcDbEntity
   8
LEVEL001
 370
13
 100
AcDbLine
   6
CONTINUOUS
  62
7
  10
 1568.9747113272
  20
 4778.0802523552
  30
0.0
  11
 1568.9747113272
  21
 4794.0589472358
  31
0.0
   0
LINE
   5
11B
 100
AcDbEntity
   8
LEVEL001
 370
13
 100
AcDbLine
   6
CONTINUOUS
  62
7
  10
 1568.9747113272
  20
 4794.0589472358
  30
0.0
  11
 1452.6247191011
  21
 4794.0589472358
  31
0.0
   0
LINE
   5
11C
 100
AcDbEntity
   8
LEVEL001
 370
13
 100
AcDbLine
   6
CONTINUOUS
  62
7
  10
 1452.6247191011
  20
 4794.0589472358
  30
0.0
  11
 1452.6247191011
  21
 4773.5346564878
  31
0.0
   0
CIRCLE
   5
11D
 100
AcDbEntity
   8
LEVEL001
 370
13
 100
AcDbCircle
   6
CONTINUOUS
  62
7
  10
 1093.9747191011
  20
 4706.5589887640
  30
0.0
  40
 332.50000000000
   0
CIRCLE
   5
11E
 100
AcDbEntity
   8
LEVEL001
 370
13
 100
AcDbCircle
   6
CONTINUOUS
  62
7
  10
 1093.9747191011
  20
 4706.5589887640
  30
0.0
  40
 312.50000000000
   0
CIRCLE
   5
11F
 100
AcDbEntity
   8
LEVEL001
 370
13
 100
AcDbCircle
   6
CONTINUOUS
  62
6
  10
 1093.9747191011
  20
 4706.5589887640
  30
0.0
  40
 305.00000000000
   0
CIRCLE
   5
120
 100
AcDbEntity
   8
LEVEL001
 370
13
 100
AcDbCircle
   6
CONTINUOUS
  62
6
  10
 1093.9747191011
  20
 4706.5589887640
  30
0.0
  40
 310.00000000000
   0
ARC
   5
121
 100
AcDbEntity
   8
LEVEL001
 370
13
   6
CONTINUOUS
  62
1
 100
AcDbCircle
  10
 1093.9747191011
  20
 4706.5589887640
  30
0.0
  40
 310.00000000000
 100
AcDbArc
  50
 6.7865214711289
  51
 173.21347852886
   0
ARC
   5
122
 100
AcDbEntity
   8
LEVEL001
 370
13
   6
CONTINUOUS
  62
1
 100
AcDbCircle
  10
 1093.9747191011
  20
 4706.5589887640
  30
0.0
  40
 311.50000000000
 100
AcDbArc
  50
 6.7865214711232
  51
 173.21347852887
   0
LINE
   5
123
 100
AcDbEntity
   8
LEVEL001
 370
13
 100
AcDbLine
   6
CONTINUOUS
  62
1
  10
 786.14678539440
  20
 4743.1918050613
  30
0.0
  11
 784.65729539260
  21
 4743.3690606240
  31
0.0
   0
LINE
   5
124
 100
AcDbEntity
   8
LEVEL001
 370
13
 100
AcDbLine
   6
CONTINUOUS
  62
1
  10
 1401.8026528078
  20
 4743.1918050613
  30
0.0
  11
 1403.2921428096
  21
 4743.3690606240
  31
0.0
   0
CIRCLE
   5
125
 100
AcDbEntity
   8
LEVEL001
 370
13
 100
AcDbCircle
   6
CONTINUOUS
  62
7
  10
 1893.9747191011
  20
 4706.5589887640
  30
0.0
  40
 332.50000000000
   0
CIRCLE
   5
126
 100
AcDbEntity
   8
LEVEL001
 370
13
 100
AcDbCircle
   6
CONTINUOUS
  62
7
  10
 1893.9747191011
  20
 4706.5589887640
  30
0.0
  40
 312.50000000000
   0
CIRCLE
   5
127
 100
AcDbEntity
   8
LEVEL001
 370
13
 100
AcDbCircle
   6
CONTINUOUS
  62
6
  10
 1893.9747191011
  20
 4706.5589887640
  30
0.0
  40
 305.00000000000
   0
CIRCLE
   5
128
 100
AcDbEntity
   8
LEVEL001
 370
13
 100
AcDbCircle
   6
CONTINUOUS
  62
6
  10
 1893.9747191011
  20
 4706.5589887640
  30
0.0
  40
 310.00000000000
   0
ARC
   5
129
 100
AcDbEntity
   8
LEVEL001
 370
13
   6
CONTINUOUS
  62
1
 100
AcDbCircle
  10
 1893.9747191011
  20
 4706.5589887640
  30
0.0
  40
 310.00000000000
 100
AcDbArc
  50
 6.7865214711289
  51
 173.21347852887
   0
ARC
   5
12A
 100
AcDbEntity
   8
LEVEL001
 370
13
   6
CONTINUOUS
  62
1
 100
AcDbCircle
  10
 1893.9747191011
  20
 4706.5589887640
  30
0.0
  40
 311.50000000000
 100
AcDbArc
  50
 6.7865214711232
  51
 173.21347852887
   0
LINE
   5
12B
 100
AcDbEntity
   8
LEVEL001
 370
13
 100
AcDbLine
   6
CONTINUOUS
  62
1
  10
 1586.1467853944
  20
 4743.1918050613
  30
0.0
  11
 1584.6572953926
  21
 4743.3690606240
  31
0.0
   0
LINE
   5
12C
 100
AcDbEntity
   8
LEVEL001
 370
13
 100
AcDbLine
   6
CONTINUOUS
  62
1
  10
 2201.8026528077
  20
 4743.1918050613
  30
0.0
  11
 2203.2921428097
  21
 4743.3690606240
  31
0.0
   0
LINE
   5
12D
 100
AcDbEntity
   8
LEVEL001
 370
13
 100
AcDbLine
   6
DASHDOT
  62
6
  10
 718.97471910111
  20
 4706.5589887640
  30
0.0
  11
 1468.9747191011
  21
 4706.5589887640
  31
0.0
   0
LINE
   5
12E
 100
AcDbEntity
   8
LEVEL001
 370
13
 100
AcDbLine
   6
DASHDOT
  62
6
  10
 1093.9747191011
  20
 5081.5589887640
  30
0.0
  11
 1093.9747191011
  21
 4331.5589887640
  31
0.0
   0
LINE
   5
12F
 100
AcDbEntity
   8
LEVEL001
 370
13
 100
AcDbLine
   6
DASHDOT
  62
6
  10
 1893.9747191011
  20
 5081.5589887640
  30
0.0
  11
 1893.9747191011
  21
 4331.5589887640
  31
0.0
   0
LINE
   5
130
 100
AcDbEntity
   8
LEVEL001
 370
13
 100
AcDbLine
   6
DASHDOT
  62
6
  10
 1518.9747191011
  20
 4706.5589887640
  30
0.0
  11
 2268.9747191011
  21
 4706.5589887640
  31
0.0
   0
LINE
   5
131
 100
AcDbEntity
   8
LEVEL001
 370
13
 100
AcDbLine
   6
DASHDOT
  62
6
  10
 1533.9747113272
  20
 4769.0589472358
  30
0.0
  11
 1563.9747113272
  21
 4769.0589472358
  31
0.0
   0
LINE
   5
132
 100
AcDbEntity
   8
LEVEL001
 370
13
 100
AcDbLine
   6
DASHDOT
  62
6
  10
 1548.9747113272
  20
 4784.0589472358
  30
0.0
  11
 1548.9747113272
  21
 4754.0589472358
  31
0.0
   0
LINE
   5
133
 100
AcDbEntity
   8
LEVEL001
 370
13
 100
AcDbLine
   6
DASHDOT
  62
6
  10
 1533.9747113272
  20
 4709.0589472358
  30
0.0
  11
 1563.9747113272
  21
 4709.0589472358
  31
0.0
   0
LINE
   5
134
 100
AcDbEntity
   8
LEVEL001
 370
13
 100
AcDbLine
   6
DASHDOT
  62
6
  10
 1548.9747113272
  20
 4724.0589472358
  30
0.0
  11
 1548.9747113272
  21
 4694.0589472358
  31
0.0
   0
LINE
   5
135
 100
AcDbEntity
   8
LEVEL001
 370
13
 100
AcDbLine
   6
DASHDOT
  62
6
  10
 1423.9747268750
  20
 4659.0589472358
  30
0.0
  11
 1453.9747268750
  21
 4659.0589472358
  31
0.0
   0
LINE
   5
136
 100
AcDbEntity
   8
LEVEL001
 370
13
 100
AcDbLine
   6
DASHDOT
  62
6
  10
 1438.9747268750
  20
 4674.0589472358
  30
0.0
  11
 1438.9747268750
  21
 4644.0589472358
  31
0.0
   0
LINE
   5
137
 100
AcDbEntity
   8
LEVEL001
 370
13
 100
AcDbLine
   6
DASHDOT
  62
6
  10
 1423.9747268750
  20
 4599.0589472358
  30
0.0
  11
 1453.9747268750
  21
 4599.0589472358
  31
0.0
   0
LINE
   5
138
 100
AcDbEntity
   8
LEVEL001
 370
13
 100
AcDbLine
   6
DASHDOT
  62
6
  10
 1438.9747268750
  20
 4614.0589472358
  30
0.0
  11
 1438.9747268750
  21
 4584.0589472358
  31
0.0
   0
LINE
   5
139
 100
AcDbEntity
   8
LEVEL001
 370
13
 100
AcDbLine
   6
CONTINUOUS
  62
6
  10
 1529.3296204227
  20
 4789.0589472358
  30
0.0
  11
 1529.3296204227
  21
 4689.0589472358
  31
0.0
   0
LINE
   5
13A
 100
AcDbEntity
   8
LEVEL001
 370
13
 100
AcDbLine
   6
CONTINUOUS
  62
6
  10
 1458.6198177795
  20
 4679.0589472358
  30
0.0
  11
 1458.6198177795
  21
 4579.0589472358
  31
0.0
   0
LINE
   5
13B
 100
AcDbEntity
   8
LEVEL001
 370
13
 100
AcDbLine
   6
CONTINUOUS
  62
3
  10
 1541.9747113272
  20
 4762.0589472358
  30
0.0
  11
 1555.9747113272
  21
 4762.0589472358
  31
0.0
   0
LINE
   5
13C
 100
AcDbEntity
   8
LEVEL001
 370
13
 100
AcDbLine
   6
CONTINUOUS
  62
3
  10
 1555.9747113272
  20
 4762.0589472358
  30
0.0
  11
 1555.9747113272
  21
 4776.0589472358
  31
0.0
   0
LINE
   5
13D
 100
AcDbEntity
   8
LEVEL001
 370
13
 100
AcDbLine
   6
CONTINUOUS
  62
3
  10
 1555.9747113272
  20
 4776.0589472358
  30
0.0
  11
 1541.9747113272
  21
 4776.0589472358
  31
0.0
   0
LINE
   5
13E
 100
AcDbEntity
   8
LEVEL001
 370
13
 100
AcDbLine
   6
CONTINUOUS
  62
3
  10
 1541.9747113272
  20
 4776.0589472358
  30
0.0
  11
 1541.9747113272
  21
 4762.0589472358
  31
0.0
   0
LINE
   5
13F
 100
AcDbEntity
   8
LEVEL001
 370
13
 100
AcDbLine
   6
CONTINUOUS
  62
3
  10
 1541.9747113272
  20
 4702.0589472358
  30
0.0
  11
 1555.9747113272
  21
 4702.0589472358
  31
0.0
   0
LINE
   5
140
 100
AcDbEntity
   8
LEVEL001
 370
13
 100
AcDbLine
   6
CONTINUOUS
  62
3
  10
 1555.9747113272
  20
 4702.0589472358
  30
0.0
  11
 1555.9747113272
  21
 4716.0589472358
  31
0.0
   0
LINE
   5
141
 100
AcDbEntity
   8
LEVEL001
 370
13
 100
AcDbLine
   6
CONTINUOUS
  62
3
  10
 1555.9747113272
  20
 4716.0589472358
  30
0.0
  11
 1541.9747113272
  21
 4716.0589472358
  31
0.0
   0
LINE
   5
142
 100
AcDbEntity
   8
LEVEL001
 370
13
 100
AcDbLine
   6
CONTINUOUS
  62
3
  10
 1541.9747113272
  20
 4716.0589472358
  30
0.0
  11
 1541.9747113272
  21
 4702.0589472358
  31
0.0
   0
LINE
   5
143
 100
AcDbEntity
   8
LEVEL001
 370
13
 100
AcDbLine
   6
CONTINUOUS
  62
3
  10
 1445.9747268750
  20
 4652.0589472358
  30
0.0
  11
 1431.9747268750
  21
 4652.0589472358
  31
0.0
   0
LINE
   5
144
 100
AcDbEntity
   8
LEVEL001
 370
13
 100
AcDbLine
   6
CONTINUOUS
  62
3
  10
 1431.9747268750
  20
 4652.0589472358
  30
0.0
  11
 1431.9747268750
  21
 4666.0589472358
  31
0.0
   0
LINE
   5
145
 100
AcDbEntity
   8
LEVEL001
 370
13
 100
AcDbLine
   6
CONTINUOUS
  62
3
  10
 1431.9747268750
  20
 4666.0589472358
  30
0.0
  11
 1445.9747268750
  21
 4666.0589472358
  31
0.0
   0
LINE
   5
146
 100
AcDbEntity
   8
LEVEL001
 370
13
 100
AcDbLine
   6
CONTINUOUS
  62
3
  10
 1445.9747268750
  20
 4666.0589472358
  30
0.0
  11
 1445.9747268750
  21
 4652.0589472358
  31
0.0
   0
LINE
   5
147
 100
AcDbEntity
   8
LEVEL001
 370
13
 100
AcDbLine
   6
CONTINUOUS
  62
3
  10
 1445.9747268750
  20
 4592.0589472358
  30
0.0
  11
 1431.9747268750
  21
 4592.0589472358
  31
0.0
   0
LINE
   5
148
 100
AcDbEntity
   8
LEVEL001
 370
13
 100
AcDbLine
   6
CONTINUOUS
  62
3
  10
 1431.9747268750
  20
 4592.0589472358
  30
0.0
  11
 1431.9747268750
  21
 4606.0589472358
  31
0.0
   0
LINE
   5
149
 100
AcDbEntity
   8
LEVEL001
 370
13
 100
AcDbLine
   6
CONTINUOUS
  62
3
  10
 1431.9747268750
  20
 4606.0589472358
  30
0.0
  11
 1445.9747268750
  21
 4606.0589472358
  31
0.0
   0
LINE
   5
14A
 100
AcDbEntity
   8
LEVEL001
 370
13
 100
AcDbLine
   6
CONTINUOUS
  62
3
  10
 1445.9747268750
  20
 4606.0589472358
  30
0.0
  11
 1445.9747268750
  21
 4592.0589472358
  31
0.0
   0
LINE
   5
14B
 100
AcDbEntity
   8
LEVEL001
 370
13
 100
AcDbLine
   6
CONTINUOUS
  62
7
  10
 1532.1247191011
  20
 4878.0589887640
  30
0.0
  11
 1455.8247191011
  21
 4878.0589887640
  31
0.0
   0
LINE
   5
14C
 100
AcDbEntity
   8
LEVEL001
 370
13
 100
AcDbLine
   6
CONTINUOUS
  62
7
  10
 1455.8247191011
  20
 4878.0589887640
  30
0.0
  11
 1455.8247191011
  21
 4875.0589887640
  31
0.0
   0
LINE
   5
14D
 100
AcDbEntity
   8
LEVEL001
 370
13
 100
AcDbLine
   6
CONTINUOUS
  62
7
  10
 1455.8247191011
  20
 4875.0589887640
  30
0.0
  11
 1532.1247191011
  21
 4875.0589887640
  31
0.0
   0
LINE
   5
14E
 100
AcDbEntity
   8
LEVEL001
 370
13
 100
AcDbLine
   6
CONTINUOUS
  62
7
  10
 1532.1247191011
  20
 4875.0589887640
  30
0.0
  11
 1532.1247191011
  21
 4878.0589887640
  31
0.0
   0
LINE
   5
14F
 100
AcDbEntity
   8
LEVEL001
 370
13
 100
AcDbLine
   6
DOT
  62
1
  10
 1527.1247191011
  20
 4875.0589887640
  30
0.0
  11
 1527.1247191011
  21
 4848.0589887640
  31
0.0
   0
LINE
   5
150
 100
AcDbEntity
   8
LEVEL001
 370
13
 100
AcDbLine
   6
DOT
  62
1
  10
 1527.1247191011
  20
 4848.0589887640
  30
0.0
  11
 1460.8247191011
  21
 4848.0589887640
  31
0.0
   0
LINE
   5
151
 100
AcDbEntity
   8
LEVEL001
 370
13
 100
AcDbLine
   6
DOT
  62
1
  10
 1460.8247191011
  20
 4848.0589887640
  30
0.0
  11
 1460.8247191011
  21
 4875.0589887640
  31
0.0
   0
LINE
   5
152
 100
AcDbEntity
   8
LEVEL001
 370
13
 100
AcDbLine
   6
CONTINUOUS
  62
7
  10
 1532.1247191011
  20
 4794.0589472358
  30
0.0
  11
 1532.1247191011
  21
 4874.0589887640
  31
0.0
   0
LINE
   5
153
 100
AcDbEntity
   8
LEVEL001
 370
13
 100
AcDbLine
   6
CONTINUOUS
  62
7
  10
 1532.1247191011
  20
 4874.0589887640
  30
0.0
  11
 1455.8247191011
  21
 4874.0589887640
  31
0.0
   0
LINE
   5
154
 100
AcDbEntity
   8
LEVEL001
 370
13
 100
AcDbLine
   6
CONTINUOUS
  62
7
  10
 1455.8247191011
  20
 4874.0589887640
  30
0.0
  11
 1455.8247191011
  21
 4794.0589472358
  31
0.0
   0
LINE
   5
155
 100
AcDbEntity
   8
LEVEL001
 370
13
 100
AcDbLine
   6
DASHDOT
  62
6
  10
 1493.9747191011
  20
 4924.0589887640
  30
0.0
  11
 1493.9747191011
  21
 774.05898876406
  31
0.0
   0
LINE
   5
156
 100
AcDbEntity
   8
LEVEL001
 370
13
 100
AcDbLine
   6
DASHDOT
  62
6
  10
 1433.9747010155
  20
 1274.0589887641
  30
0.0
  11
 1553.9747010155
  21
 1274.0589887641
  31
0.0
   0
CIRCLE
   5
157
 100
AcDbEntity
   8
LEVEL001
 370
13
 100
AcDbCircle
   6
CONTINUOUS
  62
7
  10
 1493.9746852990
  20
 1174.0589887641
  30
0.0
  40
 7.5000000000000
   0
LINE
   5
158
 100
AcDbEntity
   8
LEVEL001
 370
13
 100
AcDbLine
   6
DASHDOT
  62
6
  10
 1463.9746852990
  20
 1174.0589887641
  30
0.0
  11
 1523.9746852990
  21
 1174.0589887641
  31
0.0
   0
CIRCLE
   5
159
 100
AcDbEntity
   8
LEVEL001
 370
13
 100
AcDbCircle
   6
CONTINUOUS
  62
7
  10
 4496.8626705807
  20
 4706.5589887640
  30
0.0
  40
 332.50000000000
   0
CIRCLE
   5
15A
 100
AcDbEntity
   8
LEVEL001
 370
13
 100
AcDbCircle
   6
CONTINUOUS
  62
7
  10
 4355.4413143435
  20
 4847.9803450015
  30
0.0
  40
 35.000000000000
   0
CIRCLE
   5
15B
 100
AcDbEntity
   8
LEVEL001
 370
13
 100
AcDbCircle
   6
CONTINUOUS
  62
6
  10
 4355.4413143435
  20
 4847.9803450015
  30
0.0
  40
 50.000000000000
   0
CIRCLE
   5
15C
 100
AcDbEntity
   8
LEVEL001
 370
13
 100
AcDbCircle
   6
CONTINUOUS
  62
7
  10
 4638.2840268179
  20
 4847.9803450015
  30
0.0
  40
 35.000000000000
   0
CIRCLE
   5
15D
 100
AcDbEntity
   8
LEVEL001
 370
13
 100
AcDbCircle
   6
CONTINUOUS
  62
6
  10
 4638.2840268179
  20
 4847.9803450015
  30
0.0
  40
 50.000000000000
   0
CIRCLE
   5
15E
 100
AcDbEntity
   8
LEVEL001
 370
13
 100
AcDbCircle
   6
CONTINUOUS
  62
7
  10
 4638.2840268181
  20
 4565.1376325268
  30
0.0
  40
 35.000000000000
   0
CIRCLE
   5
15F
 100
AcDbEntity
   8
LEVEL001
 370
13
 100
AcDbCircle
   6
CONTINUOUS
  62
6
  10
 4638.2840268181
  20
 4565.1376325268
  30
0.0
  40
 50.000000000000
   0
CIRCLE
   5
160
 100
AcDbEntity
   8
LEVEL001
 370
13
 100
AcDbCircle
   6
CONTINUOUS
  62
7
  10
 4355.4413143433
  20
 4565.1376325268
  30
0.0
  40
 35.000000000000
   0
CIRCLE
   5
161
 100
AcDbEntity
   8
LEVEL001
 370
13
 100
AcDbCircle
   6
CONTINUOUS
  62
6
  10
 4355.4413143433
  20
 4565.1376325268
  30
0.0
  40
 50.000000000000
   0
ARC
   5
162
 100
AcDbEntity
   8
LEVEL001
 370
13
   6
CONTINUOUS
  62
7
 100
AcDbCircle
  10
 4746.8626705807
  20
 4706.5589887640
  30
0.0
  40
 15.000000000000
 100
AcDbArc
  50
0.0
  51
 90.000000000000
   0
ARC
   5
163
 100
AcDbEntity
   8
LEVEL001
 370
13
   6
CONTINUOUS
  62
7
 100
AcDbCircle
  10
 4746.8626705807
  20
 4706.5589887640
  30
0.0
  40
 15.000000000000
 100
AcDbArc
  50
 270.00000000000
  51
0.0
   0
ARC
   5
164
 100
AcDbEntity
   8
LEVEL001
 370
13
   6
CONTINUOUS
  62
7
 100
AcDbCircle
  10
 4246.8626705807
  20
 4706.5589887642
  30
0.0
  40
 15.000000000000
 100
AcDbArc
  50
 180.00000000000
  51
 270.00000000000
   0
ARC
   5
165
 100
AcDbEntity
   8
LEVEL001
 370
13
   6
CONTINUOUS
  62
7
 100
AcDbCircle
  10
 4246.8626705807
  20
 4706.5589887642
  30
0.0
  40
 15.000000000000
 100
AcDbArc
  50
 90.000000000000
  51
 180.00000000000
   0
ARC
   5
166
 100
AcDbEntity
   8
LEVEL001
 370
13
   6
CONTINUOUS
  62
6
 100
AcDbCircle
  10
 4746.8626705807
  20
 4706.5589887640
  30
0.0
  40
 30.000000000000
 100
AcDbArc
  50
0.0
  51
 90.000000000000
   0
ARC
   5
167
 100
AcDbEntity
   8
LEVEL001
 370
13
   6
CONTINUOUS
  62
6
 100
AcDbCircle
  10
 4746.8626705807
  20
 4706.5589887640
  30
0.0
  40
 30.000000000000
 100
AcDbArc
  50
 270.00000000000
  51
0.0
   0
ARC
   5
168
 100
AcDbEntity
   8
LEVEL001
 370
13
   6
CONTINUOUS
  62
6
 100
AcDbCircle
  10
 4246.8626705807
  20
 4706.5589887642
  30
0.0
  40
 30.000000000000
 100
AcDbArc
  50
 180.00000000000
  51
 270.00000000000
   0
ARC
   5
169
 100
AcDbEntity
   8
LEVEL001
 370
13
   6
CONTINUOUS
  62
6
 100
AcDbCircle
  10
 4246.8626705807
  20
 4706.5589887642
  30
0.0
  40
 30.000000000000
 100
AcDbArc
  50
 90.000000000000
  51
 180.00000000000
   0
ARC
   5
16A
 100
AcDbEntity
   8
LEVEL001
 370
13
   6
CONTINUOUS
  62
7
 100
AcDbCircle
  10
 4493.9747191013
  20
 4956.5589887640
  30
0.0
  40
 15.000000000000
 100
AcDbArc
  50
 90.000000000000
  51
 180.00000000000
   0
ARC
   5
16B
 100
AcDbEntity
   8
LEVEL001
 370
13
   6
CONTINUOUS
  62
6
 100
AcDbCircle
  10
 4493.9747191013
  20
 4956.5589887640
  30
0.0
  40
 30.000000000000
 100
AcDbArc
  50
 90.000000000000
  51
 180.00000000000
   0
ARC
   5
16C
 100
AcDbEntity
   8
LEVEL001
 370
13
   6
CONTINUOUS
  62
7
 100
AcDbCircle
  10
 4493.9747191013
  20
 4956.5589887640
  30
0.0
  40
 15.000000000000
 100
AcDbArc
  50
0.0
  51
 90.000000000000
   0
ARC
   5
16D
 100
AcDbEntity
   8
LEVEL001
 370
13
   6
CONTINUOUS
  62
6
 100
AcDbCircle
  10
 4493.9747191013
  20
 4956.5589887640
  30
0.0
  40
 30.000000000000
 100
AcDbArc
  50
0.0
  51
 90.000000000000
   0
ARC
   5
16E
 100
AcDbEntity
   8
LEVEL001
 370
13
   6
CONTINUOUS
  62
7
 100
AcDbCircle
  10
 4493.9747191011
  20
 4456.5589887642
  30
0.0
  40
 15.000000000000
 100
AcDbArc
  50
 180.00000000000
  51
 270.00000000000
   0
ARC
   5
16F
 100
AcDbEntity
   8
LEVEL001
 370
13
   6
CONTINUOUS
  62
6
 100
AcDbCircle
  10
 4493.9747191011
  20
 4456.5589887642
  30
0.0
  40
 30.000000000000
 100
AcDbArc
  50
 180.00000000000
  51
 270.00000000000
   0
ARC
   5
170
 100
AcDbEntity
   8
LEVEL001
 370
13
   6
CONTINUOUS
  62
7
 100
AcDbCircle
  10
 4493.9747191011
  20
 4456.5589887642
  30
0.0
  40
 15.000000000000
 100
AcDbArc
  50
 270.00000000000
  51
0.0
   0
ARC
   5
171
 100
AcDbEntity
   8
LEVEL001
 370
13
   6
CONTINUOUS
  62
6
 100
AcDbCircle
  10
 4493.9747191011
  20
 4456.5589887642
  30
0.0
  40
 30.000000000000
 100
AcDbArc
  50
 270.00000000000
  51
0.0
   0
LINE
   5
172
 100
AcDbEntity
   8
LEVEL001
 370
13
 100
AcDbLine
   6
CONTINUOUS
  62
6
  10
 4246.8626705807
  20
 4736.5589887642
  30
0.0
  11
 4368.5753570613
  21
 4736.5589887642
  31
0.0
   0
ARC
   5
173
 100
AcDbEntity
   8
LEVEL001
 370
13
   6
CONTINUOUS
  62
6
 100
AcDbCircle
  10
 4368.5753570613
  20
 4756.5589887642
  30
0.0
  40
 20.000000000000
 100
AcDbArc
  50
 270.00000000000
  51
 338.26153920838
   0
LINE
   5
174
 100
AcDbEntity
   8
LEVEL001
 370
13
 100
AcDbLine
   6
CONTINUOUS
  62
6
  10
 4463.9747191013
  20
 4831.9583508040
  30
0.0
  11
 4463.9747191013
  21
 4956.5589887640
  31
0.0
   0
ARC
   5
175
 100
AcDbEntity
   8
LEVEL001
 370
13
   6
CONTINUOUS
  62
6
 100
AcDbCircle
  10
 4443.9747191013
  20
 4831.9583508040
  30
0.0
  40
 20.000000000000
 100
AcDbArc
  50
 291.73846079140
  51
0.0
   0
ARC
   5
176
 100
AcDbEntity
   8
LEVEL001
 370
13
   6
CONTINUOUS
  62
6
 100
AcDbCircle
  10
 4493.9747191011
  20
 4706.5589887640
  30
0.0
  40
 115.00000000000
 100
AcDbArc
  50
 111.73846079139
  51
 158.26153920836
   0
LINE
   5
177
 100
AcDbEntity
   8
LEVEL001
 370
13
 100
AcDbLine
   6
CONTINUOUS
  62
6
  10
 4523.9747191013
  20
 4956.5589887640
  30
0.0
  11
 4523.9747191013
  21
 4831.9583508038
  31
0.0
   0
ARC
   5
178
 100
AcDbEntity
   8
LEVEL001
 370
13
   6
CONTINUOUS
  62
6
 100
AcDbCircle
  10
 4543.9747191013
  20
 4831.9583508038
  30
0.0
  40
 20.000000000000
 100
AcDbArc
  50
 180.00000000000
  51
 248.26153920838
   0
LINE
   5
179
 100
AcDbEntity
   8
LEVEL001
 370
13
 100
AcDbLine
   6
CONTINUOUS
  62
6
  10
 4619.3740811409
  20
 4736.5589887640
  30
0.0
  11
 4746.8626705807
  21
 4736.5589887640
  31
0.0
   0
ARC
   5
17A
 100
AcDbEntity
   8
LEVEL001
 370
13
   6
CONTINUOUS
  62
6
 100
AcDbCircle
  10
 4619.3740811409
  20
 4756.5589887640
  30
0.0
  40
 20.000000000000
 100
AcDbArc
  50
 201.73846079153
  51
 270.00000000000
   0
ARC
   5
17B
 100
AcDbEntity
   8
LEVEL001
 370
13
   6
CONTINUOUS
  62
6
 100
AcDbCircle
  10
 4493.9747191011
  20
 4706.5589887640
  30
0.0
  40
 115.00000000000
 100
AcDbArc
  50
 21.738460791517
  51
 68.261539208352
   0
LINE
   5
17C
 100
AcDbEntity
   8
LEVEL001
 370
13
 100
AcDbLine
   6
CONTINUOUS
  62
6
  10
 4746.8626705807
  20
 4676.5589887640
  30
0.0
  11
 4619.3740811409
  21
 4676.5589887640
  31
0.0
   0
ARC
   5
17D
 100
AcDbEntity
   8
LEVEL001
 370
13
   6
CONTINUOUS
  62
6
 100
AcDbCircle
  10
 4619.3740811409
  20
 4656.5589887640
  30
0.0
  40
 20.000000000000
 100
AcDbArc
  50
 90.000000000000
  51
 158.26153920851
   0
LINE
   5
17E
 100
AcDbEntity
   8
LEVEL001
 370
13
 100
AcDbLine
   6
CONTINUOUS
  62
6
  10
 4523.9747191011
  20
 4581.1596267242
  30
0.0
  11
 4523.9747191011
  21
 4456.5589887642
  31
0.0
   0
ARC
   5
17F
 100
AcDbEntity
   8
LEVEL001
 370
13
   6
CONTINUOUS
  62
6
 100
AcDbCircle
  10
 4543.9747191011
  20
 4581.1596267242
  30
0.0
  40
 20.000000000000
 100
AcDbArc
  50
 111.73846079149
  51
 180.00000000000
   0
ARC
   5
180
 100
AcDbEntity
   8
LEVEL001
 370
13
   6
CONTINUOUS
  62
6
 100
AcDbCircle
  10
 4493.9747191011
  20
 4706.5589887640
  30
0.0
  40
 115.00000000000
 100
AcDbArc
  50
 291.73846079152
  51
 338.26153920848
   0
LINE
   5
181
 100
AcDbEntity
   8
LEVEL001
 370
13
 100
AcDbLine
   6
CONTINUOUS
  62
6
  10
 4463.9747191011
  20
 4456.5589887642
  30
0.0
  11
 4463.9747191011
  21
 4581.1596267242
  31
0.0
   0
ARC
   5
182
 100
AcDbEntity
   8
LEVEL001
 370
13
   6
CONTINUOUS
  62
6
 100
AcDbCircle
  10
 4443.9747191011
  20
 4581.1596267242
  30
0.0
  40
 20.000000000000
 100
AcDbArc
  50
0.0
  51
 68.261539208509
   0
LINE
   5
183
 100
AcDbEntity
   8
LEVEL001
 370
13
 100
AcDbLine
   6
CONTINUOUS
  62
6
  10
 4368.5753570611
  20
 4676.5589887642
  30
0.0
  11
 4246.8626705807
  21
 4676.5589887642
  31
0.0
   0
ARC
   5
184
 100
AcDbEntity
   8
LEVEL001
 370
13
   6
CONTINUOUS
  62
6
 100
AcDbCircle
  10
 4368.5753570611
  20
 4656.5589887642
  30
0.0
  40
 20.000000000000
 100
AcDbArc
  50
 21.738460791398
  51
 90.000000000000
   0
ARC
   5
185
 100
AcDbEntity
   8
LEVEL001
 370
13
   6
CONTINUOUS
  62
6
 100
AcDbCircle
  10
 4493.9747191011
  20
 4706.5589887640
  30
0.0
  40
 115.00000000000
 100
AcDbArc
  50
 201.73846079140
  51
 248.26153920848
   0
LINE
   5
186
 100
AcDbEntity
   8
LEVEL001
 370
13
 100
AcDbLine
   6
CONTINUOUS
  62
7
  10
 4246.8626705807
  20
 4721.5589887642
  30
0.0
  11
 4368.5753570613
  21
 4721.5589887642
  31
0.0
   0
ARC
   5
187
 100
AcDbEntity
   8
LEVEL001
 370
13
   6
CONTINUOUS
  62
7
 100
AcDbCircle
  10
 4368.5753570613
  20
 4756.5589887642
  30
0.0
  40
 35.000000000000
 100
AcDbArc
  50
 270.00000000000
  51
 338.26153920837
   0
LINE
   5
188
 100
AcDbEntity
   8
LEVEL001
 370
13
 100
AcDbLine
   6
CONTINUOUS
  62
7
  10
 4368.5753570611
  20
 4691.5589887642
  30
0.0
  11
 4246.8626705807
  21
 4691.5589887642
  31
0.0
   0
ARC
   5
189
 100
AcDbEntity
   8
LEVEL001
 370
13
   6
CONTINUOUS
  62
7
 100
AcDbCircle
  10
 4368.5753570611
  20
 4656.5589887642
  30
0.0
  40
 35.000000000000
 100
AcDbArc
  50
 21.738460791392
  51
 90.000000000000
   0
LINE
   5
18A
 100
AcDbEntity
   8
LEVEL001
 370
13
 100
AcDbLine
   6
CONTINUOUS
  62
7
  10
 4478.9747191011
  20
 4456.5589887642
  30
0.0
  11
 4478.9747191011
  21
 4581.1596267242
  31
0.0
   0
ARC
   5
18B
 100
AcDbEntity
   8
LEVEL001
 370
13
   6
CONTINUOUS
  62
7
 100
AcDbCircle
  10
 4443.9747191011
  20
 4581.1596267242
  30
0.0
  40
 35.000000000000
 100
AcDbArc
  50
0.0
  51
 68.261539208480
   0
ARC
   5
18C
 100
AcDbEntity
   8
LEVEL001
 370
13
   6
CONTINUOUS
  62
7
 100
AcDbCircle
  10
 4493.9747191011
  20
 4706.5589887640
  30
0.0
  40
 100.00000000000
 100
AcDbArc
  50
 201.73846079139
  51
 248.26153920848
   0
LINE
   5
18D
 100
AcDbEntity
   8
LEVEL001
 370
13
 100
AcDbLine
   6
CONTINUOUS
  62
7
  10
 4508.9747191011
  20
 4581.1596267242
  30
0.0
  11
 4508.9747191011
  21
 4456.5589887642
  31
0.0
   0
ARC
   5
18E
 100
AcDbEntity
   8
LEVEL001
 370
13
   6
CONTINUOUS
  62
7
 100
AcDbCircle
  10
 4543.9747191011
  20
 4581.1596267242
  30
0.0
  40
 35.000000000000
 100
AcDbArc
  50
 111.73846079152
  51
 180.00000000000
   0
LINE
   5
18F
 100
AcDbEntity
   8
LEVEL001
 370
13
 100
AcDbLine
   6
CONTINUOUS
  62
7
  10
 4746.8626705807
  20
 4691.5589887640
  30
0.0
  11
 4619.3740811409
  21
 4691.5589887640
  31
0.0
   0
ARC
   5
190
 100
AcDbEntity
   8
LEVEL001
 370
13
   6
CONTINUOUS
  62
7
 100
AcDbCircle
  10
 4619.3740811409
  20
 4656.5589887640
  30
0.0
  40
 35.000000000000
 100
AcDbArc
  50
 90.000000000024
  51
 158.26153920850
   0
ARC
   5
191
 100
AcDbEntity
   8
LEVEL001
 370
13
   6
CONTINUOUS
  62
7
 100
AcDbCircle
  10
 4493.9747191011
  20
 4706.5589887640
  30
0.0
  40
 100.00000000000
 100
AcDbArc
  50
 291.73846079152
  51
 338.26153920847
   0
LINE
   5
192
 100
AcDbEntity
   8
LEVEL001
 370
13
 100
AcDbLine
   6
CONTINUOUS
  62
7
  10
 4619.3740811409
  20
 4721.5589887640
  30
0.0
  11
 4746.8626705807
  21
 4721.5589887640
  31
0.0
   0
ARC
   5
193
 100
AcDbEntity
   8
LEVEL001
 370
13
   6
CONTINUOUS
  62
7
 100
AcDbCircle
  10
 4619.3740811409
  20
 4756.5589887640
  30
0.0
  40
 35.000000000000
 100
AcDbArc
  50
 201.73846079152
  51
 270.00000000000
   0
LINE
   5
194
 100
AcDbEntity
   8
LEVEL001
 370
13
 100
AcDbLine
   6
CONTINUOUS
  62
7
  10
 4508.9747191013
  20
 4956.5589887640
  30
0.0
  11
 4508.9747191013
  21
 4831.9583508038
  31
0.0
   0
ARC
   5
195
 100
AcDbEntity
   8
LEVEL001
 370
13
   6
CONTINUOUS
  62
7
 100
AcDbCircle
  10
 4543.9747191013
  20
 4831.9583508038
  30
0.0
  40
 35.000000000000
 100
AcDbArc
  50
 180.00000000000
  51
 248.26153920836
   0
ARC
   5
196
 100
AcDbEntity
   8
LEVEL001
 370
13
   6
CONTINUOUS
  62
7
 100
AcDbCircle
  10
 4493.9747191011
  20
 4706.5589887640
  30
0.0
  40
 100.00000000000
 100
AcDbArc
  50
 21.738460791522
  51
 68.261539208355
   0
LINE
   5
197
 100
AcDbEntity
   8
LEVEL001
 370
13
 100
AcDbLine
   6
CONTINUOUS
  62
7
  10
 4478.9747191013
  20
 4831.9583508040
  30
0.0
  11
 4478.9747191013
  21
 4956.5589887640
  31
0.0
   0
ARC
   5
198
 100
AcDbEntity
   8
LEVEL001
 370
13
   6
CONTINUOUS
  62
7
 100
AcDbCircle
  10
 4443.9747191013
  20
 4831.9583508040
  30
0.0
  40
 35.000000000000
 100
AcDbArc
  50
 291.73846079136
  51
0.0
   0
ARC
   5
199
 100
AcDbEntity
   8
LEVEL001
 370
13
   6
CONTINUOUS
  62
7
 100
AcDbCircle
  10
 4493.9747191011
  20
 4706.5589887640
  30
0.0
  40
 100.00000000000
 100
AcDbArc
  50
 111.73846079139
  51
 158.26153920835
   0
CIRCLE
   5
19A
 100
AcDbEntity
   8
LEVEL001
 370
13
 100
AcDbCircle
   6
CONTINUOUS
  62
7
  10
 4496.8626705807
  20
 4706.5589887640
  30
0.0
  40
 307.50000000000
   0
CIRCLE
   5
19B
 100
AcDbEntity
   8
LEVEL001
 370
13
 100
AcDbCircle
   6
CONTINUOUS
  62
7
  10
 4496.8626705807
  20
 4706.5589887640
  30
0.0
  40
 312.50000000000
   0
CIRCLE
   5
19C
 100
AcDbEntity
   8
LEVEL001
 370
13
 100
AcDbCircle
   6
CONTINUOUS
  62
7
  10
 4496.8626705807
  20
 4706.5589887640
  30
0.0
  40
 305.00000000000
   0
LINE
   5
19D
 100
AcDbEntity
   8
LEVEL001
 370
13
 100
AcDbLine
   6
DASHDOT
  62
6
  10
 4443.9747191011
  20
 4771.5589887640
  30
0.0
  11
 4443.9747191011
  21
 4741.5589887640
  31
0.0
   0
LINE
   5
19E
 100
AcDbEntity
   8
LEVEL001
 370
13
 100
AcDbLine
   6
DASHDOT
  62
6
  10
 4428.9747191011
  20
 4756.5589887640
  30
0.0
  11
 4458.9747191011
  21
 4756.5589887640
  31
0.0
   0
LINE
   5
19F
 100
AcDbEntity
   8
LEVEL001
 370
13
 100
AcDbLine
   6
DASHDOT
  62
6
  10
 4543.9747191011
  20
 4771.5589887640
  30
0.0
  11
 4543.9747191011
  21
 4741.5589887640
  31
0.0
   0
LINE
   5
1A0
 100
AcDbEntity
   8
LEVEL001
 370
13
 100
AcDbLine
   6
DASHDOT
  62
6
  10
 4528.9747191011
  20
 4756.5589887640
  30
0.0
  11
 4558.9747191011
  21
 4756.5589887640
  31
0.0
   0
LINE
   5
1A1
 100
AcDbEntity
   8
LEVEL001
 370
13
 100
AcDbLine
   6
DASHDOT
  62
6
  10
 4543.9747191011
  20
 4671.5589887640
  30
0.0
  11
 4543.9747191011
  21
 4641.5589887640
  31
0.0
   0
LINE
   5
1A2
 100
AcDbEntity
   8
LEVEL001
 370
13
 100
AcDbLine
   6
DASHDOT
  62
6
  10
 4528.9747191011
  20
 4656.5589887640
  30
0.0
  11
 4558.9747191011
  21
 4656.5589887640
  31
0.0
   0
LINE
   5
1A3
 100
AcDbEntity
   8
LEVEL001
 370
13
 100
AcDbLine
   6
DASHDOT
  62
6
  10
 4443.9747191011
  20
 4671.5589887640
  30
0.0
  11
 4443.9747191011
  21
 4641.5589887640
  31
0.0
   0
LINE
   5
1A4
 100
AcDbEntity
   8
LEVEL001
 370
13
 100
AcDbLine
   6
DASHDOT
  62
6
  10
 4428.9747191011
  20
 4656.5589887640
  30
0.0
  11
 4458.9747191011
  21
 4656.5589887640
  31
0.0
   0
LINE
   5
1A5
 100
AcDbEntity
   8
LEVEL001
 370
13
 100
AcDbLine
   6
DASHDOT
  62
6
  10
 4493.9747191011
  20
 5081.5478682474
  30
0.0
  11
 4493.9747191011
  21
 4331.5701092806
  31
0.0
   0
LINE
   5
1A6
 100
AcDbEntity
   8
LEVEL001
 370
13
 100
AcDbLine
   6
DASHDOT
  62
6
  10
 4121.8626705807
  20
 4706.5589887640
  30
0.0
  11
 4871.8626705807
  21
 4706.5589887640
  31
0.0
   0
CIRCLE
   5
1A7
 100
AcDbEntity
   8
LEVEL001
 370
13
 100
AcDbCircle
   6
CONTINUOUS
  62
3
  10
 4443.9747191011
  20
 4756.5589887640
  30
0.0
  40
 7.0000000000000
   0
CIRCLE
   5
1A8
 100
AcDbEntity
   8
LEVEL001
 370
13
 100
AcDbCircle
   6
CONTINUOUS
  62
3
  10
 4443.9747191011
  20
 4656.5589887640
  30
0.0
  40
 7.0000000000000
   0
CIRCLE
   5
1A9
 100
AcDbEntity
   8
LEVEL001
 370
13
 100
AcDbCircle
   6
CONTINUOUS
  62
3
  10
 4543.9747191011
  20
 4656.5589887640
  30
0.0
  40
 7.0000000000000
   0
CIRCLE
   5
1AA
 100
AcDbEntity
   8
LEVEL001
 370
13
 100
AcDbCircle
   6
CONTINUOUS
  62
3
  10
 4543.9747191011
  20
 4756.5589887640
  30
0.0
  40
 7.0000000000000
   0
CIRCLE
   5
1AB
 100
AcDbEntity
   8
LEVEL001
 370
13
 100
AcDbCircle
   6
CONTINUOUS
  62
1
  10
 2293.9747191011
  20
 5156.5589887640
  30
0.0
  40
 69.999997913838
   0
MTEXT
   5
1AC
 100
AcDbEntity
   8
LEVEL001
 370
13
  62
1
 100
AcDbMText
  10
 2293.9747191011
  20
 5156.5589887640
  30
0.0
  40
 57.142857142858
  41
0.0
  71
5
  72
1
   1
\T1.000000;3
   7
GMM001
  44
 0.79999984000003
   0
CIRCLE
   5
1AD
 100
AcDbEntity
   8
LEVEL001
 370
13
 100
AcDbCircle
   6
CONTINUOUS
  62
1
  10
 2293.9747191011
  20
 4256.5589887640
  30
0.0
  40
 69.999997913838
   0
MTEXT
   5
1AE
 100
AcDbEntity
   8
LEVEL001
 370
13
  62
1
 100
AcDbMText
  10
 2293.9747191011
  20
 4256.5589887640
  30
0.0
  40
 57.142857142858
  41
0.0
  71
5
  72
1
   1
\T1.000000;1
   7
GMM001
  44
 0.79999984000003
   0
CIRCLE
   5
1AF
 100
AcDbEntity
   8
LEVEL001
 370
13
 100
AcDbCircle
   6
CONTINUOUS
  62
1
  10
 2093.9747191011
  20
 4256.5589887640
  30
0.0
  40
 69.999997913838
   0
MTEXT
   5
1B0
 100
AcDbEntity
   8
LEVEL001
 370
13
  62
1
 100
AcDbMText
  10
 2093.9747191011
  20
 4256.5589887640
  30
0.0
  40
 57.142857142858
  41
0.0
  71
5
  72
1
   1
\T1.000000;4
   7
GMM001
  44
 0.79999984000003
   0
CIRCLE
   5
1B1
 100
AcDbEntity
   8
LEVEL001
 370
13
 100
AcDbCircle
   6
CONTINUOUS
  62
1
  10
 4093.9747191011
  20
 4406.5589887640
  30
0.0
  40
 69.999997913838
   0
MTEXT
   5
1B2
 100
AcDbEntity
   8
LEVEL001
 370
13
  62
1
 100
AcDbMText
  10
 4093.9747191011
  20
 4406.5589887640
  30
0.0
  40
 57.142857142858
  41
0.0
  71
5
  72
1
   1
\T1.000000;2
   7
GMM001
  44
 0.79999984000003
   0
LEADER
   5
1B3
 100
AcDbEntity
   8
LEVEL001
 370
13
   6
CONTINUOUS
  62
1
 100
AcDbLeader
   3
GMM001
  73
3
  74
1
  75
0
  40
 66.000000000000
  41
0.0
  76
2
  10
 4266.8747650239
  20
 4582.0341481450
  30
0.0
  10
 4143.9747191011
  20
 4455.5487806388
  30
0.0
  77
1
   0
LEADER
   5
1B4
 100
AcDbEntity
   8
LEVEL001
 370
13
   6
CONTINUOUS
  62
1
 100
AcDbLeader
   3
GMM002
  73
3
  74
1
  75
0
  40
 60.000000000000
  41
0.0
  76
2
  10
 2043.9747191061
  20
 4506.5589887640
  30
0.0
  10
 2244.4772458957
  20
 4306.0564619744
  30
0.0
  77
1
   0
LEADER
   5
1B5
 100
AcDbEntity
   8
LEVEL001
 370
13
   6
CONTINUOUS
  62
1
 100
AcDbLeader
   3
GMM002
  73
3
  74
1
  75
0
  40
 60.000000000000
  41
0.0
  76
2
  10
 1968.1056433701
  20
 4382.4280644958
  30
0.0
  10
 2044.4772458935
  20
 4306.0564619724
  30
0.0
  77
1
   0
LEADER
   5
1B6
 100
AcDbEntity
   8
LEVEL001
 370
13
   6
CONTINUOUS
  62
1
 100
AcDbLeader
   3
GMM002
  73
3
  74
1
  75
0
  40
 60.000000000000
  41
0.0
  76
2
  10
 2004.2989011005
  20
 4997.8678023386
  30
0.0
  10
 2233.0297261815
  20
 5122.1248843618
  30
0.0
  77
1
   0
MTEXT
   5
1B8
 100
AcDbEntity
   8
LEVEL001
 370
13
  62
1
 100
AcDbMText
  10
 1114.6233243106
  20
 1882.7889258043
  30
0.0
  40
 40.000000000000
  41
0.0
  71
7
  72
1
   1
\T1.000000;ＧＬ
   7
GMM003
  44
 0.79999984000003
   0
LINE
   5
1B9
 100
AcDbEntity
   8
LEVEL001
 370
13
 100
AcDbLine
   6
CONTINUOUS
  62
1
  10
 1086.4746538658
  20
 1874.0589887641
  30
0.0
  11
 1061.4746538658
  21
 1924.0589887641
  31
0.0
   0
LINE
   5
1BA
 100
AcDbEntity
   8
LEVEL001
 370
13
 100
AcDbLine
   6
CONTINUOUS
  62
1
  10
 1061.4746538658
  20
 1924.0589887641
  30
0.0
  11
 1111.4746538658
  21
 1924.0589887641
  31
0.0
   0
LINE
   5
1BB
 100
AcDbEntity
   8
LEVEL001
 370
13
 100
AcDbLine
   6
CONTINUOUS
  62
1
  10
 1111.4746538658
  20
 1924.0589887641
  30
0.0
  11
 1086.4746538658
  21
 1874.0589887641
  31
0.0
   0
ARC
   5
1BC
 100
AcDbEntity
   8
LEVEL001
 370
13
   6
CONTINUOUS
  62
7
 100
AcDbCircle
  10
 1563.9744119900
  20
 3575.5378875176
  30
0.0
  40
 20.000000000000
 100
AcDbArc
  50
0.0
  51
 90.000000000000
   0
LINE
   5
1BD
 100
AcDbEntity
   8
LEVEL001
 370
13
 100
AcDbLine
   6
CONTINUOUS
  62
7
  10
 1563.9744119900
  20
 3595.5378875176
  30
0.0
  11
 1423.9770278297
  21
 3595.5378875176
  31
0.0
   0
ARC
   5
1BE
 100
AcDbEntity
   8
LEVEL001
 370
13
   6
CONTINUOUS
  62
7
 100
AcDbCircle
  10
 1423.9770278297
  20
 3575.5378875176
  30
0.0
  40
 20.000000000000
 100
AcDbArc
  50
 90.000000000000
  51
 180.00000000000
   0
LINE
   5
1BF
 100
AcDbEntity
   8
LEVEL001
 370
13
 100
AcDbLine
   6
CONTINUOUS
  62
7
  10
 1403.9770278297
  20
 3575.5378875176
  30
0.0
  11
 1403.9770278297
  21
 3015.5371027718
  31
0.0
   0
LINE
   5
1C0
 100
AcDbEntity
   8
LEVEL001
 370
13
 100
AcDbLine
   6
CONTINUOUS
  62
7
  10
 1583.9744119900
  20
 3015.5371027718
  30
0.0
  11
 1583.9744119900
  21
 3575.5378875176
  31
0.0
   0
LINE
   5
1C1
 100
AcDbEntity
   8
LEVEL001
 370
13
 100
AcDbLine
   6
CONTINUOUS
  62
7
  10
 1455.8247191011
  20
 4574.0589472358
  30
0.0
  11
 1455.8247191011
  21
 3595.5378875176
  31
0.0
   0
LINE
   5
1C2
 100
AcDbEntity
   8
LEVEL001
 370
13
 100
AcDbLine
   6
CONTINUOUS
  62
7
  10
 1532.1247191011
  20
 3595.5378875176
  30
0.0
  11
 1532.1247191011
  21
 4574.0589472358
  31
0.0
   0
ARC
   5
1C3
 100
AcDbEntity
   8
LEVEL001
 370
13
   6
CONTINUOUS
  62
7
 100
AcDbCircle
  10
 1423.9770278297
  20
 3015.5371027718
  30
0.0
  40
 20.000000000000
 100
AcDbArc
  50
 180.00000000000
  51
 270.00000000000
   0
LINE
   5
1C4
 100
AcDbEntity
   8
LEVEL001
 370
13
 100
AcDbLine
   6
CONTINUOUS
  62
7
  10
 1423.9770278297
  20
 2995.5371027718
  30
0.0
  11
 1563.9744119900
  21
 2995.5371027718
  31
0.0
   0
ARC
   5
1C5
 100
AcDbEntity
   8
LEVEL001
 370
13
   6
CONTINUOUS
  62
7
 100
AcDbCircle
  10
 1563.9744119900
  20
 3015.5371027718
  30
0.0
  40
 20.000000000000
 100
AcDbArc
  50
 270.00000000000
  51
0.0
   0
LINE
   5
1C6
 100
AcDbEntity
   8
LEVEL001
 370
13
 100
AcDbLine
   6
CONTINUOUS
  62
7
  10
 1455.8247191011
  20
 2995.5371027718
  30
0.0
  11
 1455.8247191011
  21
 874.05898876406
  31
0.0
   0
LINE
   5
1C7
 100
AcDbEntity
   8
LEVEL001
 370
13
 100
AcDbLine
   6
CONTINUOUS
  62
7
  10
 1455.8247191011
  20
 874.05898876406
  30
0.0
  11
 1532.1247191011
  21
 874.05898876406
  31
0.0
   0
LINE
   5
1C8
 100
AcDbEntity
   8
LEVEL001
 370
13
 100
AcDbLine
   6
CONTINUOUS
  62
7
  10
 1532.1247191011
  20
 874.05898876406
  30
0.0
  11
 1532.1247191011
  21
 2995.5371027718
  31
0.0
   0
CIRCLE
   5
1C9
 100
AcDbEntity
   8
LEVEL001
 370
13
 100
AcDbCircle
   6
CONTINUOUS
  62
1
  10
 1743.9747191011
  20
 3195.5378875176
  30
0.0
  40
 70.000000000000
   0
MTEXT
   5
1CA
 100
AcDbEntity
   8
LEVEL001
 370
13
  62
1
 100
AcDbMText
  10
 1743.9747191011
  20
 3195.5378875176
  30
0.0
  40
 57.142857142858
  41
0.0
  71
5
  72
1
   1
\T1.000000;14
   7
GMM001
  44
 0.79999984000003
   0
LEADER
   5
1CB
 100
AcDbEntity
   8
LEVEL001
 370
13
   6
CONTINUOUS
  62
1
 100
AcDbLeader
   3
GMM002
  73
3
  74
1
  75
0
  40
 60.000000000000
  41
0.0
  76
2
  10
 1583.9744119900
  20
 3355.5381946292
  30
0.0
  10
 1694.4772444183
  20
 3245.0353622010
  30
0.0
  77
1
   0
CIRCLE
   5
1CC
 100
AcDbEntity
   8
LEVEL001
 370
13
 100
AcDbCircle
   6
CONTINUOUS
  62
1
  10
 1743.9747191011
  20
 2674.0589887640
  30
0.0
  40
 70.000000000000
   0
MTEXT
   5
1CD
 100
AcDbEntity
   8
LEVEL001
 370
13
  62
1
 100
AcDbMText
  10
 1743.9747191011
  20
 2674.0589887640
  30
0.0
  40
 57.142857142858
  41
0.0
  71
5
  72
1
   1
\T1.000000;11
   7
GMM001
  44
 0.79999984000003
   0
MTEXT
   5
1CE
 100
AcDbEntity
   8
LEVEL001
 370
13
  62
1
 100
AcDbMText
  10
 1843.9747191011
  20
 2695.4875601926
  30
0.0
  40
 42.857142857142
  41
0.0
  71
1
  72
1
   1
{\T1.000000;支柱}\P%%c{\T1.000000;７６}{\T1.000000;.}{\T1.000000;３×３}{\T1.000000;.}{\T1.000000;２ｔ}\P{\T1.000000;×４０００Ｌ}\P{\T1.000000;ＳＴＫ４００}
   7
GMM001
  44
 0.79999984000003
   0
LEADER
   5
1CF
 100
AcDbEntity
   8
LEVEL001
 370
13
   6
CONTINUOUS
  62
1
 100
AcDbLeader
   3
GMM002
  73
3
  74
1
  75
0
  40
 60.000000000000
  41
0.0
  76
2
  10
 1532.1247191011
  20
 2549.0589887640
  30
0.0
  10
 1683.6869297400
  20
 2638.4867741304
  30
0.0
  77
1
   0
MTEXT
   5
1D0
 100
AcDbEntity
   8
LEVEL001
 370
13
  62
1
 100
AcDbMText
  10
 1493.9747191011
  20
 5506.5589887640
  30
0.0
  40
 57.142857142858
  41
0.0
  71
5
  72
1
   1
\T1.000000;正　面　図
   7
GMM001
  44
 0.79999984000003
   0
MTEXT
   5
1D1
 100
AcDbEntity
   8
LEVEL001
 370
13
  62
1
 100
AcDbMText
  10
 4493.9747191011
  20
 5506.5589887640
  30
0.0
  40
 57.142857142858
  41
0.0
  71
5
  72
1
   1
\T1.000000;背　面　図
   7
GMM001
  44
 0.79999984000003
   0
LINE
   5
1D2
 100
AcDbEntity
   8
LEVEL001
 370
13
 100
AcDbLine
   6
CONTINUOUS
  62
6
  10
 3229.3296204227
  20
 4748.9967260848
  30
0.0
  11
 3229.3296204227
  21
 4791.5589887640
  31
0.0
   0
LINE
   5
1D3
 100
AcDbEntity
   8
LEVEL001
 370
13
 100
AcDbLine
   6
CONTINUOUS
  62
6
  10
 3229.3296204227
  20
 4691.5589887640
  30
0.0
  11
 3229.3296204227
  21
 4734.1212514432
  31
0.0
   0
LINE
   5
1D4
 100
AcDbEntity
   8
LEVEL001
 370
13
 100
AcDbLine
   6
CONTINUOUS
  62
6
  10
 3158.6198177795
  20
 4638.9967260848
  30
0.0
  11
 3158.6198177795
  21
 4681.5589887640
  31
0.0
   0
LINE
   5
1D5
 100
AcDbEntity
   8
LEVEL001
 370
13
 100
AcDbLine
   6
CONTINUOUS
  62
6
  10
 3158.6198177795
  20
 4581.5589887640
  30
0.0
  11
 3158.6198177795
  21
 4624.1212514432
  31
0.0
   0
LINE
   5
1D6
 100
AcDbEntity
   8
LEVEL001
 370
13
 100
AcDbLine
   6
CONTINUOUS
  62
7
  10
 3154.6233214131
  20
 4777.2835633476
  30
0.0
  11
 3154.6233214131
  21
 4706.5328591458
  31
0.0
   0
LINE
   5
1D7
 100
AcDbEntity
   8
LEVEL001
 370
13
 100
AcDbLine
   6
CONTINUOUS
  62
7
  10
 3154.6233214131
  20
 4706.5328591458
  30
0.0
  11
 2954.6233214131
  21
 4581.5589887640
  31
0.0
   0
LINE
   5
1D8
 100
AcDbEntity
   8
LEVEL001
 370
13
 100
AcDbLine
   6
CONTINUOUS
  62
7
  10
 2954.6233214131
  20
 4581.5589887640
  30
0.0
  11
 2954.6233214131
  21
 4652.3096929658
  31
0.0
   0
LINE
   5
1D9
 100
AcDbEntity
   8
LEVEL001
 370
13
 100
AcDbLine
   6
CONTINUOUS
  62
7
  10
 2954.6233214131
  20
 4652.3096929658
  30
0.0
  11
 3154.6233214131
  21
 4777.2835633476
  31
0.0
   0
LINE
   5
1DA
 100
AcDbEntity
   8
LEVEL001
 370
13
 100
AcDbLine
   6
CONTINUOUS
  62
7
  10
 3152.6247191011
  20
 4705.2839938144
  30
0.0
  11
 3152.6247191011
  21
 4686.5589887640
  31
0.0
   0
LINE
   5
1DB
 100
AcDbEntity
   8
LEVEL001
 370
13
 100
AcDbLine
   6
CONTINUOUS
  62
7
  10
 3152.6247191011
  20
 4686.5589887640
  30
0.0
  11
 3268.9747113271
  21
 4686.5589887640
  31
0.0
   0
LINE
   5
1DC
 100
AcDbEntity
   8
LEVEL001
 370
13
 100
AcDbLine
   6
CONTINUOUS
  62
7
  10
 3268.9747113271
  20
 4686.5589887640
  30
0.0
  11
 3268.9747113271
  21
 4796.5589887640
  31
0.0
   0
LINE
   5
1DD
 100
AcDbEntity
   8
LEVEL001
 370
13
 100
AcDbLine
   6
CONTINUOUS
  62
7
  10
 3268.9747113271
  20
 4796.5589887640
  30
0.0
  11
 3152.6247191011
  21
 4796.5589887640
  31
0.0
   0
LINE
   5
1DE
 100
AcDbEntity
   8
LEVEL001
 370
13
 100
AcDbLine
   6
CONTINUOUS
  62
7
  10
 3152.6247191011
  20
 4796.5589887640
  30
0.0
  11
 3152.6247191011
  21
 4776.0346980162
  31
0.0
   0
LINE
   5
1DF
 100
AcDbEntity
   8
LEVEL001
 370
13
 100
AcDbLine
   6
CONTINUOUS
  62
7
  10
 3433.3261167891
  20
 4651.5589887640
  30
0.0
  11
 3233.3261167891
  21
 4651.5589887640
  31
0.0
   0
LINE
   5
1E0
 100
AcDbEntity
   8
LEVEL001
 370
13
 100
AcDbLine
   6
CONTINUOUS
  62
7
  10
 3233.3261167891
  20
 4651.5589887640
  30
0.0
  11
 3233.3261167891
  21
 4591.5589887640
  31
0.0
   0
LINE
   5
1E1
 100
AcDbEntity
   8
LEVEL001
 370
13
 100
AcDbLine
   6
CONTINUOUS
  62
7
  10
 3233.3261167891
  20
 4591.5589887640
  30
0.0
  11
 3433.3261167891
  21
 4591.5589887640
  31
0.0
   0
LINE
   5
1E2
 100
AcDbEntity
   8
LEVEL001
 370
13
 100
AcDbLine
   6
CONTINUOUS
  62
7
  10
 3433.3261167891
  20
 4591.5589887640
  30
0.0
  11
 3433.3261167891
  21
 4651.5589887640
  31
0.0
   0
LINE
   5
1E3
 100
AcDbEntity
   8
LEVEL001
 370
13
 100
AcDbLine
   6
CONTINUOUS
  62
7
  10
 3235.3247191011
  20
 4591.5589887640
  30
0.0
  11
 3235.3247191011
  21
 4576.5589887640
  31
0.0
   0
LINE
   5
1E4
 100
AcDbEntity
   8
LEVEL001
 370
13
 100
AcDbLine
   6
CONTINUOUS
  62
7
  10
 3235.3247191011
  20
 4576.5589887640
  30
0.0
  11
 3118.9747268751
  21
 4576.5589887640
  31
0.0
   0
LINE
   5
1E5
 100
AcDbEntity
   8
LEVEL001
 370
13
 100
AcDbLine
   6
CONTINUOUS
  62
7
  10
 3118.9747268751
  20
 4576.5589887640
  30
0.0
  11
 3118.9747268751
  21
 4686.5589887640
  31
0.0
   0
LINE
   5
1E6
 100
AcDbEntity
   8
LEVEL001
 370
13
 100
AcDbLine
   6
CONTINUOUS
  62
7
  10
 3118.9747268751
  20
 4686.5589887640
  30
0.0
  11
 3235.3247191011
  21
 4686.5589887640
  31
0.0
   0
LINE
   5
1E7
 100
AcDbEntity
   8
LEVEL001
 370
13
 100
AcDbLine
   6
CONTINUOUS
  62
7
  10
 3235.3247191011
  20
 4686.5589887640
  30
0.0
  11
 3235.3247191011
  21
 4651.5589887640
  31
0.0
   0
LINE
   5
1E8
 100
AcDbEntity
   8
LEVEL001
 370
13
 100
AcDbLine
   6
DASHDOT
  62
6
  10
 3469.3001699385
  20
 4796.5589887640
  30
0.0
  11
 3469.3001699385
  21
 4556.5589887640
  31
0.0
   0
LINE
   5
1E9
 100
AcDbEntity
   8
LEVEL001
 370
13
 100
AcDbLine
   6
CONTINUOUS
  62
7
  10
 3431.1501699385
  20
 4591.5589887640
  30
0.0
  11
 3431.1501699385
  21
 4576.5589887640
  31
0.0
   0
LINE
   5
1EA
 100
AcDbEntity
   8
LEVEL001
 370
13
 100
AcDbLine
   6
CONTINUOUS
  62
7
  10
 3431.1501699385
  20
 4576.5589887640
  30
0.0
  11
 3507.4501699385
  21
 4576.5589887640
  31
0.0
   0
LINE
   5
1EB
 100
AcDbEntity
   8
LEVEL001
 370
13
 100
AcDbLine
   6
CONTINUOUS
  62
7
  10
 3507.4501699385
  20
 4576.5589887640
  30
0.0
  11
 3507.4501699385
  21
 4651.5589887640
  31
0.0
   0
LINE
   5
1EC
 100
AcDbEntity
   8
LEVEL001
 370
13
 100
AcDbLine
   6
CONTINUOUS
  62
7
  10
 3507.4501699385
  20
 4761.5589887640
  30
0.0
  11
 3507.4501699385
  21
 4776.5589887640
  31
0.0
   0
LINE
   5
1ED
 100
AcDbEntity
   8
LEVEL001
 370
13
 100
AcDbLine
   6
CONTINUOUS
  62
7
  10
 3507.4501699385
  20
 4776.5589887640
  30
0.0
  11
 3431.1501699385
  21
 4776.5589887640
  31
0.0
   0
LINE
   5
1EE
 100
AcDbEntity
   8
LEVEL001
 370
13
 100
AcDbLine
   6
CONTINUOUS
  62
7
  10
 3431.1501699385
  20
 4776.5589887640
  30
0.0
  11
 3431.1501699385
  21
 4761.5589887640
  31
0.0
   0
LINE
   5
1EF
 100
AcDbEntity
   8
LEVEL001
 370
13
 100
AcDbLine
   6
DASHDOT
  62
6
  10
 2918.6492682637
  20
 4796.5589887640
  30
0.0
  11
 2918.6492682637
  21
 4556.5589887640
  31
0.0
   0
LINE
   5
1F0
 100
AcDbEntity
   8
LEVEL001
 370
13
 100
AcDbLine
   6
CONTINUOUS
  62
7
  10
 2956.7992682637
  20
 4653.6693754640
  30
0.0
  11
 2956.7992682637
  21
 4653.5585582972
  31
0.0
   0
LINE
   5
1F1
 100
AcDbEntity
   8
LEVEL001
 370
13
 100
AcDbLine
   6
CONTINUOUS
  62
7
  10
 2956.7992682637
  20
 4582.8078540954
  30
0.0
  11
 2956.7992682637
  21
 4576.5589887640
  31
0.0
   0
LINE
   5
1F2
 100
AcDbEntity
   8
LEVEL001
 370
13
 100
AcDbLine
   6
CONTINUOUS
  62
7
  10
 2956.7992682637
  20
 4576.5589887640
  30
0.0
  11
 2880.4992682637
  21
 4576.5589887640
  31
0.0
   0
LINE
   5
1F3
 100
AcDbEntity
   8
LEVEL001
 370
13
 100
AcDbLine
   6
CONTINUOUS
  62
7
  10
 2880.4992682637
  20
 4576.5589887640
  30
0.0
  11
 2880.4992682637
  21
 4651.5589887640
  31
0.0
   0
LINE
   5
1F4
 100
AcDbEntity
   8
LEVEL001
 370
13
 100
AcDbLine
   6
CONTINUOUS
  62
7
  10
 2880.4992682637
  20
 4761.5589887640
  30
0.0
  11
 2880.4992682637
  21
 4776.5589887640
  31
0.0
   0
LINE
   5
1F5
 100
AcDbEntity
   8
LEVEL001
 370
13
 100
AcDbLine
   6
CONTINUOUS
  62
7
  10
 2880.4992682637
  20
 4776.5589887640
  30
0.0
  11
 2956.7992682637
  21
 4776.5589887640
  31
0.0
   0
LINE
   5
1F6
 100
AcDbEntity
   8
LEVEL001
 370
13
 100
AcDbLine
   6
CONTINUOUS
  62
7
  10
 2956.7992682637
  20
 4776.5589887640
  30
0.0
  11
 2956.7992682637
  21
 4761.5589887640
  31
0.0
   0
LINE
   5
1F7
 100
AcDbEntity
   8
LEVEL001
 370
13
 100
AcDbLine
   6
CONTINUOUS
  62
6
  10
 2955.2606749201
  20
 4756.5589887640
  30
0.0
  11
 2955.2606749201
  21
 4656.5589887640
  31
0.0
   0
LINE
   5
1F8
 100
AcDbEntity
   8
LEVEL001
 370
13
 100
AcDbLine
   6
DASHDOT
  62
6
  10
 2959.8326653663
  20
 4736.5589887640
  30
0.0
  11
 2989.8326653663
  21
 4736.5589887640
  31
0.0
   0
LINE
   5
1F9
 100
AcDbEntity
   8
LEVEL001
 370
13
 100
AcDbLine
   6
DASHDOT
  62
6
  10
 2974.8326653663
  20
 4751.5589887640
  30
0.0
  11
 2974.8326653663
  21
 4721.5589887640
  31
0.0
   0
LINE
   5
1FA
 100
AcDbEntity
   8
LEVEL001
 370
13
 100
AcDbLine
   6
DASHDOT
  62
6
  10
 2959.8326653663
  20
 4676.5589887640
  30
0.0
  11
 2989.8326653663
  21
 4676.5589887640
  31
0.0
   0
LINE
   5
1FB
 100
AcDbEntity
   8
LEVEL001
 370
13
 100
AcDbLine
   6
DASHDOT
  62
6
  10
 2974.8326653663
  20
 4691.5589887640
  30
0.0
  11
 2974.8326653663
  21
 4661.5589887640
  31
0.0
   0
LINE
   5
1FC
 100
AcDbEntity
   8
LEVEL001
 370
13
 100
AcDbLine
   6
DASHDOT
  62
6
  10
 3233.9747113271
  20
 4771.5589887640
  30
0.0
  11
 3263.9747113271
  21
 4771.5589887640
  31
0.0
   0
LINE
   5
1FD
 100
AcDbEntity
   8
LEVEL001
 370
13
 100
AcDbLine
   6
DASHDOT
  62
6
  10
 3248.9747113271
  20
 4786.5589887640
  30
0.0
  11
 3248.9747113271
  21
 4756.5589887640
  31
0.0
   0
LINE
   5
1FE
 100
AcDbEntity
   8
LEVEL001
 370
13
 100
AcDbLine
   6
DASHDOT
  62
6
  10
 3233.9747113271
  20
 4711.5589887640
  30
0.0
  11
 3263.9747113271
  21
 4711.5589887640
  31
0.0
   0
LINE
   5
1FF
 100
AcDbEntity
   8
LEVEL001
 370
13
 100
AcDbLine
   6
DASHDOT
  62
6
  10
 3248.9747113271
  20
 4726.5589887640
  30
0.0
  11
 3248.9747113271
  21
 4696.5589887640
  31
0.0
   0
LINE
   5
200
 100
AcDbEntity
   8
LEVEL001
 370
13
 100
AcDbLine
   6
DASHDOT
  62
6
  10
 3123.9747268751
  20
 4661.5589887640
  30
0.0
  11
 3153.9747268751
  21
 4661.5589887640
  31
0.0
   0
LINE
   5
201
 100
AcDbEntity
   8
LEVEL001
 370
13
 100
AcDbLine
   6
DASHDOT
  62
6
  10
 3138.9747268751
  20
 4676.5589887640
  30
0.0
  11
 3138.9747268751
  21
 4646.5589887640
  31
0.0
   0
LINE
   5
202
 100
AcDbEntity
   8
LEVEL001
 370
13
 100
AcDbLine
   6
DASHDOT
  62
6
  10
 3123.9747268751
  20
 4601.5589887640
  30
0.0
  11
 3153.9747268751
  21
 4601.5589887640
  31
0.0
   0
LINE
   5
203
 100
AcDbEntity
   8
LEVEL001
 370
13
 100
AcDbLine
   6
DASHDOT
  62
6
  10
 3138.9747268751
  20
 4616.5589887640
  30
0.0
  11
 3138.9747268751
  21
 4586.5589887640
  31
0.0
   0
LINE
   5
204
 100
AcDbEntity
   8
LEVEL001
 370
13
 100
AcDbLine
   6
CONTINUOUS
  62
7
  10
 2880.8659055229
  20
 4651.5589887640
  30
0.0
  11
 2994.8326653663
  21
 4651.5589887640
  31
0.0
   0
LINE
   5
205
 100
AcDbEntity
   8
LEVEL001
 370
13
 100
AcDbLine
   6
CONTINUOUS
  62
7
  10
 2994.8326653663
  20
 4651.5589887640
  30
0.0
  11
 2994.8326653663
  21
 4761.5589887640
  31
0.0
   0
LINE
   5
206
 100
AcDbEntity
   8
LEVEL001
 370
13
 100
AcDbLine
   6
CONTINUOUS
  62
7
  10
 2994.8326653663
  20
 4761.5589887640
  30
0.0
  11
 2880.8659055229
  21
 4761.5589887640
  31
0.0
   0
LINE
   5
207
 100
AcDbEntity
   8
LEVEL001
 370
13
 100
AcDbLine
   6
DASHDOT
  62
6
  10
 3019.8326653663
  20
 4706.5589887640
  30
0.0
  11
 2618.0938373655
  21
 4706.5589887640
  31
0.0
   0
ARC
   5
208
 100
AcDbEntity
   8
LEVEL001
 370
13
   6
CONTINUOUS
  62
7
 100
AcDbCircle
  10
 2730.1659055229
  20
 4376.5589887640
  30
0.0
  40
 2.5000000000000
 100
AcDbArc
  50
 180.00000000000
  51
 270.00000000000
   0
LINE
   5
209
 100
AcDbEntity
   8
LEVEL001
 370
13
 100
AcDbLine
   6
CONTINUOUS
  62
7
  10
 2727.6659055229
  20
 5036.5589887640
  30
0.0
  11
 2727.6659055229
  21
 4376.5589887640
  31
0.0
   0
ARC
   5
20A
 100
AcDbEntity
   8
LEVEL001
 370
13
   6
CONTINUOUS
  62
7
 100
AcDbCircle
  10
 2730.1659055229
  20
 5036.5589887640
  30
0.0
  40
 2.5000000000000
 100
AcDbArc
  50
 90.000000000000
  51
 180.00000000000
   0
ARC
   5
20B
 100
AcDbEntity
   8
LEVEL001
 370
13
   6
CONTINUOUS
  62
7
 100
AcDbCircle
  10
 2730.1659055229
  20
 4376.5589887640
  30
0.0
  40
 2.5000000000000
 100
AcDbArc
  50
 270.00000000000
  51
0.0
   0
LINE
   5
20C
 100
AcDbEntity
   8
LEVEL001
 370
13
 100
AcDbLine
   6
CONTINUOUS
  62
7
  10
 2732.6659055229
  20
 4376.5589887640
  30
0.0
  11
 2732.6659055229
  21
 5036.5589887640
  31
0.0
   0
ARC
   5
20D
 100
AcDbEntity
   8
LEVEL001
 370
13
   6
CONTINUOUS
  62
7
 100
AcDbCircle
  10
 2730.1659055229
  20
 5036.5589887640
  30
0.0
  40
 2.5000000000000
 100
AcDbArc
  50
0.0
  51
 90.000000000000
   0
LINE
   5
20E
 100
AcDbEntity
   8
LEVEL001
 370
13
 100
AcDbLine
   6
CONTINUOUS
  62
7
  10
 2727.6659055229
  20
 4396.5589887640
  30
0.0
  11
 2708.2930925769
  21
 4400.4335513532
  31
0.0
   0
ARC
   5
20F
 100
AcDbEntity
   8
LEVEL001
 370
13
   6
CONTINUOUS
  62
7
 100
AcDbCircle
  10
 2709.6659055229
  20
 4407.2976160830
  30
0.0
  40
 7.0000000000000
 100
AcDbArc
  50
 180.00000000000
  51
 258.69006752600
   0
LINE
   5
210
 100
AcDbEntity
   8
LEVEL001
 370
13
 100
AcDbLine
   6
CONTINUOUS
  62
3
  10
 2727.6659055229
  20
 4743.1918050613
  30
0.0
  11
 2707.6659055229
  21
 4743.1918050613
  31
0.0
   0
LINE
   5
211
 100
AcDbEntity
   8
LEVEL001
 370
13
 100
AcDbLine
   6
CONTINUOUS
  62
3
  10
 2707.6659055229
  20
 4743.1918050613
  30
0.0
  11
 2652.6659055229
  21
 4838.4545994774
  31
0.0
   0
LINE
   5
212
 100
AcDbEntity
   8
LEVEL001
 370
13
 100
AcDbLine
   6
CONTINUOUS
  62
3
  10
 2652.6659055229
  20
 4838.4545994774
  30
0.0
  11
 2652.6659055229
  21
 5018.0589887640
  31
0.0
   0
LINE
   5
213
 100
AcDbEntity
   8
LEVEL001
 370
13
 100
AcDbLine
   6
CONTINUOUS
  62
3
  10
 2652.6659055229
  20
 5018.0589887640
  30
0.0
  11
 2727.6659055229
  21
 5018.0589887640
  31
0.0
   0
ARC
   5
214
 100
AcDbEntity
   8
LEVEL001
 370
13
   6
CONTINUOUS
  62
7
 100
AcDbCircle
  10
 4882.1153772933
  20
 4706.5589887640
  30
0.0
  40
 2200.0000000000
 100
AcDbArc
  50
 177.95610305487
  51
 187.83747976308
   0
LINE
   5
215
 100
AcDbEntity
   8
LEVEL001
 370
13
 100
AcDbLine
   6
CONTINUOUS
  62
7
  10
 2702.6659055229
  20
 4407.2976160830
  30
0.0
  11
 2702.6659055229
  21
 4751.8520590990
  31
0.0
   0
ARC
   5
216
 100
AcDbEntity
   8
LEVEL001
 370
13
   6
HIDDEN
  62
6
 100
AcDbCircle
  10
 4882.1153772931
  20
 4706.5589887640
  30
0.0
  40
 2200.0000000000
 100
AcDbArc
  50
 172.16252023692
  51
 177.95610305487
   0
LINE
   5
217
 100
AcDbEntity
   8
LEVEL001
 370
13
 100
AcDbLine
   6
HIDDEN
  62
6
  10
 2702.6659055229
  20
 4751.8520590990
  30
0.0
  11
 2702.6659055229
  21
 5005.8203614450
  31
0.0
   0
ARC
   5
218
 100
AcDbEntity
   8
LEVEL001
 370
13
   6
HIDDEN
  62
6
 100
AcDbCircle
  10
 2709.6659055229
  20
 5005.8203614450
  30
0.0
  40
 7.0000000000000
 100
AcDbArc
  50
 101.30993247397
  51
 180.00000000000
   0
LINE
   5
219
 100
AcDbEntity
   8
LEVEL001
 370
13
 100
AcDbLine
   6
HIDDEN
  62
6
  10
 2708.2930925769
  20
 5012.6844261748
  30
0.0
  11
 2727.6659055229
  21
 5016.5589887640
  31
0.0
   0
LINE
   5
21A
 100
AcDbEntity
   8
LEVEL001
 370
13
 100
AcDbLine
   6
DASHDOT
  62
6
  10
 2785.8659055229
  20
 4736.5589887640
  30
0.0
  11
 2815.8659055229
  21
 4736.5589887640
  31
0.0
   0
LINE
   5
21B
 100
AcDbEntity
   8
LEVEL001
 370
13
 100
AcDbLine
   6
DASHDOT
  62
6
  10
 2800.8659055229
  20
 4751.5589887640
  30
0.0
  11
 2800.8659055229
  21
 4721.5589887640
  31
0.0
   0
LINE
   5
21C
 100
AcDbEntity
   8
LEVEL001
 370
13
 100
AcDbLine
   6
DASHDOT
  62
6
  10
 2785.8659055229
  20
 4676.5589887640
  30
0.0
  11
 2815.8659055229
  21
 4676.5589887640
  31
0.0
   0
LINE
   5
21D
 100
AcDbEntity
   8
LEVEL001
 370
13
 100
AcDbLine
   6
DASHDOT
  62
6
  10
 2800.8659055229
  20
 4691.5589887640
  30
0.0
  11
 2800.8659055229
  21
 4661.5589887640
  31
0.0
   0
LINE
   5
21E
 100
AcDbEntity
   8
LEVEL001
 370
13
 100
AcDbLine
   6
CONTINUOUS
  62
7
  10
 2825.8659055229
  20
 4761.5589887640
  30
0.0
  11
 2880.8659055229
  21
 4761.5589887640
  31
0.0
   0
LINE
   5
21F
 100
AcDbEntity
   8
LEVEL001
 370
13
 100
AcDbLine
   6
CONTINUOUS
  62
7
  10
 2880.8659055229
  20
 4761.5589887640
  30
0.0
  11
 2880.8659055229
  21
 4651.5589887640
  31
0.0
   0
LINE
   5
220
 100
AcDbEntity
   8
LEVEL001
 370
13
 100
AcDbLine
   6
CONTINUOUS
  62
7
  10
 2880.8659055229
  20
 4651.5589887640
  30
0.0
  11
 2825.8659055229
  21
 4651.5589887640
  31
0.0
   0
LINE
   5
221
 100
AcDbEntity
   8
LEVEL001
 370
13
 100
AcDbLine
   6
CONTINUOUS
  62
7
  10
 2732.6659055229
  20
 4651.5589887640
  30
0.0
  11
 2825.8659055229
  21
 4651.5589887640
  31
0.0
   0
LINE
   5
222
 100
AcDbEntity
   8
LEVEL001
 370
13
 100
AcDbLine
   6
CONTINUOUS
  62
7
  10
 2825.8659055229
  20
 4651.5589887640
  30
0.0
  11
 2825.8659055229
  21
 4761.5589887640
  31
0.0
   0
LINE
   5
223
 100
AcDbEntity
   8
LEVEL001
 370
13
 100
AcDbLine
   6
CONTINUOUS
  62
7
  10
 2825.8659055229
  20
 4761.5589887640
  30
0.0
  11
 2732.6659055229
  21
 4761.5589887640
  31
0.0
   0
LINE
   5
224
 100
AcDbEntity
   8
LEVEL001
 370
13
 100
AcDbLine
   6
CONTINUOUS
  62
3
  10
 2793.8659055229
  20
 4729.5589887640
  30
0.0
  11
 2807.8659055229
  21
 4729.5589887640
  31
0.0
   0
LINE
   5
225
 100
AcDbEntity
   8
LEVEL001
 370
13
 100
AcDbLine
   6
CONTINUOUS
  62
3
  10
 2807.8659055229
  20
 4729.5589887640
  30
0.0
  11
 2807.8659055229
  21
 4743.5589887640
  31
0.0
   0
LINE
   5
226
 100
AcDbEntity
   8
LEVEL001
 370
13
 100
AcDbLine
   6
CONTINUOUS
  62
3
  10
 2807.8659055229
  20
 4743.5589887640
  30
0.0
  11
 2793.8659055229
  21
 4743.5589887640
  31
0.0
   0
LINE
   5
227
 100
AcDbEntity
   8
LEVEL001
 370
13
 100
AcDbLine
   6
CONTINUOUS
  62
3
  10
 2793.8659055229
  20
 4743.5589887640
  30
0.0
  11
 2793.8659055229
  21
 4729.5589887640
  31
0.0
   0
LINE
   5
228
 100
AcDbEntity
   8
LEVEL001
 370
13
 100
AcDbLine
   6
CONTINUOUS
  62
3
  10
 2793.8659055229
  20
 4669.5589887640
  30
0.0
  11
 2807.8659055229
  21
 4669.5589887640
  31
0.0
   0
LINE
   5
229
 100
AcDbEntity
   8
LEVEL001
 370
13
 100
AcDbLine
   6
CONTINUOUS
  62
3
  10
 2807.8659055229
  20
 4669.5589887640
  30
0.0
  11
 2807.8659055229
  21
 4683.5589887640
  31
0.0
   0
LINE
   5
22A
 100
AcDbEntity
   8
LEVEL001
 370
13
 100
AcDbLine
   6
CONTINUOUS
  62
3
  10
 2807.8659055229
  20
 4683.5589887640
  30
0.0
  11
 2793.8659055229
  21
 4683.5589887640
  31
0.0
   0
LINE
   5
22B
 100
AcDbEntity
   8
LEVEL001
 370
13
 100
AcDbLine
   6
CONTINUOUS
  62
3
  10
 2793.8659055229
  20
 4683.5589887640
  30
0.0
  11
 2793.8659055229
  21
 4669.5589887640
  31
0.0
   0
LINE
   5
22C
 100
AcDbEntity
   8
LEVEL001
 370
13
 100
AcDbLine
   6
CONTINUOUS
  62
3
  10
 2967.8326653663
  20
 4729.5589887640
  30
0.0
  11
 2981.8326653663
  21
 4729.5589887640
  31
0.0
   0
LINE
   5
22D
 100
AcDbEntity
   8
LEVEL001
 370
13
 100
AcDbLine
   6
CONTINUOUS
  62
3
  10
 2981.8326653663
  20
 4729.5589887640
  30
0.0
  11
 2981.8326653663
  21
 4743.5589887640
  31
0.0
   0
LINE
   5
22E
 100
AcDbEntity
   8
LEVEL001
 370
13
 100
AcDbLine
   6
CONTINUOUS
  62
3
  10
 2981.8326653663
  20
 4743.5589887640
  30
0.0
  11
 2967.8326653663
  21
 4743.5589887640
  31
0.0
   0
LINE
   5
22F
 100
AcDbEntity
   8
LEVEL001
 370
13
 100
AcDbLine
   6
CONTINUOUS
  62
3
  10
 2967.8326653663
  20
 4743.5589887640
  30
0.0
  11
 2967.8326653663
  21
 4729.5589887640
  31
0.0
   0
LINE
   5
230
 100
AcDbEntity
   8
LEVEL001
 370
13
 100
AcDbLine
   6
CONTINUOUS
  62
3
  10
 2967.8326653663
  20
 4669.5589887640
  30
0.0
  11
 2981.8326653663
  21
 4669.5589887640
  31
0.0
   0
LINE
   5
231
 100
AcDbEntity
   8
LEVEL001
 370
13
 100
AcDbLine
   6
CONTINUOUS
  62
3
  10
 2981.8326653663
  20
 4669.5589887640
  30
0.0
  11
 2981.8326653663
  21
 4683.5589887640
  31
0.0
   0
LINE
   5
232
 100
AcDbEntity
   8
LEVEL001
 370
13
 100
AcDbLine
   6
CONTINUOUS
  62
3
  10
 2981.8326653663
  20
 4683.5589887640
  30
0.0
  11
 2967.8326653663
  21
 4683.5589887640
  31
0.0
   0
LINE
   5
233
 100
AcDbEntity
   8
LEVEL001
 370
13
 100
AcDbLine
   6
CONTINUOUS
  62
3
  10
 2967.8326653663
  20
 4683.5589887640
  30
0.0
  11
 2967.8326653663
  21
 4669.5589887640
  31
0.0
   0
LINE
   5
234
 100
AcDbEntity
   8
LEVEL001
 370
13
 100
AcDbLine
   6
CONTINUOUS
  62
3
  10
 3241.9747113271
  20
 4764.5589887640
  30
0.0
  11
 3255.9747113271
  21
 4764.5589887640
  31
0.0
   0
LINE
   5
235
 100
AcDbEntity
   8
LEVEL001
 370
13
 100
AcDbLine
   6
CONTINUOUS
  62
3
  10
 3255.9747113271
  20
 4764.5589887640
  30
0.0
  11
 3255.9747113271
  21
 4778.5589887640
  31
0.0
   0
LINE
   5
236
 100
AcDbEntity
   8
LEVEL001
 370
13
 100
AcDbLine
   6
CONTINUOUS
  62
3
  10
 3255.9747113271
  20
 4778.5589887640
  30
0.0
  11
 3241.9747113271
  21
 4778.5589887640
  31
0.0
   0
LINE
   5
237
 100
AcDbEntity
   8
LEVEL001
 370
13
 100
AcDbLine
   6
CONTINUOUS
  62
3
  10
 3241.9747113271
  20
 4778.5589887640
  30
0.0
  11
 3241.9747113271
  21
 4764.5589887640
  31
0.0
   0
LINE
   5
238
 100
AcDbEntity
   8
LEVEL001
 370
13
 100
AcDbLine
   6
CONTINUOUS
  62
3
  10
 3241.9747113271
  20
 4704.5589887640
  30
0.0
  11
 3255.9747113271
  21
 4704.5589887640
  31
0.0
   0
LINE
   5
239
 100
AcDbEntity
   8
LEVEL001
 370
13
 100
AcDbLine
   6
CONTINUOUS
  62
3
  10
 3255.9747113271
  20
 4704.5589887640
  30
0.0
  11
 3255.9747113271
  21
 4718.5589887640
  31
0.0
   0
LINE
   5
23A
 100
AcDbEntity
   8
LEVEL001
 370
13
 100
AcDbLine
   6
CONTINUOUS
  62
3
  10
 3255.9747113271
  20
 4718.5589887640
  30
0.0
  11
 3241.9747113271
  21
 4718.5589887640
  31
0.0
   0
LINE
   5
23B
 100
AcDbEntity
   8
LEVEL001
 370
13
 100
AcDbLine
   6
CONTINUOUS
  62
3
  10
 3241.9747113271
  20
 4718.5589887640
  30
0.0
  11
 3241.9747113271
  21
 4704.5589887640
  31
0.0
   0
LINE
   5
23C
 100
AcDbEntity
   8
LEVEL001
 370
13
 100
AcDbLine
   6
CONTINUOUS
  62
3
  10
 3145.9747268751
  20
 4654.5589887640
  30
0.0
  11
 3131.9747268751
  21
 4654.5589887640
  31
0.0
   0
LINE
   5
23D
 100
AcDbEntity
   8
LEVEL001
 370
13
 100
AcDbLine
   6
CONTINUOUS
  62
3
  10
 3131.9747268751
  20
 4654.5589887640
  30
0.0
  11
 3131.9747268751
  21
 4668.5589887640
  31
0.0
   0
LINE
   5
23E
 100
AcDbEntity
   8
LEVEL001
 370
13
 100
AcDbLine
   6
CONTINUOUS
  62
3
  10
 3131.9747268751
  20
 4668.5589887640
  30
0.0
  11
 3145.9747268751
  21
 4668.5589887640
  31
0.0
   0
LINE
   5
23F
 100
AcDbEntity
   8
LEVEL001
 370
13
 100
AcDbLine
   6
CONTINUOUS
  62
3
  10
 3145.9747268751
  20
 4668.5589887640
  30
0.0
  11
 3145.9747268751
  21
 4654.5589887640
  31
0.0
   0
LINE
   5
240
 100
AcDbEntity
   8
LEVEL001
 370
13
 100
AcDbLine
   6
CONTINUOUS
  62
3
  10
 3145.9747268751
  20
 4594.5589887640
  30
0.0
  11
 3131.9747268751
  21
 4594.5589887640
  31
0.0
   0
LINE
   5
241
 100
AcDbEntity
   8
LEVEL001
 370
13
 100
AcDbLine
   6
CONTINUOUS
  62
3
  10
 3131.9747268751
  20
 4594.5589887640
  30
0.0
  11
 3131.9747268751
  21
 4608.5589887640
  31
0.0
   0
LINE
   5
242
 100
AcDbEntity
   8
LEVEL001
 370
13
 100
AcDbLine
   6
CONTINUOUS
  62
3
  10
 3131.9747268751
  20
 4608.5589887640
  30
0.0
  11
 3145.9747268751
  21
 4608.5589887640
  31
0.0
   0
LINE
   5
243
 100
AcDbEntity
   8
LEVEL001
 370
13
 100
AcDbLine
   6
CONTINUOUS
  62
3
  10
 3145.9747268751
  20
 4608.5589887640
  30
0.0
  11
 3145.9747268751
  21
 4594.5589887640
  31
0.0
   0
LINE
   5
244
 100
AcDbEntity
   8
LEVEL001
 370
13
 100
AcDbLine
   6
CONTINUOUS
  62
7
  10
 3660.2835326793
  20
 5036.5589887640
  30
0.0
  11
 3660.2835326793
  21
 4376.5589887640
  31
0.0
   0
ARC
   5
245
 100
AcDbEntity
   8
LEVEL001
 370
13
   6
CONTINUOUS
  62
7
 100
AcDbCircle
  10
 3657.7835326793
  20
 5036.5589887640
  30
0.0
  40
 2.5000000000000
 100
AcDbArc
  50
0.0
  51
 90.000000000000
   0
LINE
   5
246
 100
AcDbEntity
   8
LEVEL001
 370
13
 100
AcDbLine
   6
CONTINUOUS
  62
7
  10
 3655.2835326793
  20
 4376.5589887640
  30
0.0
  11
 3655.2835326793
  21
 5036.5589887640
  31
0.0
   0
ARC
   5
247
 100
AcDbEntity
   8
LEVEL001
 370
13
   6
CONTINUOUS
  62
7
 100
AcDbCircle
  10
 3657.7835326793
  20
 5036.5589887640
  30
0.0
  40
 2.5000000000000
 100
AcDbArc
  50
 90.000000000000
  51
 180.00000000000
   0
LINE
   5
248
 100
AcDbEntity
   8
LEVEL001
 370
13
 100
AcDbLine
   6
CONTINUOUS
  62
3
  10
 3660.2835326793
  20
 4743.1918050613
  30
0.0
  11
 3680.2835326793
  21
 4743.1918050613
  31
0.0
   0
LINE
   5
249
 100
AcDbEntity
   8
LEVEL001
 370
13
 100
AcDbLine
   6
CONTINUOUS
  62
3
  10
 3680.2835326793
  20
 4743.1918050613
  30
0.0
  11
 3735.2835326793
  21
 4838.4545994774
  31
0.0
   0
LINE
   5
24A
 100
AcDbEntity
   8
LEVEL001
 370
13
 100
AcDbLine
   6
CONTINUOUS
  62
3
  10
 3735.2835326793
  20
 4838.4545994774
  30
0.0
  11
 3735.2835326793
  21
 5018.0589887640
  31
0.0
   0
LINE
   5
24B
 100
AcDbEntity
   8
LEVEL001
 370
13
 100
AcDbLine
   6
CONTINUOUS
  62
3
  10
 3735.2835326793
  20
 5018.0589887640
  30
0.0
  11
 3660.2835326793
  21
 5018.0589887640
  31
0.0
   0
ARC
   5
24C
 100
AcDbEntity
   8
LEVEL001
 370
13
   6
HIDDEN
  62
6
 100
AcDbCircle
  10
 1505.8340609090
  20
 4706.5589887640
  30
0.0
  40
 2200.0000000000
 100
AcDbArc
  50
 2.0438969451263
  51
 7.8374797630847
   0
LINE
   5
24D
 100
AcDbEntity
   8
LEVEL001
 370
13
 100
AcDbLine
   6
HIDDEN
  62
6
  10
 3685.2835326793
  20
 4751.8520590990
  30
0.0
  11
 3685.2835326793
  21
 5005.8203614450
  31
0.0
   0
ARC
   5
24E
 100
AcDbEntity
   8
LEVEL001
 370
13
   6
HIDDEN
  62
6
 100
AcDbCircle
  10
 3678.2835326793
  20
 5005.8203614450
  30
0.0
  40
 7.0000000000000
 100
AcDbArc
  50
0.0
  51
 78.690067526027
   0
LINE
   5
24F
 100
AcDbEntity
   8
LEVEL001
 370
13
 100
AcDbLine
   6
HIDDEN
  62
6
  10
 3679.6563456253
  20
 5012.6844261748
  30
0.0
  11
 3660.2835326793
  21
 5016.5589887640
  31
0.0
   0
ARC
   5
250
 100
AcDbEntity
   8
LEVEL001
 370
13
   6
CONTINUOUS
  62
7
 100
AcDbCircle
  10
 3657.7835326793
  20
 4376.5589887640
  30
0.0
  40
 2.5000000000000
 100
AcDbArc
  50
 270.00000000000
  51
0.0
   0
ARC
   5
251
 100
AcDbEntity
   8
LEVEL001
 370
13
   6
CONTINUOUS
  62
7
 100
AcDbCircle
  10
 3657.7835326793
  20
 4376.5589887640
  30
0.0
  40
 2.5000000000000
 100
AcDbArc
  50
 180.00000000000
  51
 270.00000000000
   0
LINE
   5
252
 100
AcDbEntity
   8
LEVEL001
 370
13
 100
AcDbLine
   6
CONTINUOUS
  62
7
  10
 3660.2835326793
  20
 4396.5589887640
  30
0.0
  11
 3679.6563456253
  21
 4400.4335513532
  31
0.0
   0
ARC
   5
253
 100
AcDbEntity
   8
LEVEL001
 370
13
   6
CONTINUOUS
  62
7
 100
AcDbCircle
  10
 3678.2835326793
  20
 4407.2976160830
  30
0.0
  40
 7.0000000000000
 100
AcDbArc
  50
 281.30993247400
  51
0.0
   0
ARC
   5
254
 100
AcDbEntity
   8
LEVEL001
 370
13
   6
CONTINUOUS
  62
7
 100
AcDbCircle
  10
 1505.8340609090
  20
 4706.5589887640
  30
0.0
  40
 2200.0000000000
 100
AcDbArc
  50
 352.16252023692
  51
 2.0438969451259
   0
LINE
   5
255
 100
AcDbEntity
   8
LEVEL001
 370
13
 100
AcDbLine
   6
CONTINUOUS
  62
7
  10
 3685.2835326793
  20
 4407.2976160830
  30
0.0
  11
 3685.2835326793
  21
 4751.8520590990
  31
0.0
   0
LINE
   5
256
 100
AcDbEntity
   8
LEVEL001
 370
13
 100
AcDbLine
   6
CONTINUOUS
  62
6
  10
 3432.6887632821
  20
 4756.5589887640
  30
0.0
  11
 3432.6887632821
  21
 4656.5589887640
  31
0.0
   0
LINE
   5
257
 100
AcDbEntity
   8
LEVEL001
 370
13
 100
AcDbLine
   6
DASHDOT
  62
6
  10
 3428.1167728359
  20
 4736.5589887640
  30
0.0
  11
 3398.1167728359
  21
 4736.5589887640
  31
0.0
   0
LINE
   5
258
 100
AcDbEntity
   8
LEVEL001
 370
13
 100
AcDbLine
   6
DASHDOT
  62
6
  10
 3413.1167728359
  20
 4751.5589887640
  30
0.0
  11
 3413.1167728359
  21
 4721.5589887640
  31
0.0
   0
LINE
   5
259
 100
AcDbEntity
   8
LEVEL001
 370
13
 100
AcDbLine
   6
DASHDOT
  62
6
  10
 3428.1167728359
  20
 4676.5589887640
  30
0.0
  11
 3398.1167728359
  21
 4676.5589887640
  31
0.0
   0
LINE
   5
25A
 100
AcDbEntity
   8
LEVEL001
 370
13
 100
AcDbLine
   6
DASHDOT
  62
6
  10
 3413.1167728359
  20
 4691.5589887640
  30
0.0
  11
 3413.1167728359
  21
 4661.5589887640
  31
0.0
   0
LINE
   5
25B
 100
AcDbEntity
   8
LEVEL001
 370
13
 100
AcDbLine
   6
DASHDOT
  62
6
  10
 3368.1167728359
  20
 4706.5589887640
  30
0.0
  11
 3769.8556008367
  21
 4706.5589887640
  31
0.0
   0
LINE
   5
25C
 100
AcDbEntity
   8
LEVEL001
 370
13
 100
AcDbLine
   6
DASHDOT
  62
6
  10
 3602.0835326793
  20
 4736.5589887640
  30
0.0
  11
 3572.0835326793
  21
 4736.5589887640
  31
0.0
   0
LINE
   5
25D
 100
AcDbEntity
   8
LEVEL001
 370
13
 100
AcDbLine
   6
DASHDOT
  62
6
  10
 3587.0835326793
  20
 4751.5589887640
  30
0.0
  11
 3587.0835326793
  21
 4721.5589887640
  31
0.0
   0
LINE
   5
25E
 100
AcDbEntity
   8
LEVEL001
 370
13
 100
AcDbLine
   6
DASHDOT
  62
6
  10
 3602.0835326793
  20
 4676.5589887640
  30
0.0
  11
 3572.0835326793
  21
 4676.5589887640
  31
0.0
   0
LINE
   5
25F
 100
AcDbEntity
   8
LEVEL001
 370
13
 100
AcDbLine
   6
DASHDOT
  62
6
  10
 3587.0835326793
  20
 4691.5589887640
  30
0.0
  11
 3587.0835326793
  21
 4661.5589887640
  31
0.0
   0
LINE
   5
260
 100
AcDbEntity
   8
LEVEL001
 370
13
 100
AcDbLine
   6
CONTINUOUS
  62
7
  10
 3562.0835326793
  20
 4761.5589887640
  30
0.0
  11
 3507.0835326793
  21
 4761.5589887640
  31
0.0
   0
LINE
   5
261
 100
AcDbEntity
   8
LEVEL001
 370
13
 100
AcDbLine
   6
CONTINUOUS
  62
7
  10
 3507.0835326793
  20
 4761.5589887640
  30
0.0
  11
 3507.0835326793
  21
 4651.5589887640
  31
0.0
   0
LINE
   5
262
 100
AcDbEntity
   8
LEVEL001
 370
13
 100
AcDbLine
   6
CONTINUOUS
  62
7
  10
 3507.0835326793
  20
 4651.5589887640
  30
0.0
  11
 3562.0835326793
  21
 4651.5589887640
  31
0.0
   0
LINE
   5
263
 100
AcDbEntity
   8
LEVEL001
 370
13
 100
AcDbLine
   6
CONTINUOUS
  62
7
  10
 3655.2835326793
  20
 4651.5589887640
  30
0.0
  11
 3562.0835326793
  21
 4651.5589887640
  31
0.0
   0
LINE
   5
264
 100
AcDbEntity
   8
LEVEL001
 370
13
 100
AcDbLine
   6
CONTINUOUS
  62
7
  10
 3562.0835326793
  20
 4651.5589887640
  30
0.0
  11
 3562.0835326793
  21
 4761.5589887640
  31
0.0
   0
LINE
   5
265
 100
AcDbEntity
   8
LEVEL001
 370
13
 100
AcDbLine
   6
CONTINUOUS
  62
7
  10
 3562.0835326793
  20
 4761.5589887640
  30
0.0
  11
 3655.2835326793
  21
 4761.5589887640
  31
0.0
   0
LINE
   5
266
 100
AcDbEntity
   8
LEVEL001
 370
13
 100
AcDbLine
   6
CONTINUOUS
  62
3
  10
 3594.0835326793
  20
 4729.5589887640
  30
0.0
  11
 3580.0835326793
  21
 4729.5589887640
  31
0.0
   0
LINE
   5
267
 100
AcDbEntity
   8
LEVEL001
 370
13
 100
AcDbLine
   6
CONTINUOUS
  62
3
  10
 3580.0835326793
  20
 4729.5589887640
  30
0.0
  11
 3580.0835326793
  21
 4743.5589887640
  31
0.0
   0
LINE
   5
268
 100
AcDbEntity
   8
LEVEL001
 370
13
 100
AcDbLine
   6
CONTINUOUS
  62
3
  10
 3580.0835326793
  20
 4743.5589887640
  30
0.0
  11
 3594.0835326793
  21
 4743.5589887640
  31
0.0
   0
LINE
   5
269
 100
AcDbEntity
   8
LEVEL001
 370
13
 100
AcDbLine
   6
CONTINUOUS
  62
3
  10
 3594.0835326793
  20
 4743.5589887640
  30
0.0
  11
 3594.0835326793
  21
 4729.5589887640
  31
0.0
   0
LINE
   5
26A
 100
AcDbEntity
   8
LEVEL001
 370
13
 100
AcDbLine
   6
CONTINUOUS
  62
3
  10
 3594.0835326793
  20
 4669.5589887640
  30
0.0
  11
 3580.0835326793
  21
 4669.5589887640
  31
0.0
   0
LINE
   5
26B
 100
AcDbEntity
   8
LEVEL001
 370
13
 100
AcDbLine
   6
CONTINUOUS
  62
3
  10
 3580.0835326793
  20
 4669.5589887640
  30
0.0
  11
 3580.0835326793
  21
 4683.5589887640
  31
0.0
   0
LINE
   5
26C
 100
AcDbEntity
   8
LEVEL001
 370
13
 100
AcDbLine
   6
CONTINUOUS
  62
3
  10
 3580.0835326793
  20
 4683.5589887640
  30
0.0
  11
 3594.0835326793
  21
 4683.5589887640
  31
0.0
   0
LINE
   5
26D
 100
AcDbEntity
   8
LEVEL001
 370
13
 100
AcDbLine
   6
CONTINUOUS
  62
3
  10
 3594.0835326793
  20
 4683.5589887640
  30
0.0
  11
 3594.0835326793
  21
 4669.5589887640
  31
0.0
   0
LINE
   5
26E
 100
AcDbEntity
   8
LEVEL001
 370
13
 100
AcDbLine
   6
CONTINUOUS
  62
3
  10
 3420.1167728359
  20
 4729.5589887640
  30
0.0
  11
 3406.1167728359
  21
 4729.5589887640
  31
0.0
   0
LINE
   5
26F
 100
AcDbEntity
   8
LEVEL001
 370
13
 100
AcDbLine
   6
CONTINUOUS
  62
3
  10
 3406.1167728359
  20
 4729.5589887640
  30
0.0
  11
 3406.1167728359
  21
 4743.5589887640
  31
0.0
   0
LINE
   5
270
 100
AcDbEntity
   8
LEVEL001
 370
13
 100
AcDbLine
   6
CONTINUOUS
  62
3
  10
 3406.1167728359
  20
 4743.5589887640
  30
0.0
  11
 3420.1167728359
  21
 4743.5589887640
  31
0.0
   0
LINE
   5
271
 100
AcDbEntity
   8
LEVEL001
 370
13
 100
AcDbLine
   6
CONTINUOUS
  62
3
  10
 3420.1167728359
  20
 4743.5589887640
  30
0.0
  11
 3420.1167728359
  21
 4729.5589887640
  31
0.0
   0
LINE
   5
272
 100
AcDbEntity
   8
LEVEL001
 370
13
 100
AcDbLine
   6
CONTINUOUS
  62
3
  10
 3420.1167728359
  20
 4669.5589887640
  30
0.0
  11
 3406.1167728359
  21
 4669.5589887640
  31
0.0
   0
LINE
   5
273
 100
AcDbEntity
   8
LEVEL001
 370
13
 100
AcDbLine
   6
CONTINUOUS
  62
3
  10
 3406.1167728359
  20
 4669.5589887640
  30
0.0
  11
 3406.1167728359
  21
 4683.5589887640
  31
0.0
   0
LINE
   5
274
 100
AcDbEntity
   8
LEVEL001
 370
13
 100
AcDbLine
   6
CONTINUOUS
  62
3
  10
 3406.1167728359
  20
 4683.5589887640
  30
0.0
  11
 3420.1167728359
  21
 4683.5589887640
  31
0.0
   0
LINE
   5
275
 100
AcDbEntity
   8
LEVEL001
 370
13
 100
AcDbLine
   6
CONTINUOUS
  62
3
  10
 3420.1167728359
  20
 4683.5589887640
  30
0.0
  11
 3420.1167728359
  21
 4669.5589887640
  31
0.0
   0
LINE
   5
276
 100
AcDbEntity
   8
LEVEL001
 370
13
 100
AcDbLine
   6
CONTINUOUS
  62
7
  10
 3507.0835326793
  20
 4651.5589887640
  30
0.0
  11
 3393.1167728359
  21
 4651.5589887640
  31
0.0
   0
LINE
   5
277
 100
AcDbEntity
   8
LEVEL001
 370
13
 100
AcDbLine
   6
CONTINUOUS
  62
7
  10
 3393.1167728359
  20
 4651.5589887640
  30
0.0
  11
 3393.1167728359
  21
 4761.5589887640
  31
0.0
   0
LINE
   5
278
 100
AcDbEntity
   8
LEVEL001
 370
13
 100
AcDbLine
   6
CONTINUOUS
  62
7
  10
 3393.1167728359
  20
 4761.5589887640
  30
0.0
  11
 3507.0835326793
  21
 4761.5589887640
  31
0.0
   0
ARC
   5
279
 100
AcDbEntity
   8
LEVEL001
 370
13
   6
CONTINUOUS
  62
3
 100
AcDbCircle
  10
 2800.8659055229
  20
 4736.5589887640
  30
0.0
  40
 52.000000000010
 100
AcDbArc
  50
 298.73565374491
  51
 324.99999999998
   0
ARC
   5
27A
 100
AcDbEntity
   8
LEVEL001
 370
13
   6
CONTINUOUS
  62
3
 100
AcDbCircle
  10
 2800.8659055229
  20
 4736.5589887640
  30
0.0
  40
 68.000000000070
 100
AcDbArc
  50
 291.57057830164
  51
 324.99999999997
   0
ARC
   5
27B
 100
AcDbEntity
   8
LEVEL001
 370
13
   6
CONTINUOUS
  62
3
 100
AcDbCircle
  10
 2850.0150281803
  20
 4702.1444025828
  30
0.0
  40
 8.0000000000000
 100
AcDbArc
  50
 325.00000000007
  51
 146.50781277484
   0
LINE
   5
27C
 100
AcDbEntity
   8
LEVEL001
 370
13
 100
AcDbLine
   6
DASHDOT
  62
6
  10
 2835.0150281803
  20
 4702.1444025828
  30
0.0
  11
 2865.0150281803
  21
 4702.1444025828
  31
0.0
   0
LINE
   5
27D
 100
AcDbEntity
   8
LEVEL001
 370
13
 100
AcDbLine
   6
DASHDOT
  62
6
  10
 2850.0150281803
  20
 4717.1444025828
  30
0.0
  11
 2850.0150281803
  21
 4687.1444025828
  31
0.0
   0
ARC
   5
27E
 100
AcDbEntity
   8
LEVEL001
 370
13
   6
CONTINUOUS
  62
3
 100
AcDbCircle
  10
 3587.0835326793
  20
 4736.5589887640
  30
0.0
  40
 52.000000000010
 100
AcDbArc
  50
 215.00000000002
  51
 241.26434625509
   0
ARC
   5
27F
 100
AcDbEntity
   8
LEVEL001
 370
13
   6
CONTINUOUS
  62
3
 100
AcDbCircle
  10
 3587.0835326793
  20
 4736.5589887640
  30
0.0
  40
 68.000000000070
 100
AcDbArc
  50
 215.00000000003
  51
 248.42942169836
   0
ARC
   5
280
 100
AcDbEntity
   8
LEVEL001
 370
13
   6
CONTINUOUS
  62
3
 100
AcDbCircle
  10
 3537.9344100219
  20
 4702.1444025828
  30
0.0
  40
 8.0000000000000
 100
AcDbArc
  50
 33.492187225221
  51
 214.99999999987
   0
LINE
   5
281
 100
AcDbEntity
   8
LEVEL001
 370
13
 100
AcDbLine
   6
DASHDOT
  62
6
  10
 3552.9344100219
  20
 4702.1444025828
  30
0.0
  11
 3522.9344100219
  21
 4702.1444025828
  31
0.0
   0
LINE
   5
282
 100
AcDbEntity
   8
LEVEL001
 370
13
 100
AcDbLine
   6
DASHDOT
  62
6
  10
 3537.9344100219
  20
 4717.1444025828
  30
0.0
  11
 3537.9344100219
  21
 4687.1444025828
  31
0.0
   0
LINE
   5
283
 100
AcDbEntity
   8
LEVEL001
 370
13
 100
AcDbLine
   6
CONTINUOUS
  62
6
  10
 3229.3296204227
  20
 4791.5589887640
  30
0.0
  11
 3229.3296204227
  21
 4691.5589887640
  31
0.0
   0
LINE
   5
284
 100
AcDbEntity
   8
LEVEL001
 370
13
 100
AcDbLine
   6
CONTINUOUS
  62
6
  10
 3158.6198177795
  20
 4681.5589887640
  30
0.0
  11
 3158.6198177795
  21
 4581.5589887640
  31
0.0
   0
LINE
   5
285
 100
AcDbEntity
   8
LEVEL001
 370
13
 100
AcDbLine
   6
CONTINUOUS
  62
7
  10
 3232.1247191011
  20
 4878.0589887640
  30
0.0
  11
 3155.8247191011
  21
 4878.0589887640
  31
0.0
   0
LINE
   5
286
 100
AcDbEntity
   8
LEVEL001
 370
13
 100
AcDbLine
   6
CONTINUOUS
  62
7
  10
 3155.8247191011
  20
 4878.0589887640
  30
0.0
  11
 3155.8247191011
  21
 4875.0589887640
  31
0.0
   0
LINE
   5
287
 100
AcDbEntity
   8
LEVEL001
 370
13
 100
AcDbLine
   6
CONTINUOUS
  62
7
  10
 3155.8247191011
  20
 4875.0589887640
  30
0.0
  11
 3232.1247191011
  21
 4875.0589887640
  31
0.0
   0
LINE
   5
288
 100
AcDbEntity
   8
LEVEL001
 370
13
 100
AcDbLine
   6
CONTINUOUS
  62
7
  10
 3232.1247191011
  20
 4875.0589887640
  30
0.0
  11
 3232.1247191011
  21
 4878.0589887640
  31
0.0
   0
LINE
   5
289
 100
AcDbEntity
   8
LEVEL001
 370
13
 100
AcDbLine
   6
DOT
  62
1
  10
 3227.1247191011
  20
 4875.0589887640
  30
0.0
  11
 3227.1247191011
  21
 4848.0589887640
  31
0.0
   0
LINE
   5
28A
 100
AcDbEntity
   8
LEVEL001
 370
13
 100
AcDbLine
   6
DOT
  62
1
  10
 3227.1247191011
  20
 4848.0589887640
  30
0.0
  11
 3160.8247191011
  21
 4848.0589887640
  31
0.0
   0
LINE
   5
28B
 100
AcDbEntity
   8
LEVEL001
 370
13
 100
AcDbLine
   6
DOT
  62
1
  10
 3160.8247191011
  20
 4848.0589887640
  30
0.0
  11
 3160.8247191011
  21
 4875.0589887640
  31
0.0
   0
LINE
   5
28C
 100
AcDbEntity
   8
LEVEL001
 370
13
 100
AcDbLine
   6
CONTINUOUS
  62
7
  10
 3232.1247191011
  20
 4796.5589887640
  30
0.0
  11
 3232.1247191011
  21
 4874.0589887640
  31
0.0
   0
LINE
   5
28D
 100
AcDbEntity
   8
LEVEL001
 370
13
 100
AcDbLine
   6
CONTINUOUS
  62
7
  10
 3232.1247191011
  20
 4874.0589887640
  30
0.0
  11
 3155.8247191011
  21
 4874.0589887640
  31
0.0
   0
LINE
   5
28E
 100
AcDbEntity
   8
LEVEL001
 370
13
 100
AcDbLine
   6
CONTINUOUS
  62
7
  10
 3155.8247191011
  20
 4874.0589887640
  30
0.0
  11
 3155.8247191011
  21
 4796.5589887640
  31
0.0
   0
CIRCLE
   5
28F
 100
AcDbEntity
   8
LEVEL001
 370
13
 100
AcDbCircle
   6
CONTINUOUS
  62
1
  10
 3553.4685372287
  20
 5156.5589887640
  30
0.0
  40
 69.999997913838
   0
CIRCLE
   5
290
 100
AcDbEntity
   8
LEVEL001
 370
13
 100
AcDbCircle
   6
CONTINUOUS
  62
1
  10
 3693.4685330565
  20
 5156.5589887640
  30
0.0
  40
 69.999997913838
   0
CIRCLE
   5
291
 100
AcDbEntity
   8
LEVEL001
 370
13
 100
AcDbCircle
   6
CONTINUOUS
  62
1
  10
 2853.9747232735
  20
 5156.5589887640
  30
0.0
  40
 69.999997913838
   0
CIRCLE
   5
292
 100
AcDbEntity
   8
LEVEL001
 370
13
 100
AcDbCircle
   6
CONTINUOUS
  62
1
  10
 2993.9747191011
  20
 5156.5589887640
  30
0.0
  40
 69.999997913838
   0
MTEXT
   5
293
 100
AcDbEntity
   8
LEVEL001
 370
13
  62
1
 100
AcDbMText
  10
 3393.9747191011
  20
 5156.5589887640
  30
0.0
  40
 57.142857142858
  41
0.0
  71
5
  72
1
   1
\T1.000000;13
   7
GMM001
  44
 0.79999984000003
   0
CIRCLE
   5
294
 100
AcDbEntity
   8
LEVEL001
 370
13
 100
AcDbCircle
   6
CONTINUOUS
  62
1
  10
 3393.9747191011
  20
 5156.5589887640
  30
0.0
  40
 70.000000000000
   0
MTEXT
   5
295
 100
AcDbEntity
   8
LEVEL001
 370
13
  62
1
 100
AcDbMText
  10
 3553.4685372287
  20
 5156.5589887640
  30
0.0
  40
 57.142857142858
  41
0.0
  71
5
  72
1
   1
\T1.000000;6
   7
GMM001
  44
 0.79999984000003
   0
MTEXT
   5
296
 100
AcDbEntity
   8
LEVEL001
 370
13
  62
1
 100
AcDbMText
  10
 3693.4685330565
  20
 5156.5589887640
  30
0.0
  40
 57.142857142858
  41
0.0
  71
5
  72
1
   1
\T1.000000;8
   7
GMM001
  44
 0.79999984000003
   0
MTEXT
   5
297
 100
AcDbEntity
   8
LEVEL001
 370
13
  62
1
 100
AcDbMText
  10
 2993.9747191011
  20
 5156.5589887640
  30
0.0
  40
 57.142857142858
  41
0.0
  71
5
  72
1
   1
\T1.000000;7
   7
GMM001
  44
 0.79999984000003
   0
MTEXT
   5
298
 100
AcDbEntity
   8
LEVEL001
 370
13
  62
1
 100
AcDbMText
  10
 2853.9747232735
  20
 5156.5589887640
  30
0.0
  40
 57.142857142858
  41
0.0
  71
5
  72
1
   1
\T1.000000;5
   7
GMM001
  44
 0.79999984000003
   0
CIRCLE
   5
299
 100
AcDbEntity
   8
LEVEL001
 370
13
 100
AcDbCircle
   6
CONTINUOUS
  62
1
  10
 3393.9747191011
  20
 4256.5589887640
  30
0.0
  40
 69.999997913838
   0
CIRCLE
   5
29A
 100
AcDbEntity
   8
LEVEL001
 370
13
 100
AcDbCircle
   6
CONTINUOUS
  62
1
  10
 3533.9747170149
  20
 4256.5589887640
  30
0.0
  40
 70.000000000000
   0
MTEXT
   5
29B
 100
AcDbEntity
   8
LEVEL001
 370
13
  62
1
 100
AcDbMText
  10
 3533.9747170149
  20
 4256.5589887640
  30
0.0
  40
 57.142857142858
  41
0.0
  71
5
  72
1
   1
\T1.000000;10
   7
GMM001
  44
 0.79999984000003
   0
MTEXT
   5
29C
 100
AcDbEntity
   8
LEVEL001
 370
13
  62
1
 100
AcDbMText
  10
 3393.9747191011
  20
 4256.5589887640
  30
0.0
  40
 57.142857142858
  41
0.0
  71
5
  72
1
   1
\T1.000000;9
   7
GMM001
  44
 0.79999984000003
   0
LEADER
   5
29D
 100
AcDbEntity
   8
LEVEL001
 370
13
   6
CONTINUOUS
  62
1
 100
AcDbLeader
   3
GMM002
  73
3
  74
1
  75
0
  40
 60.000000000000
  41
0.0
  76
2
  10
 3283.4730138287
  20
 4591.5589887640
  30
0.0
  10
 3372.4086755681
  20
 4323.1540747260
  30
0.0
  77
1
   0
LEADER
   5
29E
 100
AcDbEntity
   8
LEVEL001
 370
13
   6
CONTINUOUS
  62
1
 100
AcDbLeader
   3
GMM002
  73
3
  74
1
  75
0
  40
 60.000000000000
  41
0.0
  76
2
  10
 2794.7554114179
  20
 4761.5589887642
  30
0.0
  10
 2842.5891590215
  20
 5087.4911334722
  30
0.0
  77
1
   0
LEADER
   5
29F
 100
AcDbEntity
   8
LEVEL001
 370
13
   6
CONTINUOUS
  62
1
 100
AcDbLeader
   3
GMM002
  73
3
  74
1
  75
0
  40
 60.000000000000
  41
0.0
  76
2
  10
 3193.9747191011
  20
 4878.0589887640
  30
0.0
  10
 3351.0556339083
  20
 5101.2602353764
  30
0.0
  77
1
   0
LEADER
   5
2A0
 100
AcDbEntity
   8
LEVEL001
 370
13
   6
CONTINUOUS
  62
1
 100
AcDbLeader
   3
GMM002
  73
3
  74
1
  75
0
  40
 60.000000000000
  41
0.0
  76
2
  10
 3393.1167728359
  20
 4761.5589887640
  30
0.0
  10
 3527.5320106091
  20
 5091.5413273568
  30
0.0
  77
1
   0
LINE
   5
2A1
 100
AcDbEntity
   8
LEVEL001
 370
13
 100
AcDbLine
   6
CONTINUOUS
  62
7
  10
 2792.1233328419
  20
 3595.5371027734
  30
0.0
  11
 2789.4094260785
  21
 3588.7523358646
  31
0.0
   0
ARC
   5
2A2
 100
AcDbEntity
   8
LEVEL001
 370
13
   6
CONTINUOUS
  62
7
 100
AcDbCircle
  10
 2794.0518095329
  20
 3586.8953824828
  30
0.0
  40
 5.0000000000000
 100
AcDbArc
  50
 158.19859051371
  51
 180.00000000000
   0
LINE
   5
2A3
 100
AcDbEntity
   8
LEVEL001
 370
13
 100
AcDbLine
   6
CONTINUOUS
  62
7
  10
 2789.0518095329
  20
 3586.8953824828
  30
0.0
  11
 2789.0518095329
  21
 3004.1788230624
  31
0.0
   0
LINE
   5
2A4
 100
AcDbEntity
   8
LEVEL001
 370
13
 100
AcDbLine
   6
CONTINUOUS
  62
6
  10
 2796.0518095329
  20
 3524.5371638118
  30
0.0
  11
 2796.0518095329
  21
 3525.5371027726
  31
0.0
   0
ARC
   5
2A5
 100
AcDbEntity
   8
LEVEL001
 370
13
   6
CONTINUOUS
  62
7
 100
AcDbCircle
  10
 2788.0518095329
  20
 3579.6894563144
  30
0.0
  40
 5.0000000000000
 100
AcDbArc
  50
0.0
  51
 21.801409486445
   0
LINE
   5
2A6
 100
AcDbEntity
   8
LEVEL001
 370
13
 100
AcDbLine
   6
CONTINUOUS
  62
7
  10
 2790.8919221325
  20
 3586.0520868330
  30
0.0
  11
 2792.6941929873
  21
 3581.5464096962
  31
0.0
   0
ARC
   5
2A7
 100
AcDbEntity
   8
LEVEL001
 370
13
   6
CONTINUOUS
  62
7
 100
AcDbCircle
  10
 2795.5343055869
  20
 3587.9090402146
  30
0.0
  40
 5.0000000000000
 100
AcDbArc
  50
 158.19859051371
  51
 201.80140948644
   0
LINE
   5
2A8
 100
AcDbEntity
   8
LEVEL001
 370
13
 100
AcDbLine
   6
CONTINUOUS
  62
7
  10
 2792.1233328419
  20
 3595.5371027734
  30
0.0
  11
 2793.0518095329
  21
 3595.1657120972
  31
0.0
   0
LINE
   5
2A9
 100
AcDbEntity
   8
LEVEL001
 370
13
 100
AcDbLine
   6
CONTINUOUS
  62
7
  10
 2793.0518095329
  20
 3595.1657120972
  30
0.0
  11
 2790.8919221325
  21
 3589.7659935964
  31
0.0
   0
LINE
   5
2AA
 100
AcDbEntity
   8
LEVEL001
 370
13
 100
AcDbLine
   6
CONTINUOUS
  62
7
  10
 2793.0518095329
  20
 3579.6894563144
  30
0.0
  11
 2793.0518095329
  21
 3011.3847492310
  31
0.0
   0
LINE
   5
2AB
 100
AcDbEntity
   8
LEVEL001
 370
13
 100
AcDbLine
   6
CONTINUOUS
  62
7
  10
 2796.0518095329
  20
 3525.5371027726
  30
0.0
  11
 2793.0518095329
  21
 3525.5371027726
  31
0.0
   0
LINE
   5
2AC
 100
AcDbEntity
   8
LEVEL001
 370
13
 100
AcDbLine
   6
CONTINUOUS
  62
6
  10
 2793.0518095329
  20
 3524.5371638118
  30
0.0
  11
 2796.0518095329
  21
 3524.5371638118
  31
0.0
   0
LINE
   5
2AD
 100
AcDbEntity
   8
LEVEL001
 370
13
 100
AcDbLine
   6
CONTINUOUS
  62
7
  10
 2796.5072883119
  20
 3510.5367366202
  30
0.0
  11
 2796.5077460759
  21
 3468.5368283368
  31
0.0
   0
ELLIPSE
   5
2AE
 100
AcDbEntity
   8
LEVEL001
 370
13
   6
CONTINUOUS
  62
7
 100
AcDbEllipse
  10
 2792.5072857621
  20
 3510.5368585714
  30
0.0
  11
-4.0000025516047
  21
0.0
  31
0.0
  40
 0.99999938800000
  41
 3.1415621657857
  42
-1.7073511820393
   0
LINE
   5
2AF
 100
AcDbEntity
   8
LEVEL001
 370
13
 100
AcDbLine
   6
CONTINUOUS
  62
6
  10
 2796.0518095329
  20
 3453.5371030536
  30
0.0
  11
 2796.0518095329
  21
 3454.5371335672
  31
0.0
   0
LINE
   5
2B0
 100
AcDbEntity
   8
LEVEL001
 370
13
 100
AcDbLine
   6
CONTINUOUS
  62
6
  10
 2796.0518095329
  20
 3454.5371335672
  30
0.0
  11
 2793.0518095329
  21
 3454.5371335672
  31
0.0
   0
ELLIPSE
   5
2B1
 100
AcDbEntity
   8
LEVEL001
 370
13
   6
CONTINUOUS
  62
7
 100
AcDbEllipse
  10
 2792.5077435247
  20
 3468.5368894894
  30
0.0
  11
-4.0000025516047
  21
0.0
  31
0.0
  40
 0.99999938800000
  41
 1.7072356670414
  42
 3.1415773654681
   0
LINE
   5
2B2
 100
AcDbEntity
   8
LEVEL001
 370
13
 100
AcDbLine
   6
CONTINUOUS
  62
7
  10
 2793.0518095329
  20
 3453.5371030536
  30
0.0
  11
 2796.0518095329
  21
 3453.5371030536
  31
0.0
   0
LINE
   5
2B3
 100
AcDbEntity
   8
LEVEL001
 370
13
 100
AcDbLine
   6
CONTINUOUS
  62
7
  10
 2796.5073155559
  20
 3508.0371030536
  30
0.0
  11
 2902.0518095329
  21
 3508.0371030536
  31
0.0
   0
LINE
   5
2B4
 100
AcDbEntity
   8
LEVEL001
 370
13
 100
AcDbLine
   6
CONTINUOUS
  62
7
  10
 2902.0518095329
  20
 3508.0371030536
  30
0.0
  11
 2902.0518095329
  21
 3471.0371030536
  31
0.0
   0
LINE
   5
2B5
 100
AcDbEntity
   8
LEVEL001
 370
13
 100
AcDbLine
   6
CONTINUOUS
  62
7
  10
 2902.0518095329
  20
 3471.0371030536
  30
0.0
  11
 2796.5077188249
  21
 3471.0371030536
  31
0.0
   0
LINE
   5
2B6
 100
AcDbEntity
   8
LEVEL001
 370
13
 100
AcDbLine
   6
CONTINUOUS
  62
7
  10
 2793.0518095329
  20
 3471.0371030536
  30
0.0
  11
 2793.0518095329
  21
 3508.0371030536
  31
0.0
   0
LINE
   5
2B7
 100
AcDbEntity
   8
LEVEL001
 370
13
 100
AcDbLine
   6
CONTINUOUS
  62
7
  10
 2793.0518095329
  20
 3137.5371024918
  30
0.0
  11
 2796.0518095329
  21
 3137.5371024918
  31
0.0
   0
LINE
   5
2B8
 100
AcDbEntity
   8
LEVEL001
 370
13
 100
AcDbLine
   6
CONTINUOUS
  62
6
  10
 2796.0518095329
  20
 3137.5371024918
  30
0.0
  11
 2796.0518095329
  21
 3136.5370719780
  31
0.0
   0
LINE
   5
2B9
 100
AcDbEntity
   8
LEVEL001
 370
13
 100
AcDbLine
   6
CONTINUOUS
  62
6
  10
 2796.0518095329
  20
 3136.5370719780
  30
0.0
  11
 2793.0518095329
  21
 3136.5370719780
  31
0.0
   0
LINE
   5
2BA
 100
AcDbEntity
   8
LEVEL001
 370
13
 100
AcDbLine
   6
CONTINUOUS
  62
7
  10
 2796.5072883119
  20
 3080.5374689250
  30
0.0
  11
 2796.5077460759
  21
 3122.5373772084
  31
0.0
   0
ELLIPSE
   5
2BB
 100
AcDbEntity
   8
LEVEL001
 370
13
   6
CONTINUOUS
  62
7
 100
AcDbEllipse
  10
 2792.5077435247
  20
 3122.5373160560
  30
0.0
  11
-4.0000025516047
  21
0.0
  31
0.0
  40
 0.99999938800000
  41
-3.1415773654608
  42
-1.7072356670409
   0
LINE
   5
2BC
 100
AcDbEntity
   8
LEVEL001
 370
13
 100
AcDbLine
   6
CONTINUOUS
  62
6
  10
 2796.0518095329
  20
 3066.5370417336
  30
0.0
  11
 2796.0518095329
  21
 3065.5371027726
  31
0.0
   0
LINE
   5
2BD
 100
AcDbEntity
   8
LEVEL001
 370
13
 100
AcDbLine
   6
CONTINUOUS
  62
6
  10
 2793.0518095329
  20
 3066.5370417336
  30
0.0
  11
 2796.0518095329
  21
 3066.5370417336
  31
0.0
   0
ELLIPSE
   5
2BE
 100
AcDbEntity
   8
LEVEL001
 370
13
   6
CONTINUOUS
  62
7
 100
AcDbEllipse
  10
 2792.5072857621
  20
 3080.5373469738
  30
0.0
  11
-4.0000025516047
  21
0.0
  31
0.0
  40
 0.99999938800000
  41
 1.7073511820393
  42
-3.1415621657857
   0
LINE
   5
2BF
 100
AcDbEntity
   8
LEVEL001
 370
13
 100
AcDbLine
   6
CONTINUOUS
  62
7
  10
 2796.0518095329
  20
 3065.5371027726
  30
0.0
  11
 2793.0518095329
  21
 3065.5371027726
  31
0.0
   0
ARC
   5
2C0
 100
AcDbEntity
   8
LEVEL001
 370
13
   6
CONTINUOUS
  62
7
 100
AcDbCircle
  10
 2794.0518095329
  20
 3004.1788230624
  30
0.0
  40
 5.0000000000000
 100
AcDbArc
  50
 180.00000000000
  51
 201.80140948644
   0
LINE
   5
2C1
 100
AcDbEntity
   8
LEVEL001
 370
13
 100
AcDbLine
   6
CONTINUOUS
  62
7
  10
 2792.1233328419
  20
 2995.5371027718
  30
0.0
  11
 2789.4094260785
  21
 3002.3218696808
  31
0.0
   0
ARC
   5
2C2
 100
AcDbEntity
   8
LEVEL001
 370
13
   6
CONTINUOUS
  62
7
 100
AcDbCircle
  10
 2788.0518095329
  20
 3011.3847492310
  30
0.0
  40
 5.0000000000000
 100
AcDbArc
  50
 338.19859051386
  51
0.0
   0
LINE
   5
2C3
 100
AcDbEntity
   8
LEVEL001
 370
13
 100
AcDbLine
   6
CONTINUOUS
  62
7
  10
 2790.8919221325
  20
 3005.0221187124
  30
0.0
  11
 2792.6941929873
  21
 3009.5277958492
  31
0.0
   0
ARC
   5
2C4
 100
AcDbEntity
   8
LEVEL001
 370
13
   6
CONTINUOUS
  62
7
 100
AcDbCircle
  10
 2795.5343055869
  20
 3003.1651653306
  30
0.0
  40
 5.0000000000000
 100
AcDbArc
  50
 158.19859051356
  51
 201.80140948644
   0
LINE
   5
2C5
 100
AcDbEntity
   8
LEVEL001
 370
13
 100
AcDbLine
   6
CONTINUOUS
  62
7
  10
 2792.1233328419
  20
 2995.5371027718
  30
0.0
  11
 2793.0518095329
  21
 2995.9084934482
  31
0.0
   0
LINE
   5
2C6
 100
AcDbEntity
   8
LEVEL001
 370
13
 100
AcDbLine
   6
CONTINUOUS
  62
7
  10
 2793.0518095329
  20
 2995.9084934482
  30
0.0
  11
 2790.8919221325
  21
 3001.3082119488
  31
0.0
   0
LINE
   5
2C7
 100
AcDbEntity
   8
LEVEL001
 370
13
 100
AcDbLine
   6
CONTINUOUS
  62
7
  10
 2796.5077188249
  20
 3120.0371027726
  30
0.0
  11
 2902.0518145051
  21
 3120.0371027726
  31
0.0
   0
LINE
   5
2C8
 100
AcDbEntity
   8
LEVEL001
 370
13
 100
AcDbLine
   6
CONTINUOUS
  62
7
  10
 2902.0518145051
  20
 3120.0371027726
  30
0.0
  11
 2902.0518145051
  21
 3083.0371027726
  31
0.0
   0
LINE
   5
2C9
 100
AcDbEntity
   8
LEVEL001
 370
13
 100
AcDbLine
   6
CONTINUOUS
  62
7
  10
 2902.0518145051
  20
 3083.0371027726
  30
0.0
  11
 2796.5073155559
  21
 3083.0371027726
  31
0.0
   0
LINE
   5
2CA
 100
AcDbEntity
   8
LEVEL001
 370
13
 100
AcDbLine
   6
CONTINUOUS
  62
6
  10
 2880.8798155047
  20
 3095.0371027726
  30
0.0
  11
 2808.7606436791
  21
 3095.0371027726
  31
0.0
   0
LINE
   5
2CB
 100
AcDbEntity
   8
LEVEL001
 370
13
 100
AcDbLine
   6
CONTINUOUS
  62
6
  10
 2808.7606436791
  20
 3108.0371027726
  30
0.0
  11
 2880.8798155047
  21
 3108.0371027726
  31
0.0
   0
LINE
   5
2CC
 100
AcDbEntity
   8
LEVEL001
 370
13
 100
AcDbLine
   6
CONTINUOUS
  62
6
  10
 2880.8798155047
  20
 3118.0371027726
  30
0.0
  11
 2880.8798155047
  21
 3109.0371027726
  31
0.0
   0
LINE
   5
2CD
 100
AcDbEntity
   8
LEVEL001
 370
13
 100
AcDbLine
   6
CONTINUOUS
  62
6
  10
 2880.8798155047
  20
 3094.0371027726
  30
0.0
  11
 2880.8798155047
  21
 3085.0371027726
  31
0.0
   0
LINE
   5
2CE
 100
AcDbEntity
   8
LEVEL001
 370
13
 100
AcDbLine
   6
CONTINUOUS
  62
7
  10
 2897.0518145051
  20
 3096.5371027726
  30
0.0
  11
 2887.0518145051
  21
 3096.5371027726
  31
0.0
   0
LINE
   5
2CF
 100
AcDbEntity
   8
LEVEL001
 370
13
 100
AcDbLine
   6
CONTINUOUS
  62
7
  10
 2887.0518145051
  20
 3096.5371027726
  30
0.0
  11
 2887.0518145051
  21
 3106.5371027726
  31
0.0
   0
LINE
   5
2D0
 100
AcDbEntity
   8
LEVEL001
 370
13
 100
AcDbLine
   6
CONTINUOUS
  62
7
  10
 2887.0518145051
  20
 3106.5371027726
  30
0.0
  11
 2897.0518145051
  21
 3106.5371027726
  31
0.0
   0
LINE
   5
2D1
 100
AcDbEntity
   8
LEVEL001
 370
13
 100
AcDbLine
   6
CONTINUOUS
  62
7
  10
 2897.0518145051
  20
 3106.5371027726
  30
0.0
  11
 2897.0518145051
  21
 3096.5371027726
  31
0.0
   0
LINE
   5
2D2
 100
AcDbEntity
   8
LEVEL001
 370
13
 100
AcDbLine
   6
CONTINUOUS
  62
6
  10
 2883.1983405461
  20
 3108.0371027726
  30
0.0
  11
 2883.1983405461
  21
 3095.0371027726
  31
0.0
   0
LINE
   5
2D3
 100
AcDbEntity
   8
LEVEL001
 370
13
 100
AcDbLine
   6
CONTINUOUS
  62
6
  10
 2807.4997491095
  20
 3107.0371027726
  30
0.0
  11
 2807.4997491095
  21
 3096.0371027726
  31
0.0
   0
LINE
   5
2D4
 100
AcDbEntity
   8
LEVEL001
 370
13
 100
AcDbLine
   6
CONTINUOUS
  62
6
  10
 2807.4997491095
  20
 3118.0371027726
  30
0.0
  11
 2807.4997491095
  21
 3109.0371027726
  31
0.0
   0
LINE
   5
2D5
 100
AcDbEntity
   8
LEVEL001
 370
13
 100
AcDbLine
   6
CONTINUOUS
  62
6
  10
 2807.4997491095
  20
 3094.0371027726
  30
0.0
  11
 2807.4997491095
  21
 3085.0371027726
  31
0.0
   0
LINE
   5
2D6
 100
AcDbEntity
   8
LEVEL001
 370
13
 100
AcDbLine
   6
CONTINUOUS
  62
6
  10
 2880.8798105325
  20
 3506.0371030536
  30
0.0
  11
 2880.8798105325
  21
 3497.0371030536
  31
0.0
   0
LINE
   5
2D7
 100
AcDbEntity
   8
LEVEL001
 370
13
 100
AcDbLine
   6
CONTINUOUS
  62
6
  10
 2880.8798105325
  20
 3482.0371030536
  30
0.0
  11
 2880.8798105325
  21
 3473.0371030536
  31
0.0
   0
LINE
   5
2D8
 100
AcDbEntity
   8
LEVEL001
 370
13
 100
AcDbLine
   6
CONTINUOUS
  62
7
  10
 2897.0518095329
  20
 3484.5371030536
  30
0.0
  11
 2887.0518095329
  21
 3484.5371030536
  31
0.0
   0
LINE
   5
2D9
 100
AcDbEntity
   8
LEVEL001
 370
13
 100
AcDbLine
   6
CONTINUOUS
  62
7
  10
 2887.0518095329
  20
 3484.5371030536
  30
0.0
  11
 2887.0518095329
  21
 3494.5371030536
  31
0.0
   0
LINE
   5
2DA
 100
AcDbEntity
   8
LEVEL001
 370
13
 100
AcDbLine
   6
CONTINUOUS
  62
7
  10
 2887.0518095329
  20
 3494.5371030536
  30
0.0
  11
 2897.0518095329
  21
 3494.5371030536
  31
0.0
   0
LINE
   5
2DB
 100
AcDbEntity
   8
LEVEL001
 370
13
 100
AcDbLine
   6
CONTINUOUS
  62
7
  10
 2897.0518095329
  20
 3494.5371030536
  30
0.0
  11
 2897.0518095329
  21
 3484.5371030536
  31
0.0
   0
LINE
   5
2DC
 100
AcDbEntity
   8
LEVEL001
 370
13
 100
AcDbLine
   6
CONTINUOUS
  62
6
  10
 2883.1983355737
  20
 3496.0371030536
  30
0.0
  11
 2883.1983355737
  21
 3483.0371030536
  31
0.0
   0
LINE
   5
2DD
 100
AcDbEntity
   8
LEVEL001
 370
13
 100
AcDbLine
   6
CONTINUOUS
  62
6
  10
 2807.4997441371
  20
 3495.0371030536
  30
0.0
  11
 2807.4997441371
  21
 3484.0371030536
  31
0.0
   0
LINE
   5
2DE
 100
AcDbEntity
   8
LEVEL001
 370
13
 100
AcDbLine
   6
CONTINUOUS
  62
6
  10
 2807.4997441371
  20
 3482.0371030536
  30
0.0
  11
 2807.4997441371
  21
 3473.0371030536
  31
0.0
   0
LINE
   5
2DF
 100
AcDbEntity
   8
LEVEL001
 370
13
 100
AcDbLine
   6
CONTINUOUS
  62
6
  10
 2807.4997441371
  20
 3506.0371030536
  30
0.0
  11
 2807.4997441371
  21
 3497.0371030536
  31
0.0
   0
LINE
   5
2E0
 100
AcDbEntity
   8
LEVEL001
 370
13
 100
AcDbLine
   6
CONTINUOUS
  62
6
  10
 2880.8798105325
  20
 3483.0371030536
  30
0.0
  11
 2808.7606387067
  21
 3483.0371030536
  31
0.0
   0
LINE
   5
2E1
 100
AcDbEntity
   8
LEVEL001
 370
13
 100
AcDbLine
   6
CONTINUOUS
  62
6
  10
 2808.7606387067
  20
 3496.0371030536
  30
0.0
  11
 2880.8798105325
  21
 3496.0371030536
  31
0.0
   0
LINE
   5
2E2
 100
AcDbEntity
   8
LEVEL001
 370
13
 100
AcDbLine
   6
CONTINUOUS
  62
7
  10
 2882.1247191011
  20
 3120.0371027726
  30
0.0
  11
 2882.1247191011
  21
 3471.0371030536
  31
0.0
   0
LINE
   5
2E3
 100
AcDbEntity
   8
LEVEL001
 370
13
 100
AcDbLine
   6
CONTINUOUS
  62
7
  10
 2805.8247191011
  20
 3471.0371030536
  30
0.0
  11
 2805.8247191011
  21
 3120.0371027726
  31
0.0
   0
CIRCLE
   5
2E4
 100
AcDbEntity
   8
LEVEL001
 370
13
 100
AcDbCircle
   6
CONTINUOUS
  62
1
  10
 3393.9747191011
  20
 3195.5371027734
  30
0.0
  40
 70.000000000000
   0
CIRCLE
   5
2E5
 100
AcDbEntity
   8
LEVEL001
 370
13
 100
AcDbCircle
   6
CONTINUOUS
  62
1
  10
 3533.9747191011
  20
 3195.5371027734
  30
0.0
  40
 70.000000000000
   0
MTEXT
   5
2E6
 100
AcDbEntity
   8
LEVEL001
 370
13
  62
1
 100
AcDbMText
  10
 3393.9747191011
  20
 3195.5371027734
  30
0.0
  40
 57.142857142858
  41
0.0
  71
5
  72
1
   1
\T1.000000;15
   7
GMM001
  44
 0.79999984000003
   0
MTEXT
   5
2E7
 100
AcDbEntity
   8
LEVEL001
 370
13
  62
1
 100
AcDbMText
  10
 3533.9747191011
  20
 3195.5371027734
  30
0.0
  40
 57.142857142858
  41
0.0
  71
5
  72
1
   1
\T1.000000;16
   7
GMM001
  44
 0.79999984000003
   0
LINE
   5
2E8
 100
AcDbEntity
   8
LEVEL001
 370
13
 100
AcDbLine
   6
CONTINUOUS
  62
7
  10
 2805.8247191011
  20
 3083.0371027726
  30
0.0
  11
 2805.8247191011
  21
 874.05898876404
  31
0.0
   0
LINE
   5
2E9
 100
AcDbEntity
   8
LEVEL001
 370
13
 100
AcDbLine
   6
CONTINUOUS
  62
7
  10
 2805.8247191011
  20
 874.05898876404
  30
0.0
  11
 2882.1247191011
  21
 874.05898876404
  31
0.0
   0
LINE
   5
2EA
 100
AcDbEntity
   8
LEVEL001
 370
13
 100
AcDbLine
   6
CONTINUOUS
  62
7
  10
 2882.1247191011
  20
 874.05898876404
  30
0.0
  11
 2882.1247191011
  21
 3083.0371027726
  31
0.0
   0
ARC
   5
2EB
 100
AcDbEntity
   8
LEVEL001
 370
13
   6
CONTINUOUS
  62
7
 100
AcDbCircle
  10
 2855.8247191011
  20
 4190.0808744744
  30
0.0
  40
 300.00000000000
 100
AcDbArc
  50
 322.12501634890
  51
0.0
   0
ARC
   5
2EC
 100
AcDbEntity
   8
LEVEL001
 370
13
   6
DASHDOT
  62
6
 100
AcDbCircle
  10
 2855.8247191011
  20
 4190.0808744744
  30
0.0
  40
 338.15000000000
 100
AcDbArc
  50
 322.12501634890
  51
0.0
   0
ARC
   5
2ED
 100
AcDbEntity
   8
LEVEL001
 370
13
   6
CONTINUOUS
  62
7
 100
AcDbCircle
  10
 2855.8247191011
  20
 4190.0808744744
  30
0.0
  40
 376.30000000000
 100
AcDbArc
  50
 322.12501634890
  51
0.0
   0
POINT
   5
2EE
 100
AcDbEntity
   8
LEVEL001
 100
AcDbPoint
  62
2
  10
 3193.9747191011
  20
 4074.0589887640
  30
0.0
   0
LINE
   5
2EF
 100
AcDbEntity
   8
LEVEL001
 370
13
 100
AcDbLine
   6
CONTINUOUS
  62
7
  10
 3092.6303843139
  20
 4005.8986904200
  30
0.0
  11
 2885.0914797023
  21
 3739.0629559193
  31
0.0
   0
ARC
   5
2F0
 100
AcDbEntity
   8
LEVEL001
 370
13
   6
CONTINUOUS
  62
7
 100
AcDbCircle
  10
 3182.1247191011
  20
 3508.0371030536
  30
0.0
  40
 300.00000000000
 100
AcDbArc
  50
 142.12501634890
  51
 180.00000000000
   0
ARC
   5
2F1
 100
AcDbEntity
   8
LEVEL001
 370
13
   6
DASHDOT
  62
6
 100
AcDbCircle
  10
 3182.1247191011
  20
 3508.0371030536
  30
0.0
  40
 338.15000000000
 100
AcDbArc
  50
 142.12501634890
  51
 180.00000000000
   0
ARC
   5
2F2
 100
AcDbEntity
   8
LEVEL001
 370
13
   6
CONTINUOUS
  62
7
 100
AcDbCircle
  10
 3182.1247191011
  20
 3508.0371030536
  30
0.0
  40
 376.30000000000
 100
AcDbArc
  50
 142.12501634890
  51
 180.00000000000
   0
LINE
   5
2F3
 100
AcDbEntity
   8
LEVEL001
 370
13
 100
AcDbLine
   6
CONTINUOUS
  62
7
  10
 2945.3190538883
  20
 3692.2192871080
  30
0.0
  11
 3152.8579584999
  21
 3959.0550216088
  31
0.0
   0
POINT
   5
2F4
 100
AcDbEntity
   8
LEVEL001
 100
AcDbPoint
  62
2
  10
 2843.9747191011
  20
 3624.0589887640
  30
0.0
   0
LINE
   5
2F5
 100
AcDbEntity
   8
LEVEL001
 370
13
 100
AcDbLine
   6
DASHDOT
  62
6
  10
 2915.2052667953
  20
 3715.6411215137
  30
0.0
  11
 3122.7441714069
  21
 3982.4768560144
  31
0.0
   0
LINE
   5
2F6
 100
AcDbEntity
   8
LEVEL001
 370
13
 100
AcDbLine
   6
CONTINUOUS
  62
7
  10
 3155.8247191011
  20
 4576.5589887640
  30
0.0
  11
 3155.8247191011
  21
 4190.0808744744
  31
0.0
   0
LINE
   5
2F7
 100
AcDbEntity
   8
LEVEL001
 370
13
 100
AcDbLine
   6
DASHDOT
  62
6
  10
 3193.9747191011
  20
 4930.2550330664
  30
0.0
  11
 3193.9747191011
  21
 4190.4901703276
  31
0.0
   0
LINE
   5
2F8
 100
AcDbEntity
   8
LEVEL001
 370
13
 100
AcDbLine
   6
CONTINUOUS
  62
7
  10
 3232.1247191011
  20
 4190.0808744744
  30
0.0
  11
 3232.1247191011
  21
 4576.5589887640
  31
0.0
   0
LINE
   5
2F9
 100
AcDbEntity
   8
LEVEL001
 370
13
 100
AcDbLine
   6
DASHDOT
  62
6
  10
 2843.9747191011
  20
 3508.0371030536
  30
0.0
  11
 2843.9747191011
  21
 774.05898876404
  31
0.0
   0
LEADER
   5
2FA
 100
AcDbEntity
   8
LEVEL001
 370
13
   6
CONTINUOUS
  62
1
 100
AcDbLeader
   3
GMM002
  73
3
  74
1
  75
0
  40
 60.000000000000
  41
0.0
  76
2
  10
 2902.0518145051
  20
 3120.0371027726
  30
0.0
  10
 3324.9619924861
  20
 3183.8220028954
  30
0.0
  77
1
   0
MTEXT
   5
2FB
 100
AcDbEntity
   8
LEVEL001
 370
13
  62
1
 100
AcDbMText
  10
 3193.9747191011
  20
 5506.5589887640
  30
0.0
  40
 57.142857142858
  41
0.0
  71
5
  72
1
   1
\T1.000000;側　面　図
   7
GMM001
  44
 0.79999984000003
   0
CIRCLE
   5
2FC
 100
AcDbEntity
   8
LEVEL001
 370
13
 100
AcDbCircle
   6
CONTINUOUS
  62
7
  10
 2843.9746852991
  20
 1274.0589887641
  30
0.0
  40
 7.5000000000000
   0
LINE
   5
2FD
 100
AcDbEntity
   8
LEVEL001
 370
13
 100
AcDbLine
   6
DASHDOT
  62
6
  10
 2813.9746852991
  20
 1274.0589887641
  30
0.0
  11
 2873.9746852991
  21
 1274.0589887641
  31
0.0
   0
LINE
   5
2FE
 100
AcDbEntity
   8
LEVEL001
 370
13
 100
AcDbLine
   6
DASHDOT
  62
6
  10
 2783.9747010155
  20
 1174.0589887641
  30
0.0
  11
 2903.9747010155
  21
 1174.0589887641
  31
0.0
   0
LINE
   5
2FF
 100
AcDbEntity
   8
LEVEL001
 370
13
 100
AcDbLine
   6
CONTINUOUS
  62
7
  10
 2805.8247191011
  20
 1181.5589887641
  30
0.0
  11
 2733.9747010155
  21
 1181.5589887641
  31
0.0
   0
LINE
   5
300
 100
AcDbEntity
   8
LEVEL001
 370
13
 100
AcDbLine
   6
CONTINUOUS
  62
7
  10
 2733.9747010155
  20
 1181.5589887641
  30
0.0
  11
 2733.9747010155
  21
 1166.5589887641
  31
0.0
   0
LINE
   5
301
 100
AcDbEntity
   8
LEVEL001
 370
13
 100
AcDbLine
   6
CONTINUOUS
  62
7
  10
 2733.9747010155
  20
 1166.5589887641
  30
0.0
  11
 2805.8247191011
  21
 1166.5589887641
  31
0.0
   0
LINE
   5
302
 100
AcDbEntity
   8
LEVEL001
 370
13
 100
AcDbLine
   6
CONTINUOUS
  62
7
  10
 2882.1247191011
  20
 1181.5589887641
  30
0.0
  11
 2953.9747010155
  21
 1181.5589887641
  31
0.0
   0
LINE
   5
303
 100
AcDbEntity
   8
LEVEL001
 370
13
 100
AcDbLine
   6
CONTINUOUS
  62
7
  10
 2953.9747010155
  20
 1181.5589887641
  30
0.0
  11
 2953.9747010155
  21
 1166.5589887641
  31
0.0
   0
LINE
   5
304
 100
AcDbEntity
   8
LEVEL001
 370
13
 100
AcDbLine
   6
CONTINUOUS
  62
7
  10
 2953.9747010155
  20
 1166.5589887641
  30
0.0
  11
 2882.1247191011
  21
 1166.5589887641
  31
0.0
   0
CIRCLE
   5
305
 100
AcDbEntity
   8
LEVEL001
 370
13
 100
AcDbCircle
   6
CONTINUOUS
  62
1
  10
 2468.9747191011
  20
 1024.0589887641
  30
0.0
  40
 70.000000000000
   0
LINE
   5
306
 100
AcDbEntity
   8
LEVEL001
 370
13
 100
AcDbLine
   6
DOT
  62
1
  10
 2882.1247191011
  20
 1166.5589887641
  30
0.0
  11
 2805.8247191011
  21
 1166.5589887641
  31
0.0
   0
LINE
   5
307
 100
AcDbEntity
   8
LEVEL001
 370
13
 100
AcDbLine
   6
DOT
  62
1
  10
 2805.8247191011
  20
 1181.5589887641
  30
0.0
  11
 2882.1247191011
  21
 1181.5589887641
  31
0.0
   0
MTEXT
   5
308
 100
AcDbEntity
   8
LEVEL001
 370
13
  62
1
 100
AcDbMText
  10
 2468.9747191011
  20
 1024.0589887641
  30
0.0
  40
 57.142857142858
  41
0.0
  71
5
  72
1
   1
\T1.000000;12
   7
GMM001
  44
 0.79999984000003
   0
LEADER
   5
309
 100
AcDbEntity
   8
LEVEL001
 370
13
   6
CONTINUOUS
  62
1
 100
AcDbLeader
   3
GMM002
  73
3
  74
1
  75
0
  40
 60.000000000000
  41
0.0
  76
2
  10
 2733.9747010155
  20
 1166.5589887641
  30
0.0
  10
 2530.6263612411
  20
 1057.2112891585
  30
0.0
  77
1
   0
MTEXT
   5
30B
 100
AcDbEntity
   8
LEVEL001
 370
13
  62
1
 100
AcDbMText
  10
 2464.6233243105
  20
 1882.7889258043
  30
0.0
  40
 40.000000000000
  41
0.0
  71
7
  72
1
   1
\T1.000000;ＧＬ
   7
GMM003
  44
 0.79999984000003
   0
LINE
   5
30C
 100
AcDbEntity
   8
LEVEL001
 370
13
 100
AcDbLine
   6
CONTINUOUS
  62
1
  10
 2436.4746538657
  20
 1874.0589887641
  30
0.0
  11
 2411.4746538657
  21
 1924.0589887641
  31
0.0
   0
LINE
   5
30D
 100
AcDbEntity
   8
LEVEL001
 370
13
 100
AcDbLine
   6
CONTINUOUS
  62
1
  10
 2411.4746538657
  20
 1924.0589887641
  30
0.0
  11
 2461.4746538657
  21
 1924.0589887641
  31
0.0
   0
LINE
   5
30E
 100
AcDbEntity
   8
LEVEL001
 370
13
 100
AcDbLine
   6
CONTINUOUS
  62
1
  10
 2461.4746538657
  20
 1924.0589887641
  30
0.0
  11
 2436.4746538657
  21
 1874.0589887641
  31
0.0
   0
LEADER
   5
30F
 100
AcDbEntity
   8
LEVEL001
 370
13
   6
CONTINUOUS
  62
1
 100
AcDbLeader
   3
GMM002
  73
3
  74
1
  75
0
  40
 60.000000000000
  41
0.0
  76
2
  10
 2691.2251472725
  20
 4506.5589887640
  30
0.0
  10
 2353.8059923929
  20
 4292.8937991284
  30
0.0
  77
1
   0
LEADER
   5
310
 100
AcDbEntity
   8
LEVEL001
 370
13
   6
CONTINUOUS
  62
1
 100
AcDbLeader
   3
GMM002
  73
3
  74
1
  75
0
  40
 60.000000000000
  41
0.0
  76
2
  10
 2652.6659055229
  20
 5018.0589887640
  30
0.0
  10
 2359.0973337067
  20
 5130.8871213824
  30
0.0
  77
1
   0
LINE
   5
311
 100
AcDbEntity
   8
LEVEL001
 370
13
 100
AcDbLine
   6
CONTINUOUS
  62
5
  10
 1154.8846216777
  20
 1821.5589887641
  30
0.0
  11
 1207.3846216777
  21
 1874.0589887641
  31
0.0
   0
LINE
   5
312
 100
AcDbEntity
   8
LEVEL001
 370
13
 100
AcDbLine
   6
CONTINUOUS
  62
5
  10
 1138.9747191008
  20
 1837.4688913408
  30
0.0
  11
 1175.5648165240
  21
 1874.0589887641
  31
0.0
   0
LINE
   5
313
 100
AcDbEntity
   8
LEVEL001
 370
13
 100
AcDbLine
   6
CONTINUOUS
  62
5
  10
 1191.4747191016
  20
 1874.0589887641
  30
0.0
  11
 1146.9296703896
  21
 1829.5139400520
  31
0.0
   0
LINE
   5
314
 100
AcDbEntity
   8
LEVEL001
 370
13
 100
AcDbLine
   6
CONTINUOUS
  62
5
  10
 1212.1549139482
  20
 1821.5589887641
  30
0.0
  11
 1183.5197678129
  21
 1850.1941348993
  31
0.0
   0
LINE
   5
315
 100
AcDbEntity
   8
LEVEL001
 370
13
 100
AcDbLine
   6
CONTINUOUS
  62
5
  10
 1191.4747191012
  20
 1858.1490861876
  30
0.0
  11
 1228.0648165247
  21
 1821.5589887641
  31
0.0
   0
LINE
   5
316
 100
AcDbEntity
   8
LEVEL001
 370
13
 100
AcDbLine
   6
CONTINUOUS
  62
5
  10
 1243.9747191011
  20
 1821.5589887641
  30
0.0
  11
 1199.4296703894
  21
 1866.1040374758
  31
0.0
   0
LINE
   5
317
 100
AcDbEntity
   8
LEVEL001
 370
13
 100
AcDbLine
   6
CONTINUOUS
  62
5
  10
 1054.6549139478
  20
 1874.0589887641
  30
0.0
  11
 1002.1549139478
  21
 1821.5589887641
  31
0.0
   0
LINE
   5
318
 100
AcDbEntity
   8
LEVEL001
 370
13
 100
AcDbLine
   6
CONTINUOUS
  62
5
  10
 1018.0648165238
  20
 1821.5589887641
  30
0.0
  11
 1070.5648165238
  21
 1874.0589887641
  31
0.0
   0
LINE
   5
319
 100
AcDbEntity
   8
LEVEL001
 370
13
 100
AcDbLine
   6
CONTINUOUS
  62
5
  10
 1086.4747191015
  20
 1874.0589887641
  30
0.0
  11
 1033.9747191015
  21
 1821.5589887641
  31
0.0
   0
LINE
   5
31A
 100
AcDbEntity
   8
LEVEL001
 370
13
 100
AcDbLine
   6
CONTINUOUS
  62
5
  10
 1049.8846216775
  20
 1821.5589887641
  30
0.0
  11
 1102.3846216775
  21
 1874.0589887641
  31
0.0
   0
LINE
   5
31B
 100
AcDbEntity
   8
LEVEL001
 370
13
 100
AcDbLine
   6
CONTINUOUS
  62
5
  10
 1107.1549139481
  20
 1821.5589887641
  30
0.0
  11
 1078.5197678128
  21
 1850.1941348993
  31
0.0
   0
LINE
   5
31C
 100
AcDbEntity
   8
LEVEL001
 370
13
 100
AcDbLine
   6
CONTINUOUS
  62
5
  10
 1086.4747191010
  20
 1858.1490861876
  30
0.0
  11
 1123.0648165245
  21
 1821.5589887641
  31
0.0
   0
LINE
   5
31D
 100
AcDbEntity
   8
LEVEL001
 370
13
 100
AcDbLine
   6
CONTINUOUS
  62
5
  10
 1138.9747191009
  20
 1821.5589887641
  30
0.0
  11
 1094.4296703892
  21
 1866.1040374758
  31
0.0
   0
LINE
   5
31E
 100
AcDbEntity
   8
LEVEL001
 370
13
 100
AcDbLine
   6
CONTINUOUS
  62
5
  10
 1102.3846216775
  20
 1874.0589887641
  30
0.0
  11
 1154.8846216777
  21
 1821.5589887641
  31
0.0
   0
LINE
   5
31F
 100
AcDbEntity
   8
LEVEL001
 370
13
 100
AcDbLine
   6
CONTINUOUS
  62
5
  10
 1159.6549139480
  20
 1874.0589887641
  30
0.0
  11
 1131.0197678128
  21
 1845.4238426289
  31
0.0
   0
LINE
   5
320
 100
AcDbEntity
   8
LEVEL001
 370
13
 100
AcDbLine
   6
CONTINUOUS
  62
5
  10
 1207.3846216777
  20
 1874.0589887641
  30
0.0
  11
 1243.9747191011
  21
 1837.4688913407
  31
0.0
   0
LINE
   5
321
 100
AcDbEntity
   8
LEVEL001
 370
13
 100
AcDbLine
   6
CONTINUOUS
  62
5
  10
 1243.9747191011
  20
 1874.0589887641
  30
0.0
  11
 1243.9747191011
  21
 874.05898876406
  31
0.0
   0
LINE
   5
322
 100
AcDbEntity
   8
LEVEL001
 370
13
 100
AcDbLine
   6
CONTINUOUS
  62
5
  10
 1455.8247191011
  20
 1874.0589887641
  30
0.0
  11
 993.97471910111
  21
 1874.0589887641
  31
0.0
   0
LINE
   5
323
 100
AcDbEntity
   8
LEVEL001
 370
13
 100
AcDbLine
   6
CONTINUOUS
  62
5
  10
 1243.9747191011
  20
 1062.2089887641
  30
0.0
  11
 1455.8247191011
  21
 1274.0589887641
  31
0.0
   0
LINE
   5
324
 100
AcDbEntity
   8
LEVEL001
 370
13
 100
AcDbLine
   6
CONTINUOUS
  62
5
  10
 1455.8247191011
  20
 1238.7036497047
  30
0.0
  11
 1243.9747191011
  21
 1026.8536497047
  31
0.0
   0
LINE
   5
325
 100
AcDbEntity
   8
LEVEL001
 370
13
 100
AcDbLine
   6
CONTINUOUS
  62
5
  10
 1455.8247191011
  20
 1309.4143278234
  30
0.0
  11
 1243.9747191011
  21
 1097.5643278234
  31
0.0
   0
LINE
   5
326
 100
AcDbEntity
   8
LEVEL001
 370
13
 100
AcDbLine
   6
CONTINUOUS
  62
5
  10
 1743.9747191011
  20
 874.05898876406
  30
0.0
  11
 1693.9747191011
  21
 774.05898876406
  31
0.0
   0
LINE
   5
327
 100
AcDbEntity
   8
LEVEL001
 370
13
 100
AcDbLine
   6
CONTINUOUS
  62
5
  10
 1693.9747191011
  20
 874.05898876406
  30
0.0
  11
 1733.9747191011
  21
 854.05898876406
  31
0.0
   0
LINE
   5
328
 100
AcDbEntity
   8
LEVEL001
 370
13
 100
AcDbLine
   6
CONTINUOUS
  62
5
  10
 1693.9747191011
  20
 874.05898876406
  30
0.0
  11
 1643.9747191011
  21
 774.05898876406
  31
0.0
   0
LINE
   5
329
 100
AcDbEntity
   8
LEVEL001
 370
13
 100
AcDbLine
   6
CONTINUOUS
  62
5
  10
 1643.9747191011
  20
 874.05898876406
  30
0.0
  11
 1683.9747191011
  21
 854.05898876406
  31
0.0
   0
LINE
   5
32A
 100
AcDbEntity
   8
LEVEL001
 370
13
 100
AcDbLine
   6
CONTINUOUS
  62
5
  10
 1643.9747191011
  20
 874.05898876406
  30
0.0
  11
 1593.9747191011
  21
 774.05898876406
  31
0.0
   0
LINE
   5
32B
 100
AcDbEntity
   8
LEVEL001
 370
13
 100
AcDbLine
   6
CONTINUOUS
  62
5
  10
 1593.9747191011
  20
 874.05898876406
  30
0.0
  11
 1633.9747191011
  21
 854.05898876406
  31
0.0
   0
LINE
   5
32C
 100
AcDbEntity
   8
LEVEL001
 370
13
 100
AcDbLine
   6
CONTINUOUS
  62
5
  10
 1743.9747191011
  20
 774.05898876406
  30
0.0
  11
 1703.9747191011
  21
 794.05898876406
  31
0.0
   0
LINE
   5
32D
 100
AcDbEntity
   8
LEVEL001
 370
13
 100
AcDbLine
   6
CONTINUOUS
  62
5
  10
 1693.9747191011
  20
 774.05898876406
  30
0.0
  11
 1653.9747191011
  21
 794.05898876406
  31
0.0
   0
LINE
   5
32E
 100
AcDbEntity
   8
LEVEL001
 370
13
 100
AcDbLine
   6
CONTINUOUS
  62
5
  10
 1643.9747191011
  20
 774.05898876406
  30
0.0
  11
 1603.9747191011
  21
 794.05898876406
  31
0.0
   0
LINE
   5
32F
 100
AcDbEntity
   8
LEVEL001
 370
13
 100
AcDbLine
   6
CONTINUOUS
  62
5
  10
 1743.9747191011
  20
 874.05898876406
  30
0.0
  11
 1243.9747191011
  21
 874.05898876406
  31
0.0
   0
LINE
   5
330
 100
AcDbEntity
   8
LEVEL001
 370
13
 100
AcDbLine
   6
CONTINUOUS
  62
5
  10
 1243.9747191011
  20
 774.05898876406
  30
0.0
  11
 1743.9747191011
  21
 774.05898876406
  31
0.0
   0
LINE
   5
331
 100
AcDbEntity
   8
LEVEL001
 370
13
 100
AcDbLine
   6
CONTINUOUS
  62
5
  10
 1743.9747191011
  20
 774.05898876406
  30
0.0
  11
 1743.9747191011
  21
 874.05898876406
  31
0.0
   0
LINE
   5
332
 100
AcDbEntity
   8
LEVEL001
 370
13
 100
AcDbLine
   6
CONTINUOUS
  62
5
  10
 1804.6549139478
  20
 1874.0589887641
  30
0.0
  11
 1752.1549139478
  21
 1821.5589887641
  31
0.0
   0
LINE
   5
333
 100
AcDbEntity
   8
LEVEL001
 370
13
 100
AcDbLine
   6
CONTINUOUS
  62
5
  10
 1768.0648165238
  20
 1821.5589887641
  30
0.0
  11
 1820.5648165238
  21
 1874.0589887641
  31
0.0
   0
LINE
   5
334
 100
AcDbEntity
   8
LEVEL001
 370
13
 100
AcDbLine
   6
CONTINUOUS
  62
5
  10
 1836.4747191015
  20
 1874.0589887641
  30
0.0
  11
 1783.9747191015
  21
 1821.5589887641
  31
0.0
   0
LINE
   5
335
 100
AcDbEntity
   8
LEVEL001
 370
13
 100
AcDbLine
   6
CONTINUOUS
  62
5
  10
 1799.8846216775
  20
 1821.5589887641
  30
0.0
  11
 1852.3846216775
  21
 1874.0589887641
  31
0.0
   0
LINE
   5
336
 100
AcDbEntity
   8
LEVEL001
 370
13
 100
AcDbLine
   6
CONTINUOUS
  62
5
  10
 1857.1549139481
  20
 1821.5589887641
  30
0.0
  11
 1828.5197678128
  21
 1850.1941348993
  31
0.0
   0
LINE
   5
337
 100
AcDbEntity
   8
LEVEL001
 370
13
 100
AcDbLine
   6
CONTINUOUS
  62
5
  10
 1836.4747191010
  20
 1858.1490861876
  30
0.0
  11
 1873.0648165245
  21
 1821.5589887641
  31
0.0
   0
LINE
   5
338
 100
AcDbEntity
   8
LEVEL001
 370
13
 100
AcDbLine
   6
CONTINUOUS
  62
5
  10
 1888.9747191009
  20
 1821.5589887641
  30
0.0
  11
 1844.4296703892
  21
 1866.1040374758
  31
0.0
   0
LINE
   5
339
 100
AcDbEntity
   8
LEVEL001
 370
13
 100
AcDbLine
   6
CONTINUOUS
  62
5
  10
 1852.3846216775
  20
 1874.0589887641
  30
0.0
  11
 1904.8846216777
  21
 1821.5589887641
  31
0.0
   0
LINE
   5
33A
 100
AcDbEntity
   8
LEVEL001
 370
13
 100
AcDbLine
   6
CONTINUOUS
  62
5
  10
 1904.8846216777
  20
 1821.5589887641
  30
0.0
  11
 1957.3846216777
  21
 1874.0589887641
  31
0.0
   0
LINE
   5
33B
 100
AcDbEntity
   8
LEVEL001
 370
13
 100
AcDbLine
   6
CONTINUOUS
  62
5
  10
 1909.6549139480
  20
 1874.0589887641
  30
0.0
  11
 1881.0197678128
  21
 1845.4238426289
  31
0.0
   0
LINE
   5
33C
 100
AcDbEntity
   8
LEVEL001
 370
13
 100
AcDbLine
   6
CONTINUOUS
  62
5
  10
 1888.9747191008
  20
 1837.4688913408
  30
0.0
  11
 1925.5648165241
  21
 1874.0589887641
  31
0.0
   0
LINE
   5
33D
 100
AcDbEntity
   8
LEVEL001
 370
13
 100
AcDbLine
   6
CONTINUOUS
  62
5
  10
 1941.4747191017
  20
 1874.0589887641
  30
0.0
  11
 1896.9296703896
  21
 1829.5139400520
  31
0.0
   0
LINE
   5
33E
 100
AcDbEntity
   8
LEVEL001
 370
13
 100
AcDbLine
   6
CONTINUOUS
  62
5
  10
 1962.1549139483
  20
 1821.5589887641
  30
0.0
  11
 1933.5197678129
  21
 1850.1941348993
  31
0.0
   0
LINE
   5
33F
 100
AcDbEntity
   8
LEVEL001
 370
13
 100
AcDbLine
   6
CONTINUOUS
  62
5
  10
 1941.4747191011
  20
 1858.1490861876
  30
0.0
  11
 1978.0648165247
  21
 1821.5589887641
  31
0.0
   0
LINE
   5
340
 100
AcDbEntity
   8
LEVEL001
 370
13
 100
AcDbLine
   6
CONTINUOUS
  62
5
  10
 1993.9747191011
  20
 1821.5589887641
  30
0.0
  11
 1949.4296703893
  21
 1866.1040374758
  31
0.0
   0
LINE
   5
341
 100
AcDbEntity
   8
LEVEL001
 370
13
 100
AcDbLine
   6
CONTINUOUS
  62
5
  10
 1957.3846216777
  20
 1874.0589887641
  30
0.0
  11
 1993.9747191011
  21
 1837.4688913407
  31
0.0
   0
LINE
   5
342
 100
AcDbEntity
   8
LEVEL001
 370
13
 100
AcDbLine
   6
CONTINUOUS
  62
5
  10
 1243.9747191011
  20
 874.05898876406
  30
0.0
  11
 1743.9747191011
  21
 874.05898876406
  31
0.0
   0
LINE
   5
343
 100
AcDbEntity
   8
LEVEL001
 370
13
 100
AcDbLine
   6
CONTINUOUS
  62
5
  10
 1743.9747191011
  20
 874.05898876406
  30
0.0
  11
 1743.9747191011
  21
 1874.0589887641
  31
0.0
   0
LINE
   5
344
 100
AcDbEntity
   8
LEVEL001
 370
13
 100
AcDbLine
   6
CONTINUOUS
  62
5
  10
 1532.1247191011
  20
 1874.0589887641
  30
0.0
  11
 1993.9747191011
  21
 1874.0589887641
  31
0.0
   0
LINE
   5
345
 100
AcDbEntity
   8
LEVEL001
 370
13
 100
AcDbLine
   6
CONTINUOUS
  62
5
  10
 1743.9747191011
  20
 1597.5643278234
  30
0.0
  11
 1532.1247191011
  21
 1385.7143278234
  31
0.0
   0
LINE
   5
346
 100
AcDbEntity
   8
LEVEL001
 370
13
 100
AcDbLine
   6
CONTINUOUS
  62
5
  10
 1532.1247191011
  20
 1350.3589887641
  30
0.0
  11
 1743.9747191011
  21
 1562.2089887641
  31
0.0
   0
LINE
   5
347
 100
AcDbEntity
   8
LEVEL001
 370
13
 100
AcDbLine
   6
CONTINUOUS
  62
5
  10
 1743.9747191011
  20
 1526.8536497047
  30
0.0
  11
 1532.1247191011
  21
 1315.0036497047
  31
0.0
   0
LINE
   5
348
 100
AcDbEntity
   8
LEVEL001
 370
13
 100
AcDbLine
   6
CONTINUOUS
  62
5
  10
 1393.9747191011
  20
 874.05898876406
  30
0.0
  11
 1343.9747191011
  21
 774.05898876406
  31
0.0
   0
LINE
   5
349
 100
AcDbEntity
   8
LEVEL001
 370
13
 100
AcDbLine
   6
CONTINUOUS
  62
5
  10
 1343.9747191011
  20
 874.05898876406
  30
0.0
  11
 1383.9747191011
  21
 854.05898876406
  31
0.0
   0
LINE
   5
34A
 100
AcDbEntity
   8
LEVEL001
 370
13
 100
AcDbLine
   6
CONTINUOUS
  62
5
  10
 1343.9747191011
  20
 874.05898876406
  30
0.0
  11
 1293.9747191011
  21
 774.05898876406
  31
0.0
   0
LINE
   5
34B
 100
AcDbEntity
   8
LEVEL001
 370
13
 100
AcDbLine
   6
CONTINUOUS
  62
5
  10
 1293.9747191011
  20
 874.05898876406
  30
0.0
  11
 1333.9747191011
  21
 854.05898876406
  31
0.0
   0
LINE
   5
34C
 100
AcDbEntity
   8
LEVEL001
 370
13
 100
AcDbLine
   6
CONTINUOUS
  62
5
  10
 1293.9747191011
  20
 874.05898876406
  30
0.0
  11
 1243.9747191011
  21
 774.05898876406
  31
0.0
   0
LINE
   5
34D
 100
AcDbEntity
   8
LEVEL001
 370
13
 100
AcDbLine
   6
CONTINUOUS
  62
5
  10
 1243.9747191011
  20
 874.05898876406
  30
0.0
  11
 1283.9747191011
  21
 854.05898876406
  31
0.0
   0
LINE
   5
34E
 100
AcDbEntity
   8
LEVEL001
 370
13
 100
AcDbLine
   6
CONTINUOUS
  62
5
  10
 1393.9747191011
  20
 774.05898876406
  30
0.0
  11
 1353.9747191011
  21
 794.05898876406
  31
0.0
   0
LINE
   5
34F
 100
AcDbEntity
   8
LEVEL001
 370
13
 100
AcDbLine
   6
CONTINUOUS
  62
5
  10
 1343.9747191011
  20
 774.05898876406
  30
0.0
  11
 1303.9747191011
  21
 794.05898876406
  31
0.0
   0
LINE
   5
350
 100
AcDbEntity
   8
LEVEL001
 370
13
 100
AcDbLine
   6
CONTINUOUS
  62
5
  10
 1293.9747191011
  20
 774.05898876406
  30
0.0
  11
 1253.9747191011
  21
 794.05898876406
  31
0.0
   0
LINE
   5
351
 100
AcDbEntity
   8
LEVEL001
 370
13
 100
AcDbLine
   6
CONTINUOUS
  62
5
  10
 1243.9747191011
  20
 874.05898876406
  30
0.0
  11
 1243.9747191011
  21
 774.05898876406
  31
0.0
   0
LINE
   5
352
 100
AcDbEntity
   8
LEVEL001
 370
13
 100
AcDbLine
   6
CONTINUOUS
  62
5
  10
 3093.9747191011
  20
 874.05898876406
  30
0.0
  11
 3043.9747191011
  21
 774.05898876406
  31
0.0
   0
LINE
   5
353
 100
AcDbEntity
   8
LEVEL001
 370
13
 100
AcDbLine
   6
CONTINUOUS
  62
5
  10
 3043.9747191011
  20
 874.05898876406
  30
0.0
  11
 3083.9747191011
  21
 854.05898876406
  31
0.0
   0
LINE
   5
354
 100
AcDbEntity
   8
LEVEL001
 370
13
 100
AcDbLine
   6
CONTINUOUS
  62
5
  10
 3043.9747191011
  20
 874.05898876406
  30
0.0
  11
 2993.9747191011
  21
 774.05898876406
  31
0.0
   0
LINE
   5
355
 100
AcDbEntity
   8
LEVEL001
 370
13
 100
AcDbLine
   6
CONTINUOUS
  62
5
  10
 2993.9747191011
  20
 874.05898876406
  30
0.0
  11
 3033.9747191011
  21
 854.05898876406
  31
0.0
   0
LINE
   5
356
 100
AcDbEntity
   8
LEVEL001
 370
13
 100
AcDbLine
   6
CONTINUOUS
  62
5
  10
 3093.9747191011
  20
 774.05898876406
  30
0.0
  11
 3053.9747191011
  21
 794.05898876406
  31
0.0
   0
LINE
   5
357
 100
AcDbEntity
   8
LEVEL001
 370
13
 100
AcDbLine
   6
CONTINUOUS
  62
5
  10
 3043.9747191011
  20
 774.05898876406
  30
0.0
  11
 3003.9747191011
  21
 794.05898876406
  31
0.0
   0
LINE
   5
358
 100
AcDbEntity
   8
LEVEL001
 370
13
 100
AcDbLine
   6
CONTINUOUS
  62
5
  10
 3093.9747191011
  20
 874.05898876406
  30
0.0
  11
 2593.9747191011
  21
 874.05898876406
  31
0.0
   0
LINE
   5
359
 100
AcDbEntity
   8
LEVEL001
 370
13
 100
AcDbLine
   6
CONTINUOUS
  62
5
  10
 2593.9747191011
  20
 774.05898876406
  30
0.0
  11
 3093.9747191011
  21
 774.05898876406
  31
0.0
   0
LINE
   5
35A
 100
AcDbEntity
   8
LEVEL001
 370
13
 100
AcDbLine
   6
CONTINUOUS
  62
5
  10
 3093.9747191011
  20
 774.05898876406
  30
0.0
  11
 3093.9747191011
  21
 874.05898876406
  31
0.0
   0
LINE
   5
35B
 100
AcDbEntity
   8
LEVEL001
 370
13
 100
AcDbLine
   6
CONTINUOUS
  62
5
  10
 3154.6549139477
  20
 1874.0589887641
  30
0.0
  11
 3102.1549139477
  21
 1821.5589887641
  31
0.0
   0
LINE
   5
35C
 100
AcDbEntity
   8
LEVEL001
 370
13
 100
AcDbLine
   6
CONTINUOUS
  62
5
  10
 3118.0648165239
  20
 1821.5589887641
  30
0.0
  11
 3170.5648165239
  21
 1874.0589887641
  31
0.0
   0
LINE
   5
35D
 100
AcDbEntity
   8
LEVEL001
 370
13
 100
AcDbLine
   6
CONTINUOUS
  62
5
  10
 3186.4747191015
  20
 1874.0589887641
  30
0.0
  11
 3133.9747191015
  21
 1821.5589887641
  31
0.0
   0
LINE
   5
35E
 100
AcDbEntity
   8
LEVEL001
 370
13
 100
AcDbLine
   6
CONTINUOUS
  62
5
  10
 3149.8846216775
  20
 1821.5589887641
  30
0.0
  11
 3202.3846216775
  21
 1874.0589887641
  31
0.0
   0
LINE
   5
35F
 100
AcDbEntity
   8
LEVEL001
 370
13
 100
AcDbLine
   6
CONTINUOUS
  62
5
  10
 3207.1549139481
  20
 1821.5589887641
  30
0.0
  11
 3178.5197678127
  21
 1850.1941348993
  31
0.0
   0
LINE
   5
360
 100
AcDbEntity
   8
LEVEL001
 370
13
 100
AcDbLine
   6
CONTINUOUS
  62
5
  10
 3186.4747191009
  20
 1858.1490861876
  30
0.0
  11
 3223.0648165245
  21
 1821.5589887641
  31
0.0
   0
LINE
   5
361
 100
AcDbEntity
   8
LEVEL001
 370
13
 100
AcDbLine
   6
CONTINUOUS
  62
5
  10
 3238.9747191009
  20
 1821.5589887641
  30
0.0
  11
 3194.4296703891
  21
 1866.1040374758
  31
0.0
   0
LINE
   5
362
 100
AcDbEntity
   8
LEVEL001
 370
13
 100
AcDbLine
   6
CONTINUOUS
  62
5
  10
 3202.3846216775
  20
 1874.0589887641
  30
0.0
  11
 3254.8846216777
  21
 1821.5589887641
  31
0.0
   0
LINE
   5
363
 100
AcDbEntity
   8
LEVEL001
 370
13
 100
AcDbLine
   6
CONTINUOUS
  62
5
  10
 3254.8846216777
  20
 1821.5589887641
  30
0.0
  11
 3307.3846216777
  21
 1874.0589887641
  31
0.0
   0
LINE
   5
364
 100
AcDbEntity
   8
LEVEL001
 370
13
 100
AcDbLine
   6
CONTINUOUS
  62
5
  10
 3259.6549139479
  20
 1874.0589887641
  30
0.0
  11
 3231.0197678127
  21
 1845.4238426289
  31
0.0
   0
LINE
   5
365
 100
AcDbEntity
   8
LEVEL001
 370
13
 100
AcDbLine
   6
CONTINUOUS
  62
5
  10
 3238.9747191009
  20
 1837.4688913408
  30
0.0
  11
 3275.5648165241
  21
 1874.0589887641
  31
0.0
   0
LINE
   5
366
 100
AcDbEntity
   8
LEVEL001
 370
13
 100
AcDbLine
   6
CONTINUOUS
  62
5
  10
 3291.4747191017
  20
 1874.0589887641
  30
0.0
  11
 3246.9296703897
  21
 1829.5139400520
  31
0.0
   0
LINE
   5
367
 100
AcDbEntity
   8
LEVEL001
 370
13
 100
AcDbLine
   6
CONTINUOUS
  62
5
  10
 3312.1549139483
  20
 1821.5589887641
  30
0.0
  11
 3283.5197678129
  21
 1850.1941348993
  31
0.0
   0
LINE
   5
368
 100
AcDbEntity
   8
LEVEL001
 370
13
 100
AcDbLine
   6
CONTINUOUS
  62
5
  10
 3291.4747191011
  20
 1858.1490861876
  30
0.0
  11
 3328.0648165247
  21
 1821.5589887641
  31
0.0
   0
LINE
   5
369
 100
AcDbEntity
   8
LEVEL001
 370
13
 100
AcDbLine
   6
CONTINUOUS
  62
5
  10
 3343.9747191011
  20
 1821.5589887641
  30
0.0
  11
 3299.4296703893
  21
 1866.1040374758
  31
0.0
   0
LINE
   5
36A
 100
AcDbEntity
   8
LEVEL001
 370
13
 100
AcDbLine
   6
CONTINUOUS
  62
5
  10
 3307.3846216777
  20
 1874.0589887641
  30
0.0
  11
 3343.9747191011
  21
 1837.4688913407
  31
0.0
   0
LINE
   5
36B
 100
AcDbEntity
   8
LEVEL001
 370
13
 100
AcDbLine
   6
CONTINUOUS
  62
5
  10
 2593.9747191011
  20
 874.05898876406
  30
0.0
  11
 3093.9747191011
  21
 874.05898876406
  31
0.0
   0
LINE
   5
36C
 100
AcDbEntity
   8
LEVEL001
 370
13
 100
AcDbLine
   6
CONTINUOUS
  62
5
  10
 3093.9747191011
  20
 874.05898876406
  30
0.0
  11
 3093.9747191011
  21
 1874.0589887641
  31
0.0
   0
LINE
   5
36D
 100
AcDbEntity
   8
LEVEL001
 370
13
 100
AcDbLine
   6
CONTINUOUS
  62
5
  10
 2882.1247191011
  20
 1874.0589887641
  30
0.0
  11
 3343.9747191011
  21
 1874.0589887641
  31
0.0
   0
LINE
   5
36E
 100
AcDbEntity
   8
LEVEL001
 370
13
 100
AcDbLine
   6
CONTINUOUS
  62
5
  10
 3093.9747191011
  20
 1597.5643278234
  30
0.0
  11
 2882.1247191011
  21
 1385.7143278234
  31
0.0
   0
LINE
   5
36F
 100
AcDbEntity
   8
LEVEL001
 370
13
 100
AcDbLine
   6
CONTINUOUS
  62
5
  10
 2882.1247191011
  20
 1350.3589887641
  30
0.0
  11
 3093.9747191011
  21
 1562.2089887641
  31
0.0
   0
LINE
   5
370
 100
AcDbEntity
   8
LEVEL001
 370
13
 100
AcDbLine
   6
CONTINUOUS
  62
5
  10
 3093.9747191011
  20
 1526.8536497047
  30
0.0
  11
 2882.1247191011
  21
 1315.0036497047
  31
0.0
   0
LINE
   5
371
 100
AcDbEntity
   8
LEVEL001
 370
13
 100
AcDbLine
   6
CONTINUOUS
  62
5
  10
 2993.9747191011
  20
 874.05898876406
  30
0.0
  11
 2943.9747191011
  21
 774.05898876406
  31
0.0
   0
LINE
   5
372
 100
AcDbEntity
   8
LEVEL001
 370
13
 100
AcDbLine
   6
CONTINUOUS
  62
5
  10
 2943.9747191011
  20
 874.05898876406
  30
0.0
  11
 2983.9747191011
  21
 854.05898876406
  31
0.0
   0
LINE
   5
373
 100
AcDbEntity
   8
LEVEL001
 370
13
 100
AcDbLine
   6
CONTINUOUS
  62
5
  10
 2993.9747191011
  20
 774.05898876406
  30
0.0
  11
 2953.9747191011
  21
 794.05898876406
  31
0.0
   0
LINE
   5
374
 100
AcDbEntity
   8
LEVEL001
 370
13
 100
AcDbLine
   6
CONTINUOUS
  62
5
  10
 2743.9747191011
  20
 874.05898876406
  30
0.0
  11
 2693.9747191011
  21
 774.05898876406
  31
0.0
   0
LINE
   5
375
 100
AcDbEntity
   8
LEVEL001
 370
13
 100
AcDbLine
   6
CONTINUOUS
  62
5
  10
 2693.9747191011
  20
 874.05898876406
  30
0.0
  11
 2733.9747191011
  21
 854.05898876406
  31
0.0
   0
LINE
   5
376
 100
AcDbEntity
   8
LEVEL001
 370
13
 100
AcDbLine
   6
CONTINUOUS
  62
5
  10
 2693.9747191011
  20
 874.05898876406
  30
0.0
  11
 2643.9747191011
  21
 774.05898876406
  31
0.0
   0
LINE
   5
377
 100
AcDbEntity
   8
LEVEL001
 370
13
 100
AcDbLine
   6
CONTINUOUS
  62
5
  10
 2643.9747191011
  20
 874.05898876406
  30
0.0
  11
 2683.9747191011
  21
 854.05898876406
  31
0.0
   0
LINE
   5
378
 100
AcDbEntity
   8
LEVEL001
 370
13
 100
AcDbLine
   6
CONTINUOUS
  62
5
  10
 2643.9747191011
  20
 874.05898876406
  30
0.0
  11
 2593.9747191011
  21
 774.05898876406
  31
0.0
   0
LINE
   5
379
 100
AcDbEntity
   8
LEVEL001
 370
13
 100
AcDbLine
   6
CONTINUOUS
  62
5
  10
 2593.9747191011
  20
 874.05898876406
  30
0.0
  11
 2633.9747191011
  21
 854.05898876406
  31
0.0
   0
LINE
   5
37A
 100
AcDbEntity
   8
LEVEL001
 370
13
 100
AcDbLine
   6
CONTINUOUS
  62
5
  10
 2743.9747191011
  20
 774.05898876406
  30
0.0
  11
 2703.9747191011
  21
 794.05898876406
  31
0.0
   0
LINE
   5
37B
 100
AcDbEntity
   8
LEVEL001
 370
13
 100
AcDbLine
   6
CONTINUOUS
  62
5
  10
 2693.9747191011
  20
 774.05898876406
  30
0.0
  11
 2653.9747191011
  21
 794.05898876406
  31
0.0
   0
LINE
   5
37C
 100
AcDbEntity
   8
LEVEL001
 370
13
 100
AcDbLine
   6
CONTINUOUS
  62
5
  10
 2643.9747191011
  20
 774.05898876406
  30
0.0
  11
 2603.9747191011
  21
 794.05898876406
  31
0.0
   0
LINE
   5
37D
 100
AcDbEntity
   8
LEVEL001
 370
13
 100
AcDbLine
   6
CONTINUOUS
  62
5
  10
 2593.9747191011
  20
 874.05898876406
  30
0.0
  11
 2593.9747191011
  21
 774.05898876406
  31
0.0
   0
LINE
   5
37E
 100
AcDbEntity
   8
LEVEL001
 370
13
 100
AcDbLine
   6
CONTINUOUS
  62
5
  10
 2593.9747191011
  20
 1874.0589887641
  30
0.0
  11
 2593.9747191011
  21
 874.05898876406
  31
0.0
   0
LINE
   5
37F
 100
AcDbEntity
   8
LEVEL001
 370
13
 100
AcDbLine
   6
CONTINUOUS
  62
5
  10
 2593.9747191011
  20
 1062.2089887641
  30
0.0
  11
 2805.8247191011
  21
 1274.0589887641
  31
0.0
   0
LINE
   5
380
 100
AcDbEntity
   8
LEVEL001
 370
13
 100
AcDbLine
   6
CONTINUOUS
  62
5
  10
 2805.8247191011
  20
 1238.7036497047
  30
0.0
  11
 2593.9747191011
  21
 1026.8536497047
  31
0.0
   0
LINE
   5
381
 100
AcDbEntity
   8
LEVEL001
 370
13
 100
AcDbLine
   6
CONTINUOUS
  62
5
  10
 2805.8247191011
  20
 1309.4143278234
  30
0.0
  11
 2593.9747191011
  21
 1097.5643278234
  31
0.0
   0
LINE
   5
382
 100
AcDbEntity
   8
LEVEL001
 370
13
 100
AcDbLine
   6
CONTINUOUS
  62
5
  10
 2504.8846216777
  20
 1821.5589887641
  30
0.0
  11
 2557.3846216777
  21
 1874.0589887641
  31
0.0
   0
LINE
   5
383
 100
AcDbEntity
   8
LEVEL001
 370
13
 100
AcDbLine
   6
CONTINUOUS
  62
5
  10
 2488.9747191009
  20
 1837.4688913408
  30
0.0
  11
 2525.5648165241
  21
 1874.0589887641
  31
0.0
   0
LINE
   5
384
 100
AcDbEntity
   8
LEVEL001
 370
13
 100
AcDbLine
   6
CONTINUOUS
  62
5
  10
 2541.4747191017
  20
 1874.0589887641
  30
0.0
  11
 2496.9296703897
  21
 1829.5139400520
  31
0.0
   0
LINE
   5
385
 100
AcDbEntity
   8
LEVEL001
 370
13
 100
AcDbLine
   6
CONTINUOUS
  62
5
  10
 2562.1549139483
  20
 1821.5589887641
  30
0.0
  11
 2533.5197678129
  21
 1850.1941348993
  31
0.0
   0
LINE
   5
386
 100
AcDbEntity
   8
LEVEL001
 370
13
 100
AcDbLine
   6
CONTINUOUS
  62
5
  10
 2541.4747191011
  20
 1858.1490861876
  30
0.0
  11
 2578.0648165247
  21
 1821.5589887641
  31
0.0
   0
LINE
   5
387
 100
AcDbEntity
   8
LEVEL001
 370
13
 100
AcDbLine
   6
CONTINUOUS
  62
5
  10
 2593.9747191011
  20
 1821.5589887641
  30
0.0
  11
 2549.4296703893
  21
 1866.1040374758
  31
0.0
   0
LINE
   5
388
 100
AcDbEntity
   8
LEVEL001
 370
13
 100
AcDbLine
   6
CONTINUOUS
  62
5
  10
 2404.6549139477
  20
 1874.0589887641
  30
0.0
  11
 2352.1549139477
  21
 1821.5589887641
  31
0.0
   0
LINE
   5
389
 100
AcDbEntity
   8
LEVEL001
 370
13
 100
AcDbLine
   6
CONTINUOUS
  62
5
  10
 2368.0648165239
  20
 1821.5589887641
  30
0.0
  11
 2420.5648165239
  21
 1874.0589887641
  31
0.0
   0
LINE
   5
38A
 100
AcDbEntity
   8
LEVEL001
 370
13
 100
AcDbLine
   6
CONTINUOUS
  62
5
  10
 2436.4747191015
  20
 1874.0589887641
  30
0.0
  11
 2383.9747191015
  21
 1821.5589887641
  31
0.0
   0
LINE
   5
38B
 100
AcDbEntity
   8
LEVEL001
 370
13
 100
AcDbLine
   6
CONTINUOUS
  62
5
  10
 2399.8846216775
  20
 1821.5589887641
  30
0.0
  11
 2452.3846216775
  21
 1874.0589887641
  31
0.0
   0
LINE
   5
38C
 100
AcDbEntity
   8
LEVEL001
 370
13
 100
AcDbLine
   6
CONTINUOUS
  62
5
  10
 2457.1549139481
  20
 1821.5589887641
  30
0.0
  11
 2428.5197678127
  21
 1850.1941348993
  31
0.0
   0
LINE
   5
38D
 100
AcDbEntity
   8
LEVEL001
 370
13
 100
AcDbLine
   6
CONTINUOUS
  62
5
  10
 2436.4747191009
  20
 1858.1490861876
  30
0.0
  11
 2473.0648165245
  21
 1821.5589887641
  31
0.0
   0
LINE
   5
38E
 100
AcDbEntity
   8
LEVEL001
 370
13
 100
AcDbLine
   6
CONTINUOUS
  62
5
  10
 2488.9747191009
  20
 1821.5589887641
  30
0.0
  11
 2444.4296703891
  21
 1866.1040374758
  31
0.0
   0
LINE
   5
38F
 100
AcDbEntity
   8
LEVEL001
 370
13
 100
AcDbLine
   6
CONTINUOUS
  62
5
  10
 2452.3846216775
  20
 1874.0589887641
  30
0.0
  11
 2504.8846216777
  21
 1821.5589887641
  31
0.0
   0
LINE
   5
390
 100
AcDbEntity
   8
LEVEL001
 370
13
 100
AcDbLine
   6
CONTINUOUS
  62
5
  10
 2509.6549139479
  20
 1874.0589887641
  30
0.0
  11
 2481.0197678127
  21
 1845.4238426289
  31
0.0
   0
LINE
   5
391
 100
AcDbEntity
   8
LEVEL001
 370
13
 100
AcDbLine
   6
CONTINUOUS
  62
5
  10
 2557.3846216777
  20
 1874.0589887641
  30
0.0
  11
 2593.9747191011
  21
 1837.4688913407
  31
0.0
   0
LINE
   5
392
 100
AcDbEntity
   8
LEVEL001
 370
13
 100
AcDbLine
   6
CONTINUOUS
  62
5
  10
 2805.8247191011
  20
 1874.0589887641
  30
0.0
  11
 2343.9747191011
  21
 1874.0589887641
  31
0.0
   0
LINE
   5
393
 100
AcDbEntity
   8
LEVEL001
 370
13
 100
AcDbLine
   6
CONTINUOUS
  62
5
  10
 1493.9747190898
  20
 3545.5404848352
  30
0.0
  11
 1438.9747207289
  21
 3475.5404869214
  31
0.0
   0
LINE
   5
394
 100
AcDbEntity
   8
LEVEL001
 370
13
 100
AcDbLine
   6
CONTINUOUS
  62
5
  10
 1438.9747207289
  20
 3475.5404869214
  30
0.0
  11
 1468.9747198349
  21
 3475.5404869214
  31
0.0
   0
LINE
   5
395
 100
AcDbEntity
   8
LEVEL001
 370
13
 100
AcDbLine
   6
CONTINUOUS
  62
5
  10
 1468.9747198349
  20
 3475.5404869214
  30
0.0
  11
 1468.9747198349
  21
 3445.5404878154
  31
0.0
   0
LINE
   5
396
 100
AcDbEntity
   8
LEVEL001
 370
13
 100
AcDbLine
   6
CONTINUOUS
  62
5
  10
 1468.9747198349
  20
 3445.5404878154
  30
0.0
  11
 1518.9747183447
  21
 3445.5404878154
  31
0.0
   0
LINE
   5
397
 100
AcDbEntity
   8
LEVEL001
 370
13
 100
AcDbLine
   6
CONTINUOUS
  62
5
  10
 1518.9747183447
  20
 3445.5404878154
  30
0.0
  11
 1518.9747183447
  21
 3475.5404869214
  31
0.0
   0
LINE
   5
398
 100
AcDbEntity
   8
LEVEL001
 370
13
 100
AcDbLine
   6
CONTINUOUS
  62
5
  10
 1518.9747183447
  20
 3475.5404869214
  30
0.0
  11
 1548.9747174506
  21
 3475.5404869214
  31
0.0
   0
LINE
   5
399
 100
AcDbEntity
   8
LEVEL001
 370
13
 100
AcDbLine
   6
CONTINUOUS
  62
5
  10
 1548.9747174506
  20
 3475.5404869214
  30
0.0
  11
 1493.9747190898
  21
 3545.5404848352
  31
0.0
   0
LINE
   5
39A
 100
AcDbEntity
   8
LEVEL001
 370
13
 100
AcDbLine
   6
CONTINUOUS
  62
5
  10
 1424.3317768294
  20
 3379.5315786498
  30
0.0
  11
 1439.6009414134
  21
 3377.2769400452
  31
0.0
   0
ARC
   5
39B
 100
AcDbEntity
   8
LEVEL001
 370
13
   6
CONTINUOUS
  62
5
 100
AcDbCircle
  10
 1438.2182295772
  20
 3356.7437340924
  30
0.0
  40
 20.579709393390
 100
AcDbArc
  50
 10.432218603622
  51
 86.147502468976
   0
ARC
   5
39C
 100
AcDbEntity
   8
LEVEL001
 370
13
   6
CONTINUOUS
  62
5
 100
AcDbCircle
  10
 1444.5738914818
  20
 3360.1680894064
  30
0.0
  40
 13.887146297480
 100
AcDbArc
  50
 284.73811645767
  51
 1.2463330418669
   0
LINE
   5
39D
 100
AcDbEntity
   8
LEVEL001
 370
13
 100
AcDbLine
   6
CONTINUOUS
  62
5
  10
 1448.1068005349
  20
 3346.7378479376
  30
0.0
  11
 1424.3317768294
  21
 3379.5315786498
  31
0.0
   0
ARC
   5
39E
 100
AcDbEntity
   8
LEVEL001
 370
13
   6
CONTINUOUS
  62
5
 100
AcDbCircle
  10
 1431.8789868161
  20
 3319.9265802060
  30
0.0
  40
 20.228108756896
 100
AcDbArc
  50
 1.0517504590713
  51
 78.795792274207
   0
ARC
   5
39F
 100
AcDbEntity
   8
LEVEL001
 370
13
   6
CONTINUOUS
  62
5
 100
AcDbCircle
  10
 1437.1354173216
  20
 3322.0763661058
  30
0.0
  40
 15.073557642890
 100
AcDbArc
  50
 288.65956808362
  51
 353.22403827745
   0
LINE
   5
3A0
 100
AcDbEntity
   8
LEVEL001
 370
13
 100
AcDbLine
   6
CONTINUOUS
  62
5
  10
 1426.6886493177
  20
 3293.7553666066
  30
0.0
  11
 1433.6573380749
  21
 3254.9151883206
  31
0.0
   0
LINE
   5
3A1
 100
AcDbEntity
   8
LEVEL001
 370
13
 100
AcDbLine
   6
CONTINUOUS
  62
5
  10
 1454.2560923438
  20
 3258.9119228208
  30
0.0
  11
 1451.0789073799
  21
 3276.0261801232
  31
0.0
   0
LINE
   5
3A2
 100
AcDbEntity
   8
LEVEL001
 370
13
 100
AcDbLine
   6
CONTINUOUS
  62
5
  10
 1451.0789073799
  20
 3276.0261801232
  30
0.0
  11
 1463.3765754704
  21
 3335.4649600900
  31
0.0
   0
LINE
   5
3A3
 100
AcDbEntity
   8
LEVEL001
 370
13
 100
AcDbLine
   6
CONTINUOUS
  62
5
  10
 1463.3765754704
  20
 3335.4649600900
  30
0.0
  11
 1440.5234877726
  21
 3285.5569720754
  31
0.0
   0
LINE
   5
3A4
 100
AcDbEntity
   8
LEVEL001
 370
13
 100
AcDbLine
   6
CONTINUOUS
  62
5
  10
 1440.5234877726
  20
 3285.5569720754
  30
0.0
  11
 1426.6886493177
  21
 3293.7553666066
  31
0.0
   0
ARC
   5
3A5
 100
AcDbEntity
   8
LEVEL001
 370
13
   6
CONTINUOUS
  62
5
 100
AcDbCircle
  10
 1548.7357580553
  20
 3314.1734884202
  30
0.0
  40
 5.0631766002424
 100
AcDbArc
  50
 274.72626205406
  51
 43.105625043015
   0
ARC
   5
3A6
 100
AcDbEntity
   8
LEVEL001
 370
13
   6
CONTINUOUS
  62
5
 100
AcDbCircle
  10
 1552.3753917627
  20
 3357.3224448834
  30
0.0
  40
 5.5826340442110
 100
AcDbArc
  50
 274.79665758011
  51
 36.910963374394
   0
LINE
   5
3A7
 100
AcDbEntity
   8
LEVEL001
 370
13
 100
AcDbLine
   6
CONTINUOUS
  62
5
  10
 1552.4323589492
  20
 3317.6333871352
  30
0.0
  11
 1536.0352647113
  21
 3330.6483708782
  31
0.0
   0
LINE
   5
3A8
 100
AcDbEntity
   8
LEVEL001
 370
13
 100
AcDbLine
   6
CONTINUOUS
  62
5
  10
 1536.0352647113
  20
 3330.6483708782
  30
0.0
  11
 1528.4516467732
  21
 3321.2201179852
  31
0.0
   0
LINE
   5
3A9
 100
AcDbEntity
   8
LEVEL001
 370
13
 100
AcDbLine
   6
CONTINUOUS
  62
5
  10
 1528.4516467732
  20
 3321.2201179852
  30
0.0
  11
 1515.6415885612
  21
 3321.2201179852
  31
0.0
   0
LINE
   5
3AA
 100
AcDbEntity
   8
LEVEL001
 370
13
 100
AcDbLine
   6
CONTINUOUS
  62
5
  10
 1515.6415885612
  20
 3321.2201179852
  30
0.0
  11
 1515.6415885612
  21
 3351.7593626806
  31
0.0
   0
LINE
   5
3AB
 100
AcDbEntity
   8
LEVEL001
 370
13
 100
AcDbLine
   6
CONTINUOUS
  62
5
  10
 1515.6415885612
  20
 3351.7593626806
  30
0.0
  11
 1552.8422100112
  21
 3351.7593626806
  31
0.0
   0
LINE
   5
3AC
 100
AcDbEntity
   8
LEVEL001
 370
13
 100
AcDbLine
   6
CONTINUOUS
  62
5
  10
 1556.8390970991
  20
 3360.6752254520
  30
0.0
  11
 1543.0039534684
  21
 3372.7678154236
  31
0.0
   0
LINE
   5
3AD
 100
AcDbEntity
   8
LEVEL001
 370
13
 100
AcDbLine
   6
CONTINUOUS
  62
5
  10
 1543.0039534684
  20
 3372.7678154236
  30
0.0
  11
 1531.1164416157
  21
 3362.7247859378
  31
0.0
   0
LINE
   5
3AE
 100
AcDbEntity
   8
LEVEL001
 370
13
 100
AcDbLine
   6
CONTINUOUS
  62
5
  10
 1531.1164416157
  20
 3362.7247859378
  30
0.0
  11
 1515.6415885612
  21
 3362.7247859378
  31
0.0
   0
LINE
   5
3AF
 100
AcDbEntity
   8
LEVEL001
 370
13
 100
AcDbLine
   6
CONTINUOUS
  62
5
  10
 1515.6415885612
  20
 3362.7247859378
  30
0.0
  11
 1515.6415885612
  21
 3378.1993338164
  31
0.0
   0
LINE
   5
3B0
 100
AcDbEntity
   8
LEVEL001
 370
13
 100
AcDbLine
   6
CONTINUOUS
  62
5
  10
 1515.6415885612
  20
 3378.1993338164
  30
0.0
  11
 1519.2286245872
  21
 3380.0439687712
  31
0.0
   0
LINE
   5
3B1
 100
AcDbEntity
   8
LEVEL001
 370
13
 100
AcDbLine
   6
CONTINUOUS
  62
5
  10
 1519.2286245872
  20
 3380.0439687712
  30
0.0
  11
 1519.5359365897
  21
 3382.7084584380
  31
0.0
   0
LINE
   5
3B2
 100
AcDbEntity
   8
LEVEL001
 370
13
 100
AcDbLine
   6
CONTINUOUS
  62
5
  10
 1519.5359365897
  20
 3382.7084584380
  30
0.0
  11
 1490.6364013182
  21
 3387.2175830594
  31
0.0
   0
LINE
   5
3B3
 100
AcDbEntity
   8
LEVEL001
 370
13
 100
AcDbLine
   6
CONTINUOUS
  62
5
  10
 1490.6364013182
  20
 3387.2175830594
  30
0.0
  11
 1490.6364013182
  21
 3362.7247859378
  31
0.0
   0
LINE
   5
3B4
 100
AcDbEntity
   8
LEVEL001
 370
13
 100
AcDbLine
   6
CONTINUOUS
  62
5
  10
 1490.6364013182
  20
 3362.7247859378
  30
0.0
  11
 1461.2244759252
  21
 3362.7247859378
  31
0.0
   0
LINE
   5
3B5
 100
AcDbEntity
   8
LEVEL001
 370
13
 100
AcDbLine
   6
CONTINUOUS
  62
5
  10
 1461.2244759252
  20
 3362.7247859378
  30
0.0
  11
 1465.6312140751
  21
 3351.7593626806
  31
0.0
   0
LINE
   5
3B6
 100
AcDbEntity
   8
LEVEL001
 370
13
 100
AcDbLine
   6
CONTINUOUS
  62
5
  10
 1465.6312140751
  20
 3351.7593626806
  30
0.0
  11
 1490.6364013182
  21
 3351.7593626806
  31
0.0
   0
LINE
   5
3B7
 100
AcDbEntity
   8
LEVEL001
 370
13
 100
AcDbLine
   6
CONTINUOUS
  62
5
  10
 1490.6364013182
  20
 3351.7593626806
  30
0.0
  11
 1490.6364013182
  21
 3321.2201179852
  31
0.0
   0
LINE
   5
3B8
 100
AcDbEntity
   8
LEVEL001
 370
13
 100
AcDbLine
   6
CONTINUOUS
  62
5
  10
 1490.6364013182
  20
 3321.2201179852
  30
0.0
  11
 1462.8641853490
  21
 3321.2201179852
  31
0.0
   0
LINE
   5
3B9
 100
AcDbEntity
   8
LEVEL001
 370
13
 100
AcDbLine
   6
CONTINUOUS
  62
5
  10
 1462.8641853490
  20
 3321.2201179852
  30
0.0
  11
 1467.7833136203
  21
 3309.1275280136
  31
0.0
   0
LINE
   5
3BA
 100
AcDbEntity
   8
LEVEL001
 370
13
 100
AcDbLine
   6
CONTINUOUS
  62
5
  10
 1467.7833136203
  20
 3309.1275280136
  30
0.0
  11
 1490.6364013182
  21
 3309.1275280136
  31
0.0
   0
LINE
   5
3BB
 100
AcDbEntity
   8
LEVEL001
 370
13
 100
AcDbLine
   6
CONTINUOUS
  62
5
  10
 1490.6364013182
  20
 3309.1275280136
  30
0.0
  11
 1490.6364013182
  21
 3264.2410547421
  31
0.0
   0
LINE
   5
3BC
 100
AcDbEntity
   8
LEVEL001
 370
13
 100
AcDbLine
   6
CONTINUOUS
  62
5
  10
 1490.6364013182
  20
 3264.2410547421
  30
0.0
  11
 1458.1501351965
  21
 3264.2410547421
  31
0.0
   0
LINE
   5
3BD
 100
AcDbEntity
   8
LEVEL001
 370
13
 100
AcDbLine
   6
CONTINUOUS
  62
5
  10
 1458.1501351965
  20
 3264.2410547421
  30
0.0
  11
 1463.5816535893
  21
 3252.1481595946
  31
0.0
   0
LINE
   5
3BE
 100
AcDbEntity
   8
LEVEL001
 370
13
 100
AcDbLine
   6
CONTINUOUS
  62
5
  10
 1463.5816535893
  20
 3252.1481595946
  30
0.0
  11
 1553.9594585130
  21
 3252.1481595946
  31
0.0
   0
LINE
   5
3BF
 100
AcDbEntity
   8
LEVEL001
 370
13
 100
AcDbLine
   6
CONTINUOUS
  62
5
  10
 1557.4140482538
  20
 3263.6709863996
  30
0.0
  11
 1542.0817122850
  21
 3273.7716941064
  31
0.0
   0
LINE
   5
3C0
 100
AcDbEntity
   8
LEVEL001
 370
13
 100
AcDbLine
   6
CONTINUOUS
  62
5
  10
 1542.0817122850
  20
 3273.7716941064
  30
0.0
  11
 1534.1907823444
  21
 3264.2410547421
  31
0.0
   0
LINE
   5
3C1
 100
AcDbEntity
   8
LEVEL001
 370
13
 100
AcDbLine
   6
CONTINUOUS
  62
5
  10
 1534.1907823444
  20
 3264.2410547421
  30
0.0
  11
 1515.6415885612
  21
 3264.2410547421
  31
0.0
   0
LINE
   5
3C2
 100
AcDbEntity
   8
LEVEL001
 370
13
 100
AcDbLine
   6
CONTINUOUS
  62
5
  10
 1515.6415885612
  20
 3264.2410547421
  30
0.0
  11
 1515.6415885612
  21
 3309.1275280136
  31
0.0
   0
LINE
   5
3C3
 100
AcDbEntity
   8
LEVEL001
 370
13
 100
AcDbLine
   6
CONTINUOUS
  62
5
  10
 1515.6415885612
  20
 3309.1275280136
  30
0.0
  11
 1549.1529401016
  21
 3309.1275280136
  31
0.0
   0
LINE
   5
3C4
 100
AcDbEntity
   8
LEVEL001
 370
13
 100
AcDbLine
   6
CONTINUOUS
  62
5
  10
 1420.9023294019
  20
 3342.0983081382
  30
0.0
  11
 1435.8094376201
  21
 3339.7691591806
  31
0.0
   0
LINE
   5
3C5
 100
AcDbEntity
   8
LEVEL001
 370
13
 100
AcDbLine
   6
CONTINUOUS
  62
5
  10
 1441.9581190775
  20
 3307.7951305924
  30
0.0
  11
 1420.9023294019
  21
 3340.0487254124
  31
0.0
   0
ARC
   5
3C6
 100
AcDbEntity
   8
LEVEL001
 370
13
   6
CONTINUOUS
  62
5
 100
AcDbCircle
  10
 1443.6397553965
  20
 3258.5471335072
  30
0.0
  40
 10.622602384609
 100
AcDbArc
  50
 199.99311911328
  51
 1.9679733411498
   0
ARC
   5
3C7
 100
AcDbEntity
   8
LEVEL001
 370
13
   6
CONTINUOUS
  62
5
 100
AcDbCircle
  10
 1553.9599378130
  20
 3258.4272792384
  30
0.0
  40
 6.2791196620726
 100
AcDbArc
  50
 269.99562647869
  51
 56.626490037890
   0
ARC
   5
3C8
 100
AcDbEntity
   8
LEVEL001
 370
13
   6
CONTINUOUS
  62
5
 100
AcDbCircle
  10
 1557.7323841650
  20
 3151.9587616020
  30
0.0
  40
 4.7515310421130
 100
AcDbArc
  50
 274.70409570338
  51
 59.112293256314
   0
ARC
   5
3C9
 100
AcDbEntity
   8
LEVEL001
 370
13
   6
CONTINUOUS
  62
5
 100
AcDbCircle
  10
 1464.5730609674
  20
 3151.6017029510
  30
0.0
  40
 22.293228438698
 100
AcDbArc
  50
 35.161132790323
  51
 78.641284698064
   0
ARC
   5
3CA
 100
AcDbEntity
   8
LEVEL001
 370
13
   6
CONTINUOUS
  62
5
 100
AcDbCircle
  10
 1476.4531019627
  20
 3162.6584148862
  30
0.0
  40
 6.5907971086860
 100
AcDbArc
  50
 312.23536417690
  51
 15.681870099155
   0
LINE
   5
3CB
 100
AcDbEntity
   8
LEVEL001
 370
13
 100
AcDbLine
   6
CONTINUOUS
  62
5
  10
 1480.8832888159
  20
 3157.7786555710
  30
0.0
  11
 1499.8102902049
  21
 3157.7786555710
  31
0.0
   0
LINE
   5
3CC
 100
AcDbEntity
   8
LEVEL001
 370
13
 100
AcDbLine
   6
CONTINUOUS
  62
5
  10
 1499.8102902049
  20
 3157.7786555710
  30
0.0
  11
 1510.2634759286
  21
 3173.4582815686
  31
0.0
   0
LINE
   5
3CD
 100
AcDbEntity
   8
LEVEL001
 370
13
 100
AcDbLine
   6
CONTINUOUS
  62
5
  10
 1510.2634759286
  20
 3173.4582815686
  30
0.0
  11
 1468.9637335071
  21
 3173.4582815686
  31
0.0
   0
ARC
   5
3CE
 100
AcDbEntity
   8
LEVEL001
 370
13
   6
CONTINUOUS
  62
5
 100
AcDbCircle
  10
 1548.2911867957
  20
 3178.6144551934
  30
0.0
  40
 5.1561789168066
 100
AcDbArc
  50
 269.91791191264
  51
 52.070025543440
   0
LINE
   5
3CF
 100
AcDbEntity
   8
LEVEL001
 370
13
 100
AcDbLine
   6
CONTINUOUS
  62
5
  10
 1560.1716165310
  20
 3156.0364070878
  30
0.0
  11
 1542.2376571046
  21
 3166.4895928114
  31
0.0
   0
LINE
   5
3D0
 100
AcDbEntity
   8
LEVEL001
 370
13
 100
AcDbLine
   6
CONTINUOUS
  62
5
  10
 1542.2376571046
  20
 3166.4895928114
  30
0.0
  11
 1535.6788194094
  21
 3157.7786555710
  31
0.0
   0
LINE
   5
3D1
 100
AcDbEntity
   8
LEVEL001
 370
13
 100
AcDbLine
   6
CONTINUOUS
  62
5
  10
 1535.6788194094
  20
 3157.7786555710
  30
0.0
  11
 1519.9299185116
  21
 3157.7786555710
  31
0.0
   0
LINE
   5
3D2
 100
AcDbEntity
   8
LEVEL001
 370
13
 100
AcDbLine
   6
CONTINUOUS
  62
5
  10
 1519.9299185116
  20
 3157.7786555710
  30
0.0
  11
 1529.0174426548
  21
 3165.9772026900
  31
0.0
   0
LINE
   5
3D3
 100
AcDbEntity
   8
LEVEL001
 370
13
 100
AcDbLine
   6
CONTINUOUS
  62
5
  10
 1529.0174426548
  20
 3165.9772026900
  30
0.0
  11
 1532.8092516238
  21
 3166.4895928114
  31
0.0
   0
LINE
   5
3D4
 100
AcDbEntity
   8
LEVEL001
 370
13
 100
AcDbLine
   6
CONTINUOUS
  62
5
  10
 1532.8092516238
  20
 3166.4895928114
  30
0.0
  11
 1534.4489610476
  21
 3168.8464652998
  31
0.0
   0
LINE
   5
3D5
 100
AcDbEntity
   8
LEVEL001
 370
13
 100
AcDbLine
   6
CONTINUOUS
  62
5
  10
 1534.4489610476
  20
 3168.8464652998
  30
0.0
  11
 1531.7844713809
  21
 3173.4582815686
  31
0.0
   0
LINE
   5
3D6
 100
AcDbEntity
   8
LEVEL001
 370
13
 100
AcDbLine
   6
CONTINUOUS
  62
5
  10
 1531.7844713809
  20
 3173.4582815686
  30
0.0
  11
 1548.2837995025
  21
 3173.4582815686
  31
0.0
   0
LINE
   5
3D7
 100
AcDbEntity
   8
LEVEL001
 370
13
 100
AcDbLine
   6
CONTINUOUS
  62
5
  10
 1551.4606792906
  20
 3182.6814563426
  30
0.0
  11
 1532.8092516238
  21
 3192.9294113594
  31
0.0
   0
LINE
   5
3D8
 100
AcDbEntity
   8
LEVEL001
 370
13
 100
AcDbLine
   6
CONTINUOUS
  62
5
  10
 1532.8092516238
  20
 3192.9294113594
  30
0.0
  11
 1526.6602649907
  21
 3183.3987719950
  31
0.0
   0
LINE
   5
3D9
 100
AcDbEntity
   8
LEVEL001
 370
13
 100
AcDbLine
   6
CONTINUOUS
  62
5
  10
 1526.6602649907
  20
 3183.3987719950
  30
0.0
  11
 1505.2418085977
  21
 3183.3987719950
  31
0.0
   0
LINE
   5
3DA
 100
AcDbEntity
   8
LEVEL001
 370
13
 100
AcDbLine
   6
CONTINUOUS
  62
5
  10
 1505.2418085977
  20
 3183.3987719950
  30
0.0
  11
 1505.2418085977
  21
 3189.7525315712
  31
0.0
   0
LINE
   5
3DB
 100
AcDbEntity
   8
LEVEL001
 370
13
 100
AcDbLine
   6
CONTINUOUS
  62
5
  10
 1505.2418085977
  20
 3189.7525315712
  30
0.0
  11
 1507.3664423235
  21
 3193.4504989904
  31
0.0
   0
LINE
   5
3DC
 100
AcDbEntity
   8
LEVEL001
 370
13
 100
AcDbLine
   6
CONTINUOUS
  62
5
  10
 1507.3664423235
  20
 3193.4504989904
  30
0.0
  11
 1506.5464350237
  21
 3195.1925948858
  31
0.0
   0
LINE
   5
3DD
 100
AcDbEntity
   8
LEVEL001
 370
13
 100
AcDbLine
   6
CONTINUOUS
  62
5
  10
 1506.5464350237
  20
 3195.1925948858
  30
0.0
  11
 1481.7737917190
  21
 3195.7989791450
  31
0.0
   0
LINE
   5
3DE
 100
AcDbEntity
   8
LEVEL001
 370
13
 100
AcDbLine
   6
CONTINUOUS
  62
5
  10
 1481.7737917190
  20
 3195.7989791450
  30
0.0
  11
 1481.7737917190
  21
 3183.3987719950
  31
0.0
   0
LINE
   5
3DF
 100
AcDbEntity
   8
LEVEL001
 370
13
 100
AcDbLine
   6
CONTINUOUS
  62
5
  10
 1481.7737917190
  20
 3183.3987719950
  30
0.0
  11
 1432.3115129197
  21
 3183.3987719950
  31
0.0
   0
LINE
   5
3E0
 100
AcDbEntity
   8
LEVEL001
 370
13
 100
AcDbLine
   6
CONTINUOUS
  62
5
  10
 1432.3115129197
  20
 3183.3987719950
  30
0.0
  11
 1436.7847793879
  21
 3173.4582815686
  31
0.0
   0
LINE
   5
3E1
 100
AcDbEntity
   8
LEVEL001
 370
13
 100
AcDbLine
   6
CONTINUOUS
  62
5
  10
 1436.7847793879
  20
 3173.4582815686
  30
0.0
  11
 1454.4117319876
  21
 3173.4582815686
  31
0.0
   0
LINE
   5
3E2
 100
AcDbEntity
   8
LEVEL001
 370
13
 100
AcDbLine
   6
CONTINUOUS
  62
5
  10
 1454.4117319876
  20
 3173.4582815686
  30
0.0
  11
 1464.3522224140
  21
 3157.7786555710
  31
0.0
   0
LINE
   5
3E3
 100
AcDbEntity
   8
LEVEL001
 370
13
 100
AcDbLine
   6
CONTINUOUS
  62
5
  10
 1464.3522224140
  20
 3157.7786555710
  30
0.0
  11
 1429.6369524525
  21
 3157.7786555710
  31
0.0
   0
LINE
   5
3E4
 100
AcDbEntity
   8
LEVEL001
 370
13
 100
AcDbLine
   6
CONTINUOUS
  62
5
  10
 1429.6369524525
  20
 3157.7786555710
  30
0.0
  11
 1434.5374650018
  21
 3147.2232359638
  31
0.0
   0
LINE
   5
3E5
 100
AcDbEntity
   8
LEVEL001
 370
13
 100
AcDbLine
   6
CONTINUOUS
  62
5
  10
 1434.5374650018
  20
 3147.2232359638
  30
0.0
  11
 1558.1220560452
  21
 3147.2232359638
  31
0.0
   0
ARC
   5
3E6
 100
AcDbEntity
   8
LEVEL001
 370
13
   6
CONTINUOUS
  62
5
 100
AcDbCircle
  10
 1453.9114538554
  20
 3123.1927192430
  30
0.0
  40
 31.206602120202
 100
AcDbArc
  50
 246.86700487446
  51
 289.54634462667
   0
LINE
   5
3E7
 100
AcDbEntity
   8
LEVEL001
 370
13
 100
AcDbLine
   6
CONTINUOUS
  62
5
  10
 1464.3522224140
  20
 3123.1402899042
  30
0.0
  11
 1464.3522224140
  21
 3129.5964359520
  31
0.0
   0
LINE
   5
3E8
 100
AcDbEntity
   8
LEVEL001
 370
13
 100
AcDbLine
   6
CONTINUOUS
  62
5
  10
 1464.3522224140
  20
 3129.5964359520
  30
0.0
  11
 1520.9214345953
  21
 3129.5964359520
  31
0.0
   0
LINE
   5
3E9
 100
AcDbEntity
   8
LEVEL001
 370
13
 100
AcDbLine
   6
CONTINUOUS
  62
5
  10
 1520.9214345953
  20
 3129.5964359520
  30
0.0
  11
 1520.9214345953
  21
 3123.1402899042
  31
0.0
   0
LINE
   5
3EA
 100
AcDbEntity
   8
LEVEL001
 370
13
 100
AcDbLine
   6
CONTINUOUS
  62
5
  10
 1520.9214345953
  20
 3123.1402899042
  30
0.0
  11
 1464.3522224140
  21
 3123.1402899042
  31
0.0
   0
LINE
   5
3EB
 100
AcDbEntity
   8
LEVEL001
 370
13
 100
AcDbLine
   6
CONTINUOUS
  62
5
  10
 1547.4640973785
  20
 3136.5651247092
  30
0.0
  11
 1527.4802722905
  21
 3145.5835265400
  31
0.0
   0
LINE
   5
3EC
 100
AcDbEntity
   8
LEVEL001
 370
13
 100
AcDbLine
   6
CONTINUOUS
  62
5
  10
 1527.4802722905
  20
 3145.5835265400
  30
0.0
  11
 1520.9214345953
  21
 3137.8973695424
  31
0.0
   0
LINE
   5
3ED
 100
AcDbEntity
   8
LEVEL001
 370
13
 100
AcDbLine
   6
CONTINUOUS
  62
5
  10
 1520.9214345953
  20
 3137.8973695424
  30
0.0
  11
 1464.3522224140
  21
 3137.8973695424
  31
0.0
   0
LINE
   5
3EE
 100
AcDbEntity
   8
LEVEL001
 370
13
 100
AcDbLine
   6
CONTINUOUS
  62
5
  10
 1464.3522224140
  20
 3137.8973695424
  30
0.0
  11
 1464.3522224140
  21
 3139.6396180256
  31
0.0
   0
LINE
   5
3EF
 100
AcDbEntity
   8
LEVEL001
 370
13
 100
AcDbLine
   6
CONTINUOUS
  62
5
  10
 1464.3522224140
  20
 3139.6396180256
  30
0.0
  11
 1441.7042128351
  21
 3144.2511291188
  31
0.0
   0
LINE
   5
3F0
 100
AcDbEntity
   8
LEVEL001
 370
13
 100
AcDbLine
   6
CONTINUOUS
  62
5
  10
 1441.7042128351
  20
 3144.2511291188
  30
0.0
  11
 1441.6514174265
  21
 3094.4952712266
  31
0.0
   0
LINE
   5
3F1
 100
AcDbEntity
   8
LEVEL001
 370
13
 100
AcDbLine
   6
CONTINUOUS
  62
5
  10
 1464.3522224140
  20
 3107.1531993162
  30
0.0
  11
 1464.3522224140
  21
 3114.0158394924
  31
0.0
   0
LINE
   5
3F2
 100
AcDbEntity
   8
LEVEL001
 370
13
 100
AcDbLine
   6
CONTINUOUS
  62
5
  10
 1464.3522224140
  20
 3114.0158394924
  30
0.0
  11
 1520.9214345953
  21
 3114.0158394924
  31
0.0
   0
LINE
   5
3F3
 100
AcDbEntity
   8
LEVEL001
 370
13
 100
AcDbLine
   6
CONTINUOUS
  62
5
  10
 1520.9214345953
  20
 3114.0158394924
  30
0.0
  11
 1520.9214345953
  21
 3107.1531993162
  31
0.0
   0
LINE
   5
3F4
 100
AcDbEntity
   8
LEVEL001
 370
13
 100
AcDbLine
   6
CONTINUOUS
  62
5
  10
 1520.9214345953
  20
 3107.1531993162
  30
0.0
  11
 1464.3522224140
  21
 3107.1531993162
  31
0.0
   0
ARC
   5
3F5
 100
AcDbEntity
   8
LEVEL001
 370
13
   6
CONTINUOUS
  62
5
 100
AcDbCircle
  10
 1543.9651218539
  20
 3133.9530319042
  30
0.0
  40
 4.3664469013676
 100
AcDbArc
  50
 266.15058922041
  51
 36.742470507590
   0
LINE
   5
3F6
 100
AcDbEntity
   8
LEVEL001
 370
13
 100
AcDbLine
   6
CONTINUOUS
  62
5
  10
 1464.3522224140
  20
 3093.7845168532
  30
0.0
  11
 1464.3522224140
  21
 3098.5449537230
  31
0.0
   0
LINE
   5
3F7
 100
AcDbEntity
   8
LEVEL001
 370
13
 100
AcDbLine
   6
CONTINUOUS
  62
5
  10
 1464.3522224140
  20
 3098.5449537230
  30
0.0
  11
 1520.9214345953
  21
 3098.5449537230
  31
0.0
   0
LINE
   5
3F8
 100
AcDbEntity
   8
LEVEL001
 370
13
 100
AcDbLine
   6
CONTINUOUS
  62
5
  10
 1520.9214345953
  20
 3098.5449537230
  30
0.0
  11
 1520.9214345953
  21
 3093.6258254516
  31
0.0
   0
LINE
   5
3F9
 100
AcDbEntity
   8
LEVEL001
 370
13
 100
AcDbLine
   6
CONTINUOUS
  62
5
  10
 1520.9214345953
  20
 3093.6258254516
  30
0.0
  11
 1537.8309189547
  21
 3093.6258254516
  31
0.0
   0
LINE
   5
3FA
 100
AcDbEntity
   8
LEVEL001
 370
13
 100
AcDbLine
   6
CONTINUOUS
  62
5
  10
 1537.8309189547
  20
 3093.6258254516
  30
0.0
  11
 1541.5198836884
  21
 3095.6753859374
  31
0.0
   0
LINE
   5
3FB
 100
AcDbEntity
   8
LEVEL001
 370
13
 100
AcDbLine
   6
CONTINUOUS
  62
5
  10
 1541.5198836884
  20
 3095.6753859374
  30
0.0
  11
 1543.6719832337
  21
 3100.0821240874
  31
0.0
   0
LINE
   5
3FC
 100
AcDbEntity
   8
LEVEL001
 370
13
 100
AcDbLine
   6
CONTINUOUS
  62
5
  10
 1543.6719832337
  20
 3100.0821240874
  30
0.0
  11
 1543.6652693667
  21
 3129.5965885398
  31
0.0
   0
LINE
   5
3FD
 100
AcDbEntity
   8
LEVEL001
 370
13
 100
AcDbLine
   6
CONTINUOUS
  62
5
  10
 1447.8846325727
  20
 3088.1943070588
  30
0.0
  11
 1447.3722424513
  21
 3083.0704058444
  31
0.0
   0
LINE
   5
3FE
 100
AcDbEntity
   8
LEVEL001
 370
13
 100
AcDbLine
   6
CONTINUOUS
  62
5
  10
 1447.3722424513
  20
 3083.0704058444
  30
0.0
  11
 1445.4249158492
  21
 3079.4835224064
  31
0.0
   0
LINE
   5
3FF
 100
AcDbEntity
   8
LEVEL001
 370
13
 100
AcDbLine
   6
CONTINUOUS
  62
5
  10
 1445.4249158492
  20
 3079.4835224064
  30
0.0
  11
 1434.3571061204
  21
 3065.7510704230
  31
0.0
   0
ARC
   5
400
 100
AcDbEntity
   8
LEVEL001
 370
13
   6
CONTINUOUS
  62
5
 100
AcDbCircle
  10
 1442.8893686351
  20
 3060.1393169548
  30
0.0
  40
 10.212310248246
 100
AcDbArc
  50
 146.66668479802
  51
 331.70163256438
   0
ARC
   5
401
 100
AcDbEntity
   8
LEVEL001
 370
13
   6
CONTINUOUS
  62
5
 100
AcDbCircle
  10
 1428.9012844549
  20
 3069.1971038504
  30
0.0
  40
 26.856307183018
 100
AcDbArc
  50
 328.83298190806
  51
 45.020901175858
   0
LINE
   5
402
 100
AcDbEntity
   8
LEVEL001
 370
13
 100
AcDbLine
   6
CONTINUOUS
  62
5
  10
 1531.5088976587
  20
 3090.9613357850
  30
0.0
  11
 1544.9335798758
  21
 3068.6206382086
  31
0.0
   0
ARC
   5
403
 100
AcDbEntity
   8
LEVEL001
 370
13
   6
CONTINUOUS
  62
5
 100
AcDbCircle
  10
 1537.2402170132
  20
 3058.4449674876
  30
0.0
  40
 8.7884995702356
 100
AcDbArc
  50
 268.04310640385
  51
 95.976315924698
   0
ARC
   5
404
 100
AcDbEntity
   8
LEVEL001
 370
13
   6
CONTINUOUS
  62
5
 100
AcDbCircle
  10
 1470.0392760439
  20
 3056.2711845550
  30
0.0
  40
 6.6095999893666
 100
AcDbArc
  50
 179.99949488494
  51
 269.90651577931
   0
LINE
   5
405
 100
AcDbEntity
   8
LEVEL001
 370
13
 100
AcDbLine
   6
CONTINUOUS
  62
5
  10
 1470.0284917761
  20
 3049.6615933635
  30
0.0
  11
 1536.9401108757
  21
 3049.6615933635
  31
0.0
   0
LINE
   5
406
 100
AcDbEntity
   8
LEVEL001
 370
13
 100
AcDbLine
   6
CONTINUOUS
  62
5
  10
 1536.3251816948
  20
 3067.1857017280
  30
0.0
  11
 1528.9466418757
  21
 3085.6323564516
  31
0.0
   0
LINE
   5
407
 100
AcDbEntity
   8
LEVEL001
 370
13
 100
AcDbLine
   6
CONTINUOUS
  62
5
  10
 1528.9466418757
  20
 3085.6323564516
  30
0.0
  11
 1528.7415637568
  21
 3075.3842488468
  31
0.0
   0
LINE
   5
408
 100
AcDbEntity
   8
LEVEL001
 370
13
 100
AcDbLine
   6
CONTINUOUS
  62
5
  10
 1528.7415637568
  20
 3075.3842488468
  30
0.0
  11
 1526.0401478217
  21
 3067.1857017280
  31
0.0
   0
LINE
   5
409
 100
AcDbEntity
   8
LEVEL001
 370
13
 100
AcDbLine
   6
CONTINUOUS
  62
5
  10
 1526.0401478217
  20
 3067.1857017280
  30
0.0
  11
 1486.1805298690
  21
 3067.1857017280
  31
0.0
   0
LINE
   5
40A
 100
AcDbEntity
   8
LEVEL001
 370
13
 100
AcDbLine
   6
CONTINUOUS
  62
5
  10
 1486.1805298690
  20
 3067.1857017280
  30
0.0
  11
 1486.1805298690
  21
 3083.0704058444
  31
0.0
   0
LINE
   5
40B
 100
AcDbEntity
   8
LEVEL001
 370
13
 100
AcDbLine
   6
CONTINUOUS
  62
5
  10
 1486.1805298690
  20
 3083.0704058444
  30
0.0
  11
 1488.2300903547
  21
 3086.0422075136
  31
0.0
   0
LINE
   5
40C
 100
AcDbEntity
   8
LEVEL001
 370
13
 100
AcDbLine
   6
CONTINUOUS
  62
5
  10
 1488.2300903547
  20
 3086.0422075136
  30
0.0
  11
 1486.3856079878
  21
 3088.1943070588
  31
0.0
   0
LINE
   5
40D
 100
AcDbEntity
   8
LEVEL001
 370
13
 100
AcDbLine
   6
CONTINUOUS
  62
5
  10
 1486.3856079878
  20
 3088.1943070588
  30
0.0
  11
 1463.4296760548
  21
 3091.2686477876
  31
0.0
   0
LINE
   5
40E
 100
AcDbEntity
   8
LEVEL001
 370
13
 100
AcDbLine
   6
CONTINUOUS
  62
5
  10
 1463.4296760548
  20
 3091.2686477876
  30
0.0
  11
 1463.4296760548
  21
 3056.2712428248
  31
0.0
   0
LINE
   5
40F
 100
AcDbEntity
   8
LEVEL001
 370
13
 100
AcDbLine
   6
CONTINUOUS
  62
5
  10
 1506.2858149143
  20
 3071.4899008185
  30
0.0
  11
 1492.1436644568
  21
 3092.8059707398
  31
0.0
   0
ARC
   5
410
 100
AcDbEntity
   8
LEVEL001
 370
13
   6
CONTINUOUS
  62
5
 100
AcDbCircle
  10
 1511.1661658711
  20
 3079.2093856970
  30
0.0
  40
 9.1328129430768
 100
AcDbArc
  50
 237.69843463480
  51
 18.768732377737
   0
ARC
   5
411
 100
AcDbEntity
   8
LEVEL001
 370
13
   6
CONTINUOUS
  62
5
 100
AcDbCircle
  10
 1493.6308906066
  20
 3054.9061327318
  30
0.0
  40
 37.929006876678
 100
AcDbArc
  50
 46.131549416344
  51
 92.247188603533
   0
ARC
   5
412
 100
AcDbEntity
   8
LEVEL001
 370
13
   6
CONTINUOUS
  62
5
 100
AcDbCircle
  10
 1550.7261999131
  20
 3075.4288458664
  30
0.0
  40
 8.9390233475260
 100
AcDbArc
  50
 229.60790187551
  51
 6.7933956220481
   0
ARC
   5
413
 100
AcDbEntity
   8
LEVEL001
 370
13
   6
CONTINUOUS
  62
5
 100
AcDbCircle
  10
 1535.4174584072
  20
 3064.3975102770
  30
0.0
  40
 27.037970213950
 100
AcDbArc
  50
 26.557897354816
  51
 98.092162593092
   0
DIMENSION
   5
414
 100
AcDbEntity
   8
LEVEL001
 370
13
   6
CONTINUOUS
  62
1
 100
AcDbDimension
   2
*D15
  10
 1358.1124672552
  20
 4859.0589887643
  30
0.0
  11
 1093.9747191011
  21
 4706.5589887641
  31
0.0
  70
131
   1
\A1;%%c600
   3
GMM003
 100
AcDbDiametricDimension
  15
 829.83697094700
  25
 4554.0589887638
  35
0.0
   0
DIMENSION
   5
415
 100
AcDbEntity
   8
LEVEL001
 370
13
   6
CONTINUOUS
  62
1
 100
AcDbDimension
   2
*D16
  10
 2158.1124672553
  20
 4859.0589887643
  30
0.0
  11
 1893.9747191011
  21
 4706.5589887640
  31
0.0
  70
131
   1
\A1;%%c600
   3
GMM003
 100
AcDbDiametricDimension
  15
 1629.8369709470
  25
 4554.0589887638
  35
0.0
   0
DIMENSION
   5
416
 100
AcDbEntity
   8
0
 370
13
   6
CONTINUOUS
  62
1
 100
AcDbDimension
   2
*D17
  10
 743.97471910111
  20
 774.05898876406
  30
0.0
  11
 743.97471910111
  21
 824.05898876406
  31
0.0
  70
0
   3
GMM004
 100
AcDbAlignedDimension
  13
 1243.9747191011
  23
 874.05898876406
  33
0.0
  14
 1243.9747191011
  24
 774.05898876406
  34
0.0
  50
 270.00000000000
 100
AcDbRotatedDimension
   0
DIMENSION
   5
417
 100
AcDbEntity
   8
0
 370
13
   6
CONTINUOUS
  62
1
 100
AcDbDimension
   2
*D18
  10
 743.97471910111
  20
 1874.0589887641
  30
0.0
  11
 743.97471910111
  21
 1374.0589887641
  31
0.0
  70
0
   3
GMM004
 100
AcDbAlignedDimension
  13
 1243.9747191011
  23
 874.05898876406
  33
0.0
  14
 993.97471910111
  24
 1874.0589887641
  34
0.0
  50
 90.000000000000
 100
AcDbRotatedDimension
   0
DIMENSION
   5
418
 100
AcDbEntity
   8
0
 370
13
   6
CONTINUOUS
  62
1
 100
AcDbDimension
   2
*D19
  10
 743.97471910111
  20
 4374.0589887640
  30
0.0
  11
 743.97471910111
  21
 3124.0589887641
  31
0.0
  70
0
   1
\A1;2500(標準設置高さ)
   3
GMM005
 100
AcDbAlignedDimension
  13
 993.97471910111
  23
 1874.0589887641
  33
0.0
  14
 1093.9747191011
  24
 4374.0589887640
  34
0.0
  50
 90.000000000000
 100
AcDbRotatedDimension
   0
DIMENSION
   5
419
 100
AcDbEntity
   8
LEVEL001
 370
13
   6
CONTINUOUS
  62
1
 100
AcDbDimension
   2
*D20
  10
 1743.9747191011
  20
 574.05898876406
  30
0.0
  11
 1493.9747191011
  21
 574.05898876406
  31
0.0
  70
128
   1
\A1;□500
   3
GMM006
 100
AcDbAlignedDimension
  13
 1243.9747191011
  23
 774.05898876406
  33
0.0
  14
 1743.9747191011
  24
 774.05898876406
  34
0.0
 100
AcDbRotatedDimension
   0
DIMENSION
   5
41A
 100
AcDbEntity
   8
LEVEL001
 370
13
   6
CONTINUOUS
  62
1
 100
AcDbDimension
   2
*D21
  10
 3093.9747191011
  20
 574.05898876406
  30
0.0
  11
 2843.9747191011
  21
 574.05898876406
  31
0.0
  70
128
   1
\A1;□500
   3
GMM006
 100
AcDbAlignedDimension
  13
 2593.9747191011
  23
 774.05898876406
  33
0.0
  14
 3093.9747191011
  24
 774.05898876406
  34
0.0
 100
AcDbRotatedDimension
   0
DIMENSION
   5
41B
 100
AcDbEntity
   8
0
 370
13
   6
CONTINUOUS
  62
1
 100
AcDbDimension
   2
*D22
  10
 2843.9747191011
  20
 2674.0589887640
  30
0.0
  11
 3018.9747191011
  21
 2674.0589887640
  31
0.0
  70
0
   3
GMM007
 100
AcDbAlignedDimension
  13
 3193.9747191011
  23
 4074.0589887640
  33
0.0
  14
 2843.9747191011
  24
 3624.0589887640
  34
0.0
  50
 180.00000000000
 100
AcDbRotatedDimension
   0
LINE
   5
41C
 100
AcDbEntity
   8
LEVEL001
 370
13
 100
AcDbLine
   6
CONTINUOUS
  62
6
  10
 5453.9747191011
  20
 2586.5589887640
  30
0.0
  11
 8093.9747191011
  21
 2586.5589887640
  31
0.0
   0
MTEXT
   5
41D
 100
AcDbEntity
   8
LEVEL001
 370
13
  62
1
 100
AcDbMText
  10
 7333.9747191011
  20
 1686.5589887640
  30
0.0
  40
 51.428571428572
  41
0.0
  71
4
  72
1
   1
\T1.000000;静電粉体塗装
   7
GMM001
  44
 0.79999984000003
   0
MTEXT
   5
41E
 100
AcDbEntity
   8
LEVEL001
 370
13
  62
1
 100
AcDbMText
  10
 6773.9747191011
  20
 1686.5589887640
  30
0.0
  40
 51.428571428572
  41
0.0
  71
4
  72
1
   1
\T1.000000;ＳＴＫ４００
   7
GMM001
  44
 0.79999984000003
   0
MTEXT
   5
41F
 100
AcDbEntity
   8
LEVEL001
 370
13
  62
1
 100
AcDbMText
  10
 6705.9747191011
  20
 1686.5589887640
  30
0.0
  40
 51.428571428572
  41
0.0
  71
6
  72
1
   1
\T1.000000;１
   7
GMM001
  44
 0.79999984000003
   0
MTEXT
   5
420
 100
AcDbEntity
   8
LEVEL001
 370
13
  62
1
 100
AcDbMText
  10
 7333.9747191011
  20
 1806.5589887640
  30
0.0
  40
 51.428571428572
  41
0.0
  71
4
  72
1
   1
\T1.000000;溶融亜鉛メッキ
   7
GMM001
  44
 0.79999984000003
   0
MTEXT
   5
421
 100
AcDbEntity
   8
LEVEL001
 370
13
  62
1
 100
AcDbMText
  10
 6773.9747191011
  20
 1806.5589887640
  30
0.0
  40
 51.428571428572
  41
0.0
  71
4
  72
1
   1
\T1.000000;ＳＳ４００
   7
GMM001
  44
 0.79999984000003
   0
MTEXT
   5
422
 100
AcDbEntity
   8
LEVEL001
 370
13
  62
1
 100
AcDbMText
  10
 6705.9747191011
  20
 1806.5589887640
  30
0.0
  40
 51.428571428572
  41
0.0
  71
6
  72
1
   1
\T1.000000;４
   7
GMM001
  44
 0.79999984000003
   0
MTEXT
   5
423
 100
AcDbEntity
   8
LEVEL001
 370
13
  62
1
 100
AcDbMText
  10
 7333.9747191011
  20
 1926.5589887640
  30
0.0
  40
 51.428571428572
  41
0.0
  71
4
  72
1
   1
\T1.000000;溶融亜鉛メッキ
   7
GMM001
  44
 0.79999984000003
   0
MTEXT
   5
424
 100
AcDbEntity
   8
LEVEL001
 370
13
  62
1
 100
AcDbMText
  10
 7333.9747191011
  20
 2046.5589887640
  30
0.0
  40
 51.428571428572
  41
0.0
  71
4
  72
1
   1
\T1.000000;溶融亜鉛メッキ
   7
GMM001
  44
 0.79999984000003
   0
MTEXT
   5
425
 100
AcDbEntity
   8
LEVEL001
 370
13
  62
1
 100
AcDbMText
  10
 7333.9747191011
  20
 2166.5589887640
  30
0.0
  40
 51.428571428572
  41
0.0
  71
4
  72
1
   1
\T1.000000;溶融亜鉛メッキ
   7
GMM001
  44
 0.79999984000003
   0
MTEXT
   5
426
 100
AcDbEntity
   8
LEVEL001
 370
13
  62
1
 100
AcDbMText
  10
 6773.9747191011
  20
 1926.5589887640
  30
0.0
  40
 51.428571428572
  41
0.0
  71
4
  72
1
   1
\T1.000000;ＳＳ４００
   7
GMM001
  44
 0.79999984000003
   0
MTEXT
   5
427
 100
AcDbEntity
   8
LEVEL001
 370
13
  62
1
 100
AcDbMText
  10
 6773.9747191011
  20
 2046.5589887640
  30
0.0
  40
 51.428571428572
  41
0.0
  71
4
  72
1
   1
\T1.000000;ＳＳ４００
   7
GMM001
  44
 0.79999984000003
   0
MTEXT
   5
428
 100
AcDbEntity
   8
LEVEL001
 370
13
  62
1
 100
AcDbMText
  10
 6773.9747191011
  20
 2166.5589887640
  30
0.0
  40
 51.428571428572
  41
0.0
  71
4
  72
1
   1
\T1.000000;ＳＳ４００
   7
GMM001
  44
 0.79999984000003
   0
MTEXT
   5
429
 100
AcDbEntity
   8
LEVEL001
 370
13
  62
1
 100
AcDbMText
  10
 6705.9747191011
  20
 1926.5589887640
  30
0.0
  40
 51.428571428572
  41
0.0
  71
6
  72
1
   1
\T1.000000;１
   7
GMM001
  44
 0.79999984000003
   0
MTEXT
   5
42A
 100
AcDbEntity
   8
LEVEL001
 370
13
  62
1
 100
AcDbMText
  10
 6705.9747191011
  20
 2046.5589887640
  30
0.0
  40
 51.428571428572
  41
0.0
  71
6
  72
1
   1
\T1.000000;８
   7
GMM001
  44
 0.79999984000003
   0
MTEXT
   5
42B
 100
AcDbEntity
   8
LEVEL001
 370
13
  62
1
 100
AcDbMText
  10
 6705.9747191011
  20
 2166.5589887640
  30
0.0
  40
 51.428571428572
  41
0.0
  71
6
  72
1
   1
\T1.000000;８
   7
GMM001
  44
 0.79999984000003
   0
MTEXT
   5
42C
 100
AcDbEntity
   8
LEVEL001
 370
13
  62
1
 100
AcDbMText
  10
 5625.9747191011
  20
 1686.5589887640
  30
0.0
  40
 51.428571428572
  41
0.0
  71
6
  72
1
   1
\T1.000000;１１
   7
GMM001
  44
 0.79999984000003
   0
MTEXT
   5
42D
 100
AcDbEntity
   8
LEVEL001
 370
13
  62
1
 100
AcDbMText
  10
 5693.9747191011
  20
 1686.5589887640
  30
0.0
  40
 51.428571428572
  41
0.0
  71
4
  72
1
   1
\T1.000000;支柱
   7
GMM001
  44
 0.79999984000003
   0
MTEXT
   5
42E
 100
AcDbEntity
   8
LEVEL001
 370
13
  62
1
 100
AcDbMText
  10
 5693.9747191011
  20
 1806.5589887640
  30
0.0
  40
 51.428571428572
  41
0.0
  71
4
  72
1
   1
\T1.000000;同上ボルトナット
   7
GMM001
  44
 0.79999984000003
   0
MTEXT
   5
42F
 100
AcDbEntity
   8
LEVEL001
 370
13
  62
1
 100
AcDbMText
  10
 5625.9747191011
  20
 1806.5589887640
  30
0.0
  40
 51.428571428572
  41
0.0
  71
6
  72
1
   1
\T1.000000;１０
   7
GMM001
  44
 0.79999984000003
   0
MTEXT
   5
430
 100
AcDbEntity
   8
LEVEL001
 370
13
  62
1
 100
AcDbMText
  10
 5625.9747191011
  20
 1926.5589887640
  30
0.0
  40
 51.428571428572
  41
0.0
  71
6
  72
1
   1
\T1.000000;９
   7
GMM001
  44
 0.79999984000003
   0
MTEXT
   5
431
 100
AcDbEntity
   8
LEVEL001
 370
13
  62
1
 100
AcDbMText
  10
 5693.9747191011
  20
 1926.5589887640
  30
0.0
  40
 51.428571428572
  41
0.0
  71
4
  72
1
   1
\T1.000000;二面鏡用取付腕木
   7
GMM001
  44
 0.79999984000003
   0
MTEXT
   5
432
 100
AcDbEntity
   8
LEVEL001
 370
13
  62
1
 100
AcDbMText
  10
 5625.9747191011
  20
 2046.5589887640
  30
0.0
  40
 51.428571428572
  41
0.0
  71
6
  72
1
   1
\T1.000000;８
   7
GMM001
  44
 0.79999984000003
   0
MTEXT
   5
433
 100
AcDbEntity
   8
LEVEL001
 370
13
  62
1
 100
AcDbMText
  10
 5693.9747191011
  20
 2046.5589887640
  30
0.0
  40
 51.428571428572
  41
0.0
  71
4
  72
1
   1
\T1.000000;金具締付ボルトナット
   7
GMM001
  44
 0.79999984000003
   0
MTEXT
   5
434
 100
AcDbEntity
   8
LEVEL001
 370
13
  62
1
 100
AcDbMText
  10
 5625.9747191011
  20
 2166.5589887640
  30
0.0
  40
 51.428571428572
  41
0.0
  71
6
  72
1
   1
\T1.000000;７
   7
GMM001
  44
 0.79999984000003
   0
MTEXT
   5
435
 100
AcDbEntity
   8
LEVEL001
 370
13
  62
1
 100
AcDbMText
  10
 5693.9747191011
  20
 2166.5589887640
  30
0.0
  40
 51.428571428572
  41
0.0
  71
4
  72
1
   1
\T1.000000;裏板金具取付ボルト
   7
GMM001
  44
 0.79999984000003
   0
LINE
   5
436
 100
AcDbEntity
   8
LEVEL001
 370
13
 100
AcDbLine
   6
CONTINUOUS
  62
6
  10
 5453.9747191011
  20
 1746.5589887640
  30
0.0
  11
 8093.9747191011
  21
 1746.5589887640
  31
0.0
   0
LINE
   5
437
 100
AcDbEntity
   8
LEVEL001
 370
13
 100
AcDbLine
   6
CONTINUOUS
  62
6
  10
 5453.9747191011
  20
 1866.5589887640
  30
0.0
  11
 8093.9747191011
  21
 1866.5589887640
  31
0.0
   0
LINE
   5
438
 100
AcDbEntity
   8
LEVEL001
 370
13
 100
AcDbLine
   6
CONTINUOUS
  62
6
  10
 5453.9747191011
  20
 1986.5589887640
  30
0.0
  11
 8093.9747191011
  21
 1986.5589887640
  31
0.0
   0
LINE
   5
439
 100
AcDbEntity
   8
LEVEL001
 370
13
 100
AcDbLine
   6
CONTINUOUS
  62
6
  10
 5453.9747191011
  20
 2106.5589887640
  30
0.0
  11
 8093.9747191011
  21
 2106.5589887640
  31
0.0
   0
MTEXT
   5
43A
 100
AcDbEntity
   8
LEVEL001
 370
13
  62
1
 100
AcDbMText
  10
 5693.9747191011
  20
 2286.5589887640
  30
0.0
  40
 51.428571428572
  41
0.0
  71
4
  72
1
   1
\T1.000000;支柱取付金具
   7
GMM001
  44
 0.79999984000003
   0
MTEXT
   5
43B
 100
AcDbEntity
   8
LEVEL001
 370
13
  62
1
 100
AcDbMText
  10
 5625.9747191011
  20
 2286.5589887640
  30
0.0
  40
 51.428571428572
  41
0.0
  71
6
  72
1
   1
\T1.000000;６
   7
GMM001
  44
 0.79999984000003
   0
MTEXT
   5
43C
 100
AcDbEntity
   8
LEVEL001
 370
13
  62
1
 100
AcDbMText
  10
 6705.9747191011
  20
 2286.5589887640
  30
0.0
  40
 51.428571428572
  41
0.0
  71
6
  72
1
   1
\T1.000000;２
   7
GMM001
  44
 0.79999984000003
   0
MTEXT
   5
43D
 100
AcDbEntity
   8
LEVEL001
 370
13
  62
1
 100
AcDbMText
  10
 6773.9747191011
  20
 2286.5589887640
  30
0.0
  40
 51.428571428572
  41
0.0
  71
4
  72
1
   1
\T1.000000;ＳＳ４００
   7
GMM001
  44
 0.79999984000003
   0
MTEXT
   5
43E
 100
AcDbEntity
   8
LEVEL001
 370
13
  62
1
 100
AcDbMText
  10
 5625.9747191011
  20
 2406.5589887640
  30
0.0
  40
 51.428571428572
  41
0.0
  71
6
  72
1
   1
\T1.000000;５
   7
GMM001
  44
 0.79999984000003
   0
MTEXT
   5
43F
 100
AcDbEntity
   8
LEVEL001
 370
13
  62
1
 100
AcDbMText
  10
 5693.9747191011
  20
 2406.5589887640
  30
0.0
  40
 51.428571428572
  41
0.0
  71
4
  72
1
   1
\T1.000000;裏板取付金具
   7
GMM001
  44
 0.79999984000003
   0
MTEXT
   5
440
 100
AcDbEntity
   8
LEVEL001
 370
13
  62
1
 100
AcDbMText
  10
 5625.9747191011
  20
 2526.5589887640
  30
0.0
  40
 51.428571428572
  41
0.0
  71
6
  72
1
   1
\T1.000000;４
   7
GMM001
  44
 0.79999984000003
   0
MTEXT
   5
441
 100
AcDbEntity
   8
LEVEL001
 370
13
  62
1
 100
AcDbMText
  10
 5693.9747191011
  20
 2526.5589887640
  30
0.0
  40
 51.428571428572
  41
0.0
  71
4
  72
1
   1
\T1.000000;リング
   7
GMM001
  44
 0.79999984000003
   0
MTEXT
   5
442
 100
AcDbEntity
   8
LEVEL001
 370
13
  62
1
 100
AcDbMText
  10
 5625.9747191011
  20
 2646.5589887640
  30
0.0
  40
 51.428571428572
  41
0.0
  71
6
  72
1
   1
\T1.000000;３
   7
GMM001
  44
 0.79999984000003
   0
MTEXT
   5
443
 100
AcDbEntity
   8
LEVEL001
 370
13
  62
1
 100
AcDbMText
  10
 5693.9747191011
  20
 2646.5589887640
  30
0.0
  40
 51.428571428572
  41
0.0
  71
4
  72
1
   1
\T1.000000;フード
   7
GMM001
  44
 0.79999984000003
   0
MTEXT
   5
444
 100
AcDbEntity
   8
LEVEL001
 370
13
  62
1
 100
AcDbMText
  10
 5625.9747191011
  20
 2766.5589887640
  30
0.0
  40
 51.428571428572
  41
0.0
  71
6
  72
1
   1
\T1.000000;２
   7
GMM001
  44
 0.79999984000003
   0
MTEXT
   5
445
 100
AcDbEntity
   8
LEVEL001
 370
13
  62
1
 100
AcDbMText
  10
 5625.9747191011
  20
 2886.5589887640
  30
0.0
  40
 51.428571428572
  41
0.0
  71
6
  72
1
   1
\T1.000000;１
   7
GMM001
  44
 0.79999984000003
   0
MTEXT
   5
446
 100
AcDbEntity
   8
LEVEL001
 370
13
  62
1
 100
AcDbMText
  10
 5693.9747191011
  20
 2766.5589887640
  30
0.0
  40
 51.428571428572
  41
0.0
  71
4
  72
1
   1
\T1.000000;バックプレート
   7
GMM001
  44
 0.79999984000003
   0
MTEXT
   5
447
 100
AcDbEntity
   8
LEVEL001
 370
13
  62
1
 100
AcDbMText
  10
 5693.9747191011
  20
 2886.5589887640
  30
0.0
  40
 51.428571428572
  41
0.0
  71
4
  72
1
   1
\T1.000000;鏡面　Ｒ＝２２００
   7
GMM001
  44
 0.79999984000003
   0
MTEXT
   5
448
 100
AcDbEntity
   8
LEVEL001
 370
13
  62
1
 100
AcDbMText
  10
 6705.9747191011
  20
 2406.5589887640
  30
0.0
  40
 51.428571428572
  41
0.0
  71
6
  72
1
   1
\T1.000000;２
   7
GMM001
  44
 0.79999984000003
   0
MTEXT
   5
449
 100
AcDbEntity
   8
LEVEL001
 370
13
  62
1
 100
AcDbMText
  10
 6705.9747191011
  20
 2526.5589887640
  30
0.0
  40
 51.428571428572
  41
0.0
  71
6
  72
1
   1
\T1.000000;２
   7
GMM001
  44
 0.79999984000003
   0
MTEXT
   5
44A
 100
AcDbEntity
   8
LEVEL001
 370
13
  62
1
 100
AcDbMText
  10
 6705.9747191011
  20
 2646.5589887640
  30
0.0
  40
 51.428571428572
  41
0.0
  71
6
  72
1
   1
\T1.000000;２
   7
GMM001
  44
 0.79999984000003
   0
MTEXT
   5
44B
 100
AcDbEntity
   8
LEVEL001
 370
13
  62
1
 100
AcDbMText
  10
 6705.9747191011
  20
 2766.5589887640
  30
0.0
  40
 51.428571428572
  41
0.0
  71
6
  72
1
   1
\T1.000000;２
   7
GMM001
  44
 0.79999984000003
   0
MTEXT
   5
44C
 100
AcDbEntity
   8
LEVEL001
 370
13
  62
1
 100
AcDbMText
  10
 6705.9747191011
  20
 2886.5589887640
  30
0.0
  40
 51.428571428572
  41
0.0
  71
6
  72
1
   1
\T1.000000;２
   7
GMM001
  44
 0.79999984000003
   0
MTEXT
   5
44D
 100
AcDbEntity
   8
LEVEL001
 370
13
  62
1
 100
AcDbMText
  10
 6773.9747191011
  20
 2406.5589887640
  30
0.0
  40
 51.428571428572
  41
0.0
  71
4
  72
1
   1
\T1.000000;ＳＳ４００
   7
GMM001
  44
 0.79999984000003
   0
MTEXT
   5
44E
 100
AcDbEntity
   8
LEVEL001
 370
13
  62
1
 100
AcDbMText
  10
 6773.9747191011
  20
 2526.5589887640
  30
0.0
  40
 51.428571428572
  41
0.0
  71
4
  72
1
   1
\T1.000000;軟質ＰＶＣ
   7
GMM001
  44
 0.79999984000003
   0
MTEXT
   5
44F
 100
AcDbEntity
   8
LEVEL001
 370
13
  62
1
 100
AcDbMText
  10
 6773.9747191011
  20
 2646.5589887640
  30
0.0
  40
 51.428571428572
  41
0.0
  71
4
  72
1
   1
\T1.000000;ＰＣ
   7
GMM001
  44
 0.79999984000003
   0
MTEXT
   5
450
 100
AcDbEntity
   8
LEVEL001
 370
13
  62
1
 100
AcDbMText
  10
 6773.9747191011
  20
 2886.5589887640
  30
0.0
  40
 51.428571428572
  41
0.0
  71
4
  72
1
   1
\T1.000000;ＳＵＳ３０４
   7
GMM001
  44
 0.79999984000003
   0
MTEXT
   5
451
 100
AcDbEntity
   8
LEVEL001
 370
13
  62
1
 100
AcDbMText
  10
 7333.9747191011
  20
 2286.5589887640
  30
0.0
  40
 51.428571428572
  41
0.0
  71
4
  72
1
   1
\T1.000000;溶融亜鉛メッキ
   7
GMM001
  44
 0.79999984000003
   0
MTEXT
   5
452
 100
AcDbEntity
   8
LEVEL001
 370
13
  62
1
 100
AcDbMText
  10
 7333.9747191011
  20
 2406.5589887640
  30
0.0
  40
 51.428571428572
  41
0.0
  71
4
  72
1
   1
\T1.000000;溶融亜鉛メッキ
   7
GMM001
  44
 0.79999984000003
   0
MTEXT
   5
453
 100
AcDbEntity
   8
LEVEL001
 370
13
  62
1
 100
AcDbMText
  10
 7333.9747191011
  20
 2886.5589887640
  30
0.0
  40
 51.428571428572
  41
0.0
  71
4
  72
1
   1
\T1.000000;t=0.9mm\T1.000000;・表面研磨
   7
GMM001
  44
 0.79999984000003
   0
MTEXT
   5
454
 100
AcDbEntity
   8
LEVEL001
 370
13
  62
1
 100
AcDbMText
  10
 7333.9747191011
  20
 2646.5589887640
  30
0.0
  40
 51.428571428572
  41
0.0
  71
4
  72
1
   1
\T1.000000;ＵＶグレ－ド
   7
GMM001
  44
 0.79999984000003
   0
LINE
   5
455
 100
AcDbEntity
   8
LEVEL001
 370
13
 100
AcDbLine
   6
CONTINUOUS
  62
6
  10
 5453.9747191011
  20
 2226.5589887640
  30
0.0
  11
 8093.9747191011
  21
 2226.5589887640
  31
0.0
   0
LINE
   5
456
 100
AcDbEntity
   8
LEVEL001
 370
13
 100
AcDbLine
   6
CONTINUOUS
  62
6
  10
 5453.9747191011
  20
 2346.5589887640
  30
0.0
  11
 8093.9747191011
  21
 2346.5589887640
  31
0.0
   0
LINE
   5
457
 100
AcDbEntity
   8
LEVEL001
 370
13
 100
AcDbLine
   6
CONTINUOUS
  62
6
  10
 5453.9747191011
  20
 2706.5589887640
  30
0.0
  11
 8093.9747191011
  21
 2706.5589887640
  31
0.0
   0
LINE
   5
458
 100
AcDbEntity
   8
LEVEL001
 370
13
 100
AcDbLine
   6
CONTINUOUS
  62
6
  10
 5453.9747191011
  20
 2466.5589887640
  30
0.0
  11
 8093.9747191011
  21
 2466.5589887640
  31
0.0
   0
LINE
   5
459
 100
AcDbEntity
   8
LEVEL001
 370
13
 100
AcDbLine
   6
CONTINUOUS
  62
6
  10
 5453.9747191011
  20
 2826.5589887640
  30
0.0
  11
 8093.9747191011
  21
 2826.5589887640
  31
0.0
   0
MTEXT
   5
45A
 100
AcDbEntity
   8
LEVEL001
 370
13
  62
1
 100
AcDbMText
  10
 5553.9747191011
  20
 3186.5589887640
  30
0.0
  40
 57.142857142858
  41
0.0
  71
4
  72
1
   1
%%c\T1.000000;６００（ダブル）
   7
GMM001
  44
 0.79999984000003
   0
MTEXT
   5
45B
 100
AcDbEntity
   8
LEVEL001
 370
13
  62
1
 100
AcDbMText
  10
 6093.9747191011
  20
 3026.5589887640
  30
0.0
  40
 51.428571428572
  41
0.0
  71
5
  72
1
   1
\T1.000000;名　　称
   7
GMM001
  44
 0.79999984000003
   0
MTEXT
   5
45C
 100
AcDbEntity
   8
LEVEL001
 370
13
  62
1
 100
AcDbMText
  10
 6633.9747191011
  20
 3026.5589887640
  30
0.0
  40
 51.428571428572
  41
0.0
  71
5
  72
1
   1
\T1.000000;個数
   7
GMM001
  44
 0.79999984000003
   0
MTEXT
   5
45D
 100
AcDbEntity
   8
LEVEL001
 370
13
  62
1
 100
AcDbMText
  10
 7013.9747191011
  20
 3026.5589887640
  30
0.0
  40
 51.428571428572
  41
0.0
  71
5
  72
1
   1
\T1.000000;材　　質
   7
GMM001
  44
 0.79999984000003
   0
MTEXT
   5
45E
 100
AcDbEntity
   8
LEVEL001
 370
13
  62
1
 100
AcDbMText
  10
 7693.9747191011
  20
 3026.5589887640
  30
0.0
  40
 51.428571428572
  41
0.0
  71
5
  72
1
   1
\T1.000000;規格仕様
   7
GMM001
  44
 0.79999984000003
   0
LINE
   5
45F
 100
AcDbEntity
   8
LEVEL001
 370
13
 100
AcDbLine
   6
CONTINUOUS
  62
2
  10
 5453.9747191011
  20
 3106.5589887640
  30
0.0
  11
 8093.9747191011
  21
 3106.5589887640
  31
0.0
   0
LINE
   5
460
 100
AcDbEntity
   8
LEVEL001
 370
13
 100
AcDbLine
   6
CONTINUOUS
  62
2
  10
 5453.9747191011
  20
 2946.5589887640
  30
0.0
  11
 8093.9747191011
  21
 2946.5589887640
  31
0.0
   0
MTEXT
   5
461
 100
AcDbEntity
   8
LEVEL001
 370
13
  62
1
 100
AcDbMText
  10
 5553.9747191011
  20
 3346.5589887640
  30
0.0
  40
 57.142857142858
  41
0.0
  71
4
  72
1
   1
\T1.000000;ステンレスミラー　＜Ｚタイプ＞
   7
GMM001
  44
 0.79999984000003
   0
MTEXT
   5
462
 100
AcDbEntity
   8
LEVEL001
 370
13
  62
1
 100
AcDbMText
  10
 6773.9747191011
  20
 2766.5589887640
  30
0.0
  40
 51.428571428572
  41
0.0
  71
4
  72
1
   1
\T1.000000;高耐食溶融めっき鋼板
   7
GMM004
  44
 0.79999984000003
   0
LWPOLYLINE
   5
463
 100
AcDbEntity
   8
0
 370
13
   6
CONTINUOUS
  62
2
 100
AcDbPolyline
  90
4
  70
1
  10
 5453.9747191011
  20
 906.55898876404
  10
 8093.9747191011
  20
 906.55898876404
  10
 8093.9747191011
  20
 3426.5589887640
  10
 5453.9747191011
  20
 3426.5589887640
   0
MTEXT
   5
464
 100
AcDbEntity
   8
LEVEL001
 370
13
  62
1
 100
AcDbMText
  10
 5693.9747191011
  20
 1206.5589887640
  30
0.0
  40
 51.428571428572
  41
0.0
  71
4
  72
1
   1
\T1.000000;注意板
   7
GMM001
  44
 0.79999984000003
   0
MTEXT
   5
465
 100
AcDbEntity
   8
LEVEL001
 370
13
  62
1
 100
AcDbMText
  10
 5693.9747191011
  20
 3606.5589887640
  30
0.0
  40
 51.428580000000
  41
0.0
  71
1
  72
1
   1
{\T1.000000;※構成部材は改良のため、変更する場合があります。}\P{\T1.000000;※本図は道路反射鏡ハンドブックに基づいています。}
   7
GMM001
  44
 0.79999984000003
   0
MTEXT
   5
466
 100
AcDbEntity
   8
LEVEL001
 370
13
  62
1
 100
AcDbMText
  10
 7336.7367209045
  20
 2820.3565262162
  30
0.0
  40
 34.285714285714
  41
0.0
  71
1
  72
1
   1
{\T1.000000;ＺＡＭ処理鋼板}\P{\T1.000000;プレス成型}
   7
GMM005
  44
 1.0099997980000
   0
MTEXT
   5
467
 100
AcDbEntity
   8
LEVEL001
 370
13
  62
1
 100
AcDbMText
  10
 6705.9747191011
  20
 1086.5589887640
  30
0.0
  40
 51.428571428572
  41
0.0
  71
6
  72
1
   1
\T1.000000;１式
   7
GMM001
  44
 0.79999984000003
   0
MTEXT
   5
468
 100
AcDbEntity
   8
LEVEL001
 370
13
  62
1
 100
AcDbMText
  10
 6705.9747191011
  20
 966.55898876404
  30
0.0
  40
 51.428571428572
  41
0.0
  71
6
  72
1
   1
\T1.000000;１式
   7
GMM001
  44
 0.79999984000003
   0
MTEXT
   5
469
 100
AcDbEntity
   8
LEVEL001
 370
13
  62
1
 100
AcDbMText
  10
 6773.9747191011
  20
 966.55898876404
  30
0.0
  40
 51.428571428572
  41
0.0
  71
4
  72
1
   1
\T1.000000;―
   7
GMM001
  44
 0.79999984000003
   0
MTEXT
   5
46A
 100
AcDbEntity
   8
LEVEL001
 370
13
  62
1
 100
AcDbMText
  10
 6773.9747191011
  20
 1086.5589887640
  30
0.0
  40
 51.428571428572
  41
0.0
  71
4
  72
1
   1
\T1.000000;―
   7
GMM001
  44
 0.79999984000003
   0
MTEXT
   5
46B
 100
AcDbEntity
   8
LEVEL001
 370
13
  62
1
 100
AcDbMText
  10
 6773.9747191011
  20
 1206.5589887640
  30
0.0
  40
 51.428571428572
  41
0.0
  71
4
  72
1
   1
\T1.000000;―
   7
GMM001
  44
 0.79999984000003
   0
MTEXT
   5
46C
 100
AcDbEntity
   8
LEVEL001
 370
13
  62
1
 100
AcDbMText
  10
 7333.9747191011
  20
 1086.5589887640
  30
0.0
  40
 51.428571428572
  41
0.0
  71
4
  72
1
   1
\T1.000000;―
   7
GMM001
  44
 0.79999984000003
   0
MTEXT
   5
46D
 100
AcDbEntity
   8
LEVEL001
 370
13
  62
1
 100
AcDbMText
  10
 7333.9747191011
  20
 966.55898876404
  30
0.0
  40
 51.428571428572
  41
0.0
  71
4
  72
1
   1
\T1.000000;―
   7
GMM001
  44
 0.79999984000003
   0
MTEXT
   5
46E
 100
AcDbEntity
   8
LEVEL001
 370
13
  62
2
 100
AcDbMText
  10
 5463.9747191011
  20
 876.55898876404
  30
0.0
  40
 38.571428571428
  41
0.0
  71
4
  72
1
   1
\T1.370378;図面番号
   7
GMM001
  44
 0.79999984000003
   0
LINE
   5
46F
 100
AcDbEntity
   8
LEVEL001
 370
13
 100
AcDbLine
   6
CONTINUOUS
  62
6
  10
 5653.9747191011
  20
 3106.5589887640
  30
0.0
  11
 5653.9747191011
  21
 1026.5589887640
  31
0.0
   0
LINE
   5
470
 100
AcDbEntity
   8
LEVEL001
 370
13
 100
AcDbLine
   6
CONTINUOUS
  62
6
  10
 6533.9747191011
  20
 3106.5589887640
  30
0.0
  11
 6533.9747191011
  21
 1026.5589887640
  31
0.0
   0
LINE
   5
471
 100
AcDbEntity
   8
LEVEL001
 370
13
 100
AcDbLine
   6
CONTINUOUS
  62
6
  10
 6733.9747191011
  20
 3106.5589887640
  30
0.0
  11
 6733.9747191011
  21
 1026.5589887640
  31
0.0
   0
LINE
   5
472
 100
AcDbEntity
   8
LEVEL001
 370
13
 100
AcDbLine
   6
CONTINUOUS
  62
6
  10
 7293.9747191011
  20
 3106.5589887640
  30
0.0
  11
 7293.9747191011
  21
 1026.5589887640
  31
0.0
   0
LINE
   5
473
 100
AcDbEntity
   8
0
 370
13
 100
AcDbLine
   6
CONTINUOUS
  62
6
  10
 6733.9747191011
  20
 3106.5589887640
  30
0.0
  11
 6733.9747191011
  21
 906.55898876404
  31
0.0
   0
LINE
   5
474
 100
AcDbEntity
   8
0
 370
13
 100
AcDbLine
   6
CONTINUOUS
  62
6
  10
 7293.9747191011
  20
 3106.5589887640
  30
0.0
  11
 7293.9747191011
  21
 906.55898876404
  31
0.0
   0
LINE
   5
475
 100
AcDbEntity
   8
0
 370
13
 100
AcDbLine
   6
CONTINUOUS
  62
6
  10
 5653.9747191011
  20
 3106.5589887640
  30
0.0
  11
 5653.9747191011
  21
 906.55898876404
  31
0.0
   0
LINE
   5
476
 100
AcDbEntity
   8
0
 370
13
 100
AcDbLine
   6
CONTINUOUS
  62
6
  10
 6533.9747191011
  20
 3106.5589887640
  30
0.0
  11
 6533.9747191011
  21
 906.55898876404
  31
0.0
   0
MTEXT
   5
477
 100
AcDbEntity
   8
0
 370
13
  62
1
 100
AcDbMText
  10
 7335.3562483511
  20
 1572.4190597349
  30
0.0
  40
 34.285720000000
  41
0.0
  71
4
  72
1
   1
{\T1.000000;下地亜鉛メッキ}\P{\T1.000000;＋静電粉体塗装}
   7
GMM005
  44
 0.79999984000003
   0
MTEXT
   5
478
 100
AcDbEntity
   8
0
 370
13
  62
1
 100
AcDbMText
  10
 6773.5581102326
  20
 1532.8278385185
  30
0.0
  40
 51.428571428571
  41
0.0
  71
7
  72
1
   1
\T1.000000;ＳＴＫ４００
   7
GMM001
  44
 0.79999984000003
   0
MTEXT
   5
479
 100
AcDbEntity
   8
0
 370
13
  62
1
 100
AcDbMText
  10
 6704.9536928551
  20
 1532.8278385185
  30
0.0
  40
 51.428571428571
  41
0.0
  71
9
  72
1
   1
\T1.000000;１
   7
GMM001
  44
 0.79999984000003
   0
LINE
   5
47A
 100
AcDbEntity
   8
0
 370
13
 100
AcDbLine
   6
CONTINUOUS
  62
6
  10
 6533.9747191011
  20
 1626.5589887640
  30
0.0
  11
 8093.9747191011
  21
 1626.5589887640
  31
0.0
   0
MTEXT
   5
47B
 100
AcDbEntity
   8
LEVEL001
 370
13
  62
1
 100
AcDbMText
  10
 6293.9747191011
  20
 750.77773876404
  30
0.0
  40
 42.857142857142
  41
0.0
  71
5
  72
1
   1
\T1.000000;ＭＺＨ０６０ＷＵＰ
   7
GMM001
  44
 0.79999984000003
   0
ENDSEC
  0
SECTION
  2
OBJECTS
  0
DICTIONARY
  5
C
100
AcDbDictionary
  3
ACAD_GROUP
350
D
  3
ACAD_MLINESTYLE
350
1B
  3
DWGPROPS
350
1C
  0
DICTIONARY
  5
D
102
{ACAD_REACTORS
330
C
102
}
100
AcDbDictionary
  0
DICTIONARY
  5
1B
102
{ACAD_REACTORS
330
C
102
}
100
AcDbDictionary
  3
STANDARD
350
1D
  0
MLINESTYLE
  5
1D
102
{ACAD_REACTORS
330
1B
102
}
100
AcDbMlineStyle
  2
STANDARD
 70
     0
  3

 62
   256
 51
90.0
 52
90.0
 71
     2
 49
0.5
 62
   256
  6
BYLAYER
 49
-0.5
 62
   256
  6
BYLAYER
   0
XRECORD
   5
1C
 102
{ACAD_REACTORS
 330
C
 102
}
 330
C
 100
AcDbXrecord
 280
1
   1
DWGPROPS COOKIE
   2
 
   3
 
   4
 
   6
 
   7
MZH060WUP
   8
 
   9

 300
 = 
 301
 = 
 302
 = 
 303
 = 
 304
 = 
 305
 = 
 306
 = 
 307
 = 
 308
 = 
 309
 = 
  40
0.0
  41
 2460340.5000000
  42
 2460340.5000000
   1

  90
10
   0
ENDSEC
   0
EOF
