   0
SECTION
   2
HEADER
   9
$ACADVER
   1
AC1015
   9
$DWGCODEPAGE
   3
ANSI_932
   9
$LIMMIN
  10
0.0
  20
0.0
   9
$LIMMAX
  10
 8400.0000000000
  20
 5940.0000000000
   9
$EXTMIN
  10
0.0
  20
0.0
  30
0.0
   9
$EXTMAX
  10
 8400.0000000000
  20
 5940.0000000000
  30
0.0
   9
$LTSCALE
  40
 168.00000000000
   9
$HANDSEED
   5
4EA
   0
ENDSEC
   0
SECTION
   2
TABLES
  0
TABLE
  2
VPORT
  5
8
100
AcDbSymbolTable
 70
     1
  0
VPORT
  5
4E9
100
AcDbSymbolTableRecord
100
AcDbViewportTableRecord
  2
*ACTIVE
 70
     0
 10
0.0
 20
0.0
 11
1.0
 21
1.0
  12
 4200.0000000000
  22
 2970.0000000000
 13
0.0
 23
0.0
 14
1.0
 24
1.0
 15
0.0
 25
0.0
 16
0.0
 26
0.0
 36
1.0
 17
0.0
 27
0.0
 37
0.0
  40
 8400.0000000000
  41
 1.4787878787879
 42
50.0
 43
0.0
 44
0.0
 50
0.0
 51
0.0
 71
     0
 72
   100
 73
     1
 74
     1
 75
     0
 76
     0
 77
     0
 78
     0
  0
ENDTAB
  0
TABLE
  2
LTYPE
  5
5
100
AcDbSymbolTable
 70
    25
  0
LTYPE
  5
12
100
AcDbSymbolTableRecord
100
AcDbLinetypeTableRecord
  2
BYBLOCK
 70
     0
  3

 72
    65
 73
     0
 40
0.0
  0
LTYPE
  5
13
100
AcDbSymbolTableRecord
100
AcDbLinetypeTableRecord
  2
BYLAYER
 70
     0
  3

 72
    65
 73
     0
 40
0.0
  0
LTYPE
  5
14
100
AcDbSymbolTableRecord
100
AcDbLinetypeTableRecord
  2
CONTINUOUS
 70
     0
  3
Solid line
 72
    65
 73
     0
 40
0.0
  0
LTYPE
  5
20
100
AcDbSymbolTableRecord
100
AcDbLinetypeTableRecord
  2
BORDER
 70
     0
  3
__ __ . __ __ . __ __ . __ __ . __ __ . __ __ .
 72
    65
 73
     6
 40
1.75
 49
0.5
 74
     0
 49
-0.25
 74
     0
 49
0.5
 74
     0
 49
-0.25
 74
     0
 49
0.0
 74
     0
 49
-0.25
 74
     0
  0
LTYPE
  5
21
100
AcDbSymbolTableRecord
100
AcDbLinetypeTableRecord
  2
BORDER2
 70
     0
  3
__.__.__.__.__.__.__.__.__.__.__.__.__.__.__.__
 72
    65
 73
     6
 40
0.875
 49
0.25
 74
     0
 49
-0.125
 74
     0
 49
0.25
 74
     0
 49
-0.125
 74
     0
 49
0.0
 74
     0
 49
-0.125
 74
     0
  0
LTYPE
  5
22
100
AcDbSymbolTableRecord
100
AcDbLinetypeTableRecord
  2
BORDERX2
 70
     0
  3
____  ____  .  ____  ____  .  ____  ____  .  __
 72
    65
 73
     6
 40
3.5
 49
1.0
 74
     0
 49
-0.5
 74
     0
 49
1.0
 74
     0
 49
-0.5
 74
     0
 49
0.0
 74
     0
 49
-0.5
 74
     0
  0
LTYPE
  5
23
100
AcDbSymbolTableRecord
100
AcDbLinetypeTableRecord
  2
CENTER
 70
     0
  3
____ _ ____ _ ____ _ ____ _ ____ _ ____ _ ____ 
 72
    65
 73
     4
 40
2.0
 49
1.25
 74
     0
 49
-0.25
 74
     0
 49
0.25
 74
     0
 49
-0.25
 74
     0
  0
LTYPE
  5
24
100
AcDbSymbolTableRecord
100
AcDbLinetypeTableRecord
  2
CENTER2
 70
     0
  3
___ _ ___ _ ___ _ ___ _ ___ _ ___ _ ___ _ ___ _
 72
    65
 73
     4
 40
1.125
 49
0.75
 74
     0
 49
-0.125
 74
     0
 49
0.125
 74
     0
 49
-0.125
 74
     0
  0
LTYPE
  5
25
100
AcDbSymbolTableRecord
100
AcDbLinetypeTableRecord
  2
CENTERX2
 70
     0
  3
________  __  ________  __  ________  __  _____
 72
    65
 73
     4
 40
4.0
 49
2.5
 74
     0
 49
-0.5
 74
     0
 49
0.5
 74
     0
 49
-0.5
 74
     0
  0
LTYPE
  5
26
100
AcDbSymbolTableRecord
100
AcDbLinetypeTableRecord
  2
DASHDOT
 70
     0
  3
__ . __ . __ . __ . __ . __ . __ . __ . __ . __
 72
    65
 73
     4
 40
1.0
 49
0.5
 74
     0
 49
-0.25
 74
     0
 49
0.0
 74
     0
 49
-0.25
 74
     0
  0
LTYPE
  5
27
100
AcDbSymbolTableRecord
100
AcDbLinetypeTableRecord
  2
DASHDOT2
 70
     0
  3
_._._._._._._._._._._._._._._._._._._._._._._._
 72
    65
 73
     4
 40
0.5
 49
0.25
 74
     0
 49
-0.125
 74
     0
 49
0.0
 74
     0
 49
-0.125
 74
     0
  0
LTYPE
  5
28
100
AcDbSymbolTableRecord
100
AcDbLinetypeTableRecord
  2
DASHDOTX2
 70
     0
  3
____  .  ____  .  ____  .  ____  .  ____  .  __
 72
    65
 73
     4
 40
2.0
 49
1.0
 74
     0
 49
-0.5
 74
     0
 49
0.0
 74
     0
 49
-0.5
 74
     0
  0
LTYPE
  5
29
100
AcDbSymbolTableRecord
100
AcDbLinetypeTableRecord
  2
DASHED
 70
     0
  3
__ __ __ __ __ __ __ __ __ __ __ __ __ __ __ __
 72
    65
 73
     2
 40
0.75
 49
0.5
 74
     0
 49
-0.25
 74
     0
  0
LTYPE
  5
2A
100
AcDbSymbolTableRecord
100
AcDbLinetypeTableRecord
  2
DASHED2
 70
     0
  3
_ _ _ _ _ _ _ _ _ _ _ _ _ _ _ _ _ _ _ _ _ _ _ _
 72
    65
 73
     2
 40
0.375
 49
0.25
 74
     0
 49
-0.125
 74
     0
  0
LTYPE
  5
2B
100
AcDbSymbolTableRecord
100
AcDbLinetypeTableRecord
  2
DASHEDX2
 70
     0
  3
____  ____  ____  ____  ____  ____  ____  ____ 
 72
    65
 73
     2
 40
1.5
 49
1.0
 74
     0
 49
-0.5
 74
     0
  0
LTYPE
  5
2C
100
AcDbSymbolTableRecord
100
AcDbLinetypeTableRecord
  2
DIVIDE
 70
     0
  3
____ . . ____ . . ____ . . ____ . . ____ . . __
 72
    65
 73
     6
 40
1.25
 49
0.5
 74
     0
 49
-0.25
 74
     0
 49
0.0
 74
     0
 49
-0.25
 74
     0
 49
0.0
 74
     0
 49
-0.25
 74
     0
  0
LTYPE
  5
2D
100
AcDbSymbolTableRecord
100
AcDbLinetypeTableRecord
  2
DIVIDE2
 70
     0
  3
__..__..__..__..__..__..__..__..__..__..__..__.
 72
    65
 73
     6
 40
0.625
 49
0.25
 74
     0
 49
-0.125
 74
     0
 49
0.0
 74
     0
 49
-0.125
 74
     0
 49
0.0
 74
     0
 49
-0.125
 74
     0
  0
LTYPE
  5
2E
100
AcDbSymbolTableRecord
100
AcDbLinetypeTableRecord
  2
DIVIDEX2
 70
     0
  3
________  .  .  ________  .  .  ________  .  . 
 72
    65
 73
     6
 40
2.5
 49
1.0
 74
     0
 49
-0.5
 74
     0
 49
0.0
 74
     0
 49
-0.5
 74
     0
 49
0.0
 74
     0
 49
-0.5
 74
     0
  0
LTYPE
  5
2F
100
AcDbSymbolTableRecord
100
AcDbLinetypeTableRecord
  2
DOT
 70
     0
  3
. . . . . . . . . . . . . . . . . . . . . . . .
 72
    65
 73
     2
 40
0.25
 49
0.0
 74
     0
 49
-0.25
 74
     0
  0
LTYPE
  5
30
100
AcDbSymbolTableRecord
100
AcDbLinetypeTableRecord
  2
DOT2
 70
     0
  3
...............................................
 72
    65
 73
     2
 40
0.125
 49
0.0
 74
     0
 49
-0.125
 74
     0
  0
LTYPE
  5
31
100
AcDbSymbolTableRecord
100
AcDbLinetypeTableRecord
  2
DOTX2
 70
     0
  3
.  .  .  .  .  .  .  .  .  .  .  .  .  .  .  . 
 72
    65
 73
     2
 40
0.5
 49
0.0
 74
     0
 49
-0.5
 74
     0
  0
LTYPE
  5
32
100
AcDbSymbolTableRecord
100
AcDbLinetypeTableRecord
  2
HIDDEN
 70
     0
  3
__ __ __ __ __ __ __ __ __ __ __ __ __ __ __ __
 72
    65
 73
     2
 40
0.375
 49
0.25
 74
     0
 49
-0.125
 74
     0
  0
LTYPE
  5
33
100
AcDbSymbolTableRecord
100
AcDbLinetypeTableRecord
  2
HIDDEN2
 70
     0
  3
_ _ _ _ _ _ _ _ _ _ _ _ _ _ _ _ _ _ _ _ _ _ _ _
 72
    65
 73
     2
 40
0.1875
 49
0.125
 74
     0
 49
-0.0625
 74
     0
  0
LTYPE
  5
34
100
AcDbSymbolTableRecord
100
AcDbLinetypeTableRecord
  2
HIDDENX2
 70
     0
  3
____ ____ ____ ____ ____ ____ ____ ____ ____ __
 72
    65
 73
     2
 40
0.75
 49
0.5
 74
     0
 49
-0.25
 74
     0
  0
LTYPE
  5
35
100
AcDbSymbolTableRecord
100
AcDbLinetypeTableRecord
  2
PHANTOM
 70
     0
  3
______  __  __  ______  __  __  ______  __  __ 
 72
    65
 73
     6
 40
2.5
 49
1.25
 74
     0
 49
-0.25
 74
     0
 49
0.25
 74
     0
 49
-0.25
 74
     0
 49
0.25
 74
     0
 49
-0.25
 74
     0
  0
LTYPE
  5
36
100
AcDbSymbolTableRecord
100
AcDbLinetypeTableRecord
  2
PHANTOM2
 70
     0
  3
___ _ _ ___ _ _ ___ _ _ ___ _ _ ___ _ _ ___ _ _
 72
    65
 73
     6
 40
1.25
 49
0.625
 74
     0
 49
-0.125
 74
     0
 49
0.125
 74
     0
 49
-0.125
 74
     0
 49
0.125
 74
     0
 49
-0.125
 74
     0
  0
LTYPE
  5
37
100
AcDbSymbolTableRecord
100
AcDbLinetypeTableRecord
  2
PHANTOMX2
 70
     0
  3
____________    ____    ____    ____________   
 72
    65
 73
     6
 40
5.0
 49
2.5
 74
     0
 49
-0.5
 74
     0
 49
0.5
 74
     0
 49
-0.5
 74
     0
 49
0.5
 74
     0
 49
-0.5
 74
     0
  0
ENDTAB
   0
TABLE
   2
LAYER
   5
2
 100
AcDbSymbolTable
  70
2
   0
LAYER
   5
E
 100
AcDbSymbolTableRecord
 100
AcDbLayerTableRecord
   2
0
  70
0
  62
7
   6
CONTINUOUS
 390
30
   0
LAYER
   5
39
 100
AcDbSymbolTableRecord
 100
AcDbLayerTableRecord
   2
LEVEL001
  70
0
  62
7
   6
CONTINUOUS
 390
30
   0
ENDTAB
  0
TABLE
  2
STYLE
  5
3
100
AcDbSymbolTable
  70
7
  0
STYLE
  5
F
100
AcDbSymbolTableRecord
100
AcDbTextStyleTableRecord
  2
STANDARD
 70
     0
 40
0.0
 41
1.0
 50
0.0
 71
     0
 42
0.2
  3
TXT
  4
BIGFONT
  0
STYLE
  5
38
100
AcDbSymbolTableRecord
100
AcDbTextStyleTableRecord
  2
STANDARD1
 70
     4
 40
0.0
 41
1.0
 50
0.0
 71
     0
 42
0.2
  3
TXT
  4
BIGFONT
   0
STYLE
   5
3A
 100
AcDbSymbolTableRecord
 100
AcDbTextStyleTableRecord
   2
GMM001
  70
0
  40
0.0
  41
 1.0000000000000
  50
0.0
  71
     0
  42
1.0
   3

   4

1001
ACAD
1000
ＭＳ ゴシック
1071
32817
   0
STYLE
   5
3B
 100
AcDbSymbolTableRecord
 100
AcDbTextStyleTableRecord
   2
GMM002
  70
0
  40
0.0
  41
 1.0000000000000
  50
0.0
  71
     0
  42
1.0
   3
txt.shx
   4
bigfont.shx
   0
STYLE
   5
3C
 100
AcDbSymbolTableRecord
 100
AcDbTextStyleTableRecord
   2
GMM003
  70
0
  40
0.0
  41
 0.75000000000000
  50
0.0
  71
     0
  42
1.0
   3
txt.shx
   4
bigfont.shx
   0
STYLE
   5
3D
 100
AcDbSymbolTableRecord
 100
AcDbTextStyleTableRecord
   2
GMM004
  70
0
  40
0.0
  41
 0.66666666666667
  50
0.0
  71
     0
  42
1.0
   3

   4

1001
ACAD
1000
ＭＳ ゴシック
1071
32817
   0
STYLE
   5
3E
 100
AcDbSymbolTableRecord
 100
AcDbTextStyleTableRecord
   2
GMM005
  70
0
  40
0.0
  41
 1.5000000000000
  50
0.0
  71
     0
  42
1.0
   3

   4

1001
ACAD
1000
ＭＳ ゴシック
1071
32817
   0
ENDTAB
  0
TABLE
  2
VIEW
  5
6
100
AcDbSymbolTable
 70
     0
  0
ENDTAB
  0
TABLE
  2
UCS
  5
7
100
AcDbSymbolTable
 70
     0
  0
ENDTAB
  0
TABLE
  2
APPID
  5
9
100
AcDbSymbolTable
 70
     1
  0
APPID
  5
10
100
AcDbSymbolTableRecord
100
AcDbRegAppTableRecord
  2
ACAD
 70
     0
  0
ENDTAB
   0
TABLE
   2
DIMSTYLE
   5
A
 100
AcDbSymbolTable
  70
9
 100
AcDbDimStyleTable
  0
DIMSTYLE
105
1D
100
AcDbSymbolTableRecord
100
AcDbDimStyleTableRecord
  2
STANDARD
 70
     0
  3

  4

  5

  6

  7

 40
1.0
 41
0.18
 42
0.0625
 43
0.38
 44
0.18
 45
0.0
 46
0.0
 47
0.0
 48
0.0
140
0.18
141
0.09
142
0.0
143
25.4
144
1.0
145
0.0
146
1.0
147
0.09
 71
     0
 72
     0
 73
     1
 74
     1
 75
     0
 76
     0
 77
     0
 78
     0
170
     0
171
     2
172
     0
173
     0
174
     0
175
     0
176
     0
177
     0
178
     0
270
     2
271
     4
272
     4
273
     2
274
     2
340
F
275
     0
280
     0
281
     0
282
     0
283
     1
284
     0
285
     0
286
     0
287
     3
288
     0
   0
DIMSTYLE
 105
3F
 100
AcDbSymbolTableRecord
 100
AcDbDimStyleTableRecord
   2
GMM001
  70
0
   3

   4

   5

   6
_OPEN
   7
_OPEN
  40
 1.0000000000000
  41
 30.000000000000
  42
 30.000000000000
  43
 160.00000000000
  44
 30.000000000000
  45
0.0
  46
0.0
  47
0.0
  48
0.0
 140
 66.000000000000
 141
 20.000000000000
 142
0.0
 143
 0.39400000000000E-1
 144
 1.0000000000000
 145
0.0
 146
 0.75757575757576
 147
0.0
  71
0
  72
0
  73
0
  74
0
  75
0
  76
0
  77
0
  78
8
 170
0
 171
2
 172
1
 173
1
 174
0
 175
0
 176
1
 177
1
 178
7
 270
2
 271
1
 272
0
 273
2
 274
2
 340
3B
 275
0
 280
0
 281
0
 282
0
 283
1
 284
0
 285
0
 286
0
 287
3
 288
1
   0
DIMSTYLE
 105
40
 100
AcDbSymbolTableRecord
 100
AcDbDimStyleTableRecord
   2
GMM002
  70
0
   3

   4

   5

   6
_OPEN
   7
_OPEN
  40
 1.0000000000000
  41
 42.000000000000
  42
 30.000000000000
  43
 160.00000000000
  44
 30.000000000000
  45
0.0
  46
0.0
  47
0.0
  48
0.0
 140
 60.000000000000
 141
 20.000000000000
 142
0.0
 143
 0.39400000000000E-1
 144
 1.0000000000000
 145
0.0
 146
 0.83333333333333
 147
0.0
  71
0
  72
0
  73
0
  74
0
  75
0
  76
0
  77
0
  78
8
 170
0
 171
2
 172
1
 173
1
 174
0
 175
0
 176
1
 177
1
 178
7
 270
2
 271
1
 272
0
 273
2
 274
2
 340
3B
 275
0
 280
0
 281
0
 282
0
 283
1
 284
0
 285
0
 286
0
 287
3
 288
1
   0
DIMSTYLE
 105
41
 100
AcDbSymbolTableRecord
 100
AcDbDimStyleTableRecord
   2
GMM003
  70
0
   3
□<>
   4

   5

   6
_OPEN
   7
_OPEN
  40
 1.0000000000000
  41
 42.000000000000
  42
 30.000000000000
  43
 160.00000000000
  44
 30.000000000000
  45
0.0
  46
0.0
  47
0.0
  48
0.0
 140
 60.000000000000
 141
 20.000000000000
 142
0.0
 143
 0.39400000000000E-1
 144
 1.0000000000000
 145
0.0
 146
 0.83333333333333
 147
 14.000000000000
  71
0
  72
0
  73
0
  74
0
  75
0
  76
0
  77
3
  78
8
 170
0
 171
2
 172
1
 173
1
 174
0
 175
0
 176
6
 177
6
 178
1
 270
2
 271
1
 272
0
 273
2
 274
2
 340
3B
 275
0
 280
0
 281
0
 282
0
 283
1
 284
0
 285
0
 286
0
 287
3
 288
1
   0
DIMSTYLE
 105
42
 100
AcDbSymbolTableRecord
 100
AcDbDimStyleTableRecord
   2
GMM004
  70
0
   3

   4

   5

   6
_OPEN
   7
_OPEN
  40
 1.0000000000000
  41
 42.000000000000
  42
 30.000000000000
  43
 160.00000000000
  44
 30.000000000000
  45
0.0
  46
0.0
  47
0.0
  48
0.0
 140
 60.000000000000
 141
 20.000000000000
 142
0.0
 143
 0.39400000000000E-1
 144
 1.0000000000000
 145
0.0
 146
 0.83333333333333
 147
 25.714285714286
  71
0
  72
0
  73
0
  74
0
  75
0
  76
0
  77
3
  78
8
 170
0
 171
2
 172
1
 173
1
 174
0
 175
0
 176
6
 177
6
 178
1
 270
2
 271
6
 272
0
 273
2
 274
2
 340
3B
 275
1
 280
0
 281
0
 282
0
 283
1
 284
0
 285
0
 286
0
 287
3
 288
0
   0
DIMSTYLE
 105
43
 100
AcDbSymbolTableRecord
 100
AcDbDimStyleTableRecord
   2
GMM005
  70
0
   3

   4

   5

   6
_OPEN
   7
_OPEN
  40
 1.0000000000000
  41
 42.000000000000
  42
 30.000000000000
  43
 160.00000000000
  44
 30.000000000000
  45
0.0
  46
0.0
  47
0.0
  48
0.0
 140
 60.000000000000
 141
 20.000000000000
 142
0.0
 143
 0.39400000000000E-1
 144
 1.0000000000000
 145
0.0
 146
 0.83333333333333
 147
 25.714285714286
  71
0
  72
0
  73
0
  74
0
  75
0
  76
0
  77
3
  78
8
 170
0
 171
2
 172
1
 173
1
 174
0
 175
0
 176
6
 177
6
 178
1
 270
2
 271
6
 272
0
 273
2
 274
2
 340
3B
 275
1
 280
0
 281
0
 282
0
 283
1
 284
0
 285
0
 286
0
 287
3
 288
0
   0
DIMSTYLE
 105
44
 100
AcDbSymbolTableRecord
 100
AcDbDimStyleTableRecord
   2
GMM006
  70
0
   3

   4

   5

   6
_OPEN
   7
_OPEN
  40
 1.0000000000000
  41
 42.000000000000
  42
 30.000000000000
  43
 160.00000000000
  44
 30.000000000000
  45
0.0
  46
0.0
  47
0.0
  48
0.0
 140
 60.000000000000
 141
 20.000000000000
 142
0.0
 143
 0.39400000000000E-1
 144
 1.0000000000000
 145
0.0
 146
 0.83333333333333
 147
 14.000000000000
  71
0
  72
0
  73
0
  74
0
  75
0
  76
0
  77
3
  78
8
 170
0
 171
2
 172
1
 173
1
 174
0
 175
0
 176
6
 177
6
 178
1
 270
2
 271
0
 272
0
 273
2
 274
2
 340
3B
 275
0
 280
0
 281
0
 282
0
 283
1
 284
0
 285
0
 286
0
 287
3
 288
1
   0
DIMSTYLE
 105
45
 100
AcDbSymbolTableRecord
 100
AcDbDimStyleTableRecord
   2
GMM007
  70
0
   3

   4

   5

   6
_OPEN
   7
_OPEN
  40
 1.0000000000000
  41
 42.000000000000
  42
 30.000000000000
  43
 160.00000000000
  44
 30.000000000000
  45
0.0
  46
0.0
  47
0.0
  48
0.0
 140
 60.000000000000
 141
 20.000000000000
 142
0.0
 143
 0.39400000000000E-1
 144
 1.0000000000000
 145
0.0
 146
 0.83333333333333
 147
 25.714285714286
  71
0
  72
0
  73
0
  74
0
  75
0
  76
1
  77
3
  78
8
 170
0
 171
2
 172
1
 173
1
 174
0
 175
0
 176
6
 177
6
 178
1
 270
2
 271
6
 272
0
 273
2
 274
2
 340
3B
 275
1
 280
0
 281
0
 282
0
 283
1
 284
0
 285
0
 286
0
 287
3
 288
0
   0
ENDTAB
  0
TABLE
  2
BLOCK_RECORD
  5
1
100
AcDbSymbolTable
 70
     0
  0
BLOCK_RECORD
  5
18
100
AcDbSymbolTableRecord
100
AcDbBlockTableRecord
  2
*MODEL_SPACE
  0
BLOCK_RECORD
  5
15
100
AcDbSymbolTableRecord
100
AcDbBlockTableRecord
  2
*PAPER_SPACE
   0
BLOCK_RECORD
   5
46
 100
AcDbSymbolTableRecord
 100
AcDbBlockTableRecord
   2
*D15
   0
BLOCK_RECORD
   5
47
 100
AcDbSymbolTableRecord
 100
AcDbBlockTableRecord
   2
*D16
   0
BLOCK_RECORD
   5
48
 100
AcDbSymbolTableRecord
 100
AcDbBlockTableRecord
   2
*D17
   0
BLOCK_RECORD
   5
49
 100
AcDbSymbolTableRecord
 100
AcDbBlockTableRecord
   2
*D18
   0
BLOCK_RECORD
   5
4A
 100
AcDbSymbolTableRecord
 100
AcDbBlockTableRecord
   2
*D19
   0
BLOCK_RECORD
   5
4B
 100
AcDbSymbolTableRecord
 100
AcDbBlockTableRecord
   2
*D20
   0
BLOCK_RECORD
   5
4C
 100
AcDbSymbolTableRecord
 100
AcDbBlockTableRecord
   2
*D21
   0
BLOCK_RECORD
   5
4D
 100
AcDbSymbolTableRecord
 100
AcDbBlockTableRecord
   2
*D22
   0
BLOCK_RECORD
   5
4E
 100
AcDbSymbolTableRecord
 100
AcDbBlockTableRecord
   2
*D23
   0
BLOCK_RECORD
   5
4F
 100
AcDbSymbolTableRecord
 100
AcDbBlockTableRecord
   2
*D24
   0
BLOCK_RECORD
   5
50
 100
AcDbSymbolTableRecord
 100
AcDbBlockTableRecord
   2
_ARCHTICK
   0
BLOCK_RECORD
   5
51
 100
AcDbSymbolTableRecord
 100
AcDbBlockTableRecord
   2
_BOXBLANK
   0
BLOCK_RECORD
   5
52
 100
AcDbSymbolTableRecord
 100
AcDbBlockTableRecord
   2
_BOXFILLED
   0
BLOCK_RECORD
   5
53
 100
AcDbSymbolTableRecord
 100
AcDbBlockTableRecord
   2
_CLOSED
   0
BLOCK_RECORD
   5
54
 100
AcDbSymbolTableRecord
 100
AcDbBlockTableRecord
   2
_CLOSEDBLANK
   0
BLOCK_RECORD
   5
55
 100
AcDbSymbolTableRecord
 100
AcDbBlockTableRecord
   2
_DATUMBLANK
   0
BLOCK_RECORD
   5
56
 100
AcDbSymbolTableRecord
 100
AcDbBlockTableRecord
   2
_DATUMFILLED
   0
BLOCK_RECORD
   5
57
 100
AcDbSymbolTableRecord
 100
AcDbBlockTableRecord
   2
_DOT
   0
BLOCK_RECORD
   5
58
 100
AcDbSymbolTableRecord
 100
AcDbBlockTableRecord
   2
_DOTBLANK
   0
BLOCK_RECORD
   5
59
 100
AcDbSymbolTableRecord
 100
AcDbBlockTableRecord
   2
_DOTSMALL
   0
BLOCK_RECORD
   5
5A
 100
AcDbSymbolTableRecord
 100
AcDbBlockTableRecord
   2
_INTEGRAL
   0
BLOCK_RECORD
   5
5B
 100
AcDbSymbolTableRecord
 100
AcDbBlockTableRecord
   2
_NONE
   0
BLOCK_RECORD
   5
5C
 100
AcDbSymbolTableRecord
 100
AcDbBlockTableRecord
   2
_OBLIQUE
   0
BLOCK_RECORD
   5
5D
 100
AcDbSymbolTableRecord
 100
AcDbBlockTableRecord
   2
_OPEN
   0
BLOCK_RECORD
   5
5E
 100
AcDbSymbolTableRecord
 100
AcDbBlockTableRecord
   2
_OPEN30
   0
BLOCK_RECORD
   5
5F
 100
AcDbSymbolTableRecord
 100
AcDbBlockTableRecord
   2
_OPEN90
   0
BLOCK_RECORD
   5
60
 100
AcDbSymbolTableRecord
 100
AcDbBlockTableRecord
   2
_ORIGIN
   0
ENDTAB
   0
ENDSEC
  0
SECTION
  2
BLOCKS
  0
BLOCK
  5
19
100
AcDbEntity
  8
0
100
AcDbBlockBegin
  2
*MODEL_SPACE
 70
     0
 10
0.0
 20
0.0
 30
0.0
  3
*MODEL_SPACE
  1

  0
ENDBLK
  5
1A
100
AcDbEntity
  8
0
100
AcDbBlockEnd
  0
BLOCK
  5
16
100
AcDbEntity
 67
     1
  8
0
100
AcDbBlockBegin
  2
*PAPER_SPACE
 70
     0
 10
0.0
 20
0.0
 30
0.0
  3
*PAPER_SPACE
  1

  0
ENDBLK
  5
17
100
AcDbEntity
 67
     1
  8
0
100
AcDbBlockEnd
   0
BLOCK
   5
61
 100
AcDbEntity
   8
0
 100
AcDbBlockBegin
   2
_ARCHTICK
  70
0
  10
0.0
  20
0.0
  30
0.0
   3
_ARCHTICK
   0
POLYLINE
   5
62
 100
AcDbEntity
   8
0
 370
-2
   6
BYBLOCK
  62
0
 100
AcDb2dPolyline
  66
1
  10
0.0
  20
0.0
  30
0.0
  70
1
  40
 0.15000000000000
  41
 0.15000000000000
   0
VERTEX
   5
63
 100
AcDbEntity
   8
0
   6
BYBLOCK
  62
0
 100
AcDbVertex
 100
AcDb2dVertex
  10
-0.50000000000000
  20
-0.50000000000000
  30
0.0
  40
 0.15000000000000
  41
 0.15000000000000
   0
VERTEX
   5
64
 100
AcDbEntity
   8
0
   6
BYBLOCK
  62
0
 100
AcDbVertex
 100
AcDb2dVertex
  10
 0.50000000000000
  20
 0.50000000000000
  30
0.0
  40
 0.15000000000000
  41
 0.15000000000000
   0
SEQEND
   5
65
 100
AcDbEntity
   8
0
   6
BYBLOCK
  62
0
   0
ENDBLK
   5
66
 100
AcDbEntity
   8
0
 100
AcDbBlockEnd
   0
BLOCK
   5
67
 100
AcDbEntity
   8
0
 100
AcDbBlockBegin
   2
_OBLIQUE
  70
0
  10
0.0
  20
0.0
  30
0.0
   3
_OBLIQUE
   0
LINE
   5
68
 100
AcDbEntity
   8
0
 370
-2
 100
AcDbLine
   6
BYBLOCK
  62
0
  10
-0.50000000000000
  20
-0.50000000000000
  30
0.0
  11
 0.50000000000000
  21
 0.50000000000000
  31
0.0
   0
ENDBLK
   5
69
 100
AcDbEntity
   8
0
 100
AcDbBlockEnd
   0
BLOCK
   5
6A
 100
AcDbEntity
   8
0
 100
AcDbBlockBegin
   2
_BOXBLANK
  70
0
  10
0.0
  20
0.0
  30
0.0
   3
_BOXBLANK
   0
LINE
   5
6B
 100
AcDbEntity
   8
0
 370
-2
 100
AcDbLine
   6
BYBLOCK
  62
0
  10
-0.50000000000000
  20
-0.50000000000000
  30
0.0
  11
 0.50000000000000
  21
-0.50000000000000
  31
0.0
   0
LINE
   5
6C
 100
AcDbEntity
   8
0
 370
-2
 100
AcDbLine
   6
BYBLOCK
  62
0
  10
 0.50000000000000
  20
-0.50000000000000
  30
0.0
  11
 0.50000000000000
  21
 0.50000000000000
  31
0.0
   0
LINE
   5
6D
 100
AcDbEntity
   8
0
 370
-2
 100
AcDbLine
   6
BYBLOCK
  62
0
  10
 0.50000000000000
  20
 0.50000000000000
  30
0.0
  11
-0.50000000000000
  21
 0.50000000000000
  31
0.0
   0
LINE
   5
6E
 100
AcDbEntity
   8
0
 370
-2
 100
AcDbLine
   6
BYBLOCK
  62
0
  10
-0.50000000000000
  20
 0.50000000000000
  30
0.0
  11
-0.50000000000000
  21
-0.50000000000000
  31
0.0
   0
LINE
   5
6F
 100
AcDbEntity
   8
0
 370
-2
 100
AcDbLine
   6
BYBLOCK
  62
0
  10
-0.50000000000000
  20
0.0
  30
0.0
  11
-1.0000000000000
  21
0.0
  31
0.0
   0
ENDBLK
   5
70
 100
AcDbEntity
   8
0
 100
AcDbBlockEnd
   0
BLOCK
   5
71
 100
AcDbEntity
   8
0
 100
AcDbBlockBegin
   2
_BOXFILLED
  70
0
  10
0.0
  20
0.0
  30
0.0
   3
_BOXFILLED
   0
SOLID
   5
72
 100
AcDbEntity
   8
0
 100
AcDbTrace
   6
BYBLOCK
  62
0
  10
-0.50000000000000
  20
 0.50000000000000
  30
0.0
  11
 0.50000000000000
  21
 0.50000000000000
  31
0.0
  12
-0.50000000000000
  22
-0.50000000000000
  32
0.0
  13
 0.50000000000000
  23
-0.50000000000000
  33
0.0
   0
LINE
   5
73
 100
AcDbEntity
   8
0
 370
-2
 100
AcDbLine
   6
BYBLOCK
  62
0
  10
-0.50000000000000
  20
0.0
  30
0.0
  11
-1.0000000000000
  21
0.0
  31
0.0
   0
ENDBLK
   5
74
 100
AcDbEntity
   8
0
 100
AcDbBlockEnd
   0
BLOCK
   5
75
 100
AcDbEntity
   8
0
 100
AcDbBlockBegin
   2
_CLOSED
  70
0
  10
0.0
  20
0.0
  30
0.0
   3
_CLOSED
   0
LINE
   5
76
 100
AcDbEntity
   8
0
 370
-2
 100
AcDbLine
   6
BYBLOCK
  62
0
  10
-1.0000000000000
  20
 0.16666666666667
  30
0.0
  11
0.0
  21
0.0
  31
0.0
   0
LINE
   5
77
 100
AcDbEntity
   8
0
 370
-2
 100
AcDbLine
   6
BYBLOCK
  62
0
  10
0.0
  20
0.0
  30
0.0
  11
-1.0000000000000
  21
-0.16666666666667
  31
0.0
   0
LINE
   5
78
 100
AcDbEntity
   8
0
 370
-2
 100
AcDbLine
   6
BYBLOCK
  62
0
  10
-1.0000000000000
  20
 0.16666666666667
  30
0.0
  11
-1.0000000000000
  21
-0.16666666666667
  31
0.0
   0
LINE
   5
79
 100
AcDbEntity
   8
0
 370
-2
 100
AcDbLine
   6
BYBLOCK
  62
0
  10
0.0
  20
0.0
  30
0.0
  11
-1.0000000000000
  21
0.0
  31
0.0
   0
ENDBLK
   5
7A
 100
AcDbEntity
   8
0
 100
AcDbBlockEnd
   0
BLOCK
   5
7B
 100
AcDbEntity
   8
0
 100
AcDbBlockBegin
   2
_OPEN
  70
0
  10
0.0
  20
0.0
  30
0.0
   3
_OPEN
   0
LINE
   5
7C
 100
AcDbEntity
   8
0
 370
-2
 100
AcDbLine
   6
BYBLOCK
  62
0
  10
-1.0000000000000
  20
 0.16666666666667
  30
0.0
  11
0.0
  21
0.0
  31
0.0
   0
LINE
   5
7D
 100
AcDbEntity
   8
0
 370
-2
 100
AcDbLine
   6
BYBLOCK
  62
0
  10
0.0
  20
0.0
  30
0.0
  11
-1.0000000000000
  21
-0.16666666666667
  31
0.0
   0
LINE
   5
7E
 100
AcDbEntity
   8
0
 370
-2
 100
AcDbLine
   6
BYBLOCK
  62
0
  10
0.0
  20
0.0
  30
0.0
  11
-1.0000000000000
  21
0.0
  31
0.0
   0
ENDBLK
   5
7F
 100
AcDbEntity
   8
0
 100
AcDbBlockEnd
   0
BLOCK
   5
80
 100
AcDbEntity
   8
0
 100
AcDbBlockBegin
   2
_OPEN30
  70
0
  10
0.0
  20
0.0
  30
0.0
   3
_OPEN30
   0
LINE
   5
81
 100
AcDbEntity
   8
0
 370
-2
 100
AcDbLine
   6
BYBLOCK
  62
0
  10
-1.0000000000000
  20
 0.26794919243110
  30
0.0
  11
0.0
  21
0.0
  31
0.0
   0
LINE
   5
82
 100
AcDbEntity
   8
0
 370
-2
 100
AcDbLine
   6
BYBLOCK
  62
0
  10
0.0
  20
0.0
  30
0.0
  11
-1.0000000000000
  21
-0.26794919243110
  31
0.0
   0
LINE
   5
83
 100
AcDbEntity
   8
0
 370
-2
 100
AcDbLine
   6
BYBLOCK
  62
0
  10
0.0
  20
0.0
  30
0.0
  11
-1.0000000000000
  21
0.0
  31
0.0
   0
ENDBLK
   5
84
 100
AcDbEntity
   8
0
 100
AcDbBlockEnd
   0
BLOCK
   5
85
 100
AcDbEntity
   8
0
 100
AcDbBlockBegin
   2
_OPEN90
  70
0
  10
0.0
  20
0.0
  30
0.0
   3
_OPEN90
   0
LINE
   5
86
 100
AcDbEntity
   8
0
 370
-2
 100
AcDbLine
   6
BYBLOCK
  62
0
  10
-0.50000000000000
  20
 0.50000000000000
  30
0.0
  11
0.0
  21
0.0
  31
0.0
   0
LINE
   5
87
 100
AcDbEntity
   8
0
 370
-2
 100
AcDbLine
   6
BYBLOCK
  62
0
  10
0.0
  20
0.0
  30
0.0
  11
-0.50000000000000
  21
-0.50000000000000
  31
0.0
   0
LINE
   5
88
 100
AcDbEntity
   8
0
 370
-2
 100
AcDbLine
   6
BYBLOCK
  62
0
  10
0.0
  20
0.0
  30
0.0
  11
-1.0000000000000
  21
0.0
  31
0.0
   0
ENDBLK
   5
89
 100
AcDbEntity
   8
0
 100
AcDbBlockEnd
   0
BLOCK
   5
8A
 100
AcDbEntity
   8
0
 100
AcDbBlockBegin
   2
_CLOSEDBLANK
  70
0
  10
0.0
  20
0.0
  30
0.0
   3
_CLOSEDBLANK
   0
LINE
   5
8B
 100
AcDbEntity
   8
0
 370
-2
 100
AcDbLine
   6
BYBLOCK
  62
0
  10
-1.0000000000000
  20
 0.16666666666667
  30
0.0
  11
0.0
  21
0.0
  31
0.0
   0
LINE
   5
8C
 100
AcDbEntity
   8
0
 370
-2
 100
AcDbLine
   6
BYBLOCK
  62
0
  10
0.0
  20
0.0
  30
0.0
  11
-1.0000000000000
  21
-0.16666666666667
  31
0.0
   0
LINE
   5
8D
 100
AcDbEntity
   8
0
 370
-2
 100
AcDbLine
   6
BYBLOCK
  62
0
  10
-1.0000000000000
  20
 0.16666666666667
  30
0.0
  11
-1.0000000000000
  21
-0.16666666666667
  31
0.0
   0
ENDBLK
   5
8E
 100
AcDbEntity
   8
0
 100
AcDbBlockEnd
   0
BLOCK
   5
8F
 100
AcDbEntity
   8
0
 100
AcDbBlockBegin
   2
_DOT
  70
0
  10
0.0
  20
0.0
  30
0.0
   3
_DOT
   0
POLYLINE
   5
90
 100
AcDbEntity
   8
0
 370
-2
   6
BYBLOCK
  62
0
 100
AcDb2dPolyline
  66
1
  10
0.0
  20
0.0
  30
0.0
  70
1
  40
 0.50000000000000
  41
 0.50000000000000
   0
VERTEX
   5
91
 100
AcDbEntity
   8
0
   6
BYBLOCK
  62
0
 100
AcDbVertex
 100
AcDb2dVertex
  10
-0.25000000000000
  20
0.0
  30
0.0
  42
 1.0000000000000
  40
 0.50000000000000
  41
 0.50000000000000
   0
VERTEX
   5
92
 100
AcDbEntity
   8
0
   6
BYBLOCK
  62
0
 100
AcDbVertex
 100
AcDb2dVertex
  10
 0.25000000000000
  20
0.0
  30
0.0
  42
 1.0000000000000
  40
 0.50000000000000
  41
 0.50000000000000
   0
SEQEND
   5
93
 100
AcDbEntity
   8
0
   6
BYBLOCK
  62
0
   0
LINE
   5
94
 100
AcDbEntity
   8
0
 370
-2
 100
AcDbLine
   6
BYBLOCK
  62
0
  10
-0.50000000000000
  20
0.0
  30
0.0
  11
-1.0000000000000
  21
0.0
  31
0.0
   0
ENDBLK
   5
95
 100
AcDbEntity
   8
0
 100
AcDbBlockEnd
   0
BLOCK
   5
96
 100
AcDbEntity
   8
0
 100
AcDbBlockBegin
   2
_DOTSMALL
  70
0
  10
0.0
  20
0.0
  30
0.0
   3
_DOTSMALL
   0
POLYLINE
   5
97
 100
AcDbEntity
   8
0
 370
-2
   6
BYBLOCK
  62
0
 100
AcDb2dPolyline
  66
1
  10
0.0
  20
0.0
  30
0.0
  70
1
  40
 0.50000000000000
  41
 0.50000000000000
   0
VERTEX
   5
98
 100
AcDbEntity
   8
0
   6
BYBLOCK
  62
0
 100
AcDbVertex
 100
AcDb2dVertex
  10
-0.62500000000000E-1
  20
0.0
  30
0.0
  42
 1.0000000000000
  40
 0.50000000000000
  41
 0.50000000000000
   0
VERTEX
   5
99
 100
AcDbEntity
   8
0
   6
BYBLOCK
  62
0
 100
AcDbVertex
 100
AcDb2dVertex
  10
 0.62500000000000E-1
  20
0.0
  30
0.0
  42
 1.0000000000000
  40
 0.50000000000000
  41
 0.50000000000000
   0
SEQEND
   5
9A
 100
AcDbEntity
   8
0
   6
BYBLOCK
  62
0
   0
ENDBLK
   5
9B
 100
AcDbEntity
   8
0
 100
AcDbBlockEnd
   0
BLOCK
   5
9C
 100
AcDbEntity
   8
0
 100
AcDbBlockBegin
   2
_DATUMBLANK
  70
0
  10
0.0
  20
0.0
  30
0.0
   3
_DATUMBLANK
   0
LINE
   5
9D
 100
AcDbEntity
   8
0
 370
-2
 100
AcDbLine
   6
BYBLOCK
  62
0
  10
0.0
  20
 0.57735027000000
  30
0.0
  11
-1.0000000000000
  21
0.0
  31
0.0
   0
LINE
   5
9E
 100
AcDbEntity
   8
0
 370
-2
 100
AcDbLine
   6
BYBLOCK
  62
0
  10
-1.0000000000000
  20
0.0
  30
0.0
  11
0.0
  21
-0.57735027000000
  31
0.0
   0
LINE
   5
9F
 100
AcDbEntity
   8
0
 370
-2
 100
AcDbLine
   6
BYBLOCK
  62
0
  10
0.0
  20
-0.57735027000000
  30
0.0
  11
0.0
  21
 0.57735027000000
  31
0.0
   0
ENDBLK
   5
A0
 100
AcDbEntity
   8
0
 100
AcDbBlockEnd
   0
BLOCK
   5
A1
 100
AcDbEntity
   8
0
 100
AcDbBlockBegin
   2
_DATUMFILLED
  70
0
  10
0.0
  20
0.0
  30
0.0
   3
_DATUMFILLED
   0
SOLID
   5
A2
 100
AcDbEntity
   8
0
 100
AcDbTrace
   6
BYBLOCK
  62
0
  10
0.0
  20
 0.57735027000000
  30
0.0
  11
-1.0000000000000
  21
0.0
  31
0.0
  12
0.0
  22
-0.57735027000000
  32
0.0
  13
0.0
  23
-0.57735027000000
  33
0.0
   0
ENDBLK
   5
A3
 100
AcDbEntity
   8
0
 100
AcDbBlockEnd
   0
BLOCK
   5
A4
 100
AcDbEntity
   8
0
 100
AcDbBlockBegin
   2
_ORIGIN
  70
0
  10
0.0
  20
0.0
  30
0.0
   3
_ORIGIN
   0
CIRCLE
   5
A5
 100
AcDbEntity
   8
0
 370
-2
 100
AcDbCircle
   6
BYBLOCK
  62
0
  10
0.0
  20
0.0
  30
0.0
  40
 0.50000000000000
   0
LINE
   5
A6
 100
AcDbEntity
   8
0
 370
-2
 100
AcDbLine
   6
BYBLOCK
  62
0
  10
0.0
  20
0.0
  30
0.0
  11
-1.0000000000000
  21
0.0
  31
0.0
   0
ENDBLK
   5
A7
 100
AcDbEntity
   8
0
 100
AcDbBlockEnd
   0
BLOCK
   5
A8
 100
AcDbEntity
   8
0
 100
AcDbBlockBegin
   2
_NONE
  70
0
  10
0.0
  20
0.0
  30
0.0
   3
_NONE
   0
CIRCLE
   5
A9
 100
AcDbEntity
   8
0
 370
-2
 100
AcDbCircle
   6
BYBLOCK
  62
0
  10
0.0
  20
0.0
  30
0.0
  40
 0.25000000000000
   0
ENDBLK
   5
AA
 100
AcDbEntity
   8
0
 100
AcDbBlockEnd
   0
BLOCK
   5
AB
 100
AcDbEntity
   8
0
 100
AcDbBlockBegin
   2
_DOTBLANK
  70
0
  10
0.0
  20
0.0
  30
0.0
   3
_DOTBLANK
   0
CIRCLE
   5
AC
 100
AcDbEntity
   8
0
 370
-2
 100
AcDbCircle
   6
BYBLOCK
  62
0
  10
0.0
  20
0.0
  30
0.0
  40
 0.50000000000000
   0
LINE
   5
AD
 100
AcDbEntity
   8
0
 370
-2
 100
AcDbLine
   6
BYBLOCK
  62
0
  10
-0.50000000000000
  20
0.0
  30
0.0
  11
-1.0000000000000
  21
0.0
  31
0.0
   0
ENDBLK
   5
AE
 100
AcDbEntity
   8
0
 100
AcDbBlockEnd
   0
BLOCK
   5
AF
 100
AcDbEntity
   8
0
 100
AcDbBlockBegin
   2
_INTEGRAL
  70
0
  10
0.0
  20
0.0
  30
0.0
   3
_INTEGRAL
   0
ARC
   5
B0
 100
AcDbEntity
   8
0
 370
-2
   6
BYBLOCK
  62
0
 100
AcDbCircle
  10
 0.44488800000000
  20
-0.91335000000000E-1
  30
0.0
  40
 0.45416700000000
 100
AcDbArc
  50
 102.00000000000
  51
 168.00000000000
   0
ARC
   5
B1
 100
AcDbEntity
   8
0
 370
-2
   6
BYBLOCK
  62
0
 100
AcDbCircle
  10
-0.44488800000000
  20
 0.91335000000000E-1
  30
0.0
  40
 0.45416700000000
 100
AcDbArc
  50
 282.00000000000
  51
 348.00000000000
   0
ENDBLK
   5
B2
 100
AcDbEntity
   8
0
 100
AcDbBlockEnd
   0
BLOCK
   5
B3
 100
AcDbEntity
   8
0
 100
AcDbBlockBegin
   2
*D15
  70
65
  10
0.0
  20
0.0
  30
0.0
   3
*D15
   0
LINE
   5
B4
 100
AcDbEntity
   8
LEVEL001
 370
13
 100
AcDbLine
   6
CONTINUOUS
  62
6
  10
 1268.2707585622
  20
 540.47966180054
  30
0.0
  11
 1268.2707585622
  21
 340.47966180054
  31
0.0
   0
LINE
   5
B5
 100
AcDbEntity
   8
LEVEL001
 370
13
 100
AcDbLine
   6
CONTINUOUS
  62
6
  10
 1768.2707585622
  20
 540.47966180054
  30
0.0
  11
 1768.2707585622
  21
 340.47966180054
  31
0.0
   0
LINE
   5
B6
 100
AcDbEntity
   8
LEVEL001
 370
13
 100
AcDbLine
   6
CONTINUOUS
  62
6
  10
 1268.2707585622
  20
 370.47966180054
  30
0.0
  11
 1518.2707585622
  21
 370.47966180054
  31
0.0
   0
LINE
   5
B7
 100
AcDbEntity
   8
LEVEL001
 370
13
 100
AcDbLine
   6
CONTINUOUS
  62
6
  10
 1768.2707585622
  20
 370.47966180054
  30
0.0
  11
 1518.2707585622
  21
 370.47966180054
  31
0.0
   0
INSERT
   5
B8
 100
AcDbEntity
   8
LEVEL001
   6
CONTINUOUS
  62
6
 100
AcDbBlockReference
   2
_OPEN
  10
 1268.2707585622
  20
 370.47966180054
  30
0.0
  41
 42.000000000000
  42
 42.000000000000
  43
 42.000000000000
  50
 180.00000000000
   0
INSERT
   5
B9
 100
AcDbEntity
   8
LEVEL001
   6
CONTINUOUS
  62
6
 100
AcDbBlockReference
   2
_OPEN
  10
 1768.2707585622
  20
 370.47966180054
  30
0.0
  41
 42.000000000000
  42
 42.000000000000
  43
 42.000000000000
  50
0.0
   0
MTEXT
   5
BA
 100
AcDbEntity
   8
LEVEL001
 370
13
  62
1
 100
AcDbMText
  10
 1518.2707585622
  20
 384.47966180054
  30
0.0
  40
 60.000000000000
  41
0.0
  71
8
  72
1
   1
\A1;□500
   7
GMM002
   0
ENDBLK
   5
BB
 100
AcDbEntity
   8
0
 100
AcDbBlockEnd
   0
BLOCK
   5
BC
 100
AcDbEntity
   8
0
 100
AcDbBlockBegin
   2
*D16
  70
65
  10
0.0
  20
0.0
  30
0.0
   3
*D16
   0
LINE
   5
BD
 100
AcDbEntity
   8
LEVEL001
 370
13
 100
AcDbLine
   6
CONTINUOUS
  62
6
  10
 2568.2707585622
  20
 540.47966180054
  30
0.0
  11
 2568.2707585622
  21
 340.47966180054
  31
0.0
   0
LINE
   5
BE
 100
AcDbEntity
   8
LEVEL001
 370
13
 100
AcDbLine
   6
CONTINUOUS
  62
6
  10
 3068.2707585622
  20
 540.47966180054
  30
0.0
  11
 3068.2707585622
  21
 340.47966180054
  31
0.0
   0
LINE
   5
BF
 100
AcDbEntity
   8
LEVEL001
 370
13
 100
AcDbLine
   6
CONTINUOUS
  62
6
  10
 2568.2707585622
  20
 370.47966180054
  30
0.0
  11
 2818.2707585622
  21
 370.47966180054
  31
0.0
   0
LINE
   5
C0
 100
AcDbEntity
   8
LEVEL001
 370
13
 100
AcDbLine
   6
CONTINUOUS
  62
6
  10
 3068.2707585622
  20
 370.47966180054
  30
0.0
  11
 2818.2707585622
  21
 370.47966180054
  31
0.0
   0
INSERT
   5
C1
 100
AcDbEntity
   8
LEVEL001
   6
CONTINUOUS
  62
6
 100
AcDbBlockReference
   2
_OPEN
  10
 2568.2707585622
  20
 370.47966180054
  30
0.0
  41
 42.000000000000
  42
 42.000000000000
  43
 42.000000000000
  50
 180.00000000000
   0
INSERT
   5
C2
 100
AcDbEntity
   8
LEVEL001
   6
CONTINUOUS
  62
6
 100
AcDbBlockReference
   2
_OPEN
  10
 3068.2707585622
  20
 370.47966180054
  30
0.0
  41
 42.000000000000
  42
 42.000000000000
  43
 42.000000000000
  50
0.0
   0
MTEXT
   5
C3
 100
AcDbEntity
   8
LEVEL001
 370
13
  62
1
 100
AcDbMText
  10
 2818.2707585622
  20
 384.47966180054
  30
0.0
  40
 60.000000000000
  41
0.0
  71
8
  72
1
   1
\A1;□500
   7
GMM002
   0
ENDBLK
   5
C4
 100
AcDbEntity
   8
0
 100
AcDbBlockEnd
   0
BLOCK
   5
C5
 100
AcDbEntity
   8
0
 100
AcDbBlockBegin
   2
*D17
  70
65
  10
0.0
  20
0.0
  30
0.0
   3
*D17
   0
LINE
   5
C6
 100
AcDbEntity
   8
0
 370
13
 100
AcDbLine
   6
CONTINUOUS
  62
6
  10
 1238.2707585622
  20
 670.47966180054
  30
0.0
  11
 488.27075856223
  21
 670.47966180054
  31
0.0
   0
LINE
   5
C7
 100
AcDbEntity
   8
0
 370
13
 100
AcDbLine
   6
CONTINUOUS
  62
6
  10
 1238.2707585622
  20
 570.47966180054
  30
0.0
  11
 488.27075856223
  21
 570.47966180054
  31
0.0
   0
LINE
   5
C8
 100
AcDbEntity
   8
0
 370
13
 100
AcDbLine
   6
CONTINUOUS
  62
6
  10
 518.27075856223
  20
 670.47966180054
  30
0.0
  11
 518.27075856223
  21
 620.47966180054
  31
0.0
   0
LINE
   5
C9
 100
AcDbEntity
   8
0
 370
13
 100
AcDbLine
   6
CONTINUOUS
  62
6
  10
 518.27075856223
  20
 570.47966180054
  30
0.0
  11
 518.27075856223
  21
 620.47966180054
  31
0.0
   0
INSERT
   5
CA
 100
AcDbEntity
   8
0
   6
CONTINUOUS
  62
6
 100
AcDbBlockReference
   2
_OPEN
  10
 518.27075856223
  20
 670.47966180054
  30
0.0
  41
 42.000000000000
  42
 42.000000000000
  43
 42.000000000000
  50
 90.000000000000
   0
INSERT
   5
CB
 100
AcDbEntity
   8
0
   6
CONTINUOUS
  62
6
 100
AcDbBlockReference
   2
_OPEN
  10
 518.27075856223
  20
 570.47966180054
  30
0.0
  41
 42.000000000000
  42
 42.000000000000
  43
 42.000000000000
  50
 270.00000000000
   0
MTEXT
   5
CC
 100
AcDbEntity
   8
0
 370
13
  62
1
 100
AcDbMText
  10
 492.55647284795
  20
 620.47966180054
  30
0.0
  40
 60.000000000000
  41
0.0
  71
8
  72
1
   1
\A1;100
   7
GMM002
  11
0.0
  21
 1.0000000000000
  31
0.0
   0
ENDBLK
   5
CD
 100
AcDbEntity
   8
0
 100
AcDbBlockEnd
   0
BLOCK
   5
CE
 100
AcDbEntity
   8
0
 100
AcDbBlockBegin
   2
*D18
  70
65
  10
0.0
  20
0.0
  30
0.0
   3
*D18
   0
LINE
   5
CF
 100
AcDbEntity
   8
0
 370
13
 100
AcDbLine
   6
CONTINUOUS
  62
6
  10
 1238.2707585622
  20
 670.47966180054
  30
0.0
  11
 488.27075856223
  21
 670.47966180054
  31
0.0
   0
LINE
   5
D0
 100
AcDbEntity
   8
0
 370
13
 100
AcDbLine
   6
CONTINUOUS
  62
6
  10
 988.27075856223
  20
 1870.4796618005
  30
0.0
  11
 488.27075856223
  21
 1870.4796618005
  31
0.0
   0
LINE
   5
D1
 100
AcDbEntity
   8
0
 370
13
 100
AcDbLine
   6
CONTINUOUS
  62
6
  10
 518.27075856223
  20
 670.47966180054
  30
0.0
  11
 518.27075856223
  21
 1270.4796618005
  31
0.0
   0
LINE
   5
D2
 100
AcDbEntity
   8
0
 370
13
 100
AcDbLine
   6
CONTINUOUS
  62
6
  10
 518.27075856223
  20
 1870.4796618005
  30
0.0
  11
 518.27075856223
  21
 1270.4796618005
  31
0.0
   0
INSERT
   5
D3
 100
AcDbEntity
   8
0
   6
CONTINUOUS
  62
6
 100
AcDbBlockReference
   2
_OPEN
  10
 518.27075856223
  20
 670.47966180054
  30
0.0
  41
 42.000000000000
  42
 42.000000000000
  43
 42.000000000000
  50
 270.00000000000
   0
INSERT
   5
D4
 100
AcDbEntity
   8
0
   6
CONTINUOUS
  62
6
 100
AcDbBlockReference
   2
_OPEN
  10
 518.27075856223
  20
 1870.4796618005
  30
0.0
  41
 42.000000000000
  42
 42.000000000000
  43
 42.000000000000
  50
 90.000000000000
   0
MTEXT
   5
D5
 100
AcDbEntity
   8
0
 370
13
  62
1
 100
AcDbMText
  10
 492.55647284795
  20
 1270.4796618005
  30
0.0
  40
 60.000000000000
  41
0.0
  71
8
  72
1
   1
\A1;1200
   7
GMM002
  11
0.0
  21
 1.0000000000000
  31
0.0
   0
ENDBLK
   5
D6
 100
AcDbEntity
   8
0
 100
AcDbBlockEnd
   0
BLOCK
   5
D7
 100
AcDbEntity
   8
0
 100
AcDbBlockBegin
   2
*D19
  70
65
  10
0.0
  20
0.0
  30
0.0
   3
*D19
   0
LINE
   5
D8
 100
AcDbEntity
   8
0
 370
13
 100
AcDbLine
   6
CONTINUOUS
  62
6
  10
 988.27075856223
  20
 1870.4796618005
  30
0.0
  11
 488.27075856223
  21
 1870.4796618005
  31
0.0
   0
LINE
   5
D9
 100
AcDbEntity
   8
0
 370
13
 100
AcDbLine
   6
CONTINUOUS
  62
6
  10
 680.77075856223
  20
 4370.4796618005
  30
0.0
  11
 488.27075856223
  21
 4370.4796618005
  31
0.0
   0
LINE
   5
DA
 100
AcDbEntity
   8
0
 370
13
 100
AcDbLine
   6
CONTINUOUS
  62
6
  10
 518.27075856223
  20
 1870.4796618005
  30
0.0
  11
 518.27075856223
  21
 3120.4796618005
  31
0.0
   0
LINE
   5
DB
 100
AcDbEntity
   8
0
 370
13
 100
AcDbLine
   6
CONTINUOUS
  62
6
  10
 518.27075856223
  20
 4370.4796618005
  30
0.0
  11
 518.27075856223
  21
 3120.4796618005
  31
0.0
   0
INSERT
   5
DC
 100
AcDbEntity
   8
0
   6
CONTINUOUS
  62
6
 100
AcDbBlockReference
   2
_OPEN
  10
 518.27075856223
  20
 1870.4796618005
  30
0.0
  41
 42.000000000000
  42
 42.000000000000
  43
 42.000000000000
  50
 270.00000000000
   0
INSERT
   5
DD
 100
AcDbEntity
   8
0
   6
CONTINUOUS
  62
6
 100
AcDbBlockReference
   2
_OPEN
  10
 518.27075856223
  20
 4370.4796618005
  30
0.0
  41
 42.000000000000
  42
 42.000000000000
  43
 42.000000000000
  50
 90.000000000000
   0
MTEXT
   5
DE
 100
AcDbEntity
   8
0
 370
13
  62
1
 100
AcDbMText
  10
 492.55647284795
  20
 3120.4796618005
  30
0.0
  40
 60.000000000000
  41
0.0
  71
8
  72
1
   1
\A1;2500(標準設置高さ)
   7
GMM002
  11
0.0
  21
 1.0000000000000
  31
0.0
   0
ENDBLK
   5
DF
 100
AcDbEntity
   8
0
 100
AcDbBlockEnd
   0
BLOCK
   5
E0
 100
AcDbEntity
   8
0
 100
AcDbBlockBegin
   2
*D20
  70
65
  10
0.0
  20
0.0
  30
0.0
   3
*D20
   0
LINE
   5
E1
 100
AcDbEntity
   8
LEVEL001
 370
13
 100
AcDbLine
   6
CONTINUOUS
  62
6
  10
 640.77075856223
  20
 4843.8796618006
  30
0.0
  11
 1043.2707585622
  21
 4843.8796618006
  31
0.0
   0
LINE
   5
E2
 100
AcDbEntity
   8
LEVEL001
 370
13
 100
AcDbLine
   6
CONTINUOUS
  62
6
  10
 1445.7707585622
  20
 4843.8796618006
  30
0.0
  11
 1043.2707585622
  21
 4843.8796618006
  31
0.0
   0
INSERT
   5
E3
 100
AcDbEntity
   8
LEVEL001
   6
CONTINUOUS
  62
6
 100
AcDbBlockReference
   2
_OPEN
  10
 640.77075856223
  20
 4843.8796618006
  30
0.0
  41
 42.000000000000
  42
 42.000000000000
  43
 42.000000000000
  50
 180.00000000000
   0
INSERT
   5
E4
 100
AcDbEntity
   8
LEVEL001
   6
CONTINUOUS
  62
6
 100
AcDbBlockReference
   2
_OPEN
  10
 1445.7707585622
  20
 4843.8796618006
  30
0.0
  41
 42.000000000000
  42
 42.000000000000
  43
 42.000000000000
  50
0.0
   0
MTEXT
   5
E5
 100
AcDbEntity
   8
LEVEL001
 370
13
  62
1
 100
AcDbMText
  10
 1077.0254081278
  20
 4857.8796618006
  30
0.0
  40
 60.000000000000
  41
0.0
  71
8
  72
1
   1
\A1;800
   7
GMM002
   0
ENDBLK
   5
E6
 100
AcDbEntity
   8
0
 100
AcDbBlockEnd
   0
BLOCK
   5
E7
 100
AcDbEntity
   8
0
 100
AcDbBlockBegin
   2
*D21
  70
65
  10
0.0
  20
0.0
  30
0.0
   3
*D21
   0
LINE
   5
E8
 100
AcDbEntity
   8
LEVEL001
 370
13
 100
AcDbLine
   6
CONTINUOUS
  62
6
  10
 843.27075856223
  20
 4996.3796618006
  30
0.0
  11
 843.27075856223
  21
 4693.8796618006
  31
0.0
   0
LINE
   5
E9
 100
AcDbEntity
   8
LEVEL001
 370
13
 100
AcDbLine
   6
CONTINUOUS
  62
6
  10
 843.27075856223
  20
 4391.3796618006
  30
0.0
  11
 843.27075856223
  21
 4693.8796618006
  31
0.0
   0
INSERT
   5
EA
 100
AcDbEntity
   8
LEVEL001
   6
CONTINUOUS
  62
6
 100
AcDbBlockReference
   2
_OPEN
  10
 843.27075856223
  20
 4996.3796618006
  30
0.0
  41
 42.000000000000
  42
 42.000000000000
  43
 42.000000000000
  50
 90.000000000000
   0
INSERT
   5
EB
 100
AcDbEntity
   8
LEVEL001
   6
CONTINUOUS
  62
6
 100
AcDbBlockReference
   2
_OPEN
  10
 843.27075856223
  20
 4391.3796618006
  30
0.0
  41
 42.000000000000
  42
 42.000000000000
  43
 42.000000000000
  50
 270.00000000000
   0
MTEXT
   5
EC
 100
AcDbEntity
   8
LEVEL001
 370
13
  62
1
 100
AcDbMText
  10
 829.27075856223
  20
 4661.6289207722
  30
0.0
  40
 60.000000000000
  41
0.0
  71
8
  72
1
   1
\A1;600
   7
GMM002
  11
0.0
  21
 1.0000000000000
  31
0.0
   0
ENDBLK
   5
ED
 100
AcDbEntity
   8
0
 100
AcDbBlockEnd
   0
BLOCK
   5
EE
 100
AcDbEntity
   8
0
 100
AcDbBlockBegin
   2
*D22
  70
65
  10
0.0
  20
0.0
  30
0.0
   3
*D22
   0
LINE
   5
EF
 100
AcDbEntity
   8
LEVEL001
 370
13
 100
AcDbLine
   6
CONTINUOUS
  62
6
  10
 1590.7707585622
  20
 4843.8796618006
  30
0.0
  11
 1993.2707585622
  21
 4843.8796618006
  31
0.0
   0
LINE
   5
F0
 100
AcDbEntity
   8
LEVEL001
 370
13
 100
AcDbLine
   6
CONTINUOUS
  62
6
  10
 2395.7707585622
  20
 4843.8796618006
  30
0.0
  11
 1993.2707585622
  21
 4843.8796618006
  31
0.0
   0
INSERT
   5
F1
 100
AcDbEntity
   8
LEVEL001
   6
CONTINUOUS
  62
6
 100
AcDbBlockReference
   2
_OPEN
  10
 1590.7707585622
  20
 4843.8796618006
  30
0.0
  41
 42.000000000000
  42
 42.000000000000
  43
 42.000000000000
  50
 180.00000000000
   0
INSERT
   5
F2
 100
AcDbEntity
   8
LEVEL001
   6
CONTINUOUS
  62
6
 100
AcDbBlockReference
   2
_OPEN
  10
 2395.7707585622
  20
 4843.8796618006
  30
0.0
  41
 42.000000000000
  42
 42.000000000000
  43
 42.000000000000
  50
0.0
   0
MTEXT
   5
F3
 100
AcDbEntity
   8
LEVEL001
 370
13
  62
1
 100
AcDbMText
  10
 2027.0254081278
  20
 4857.8796618006
  30
0.0
  40
 60.000000000000
  41
0.0
  71
8
  72
1
   1
\A1;800
   7
GMM002
   0
ENDBLK
   5
F4
 100
AcDbEntity
   8
0
 100
AcDbBlockEnd
   0
BLOCK
   5
F5
 100
AcDbEntity
   8
0
 100
AcDbBlockBegin
   2
*D23
  70
65
  10
0.0
  20
0.0
  30
0.0
   3
*D23
   0
LINE
   5
F6
 100
AcDbEntity
   8
LEVEL001
 370
13
 100
AcDbLine
   6
CONTINUOUS
  62
6
  10
 1793.2707585622
  20
 4996.3796618006
  30
0.0
  11
 1793.2707585622
  21
 4693.8796618006
  31
0.0
   0
LINE
   5
F7
 100
AcDbEntity
   8
LEVEL001
 370
13
 100
AcDbLine
   6
CONTINUOUS
  62
6
  10
 1793.2707585622
  20
 4391.3796618006
  30
0.0
  11
 1793.2707585622
  21
 4693.8796618006
  31
0.0
   0
INSERT
   5
F8
 100
AcDbEntity
   8
LEVEL001
   6
CONTINUOUS
  62
6
 100
AcDbBlockReference
   2
_OPEN
  10
 1793.2707585622
  20
 4996.3796618006
  30
0.0
  41
 42.000000000000
  42
 42.000000000000
  43
 42.000000000000
  50
 90.000000000000
   0
INSERT
   5
F9
 100
AcDbEntity
   8
LEVEL001
   6
CONTINUOUS
  62
6
 100
AcDbBlockReference
   2
_OPEN
  10
 1793.2707585622
  20
 4391.3796618006
  30
0.0
  41
 42.000000000000
  42
 42.000000000000
  43
 42.000000000000
  50
 270.00000000000
   0
MTEXT
   5
FA
 100
AcDbEntity
   8
LEVEL001
 370
13
  62
1
 100
AcDbMText
  10
 1779.2707585622
  20
 4661.6289207722
  30
0.0
  40
 60.000000000000
  41
0.0
  71
8
  72
1
   1
\A1;600
   7
GMM002
  11
0.0
  21
 1.0000000000000
  31
0.0
   0
ENDBLK
   5
FB
 100
AcDbEntity
   8
0
 100
AcDbBlockEnd
   0
BLOCK
   5
FC
 100
AcDbEntity
   8
0
 100
AcDbBlockBegin
   2
*D24
  70
65
  10
0.0
  20
0.0
  30
0.0
   3
*D24
   0
LINE
   5
FD
 100
AcDbEntity
   8
0
 370
13
 100
AcDbLine
   6
CONTINUOUS
  62
6
  10
 2818.2707585622
  20
 1800.4796617989
  30
0.0
  11
 2818.2707585622
  21
 2700.4796618005
  31
0.0
   0
LINE
   5
FE
 100
AcDbEntity
   8
0
 370
13
 100
AcDbLine
   6
CONTINUOUS
  62
6
  10
 2818.2707585622
  20
 2670.4796618005
  30
0.0
  11
 3018.2707585622
  21
 2670.4796618005
  31
0.0
   0
LINE
   5
FF
 100
AcDbEntity
   8
0
 370
13
 100
AcDbLine
   6
CONTINUOUS
  62
6
  10
 3218.2707585622
  20
 2670.4796618005
  30
0.0
  11
 3018.2707585622
  21
 2670.4796618005
  31
0.0
   0
INSERT
   5
100
 100
AcDbEntity
   8
0
   6
CONTINUOUS
  62
6
 100
AcDbBlockReference
   2
_OPEN
  10
 2818.2707585622
  20
 2670.4796618005
  30
0.0
  41
 42.000000000000
  42
 42.000000000000
  43
 42.000000000000
  50
 180.00000000000
   0
INSERT
   5
101
 100
AcDbEntity
   8
0
   6
CONTINUOUS
  62
6
 100
AcDbBlockReference
   2
_OPEN
  10
 3218.2707585622
  20
 2670.4796618005
  30
0.0
  41
 42.000000000000
  42
 42.000000000000
  43
 42.000000000000
  50
0.0
   0
MTEXT
   5
102
 100
AcDbEntity
   8
0
 370
13
  62
1
 100
AcDbMText
  10
 3018.2707585622
  20
 2696.1939475148
  30
0.0
  40
 60.000000000000
  41
0.0
  71
8
  72
1
   1
\A1;400
   7
GMM002
   0
ENDBLK
   5
103
 100
AcDbEntity
   8
0
 100
AcDbBlockEnd
   0
ENDSEC
   0
SECTION
   2
ENTITIES
   0
LINE
   5
104
 100
AcDbEntity
   8
LEVEL001
 370
13
 100
AcDbLine
   6
CONTINUOUS
  62
7
  10
 8118.2707585622
  20
 5693.8796618006
  30
0.0
  11
 318.27075856223
  21
 5693.8796618006
  31
0.0
   0
LINE
   5
105
 100
AcDbEntity
   8
LEVEL001
 370
13
 100
AcDbLine
   6
CONTINUOUS
  62
7
  10
 318.27075856223
  20
 5693.8796618006
  30
0.0
  11
 318.27075856223
  21
 193.87966180056
  31
0.0
   0
LINE
   5
106
 100
AcDbEntity
   8
LEVEL001
 370
13
 100
AcDbLine
   6
CONTINUOUS
  62
7
  10
 318.27075856223
  20
 193.87966180056
  30
0.0
  11
 8118.2707585622
  21
 193.87966180056
  31
0.0
   0
LINE
   5
107
 100
AcDbEntity
   8
LEVEL001
 370
13
 100
AcDbLine
   6
CONTINUOUS
  62
7
  10
 8118.2707585622
  20
 193.87966180056
  30
0.0
  11
 8118.2707585622
  21
 5693.8796618006
  31
0.0
   0
LINE
   5
108
 100
AcDbEntity
   8
LEVEL001
 370
13
 100
AcDbLine
   6
CONTINUOUS
  62
2
  10
 5478.2707585622
  20
 673.87966180056
  30
0.0
  11
 7158.2707585622
  21
 673.87966180056
  31
0.0
   0
POINT
   5
109
 100
AcDbEntity
   8
LEVEL001
 100
AcDbPoint
  62
3
  10
 6418.2707585622
  20
 733.87966180056
  30
0.0
   0
POINT
   5
10A
 100
AcDbEntity
   8
LEVEL001
 100
AcDbPoint
  62
3
  10
 6318.2707585622
  20
 733.87966180056
  30
0.0
   0
POINT
   5
10B
 100
AcDbEntity
   8
LEVEL001
 100
AcDbPoint
  62
3
  10
 6418.2707585622
  20
 833.87966180056
  30
0.0
   0
MTEXT
   5
10C
 100
AcDbEntity
   8
LEVEL001
 370
13
  62
1
 100
AcDbMText
  10
 5650.2707585622
  20
 953.87966180056
  30
0.0
  40
 51.428571428572
  41
0.0
  71
6
  72
1
   1
\T1.000000;１６
   7
GMM001
  44
 0.79999984000003
   0
MTEXT
   5
10D
 100
AcDbEntity
   8
LEVEL001
 370
13
  62
1
 100
AcDbMText
  10
 6808.2707585622
  20
 1311.0268771923
  30
0.0
  40
 51.428571428572
  41
0.0
  71
4
  72
1
   1
\T1.000000;ＰＥ
   7
GMM001
  44
 0.79999984000003
   0
MTEXT
   5
10E
 100
AcDbEntity
   8
LEVEL001
 370
13
  62
1
 100
AcDbMText
  10
 5718.2707585622
  20
 953.87966180056
  30
0.0
  40
 51.428571428572
  41
0.0
  71
4
  72
1
   1
\T1.000000;同上ボルトナット
   7
GMM001
  44
 0.79999984000003
   0
MTEXT
   5
10F
 100
AcDbEntity
   8
LEVEL001
 370
13
  62
1
 100
AcDbMText
  10
 5650.2707585622
  20
 1073.8796618006
  30
0.0
  40
 51.428571428572
  41
0.0
  71
6
  72
1
   1
\T1.000000;１５
   7
GMM001
  44
 0.79999984000003
   0
MTEXT
   5
110
 100
AcDbEntity
   8
LEVEL001
 370
13
  62
1
 100
AcDbMText
  10
 5718.2707585622
  20
 1073.8796618006
  30
0.0
  40
 51.428571428572
  41
0.0
  71
4
  72
1
   1
\T1.000000;注意板取付バンド
   7
GMM001
  44
 0.79999984000003
   0
LINE
   5
111
 100
AcDbEntity
   8
LEVEL001
 370
13
 100
AcDbLine
   6
CONTINUOUS
  62
6
  10
 5478.2707585622
  20
 1013.8796618006
  30
0.0
  11
 8118.2707585622
  21
 1013.8796618006
  31
0.0
   0
MTEXT
   5
112
 100
AcDbEntity
   8
LEVEL001
 370
13
  62
1
 100
AcDbMText
  10
 5650.2707585622
  20
 1193.8796618006
  30
0.0
  40
 51.428571428572
  41
0.0
  71
6
  72
1
   1
\T1.000000;１４
   7
GMM001
  44
 0.79999984000003
   0
MTEXT
   5
113
 100
AcDbEntity
   8
LEVEL001
 370
13
  62
1
 100
AcDbMText
  10
 6730.2707585622
  20
 1193.8796618006
  30
0.0
  40
 51.428571428572
  41
0.0
  71
6
  72
1
   1
\T1.000000;１
   7
GMM001
  44
 0.79999984000003
   0
LINE
   5
114
 100
AcDbEntity
   8
LEVEL001
 370
13
 100
AcDbLine
   6
CONTINUOUS
  62
6
  10
 5478.2707585622
  20
 1133.8796618006
  30
0.0
  11
 8118.2707585622
  21
 1133.8796618006
  31
0.0
   0
LINE
   5
115
 100
AcDbEntity
   8
LEVEL001
 370
13
 100
AcDbLine
   6
CONTINUOUS
  62
6
  10
 5478.2707585622
  20
 1253.8796618006
  30
0.0
  11
 8118.2707585622
  21
 1253.8796618006
  31
0.0
   0
MTEXT
   5
116
 100
AcDbEntity
   8
LEVEL001
 370
13
  62
1
 100
AcDbMText
  10
 5650.2707585622
  20
 1313.8796618006
  30
0.0
  40
 51.428571428572
  41
0.0
  71
6
  72
1
   1
\T1.000000;１３
   7
GMM001
  44
 0.79999984000003
   0
MTEXT
   5
117
 100
AcDbEntity
   8
LEVEL001
 370
13
  62
1
 100
AcDbMText
  10
 5718.2707585622
  20
 1313.8796618006
  30
0.0
  40
 51.428571428572
  41
0.0
  71
4
  72
1
   1
\T1.000000;キャップ
   7
GMM001
  44
 0.79999984000003
   0
MTEXT
   5
118
 100
AcDbEntity
   8
LEVEL001
 370
13
  62
1
 100
AcDbMText
  10
 6730.2707585622
  20
 1313.8796618006
  30
0.0
  40
 51.428571428572
  41
0.0
  71
6
  72
1
   1
\T1.000000;１
   7
GMM001
  44
 0.79999984000003
   0
MTEXT
   5
119
 100
AcDbEntity
   8
LEVEL001
 370
13
  62
1
 100
AcDbMText
  10
 5650.2707585622
  20
 1433.8796618006
  30
0.0
  40
 51.428571428572
  41
0.0
  71
6
  72
1
   1
\T1.000000;１２
   7
GMM001
  44
 0.79999984000003
   0
MTEXT
   5
11A
 100
AcDbEntity
   8
LEVEL001
 370
13
  62
1
 100
AcDbMText
  10
 5718.2707585622
  20
 1433.8796618006
  30
0.0
  40
 51.428571428572
  41
0.0
  71
4
  72
1
   1
\T1.000000;根入れ鉄筋
   7
GMM001
  44
 0.79999984000003
   0
MTEXT
   5
11B
 100
AcDbEntity
   8
LEVEL001
 370
13
  62
1
 100
AcDbMText
  10
 6798.2707585622
  20
 1433.8796618006
  30
0.0
  40
 51.428571428572
  41
0.0
  71
4
  72
1
   1
\T1.000000;ＳＤ２９５Ａ
   7
GMM001
  44
 0.79999984000003
   0
LINE
   5
11C
 100
AcDbEntity
   8
LEVEL001
 370
13
 100
AcDbLine
   6
CONTINUOUS
  62
6
  10
 5478.2707585622
  20
 1373.8796618006
  30
0.0
  11
 8118.2707585622
  21
 1373.8796618006
  31
0.0
   0
LINE
   5
11D
 100
AcDbEntity
   8
LEVEL001
 370
13
 100
AcDbLine
   6
CONTINUOUS
  62
6
  10
 5478.2707585622
  20
 1493.8796618006
  30
0.0
  11
 8118.2707585622
  21
 1493.8796618006
  31
0.0
   0
LINE
   5
11E
 100
AcDbEntity
   8
LEVEL001
 370
13
 100
AcDbLine
   6
CONTINUOUS
  62
7
  10
 3514.3008845668
  20
 4638.8796618006
  30
0.0
  11
 3264.3008845668
  21
 4638.8796618006
  31
0.0
   0
LINE
   5
11F
 100
AcDbEntity
   8
LEVEL001
 370
13
 100
AcDbLine
   6
CONTINUOUS
  62
7
  10
 3264.3008845668
  20
 4638.8796618006
  30
0.0
  11
 3264.3008845668
  21
 4578.8796618006
  31
0.0
   0
LINE
   5
120
 100
AcDbEntity
   8
LEVEL001
 370
13
 100
AcDbLine
   6
CONTINUOUS
  62
7
  10
 3264.3008845668
  20
 4578.8796618006
  30
0.0
  11
 3514.3008845668
  21
 4578.8796618006
  31
0.0
   0
LINE
   5
121
 100
AcDbEntity
   8
LEVEL001
 370
13
 100
AcDbLine
   6
CONTINUOUS
  62
7
  10
 3514.3008845668
  20
 4578.8796618006
  30
0.0
  11
 3514.3008845668
  21
 4638.8796618006
  31
0.0
   0
LINE
   5
122
 100
AcDbEntity
   8
LEVEL001
 370
13
 100
AcDbLine
   6
DASHDOT
  62
6
  10
 3550.2749377162
  20
 4783.8796618006
  30
0.0
  11
 3550.2749377162
  21
 4543.8796618006
  31
0.0
   0
LINE
   5
123
 100
AcDbEntity
   8
LEVEL001
 370
13
 100
AcDbLine
   6
CONTINUOUS
  62
7
  10
 3512.1249377162
  20
 4748.8796618006
  30
0.0
  11
 3512.1249377162
  21
 4763.8796618006
  31
0.0
   0
LINE
   5
124
 100
AcDbEntity
   8
LEVEL001
 370
13
 100
AcDbLine
   6
CONTINUOUS
  62
7
  10
 3512.1249377162
  20
 4763.8796618006
  30
0.0
  11
 3588.4249377162
  21
 4763.8796618006
  31
0.0
   0
LINE
   5
125
 100
AcDbEntity
   8
LEVEL001
 370
13
 100
AcDbLine
   6
CONTINUOUS
  62
7
  10
 3588.4249377162
  20
 4763.8796618006
  30
0.0
  11
 3588.4249377162
  21
 4748.8796618006
  31
0.0
   0
LINE
   5
126
 100
AcDbEntity
   8
LEVEL001
 370
13
 100
AcDbLine
   6
CONTINUOUS
  62
7
  10
 3588.4249377162
  20
 4638.8796618006
  30
0.0
  11
 3588.4249377162
  21
 4563.8796618006
  31
0.0
   0
LINE
   5
127
 100
AcDbEntity
   8
LEVEL001
 370
13
 100
AcDbLine
   6
CONTINUOUS
  62
7
  10
 3588.4249377162
  20
 4563.8796618006
  30
0.0
  11
 3512.1249377162
  21
 4563.8796618006
  31
0.0
   0
LINE
   5
128
 100
AcDbEntity
   8
LEVEL001
 370
13
 100
AcDbLine
   6
CONTINUOUS
  62
7
  10
 3512.1249377162
  20
 4563.8796618006
  30
0.0
  11
 3512.1249377162
  21
 4578.8796618006
  31
0.0
   0
LINE
   5
129
 100
AcDbEntity
   8
LEVEL001
 370
13
 100
AcDbLine
   6
CONTINUOUS
  62
7
  10
 3266.0207585622
  20
 4578.8796618006
  30
0.0
  11
 3266.0207585622
  21
 4563.8796618006
  31
0.0
   0
LINE
   5
12A
 100
AcDbEntity
   8
LEVEL001
 370
13
 100
AcDbLine
   6
CONTINUOUS
  62
7
  10
 3266.0207585622
  20
 4563.8796618006
  30
0.0
  11
 3135.2707500424
  21
 4563.8796618006
  31
0.0
   0
LINE
   5
12B
 100
AcDbEntity
   8
LEVEL001
 370
13
 100
AcDbLine
   6
CONTINUOUS
  62
7
  10
 3135.2707500424
  20
 4563.8796618006
  30
0.0
  11
 3135.2707500424
  21
 4673.8796618006
  31
0.0
   0
LINE
   5
12C
 100
AcDbEntity
   8
LEVEL001
 370
13
 100
AcDbLine
   6
CONTINUOUS
  62
7
  10
 3135.2707500424
  20
 4673.8796618006
  30
0.0
  11
 3266.0207585622
  21
 4673.8796618006
  31
0.0
   0
LINE
   5
12D
 100
AcDbEntity
   8
LEVEL001
 370
13
 100
AcDbLine
   6
CONTINUOUS
  62
7
  10
 3266.0207585622
  20
 4673.8796618006
  30
0.0
  11
 3266.0207585622
  21
 4638.8796618006
  31
0.0
   0
LINE
   5
12E
 100
AcDbEntity
   8
LEVEL001
 370
13
 100
AcDbLine
   6
CONTINUOUS
  62
7
  10
 3170.5207585622
  20
 4695.3847046036
  30
0.0
  11
 3170.5207585622
  21
 4673.8796618006
  31
0.0
   0
LINE
   5
12F
 100
AcDbEntity
   8
LEVEL001
 370
13
 100
AcDbLine
   6
CONTINUOUS
  62
7
  10
 3170.5207585622
  20
 4673.8796618006
  30
0.0
  11
 3301.2707670820
  21
 4673.8796618006
  31
0.0
   0
LINE
   5
130
 100
AcDbEntity
   8
LEVEL001
 370
13
 100
AcDbLine
   6
CONTINUOUS
  62
7
  10
 3301.2707670820
  20
 4673.8796618006
  30
0.0
  11
 3301.2707670820
  21
 4783.8796618006
  31
0.0
   0
LINE
   5
131
 100
AcDbEntity
   8
LEVEL001
 370
13
 100
AcDbLine
   6
CONTINUOUS
  62
7
  10
 3301.2707670820
  20
 4783.8796618006
  30
0.0
  11
 3170.5207585622
  21
 4783.8796618006
  31
0.0
   0
LINE
   5
132
 100
AcDbEntity
   8
LEVEL001
 370
13
 100
AcDbLine
   6
CONTINUOUS
  62
7
  10
 3170.5207585622
  20
 4783.8796618006
  30
0.0
  11
 3170.5207585622
  21
 4762.7242788616
  31
0.0
   0
LINE
   5
133
 100
AcDbEntity
   8
LEVEL001
 370
13
 100
AcDbLine
   6
CONTINUOUS
  62
7
  10
 3172.2406325576
  20
 4763.6005984322
  30
0.0
  11
 3172.2406325576
  21
 4696.2610241742
  31
0.0
   0
LINE
   5
134
 100
AcDbEntity
   8
LEVEL001
 370
13
 100
AcDbLine
   6
CONTINUOUS
  62
7
  10
 3172.2406325576
  20
 4696.2610241742
  30
0.0
  11
 2922.2406325576
  21
 4568.8796618006
  31
0.0
   0
LINE
   5
135
 100
AcDbEntity
   8
LEVEL001
 370
13
 100
AcDbLine
   6
CONTINUOUS
  62
7
  10
 2922.2406325576
  20
 4568.8796618006
  30
0.0
  11
 2922.2406325576
  21
 4636.2192360585
  31
0.0
   0
LINE
   5
136
 100
AcDbEntity
   8
LEVEL001
 370
13
 100
AcDbLine
   6
CONTINUOUS
  62
7
  10
 2922.2406325576
  20
 4636.2192360585
  30
0.0
  11
 3172.2406325576
  21
 4763.6005984322
  31
0.0
   0
LINE
   5
137
 100
AcDbEntity
   8
LEVEL001
 370
13
 100
AcDbLine
   6
DASHDOT
  62
6
  10
 2886.2665794082
  20
 4783.8796618006
  30
0.0
  11
 2886.2665794082
  21
 4543.8796618006
  31
0.0
   0
LINE
   5
138
 100
AcDbEntity
   8
LEVEL001
 370
13
 100
AcDbLine
   6
CONTINUOUS
  62
7
  10
 2848.1165794082
  20
 4638.8796618006
  30
0.0
  11
 2848.1165794082
  21
 4563.8796618006
  31
0.0
   0
LINE
   5
139
 100
AcDbEntity
   8
LEVEL001
 370
13
 100
AcDbLine
   6
CONTINUOUS
  62
7
  10
 2848.1165794082
  20
 4563.8796618006
  30
0.0
  11
 2924.4165794082
  21
 4563.8796618006
  31
0.0
   0
LINE
   5
13A
 100
AcDbEntity
   8
LEVEL001
 370
13
 100
AcDbLine
   6
CONTINUOUS
  62
7
  10
 2924.4165794082
  20
 4563.8796618006
  30
0.0
  11
 2924.4165794082
  21
 4569.9883620976
  31
0.0
   0
LINE
   5
13B
 100
AcDbEntity
   8
LEVEL001
 370
13
 100
AcDbLine
   6
CONTINUOUS
  62
7
  10
 2924.4165794082
  20
 4637.3279363555
  30
0.0
  11
 2924.4165794082
  21
 4638.8796618006
  31
0.0
   0
LINE
   5
13C
 100
AcDbEntity
   8
LEVEL001
 370
13
 100
AcDbLine
   6
CONTINUOUS
  62
7
  10
 2924.4165794082
  20
 4748.8796618006
  30
0.0
  11
 2924.4165794082
  21
 4763.8796618006
  31
0.0
   0
LINE
   5
13D
 100
AcDbEntity
   8
LEVEL001
 370
13
 100
AcDbLine
   6
CONTINUOUS
  62
7
  10
 2924.4165794082
  20
 4763.8796618006
  30
0.0
  11
 2848.1165794082
  21
 4763.8796618006
  31
0.0
   0
LINE
   5
13E
 100
AcDbEntity
   8
LEVEL001
 370
13
 100
AcDbLine
   6
CONTINUOUS
  62
7
  10
 2848.1165794082
  20
 4763.8796618006
  30
0.0
  11
 2848.1165794082
  21
 4748.8796618006
  31
0.0
   0
LINE
   5
13F
 100
AcDbEntity
   8
LEVEL001
 370
13
 100
AcDbLine
   6
CONTINUOUS
  62
6
  10
 2921.6946060646
  20
 4743.8796618006
  30
0.0
  11
 2921.6946060646
  21
 4643.8796618006
  31
0.0
   0
LINE
   5
140
 100
AcDbEntity
   8
LEVEL001
 370
13
 100
AcDbLine
   6
DASHDOT
  62
6
  10
 2986.2665965108
  20
 4693.8796618006
  30
0.0
  11
 2587.4499763714
  21
 4693.8796618006
  31
0.0
   0
LINE
   5
141
 100
AcDbEntity
   8
LEVEL001
 370
13
 100
AcDbLine
   6
DASHDOT
  62
6
  10
 2941.2665965108
  20
 4738.8796618006
  30
0.0
  11
 2941.2665965108
  21
 4708.8796618006
  31
0.0
   0
LINE
   5
142
 100
AcDbEntity
   8
LEVEL001
 370
13
 100
AcDbLine
   6
DASHDOT
  62
6
  10
 2956.2665965108
  20
 4723.8796618006
  30
0.0
  11
 2926.2665965108
  21
 4723.8796618006
  31
0.0
   0
LINE
   5
143
 100
AcDbEntity
   8
LEVEL001
 370
13
 100
AcDbLine
   6
DASHDOT
  62
6
  10
 2941.2665965108
  20
 4678.8796618006
  30
0.0
  11
 2941.2665965108
  21
 4648.8796618006
  31
0.0
   0
LINE
   5
144
 100
AcDbEntity
   8
LEVEL001
 370
13
 100
AcDbLine
   6
DASHDOT
  62
6
  10
 2956.2665965108
  20
 4663.8796618006
  30
0.0
  11
 2926.2665965108
  21
 4663.8796618006
  31
0.0
   0
LINE
   5
145
 100
AcDbEntity
   8
LEVEL001
 370
13
 100
AcDbLine
   6
DASHDOT
  62
6
  10
 3281.2707670820
  20
 4773.8796618006
  30
0.0
  11
 3281.2707670820
  21
 4743.8796618006
  31
0.0
   0
LINE
   5
146
 100
AcDbEntity
   8
LEVEL001
 370
13
 100
AcDbLine
   6
DASHDOT
  62
6
  10
 3296.2707670820
  20
 4758.8796618006
  30
0.0
  11
 3266.2707670820
  21
 4758.8796618006
  31
0.0
   0
LINE
   5
147
 100
AcDbEntity
   8
LEVEL001
 370
13
 100
AcDbLine
   6
DASHDOT
  62
6
  10
 3281.2707670820
  20
 4713.8796618006
  30
0.0
  11
 3281.2707670820
  21
 4683.8796618006
  31
0.0
   0
LINE
   5
148
 100
AcDbEntity
   8
LEVEL001
 370
13
 100
AcDbLine
   6
DASHDOT
  62
6
  10
 3296.2707670820
  20
 4698.8796618006
  30
0.0
  11
 3266.2707670820
  21
 4698.8796618006
  31
0.0
   0
LINE
   5
149
 100
AcDbEntity
   8
LEVEL001
 370
13
 100
AcDbLine
   6
DASHDOT
  62
6
  10
 3155.2707500424
  20
 4663.8796618006
  30
0.0
  11
 3155.2707500424
  21
 4633.8796618006
  31
0.0
   0
LINE
   5
14A
 100
AcDbEntity
   8
LEVEL001
 370
13
 100
AcDbLine
   6
DASHDOT
  62
6
  10
 3170.2707500424
  20
 4648.8796618006
  30
0.0
  11
 3140.2707500424
  21
 4648.8796618006
  31
0.0
   0
LINE
   5
14B
 100
AcDbEntity
   8
LEVEL001
 370
13
 100
AcDbLine
   6
DASHDOT
  62
6
  10
 3155.2707500424
  20
 4603.8796618006
  30
0.0
  11
 3155.2707500424
  21
 4573.8796618006
  31
0.0
   0
LINE
   5
14C
 100
AcDbEntity
   8
LEVEL001
 370
13
 100
AcDbLine
   6
DASHDOT
  62
6
  10
 3170.2707500424
  20
 4588.8796618006
  30
0.0
  11
 3140.2707500424
  21
 4588.8796618006
  31
0.0
   0
LINE
   5
14D
 100
AcDbEntity
   8
LEVEL001
 370
13
 100
AcDbLine
   6
DASHDOT
  62
6
  10
 2768.4832415438
  20
 4738.8796618006
  30
0.0
  11
 2768.4832415438
  21
 4708.8796618006
  31
0.0
   0
LINE
   5
14E
 100
AcDbEntity
   8
LEVEL001
 370
13
 100
AcDbLine
   6
DASHDOT
  62
6
  10
 2783.4832415438
  20
 4723.8796618006
  30
0.0
  11
 2753.4832415438
  21
 4723.8796618006
  31
0.0
   0
LINE
   5
14F
 100
AcDbEntity
   8
LEVEL001
 370
13
 100
AcDbLine
   6
DASHDOT
  62
6
  10
 2768.4832415438
  20
 4678.8796618006
  30
0.0
  11
 2768.4832415438
  21
 4648.8796618006
  31
0.0
   0
LINE
   5
150
 100
AcDbEntity
   8
LEVEL001
 370
13
 100
AcDbLine
   6
DASHDOT
  62
6
  10
 2783.4832415438
  20
 4663.8796618006
  30
0.0
  11
 2753.4832415438
  21
 4663.8796618006
  31
0.0
   0
LINE
   5
151
 100
AcDbEntity
   8
LEVEL001
 370
13
 100
AcDbLine
   6
DASHDOT
  62
6
  10
 2832.6323642012
  20
 4689.4650756195
  30
0.0
  11
 2802.6323642012
  21
 4689.4650756195
  31
0.0
   0
LINE
   5
152
 100
AcDbEntity
   8
LEVEL001
 370
13
 100
AcDbLine
   6
DASHDOT
  62
6
  10
 2817.6323642012
  20
 4704.4650756196
  30
0.0
  11
 2817.6323642012
  21
 4674.4650756196
  31
0.0
   0
LINE
   5
153
 100
AcDbEntity
   8
LEVEL001
 370
13
 100
AcDbLine
   6
CONTINUOUS
  62
7
  10
 2848.4832415438
  20
 4638.8796618006
  30
0.0
  11
 2961.2665965108
  21
 4638.8796618006
  31
0.0
   0
LINE
   5
154
 100
AcDbEntity
   8
LEVEL001
 370
13
 100
AcDbLine
   6
CONTINUOUS
  62
7
  10
 2961.2665965108
  20
 4638.8796618006
  30
0.0
  11
 2961.2665965108
  21
 4748.8796618006
  31
0.0
   0
LINE
   5
155
 100
AcDbEntity
   8
LEVEL001
 370
13
 100
AcDbLine
   6
CONTINUOUS
  62
7
  10
 2961.2665965108
  20
 4748.8796618006
  30
0.0
  11
 2848.4832415438
  21
 4748.8796618006
  31
0.0
   0
LINE
   5
156
 100
AcDbEntity
   8
LEVEL001
 370
13
 100
AcDbLine
   6
CONTINUOUS
  62
7
  10
 2793.4832415438
  20
 4748.8796618006
  30
0.0
  11
 2848.4832415438
  21
 4748.8796618006
  31
0.0
   0
LINE
   5
157
 100
AcDbEntity
   8
LEVEL001
 370
13
 100
AcDbLine
   6
CONTINUOUS
  62
7
  10
 2848.4832415438
  20
 4748.8796618006
  30
0.0
  11
 2848.4832415438
  21
 4638.8796618006
  31
0.0
   0
LINE
   5
158
 100
AcDbEntity
   8
LEVEL001
 370
13
 100
AcDbLine
   6
CONTINUOUS
  62
7
  10
 2848.4832415438
  20
 4638.8796618006
  30
0.0
  11
 2793.4832415438
  21
 4638.8796618006
  31
0.0
   0
LINE
   5
159
 100
AcDbEntity
   8
LEVEL001
 370
13
 100
AcDbLine
   6
CONTINUOUS
  62
3
  10
 2761.4832415438
  20
 4716.8796618006
  30
0.0
  11
 2775.4832415438
  21
 4716.8796618006
  31
0.0
   0
LINE
   5
15A
 100
AcDbEntity
   8
LEVEL001
 370
13
 100
AcDbLine
   6
CONTINUOUS
  62
3
  10
 2775.4832415438
  20
 4716.8796618006
  30
0.0
  11
 2775.4832415438
  21
 4730.8796618006
  31
0.0
   0
LINE
   5
15B
 100
AcDbEntity
   8
LEVEL001
 370
13
 100
AcDbLine
   6
CONTINUOUS
  62
3
  10
 2775.4832415438
  20
 4730.8796618006
  30
0.0
  11
 2761.4832415438
  21
 4730.8796618006
  31
0.0
   0
LINE
   5
15C
 100
AcDbEntity
   8
LEVEL001
 370
13
 100
AcDbLine
   6
CONTINUOUS
  62
3
  10
 2761.4832415438
  20
 4730.8796618006
  30
0.0
  11
 2761.4832415438
  21
 4716.8796618006
  31
0.0
   0
LINE
   5
15D
 100
AcDbEntity
   8
LEVEL001
 370
13
 100
AcDbLine
   6
CONTINUOUS
  62
3
  10
 2761.4832415438
  20
 4656.8796618006
  30
0.0
  11
 2775.4832415438
  21
 4656.8796618006
  31
0.0
   0
LINE
   5
15E
 100
AcDbEntity
   8
LEVEL001
 370
13
 100
AcDbLine
   6
CONTINUOUS
  62
3
  10
 2775.4832415438
  20
 4656.8796618006
  30
0.0
  11
 2775.4832415438
  21
 4670.8796618006
  31
0.0
   0
LINE
   5
15F
 100
AcDbEntity
   8
LEVEL001
 370
13
 100
AcDbLine
   6
CONTINUOUS
  62
3
  10
 2775.4832415438
  20
 4670.8796618006
  30
0.0
  11
 2761.4832415438
  21
 4670.8796618006
  31
0.0
   0
LINE
   5
160
 100
AcDbEntity
   8
LEVEL001
 370
13
 100
AcDbLine
   6
CONTINUOUS
  62
3
  10
 2761.4832415438
  20
 4670.8796618006
  30
0.0
  11
 2761.4832415438
  21
 4656.8796618006
  31
0.0
   0
ARC
   5
161
 100
AcDbEntity
   8
LEVEL001
 370
13
   6
CONTINUOUS
  62
3
 100
AcDbCircle
  10
 2768.4832415438
  20
 4723.8796618005
  30
0.0
  40
 52.000000000000
 100
AcDbArc
  50
 298.73565374498
  51
 325.00000000001
   0
ARC
   5
162
 100
AcDbEntity
   8
LEVEL001
 370
13
   6
CONTINUOUS
  62
3
 100
AcDbCircle
  10
 2817.6323642014
  20
 4689.4650756199
  30
0.0
  40
 8.0000000000000
 100
AcDbArc
  50
 324.99999999581
  51
 144.99999999581
   0
ARC
   5
163
 100
AcDbEntity
   8
LEVEL001
 370
13
   6
CONTINUOUS
  62
3
 100
AcDbCircle
  10
 2768.4832415438
  20
 4723.8796618005
  30
0.0
  40
 68.000000000000
 100
AcDbArc
  50
 291.57057830168
  51
 325.00000000003
   0
LINE
   5
164
 100
AcDbEntity
   8
LEVEL001
 370
13
 100
AcDbLine
   6
CONTINUOUS
  62
3
  10
 2934.2665965108
  20
 4716.8796618006
  30
0.0
  11
 2948.2665965108
  21
 4716.8796618006
  31
0.0
   0
LINE
   5
165
 100
AcDbEntity
   8
LEVEL001
 370
13
 100
AcDbLine
   6
CONTINUOUS
  62
3
  10
 2948.2665965108
  20
 4716.8796618006
  30
0.0
  11
 2948.2665965108
  21
 4730.8796618006
  31
0.0
   0
LINE
   5
166
 100
AcDbEntity
   8
LEVEL001
 370
13
 100
AcDbLine
   6
CONTINUOUS
  62
3
  10
 2948.2665965108
  20
 4730.8796618006
  30
0.0
  11
 2934.2665965108
  21
 4730.8796618006
  31
0.0
   0
LINE
   5
167
 100
AcDbEntity
   8
LEVEL001
 370
13
 100
AcDbLine
   6
CONTINUOUS
  62
3
  10
 2934.2665965108
  20
 4730.8796618006
  30
0.0
  11
 2934.2665965108
  21
 4716.8796618006
  31
0.0
   0
LINE
   5
168
 100
AcDbEntity
   8
LEVEL001
 370
13
 100
AcDbLine
   6
CONTINUOUS
  62
3
  10
 2934.2665965108
  20
 4656.8796618006
  30
0.0
  11
 2948.2665965108
  21
 4656.8796618006
  31
0.0
   0
LINE
   5
169
 100
AcDbEntity
   8
LEVEL001
 370
13
 100
AcDbLine
   6
CONTINUOUS
  62
3
  10
 2948.2665965108
  20
 4656.8796618006
  30
0.0
  11
 2948.2665965108
  21
 4670.8796618006
  31
0.0
   0
LINE
   5
16A
 100
AcDbEntity
   8
LEVEL001
 370
13
 100
AcDbLine
   6
CONTINUOUS
  62
3
  10
 2948.2665965108
  20
 4670.8796618006
  30
0.0
  11
 2934.2665965108
  21
 4670.8796618006
  31
0.0
   0
LINE
   5
16B
 100
AcDbEntity
   8
LEVEL001
 370
13
 100
AcDbLine
   6
CONTINUOUS
  62
3
  10
 2934.2665965108
  20
 4670.8796618006
  30
0.0
  11
 2934.2665965108
  21
 4656.8796618006
  31
0.0
   0
LINE
   5
16C
 100
AcDbEntity
   8
LEVEL001
 370
13
 100
AcDbLine
   6
CONTINUOUS
  62
6
  10
 3514.8469110598
  20
 4743.8796618006
  30
0.0
  11
 3514.8469110598
  21
 4643.8796618006
  31
0.0
   0
LINE
   5
16D
 100
AcDbEntity
   8
LEVEL001
 370
13
 100
AcDbLine
   6
DASHDOT
  62
6
  10
 3450.2749206136
  20
 4693.8796618006
  30
0.0
  11
 3849.0915407530
  21
 4693.8796618006
  31
0.0
   0
LINE
   5
16E
 100
AcDbEntity
   8
LEVEL001
 370
13
 100
AcDbLine
   6
DASHDOT
  62
6
  10
 3495.2749206136
  20
 4738.8796618006
  30
0.0
  11
 3495.2749206136
  21
 4708.8796618006
  31
0.0
   0
LINE
   5
16F
 100
AcDbEntity
   8
LEVEL001
 370
13
 100
AcDbLine
   6
DASHDOT
  62
6
  10
 3480.2749206136
  20
 4723.8796618006
  30
0.0
  11
 3510.2749206136
  21
 4723.8796618006
  31
0.0
   0
LINE
   5
170
 100
AcDbEntity
   8
LEVEL001
 370
13
 100
AcDbLine
   6
DASHDOT
  62
6
  10
 3495.2749206136
  20
 4678.8796618006
  30
0.0
  11
 3495.2749206136
  21
 4648.8796618006
  31
0.0
   0
LINE
   5
171
 100
AcDbEntity
   8
LEVEL001
 370
13
 100
AcDbLine
   6
CONTINUOUS
  62
3
  10
 3502.2749206136
  20
 4716.8796618006
  30
0.0
  11
 3488.2749206136
  21
 4716.8796618006
  31
0.0
   0
LINE
   5
172
 100
AcDbEntity
   8
LEVEL001
 370
13
 100
AcDbLine
   6
CONTINUOUS
  62
3
  10
 3488.2749206136
  20
 4716.8796618006
  30
0.0
  11
 3488.2749206136
  21
 4730.8796618006
  31
0.0
   0
LINE
   5
173
 100
AcDbEntity
   8
LEVEL001
 370
13
 100
AcDbLine
   6
CONTINUOUS
  62
3
  10
 3488.2749206136
  20
 4730.8796618006
  30
0.0
  11
 3502.2749206136
  21
 4730.8796618006
  31
0.0
   0
LINE
   5
174
 100
AcDbEntity
   8
LEVEL001
 370
13
 100
AcDbLine
   6
CONTINUOUS
  62
3
  10
 3502.2749206136
  20
 4730.8796618006
  30
0.0
  11
 3502.2749206136
  21
 4716.8796618006
  31
0.0
   0
LINE
   5
175
 100
AcDbEntity
   8
LEVEL001
 370
13
 100
AcDbLine
   6
CONTINUOUS
  62
3
  10
 3502.2749206136
  20
 4656.8796618006
  30
0.0
  11
 3488.2749206136
  21
 4656.8796618006
  31
0.0
   0
LINE
   5
176
 100
AcDbEntity
   8
LEVEL001
 370
13
 100
AcDbLine
   6
CONTINUOUS
  62
3
  10
 3488.2749206136
  20
 4656.8796618006
  30
0.0
  11
 3488.2749206136
  21
 4670.8796618006
  31
0.0
   0
LINE
   5
177
 100
AcDbEntity
   8
LEVEL001
 370
13
 100
AcDbLine
   6
CONTINUOUS
  62
3
  10
 3488.2749206136
  20
 4670.8796618006
  30
0.0
  11
 3502.2749206136
  21
 4670.8796618006
  31
0.0
   0
LINE
   5
178
 100
AcDbEntity
   8
LEVEL001
 370
13
 100
AcDbLine
   6
CONTINUOUS
  62
3
  10
 3502.2749206136
  20
 4670.8796618006
  30
0.0
  11
 3502.2749206136
  21
 4656.8796618006
  31
0.0
   0
LINE
   5
179
 100
AcDbEntity
   8
LEVEL001
 370
13
 100
AcDbLine
   6
DASHDOT
  62
6
  10
 3480.2749206136
  20
 4663.8796618006
  30
0.0
  11
 3510.2749206136
  21
 4663.8796618006
  31
0.0
   0
LINE
   5
17A
 100
AcDbEntity
   8
LEVEL001
 370
13
 100
AcDbLine
   6
DASHDOT
  62
6
  10
 3668.0582755806
  20
 4738.8796618006
  30
0.0
  11
 3668.0582755806
  21
 4708.8796618006
  31
0.0
   0
LINE
   5
17B
 100
AcDbEntity
   8
LEVEL001
 370
13
 100
AcDbLine
   6
DASHDOT
  62
6
  10
 3653.0582755806
  20
 4723.8796618006
  30
0.0
  11
 3683.0582755806
  21
 4723.8796618006
  31
0.0
   0
LINE
   5
17C
 100
AcDbEntity
   8
LEVEL001
 370
13
 100
AcDbLine
   6
DASHDOT
  62
6
  10
 3668.0582755806
  20
 4678.8796618006
  30
0.0
  11
 3668.0582755806
  21
 4648.8796618006
  31
0.0
   0
LINE
   5
17D
 100
AcDbEntity
   8
LEVEL001
 370
13
 100
AcDbLine
   6
DASHDOT
  62
6
  10
 3653.0582755806
  20
 4663.8796618006
  30
0.0
  11
 3683.0582755806
  21
 4663.8796618006
  31
0.0
   0
LINE
   5
17E
 100
AcDbEntity
   8
LEVEL001
 370
13
 100
AcDbLine
   6
DASHDOT
  62
6
  10
 3603.9091529232
  20
 4689.4650756195
  30
0.0
  11
 3633.9091529232
  21
 4689.4650756195
  31
0.0
   0
LINE
   5
17F
 100
AcDbEntity
   8
LEVEL001
 370
13
 100
AcDbLine
   6
DASHDOT
  62
6
  10
 3618.9091529232
  20
 4704.4650756196
  30
0.0
  11
 3618.9091529232
  21
 4674.4650756196
  31
0.0
   0
LINE
   5
180
 100
AcDbEntity
   8
LEVEL001
 370
13
 100
AcDbLine
   6
CONTINUOUS
  62
7
  10
 3643.0582755806
  20
 4748.8796618006
  30
0.0
  11
 3588.0582755806
  21
 4748.8796618006
  31
0.0
   0
LINE
   5
181
 100
AcDbEntity
   8
LEVEL001
 370
13
 100
AcDbLine
   6
CONTINUOUS
  62
7
  10
 3588.0582755806
  20
 4748.8796618006
  30
0.0
  11
 3588.0582755806
  21
 4638.8796618006
  31
0.0
   0
LINE
   5
182
 100
AcDbEntity
   8
LEVEL001
 370
13
 100
AcDbLine
   6
CONTINUOUS
  62
7
  10
 3588.0582755806
  20
 4638.8796618006
  30
0.0
  11
 3643.0582755806
  21
 4638.8796618006
  31
0.0
   0
LINE
   5
183
 100
AcDbEntity
   8
LEVEL001
 370
13
 100
AcDbLine
   6
CONTINUOUS
  62
3
  10
 3675.0582755806
  20
 4716.8796618006
  30
0.0
  11
 3661.0582755806
  21
 4716.8796618006
  31
0.0
   0
LINE
   5
184
 100
AcDbEntity
   8
LEVEL001
 370
13
 100
AcDbLine
   6
CONTINUOUS
  62
3
  10
 3661.0582755806
  20
 4716.8796618006
  30
0.0
  11
 3661.0582755806
  21
 4730.8796618006
  31
0.0
   0
LINE
   5
185
 100
AcDbEntity
   8
LEVEL001
 370
13
 100
AcDbLine
   6
CONTINUOUS
  62
3
  10
 3661.0582755806
  20
 4730.8796618006
  30
0.0
  11
 3675.0582755806
  21
 4730.8796618006
  31
0.0
   0
LINE
   5
186
 100
AcDbEntity
   8
LEVEL001
 370
13
 100
AcDbLine
   6
CONTINUOUS
  62
3
  10
 3675.0582755806
  20
 4730.8796618006
  30
0.0
  11
 3675.0582755806
  21
 4716.8796618006
  31
0.0
   0
LINE
   5
187
 100
AcDbEntity
   8
LEVEL001
 370
13
 100
AcDbLine
   6
CONTINUOUS
  62
3
  10
 3675.0582755806
  20
 4656.8796618006
  30
0.0
  11
 3661.0582755806
  21
 4656.8796618006
  31
0.0
   0
LINE
   5
188
 100
AcDbEntity
   8
LEVEL001
 370
13
 100
AcDbLine
   6
CONTINUOUS
  62
3
  10
 3661.0582755806
  20
 4656.8796618006
  30
0.0
  11
 3661.0582755806
  21
 4670.8796618006
  31
0.0
   0
LINE
   5
189
 100
AcDbEntity
   8
LEVEL001
 370
13
 100
AcDbLine
   6
CONTINUOUS
  62
3
  10
 3661.0582755806
  20
 4670.8796618006
  30
0.0
  11
 3675.0582755806
  21
 4670.8796618006
  31
0.0
   0
LINE
   5
18A
 100
AcDbEntity
   8
LEVEL001
 370
13
 100
AcDbLine
   6
CONTINUOUS
  62
3
  10
 3675.0582755806
  20
 4670.8796618006
  30
0.0
  11
 3675.0582755806
  21
 4656.8796618006
  31
0.0
   0
ARC
   5
18B
 100
AcDbEntity
   8
LEVEL001
 370
13
   6
CONTINUOUS
  62
3
 100
AcDbCircle
  10
 3668.0582755807
  20
 4723.8796618005
  30
0.0
  40
 52.000000000000
 100
AcDbArc
  50
 214.99999999996
  51
 241.26434625496
   0
ARC
   5
18C
 100
AcDbEntity
   8
LEVEL001
 370
13
   6
CONTINUOUS
  62
3
 100
AcDbCircle
  10
 3618.9091529230
  20
 4689.4650756199
  30
0.0
  40
 8.0000000000000
 100
AcDbArc
  50
 35.000000004186
  51
 215.00000000419
   0
ARC
   5
18D
 100
AcDbEntity
   8
LEVEL001
 370
13
   6
CONTINUOUS
  62
3
 100
AcDbCircle
  10
 3668.0582755807
  20
 4723.8796618005
  30
0.0
  40
 68.000000000000
 100
AcDbArc
  50
 214.99999999997
  51
 248.42942169830
   0
LINE
   5
18E
 100
AcDbEntity
   8
LEVEL001
 370
13
 100
AcDbLine
   6
CONTINUOUS
  62
7
  10
 3588.0582755806
  20
 4638.8796618006
  30
0.0
  11
 3475.2749206136
  21
 4638.8796618006
  31
0.0
   0
LINE
   5
18F
 100
AcDbEntity
   8
LEVEL001
 370
13
 100
AcDbLine
   6
CONTINUOUS
  62
7
  10
 3475.2749206136
  20
 4638.8796618006
  30
0.0
  11
 3475.2749206136
  21
 4748.8796618006
  31
0.0
   0
LINE
   5
190
 100
AcDbEntity
   8
LEVEL001
 370
13
 100
AcDbLine
   6
CONTINUOUS
  62
7
  10
 3475.2749206136
  20
 4748.8796618006
  30
0.0
  11
 3588.0582755806
  21
 4748.8796618006
  31
0.0
   0
LINE
   5
191
 100
AcDbEntity
   8
LEVEL001
 370
13
 100
AcDbLine
   6
CONTINUOUS
  62
3
  10
 3274.2707670820
  20
 4751.8796618006
  30
0.0
  11
 3288.2707670820
  21
 4751.8796618006
  31
0.0
   0
LINE
   5
192
 100
AcDbEntity
   8
LEVEL001
 370
13
 100
AcDbLine
   6
CONTINUOUS
  62
3
  10
 3288.2707670820
  20
 4751.8796618006
  30
0.0
  11
 3288.2707670820
  21
 4765.8796618006
  31
0.0
   0
LINE
   5
193
 100
AcDbEntity
   8
LEVEL001
 370
13
 100
AcDbLine
   6
CONTINUOUS
  62
3
  10
 3288.2707670820
  20
 4765.8796618006
  30
0.0
  11
 3274.2707670820
  21
 4765.8796618006
  31
0.0
   0
LINE
   5
194
 100
AcDbEntity
   8
LEVEL001
 370
13
 100
AcDbLine
   6
CONTINUOUS
  62
3
  10
 3274.2707670820
  20
 4765.8796618006
  30
0.0
  11
 3274.2707670820
  21
 4751.8796618006
  31
0.0
   0
LINE
   5
195
 100
AcDbEntity
   8
LEVEL001
 370
13
 100
AcDbLine
   6
CONTINUOUS
  62
3
  10
 3274.2707670820
  20
 4691.8796618006
  30
0.0
  11
 3288.2707670820
  21
 4691.8796618006
  31
0.0
   0
LINE
   5
196
 100
AcDbEntity
   8
LEVEL001
 370
13
 100
AcDbLine
   6
CONTINUOUS
  62
3
  10
 3288.2707670820
  20
 4691.8796618006
  30
0.0
  11
 3288.2707670820
  21
 4705.8796618006
  31
0.0
   0
LINE
   5
197
 100
AcDbEntity
   8
LEVEL001
 370
13
 100
AcDbLine
   6
CONTINUOUS
  62
3
  10
 3288.2707670820
  20
 4705.8796618006
  30
0.0
  11
 3274.2707670820
  21
 4705.8796618006
  31
0.0
   0
LINE
   5
198
 100
AcDbEntity
   8
LEVEL001
 370
13
 100
AcDbLine
   6
CONTINUOUS
  62
3
  10
 3274.2707670820
  20
 4705.8796618006
  30
0.0
  11
 3274.2707670820
  21
 4691.8796618006
  31
0.0
   0
LINE
   5
199
 100
AcDbEntity
   8
LEVEL001
 370
13
 100
AcDbLine
   6
CONTINUOUS
  62
3
  10
 3162.2707500424
  20
 4641.8796618006
  30
0.0
  11
 3148.2707500424
  21
 4641.8796618006
  31
0.0
   0
LINE
   5
19A
 100
AcDbEntity
   8
LEVEL001
 370
13
 100
AcDbLine
   6
CONTINUOUS
  62
3
  10
 3148.2707500424
  20
 4641.8796618006
  30
0.0
  11
 3148.2707500424
  21
 4655.8796618006
  31
0.0
   0
LINE
   5
19B
 100
AcDbEntity
   8
LEVEL001
 370
13
 100
AcDbLine
   6
CONTINUOUS
  62
3
  10
 3148.2707500424
  20
 4655.8796618006
  30
0.0
  11
 3162.2707500424
  21
 4655.8796618006
  31
0.0
   0
LINE
   5
19C
 100
AcDbEntity
   8
LEVEL001
 370
13
 100
AcDbLine
   6
CONTINUOUS
  62
3
  10
 3162.2707500424
  20
 4655.8796618006
  30
0.0
  11
 3162.2707500424
  21
 4641.8796618006
  31
0.0
   0
LINE
   5
19D
 100
AcDbEntity
   8
LEVEL001
 370
13
 100
AcDbLine
   6
CONTINUOUS
  62
3
  10
 3162.2707500424
  20
 4581.8796618006
  30
0.0
  11
 3148.2707500424
  21
 4581.8796618006
  31
0.0
   0
LINE
   5
19E
 100
AcDbEntity
   8
LEVEL001
 370
13
 100
AcDbLine
   6
CONTINUOUS
  62
3
  10
 3148.2707500424
  20
 4581.8796618006
  30
0.0
  11
 3148.2707500424
  21
 4595.8796618006
  31
0.0
   0
LINE
   5
19F
 100
AcDbEntity
   8
LEVEL001
 370
13
 100
AcDbLine
   6
CONTINUOUS
  62
3
  10
 3148.2707500424
  20
 4595.8796618006
  30
0.0
  11
 3162.2707500424
  21
 4595.8796618006
  31
0.0
   0
LINE
   5
1A0
 100
AcDbEntity
   8
LEVEL001
 370
13
 100
AcDbLine
   6
CONTINUOUS
  62
3
  10
 3162.2707500424
  20
 4595.8796618006
  30
0.0
  11
 3162.2707500424
  21
 4581.8796618006
  31
0.0
   0
LINE
   5
1A1
 100
AcDbEntity
   8
LEVEL001
 370
13
 100
AcDbLine
   6
CONTINUOUS
  62
6
  10
 3260.8354839072
  20
 4778.8796618006
  30
0.0
  11
 3260.8354839072
  21
 4678.8796618006
  31
0.0
   0
LINE
   5
1A2
 100
AcDbEntity
   8
LEVEL001
 370
13
 100
AcDbLine
   6
CONTINUOUS
  62
6
  10
 3175.7060332172
  20
 4668.8796618006
  30
0.0
  11
 3175.7060332172
  21
 4568.8796618006
  31
0.0
   0
MTEXT
   5
1A3
 100
AcDbEntity
   8
LEVEL001
 370
13
  62
1
 100
AcDbMText
  10
 3218.2707585622
  20
 5493.8796618006
  30
0.0
  40
 57.142857142858
  41
0.0
  71
5
  72
1
   1
\T1.000000;側　面　図
   7
GMM001
  44
 0.79999984000003
   0
MTEXT
   5
1A4
 100
AcDbEntity
   8
LEVEL001
 370
13
  62
1
 100
AcDbMText
  10
 6730.2707585622
  20
 1433.8796618006
  30
0.0
  40
 51.428571428572
  41
0.0
  71
6
  72
1
   1
\T1.000000;２
   7
GMM001
  44
 0.79999984000003
   0
MTEXT
   5
1A5
 100
AcDbEntity
   8
LEVEL001
 370
13
  62
1
 100
AcDbMText
  10
 1518.2707585622
  20
 5493.8796618006
  30
0.0
  40
 57.142857142858
  41
0.0
  71
5
  72
1
   1
\T1.000000;正　面　図
   7
GMM001
  44
 0.79999984000003
   0
MTEXT
   5
1A6
 100
AcDbEntity
   8
LEVEL001
 370
13
  62
1
 100
AcDbMText
  10
 4518.2707585622
  20
 5493.8796618006
  30
0.0
  40
 57.142857142858
  41
0.0
  71
5
  72
1
   1
\T1.000000;背　面　図
   7
GMM001
  44
 0.79999984000003
   0
ARC
   5
1A7
 100
AcDbEntity
   8
LEVEL001
 370
13
   6
CONTINUOUS
  62
7
 100
AcDbCircle
  10
 4185.7707585622
  20
 4926.3796618006
  30
0.0
  40
 65.000000000000
 100
AcDbArc
  50
 90.000000000000
  51
 180.00000000000
   0
LINE
   5
1A8
 100
AcDbEntity
   8
LEVEL001
 370
13
 100
AcDbLine
   6
CONTINUOUS
  62
7
  10
 4850.7707585622
  20
 4991.3796618006
  30
0.0
  11
 4185.7707585622
  21
 4991.3796618006
  31
0.0
   0
ARC
   5
1A9
 100
AcDbEntity
   8
LEVEL001
 370
13
   6
CONTINUOUS
  62
7
 100
AcDbCircle
  10
 4850.7707585622
  20
 4926.3796618006
  30
0.0
  40
 65.000000000000
 100
AcDbArc
  50
0.0
  51
 90.000000000000
   0
LINE
   5
1AA
 100
AcDbEntity
   8
LEVEL001
 370
13
 100
AcDbLine
   6
CONTINUOUS
  62
7
  10
 4120.7707585622
  20
 4926.3796618006
  30
0.0
  11
 4120.7707585622
  21
 4461.3796618006
  31
0.0
   0
ARC
   5
1AB
 100
AcDbEntity
   8
LEVEL001
 370
13
   6
CONTINUOUS
  62
7
 100
AcDbCircle
  10
 4185.7707585622
  20
 4461.3796618006
  30
0.0
  40
 65.000000000000
 100
AcDbArc
  50
 180.00000000000
  51
 270.00000000000
   0
LINE
   5
1AC
 100
AcDbEntity
   8
LEVEL001
 370
13
 100
AcDbLine
   6
CONTINUOUS
  62
7
  10
 4185.7707585622
  20
 4396.3796618006
  30
0.0
  11
 4850.7707585622
  21
 4396.3796618006
  31
0.0
   0
LINE
   5
1AD
 100
AcDbEntity
   8
LEVEL001
 370
13
 100
AcDbLine
   6
CONTINUOUS
  62
7
  10
 4915.7707585622
  20
 4461.3796618006
  30
0.0
  11
 4915.7707585622
  21
 4926.3796618006
  31
0.0
   0
ARC
   5
1AE
 100
AcDbEntity
   8
LEVEL001
 370
13
   6
CONTINUOUS
  62
7
 100
AcDbCircle
  10
 4850.7707585622
  20
 4461.3796618006
  30
0.0
  40
 65.000000000000
 100
AcDbArc
  50
 270.00000000000
  51
0.0
   0
LINE
   5
1AF
 100
AcDbEntity
   8
LEVEL001
 370
13
 100
AcDbLine
   6
DASHDOT
  62
6
  10
 4568.2707585622
  20
 4758.8796618006
  30
0.0
  11
 4568.2707585622
  21
 4728.8796618006
  31
0.0
   0
LINE
   5
1B0
 100
AcDbEntity
   8
LEVEL001
 370
13
 100
AcDbLine
   6
DASHDOT
  62
6
  10
 4553.2707585622
  20
 4743.8796618006
  30
0.0
  11
 4583.2707585622
  21
 4743.8796618006
  31
0.0
   0
CIRCLE
   5
1B1
 100
AcDbEntity
   8
LEVEL001
 370
13
 100
AcDbCircle
   6
CONTINUOUS
  62
3
  10
 4568.2707585622
  20
 4743.8796618006
  30
0.0
  40
 7.0000000000000
   0
LINE
   5
1B2
 100
AcDbEntity
   8
LEVEL001
 370
13
 100
AcDbLine
   6
DASHDOT
  62
6
  10
 4568.2707585622
  20
 4658.8796618006
  30
0.0
  11
 4568.2707585622
  21
 4628.8796618006
  31
0.0
   0
LINE
   5
1B3
 100
AcDbEntity
   8
LEVEL001
 370
13
 100
AcDbLine
   6
DASHDOT
  62
6
  10
 4553.2707585622
  20
 4643.8796618006
  30
0.0
  11
 4583.2707585622
  21
 4643.8796618006
  31
0.0
   0
CIRCLE
   5
1B4
 100
AcDbEntity
   8
LEVEL001
 370
13
 100
AcDbCircle
   6
CONTINUOUS
  62
3
  10
 4568.2707585622
  20
 4643.8796618006
  30
0.0
  40
 7.0000000000000
   0
LINE
   5
1B5
 100
AcDbEntity
   8
LEVEL001
 370
13
 100
AcDbLine
   6
DASHDOT
  62
6
  10
 4468.2707585622
  20
 4658.8796618006
  30
0.0
  11
 4468.2707585622
  21
 4628.8796618006
  31
0.0
   0
LINE
   5
1B6
 100
AcDbEntity
   8
LEVEL001
 370
13
 100
AcDbLine
   6
DASHDOT
  62
6
  10
 4453.2707585622
  20
 4643.8796618006
  30
0.0
  11
 4483.2707585622
  21
 4643.8796618006
  31
0.0
   0
CIRCLE
   5
1B7
 100
AcDbEntity
   8
LEVEL001
 370
13
 100
AcDbCircle
   6
CONTINUOUS
  62
3
  10
 4468.2707585622
  20
 4643.8796618006
  30
0.0
  40
 7.0000000000000
   0
LINE
   5
1B8
 100
AcDbEntity
   8
LEVEL001
 370
13
 100
AcDbLine
   6
DASHDOT
  62
6
  10
 4468.2707585622
  20
 4758.8796618006
  30
0.0
  11
 4468.2707585622
  21
 4728.8796618006
  31
0.0
   0
LINE
   5
1B9
 100
AcDbEntity
   8
LEVEL001
 370
13
 100
AcDbLine
   6
DASHDOT
  62
6
  10
 4453.2707585622
  20
 4743.8796618006
  30
0.0
  11
 4483.2707585622
  21
 4743.8796618006
  31
0.0
   0
CIRCLE
   5
1BA
 100
AcDbEntity
   8
LEVEL001
 370
13
 100
AcDbCircle
   6
CONTINUOUS
  62
3
  10
 4468.2707585622
  20
 4743.8796618006
  30
0.0
  40
 7.0000000000000
   0
LINE
   5
1BB
 100
AcDbEntity
   8
LEVEL001
 370
13
 100
AcDbLine
   6
DASHDOT
  62
6
  10
 4043.2707585622
  20
 4693.8796618006
  30
0.0
  11
 4993.2707585622
  21
 4693.8796618006
  31
0.0
   0
LINE
   5
1BC
 100
AcDbEntity
   8
LEVEL001
 370
13
 100
AcDbLine
   6
DASHDOT
  62
6
  10
 4518.2707585622
  20
 5068.8796618006
  30
0.0
  11
 4518.2707585622
  21
 4318.8796618006
  31
0.0
   0
ARC
   5
1BD
 100
AcDbEntity
   8
LEVEL001
 370
13
   6
CONTINUOUS
  62
6
 100
AcDbCircle
  10
 4836.5107784598
  20
 4932.0592993341
  30
0.0
  40
 22.500000000000
 100
AcDbArc
  50
 306.81219798806
  51
 36.812197988096
   0
ARC
   5
1BE
 100
AcDbEntity
   8
LEVEL001
 370
13
   6
CONTINUOUS
  62
6
 100
AcDbCircle
  10
 4836.5107784598
  20
 4932.0592993341
  30
0.0
  40
 22.500000000000
 100
AcDbArc
  50
 36.812197988093
  51
 126.81219798812
   0
LINE
   5
1BF
 100
AcDbEntity
   8
LEVEL001
 370
13
 100
AcDbLine
   6
CONTINUOUS
  62
6
  10
 4823.0289121844
  20
 4950.0728853661
  30
0.0
  11
 4666.9111665742
  21
 4833.2300443119
  31
0.0
   0
LINE
   5
1C0
 100
AcDbEntity
   8
LEVEL001
 370
13
 100
AcDbLine
   6
CONTINUOUS
  62
6
  10
 4693.8748991252
  20
 4797.2028722481
  30
0.0
  11
 4849.9926447354
  21
 4914.0457133021
  31
0.0
   0
ARC
   5
1C1
 100
AcDbEntity
   8
LEVEL001
 370
13
   6
CONTINUOUS
  62
6
 100
AcDbCircle
  10
 4680.3930328498
  20
 4815.2164582799
  30
0.0
  40
 22.500000000000
 100
AcDbArc
  50
 216.81219798809
  51
 306.81219798812
   0
ARC
   5
1C2
 100
AcDbEntity
   8
LEVEL001
 370
13
   6
CONTINUOUS
  62
6
 100
AcDbCircle
  10
 4680.3930328498
  20
 4815.2164582802
  30
0.0
  40
 22.500000000000
 100
AcDbArc
  50
 126.81219798809
  51
 216.81219798812
   0
ARC
   5
1C3
 100
AcDbEntity
   8
LEVEL001
 370
13
   6
CONTINUOUS
  62
6
 100
AcDbCircle
  10
 4558.2707585622
  20
 4841.0402883281
  30
0.0
  40
 10.000000000000
 100
AcDbArc
  50
 179.99999999999
  51
 254.79371212387
   0
ARC
   5
1C4
 100
AcDbEntity
   8
LEVEL001
 370
13
   6
CONTINUOUS
  62
6
 100
AcDbCircle
  10
 4518.2707585622
  20
 4693.8796618006
  30
0.0
  40
 142.50000000000
 100
AcDbArc
  50
 15.206287876058
  51
 74.793712123951
   0
LINE
   5
1C5
 100
AcDbEntity
   8
LEVEL001
 370
13
 100
AcDbLine
   6
CONTINUOUS
  62
6
  10
 4548.2707585622
  20
 4933.8796618006
  30
0.0
  11
 4548.2707585622
  21
 4841.0402883282
  31
0.0
   0
ARC
   5
1C6
 100
AcDbEntity
   8
LEVEL001
 370
13
   6
CONTINUOUS
  62
6
 100
AcDbCircle
  10
 4518.2707585622
  20
 4933.8796618006
  30
0.0
  40
 30.000000000000
 100
AcDbArc
  50
0.0
  51
 90.000000000000
   0
ARC
   5
1C7
 100
AcDbEntity
   8
LEVEL001
 370
13
   6
CONTINUOUS
  62
6
 100
AcDbCircle
  10
 4478.2707585622
  20
 4841.0402883282
  30
0.0
  40
 10.000000000000
 100
AcDbArc
  50
 285.20628787605
  51
 359.99999999998
   0
ARC
   5
1C8
 100
AcDbEntity
   8
LEVEL001
 370
13
   6
CONTINUOUS
  62
6
 100
AcDbCircle
  10
 4518.2707585622
  20
 4693.8796618005
  30
0.0
  40
 142.50000000000
 100
AcDbArc
  50
 105.20628787607
  51
 164.79371212393
   0
LINE
   5
1C9
 100
AcDbEntity
   8
LEVEL001
 370
13
 100
AcDbLine
   6
CONTINUOUS
  62
6
  10
 4488.2707585622
  20
 4841.0402883282
  30
0.0
  11
 4488.2707585622
  21
 4933.8796618006
  31
0.0
   0
ARC
   5
1CA
 100
AcDbEntity
   8
LEVEL001
 370
13
   6
CONTINUOUS
  62
6
 100
AcDbCircle
  10
 4518.2707585622
  20
 4933.8796618006
  30
0.0
  40
 30.000000000000
 100
AcDbArc
  50
 90.000000000000
  51
 180.00000000000
   0
ARC
   5
1CB
 100
AcDbEntity
   8
LEVEL001
 370
13
   6
CONTINUOUS
  62
6
 100
AcDbCircle
  10
 4371.1101320346
  20
 4733.8796618006
  30
0.0
  40
 10.000000000000
 100
AcDbArc
  50
 270.00000000002
  51
 344.79371212395
   0
LINE
   5
1CC
 100
AcDbEntity
   8
LEVEL001
 370
13
 100
AcDbLine
   6
CONTINUOUS
  62
6
  10
 4371.1101320346
  20
 4723.8796618006
  30
0.0
  11
 4180.7707585622
  21
 4723.8796618006
  31
0.0
   0
ARC
   5
1CD
 100
AcDbEntity
   8
LEVEL001
 370
13
   6
CONTINUOUS
  62
6
 100
AcDbCircle
  10
 4180.7707585622
  20
 4693.8796618006
  30
0.0
  40
 30.000000000000
 100
AcDbArc
  50
 90.000000000000
  51
 180.00000000000
   0
ARC
   5
1CE
 100
AcDbEntity
   8
LEVEL001
 370
13
   6
CONTINUOUS
  62
6
 100
AcDbCircle
  10
 4371.1101320346
  20
 4653.8796618006
  30
0.0
  40
 10.000000000000
 100
AcDbArc
  50
 15.206287876046
  51
 89.999999999984
   0
ARC
   5
1CF
 100
AcDbEntity
   8
LEVEL001
 370
13
   6
CONTINUOUS
  62
6
 100
AcDbCircle
  10
 4518.2707585622
  20
 4693.8796618005
  30
0.0
  40
 142.50000000000
 100
AcDbArc
  50
 195.20628787607
  51
 254.79371212393
   0
LINE
   5
1D0
 100
AcDbEntity
   8
LEVEL001
 370
13
 100
AcDbLine
   6
CONTINUOUS
  62
6
  10
 4180.7707585622
  20
 4663.8796618006
  30
0.0
  11
 4371.1101320346
  21
 4663.8796618006
  31
0.0
   0
ARC
   5
1D1
 100
AcDbEntity
   8
LEVEL001
 370
13
   6
CONTINUOUS
  62
6
 100
AcDbCircle
  10
 4180.7707585622
  20
 4693.8796618006
  30
0.0
  40
 30.000000000000
 100
AcDbArc
  50
 180.00000000000
  51
 270.00000000000
   0
ARC
   5
1D2
 100
AcDbEntity
   8
LEVEL001
 370
13
   6
CONTINUOUS
  62
6
 100
AcDbCircle
  10
 4478.2707585622
  20
 4546.7190352729
  30
0.0
  40
 10.000000000000
 100
AcDbArc
  50
 0.15633062370329E-10
  51
 74.793712123954
   0
LINE
   5
1D3
 100
AcDbEntity
   8
LEVEL001
 370
13
 100
AcDbLine
   6
CONTINUOUS
  62
6
  10
 4488.2707585622
  20
 4546.7190352729
  30
0.0
  11
 4488.2707585622
  21
 4453.8796618006
  31
0.0
   0
ARC
   5
1D4
 100
AcDbEntity
   8
LEVEL001
 370
13
   6
CONTINUOUS
  62
6
 100
AcDbCircle
  10
 4518.2707585622
  20
 4453.8796618006
  30
0.0
  40
 30.000000000000
 100
AcDbArc
  50
 180.00000000000
  51
 270.00000000000
   0
ARC
   5
1D5
 100
AcDbEntity
   8
LEVEL001
 370
13
   6
CONTINUOUS
  62
6
 100
AcDbCircle
  10
 4558.2707585622
  20
 4546.7190352729
  30
0.0
  40
 10.000000000000
 100
AcDbArc
  50
 105.20628787613
  51
 180.00000000001
   0
ARC
   5
1D6
 100
AcDbEntity
   8
LEVEL001
 370
13
   6
CONTINUOUS
  62
6
 100
AcDbCircle
  10
 4518.2707585622
  20
 4693.8796618005
  30
0.0
  40
 142.50000000000
 100
AcDbArc
  50
 285.20628787607
  51
 344.79371212393
   0
LINE
   5
1D7
 100
AcDbEntity
   8
LEVEL001
 370
13
 100
AcDbLine
   6
CONTINUOUS
  62
6
  10
 4548.2707585622
  20
 4453.8796618006
  30
0.0
  11
 4548.2707585622
  21
 4546.7190352729
  31
0.0
   0
ARC
   5
1D8
 100
AcDbEntity
   8
LEVEL001
 370
13
   6
CONTINUOUS
  62
6
 100
AcDbCircle
  10
 4518.2707585622
  20
 4453.8796618006
  30
0.0
  40
 30.000000000000
 100
AcDbArc
  50
 270.00000000000
  51
0.0
   0
ARC
   5
1D9
 100
AcDbEntity
   8
LEVEL001
 370
13
   6
CONTINUOUS
  62
6
 100
AcDbCircle
  10
 4665.4313850898
  20
 4653.8796618006
  30
0.0
  40
 10.000000000000
 100
AcDbArc
  50
 90.000000000016
  51
 164.79371212395
   0
LINE
   5
1DA
 100
AcDbEntity
   8
LEVEL001
 370
13
 100
AcDbLine
   6
CONTINUOUS
  62
6
  10
 4855.7707585622
  20
 4663.8796618006
  30
0.0
  11
 4665.4313850898
  21
 4663.8796618006
  31
0.0
   0
ARC
   5
1DB
 100
AcDbEntity
   8
LEVEL001
 370
13
   6
CONTINUOUS
  62
6
 100
AcDbCircle
  10
 4855.7707585622
  20
 4693.8796618006
  30
0.0
  40
 30.000000000000
 100
AcDbArc
  50
 270.00000000000
  51
0.0
   0
ARC
   5
1DC
 100
AcDbEntity
   8
LEVEL001
 370
13
   6
CONTINUOUS
  62
6
 100
AcDbCircle
  10
 4665.4313850898
  20
 4733.8796618006
  30
0.0
  40
 10.000000000000
 100
AcDbArc
  50
 195.20628787605
  51
 269.99999999998
   0
LINE
   5
1DD
 100
AcDbEntity
   8
LEVEL001
 370
13
 100
AcDbLine
   6
CONTINUOUS
  62
6
  10
 4665.4313850898
  20
 4723.8796618006
  30
0.0
  11
 4855.7707585622
  21
 4723.8796618006
  31
0.0
   0
ARC
   5
1DE
 100
AcDbEntity
   8
LEVEL001
 370
13
   6
CONTINUOUS
  62
6
 100
AcDbCircle
  10
 4855.7707585622
  20
 4693.8796618006
  30
0.0
  40
 30.000000000000
 100
AcDbArc
  50
0.0
  51
 90.000000000000
   0
ARC
   5
1DF
 100
AcDbEntity
   8
LEVEL001
 370
13
   6
CONTINUOUS
  62
6
 100
AcDbCircle
  10
 4356.1484842746
  20
 4815.2164582801
  30
0.0
  40
 22.500000000000
 100
AcDbArc
  50
 323.18780201190
  51
 53.187802011937
   0
ARC
   5
1E0
 100
AcDbEntity
   8
LEVEL001
 370
13
   6
CONTINUOUS
  62
6
 100
AcDbCircle
  10
 4356.1484842746
  20
 4815.2164582799
  30
0.0
  40
 22.500000000000
 100
AcDbArc
  50
 233.18780201188
  51
 323.18780201191
   0
LINE
   5
1E1
 100
AcDbEntity
   8
LEVEL001
 370
13
 100
AcDbLine
   6
CONTINUOUS
  62
6
  10
 4213.5126049400
  20
 4950.0728853661
  30
0.0
  11
 4369.6303505502
  21
 4833.2300443119
  31
0.0
   0
ARC
   5
1E2
 100
AcDbEntity
   8
LEVEL001
 370
13
   6
CONTINUOUS
  62
6
 100
AcDbCircle
  10
 4200.0307386646
  20
 4932.0592993341
  30
0.0
  40
 22.500000000000
 100
AcDbArc
  50
 53.187802011881
  51
 143.18780201191
   0
ARC
   5
1E3
 100
AcDbEntity
   8
LEVEL001
 370
13
   6
CONTINUOUS
  62
6
 100
AcDbCircle
  10
 4200.0307386646
  20
 4932.0592993341
  30
0.0
  40
 22.500000000000
 100
AcDbArc
  50
 143.18780201190
  51
 233.18780201194
   0
LINE
   5
1E4
 100
AcDbEntity
   8
LEVEL001
 370
13
 100
AcDbLine
   6
CONTINUOUS
  62
6
  10
 4342.6666179992
  20
 4797.2028722481
  30
0.0
  11
 4186.5488723890
  21
 4914.0457133021
  31
0.0
   0
ARC
   5
1E5
 100
AcDbEntity
   8
LEVEL001
 370
13
   6
CONTINUOUS
  62
6
 100
AcDbCircle
  10
 4200.0307386646
  20
 4455.7000242670
  30
0.0
  40
 22.500000000000
 100
AcDbArc
  50
 216.81219798815
  51
 306.81219798816
   0
ARC
   5
1E6
 100
AcDbEntity
   8
LEVEL001
 370
13
   6
CONTINUOUS
  62
6
 100
AcDbCircle
  10
 4200.0307386646
  20
 4455.7000242669
  30
0.0
  40
 22.500000000000
 100
AcDbArc
  50
 126.81219798806
  51
 216.81219798810
   0
LINE
   5
1E7
 100
AcDbEntity
   8
LEVEL001
 370
13
 100
AcDbLine
   6
CONTINUOUS
  62
6
  10
 4342.6666179992
  20
 4590.5564513529
  30
0.0
  11
 4186.5488723890
  21
 4473.7136102989
  31
0.0
   0
ARC
   5
1E8
 100
AcDbEntity
   8
LEVEL001
 370
13
   6
CONTINUOUS
  62
6
 100
AcDbCircle
  10
 4356.1484842746
  20
 4572.5428653212
  30
0.0
  40
 22.500000000000
 100
AcDbArc
  50
 36.812197988035
  51
 126.81219798807
   0
ARC
   5
1E9
 100
AcDbEntity
   8
LEVEL001
 370
13
   6
CONTINUOUS
  62
6
 100
AcDbCircle
  10
 4356.1484842746
  20
 4572.5428653209
  30
0.0
  40
 22.500000000000
 100
AcDbArc
  50
 306.81219798806
  51
 36.812197988096
   0
LINE
   5
1EA
 100
AcDbEntity
   8
LEVEL001
 370
13
 100
AcDbLine
   6
CONTINUOUS
  62
6
  10
 4213.5126049400
  20
 4437.6864382349
  30
0.0
  11
 4369.6303505502
  21
 4554.5292792891
  31
0.0
   0
ARC
   5
1EB
 100
AcDbEntity
   8
LEVEL001
 370
13
   6
CONTINUOUS
  62
6
 100
AcDbCircle
  10
 4680.3930328498
  20
 4572.5428653209
  30
0.0
  40
 22.500000000000
 100
AcDbArc
  50
 143.18780201188
  51
 233.18780201191
   0
ARC
   5
1EC
 100
AcDbEntity
   8
LEVEL001
 370
13
   6
CONTINUOUS
  62
6
 100
AcDbCircle
  10
 4680.3930328498
  20
 4572.5428653212
  30
0.0
  40
 22.500000000000
 100
AcDbArc
  50
 53.187802011925
  51
 143.18780201197
   0
LINE
   5
1ED
 100
AcDbEntity
   8
LEVEL001
 370
13
 100
AcDbLine
   6
CONTINUOUS
  62
6
  10
 4693.8748991252
  20
 4590.5564513529
  30
0.0
  11
 4849.9926447354
  21
 4473.7136102989
  31
0.0
   0
ARC
   5
1EE
 100
AcDbEntity
   8
LEVEL001
 370
13
   6
CONTINUOUS
  62
6
 100
AcDbCircle
  10
 4836.5107784598
  20
 4455.7000242669
  30
0.0
  40
 22.500000000000
 100
AcDbArc
  50
 323.18780201190
  51
 53.187802011937
   0
ARC
   5
1EF
 100
AcDbEntity
   8
LEVEL001
 370
13
   6
CONTINUOUS
  62
6
 100
AcDbCircle
  10
 4836.5107784598
  20
 4455.7000242670
  30
0.0
  40
 22.500000000000
 100
AcDbArc
  50
 233.18780201184
  51
 323.18780201185
   0
LINE
   5
1F0
 100
AcDbEntity
   8
LEVEL001
 370
13
 100
AcDbLine
   6
CONTINUOUS
  62
6
  10
 4823.0289121844
  20
 4437.6864382349
  30
0.0
  11
 4666.9111665742
  21
 4554.5292792891
  31
0.0
   0
ARC
   5
1F1
 100
AcDbEntity
   8
LEVEL001
 370
13
   6
CONTINUOUS
  62
7
 100
AcDbCircle
  10
 4385.9831930090
  20
 4731.3796618006
  30
0.0
  40
 25.000000000000
 100
AcDbArc
  50
 269.99999999998
  51
 344.17337986814
   0
ARC
   5
1F2
 100
AcDbEntity
   8
LEVEL001
 370
13
   6
CONTINUOUS
  62
7
 100
AcDbCircle
  10
 4385.9831930090
  20
 4656.3796618006
  30
0.0
  40
 25.000000000000
 100
AcDbArc
  50
 15.826620131860
  51
 90.000000000019
   0
ARC
   5
1F3
 100
AcDbEntity
   8
LEVEL001
 370
13
   6
CONTINUOUS
  62
7
 100
AcDbCircle
  10
 4480.7707585622
  20
 4561.5920962474
  30
0.0
  40
 25.000000000000
 100
AcDbArc
  50
 359.99999999998
  51
 74.173379868140
   0
ARC
   5
1F4
 100
AcDbEntity
   8
LEVEL001
 370
13
   6
CONTINUOUS
  62
7
 100
AcDbCircle
  10
 4518.2707585622
  20
 4693.8796618006
  30
0.0
  40
 112.50000000000
 100
AcDbArc
  50
 195.82662013188
  51
 254.17337986813
   0
ARC
   5
1F5
 100
AcDbEntity
   8
LEVEL001
 370
13
   6
CONTINUOUS
  62
7
 100
AcDbCircle
  10
 4555.7707585622
  20
 4561.5920962474
  30
0.0
  40
 25.000000000000
 100
AcDbArc
  50
 105.82662013189
  51
 180.00000000003
   0
ARC
   5
1F6
 100
AcDbEntity
   8
LEVEL001
 370
13
   6
CONTINUOUS
  62
7
 100
AcDbCircle
  10
 4650.5583241154
  20
 4656.3796618006
  30
0.0
  40
 25.000000000000
 100
AcDbArc
  50
 90.000000000015
  51
 164.17337986814
   0
ARC
   5
1F7
 100
AcDbEntity
   8
LEVEL001
 370
13
   6
CONTINUOUS
  62
7
 100
AcDbCircle
  10
 4518.2707585622
  20
 4693.8796618006
  30
0.0
  40
 112.50000000000
 100
AcDbArc
  50
 285.82662013187
  51
 344.17337986812
   0
ARC
   5
1F8
 100
AcDbEntity
   8
LEVEL001
 370
13
   6
CONTINUOUS
  62
7
 100
AcDbCircle
  10
 4650.5583241154
  20
 4731.3796618006
  30
0.0
  40
 25.000000000000
 100
AcDbArc
  50
 195.82662013186
  51
 269.99999999999
   0
ARC
   5
1F9
 100
AcDbEntity
   8
LEVEL001
 370
13
   6
CONTINUOUS
  62
7
 100
AcDbCircle
  10
 4555.7707585622
  20
 4826.1672273538
  30
0.0
  40
 25.000000000000
 100
AcDbArc
  50
 180.00000000004
  51
 254.17337986811
   0
ARC
   5
1FA
 100
AcDbEntity
   8
LEVEL001
 370
13
   6
CONTINUOUS
  62
7
 100
AcDbCircle
  10
 4518.2707585622
  20
 4693.8796618006
  30
0.0
  40
 112.50000000000
 100
AcDbArc
  50
 15.826620131877
  51
 74.173379868135
   0
ARC
   5
1FB
 100
AcDbEntity
   8
LEVEL001
 370
13
   6
CONTINUOUS
  62
7
 100
AcDbCircle
  10
 4480.7707585622
  20
 4826.1672273538
  30
0.0
  40
 25.000000000000
 100
AcDbArc
  50
 285.82662013186
  51
 359.99999999995
   0
ARC
   5
1FC
 100
AcDbEntity
   8
LEVEL001
 370
13
   6
CONTINUOUS
  62
7
 100
AcDbCircle
  10
 4518.2707585622
  20
 4693.8796618006
  30
0.0
  40
 112.50000000000
 100
AcDbArc
  50
 105.82662013187
  51
 164.17337986812
   0
LINE
   5
1FD
 100
AcDbEntity
   8
LEVEL001
 370
13
 100
AcDbLine
   6
CONTINUOUS
  62
7
  10
 4505.7707585622
  20
 4826.1672273537
  30
0.0
  11
 4505.7707585622
  21
 4926.3796618006
  31
0.0
   0
ARC
   5
1FE
 100
AcDbEntity
   8
LEVEL001
 370
13
   6
CONTINUOUS
  62
7
 100
AcDbCircle
  10
 4518.2707585622
  20
 4926.3796618006
  30
0.0
  40
 12.500000000000
 100
AcDbArc
  50
 90.000000000000
  51
 180.00000000000
   0
LINE
   5
1FF
 100
AcDbEntity
   8
LEVEL001
 370
13
 100
AcDbLine
   6
CONTINUOUS
  62
7
  10
 4530.7707585622
  20
 4926.3796618006
  30
0.0
  11
 4530.7707585622
  21
 4826.1672273537
  31
0.0
   0
ARC
   5
200
 100
AcDbEntity
   8
LEVEL001
 370
13
   6
CONTINUOUS
  62
7
 100
AcDbCircle
  10
 4518.2707585622
  20
 4926.3796618006
  30
0.0
  40
 12.500000000000
 100
AcDbArc
  50
0.0
  51
 90.000000000000
   0
LINE
   5
201
 100
AcDbEntity
   8
LEVEL001
 370
13
 100
AcDbLine
   6
CONTINUOUS
  62
7
  10
 4650.5583241154
  20
 4706.3796618006
  30
0.0
  11
 4848.2707585622
  21
 4706.3796618006
  31
0.0
   0
ARC
   5
202
 100
AcDbEntity
   8
LEVEL001
 370
13
   6
CONTINUOUS
  62
7
 100
AcDbCircle
  10
 4848.2707585622
  20
 4693.8796618006
  30
0.0
  40
 12.500000000000
 100
AcDbArc
  50
0.0
  51
 90.000000000000
   0
LINE
   5
203
 100
AcDbEntity
   8
LEVEL001
 370
13
 100
AcDbLine
   6
CONTINUOUS
  62
7
  10
 4848.2707585622
  20
 4681.3796618006
  30
0.0
  11
 4650.5583241154
  21
 4681.3796618006
  31
0.0
   0
ARC
   5
204
 100
AcDbEntity
   8
LEVEL001
 370
13
   6
CONTINUOUS
  62
7
 100
AcDbCircle
  10
 4848.2707585622
  20
 4693.8796618006
  30
0.0
  40
 12.500000000000
 100
AcDbArc
  50
 270.00000000000
  51
0.0
   0
LINE
   5
205
 100
AcDbEntity
   8
LEVEL001
 370
13
 100
AcDbLine
   6
CONTINUOUS
  62
7
  10
 4505.7707585622
  20
 4561.5920962473
  30
0.0
  11
 4505.7707585622
  21
 4461.3796618006
  31
0.0
   0
ARC
   5
206
 100
AcDbEntity
   8
LEVEL001
 370
13
   6
CONTINUOUS
  62
7
 100
AcDbCircle
  10
 4518.2707585622
  20
 4461.3796618006
  30
0.0
  40
 12.500000000000
 100
AcDbArc
  50
 180.00000000000
  51
 270.00000000000
   0
LINE
   5
207
 100
AcDbEntity
   8
LEVEL001
 370
13
 100
AcDbLine
   6
CONTINUOUS
  62
7
  10
 4530.7707585622
  20
 4461.3796618006
  30
0.0
  11
 4530.7707585622
  21
 4561.5920962473
  31
0.0
   0
ARC
   5
208
 100
AcDbEntity
   8
LEVEL001
 370
13
   6
CONTINUOUS
  62
7
 100
AcDbCircle
  10
 4518.2707585622
  20
 4461.3796618006
  30
0.0
  40
 12.500000000000
 100
AcDbArc
  50
 270.00000000000
  51
0.0
   0
LINE
   5
209
 100
AcDbEntity
   8
LEVEL001
 370
13
 100
AcDbLine
   6
CONTINUOUS
  62
7
  10
 4188.2707585622
  20
 4681.3796618006
  30
0.0
  11
 4385.9831930090
  21
 4681.3796618006
  31
0.0
   0
ARC
   5
20A
 100
AcDbEntity
   8
LEVEL001
 370
13
   6
CONTINUOUS
  62
7
 100
AcDbCircle
  10
 4188.2707585622
  20
 4693.8796618006
  30
0.0
  40
 12.500000000000
 100
AcDbArc
  50
 180.00000000000
  51
 270.00000000000
   0
LINE
   5
20B
 100
AcDbEntity
   8
LEVEL001
 370
13
 100
AcDbLine
   6
CONTINUOUS
  62
7
  10
 4385.9831930090
  20
 4706.3796618006
  30
0.0
  11
 4188.2707585622
  21
 4706.3796618006
  31
0.0
   0
ARC
   5
20C
 100
AcDbEntity
   8
LEVEL001
 370
13
   6
CONTINUOUS
  62
7
 100
AcDbCircle
  10
 4188.2707585622
  20
 4693.8796618006
  30
0.0
  40
 12.500000000000
 100
AcDbArc
  50
 90.000000000000
  51
 180.00000000000
   0
ARC
   5
20D
 100
AcDbEntity
   8
LEVEL001
 370
13
   6
CONTINUOUS
  62
7
 100
AcDbCircle
  10
 4832.5077593420
  20
 4929.0633290510
  30
0.0
  40
 9.9999999998834
 100
AcDbArc
  50
 36.812197987984
  51
 126.81219798801
   0
ARC
   5
20E
 100
AcDbEntity
   8
LEVEL001
 370
13
   6
CONTINUOUS
  62
7
 100
AcDbCircle
  10
 4832.5077593420
  20
 4929.0633290509
  30
0.0
  40
 9.9999999998834
 100
AcDbArc
  50
 306.81219798817
  51
 36.812197988047
   0
LINE
   5
20F
 100
AcDbEntity
   8
LEVEL001
 370
13
 100
AcDbLine
   6
CONTINUOUS
  62
7
  10
 4838.4996999088
  20
 4921.0572908146
  30
0.0
  11
 4690.3879925350
  21
 4810.2063903271
  31
0.0
   0
ARC
   5
210
 100
AcDbEntity
   8
LEVEL001
 370
13
   6
CONTINUOUS
  62
7
 100
AcDbCircle
  10
 4684.3960519682
  20
 4818.2124285636
  30
0.0
  40
 9.9999999998834
 100
AcDbArc
  50
 216.81219798817
  51
 306.81219798805
   0
LINE
   5
211
 100
AcDbEntity
   8
LEVEL001
 370
13
 100
AcDbLine
   6
CONTINUOUS
  62
7
  10
 4678.4041114012
  20
 4826.2184668000
  30
0.0
  11
 4826.5158187752
  21
 4937.0693672873
  31
0.0
   0
ARC
   5
212
 100
AcDbEntity
   8
LEVEL001
 370
13
   6
CONTINUOUS
  62
7
 100
AcDbCircle
  10
 4684.3960519680
  20
 4818.2124285636
  30
0.0
  40
 9.9999999998834
 100
AcDbArc
  50
 126.81219798817
  51
 216.81219798805
   0
ARC
   5
213
 100
AcDbEntity
   8
LEVEL001
 370
13
   6
CONTINUOUS
  62
7
 100
AcDbCircle
  10
 4204.0337577824
  20
 4929.0633290510
  30
0.0
  40
 9.9999999998834
 100
AcDbArc
  50
 53.187802011986
  51
 143.18780201202
   0
ARC
   5
214
 100
AcDbEntity
   8
LEVEL001
 370
13
   6
CONTINUOUS
  62
7
 100
AcDbCircle
  10
 4204.0337577824
  20
 4929.0633290509
  30
0.0
  40
 9.9999999998834
 100
AcDbArc
  50
 143.18780201195
  51
 233.18780201183
   0
LINE
   5
215
 100
AcDbEntity
   8
LEVEL001
 370
13
 100
AcDbLine
   6
CONTINUOUS
  62
7
  10
 4198.0418172156
  20
 4921.0572908146
  30
0.0
  11
 4346.1535245894
  21
 4810.2063903271
  31
0.0
   0
LINE
   5
216
 100
AcDbEntity
   8
LEVEL001
 370
13
 100
AcDbLine
   6
CONTINUOUS
  62
7
  10
 4358.1374057232
  20
 4826.2184668000
  30
0.0
  11
 4210.0256983492
  21
 4937.0693672873
  31
0.0
   0
ARC
   5
217
 100
AcDbEntity
   8
LEVEL001
 370
13
   6
CONTINUOUS
  62
7
 100
AcDbCircle
  10
 4352.1454651562
  20
 4818.2124285636
  30
0.0
  40
 9.9999999998834
 100
AcDbArc
  50
 233.18780201195
  51
 323.18780201183
   0
ARC
   5
218
 100
AcDbEntity
   8
LEVEL001
 370
13
   6
CONTINUOUS
  62
7
 100
AcDbCircle
  10
 4352.1454651564
  20
 4818.2124285635
  30
0.0
  40
 9.9999999998834
 100
AcDbArc
  50
 323.18780201200
  51
 53.187802011901
   0
ARC
   5
219
 100
AcDbEntity
   8
LEVEL001
 370
13
   6
CONTINUOUS
  62
7
 100
AcDbCircle
  10
 4832.5077593420
  20
 4458.6959945502
  30
0.0
  40
 9.9999999998834
 100
AcDbArc
  50
 233.18780201189
  51
 323.18780201189
   0
ARC
   5
21A
 100
AcDbEntity
   8
LEVEL001
 370
13
   6
CONTINUOUS
  62
7
 100
AcDbCircle
  10
 4832.5077593420
  20
 4458.6959945502
  30
0.0
  40
 9.9999999998834
 100
AcDbArc
  50
 323.18780201182
  51
 53.187802011934
   0
LINE
   5
21B
 100
AcDbEntity
   8
LEVEL001
 370
13
 100
AcDbLine
   6
CONTINUOUS
  62
7
  10
 4838.4996999088
  20
 4466.7020327865
  30
0.0
  11
 4690.3879925350
  21
 4577.5529332739
  31
0.0
   0
LINE
   5
21C
 100
AcDbEntity
   8
LEVEL001
 370
13
 100
AcDbLine
   6
CONTINUOUS
  62
7
  10
 4678.4041114012
  20
 4561.5408568012
  30
0.0
  11
 4826.5158187752
  21
 4450.6899563137
  31
0.0
   0
ARC
   5
21D
 100
AcDbEntity
   8
LEVEL001
 370
13
   6
CONTINUOUS
  62
7
 100
AcDbCircle
  10
 4684.3960519682
  20
 4569.5468950375
  30
0.0
  40
 9.9999999998834
 100
AcDbArc
  50
 53.187802012057
  51
 143.18780201197
   0
ARC
   5
21E
 100
AcDbEntity
   8
LEVEL001
 370
13
   6
CONTINUOUS
  62
7
 100
AcDbCircle
  10
 4684.3960519680
  20
 4569.5468950375
  30
0.0
  40
 9.9999999998834
 100
AcDbArc
  50
 143.18780201195
  51
 233.18780201183
   0
LINE
   5
21F
 100
AcDbEntity
   8
LEVEL001
 370
13
 100
AcDbLine
   6
CONTINUOUS
  62
7
  10
 4198.0418172156
  20
 4466.7020327865
  30
0.0
  11
 4346.1535245894
  21
 4577.5529332739
  31
0.0
   0
LINE
   5
220
 100
AcDbEntity
   8
LEVEL001
 370
13
 100
AcDbLine
   6
CONTINUOUS
  62
7
  10
 4358.1374057232
  20
 4561.5408568012
  30
0.0
  11
 4210.0256983492
  21
 4450.6899563137
  31
0.0
   0
ARC
   5
221
 100
AcDbEntity
   8
LEVEL001
 370
13
   6
CONTINUOUS
  62
7
 100
AcDbCircle
  10
 4352.1454651562
  20
 4569.5468950375
  30
0.0
  40
 9.9999999998834
 100
AcDbArc
  50
 36.812197988033
  51
 126.81219798794
   0
ARC
   5
222
 100
AcDbEntity
   8
LEVEL001
 370
13
   6
CONTINUOUS
  62
7
 100
AcDbCircle
  10
 4352.1454651564
  20
 4569.5468950375
  30
0.0
  40
 9.9999999998834
 100
AcDbArc
  50
 306.81219798817
  51
 36.812197988047
   0
ARC
   5
223
 100
AcDbEntity
   8
LEVEL001
 370
13
   6
CONTINUOUS
  62
7
 100
AcDbCircle
  10
 4204.0337577824
  20
 4458.6959945502
  30
0.0
  40
 9.9999999998834
 100
AcDbArc
  50
 216.81219798811
  51
 306.81219798811
   0
ARC
   5
224
 100
AcDbEntity
   8
LEVEL001
 370
13
   6
CONTINUOUS
  62
7
 100
AcDbCircle
  10
 4204.0337577824
  20
 4458.6959945502
  30
0.0
  40
 9.9999999998834
 100
AcDbArc
  50
 126.81219798807
  51
 216.81219798818
   0
ARC
   5
225
 100
AcDbEntity
   8
LEVEL001
 370
13
   6
CONTINUOUS
  62
7
 100
AcDbCircle
  10
 4850.7707585622
  20
 4926.3796618006
  30
0.0
  40
 90.900000000000
 100
AcDbArc
  50
 0.34396176832408E-11
  51
 89.999999999997
   0
LINE
   5
226
 100
AcDbEntity
   8
LEVEL001
 370
13
 100
AcDbLine
   6
CONTINUOUS
  62
7
  10
 4941.6707585622
  20
 4461.3796618006
  30
0.0
  11
 4941.6707585622
  21
 4926.3796618006
  31
0.0
   0
LINE
   5
227
 100
AcDbEntity
   8
LEVEL001
 370
13
 100
AcDbLine
   6
CONTINUOUS
  62
7
  10
 4926.6707585622
  20
 4461.3796618006
  30
0.0
  11
 4926.6707585622
  21
 4926.3796618006
  31
0.0
   0
ARC
   5
228
 100
AcDbEntity
   8
LEVEL001
 370
13
   6
CONTINUOUS
  62
7
 100
AcDbCircle
  10
 4850.7707585622
  20
 4926.3796618006
  30
0.0
  40
 75.900000000000
 100
AcDbArc
  50
 0.41193840238023E-11
  51
 89.999999999996
   0
LINE
   5
229
 100
AcDbEntity
   8
LEVEL001
 370
13
 100
AcDbLine
   6
CONTINUOUS
  62
7
  10
 4185.7707585622
  20
 4370.4796618005
  30
0.0
  11
 4850.7707585622
  21
 4370.4796618005
  31
0.0
   0
ARC
   5
22A
 100
AcDbEntity
   8
LEVEL001
 370
13
   6
CONTINUOUS
  62
7
 100
AcDbCircle
  10
 4850.7707585622
  20
 4461.3796618005
  30
0.0
  40
 90.900000000000
 100
AcDbArc
  50
 270.00000000000
  51
 0.14905009960710E-10
   0
LINE
   5
22B
 100
AcDbEntity
   8
LEVEL001
 370
13
 100
AcDbLine
   6
CONTINUOUS
  62
7
  10
 4185.7707585622
  20
 4385.4796618005
  30
0.0
  11
 4850.7707585622
  21
 4385.4796618005
  31
0.0
   0
ARC
   5
22C
 100
AcDbEntity
   8
LEVEL001
 370
13
   6
CONTINUOUS
  62
7
 100
AcDbCircle
  10
 4850.7707585622
  20
 4461.3796618005
  30
0.0
  40
 75.900000000000
 100
AcDbArc
  50
 270.00000000000
  51
 0.17850664103143E-10
   0
ARC
   5
22D
 100
AcDbEntity
   8
LEVEL001
 370
13
   6
CONTINUOUS
  62
7
 100
AcDbCircle
  10
 4185.7707585622
  20
 4461.3796618005
  30
0.0
  40
 90.900000000000
 100
AcDbArc
  50
 179.99999999999
  51
 270.00000000001
   0
LINE
   5
22E
 100
AcDbEntity
   8
LEVEL001
 370
13
 100
AcDbLine
   6
CONTINUOUS
  62
7
  10
 4094.8707585622
  20
 4926.3796618006
  30
0.0
  11
 4094.8707585622
  21
 4461.3796618006
  31
0.0
   0
LINE
   5
22F
 100
AcDbEntity
   8
LEVEL001
 370
13
 100
AcDbLine
   6
CONTINUOUS
  62
7
  10
 4109.8707585622
  20
 4926.3796618006
  30
0.0
  11
 4109.8707585622
  21
 4461.3796618006
  31
0.0
   0
ARC
   5
230
 100
AcDbEntity
   8
LEVEL001
 370
13
   6
CONTINUOUS
  62
7
 100
AcDbCircle
  10
 4185.7707585622
  20
 4461.3796618005
  30
0.0
  40
 75.900000000000
 100
AcDbArc
  50
 179.99999999998
  51
 270.00000000001
   0
LINE
   5
231
 100
AcDbEntity
   8
LEVEL001
 370
13
 100
AcDbLine
   6
CONTINUOUS
  62
7
  10
 4850.7707585622
  20
 5017.2796618006
  30
0.0
  11
 4185.7707585622
  21
 5017.2796618006
  31
0.0
   0
ARC
   5
232
 100
AcDbEntity
   8
LEVEL001
 370
13
   6
CONTINUOUS
  62
7
 100
AcDbCircle
  10
 4185.7707585622
  20
 4926.3796618006
  30
0.0
  40
 90.900000000000
 100
AcDbArc
  50
 89.999999999994
  51
 180.00000000000
   0
LINE
   5
233
 100
AcDbEntity
   8
LEVEL001
 370
13
 100
AcDbLine
   6
CONTINUOUS
  62
7
  10
 4850.7707585622
  20
 5002.2796618006
  30
0.0
  11
 4185.7707585622
  21
 5002.2796618006
  31
0.0
   0
ARC
   5
234
 100
AcDbEntity
   8
LEVEL001
 370
13
   6
CONTINUOUS
  62
7
 100
AcDbCircle
  10
 4185.7707585622
  20
 4926.3796618006
  30
0.0
  40
 75.900000000000
 100
AcDbArc
  50
 89.999999999993
  51
 180.00000000000
   0
CIRCLE
   5
235
 100
AcDbEntity
   8
LEVEL001
 370
13
 100
AcDbCircle
   6
CONTINUOUS
  62
1
  10
 4018.2707585622
  20
 4243.8796618006
  30
0.0
  40
 69.999997913838
   0
MTEXT
   5
236
 100
AcDbEntity
   8
LEVEL001
 370
13
  62
1
 100
AcDbMText
  10
 4018.2707585622
  20
 4243.8796618006
  30
0.0
  40
 57.142857142858
  41
0.0
  71
5
  72
1
   1
\T1.000000;2
   7
GMM001
  44
 0.79999984000003
   0
LEADER
   5
237
 100
AcDbEntity
   8
LEVEL001
 370
13
   6
CONTINUOUS
  62
1
 100
AcDbLeader
   3
GMM001
  73
3
  74
1
  75
0
  40
 66.000000000000
  41
0.0
  76
2
  10
 4168.2707585622
  20
 4493.8796618006
  30
0.0
  10
 4054.3525421812
  20
 4303.8638647112
  30
0.0
  77
1
   0
LINE
   5
238
 100
AcDbEntity
   8
LEVEL001
 370
13
 100
AcDbLine
   6
CONTINUOUS
  62
3
  10
 3738.0582755806
  20
 5015.4796618005
  30
0.0
  11
 3738.0582755806
  21
 4372.2796618006
  31
0.0
   0
ARC
   5
239
 100
AcDbEntity
   8
LEVEL001
 370
13
   6
CONTINUOUS
  62
3
 100
AcDbCircle
  10
 3736.2582755806
  20
 5015.4796618006
  30
0.0
  40
 1.8000000000002
 100
AcDbArc
  50
 359.99999999945
  51
 90.000000000087
   0
LINE
   5
23A
 100
AcDbEntity
   8
LEVEL001
 370
13
 100
AcDbLine
   6
CONTINUOUS
  62
3
  10
 3734.4582755806
  20
 4372.2796618006
  30
0.0
  11
 3734.4582755806
  21
 5015.4796618005
  31
0.0
   0
ARC
   5
23B
 100
AcDbEntity
   8
LEVEL001
 370
13
   6
CONTINUOUS
  62
3
 100
AcDbCircle
  10
 3736.2582755806
  20
 5015.4796618006
  30
0.0
  40
 1.8000000000002
 100
AcDbArc
  50
 90.000000000376
  51
 180.00000000055
   0
ARC
   5
23C
 100
AcDbEntity
   8
LEVEL001
 370
13
   6
CONTINUOUS
  62
1
 100
AcDbCircle
  10
 3757.3691290946
  20
 4775.2491213005
  30
0.0
  40
 5.0000000000000
 100
AcDbArc
  50
 270.00000000007
  51
 285.97235980420
   0
LINE
   5
23D
 100
AcDbEntity
   8
LEVEL001
 370
13
 100
AcDbLine
   6
CONTINUOUS
  62
1
  10
 3756.6543943828
  20
 4770.2491213005
  30
0.0
  11
 3738.0582755806
  21
 4770.2491213005
  31
0.0
   0
ARC
   5
23E
 100
AcDbEntity
   8
LEVEL001
 370
13
   6
CONTINUOUS
  62
1
 100
AcDbCircle
  10
 3756.6543943828
  20
 4780.2491213005
  30
0.0
  40
 10.000000000000
 100
AcDbArc
  50
 270.00000000039
  51
 286.57946484748
   0
ARC
   5
23F
 100
AcDbEntity
   8
LEVEL001
 370
13
   6
CONTINUOUS
  62
1
 100
AcDbCircle
  10
 3738.1069771520
  20
 4842.5467401482
  30
0.0
  40
 75.000000000000
 100
AcDbArc
  50
 286.57946484704
  51
 2.0649141019196
   0
LINE
   5
240
 100
AcDbEntity
   8
LEVEL001
 370
13
 100
AcDbLine
   6
CONTINUOUS
  62
1
  10
 3738.0582755806
  20
 4997.2796618006
  30
0.0
  11
 3813.0582755806
  21
 4997.2796618006
  31
0.0
   0
LINE
   5
241
 100
AcDbEntity
   8
LEVEL001
 370
13
 100
AcDbLine
   6
CONTINUOUS
  62
1
  10
 3813.0582755806
  20
 4997.2796618006
  30
0.0
  11
 3813.0582755806
  21
 4839.8443589955
  31
0.0
   0
ARC
   5
242
 100
AcDbEntity
   8
LEVEL001
 370
13
   6
CONTINUOUS
  62
7
 100
AcDbCircle
  10
 782.44828129299
  20
 4693.8796618007
  30
0.0
  40
 3000.0000000000
 100
AcDbArc
  50
 354.38599941370
  51
 1.6669346216503
   0
LINE
   5
243
 100
AcDbEntity
   8
LEVEL001
 370
13
 100
AcDbLine
   6
CONTINUOUS
  62
6
  10
 3758.1068218516
  20
 4770.3551607969
  30
0.0
  11
 3758.1068218516
  21
 4391.3796618006
  31
0.0
   0
LINE
   5
244
 100
AcDbEntity
   8
LEVEL001
 370
13
 100
AcDbLine
   6
HIDDEN
  62
1
  10
 3758.1068218516
  20
 4996.3796618006
  30
0.0
  11
 3738.0582755806
  21
 4996.3796618006
  31
0.0
   0
ARC
   5
245
 100
AcDbEntity
   8
LEVEL001
 370
13
   6
HIDDEN
  62
1
 100
AcDbCircle
  10
 3758.1068218516
  20
 4986.3796618006
  30
0.0
  40
 10.000000000000
 100
AcDbArc
  50
 5.6140005863148
  51
 89.999999999911
   0
LINE
   5
246
 100
AcDbEntity
   8
LEVEL001
 370
13
 100
AcDbLine
   6
HIDDEN
  62
1
  10
 3758.1068218516
  20
 4996.3796618006
  30
0.0
  11
 3758.1068218516
  21
 4770.2491213005
  31
0.0
   0
ARC
   5
247
 100
AcDbEntity
   8
LEVEL001
 370
13
   6
HIDDEN
  62
1
 100
AcDbCircle
  10
 782.44828129300
  20
 4693.8796618004
  30
0.0
  40
 3000.0000000000
 100
AcDbArc
  50
 1.6669346216562
  51
 5.6140005863040
   0
LINE
   5
248
 100
AcDbEntity
   8
LEVEL001
 370
13
 100
AcDbLine
   6
CONTINUOUS
  62
7
  10
 3734.4582755806
  20
 4748.8796618006
  30
0.0
  11
 3643.0582755806
  21
 4748.8796618006
  31
0.0
   0
LINE
   5
249
 100
AcDbEntity
   8
LEVEL001
 370
13
 100
AcDbLine
   6
CONTINUOUS
  62
7
  10
 3643.0582755806
  20
 4748.8796618006
  30
0.0
  11
 3643.0582755806
  21
 4638.8796618006
  31
0.0
   0
LINE
   5
24A
 100
AcDbEntity
   8
LEVEL001
 370
13
 100
AcDbLine
   6
CONTINUOUS
  62
7
  10
 3643.0582755806
  20
 4638.8796618006
  30
0.0
  11
 3733.7582755806
  21
 4638.8796618006
  31
0.0
   0
ELLIPSE
   5
24B
 100
AcDbEntity
   8
LEVEL001
 370
13
   6
DOT
  62
1
 100
AcDbEllipse
  10
 3735.3416089138
  20
 4752.1069031363
  30
0.0
  11
0.0
  21
 2.7424137787166
  31
0.0
  40
 0.57735026920017
  41
 1.5707963267949
  42
-3.1415811789574
   0
ELLIPSE
   5
24C
 100
AcDbEntity
   8
LEVEL001
 370
13
   6
DOT
  62
1
 100
AcDbEllipse
  10
 3735.3416089138
  20
 4743.8796618006
  30
0.0
  11
0.0
  21
 5.4848275572467
  31
0.0
  40
 0.28867513459863
  41
-0.22949264877137E-4
  42
-3.1415697043249
   0
ELLIPSE
   5
24D
 100
AcDbEntity
   8
LEVEL001
 370
13
   6
DOT
  62
1
 100
AcDbEllipse
  10
 3735.3416089138
  20
 4735.6524204647
  30
0.0
  11
0.0
  21
-2.7424137787175
  31
0.0
  40
 0.57735026920017
  41
 3.1415811789574
  42
-1.5707963267949
   0
ARC
   5
24E
 100
AcDbEntity
   8
LEVEL001
 370
13
   6
CONTINUOUS
  62
3
 100
AcDbCircle
  10
 3736.2582755806
  20
 4372.2796618005
  30
0.0
  40
 1.8000000000002
 100
AcDbArc
  50
 269.99999999991
  51
 0.55005219451154E-9
   0
ARC
   5
24F
 100
AcDbEntity
   8
LEVEL001
 370
13
   6
CONTINUOUS
  62
3
 100
AcDbCircle
  10
 3736.2582755806
  20
 4372.2796618005
  30
0.0
  40
 1.8000000000002
 100
AcDbArc
  50
 179.99999999945
  51
 269.99999999962
   0
LINE
   5
250
 100
AcDbEntity
   8
LEVEL001
 370
13
 100
AcDbLine
   6
CONTINUOUS
  62
7
  10
 3738.0582755806
  20
 4391.3796618006
  30
0.0
  11
 3758.1068218516
  21
 4391.3796618006
  31
0.0
   0
ARC
   5
251
 100
AcDbEntity
   8
LEVEL001
 370
13
   6
CONTINUOUS
  62
7
 100
AcDbCircle
  10
 3758.1068218516
  20
 4401.3796618006
  30
0.0
  40
 10.000000000000
 100
AcDbArc
  50
 270.00000000009
  51
 354.38599941369
   0
CIRCLE
   5
252
 100
AcDbEntity
   8
LEVEL001
 370
13
 100
AcDbCircle
   6
CONTINUOUS
  62
1
  10
 3565.1424691598
  20
 4243.8796618006
  30
0.0
  40
 70.000000000000
   0
MTEXT
   5
253
 100
AcDbEntity
   8
LEVEL001
 370
13
  62
1
 100
AcDbMText
  10
 3565.1424691598
  20
 4243.8796618006
  30
0.0
  40
 57.142857142858
  41
0.0
  71
5
  72
1
   1
\T1.000000;10
   7
GMM001
  44
 0.79999984000003
   0
MTEXT
   5
254
 100
AcDbEntity
   8
LEVEL001
 370
13
  62
1
 100
AcDbMText
  10
 3425.1424712460
  20
 4243.8796618006
  30
0.0
  40
 57.142857142858
  41
0.0
  71
5
  72
1
   1
\T1.000000;9
   7
GMM001
  44
 0.79999984000003
   0
CIRCLE
   5
255
 100
AcDbEntity
   8
LEVEL001
 370
13
 100
AcDbCircle
   6
CONTINUOUS
  62
1
  10
 3425.1424712460
  20
 4243.8796618006
  30
0.0
  40
 69.999997913838
   0
LEADER
   5
256
 100
AcDbEntity
   8
LEVEL001
 370
13
   6
CONTINUOUS
  62
1
 100
AcDbLeader
   3
GMM002
  73
3
  74
1
  75
0
  40
 60.000000000000
  41
0.0
  76
2
  10
 3333.4081988366
  20
 4578.8796618006
  30
0.0
  10
 3406.1589203206
  20
 4311.2563974160
  30
0.0
  77
1
   0
LINE
   5
257
 100
AcDbEntity
   8
LEVEL001
 370
13
 100
AcDbLine
   6
CONTINUOUS
  62
7
  10
 2325.7707585622
  20
 4996.3796618006
  30
0.0
  11
 1660.7707585622
  21
 4996.3796618006
  31
0.0
   0
LINE
   5
258
 100
AcDbEntity
   8
LEVEL001
 370
13
 100
AcDbLine
   6
CONTINUOUS
  62
3
  10
 2325.7707585622
  20
 5017.2796618006
  30
0.0
  11
 1660.7707585622
  21
 5017.2796618006
  31
0.0
   0
LINE
   5
259
 100
AcDbEntity
   8
LEVEL001
 370
13
 100
AcDbLine
   6
CONTINUOUS
  62
3
  10
 2325.7707585622
  20
 5002.2796618006
  30
0.0
  11
 1660.7707585622
  21
 5002.2796618006
  31
0.0
   0
ARC
   5
25A
 100
AcDbEntity
   8
LEVEL001
 370
13
   6
CONTINUOUS
  62
1
 100
AcDbCircle
  10
 1660.7707585622
  20
 4926.3796618006
  30
0.0
  40
 70.900000000000
 100
AcDbArc
  50
 89.999999999993
  51
 180.00000000000
   0
LINE
   5
25B
 100
AcDbEntity
   8
LEVEL001
 370
13
 100
AcDbLine
   6
CONTINUOUS
  62
1
  10
 2325.7707585622
  20
 4997.2796618006
  30
0.0
  11
 1660.7707585622
  21
 4997.2796618006
  31
0.0
   0
ARC
   5
25C
 100
AcDbEntity
   8
LEVEL001
 370
13
   6
CONTINUOUS
  62
1
 100
AcDbCircle
  10
 2325.7707585622
  20
 4926.3796618006
  30
0.0
  40
 70.900000000000
 100
AcDbArc
  50
 0.44098906545358E-11
  51
 89.999999999995
   0
LINE
   5
25D
 100
AcDbEntity
   8
LEVEL001
 370
13
 100
AcDbLine
   6
CONTINUOUS
  62
1
  10
 1589.8707585622
  20
 4926.3796618006
  30
0.0
  11
 1589.8707585622
  21
 4770.2491213005
  31
0.0
   0
LINE
   5
25E
 100
AcDbEntity
   8
LEVEL001
 370
13
 100
AcDbLine
   6
CONTINUOUS
  62
1
  10
 2396.6707585622
  20
 4770.2491213005
  30
0.0
  11
 2396.6707585622
  21
 4926.3796618006
  31
0.0
   0
LINE
   5
25F
 100
AcDbEntity
   8
LEVEL001
 370
13
 100
AcDbLine
   6
CONTINUOUS
  62
1
  10
 1589.8707585622
  20
 4770.2491213005
  30
0.0
  11
 1590.7707585622
  21
 4770.2491213005
  31
0.0
   0
LINE
   5
260
 100
AcDbEntity
   8
LEVEL001
 370
13
 100
AcDbLine
   6
CONTINUOUS
  62
1
  10
 2396.6707585622
  20
 4770.2491213005
  30
0.0
  11
 2395.7707585622
  21
 4770.2491213005
  31
0.0
   0
ARC
   5
261
 100
AcDbEntity
   8
LEVEL001
 370
13
   6
CONTINUOUS
  62
7
 100
AcDbCircle
  10
 2325.7707585622
  20
 4926.3796618006
  30
0.0
  40
 70.000000000000
 100
AcDbArc
  50
0.0
  51
 90.000000000000
   0
LINE
   5
262
 100
AcDbEntity
   8
LEVEL001
 370
13
 100
AcDbLine
   6
CONTINUOUS
  62
7
  10
 2395.7707585622
  20
 4461.3796618006
  30
0.0
  11
 2395.7707585622
  21
 4926.3796618006
  31
0.0
   0
ARC
   5
263
 100
AcDbEntity
   8
LEVEL001
 370
13
   6
CONTINUOUS
  62
3
 100
AcDbCircle
  10
 2325.7707585622
  20
 4926.3796618006
  30
0.0
  40
 90.900000000000
 100
AcDbArc
  50
 0.34396176832408E-11
  51
 89.999999999996
   0
LINE
   5
264
 100
AcDbEntity
   8
LEVEL001
 370
13
 100
AcDbLine
   6
CONTINUOUS
  62
3
  10
 2401.6707585622
  20
 4461.3796618006
  30
0.0
  11
 2401.6707585622
  21
 4926.3796618006
  31
0.0
   0
ARC
   5
265
 100
AcDbEntity
   8
LEVEL001
 370
13
   6
CONTINUOUS
  62
3
 100
AcDbCircle
  10
 2325.7707585622
  20
 4926.3796618006
  30
0.0
  40
 75.900000000000
 100
AcDbArc
  50
 0.41193840238022E-11
  51
 89.999999999996
   0
LINE
   5
266
 100
AcDbEntity
   8
LEVEL001
 370
13
 100
AcDbLine
   6
CONTINUOUS
  62
3
  10
 2698.4832415438
  20
 5015.4796618005
  30
0.0
  11
 2698.4832415438
  21
 4372.2796618006
  31
0.0
   0
ARC
   5
267
 100
AcDbEntity
   8
LEVEL001
 370
13
   6
CONTINUOUS
  62
3
 100
AcDbCircle
  10
 2700.2832415438
  20
 5015.4796618006
  30
0.0
  40
 1.8000000000002
 100
AcDbArc
  50
 90.000000000840
  51
 180.00000000055
   0
LINE
   5
268
 100
AcDbEntity
   8
LEVEL001
 370
13
 100
AcDbLine
   6
CONTINUOUS
  62
3
  10
 2702.0832415438
  20
 4372.2796618006
  30
0.0
  11
 2702.0832415438
  21
 5015.4796618005
  31
0.0
   0
ARC
   5
269
 100
AcDbEntity
   8
LEVEL001
 370
13
   6
CONTINUOUS
  62
3
 100
AcDbCircle
  10
 2700.2832415438
  20
 5015.4796618006
  30
0.0
  40
 1.8000000000002
 100
AcDbArc
  50
 359.99999999945
  51
 90.000000000550
   0
ARC
   5
26A
 100
AcDbEntity
   8
LEVEL001
 370
13
   6
CONTINUOUS
  62
1
 100
AcDbCircle
  10
 2679.1723880298
  20
 4775.2491213005
  30
0.0
  40
 5.0000000000000
 100
AcDbArc
  50
 254.02764019580
  51
 269.99999999993
   0
LINE
   5
26B
 100
AcDbEntity
   8
LEVEL001
 370
13
 100
AcDbLine
   6
CONTINUOUS
  62
1
  10
 2679.8871227416
  20
 4770.2491213005
  30
0.0
  11
 2698.4832415438
  21
 4770.2491213005
  31
0.0
   0
ARC
   5
26C
 100
AcDbEntity
   8
LEVEL001
 370
13
   6
CONTINUOUS
  62
1
 100
AcDbCircle
  10
 2679.8871227417
  20
 4780.2491213005
  30
0.0
  40
 10.000000000000
 100
AcDbArc
  50
 253.42053515252
  51
 269.99999999944
   0
ARC
   5
26D
 100
AcDbEntity
   8
LEVEL001
 370
13
   6
CONTINUOUS
  62
1
 100
AcDbCircle
  10
 2698.4345399724
  20
 4842.5467401482
  30
0.0
  40
 75.000000000000
 100
AcDbArc
  50
 177.93508589808
  51
 253.42053515295
   0
LINE
   5
26E
 100
AcDbEntity
   8
LEVEL001
 370
13
 100
AcDbLine
   6
CONTINUOUS
  62
1
  10
 2698.4832415438
  20
 4997.2796618006
  30
0.0
  11
 2623.4832415438
  21
 4997.2796618006
  31
0.0
   0
LINE
   5
26F
 100
AcDbEntity
   8
LEVEL001
 370
13
 100
AcDbLine
   6
CONTINUOUS
  62
1
  10
 2623.4832415438
  20
 4997.2796618006
  30
0.0
  11
 2623.4832415438
  21
 4839.8443589955
  31
0.0
   0
ARC
   5
270
 100
AcDbEntity
   8
LEVEL001
 370
13
   6
CONTINUOUS
  62
7
 100
AcDbCircle
  10
 5654.0932358314
  20
 4693.8796618005
  30
0.0
  40
 3000.0000000000
 100
AcDbArc
  50
 178.33306537835
  51
 185.61400058630
   0
LINE
   5
271
 100
AcDbEntity
   8
LEVEL001
 370
13
 100
AcDbLine
   6
CONTINUOUS
  62
6
  10
 2678.4346952728
  20
 4770.3551607969
  30
0.0
  11
 2678.4346952728
  21
 4391.3796618006
  31
0.0
   0
LINE
   5
272
 100
AcDbEntity
   8
LEVEL001
 370
13
 100
AcDbLine
   6
HIDDEN
  62
1
  10
 2678.4346952728
  20
 4996.3796618006
  30
0.0
  11
 2698.4832415438
  21
 4996.3796618006
  31
0.0
   0
ARC
   5
273
 100
AcDbEntity
   8
LEVEL001
 370
13
   6
HIDDEN
  62
1
 100
AcDbCircle
  10
 2678.4346952728
  20
 4986.3796618006
  30
0.0
  40
 10.000000000000
 100
AcDbArc
  50
 90.000000000005
  51
 174.38599941369
   0
LINE
   5
274
 100
AcDbEntity
   8
LEVEL001
 370
13
 100
AcDbLine
   6
HIDDEN
  62
1
  10
 2678.4346952728
  20
 4996.3796618006
  30
0.0
  11
 2678.4346952728
  21
 4770.2491213005
  31
0.0
   0
ARC
   5
275
 100
AcDbEntity
   8
LEVEL001
 370
13
   6
HIDDEN
  62
1
 100
AcDbCircle
  10
 5654.0932358314
  20
 4693.8796618006
  30
0.0
  40
 3000.0000000000
 100
AcDbArc
  50
 174.38599941370
  51
 178.33306537835
   0
LINE
   5
276
 100
AcDbEntity
   8
LEVEL001
 370
13
 100
AcDbLine
   6
CONTINUOUS
  62
7
  10
 2702.0832415438
  20
 4748.8796618006
  30
0.0
  11
 2793.4832415438
  21
 4748.8796618006
  31
0.0
   0
LINE
   5
277
 100
AcDbEntity
   8
LEVEL001
 370
13
 100
AcDbLine
   6
CONTINUOUS
  62
7
  10
 2793.4832415438
  20
 4748.8796618006
  30
0.0
  11
 2793.4832415438
  21
 4638.8796618006
  31
0.0
   0
LINE
   5
278
 100
AcDbEntity
   8
LEVEL001
 370
13
 100
AcDbLine
   6
CONTINUOUS
  62
7
  10
 2793.4832415438
  20
 4638.8796618006
  30
0.0
  11
 2702.7832415438
  21
 4638.8796618006
  31
0.0
   0
ELLIPSE
   5
279
 100
AcDbEntity
   8
LEVEL001
 370
13
   6
DOT
  62
1
 100
AcDbEllipse
  10
 2701.1999082106
  20
 4752.1069031363
  30
0.0
  11
0.0
  21
 2.7424137787166
  31
0.0
  40
 0.57735026920017
  41
 3.1415811789482
  42
-1.5707963267949
   0
ELLIPSE
   5
27A
 100
AcDbEntity
   8
LEVEL001
 370
13
   6
DOT
  62
1
 100
AcDbEllipse
  10
 2701.1999082106
  20
 4743.8796618006
  30
0.0
  11
0.0
  21
 5.4848275572467
  31
0.0
  40
 0.28867513459863
  41
 3.1415697043065
  42
 0.22949283257944E-4
   0
ELLIPSE
   5
27B
 100
AcDbEntity
   8
LEVEL001
 370
13
   6
DOT
  62
1
 100
AcDbEllipse
  10
 2701.1999082106
  20
 4735.6524204647
  30
0.0
  11
0.0
  21
-2.7424137787175
  31
0.0
  40
 0.57735026920017
  41
 1.5707963267949
  42
-3.1415811789482
   0
CIRCLE
   5
27C
 100
AcDbEntity
   8
LEVEL001
 370
13
 100
AcDbCircle
   6
CONTINUOUS
  62
1
  10
 2418.2707585622
  20
 5193.8796618006
  30
0.0
  40
 69.999997913838
   0
MTEXT
   5
27D
 100
AcDbEntity
   8
LEVEL001
 370
13
  62
1
 100
AcDbMText
  10
 2418.2707585622
  20
 5193.8796618006
  30
0.0
  40
 57.142857142858
  41
0.0
  71
5
  72
1
   1
\T1.000000;3
   7
GMM001
  44
 0.79999984000003
   0
LEADER
   5
27E
 100
AcDbEntity
   8
LEVEL001
 370
13
   6
CONTINUOUS
  62
1
 100
AcDbLeader
   3
GMM002
  73
3
  74
1
  75
0
  40
 60.000000000000
  41
0.0
  76
2
  10
 2193.2707585622
  20
 4997.2796618006
  30
0.0
  10
 2365.6830691526
  20
 5147.6786376722
  30
0.0
  77
1
   0
LEADER
   5
27F
 100
AcDbEntity
   8
LEVEL001
 370
13
   6
CONTINUOUS
  62
1
 100
AcDbLeader
   3
GMM002
  73
3
  74
1
  75
0
  40
 60.000000000000
  41
0.0
  76
2
  10
 2623.4832415438
  20
 4997.2796618006
  30
0.0
  10
 2468.8608361512
  20
 5145.4994617444
  30
0.0
  77
1
   0
CIRCLE
   5
280
 100
AcDbEntity
   8
LEVEL001
 370
13
 100
AcDbCircle
   6
CONTINUOUS
  62
1
  10
 3577.7645766898
  20
 5193.8796618006
  30
0.0
  40
 69.999997913838
   0
CIRCLE
   5
281
 100
AcDbEntity
   8
LEVEL001
 370
13
 100
AcDbCircle
   6
CONTINUOUS
  62
1
  10
 3717.7645725176
  20
 5193.8796618006
  30
0.0
  40
 69.999997913838
   0
MTEXT
   5
282
 100
AcDbEntity
   8
LEVEL001
 370
13
  62
1
 100
AcDbMText
  10
 3577.7645766898
  20
 5193.8796618006
  30
0.0
  40
 57.142857142858
  41
0.0
  71
5
  72
1
   1
\T1.000000;6
   7
GMM001
  44
 0.79999984000003
   0
MTEXT
   5
283
 100
AcDbEntity
   8
LEVEL001
 370
13
  62
1
 100
AcDbMText
  10
 3717.7645725176
  20
 5193.8796618006
  30
0.0
  40
 57.142857142858
  41
0.0
  71
5
  72
1
   1
\T1.000000;8
   7
GMM001
  44
 0.79999984000003
   0
LEADER
   5
284
 100
AcDbEntity
   8
LEVEL001
 370
13
   6
CONTINUOUS
  62
1
 100
AcDbLeader
   3
GMM002
  73
3
  74
1
  75
0
  40
 60.000000000000
  41
0.0
  76
2
  10
 3475.2749206136
  20
 4748.8796618006
  30
0.0
  10
 3561.7078866316
  20
 5125.7460987622
  30
0.0
  77
1
   0
MTEXT
   5
285
 100
AcDbEntity
   8
LEVEL001
 370
13
  62
1
 100
AcDbMText
  10
 3418.2707585622
  20
 5193.8796618006
  30
0.0
  40
 57.142857142858
  41
0.0
  71
5
  72
1
   1
\T1.000000;13
   7
GMM001
  44
 0.79999984000003
   0
CIRCLE
   5
286
 100
AcDbEntity
   8
LEVEL001
 370
13
 100
AcDbCircle
   6
CONTINUOUS
  62
1
  10
 3418.2707585622
  20
 5193.8796618006
  30
0.0
  40
 70.000000000000
   0
LEADER
   5
287
 100
AcDbEntity
   8
LEVEL001
 370
13
   6
CONTINUOUS
  62
1
 100
AcDbLeader
   3
GMM002
  73
3
  74
1
  75
0
  40
 60.000000000000
  41
0.0
  76
2
  10
 3218.2707585622
  20
 5074.4796618005
  30
0.0
  10
 3358.6434051902
  20
 5157.2111640149
  30
0.0
  77
1
   0
CIRCLE
   5
288
 100
AcDbEntity
   8
LEVEL001
 370
13
 100
AcDbCircle
   6
CONTINUOUS
  62
1
  10
 2878.2707627346
  20
 5193.8796618006
  30
0.0
  40
 69.999997913838
   0
CIRCLE
   5
289
 100
AcDbEntity
   8
LEVEL001
 370
13
 100
AcDbCircle
   6
CONTINUOUS
  62
1
  10
 3018.2707585622
  20
 5193.8796618006
  30
0.0
  40
 69.999997913838
   0
MTEXT
   5
28A
 100
AcDbEntity
   8
LEVEL001
 370
13
  62
1
 100
AcDbMText
  10
 3018.2707585622
  20
 5193.8796618006
  30
0.0
  40
 57.142857142858
  41
0.0
  71
5
  72
1
   1
\T1.000000;7
   7
GMM001
  44
 0.79999984000003
   0
MTEXT
   5
28B
 100
AcDbEntity
   8
LEVEL001
 370
13
  62
1
 100
AcDbMText
  10
 2878.2707627346
  20
 5193.8796618006
  30
0.0
  40
 57.142857142858
  41
0.0
  71
5
  72
1
   1
\T1.000000;5
   7
GMM001
  44
 0.79999984000003
   0
LEADER
   5
28C
 100
AcDbEntity
   8
LEVEL001
 370
13
   6
CONTINUOUS
  62
1
 100
AcDbLeader
   3
GMM002
  73
3
  74
1
  75
0
  40
 60.000000000000
  41
0.0
  76
2
  10
 2758.8155607796
  20
 4748.8796618006
  30
0.0
  10
 2861.4397294062
  20
 5125.9332415488
  30
0.0
  77
1
   0
LINE
   5
28D
 100
AcDbEntity
   8
LEVEL001
 370
13
 100
AcDbLine
   6
CONTINUOUS
  62
7
  10
 1660.7707585622
  20
 4391.3796618006
  30
0.0
  11
 2325.7707585622
  21
 4391.3796618006
  31
0.0
   0
LINE
   5
28E
 100
AcDbEntity
   8
LEVEL001
 370
13
 100
AcDbLine
   6
CONTINUOUS
  62
3
  10
 1660.7707585622
  20
 4370.4796618005
  30
0.0
  11
 2325.7707585622
  21
 4370.4796618005
  31
0.0
   0
LINE
   5
28F
 100
AcDbEntity
   8
LEVEL001
 370
13
 100
AcDbLine
   6
CONTINUOUS
  62
3
  10
 1660.7707585622
  20
 4385.4796618005
  30
0.0
  11
 2325.7707585622
  21
 4385.4796618005
  31
0.0
   0
ARC
   5
290
 100
AcDbEntity
   8
LEVEL001
 370
13
   6
CONTINUOUS
  62
7
 100
AcDbCircle
  10
 2325.7707585622
  20
 4461.3796618006
  30
0.0
  40
 70.000000000000
 100
AcDbArc
  50
 270.00000000000
  51
0.0
   0
ARC
   5
291
 100
AcDbEntity
   8
LEVEL001
 370
13
   6
CONTINUOUS
  62
3
 100
AcDbCircle
  10
 2325.7707585622
  20
 4461.3796618005
  30
0.0
  40
 90.900000000000
 100
AcDbArc
  50
 270.00000000000
  51
 0.14905009960710E-10
   0
ARC
   5
292
 100
AcDbEntity
   8
LEVEL001
 370
13
   6
CONTINUOUS
  62
3
 100
AcDbCircle
  10
 2325.7707585622
  20
 4461.3796618005
  30
0.0
  40
 75.900000000000
 100
AcDbArc
  50
 270.00000000000
  51
 0.17850664103143E-10
   0
LINE
   5
293
 100
AcDbEntity
   8
LEVEL001
 370
13
 100
AcDbLine
   6
DASHDOT
  62
6
  10
 1993.2707585622
  20
 4318.8796618006
  30
0.0
  11
 1993.2707585622
  21
 5068.8796618006
  31
0.0
   0
ARC
   5
294
 100
AcDbEntity
   8
LEVEL001
 370
13
   6
CONTINUOUS
  62
3
 100
AcDbCircle
  10
 2700.2832415438
  20
 4372.2796618005
  30
0.0
  40
 1.8000000000002
 100
AcDbArc
  50
 179.99999999945
  51
 269.99999999916
   0
ARC
   5
295
 100
AcDbEntity
   8
LEVEL001
 370
13
   6
CONTINUOUS
  62
3
 100
AcDbCircle
  10
 2700.2832415438
  20
 4372.2796618005
  30
0.0
  40
 1.8000000000002
 100
AcDbArc
  50
 269.99999999945
  51
 0.55005219451154E-9
   0
LINE
   5
296
 100
AcDbEntity
   8
LEVEL001
 370
13
 100
AcDbLine
   6
CONTINUOUS
  62
7
  10
 2698.4832415438
  20
 4391.3796618006
  30
0.0
  11
 2678.4346952728
  21
 4391.3796618006
  31
0.0
   0
ARC
   5
297
 100
AcDbEntity
   8
LEVEL001
 370
13
   6
CONTINUOUS
  62
7
 100
AcDbCircle
  10
 2678.4346952728
  20
 4401.3796618006
  30
0.0
  40
 10.000000000000
 100
AcDbArc
  50
 185.61400058631
  51
 269.99999999999
   0
CIRCLE
   5
298
 100
AcDbEntity
   8
LEVEL001
 370
13
 100
AcDbCircle
   6
CONTINUOUS
  62
1
  10
 2418.2707585622
  20
 4243.8796618006
  30
0.0
  40
 69.999997913838
   0
MTEXT
   5
299
 100
AcDbEntity
   8
LEVEL001
 370
13
  62
1
 100
AcDbMText
  10
 2418.2707585622
  20
 4243.8796618006
  30
0.0
  40
 57.142857142858
  41
0.0
  71
5
  72
1
   1
\T1.000000;1
   7
GMM001
  44
 0.79999984000003
   0
CIRCLE
   5
29A
 100
AcDbEntity
   8
LEVEL001
 370
13
 100
AcDbCircle
   6
CONTINUOUS
  62
1
  10
 2218.2707585622
  20
 4243.8796618006
  30
0.0
  40
 69.999997913838
   0
MTEXT
   5
29B
 100
AcDbEntity
   8
LEVEL001
 370
13
  62
1
 100
AcDbMText
  10
 2218.2707585622
  20
 4243.8796618006
  30
0.0
  40
 57.142857142858
  41
0.0
  71
5
  72
1
   1
\T1.000000;4
   7
GMM001
  44
 0.79999984000003
   0
LEADER
   5
29C
 100
AcDbEntity
   8
LEVEL001
 370
13
   6
CONTINUOUS
  62
1
 100
AcDbLeader
   3
GMM002
  73
3
  74
1
  75
0
  40
 60.000000000000
  41
0.0
  76
2
  10
 2660.7673264122
  20
 4493.8796618006
  30
0.0
  10
 2467.1321933684
  20
 4294.0051034108
  30
0.0
  77
1
   0
LEADER
   5
29D
 100
AcDbEntity
   8
LEVEL001
 370
13
   6
CONTINUOUS
  62
1
 100
AcDbLeader
   3
GMM002
  73
3
  74
1
  75
0
  40
 60.000000000000
  41
0.0
  76
2
  10
 2193.2707585622
  20
 4493.8796618006
  30
0.0
  10
 2371.0244960974
  20
 4295.5303190184
  30
0.0
  77
1
   0
LEADER
   5
29E
 100
AcDbEntity
   8
LEVEL001
 370
13
   6
CONTINUOUS
  62
1
 100
AcDbLeader
   3
GMM002
  73
3
  74
1
  75
0
  40
 60.000000000000
  41
0.0
  76
2
  10
 2091.7347081906
  20
 4370.4796618005
  30
0.0
  10
 2168.9248486926
  20
 4293.5282356679
  30
0.0
  77
1
   0
ARC
   5
29F
 100
AcDbEntity
   8
LEVEL001
 370
13
   6
CONTINUOUS
  62
7
 100
AcDbCircle
  10
 1660.7707585622
  20
 4926.3796618006
  30
0.0
  40
 70.000000000000
 100
AcDbArc
  50
 90.000000000000
  51
 180.00000000000
   0
LINE
   5
2A0
 100
AcDbEntity
   8
LEVEL001
 370
13
 100
AcDbLine
   6
CONTINUOUS
  62
7
  10
 1590.7707585622
  20
 4926.3796618006
  30
0.0
  11
 1590.7707585622
  21
 4461.3796618006
  31
0.0
   0
ARC
   5
2A1
 100
AcDbEntity
   8
LEVEL001
 370
13
   6
CONTINUOUS
  62
7
 100
AcDbCircle
  10
 1660.7707585622
  20
 4461.3796618006
  30
0.0
  40
 70.000000000000
 100
AcDbArc
  50
 180.00000000000
  51
 270.00000000000
   0
ARC
   5
2A2
 100
AcDbEntity
   8
LEVEL001
 370
13
   6
CONTINUOUS
  62
3
 100
AcDbCircle
  10
 1660.7707585622
  20
 4926.3796618006
  30
0.0
  40
 90.900000000000
 100
AcDbArc
  50
 89.999999999995
  51
 180.00000000000
   0
ARC
   5
2A3
 100
AcDbEntity
   8
LEVEL001
 370
13
   6
CONTINUOUS
  62
3
 100
AcDbCircle
  10
 1660.7707585622
  20
 4461.3796618005
  30
0.0
  40
 90.900000000000
 100
AcDbArc
  50
 179.99999999999
  51
 270.00000000001
   0
LINE
   5
2A4
 100
AcDbEntity
   8
LEVEL001
 370
13
 100
AcDbLine
   6
CONTINUOUS
  62
3
  10
 1569.8707585622
  20
 4926.3796618006
  30
0.0
  11
 1569.8707585622
  21
 4461.3796618006
  31
0.0
   0
ARC
   5
2A5
 100
AcDbEntity
   8
LEVEL001
 370
13
   6
CONTINUOUS
  62
3
 100
AcDbCircle
  10
 1660.7707585622
  20
 4926.3796618006
  30
0.0
  40
 75.900000000000
 100
AcDbArc
  50
 89.999999999993
  51
 180.00000000000
   0
LINE
   5
2A6
 100
AcDbEntity
   8
LEVEL001
 370
13
 100
AcDbLine
   6
CONTINUOUS
  62
3
  10
 1584.8707585622
  20
 4926.3796618006
  30
0.0
  11
 1584.8707585622
  21
 4461.3796618006
  31
0.0
   0
ARC
   5
2A7
 100
AcDbEntity
   8
LEVEL001
 370
13
   6
CONTINUOUS
  62
3
 100
AcDbCircle
  10
 1660.7707585622
  20
 4461.3796618005
  30
0.0
  40
 75.900000000000
 100
AcDbArc
  50
 179.99999999998
  51
 270.00000000001
   0
LINE
   5
2A8
 100
AcDbEntity
   8
LEVEL001
 370
13
 100
AcDbLine
   6
DASHDOT
  62
6
  10
 1518.2707585622
  20
 4693.8796618006
  30
0.0
  11
 2468.2707585622
  21
 4693.8796618006
  31
0.0
   0
LINE
   5
2A9
 100
AcDbEntity
   8
LEVEL001
 370
13
 100
AcDbLine
   6
CONTINUOUS
  62
7
  10
 1569.8707585622
  20
 4638.8796618006
  30
0.0
  11
 1564.3008845668
  21
 4638.8796618006
  31
0.0
   0
LINE
   5
2AA
 100
AcDbEntity
   8
LEVEL001
 370
13
 100
AcDbLine
   6
CONTINUOUS
  62
7
  10
 1564.3008845668
  20
 4638.8796618006
  30
0.0
  11
 1564.3008845668
  21
 4578.8796618006
  31
0.0
   0
LINE
   5
2AB
 100
AcDbEntity
   8
LEVEL001
 370
13
 100
AcDbLine
   6
CONTINUOUS
  62
7
  10
 1564.3008845668
  20
 4578.8796618006
  30
0.0
  11
 1569.8707585622
  21
 4578.8796618006
  31
0.0
   0
LINE
   5
2AC
 100
AcDbEntity
   8
LEVEL001
 370
13
 100
AcDbLine
   6
CONTINUOUS
  62
7
  10
 1466.6707585622
  20
 4673.8796618006
  30
0.0
  11
 1569.8707585622
  21
 4673.8796618006
  31
0.0
   0
LINE
   5
2AD
 100
AcDbEntity
   8
LEVEL001
 370
13
 100
AcDbLine
   6
CONTINUOUS
  62
7
  10
 1569.8707585622
  20
 4783.8796618006
  30
0.0
  11
 1470.5208261821
  21
 4783.8796618006
  31
0.0
   0
LINE
   5
2AE
 100
AcDbEntity
   8
LEVEL001
 370
13
 100
AcDbLine
   6
CONTINUOUS
  62
7
  10
 1470.5208261821
  20
 4783.8796618006
  30
0.0
  11
 1470.5208261821
  21
 4762.7243133155
  31
0.0
   0
LINE
   5
2AF
 100
AcDbEntity
   8
LEVEL001
 370
13
 100
AcDbLine
   6
CONTINUOUS
  62
7
  10
 1375.7707585622
  20
 4996.3796618006
  30
0.0
  11
 710.77075856223
  21
 4996.3796618006
  31
0.0
   0
LINE
   5
2B0
 100
AcDbEntity
   8
LEVEL001
 370
13
 100
AcDbLine
   6
CONTINUOUS
  62
7
  10
 710.77075856223
  20
 4391.3796618006
  30
0.0
  11
 1375.7707585622
  21
 4391.3796618006
  31
0.0
   0
LINE
   5
2B1
 100
AcDbEntity
   8
LEVEL001
 370
13
 100
AcDbLine
   6
CONTINUOUS
  62
3
  10
 1375.7707585622
  20
 5017.2796618006
  30
0.0
  11
 710.77075856223
  21
 5017.2796618006
  31
0.0
   0
LINE
   5
2B2
 100
AcDbEntity
   8
LEVEL001
 370
13
 100
AcDbLine
   6
CONTINUOUS
  62
3
  10
 710.77075856223
  20
 4370.4796618005
  30
0.0
  11
 1375.7707585622
  21
 4370.4796618005
  31
0.0
   0
LINE
   5
2B3
 100
AcDbEntity
   8
LEVEL001
 370
13
 100
AcDbLine
   6
CONTINUOUS
  62
3
  10
 1375.7707585622
  20
 5002.2796618006
  30
0.0
  11
 710.77075856223
  21
 5002.2796618006
  31
0.0
   0
LINE
   5
2B4
 100
AcDbEntity
   8
LEVEL001
 370
13
 100
AcDbLine
   6
CONTINUOUS
  62
3
  10
 710.77075856223
  20
 4385.4796618005
  30
0.0
  11
 1375.7707585622
  21
 4385.4796618005
  31
0.0
   0
ARC
   5
2B5
 100
AcDbEntity
   8
LEVEL001
 370
13
   6
CONTINUOUS
  62
1
 100
AcDbCircle
  10
 710.77075856222
  20
 4926.3796618006
  30
0.0
  40
 70.900000000000
 100
AcDbArc
  50
 89.999999999993
  51
 180.00000000000
   0
LINE
   5
2B6
 100
AcDbEntity
   8
LEVEL001
 370
13
 100
AcDbLine
   6
CONTINUOUS
  62
1
  10
 1375.7707585622
  20
 4997.2796618006
  30
0.0
  11
 710.77075856223
  21
 4997.2796618006
  31
0.0
   0
ARC
   5
2B7
 100
AcDbEntity
   8
LEVEL001
 370
13
   6
CONTINUOUS
  62
1
 100
AcDbCircle
  10
 1375.7707585622
  20
 4926.3796618006
  30
0.0
  40
 70.900000000000
 100
AcDbArc
  50
 0.44098906545358E-11
  51
 89.999999999995
   0
LINE
   5
2B8
 100
AcDbEntity
   8
LEVEL001
 370
13
 100
AcDbLine
   6
CONTINUOUS
  62
1
  10
 639.87075856222
  20
 4926.3796618006
  30
0.0
  11
 639.87075856222
  21
 4770.2491213005
  31
0.0
   0
LINE
   5
2B9
 100
AcDbEntity
   8
LEVEL001
 370
13
 100
AcDbLine
   6
CONTINUOUS
  62
1
  10
 1446.6707585622
  20
 4770.2491213005
  30
0.0
  11
 1446.6707585622
  21
 4926.3796618006
  31
0.0
   0
LINE
   5
2BA
 100
AcDbEntity
   8
LEVEL001
 370
13
 100
AcDbLine
   6
CONTINUOUS
  62
1
  10
 639.87075856222
  20
 4770.2491213005
  30
0.0
  11
 640.77075856223
  21
 4770.2491213005
  31
0.0
   0
LINE
   5
2BB
 100
AcDbEntity
   8
LEVEL001
 370
13
 100
AcDbLine
   6
CONTINUOUS
  62
1
  10
 1446.6707585622
  20
 4770.2491213005
  30
0.0
  11
 1445.7707585622
  21
 4770.2491213005
  31
0.0
   0
ARC
   5
2BC
 100
AcDbEntity
   8
LEVEL001
 370
13
   6
CONTINUOUS
  62
7
 100
AcDbCircle
  10
 710.77075856223
  20
 4926.3796618006
  30
0.0
  40
 70.000000000000
 100
AcDbArc
  50
 90.000000000000
  51
 180.00000000000
   0
LINE
   5
2BD
 100
AcDbEntity
   8
LEVEL001
 370
13
 100
AcDbLine
   6
CONTINUOUS
  62
7
  10
 640.77075856223
  20
 4926.3796618006
  30
0.0
  11
 640.77075856223
  21
 4461.3796618006
  31
0.0
   0
ARC
   5
2BE
 100
AcDbEntity
   8
LEVEL001
 370
13
   6
CONTINUOUS
  62
7
 100
AcDbCircle
  10
 710.77075856223
  20
 4461.3796618006
  30
0.0
  40
 70.000000000000
 100
AcDbArc
  50
 180.00000000000
  51
 270.00000000000
   0
ARC
   5
2BF
 100
AcDbEntity
   8
LEVEL001
 370
13
   6
CONTINUOUS
  62
3
 100
AcDbCircle
  10
 710.77075856222
  20
 4926.3796618006
  30
0.0
  40
 90.900000000000
 100
AcDbArc
  50
 89.999999999994
  51
 180.00000000000
   0
ARC
   5
2C0
 100
AcDbEntity
   8
LEVEL001
 370
13
   6
CONTINUOUS
  62
3
 100
AcDbCircle
  10
 710.77075856222
  20
 4461.3796618005
  30
0.0
  40
 90.900000000000
 100
AcDbArc
  50
 179.99999999999
  51
 270.00000000001
   0
LINE
   5
2C1
 100
AcDbEntity
   8
LEVEL001
 370
13
 100
AcDbLine
   6
CONTINUOUS
  62
3
  10
 619.87075856222
  20
 4926.3796618006
  30
0.0
  11
 619.87075856222
  21
 4461.3796618006
  31
0.0
   0
ARC
   5
2C2
 100
AcDbEntity
   8
LEVEL001
 370
13
   6
CONTINUOUS
  62
3
 100
AcDbCircle
  10
 710.77075856222
  20
 4926.3796618006
  30
0.0
  40
 75.900000000000
 100
AcDbArc
  50
 89.999999999993
  51
 180.00000000000
   0
LINE
   5
2C3
 100
AcDbEntity
   8
LEVEL001
 370
13
 100
AcDbLine
   6
CONTINUOUS
  62
3
  10
 634.87075856222
  20
 4926.3796618006
  30
0.0
  11
 634.87075856222
  21
 4461.3796618006
  31
0.0
   0
ARC
   5
2C4
 100
AcDbEntity
   8
LEVEL001
 370
13
   6
CONTINUOUS
  62
3
 100
AcDbCircle
  10
 710.77075856222
  20
 4461.3796618005
  30
0.0
  40
 75.900000000000
 100
AcDbArc
  50
 179.99999999998
  51
 270.00000000001
   0
LINE
   5
2C5
 100
AcDbEntity
   8
LEVEL001
 370
13
 100
AcDbLine
   6
DASHDOT
  62
6
  10
 568.27075856223
  20
 4693.8796618006
  30
0.0
  11
 1518.2707585622
  21
 4693.8796618006
  31
0.0
   0
ARC
   5
2C6
 100
AcDbEntity
   8
LEVEL001
 370
13
   6
CONTINUOUS
  62
7
 100
AcDbCircle
  10
 1375.7707585622
  20
 4926.3796618006
  30
0.0
  40
 70.000000000000
 100
AcDbArc
  50
0.0
  51
 90.000000000000
   0
LINE
   5
2C7
 100
AcDbEntity
   8
LEVEL001
 370
13
 100
AcDbLine
   6
CONTINUOUS
  62
7
  10
 1445.7707585622
  20
 4461.3796618006
  30
0.0
  11
 1445.7707585622
  21
 4926.3796618006
  31
0.0
   0
ARC
   5
2C8
 100
AcDbEntity
   8
LEVEL001
 370
13
   6
CONTINUOUS
  62
3
 100
AcDbCircle
  10
 1375.7707585622
  20
 4926.3796618006
  30
0.0
  40
 90.900000000000
 100
AcDbArc
  50
 0.34396176832408E-11
  51
 89.999999999996
   0
LINE
   5
2C9
 100
AcDbEntity
   8
LEVEL001
 370
13
 100
AcDbLine
   6
CONTINUOUS
  62
3
  10
 1466.6707585622
  20
 4461.3796618006
  30
0.0
  11
 1466.6707585622
  21
 4926.3796618006
  31
0.0
   0
LINE
   5
2CA
 100
AcDbEntity
   8
LEVEL001
 370
13
 100
AcDbLine
   6
CONTINUOUS
  62
3
  10
 1451.6707585622
  20
 4461.3796618006
  30
0.0
  11
 1451.6707585622
  21
 4926.3796618006
  31
0.0
   0
ARC
   5
2CB
 100
AcDbEntity
   8
LEVEL001
 370
13
   6
CONTINUOUS
  62
3
 100
AcDbCircle
  10
 1375.7707585622
  20
 4926.3796618006
  30
0.0
  40
 75.900000000000
 100
AcDbArc
  50
 0.41193840238022E-11
  51
 89.999999999996
   0
ARC
   5
2CC
 100
AcDbEntity
   8
LEVEL001
 370
13
   6
CONTINUOUS
  62
7
 100
AcDbCircle
  10
 1375.7707585622
  20
 4461.3796618006
  30
0.0
  40
 70.000000000000
 100
AcDbArc
  50
 270.00000000000
  51
0.0
   0
ARC
   5
2CD
 100
AcDbEntity
   8
LEVEL001
 370
13
   6
CONTINUOUS
  62
3
 100
AcDbCircle
  10
 1375.7707585622
  20
 4461.3796618005
  30
0.0
  40
 90.900000000000
 100
AcDbArc
  50
 270.00000000000
  51
 0.14905009960710E-10
   0
ARC
   5
2CE
 100
AcDbEntity
   8
LEVEL001
 370
13
   6
CONTINUOUS
  62
3
 100
AcDbCircle
  10
 1375.7707585622
  20
 4461.3796618005
  30
0.0
  40
 75.900000000000
 100
AcDbArc
  50
 270.00000000000
  51
 0.17850664103143E-10
   0
LINE
   5
2CF
 100
AcDbEntity
   8
LEVEL001
 370
13
 100
AcDbLine
   6
DASHDOT
  62
6
  10
 1043.2707585622
  20
 4318.8796618006
  30
0.0
  11
 1043.2707585622
  21
 5068.8796618006
  31
0.0
   0
LINE
   5
2D0
 100
AcDbEntity
   8
LEVEL001
 370
13
 100
AcDbLine
   6
CONTINUOUS
  62
7
  10
 1466.6707585622
  20
 4760.7626058810
  30
0.0
  11
 1472.2406325576
  21
 4763.6005984322
  31
0.0
   0
LINE
   5
2D1
 100
AcDbEntity
   8
LEVEL001
 370
13
 100
AcDbLine
   6
CONTINUOUS
  62
7
  10
 1472.2406325576
  20
 4763.6005984322
  30
0.0
  11
 1472.2406325576
  21
 4696.2610241742
  31
0.0
   0
LINE
   5
2D2
 100
AcDbEntity
   8
LEVEL001
 370
13
 100
AcDbLine
   6
CONTINUOUS
  62
7
  10
 1472.2406325576
  20
 4696.2610241742
  30
0.0
  11
 1466.6707585622
  21
 4693.4230316230
  31
0.0
   0
LINE
   5
2D3
 100
AcDbEntity
   8
LEVEL001
 370
13
 100
AcDbLine
   6
CONTINUOUS
  62
7
  10
 1470.5208261821
  20
 4695.3847390576
  30
0.0
  11
 1470.5208261821
  21
 4673.8796618006
  31
0.0
   0
LINE
   5
2D4
 100
AcDbEntity
   8
LEVEL001
 370
13
 100
AcDbLine
   6
CONTINUOUS
  62
7
  10
 1566.0208261822
  20
 4578.8796618006
  30
0.0
  11
 1566.0208261822
  21
 4563.8796618006
  31
0.0
   0
LINE
   5
2D5
 100
AcDbEntity
   8
LEVEL001
 370
13
 100
AcDbLine
   6
CONTINUOUS
  62
7
  10
 1566.0208261822
  20
 4563.8796618006
  30
0.0
  11
 1466.6707585622
  21
 4563.8796618006
  31
0.0
   0
LINE
   5
2D6
 100
AcDbEntity
   8
LEVEL001
 370
13
 100
AcDbLine
   6
CONTINUOUS
  62
7
  10
 1566.0208261822
  20
 4673.8796618006
  30
0.0
  11
 1566.0208261822
  21
 4638.8796618006
  31
0.0
   0
LINE
   5
2D7
 100
AcDbEntity
   8
LEVEL001
 370
13
 100
AcDbLine
   6
CONTINUOUS
  62
6
  10
 1475.7061008372
  20
 4668.8796618006
  30
0.0
  11
 1475.7061008372
  21
 4568.8796618006
  31
0.0
   0
LINE
   5
2D8
 100
AcDbEntity
   8
LEVEL001
 370
13
 100
AcDbLine
   6
CONTINUOUS
  62
6
  10
 1560.8354162872
  20
 4678.8796618006
  30
0.0
  11
 1560.8354162872
  21
 4778.8796618006
  31
0.0
   0
ARC
   5
2D9
 100
AcDbEntity
   8
LEVEL001
 370
13
   6
CONTINUOUS
  62
7
 100
AcDbCircle
  10
 1588.2704514511
  20
 4250.4796618005
  30
0.0
  40
 20.000000000000
 100
AcDbArc
  50
0.0
  51
 90.000000000000
   0
LINE
   5
2DA
 100
AcDbEntity
   8
LEVEL001
 370
13
 100
AcDbLine
   6
CONTINUOUS
  62
7
  10
 1588.2704514511
  20
 4270.4796618005
  30
0.0
  11
 1448.2730672909
  21
 4270.4796618005
  31
0.0
   0
ARC
   5
2DB
 100
AcDbEntity
   8
LEVEL001
 370
13
   6
CONTINUOUS
  62
7
 100
AcDbCircle
  10
 1448.2730672909
  20
 4250.4796618005
  30
0.0
  40
 20.000000000000
 100
AcDbArc
  50
 90.000000000000
  51
 180.00000000000
   0
LINE
   5
2DC
 100
AcDbEntity
   8
LEVEL001
 370
13
 100
AcDbLine
   6
CONTINUOUS
  62
7
  10
 1428.2730672909
  20
 4250.4796618005
  30
0.0
  11
 1428.2730672909
  21
 3690.4788770547
  31
0.0
   0
LINE
   5
2DD
 100
AcDbEntity
   8
LEVEL001
 370
13
 100
AcDbLine
   6
CONTINUOUS
  62
7
  10
 1608.2704514511
  20
 3690.4788770547
  30
0.0
  11
 1608.2704514511
  21
 4250.4796618005
  31
0.0
   0
LINE
   5
2DE
 100
AcDbEntity
   8
LEVEL001
 370
13
 100
AcDbLine
   6
CONTINUOUS
  62
7
  10
 1448.2730672909
  20
 3670.4788770547
  30
0.0
  11
 1588.2704514511
  21
 3670.4788770547
  31
0.0
   0
ARC
   5
2DF
 100
AcDbEntity
   8
LEVEL001
 370
13
   6
CONTINUOUS
  62
7
 100
AcDbCircle
  10
 1588.2704514511
  20
 3690.4788770547
  30
0.0
  40
 20.000000000000
 100
AcDbArc
  50
 270.00000000000
  51
0.0
   0
ARC
   5
2E0
 100
AcDbEntity
   8
LEVEL001
 370
13
   6
CONTINUOUS
  62
7
 100
AcDbCircle
  10
 1448.2730672909
  20
 3690.4788770547
  30
0.0
  40
 20.000000000000
 100
AcDbArc
  50
 180.00000000000
  51
 270.00000000000
   0
LINE
   5
2E1
 100
AcDbEntity
   8
LEVEL001
 370
13
 100
AcDbLine
   6
CONTINUOUS
  62
7
  10
 1473.7207585622
  20
 3670.4788770547
  30
0.0
  11
 1473.7207585622
  21
 670.47966180054
  31
0.0
   0
LINE
   5
2E2
 100
AcDbEntity
   8
LEVEL001
 370
13
 100
AcDbLine
   6
CONTINUOUS
  62
7
  10
 1473.7207585622
  20
 670.47966180054
  30
0.0
  11
 1562.8207585622
  21
 670.47966180054
  31
0.0
   0
LINE
   5
2E3
 100
AcDbEntity
   8
LEVEL001
 370
13
 100
AcDbLine
   6
CONTINUOUS
  62
7
  10
 1562.8207585622
  20
 670.47966180054
  30
0.0
  11
 1562.8207585622
  21
 3670.4788770547
  31
0.0
   0
LINE
   5
2E4
 100
AcDbEntity
   8
LEVEL001
 370
13
 100
AcDbLine
   6
CONTINUOUS
  62
7
  10
 1473.7207585622
  20
 1077.9796618005
  30
0.0
  11
 1401.8707404766
  21
 1077.9796618005
  31
0.0
   0
LINE
   5
2E5
 100
AcDbEntity
   8
LEVEL001
 370
13
 100
AcDbLine
   6
CONTINUOUS
  62
7
  10
 1401.8707404766
  20
 1077.9796618005
  30
0.0
  11
 1401.8707404766
  21
 1062.9796618005
  31
0.0
   0
LINE
   5
2E6
 100
AcDbEntity
   8
LEVEL001
 370
13
 100
AcDbLine
   6
CONTINUOUS
  62
7
  10
 1401.8707404766
  20
 1062.9796618005
  30
0.0
  11
 1473.7207585622
  21
 1062.9796618005
  31
0.0
   0
LINE
   5
2E7
 100
AcDbEntity
   8
LEVEL001
 370
13
 100
AcDbLine
   6
CONTINUOUS
  62
7
  10
 1562.8207585622
  20
 1077.9796618005
  30
0.0
  11
 1634.6707404766
  21
 1077.9796618005
  31
0.0
   0
LINE
   5
2E8
 100
AcDbEntity
   8
LEVEL001
 370
13
 100
AcDbLine
   6
CONTINUOUS
  62
7
  10
 1634.6707404766
  20
 1077.9796618005
  30
0.0
  11
 1634.6707404766
  21
 1062.9796618005
  31
0.0
   0
LINE
   5
2E9
 100
AcDbEntity
   8
LEVEL001
 370
13
 100
AcDbLine
   6
CONTINUOUS
  62
7
  10
 1634.6707404766
  20
 1062.9796618005
  30
0.0
  11
 1562.8207585622
  21
 1062.9796618005
  31
0.0
   0
LINE
   5
2EA
 100
AcDbEntity
   8
LEVEL001
 370
13
 100
AcDbLine
   6
DASHDOT
  62
6
  10
 1451.8707404766
  20
 1070.4796618005
  30
0.0
  11
 1584.6707404766
  21
 1070.4796618005
  31
0.0
   0
CIRCLE
   5
2EB
 100
AcDbEntity
   8
LEVEL001
 370
13
 100
AcDbCircle
   6
CONTINUOUS
  62
7
  10
 1518.2707247601
  20
 970.47966180054
  30
0.0
  40
 7.5000000000000
   0
LINE
   5
2EC
 100
AcDbEntity
   8
LEVEL001
 370
13
 100
AcDbLine
   6
DASHDOT
  62
6
  10
 1488.2707247601
  20
 970.47966180054
  30
0.0
  11
 1548.2707247601
  21
 970.47966180054
  31
0.0
   0
LINE
   5
2ED
 100
AcDbEntity
   8
LEVEL001
 370
13
 100
AcDbLine
   6
CONTINUOUS
  62
7
  10
 3262.8207585622
  20
 5074.4796618005
  30
0.0
  11
 3173.7207585622
  21
 5074.4796618005
  31
0.0
   0
LINE
   5
2EE
 100
AcDbEntity
   8
LEVEL001
 370
13
 100
AcDbLine
   6
CONTINUOUS
  62
7
  10
 3173.7207585622
  20
 5074.4796618005
  30
0.0
  11
 3173.7207585622
  21
 5071.4796618006
  31
0.0
   0
LINE
   5
2EF
 100
AcDbEntity
   8
LEVEL001
 370
13
 100
AcDbLine
   6
CONTINUOUS
  62
7
  10
 3173.7207585622
  20
 5071.4796618006
  30
0.0
  11
 3262.8207585622
  21
 5071.4796618006
  31
0.0
   0
LINE
   5
2F0
 100
AcDbEntity
   8
LEVEL001
 370
13
 100
AcDbLine
   6
CONTINUOUS
  62
7
  10
 3262.8207585622
  20
 5071.4796618006
  30
0.0
  11
 3262.8207585622
  21
 5074.4796618005
  31
0.0
   0
LINE
   5
2F1
 100
AcDbEntity
   8
LEVEL001
 370
13
 100
AcDbLine
   6
DOT
  62
1
  10
 3257.8207585622
  20
 5071.4796618006
  30
0.0
  11
 3257.8207585622
  21
 5044.4796618005
  31
0.0
   0
LINE
   5
2F2
 100
AcDbEntity
   8
LEVEL001
 370
13
 100
AcDbLine
   6
DOT
  62
1
  10
 3257.8207585622
  20
 5044.4796618005
  30
0.0
  11
 3178.7207585622
  21
 5044.4796618005
  31
0.0
   0
LINE
   5
2F3
 100
AcDbEntity
   8
LEVEL001
 370
13
 100
AcDbLine
   6
DOT
  62
1
  10
 3178.7207585622
  20
 5044.4796618005
  30
0.0
  11
 3178.7207585622
  21
 5071.4796618006
  31
0.0
   0
LINE
   5
2F4
 100
AcDbEntity
   8
LEVEL001
 370
13
 100
AcDbLine
   6
CONTINUOUS
  62
7
  10
 3161.2910899592
  20
 4270.4796618005
  30
0.0
  11
 3158.5771831958
  21
 4263.6948948917
  31
0.0
   0
ARC
   5
2F5
 100
AcDbEntity
   8
LEVEL001
 370
13
   6
CONTINUOUS
  62
7
 100
AcDbCircle
  10
 3163.2195666502
  20
 4261.8379415099
  30
0.0
  40
 5.0000000000000
 100
AcDbArc
  50
 158.19859051318
  51
 179.99999999983
   0
LINE
   5
2F6
 100
AcDbEntity
   8
LEVEL001
 370
13
 100
AcDbLine
   6
CONTINUOUS
  62
7
  10
 3158.2195666502
  20
 4261.8379415099
  30
0.0
  11
 3158.2195666502
  21
 3679.1213820896
  31
0.0
   0
ARC
   5
2F7
 100
AcDbEntity
   8
LEVEL001
 370
13
   6
CONTINUOUS
  62
7
 100
AcDbCircle
  10
 3157.2195666502
  20
 4254.6320153415
  30
0.0
  40
 5.0000000000000
 100
AcDbArc
  50
 0.50025799585054E-9
  51
 21.801409486816
   0
LINE
   5
2F8
 100
AcDbEntity
   8
LEVEL001
 370
13
 100
AcDbLine
   6
CONTINUOUS
  62
7
  10
 3160.0596792498
  20
 4260.9946458600
  30
0.0
  11
 3161.8619501046
  21
 4256.4889687231
  31
0.0
   0
ARC
   5
2F9
 100
AcDbEntity
   8
LEVEL001
 370
13
   6
CONTINUOUS
  62
7
 100
AcDbCircle
  10
 3164.7020627044
  20
 4262.8515992418
  30
0.0
  40
 5.0000000000000
 100
AcDbArc
  50
 158.19859051354
  51
 201.80140948646
   0
LINE
   5
2FA
 100
AcDbEntity
   8
LEVEL001
 370
13
 100
AcDbLine
   6
CONTINUOUS
  62
7
  10
 3161.2910899592
  20
 4270.4796618005
  30
0.0
  11
 3162.2195666502
  21
 4270.1082711241
  31
0.0
   0
LINE
   5
2FB
 100
AcDbEntity
   8
LEVEL001
 370
13
 100
AcDbLine
   6
CONTINUOUS
  62
7
  10
 3162.2195666502
  20
 4270.1082711241
  30
0.0
  11
 3160.0596792498
  21
 4264.7085526236
  31
0.0
   0
LINE
   5
2FC
 100
AcDbEntity
   8
LEVEL001
 370
13
 100
AcDbLine
   6
CONTINUOUS
  62
7
  10
 3162.2195666502
  20
 4254.6320153415
  30
0.0
  11
 3162.2195666502
  21
 3686.3273082580
  31
0.0
   0
LINE
   5
2FD
 100
AcDbEntity
   8
LEVEL001
 370
13
 100
AcDbLine
   6
CONTINUOUS
  62
7
  10
 3173.7207585622
  20
 4783.8796618006
  30
0.0
  11
 3173.7207585622
  21
 5070.4796618005
  31
0.0
   0
LINE
   5
2FE
 100
AcDbEntity
   8
LEVEL001
 370
13
 100
AcDbLine
   6
CONTINUOUS
  62
7
  10
 3173.7207585622
  20
 5070.4796618005
  30
0.0
  11
 3262.8207585622
  21
 5070.4796618005
  31
0.0
   0
LINE
   5
2FF
 100
AcDbEntity
   8
LEVEL001
 370
13
 100
AcDbLine
   6
CONTINUOUS
  62
7
  10
 3262.8207585622
  20
 5070.4796618005
  30
0.0
  11
 3262.8207585622
  21
 4783.8796618006
  31
0.0
   0
LINE
   5
300
 100
AcDbEntity
   8
LEVEL001
 370
13
 100
AcDbLine
   6
CONTINUOUS
  62
7
  10
 3262.8207585622
  20
 4563.8796618006
  30
0.0
  11
 3262.8207585622
  21
 4182.9796620805
  31
0.0
   0
LINE
   5
301
 100
AcDbEntity
   8
LEVEL001
 370
13
 100
AcDbLine
   6
CONTINUOUS
  62
7
  10
 3173.7207585622
  20
 4182.9796620805
  30
0.0
  11
 3173.7207585622
  21
 4563.8796618006
  31
0.0
   0
LINE
   5
302
 100
AcDbEntity
   8
LEVEL001
 370
13
 100
AcDbLine
   6
CONTINUOUS
  62
6
  10
 3165.2195666502
  20
 3741.4796007608
  30
0.0
  11
 3165.2195666502
  21
 3740.4796617997
  31
0.0
   0
LINE
   5
303
 100
AcDbEntity
   8
LEVEL001
 370
13
 100
AcDbLine
   6
CONTINUOUS
  62
7
  10
 3165.6750454292
  20
 3755.4800279522
  30
0.0
  11
 3165.6755031932
  21
 3797.4799362355
  31
0.0
   0
LINE
   5
304
 100
AcDbEntity
   8
LEVEL001
 370
13
 100
AcDbLine
   6
CONTINUOUS
  62
7
  10
 3162.2195666502
  20
 3812.4796615188
  30
0.0
  11
 3165.2195666502
  21
 3812.4796615188
  31
0.0
   0
LINE
   5
305
 100
AcDbEntity
   8
LEVEL001
 370
13
 100
AcDbLine
   6
CONTINUOUS
  62
6
  10
 3165.2195666502
  20
 3812.4796615188
  30
0.0
  11
 3165.2195666502
  21
 3811.4796310052
  31
0.0
   0
LINE
   5
306
 100
AcDbEntity
   8
LEVEL001
 370
13
 100
AcDbLine
   6
CONTINUOUS
  62
6
  10
 3165.2195666502
  20
 3811.4796310052
  30
0.0
  11
 3162.2195666502
  21
 3811.4796310052
  31
0.0
   0
ELLIPSE
   5
307
 100
AcDbEntity
   8
LEVEL001
 370
13
   6
CONTINUOUS
  62
7
 100
AcDbEllipse
  10
 3161.6755006420
  20
 3797.4798750830
  30
0.0
  11
-4.0000025516047
  21
0.0
  31
0.0
  40
 0.99999938800000
  41
-3.1415773654645
  42
-1.7072356670373
   0
LINE
   5
308
 100
AcDbEntity
   8
LEVEL001
 370
13
 100
AcDbLine
   6
CONTINUOUS
  62
6
  10
 3162.2195666502
  20
 3741.4796007608
  30
0.0
  11
 3165.2195666502
  21
 3741.4796007608
  31
0.0
   0
ELLIPSE
   5
309
 100
AcDbEntity
   8
LEVEL001
 370
13
   6
CONTINUOUS
  62
7
 100
AcDbEllipse
  10
 3161.6750428794
  20
 3755.4799060009
  30
0.0
  11
-4.0000025516047
  21
0.0
  31
0.0
  40
 0.99999938800000
  41
 1.7073511820393
  42
-3.1415621657857
   0
LINE
   5
30A
 100
AcDbEntity
   8
LEVEL001
 370
13
 100
AcDbLine
   6
CONTINUOUS
  62
7
  10
 3165.2195666502
  20
 3740.4796617997
  30
0.0
  11
 3162.2195666502
  21
 3740.4796617997
  31
0.0
   0
LINE
   5
30B
 100
AcDbEntity
   8
LEVEL001
 370
13
 100
AcDbLine
   6
CONTINUOUS
  62
6
  10
 3262.0475676498
  20
 3759.9796615188
  30
0.0
  11
 3262.0475676498
  21
 3768.9796615188
  31
0.0
   0
LINE
   5
30C
 100
AcDbEntity
   8
LEVEL001
 370
13
 100
AcDbLine
   6
CONTINUOUS
  62
6
  10
 3262.0475676498
  20
 3783.9796615188
  30
0.0
  11
 3262.0475676498
  21
 3792.9796615188
  31
0.0
   0
LINE
   5
30D
 100
AcDbEntity
   8
LEVEL001
 370
13
 100
AcDbLine
   6
CONTINUOUS
  62
6
  10
 3264.3660926910
  20
 3769.9796615188
  30
0.0
  11
 3264.3660926910
  21
 3782.9796615188
  31
0.0
   0
LINE
   5
30E
 100
AcDbEntity
   8
LEVEL001
 370
13
 100
AcDbLine
   6
CONTINUOUS
  62
6
  10
 3262.0475676498
  20
 3782.9796615188
  30
0.0
  11
 3175.9667737744
  21
 3782.9796615188
  31
0.0
   0
LINE
   5
30F
 100
AcDbEntity
   8
LEVEL001
 370
13
 100
AcDbLine
   6
CONTINUOUS
  62
6
  10
 3175.9667737744
  20
 3769.9796615188
  30
0.0
  11
 3262.0475676498
  21
 3769.9796615188
  31
0.0
   0
LINE
   5
310
 100
AcDbEntity
   8
LEVEL001
 370
13
 100
AcDbLine
   6
CONTINUOUS
  62
7
  10
 3165.6754759422
  20
 3757.9796615188
  30
0.0
  11
 3283.2195666502
  21
 3757.9796615188
  31
0.0
   0
LINE
   5
311
 100
AcDbEntity
   8
LEVEL001
 370
13
 100
AcDbLine
   6
CONTINUOUS
  62
7
  10
 3283.2195666502
  20
 3757.9796615188
  30
0.0
  11
 3283.2195666502
  21
 3794.9796615188
  31
0.0
   0
LINE
   5
312
 100
AcDbEntity
   8
LEVEL001
 370
13
 100
AcDbLine
   6
CONTINUOUS
  62
7
  10
 3283.2195666502
  20
 3794.9796615188
  30
0.0
  11
 3165.6750726732
  21
 3794.9796615188
  31
0.0
   0
LINE
   5
313
 100
AcDbEntity
   8
LEVEL001
 370
13
 100
AcDbLine
   6
CONTINUOUS
  62
6
  10
 3174.7058792048
  20
 3770.9796615188
  30
0.0
  11
 3174.7058792048
  21
 3781.9796615188
  31
0.0
   0
LINE
   5
314
 100
AcDbEntity
   8
LEVEL001
 370
13
 100
AcDbLine
   6
CONTINUOUS
  62
6
  10
 3174.7058792048
  20
 3783.9796615188
  30
0.0
  11
 3174.7058792048
  21
 3792.9796615188
  31
0.0
   0
LINE
   5
315
 100
AcDbEntity
   8
LEVEL001
 370
13
 100
AcDbLine
   6
CONTINUOUS
  62
6
  10
 3174.7058792048
  20
 3759.9796615188
  30
0.0
  11
 3174.7058792048
  21
 3768.9796615188
  31
0.0
   0
ARC
   5
316
 100
AcDbEntity
   8
LEVEL001
 370
13
   6
CONTINUOUS
  62
7
 100
AcDbCircle
  10
 3163.2195666502
  20
 3679.1213820896
  30
0.0
  40
 5.0000000000000
 100
AcDbArc
  50
 180.00000000017
  51
 201.80140948682
   0
LINE
   5
317
 100
AcDbEntity
   8
LEVEL001
 370
13
 100
AcDbLine
   6
CONTINUOUS
  62
7
  10
 3161.2910899592
  20
 3670.4796617990
  30
0.0
  11
 3158.5771831958
  21
 3677.2644287078
  31
0.0
   0
ARC
   5
318
 100
AcDbEntity
   8
LEVEL001
 370
13
   6
CONTINUOUS
  62
7
 100
AcDbCircle
  10
 3157.2195666502
  20
 3686.3273082580
  30
0.0
  40
 5.0000000000000
 100
AcDbArc
  50
 338.19859051318
  51
 359.99999999983
   0
LINE
   5
319
 100
AcDbEntity
   8
LEVEL001
 370
13
 100
AcDbLine
   6
CONTINUOUS
  62
7
  10
 3160.0596792498
  20
 3679.9646777396
  30
0.0
  11
 3161.8619501046
  21
 3684.4703548761
  31
0.0
   0
ARC
   5
31A
 100
AcDbEntity
   8
LEVEL001
 370
13
   6
CONTINUOUS
  62
7
 100
AcDbCircle
  10
 3164.7020627044
  20
 3678.1077243578
  30
0.0
  40
 5.0000000000000
 100
AcDbArc
  50
 158.19859051372
  51
 201.80140948628
   0
LINE
   5
31B
 100
AcDbEntity
   8
LEVEL001
 370
13
 100
AcDbLine
   6
CONTINUOUS
  62
7
  10
 3161.2910899592
  20
 3670.4796617990
  30
0.0
  11
 3162.2195666502
  21
 3670.8510524754
  31
0.0
   0
LINE
   5
31C
 100
AcDbEntity
   8
LEVEL001
 370
13
 100
AcDbLine
   6
CONTINUOUS
  62
7
  10
 3162.2195666502
  20
 3670.8510524754
  30
0.0
  11
 3160.0596792498
  21
 3676.2507709759
  31
0.0
   0
LINE
   5
31D
 100
AcDbEntity
   8
LEVEL001
 370
13
 100
AcDbLine
   6
CONTINUOUS
  62
6
  10
 3262.0475676498
  20
 4170.9796620806
  30
0.0
  11
 3175.9667737744
  21
 4170.9796620806
  31
0.0
   0
LINE
   5
31E
 100
AcDbEntity
   8
LEVEL001
 370
13
 100
AcDbLine
   6
CONTINUOUS
  62
6
  10
 3175.9667737744
  20
 4157.9796620805
  30
0.0
  11
 3262.0475676498
  21
 4157.9796620805
  31
0.0
   0
LINE
   5
31F
 100
AcDbEntity
   8
LEVEL001
 370
13
 100
AcDbLine
   6
CONTINUOUS
  62
7
  10
 3165.6754759422
  20
 4145.9796620806
  30
0.0
  11
 3283.2195666502
  21
 4145.9796620806
  31
0.0
   0
LINE
   5
320
 100
AcDbEntity
   8
LEVEL001
 370
13
 100
AcDbLine
   6
CONTINUOUS
  62
7
  10
 3283.2195666502
  20
 4145.9796620806
  30
0.0
  11
 3283.2195666502
  21
 4182.9796620805
  31
0.0
   0
LINE
   5
321
 100
AcDbEntity
   8
LEVEL001
 370
13
 100
AcDbLine
   6
CONTINUOUS
  62
7
  10
 3283.2195666502
  20
 4182.9796620805
  30
0.0
  11
 3165.6750726732
  21
 4182.9796620805
  31
0.0
   0
LINE
   5
322
 100
AcDbEntity
   8
LEVEL001
 370
13
 100
AcDbLine
   6
CONTINUOUS
  62
7
  10
 3165.6750454292
  20
 4143.4800285140
  30
0.0
  11
 3165.6755031932
  21
 4185.4799367974
  31
0.0
   0
LINE
   5
323
 100
AcDbEntity
   8
LEVEL001
 370
13
 100
AcDbLine
   6
CONTINUOUS
  62
6
  10
 3174.7058792048
  20
 4158.9796620805
  30
0.0
  11
 3174.7058792048
  21
 4169.9796620805
  31
0.0
   0
LINE
   5
324
 100
AcDbEntity
   8
LEVEL001
 370
13
 100
AcDbLine
   6
CONTINUOUS
  62
6
  10
 3174.7058792048
  20
 4171.9796620805
  30
0.0
  11
 3174.7058792048
  21
 4180.9796620806
  31
0.0
   0
LINE
   5
325
 100
AcDbEntity
   8
LEVEL001
 370
13
 100
AcDbLine
   6
CONTINUOUS
  62
6
  10
 3174.7058792048
  20
 4147.9796620805
  30
0.0
  11
 3174.7058792048
  21
 4156.9796620805
  31
0.0
   0
LINE
   5
326
 100
AcDbEntity
   8
LEVEL001
 370
13
 100
AcDbLine
   6
CONTINUOUS
  62
6
  10
 3165.2195666502
  20
 4129.4796013225
  30
0.0
  11
 3165.2195666502
  21
 4128.4796623615
  31
0.0
   0
LINE
   5
327
 100
AcDbEntity
   8
LEVEL001
 370
13
 100
AcDbLine
   6
CONTINUOUS
  62
7
  10
 3162.2195666502
  20
 4200.4796620805
  30
0.0
  11
 3165.2195666502
  21
 4200.4796620805
  31
0.0
   0
LINE
   5
328
 100
AcDbEntity
   8
LEVEL001
 370
13
 100
AcDbLine
   6
CONTINUOUS
  62
6
  10
 3165.2195666502
  20
 4200.4796620805
  30
0.0
  11
 3165.2195666502
  21
 4199.4796315670
  31
0.0
   0
LINE
   5
329
 100
AcDbEntity
   8
LEVEL001
 370
13
 100
AcDbLine
   6
CONTINUOUS
  62
6
  10
 3165.2195666502
  20
 4199.4796315670
  30
0.0
  11
 3162.2195666502
  21
 4199.4796315670
  31
0.0
   0
ELLIPSE
   5
32A
 100
AcDbEntity
   8
LEVEL001
 370
13
   6
CONTINUOUS
  62
7
 100
AcDbEllipse
  10
 3161.6755006420
  20
 4185.4798756449
  30
0.0
  11
-4.0000025516047
  21
0.0
  31
0.0
  40
 0.99999938800000
  41
-3.1415773654645
  42
-1.7072356670373
   0
LINE
   5
32B
 100
AcDbEntity
   8
LEVEL001
 370
13
 100
AcDbLine
   6
CONTINUOUS
  62
6
  10
 3162.2195666502
  20
 4129.4796013225
  30
0.0
  11
 3165.2195666502
  21
 4129.4796013225
  31
0.0
   0
ELLIPSE
   5
32C
 100
AcDbEntity
   8
LEVEL001
 370
13
   6
CONTINUOUS
  62
7
 100
AcDbEllipse
  10
 3161.6750428794
  20
 4143.4799065628
  30
0.0
  11
-4.0000025516047
  21
0.0
  31
0.0
  40
 0.99999938800000
  41
 1.7073511820393
  42
-3.1415621657857
   0
LINE
   5
32D
 100
AcDbEntity
   8
LEVEL001
 370
13
 100
AcDbLine
   6
CONTINUOUS
  62
7
  10
 3165.2195666502
  20
 4128.4796623615
  30
0.0
  11
 3162.2195666502
  21
 4128.4796623615
  31
0.0
   0
LINE
   5
32E
 100
AcDbEntity
   8
LEVEL001
 370
13
 100
AcDbLine
   6
CONTINUOUS
  62
6
  10
 3262.0475676498
  20
 4147.9796620805
  30
0.0
  11
 3262.0475676498
  21
 4156.9796620805
  31
0.0
   0
LINE
   5
32F
 100
AcDbEntity
   8
LEVEL001
 370
13
 100
AcDbLine
   6
CONTINUOUS
  62
6
  10
 3262.0475676498
  20
 4171.9796620805
  30
0.0
  11
 3262.0475676498
  21
 4180.9796620806
  31
0.0
   0
LINE
   5
330
 100
AcDbEntity
   8
LEVEL001
 370
13
 100
AcDbLine
   6
CONTINUOUS
  62
6
  10
 3264.3660926910
  20
 4157.9796620805
  30
0.0
  11
 3264.3660926910
  21
 4170.9796620806
  31
0.0
   0
LINE
   5
331
 100
AcDbEntity
   8
LEVEL001
 370
13
 100
AcDbLine
   6
CONTINUOUS
  62
7
  10
 3268.2195666502
  20
 4159.4796620805
  30
0.0
  11
 3278.2195666502
  21
 4159.4796620805
  31
0.0
   0
LINE
   5
332
 100
AcDbEntity
   8
LEVEL001
 370
13
 100
AcDbLine
   6
CONTINUOUS
  62
7
  10
 3278.2195666502
  20
 4159.4796620805
  30
0.0
  11
 3278.2195666502
  21
 4169.4796620805
  31
0.0
   0
LINE
   5
333
 100
AcDbEntity
   8
LEVEL001
 370
13
 100
AcDbLine
   6
CONTINUOUS
  62
7
  10
 3278.2195666502
  20
 4169.4796620805
  30
0.0
  11
 3268.2195666502
  21
 4169.4796620805
  31
0.0
   0
LINE
   5
334
 100
AcDbEntity
   8
LEVEL001
 370
13
 100
AcDbLine
   6
CONTINUOUS
  62
7
  10
 3268.2195666502
  20
 4169.4796620805
  30
0.0
  11
 3268.2195666502
  21
 4159.4796620805
  31
0.0
   0
LINE
   5
335
 100
AcDbEntity
   8
LEVEL001
 370
13
 100
AcDbLine
   6
CONTINUOUS
  62
7
  10
 3268.2195666502
  20
 3771.4796615188
  30
0.0
  11
 3278.2195666502
  21
 3771.4796615188
  31
0.0
   0
LINE
   5
336
 100
AcDbEntity
   8
LEVEL001
 370
13
 100
AcDbLine
   6
CONTINUOUS
  62
7
  10
 3278.2195666502
  20
 3771.4796615188
  30
0.0
  11
 3278.2195666502
  21
 3781.4796615188
  31
0.0
   0
LINE
   5
337
 100
AcDbEntity
   8
LEVEL001
 370
13
 100
AcDbLine
   6
CONTINUOUS
  62
7
  10
 3278.2195666502
  20
 3781.4796615188
  30
0.0
  11
 3268.2195666502
  21
 3781.4796615188
  31
0.0
   0
LINE
   5
338
 100
AcDbEntity
   8
LEVEL001
 370
13
 100
AcDbLine
   6
CONTINUOUS
  62
7
  10
 3268.2195666502
  20
 3781.4796615188
  30
0.0
  11
 3268.2195666502
  21
 3771.4796615188
  31
0.0
   0
LINE
   5
339
 100
AcDbEntity
   8
LEVEL001
 370
13
 100
AcDbLine
   6
CONTINUOUS
  62
7
  10
 3173.7207585622
  20
 4145.9796620806
  30
0.0
  11
 3173.7207585622
  21
 3794.9796615188
  31
0.0
   0
LINE
   5
33A
 100
AcDbEntity
   8
LEVEL001
 370
13
 100
AcDbLine
   6
CONTINUOUS
  62
7
  10
 3262.8207585622
  20
 3794.9796615188
  30
0.0
  11
 3262.8207585622
  21
 4145.9796620806
  31
0.0
   0
CIRCLE
   5
33B
 100
AcDbEntity
   8
LEVEL001
 370
13
 100
AcDbCircle
   6
CONTINUOUS
  62
1
  10
 3565.1424712460
  20
 3870.4796618005
  30
0.0
  40
 70.000000000000
   0
MTEXT
   5
33C
 100
AcDbEntity
   8
LEVEL001
 370
13
  62
1
 100
AcDbMText
  10
 3565.1424712460
  20
 3870.4796618005
  30
0.0
  40
 57.142857142858
  41
0.0
  71
5
  72
1
   1
\T1.000000;16
   7
GMM001
  44
 0.79999984000003
   0
MTEXT
   5
33D
 100
AcDbEntity
   8
LEVEL001
 370
13
  62
1
 100
AcDbMText
  10
 3425.1424712460
  20
 3870.4796618005
  30
0.0
  40
 57.142857142858
  41
0.0
  71
5
  72
1
   1
\T1.000000;15
   7
GMM001
  44
 0.79999984000003
   0
CIRCLE
   5
33E
 100
AcDbEntity
   8
LEVEL001
 370
13
 100
AcDbCircle
   6
CONTINUOUS
  62
1
  10
 3425.1424712460
  20
 3870.4796618005
  30
0.0
  40
 70.000000000000
   0
LEADER
   5
33F
 100
AcDbEntity
   8
LEVEL001
 370
13
   6
CONTINUOUS
  62
1
 100
AcDbLeader
   3
GMM002
  73
3
  74
1
  75
0
  40
 60.000000000000
  41
0.0
  76
2
  10
 3283.2195666502
  20
 3794.9796617997
  30
0.0
  10
 3363.7850809342
  20
 3836.7858841241
  30
0.0
  77
1
   0
CIRCLE
   5
340
 100
AcDbEntity
   8
LEVEL001
 370
13
 100
AcDbCircle
   6
CONTINUOUS
  62
1
  10
 1768.2707585622
  20
 3870.4796618005
  30
0.0
  40
 70.000000000000
   0
MTEXT
   5
341
 100
AcDbEntity
   8
LEVEL001
 370
13
  62
1
 100
AcDbMText
  10
 1768.2707585622
  20
 3870.4796618005
  30
0.0
  40
 57.142857142858
  41
0.0
  71
5
  72
1
   1
\T1.000000;14
   7
GMM001
  44
 0.79999984000003
   0
LEADER
   5
342
 100
AcDbEntity
   8
LEVEL001
 370
13
   6
CONTINUOUS
  62
1
 100
AcDbLeader
   3
GMM002
  73
3
  74
1
  75
0
  40
 60.000000000000
  41
0.0
  76
2
  10
 1608.2704514511
  20
 4030.4799689122
  30
0.0
  10
 1718.7732838795
  20
 3919.9771364840
  30
0.0
  77
1
   0
CIRCLE
   5
343
 100
AcDbEntity
   8
LEVEL001
 370
13
 100
AcDbCircle
   6
CONTINUOUS
  62
1
  10
 1768.2707585622
  20
 2670.4796618005
  30
0.0
  40
 70.000000000000
   0
MTEXT
   5
344
 100
AcDbEntity
   8
LEVEL001
 370
13
  62
1
 100
AcDbMText
  10
 1768.2707585622
  20
 2670.4796618005
  30
0.0
  40
 57.142857142858
  41
0.0
  71
5
  72
1
   1
\T1.000000;11
   7
GMM001
  44
 0.79999984000003
   0
MTEXT
   5
346
 100
AcDbEntity
   8
LEVEL001
 370
13
  62
1
 100
AcDbMText
  10
 1138.9193637717
  20
 1879.2095988409
  30
0.0
  40
 40.000000000000
  41
0.0
  71
7
  72
1
   1
\T1.000000;ＧＬ
   7
GMM003
  44
 0.79999984000003
   0
LINE
   5
347
 100
AcDbEntity
   8
LEVEL001
 370
13
 100
AcDbLine
   6
CONTINUOUS
  62
1
  10
 1110.7706933269
  20
 1870.4796618005
  30
0.0
  11
 1085.7706933269
  21
 1920.4796618005
  31
0.0
   0
LINE
   5
348
 100
AcDbEntity
   8
LEVEL001
 370
13
 100
AcDbLine
   6
CONTINUOUS
  62
1
  10
 1085.7706933269
  20
 1920.4796618005
  30
0.0
  11
 1135.7706933269
  21
 1920.4796618005
  31
0.0
   0
LINE
   5
349
 100
AcDbEntity
   8
LEVEL001
 370
13
 100
AcDbLine
   6
CONTINUOUS
  62
1
  10
 1135.7706933269
  20
 1920.4796618005
  30
0.0
  11
 1110.7706933269
  21
 1870.4796618005
  31
0.0
   0
LINE
   5
34A
 100
AcDbEntity
   8
LEVEL001
 370
13
 100
AcDbLine
   6
DOT
  62
1
  10
 1473.7207585622
  20
 1077.9796618005
  30
0.0
  11
 1562.8207585622
  21
 1077.9796618005
  31
0.0
   0
LINE
   5
34B
 100
AcDbEntity
   8
LEVEL001
 370
13
 100
AcDbLine
   6
DOT
  62
1
  10
 1562.8207585622
  20
 1062.9796618005
  30
0.0
  11
 1473.7207585622
  21
 1062.9796618005
  31
0.0
   0
MTEXT
   5
34D
 100
AcDbEntity
   8
LEVEL001
 370
13
  62
1
 100
AcDbMText
  10
 2438.9193637716
  20
 1879.2095988409
  30
0.0
  40
 40.000000000000
  41
0.0
  71
7
  72
1
   1
\T1.000000;ＧＬ
   7
GMM003
  44
 0.79999984000003
   0
LINE
   5
34E
 100
AcDbEntity
   8
LEVEL001
 370
13
 100
AcDbLine
   6
CONTINUOUS
  62
1
  10
 2410.7706933268
  20
 1870.4796618005
  30
0.0
  11
 2385.7706933268
  21
 1920.4796618005
  31
0.0
   0
LINE
   5
34F
 100
AcDbEntity
   8
LEVEL001
 370
13
 100
AcDbLine
   6
CONTINUOUS
  62
1
  10
 2385.7706933268
  20
 1920.4796618005
  30
0.0
  11
 2435.7706933268
  21
 1920.4796618005
  31
0.0
   0
LINE
   5
350
 100
AcDbEntity
   8
LEVEL001
 370
13
 100
AcDbLine
   6
CONTINUOUS
  62
1
  10
 2435.7706933268
  20
 1920.4796618005
  30
0.0
  11
 2410.7706933268
  21
 1870.4796618005
  31
0.0
   0
CIRCLE
   5
351
 100
AcDbEntity
   8
LEVEL001
 370
13
 100
AcDbCircle
   6
CONTINUOUS
  62
7
  10
 2818.2707585622
  20
 1070.4796618006
  30
0.0
  40
 7.5000000000000
   0
LINE
   5
352
 100
AcDbEntity
   8
LEVEL001
 370
13
 100
AcDbLine
   6
DASHDOT
  62
6
  10
 2788.2707585622
  20
 1070.4796618006
  30
0.0
  11
 2848.2707585622
  21
 1070.4796618006
  31
0.0
   0
LINE
   5
353
 100
AcDbEntity
   8
LEVEL001
 370
13
 100
AcDbLine
   6
CONTINUOUS
  62
7
  10
 2773.7207097340
  20
 977.97966180059
  30
0.0
  11
 2701.8708562184
  21
 977.97966180059
  31
0.0
   0
LINE
   5
354
 100
AcDbEntity
   8
LEVEL001
 370
13
 100
AcDbLine
   6
CONTINUOUS
  62
7
  10
 2701.8708562184
  20
 977.97966180059
  30
0.0
  11
 2701.8708562184
  21
 962.97966180059
  31
0.0
   0
LINE
   5
355
 100
AcDbEntity
   8
LEVEL001
 370
13
 100
AcDbLine
   6
CONTINUOUS
  62
7
  10
 2701.8708562184
  20
 962.97966180059
  30
0.0
  11
 2773.7207097340
  21
 962.97966180059
  31
0.0
   0
LINE
   5
356
 100
AcDbEntity
   8
LEVEL001
 370
13
 100
AcDbLine
   6
CONTINUOUS
  62
7
  10
 2862.8208073904
  20
 977.97966180059
  30
0.0
  11
 2934.6706609060
  21
 977.97966180059
  31
0.0
   0
LINE
   5
357
 100
AcDbEntity
   8
LEVEL001
 370
13
 100
AcDbLine
   6
CONTINUOUS
  62
7
  10
 2934.6706609060
  20
 977.97966180059
  30
0.0
  11
 2934.6706609060
  21
 962.97966180059
  31
0.0
   0
LINE
   5
358
 100
AcDbEntity
   8
LEVEL001
 370
13
 100
AcDbLine
   6
CONTINUOUS
  62
7
  10
 2934.6706609060
  20
 962.97966180059
  30
0.0
  11
 2862.8208073904
  21
 962.97966180059
  31
0.0
   0
LINE
   5
359
 100
AcDbEntity
   8
LEVEL001
 370
13
 100
AcDbLine
   6
DASHDOT
  62
6
  10
 2751.8708562184
  20
 970.47966180059
  30
0.0
  11
 2884.6706609060
  21
 970.47966180059
  31
0.0
   0
LINE
   5
35A
 100
AcDbEntity
   8
LEVEL001
 370
13
 100
AcDbLine
   6
DOT
  62
1
  10
 2862.8208073904
  20
 962.97966180059
  30
0.0
  11
 2773.7207097340
  21
 962.97966180059
  31
0.0
   0
LINE
   5
35B
 100
AcDbEntity
   8
LEVEL001
 370
13
 100
AcDbLine
   6
DOT
  62
1
  10
 2773.7207097340
  20
 977.97966180059
  30
0.0
  11
 2862.8208073904
  21
 977.97966180059
  31
0.0
   0
ARC
   5
35C
 100
AcDbEntity
   8
LEVEL001
 370
13
   6
CONTINUOUS
  62
7
 100
AcDbCircle
  10
 2773.7207585622
  20
 2426.4193817385
  30
0.0
  40
 400.00000000000
 100
AcDbArc
  50
 321.34019174591
  51
 360.00000000000
   0
ARC
   5
35D
 100
AcDbEntity
   8
LEVEL001
 370
13
   6
DASHDOT
  62
6
 100
AcDbCircle
  10
 2773.7207585622
  20
 2426.4193817384
  30
0.0
  40
 444.55000000000
 100
AcDbArc
  50
 321.34019174591
  51
 360.00000000000
   0
ARC
   5
35E
 100
AcDbEntity
   8
LEVEL001
 370
13
   6
CONTINUOUS
  62
7
 100
AcDbCircle
  10
 2773.7207585622
  20
 2426.4193817386
  30
0.0
  40
 489.10000000000
 100
AcDbArc
  50
 321.34019174591
  51
 360.00000000000
   0
LINE
   5
35F
 100
AcDbEntity
   8
LEVEL001
 370
13
 100
AcDbLine
   6
CONTINUOUS
  62
7
  10
 2950.4732347850
  20
 1864.4179608849
  30
0.0
  11
 3155.6436932608
  21
 2120.8810339795
  31
0.0
   0
LINE
   5
360
 100
AcDbEntity
   8
LEVEL001
 370
13
 100
AcDbLine
   6
DASHDOT
  62
6
  10
 2915.6855293244
  20
 1892.2481252532
  30
0.0
  11
 3120.8559878002
  21
 2148.7111983480
  31
0.0
   0
ARC
   5
361
 100
AcDbEntity
   8
LEVEL001
 370
13
   6
DASHDOT
  62
6
 100
AcDbCircle
  10
 3262.8207585622
  20
 1614.5399418629
  30
0.0
  40
 444.55000000000
 100
AcDbArc
  50
 141.34019174591
  51
 180.00000000000
   0
LINE
   5
362
 100
AcDbEntity
   8
LEVEL001
 370
13
 100
AcDbLine
   6
CONTINUOUS
  62
7
  10
 3262.8207585622
  20
 2426.4193817385
  30
0.0
  11
 3262.8207585622
  21
 3757.9789293787
  31
0.0
   0
LINE
   5
363
 100
AcDbEntity
   8
LEVEL001
 370
13
 100
AcDbLine
   6
CONTINUOUS
  62
7
  10
 3173.7207585622
  20
 3757.9789293787
  30
0.0
  11
 3173.7207585622
  21
 2426.4193817385
  31
0.0
   0
LINE
   5
364
 100
AcDbEntity
   8
LEVEL001
 370
13
 100
AcDbLine
   6
CONTINUOUS
  62
7
  10
 2773.7207097340
  20
 1614.5398808280
  30
0.0
  11
 2773.7207097340
  21
 670.47966180059
  31
0.0
   0
LINE
   5
365
 100
AcDbEntity
   8
LEVEL001
 370
13
 100
AcDbLine
   6
CONTINUOUS
  62
7
  10
 2773.7207097340
  20
 670.47966180059
  30
0.0
  11
 2862.8208073904
  21
 670.47966180059
  31
0.0
   0
LINE
   5
366
 100
AcDbEntity
   8
LEVEL001
 370
13
 100
AcDbLine
   6
CONTINUOUS
  62
7
  10
 2862.8208073904
  20
 670.47966180059
  30
0.0
  11
 2862.8208073904
  21
 1614.7375842132
  31
0.0
   0
ARC
   5
367
 100
AcDbEntity
   8
LEVEL001
 370
13
   6
CONTINUOUS
  62
7
 100
AcDbCircle
  10
 3262.8207585622
  20
 1614.5399418631
  30
0.0
  40
 400.00000000000
 100
AcDbArc
  50
 141.34019174591
  51
 179.97168981756
   0
ARC
   5
368
 100
AcDbEntity
   8
LEVEL001
 370
13
   6
CONTINUOUS
  62
7
 100
AcDbCircle
  10
 3262.8207097340
  20
 1614.5398808279
  30
0.0
  40
 489.10000000000
 100
AcDbArc
  50
 141.34019174591
  51
 180.00000000000
   0
LINE
   5
369
 100
AcDbEntity
   8
LEVEL001
 370
13
 100
AcDbLine
   6
CONTINUOUS
  62
7
  10
 3086.0682823394
  20
 2176.5413627167
  30
0.0
  11
 2880.8977750354
  21
 1920.0782285868
  31
0.0
   0
POINT
   5
36A
 100
AcDbEntity
   8
LEVEL001
 100
AcDbPoint
  62
2
  10
 3218.2707585622
  20
 2270.4796617990
  30
0.0
   0
POINT
   5
36B
 100
AcDbEntity
   8
LEVEL001
 100
AcDbPoint
  62
2
  10
 2818.2707585622
  20
 1770.4796617989
  30
0.0
   0
LINE
   5
36C
 100
AcDbEntity
   8
LEVEL001
 370
13
 100
AcDbLine
   6
DASHDOT
  62
6
  10
 2818.2707585622
  20
 1614.5399418631
  30
0.0
  11
 2818.2707585622
  21
 570.47966180059
  31
0.0
   0
CIRCLE
   5
36D
 100
AcDbEntity
   8
LEVEL001
 370
13
 100
AcDbCircle
   6
CONTINUOUS
  62
1
  10
 2428.2707585622
  20
 820.47966180059
  30
0.0
  40
 70.000000000000
   0
LEADER
   5
36E
 100
AcDbEntity
   8
LEVEL001
 370
13
   6
CONTINUOUS
  62
1
 100
AcDbLeader
   3
GMM002
  73
3
  74
1
  75
0
  40
 60.000000000000
  41
0.0
  76
2
  10
 2701.8708562184
  20
 962.97966180059
  30
0.0
  10
 2490.2753079760
  20
 852.96713403201
  30
0.0
  77
1
   0
LINE
   5
36F
 100
AcDbEntity
   8
LEVEL001
 370
13
 100
AcDbLine
   6
DASHDOT
  62
6
  10
 3218.2707585622
  20
 2426.4193817383
  30
0.0
  11
 3218.2707585622
  21
 5135.0088095735
  31
0.0
   0
MTEXT
   5
370
 100
AcDbEntity
   8
LEVEL001
 370
13
  62
1
 100
AcDbMText
  10
 2428.2707585622
  20
 820.47966180059
  30
0.0
  40
 57.142857142858
  41
0.0
  71
5
  72
1
   1
\T1.000000;12
   7
GMM001
  44
 0.79999984000003
   0
LINE
   5
371
 100
AcDbEntity
   8
LEVEL001
 370
13
 100
AcDbLine
   6
CONTINUOUS
  62
7
  10
 1562.8207585622
  20
 5074.4796618005
  30
0.0
  11
 1473.7207585622
  21
 5074.4796618005
  31
0.0
   0
LINE
   5
372
 100
AcDbEntity
   8
LEVEL001
 370
13
 100
AcDbLine
   6
CONTINUOUS
  62
7
  10
 1473.7207585622
  20
 5074.4796618005
  30
0.0
  11
 1473.7207585622
  21
 5071.4796618006
  31
0.0
   0
LINE
   5
373
 100
AcDbEntity
   8
LEVEL001
 370
13
 100
AcDbLine
   6
CONTINUOUS
  62
7
  10
 1473.7207585622
  20
 5071.4796618006
  30
0.0
  11
 1562.8207585622
  21
 5071.4796618006
  31
0.0
   0
LINE
   5
374
 100
AcDbEntity
   8
LEVEL001
 370
13
 100
AcDbLine
   6
CONTINUOUS
  62
7
  10
 1562.8207585622
  20
 5071.4796618006
  30
0.0
  11
 1562.8207585622
  21
 5074.4796618005
  31
0.0
   0
LINE
   5
375
 100
AcDbEntity
   8
LEVEL001
 370
13
 100
AcDbLine
   6
DOT
  62
1
  10
 1557.8207585622
  20
 5071.4796618006
  30
0.0
  11
 1557.8207585622
  21
 5044.4796618005
  31
0.0
   0
LINE
   5
376
 100
AcDbEntity
   8
LEVEL001
 370
13
 100
AcDbLine
   6
DOT
  62
1
  10
 1557.8207585622
  20
 5044.4796618005
  30
0.0
  11
 1478.7207585622
  21
 5044.4796618005
  31
0.0
   0
LINE
   5
377
 100
AcDbEntity
   8
LEVEL001
 370
13
 100
AcDbLine
   6
DOT
  62
1
  10
 1478.7207585622
  20
 5044.4796618005
  30
0.0
  11
 1478.7207585622
  21
 5071.4796618006
  31
0.0
   0
LINE
   5
378
 100
AcDbEntity
   8
LEVEL001
 370
13
 100
AcDbLine
   6
DASHDOT
  62
6
  10
 1518.2707585622
  20
 5126.6757061029
  30
0.0
  11
 1518.2707585622
  21
 570.47966180054
  31
0.0
   0
LINE
   5
379
 100
AcDbEntity
   8
LEVEL001
 370
13
 100
AcDbLine
   6
CONTINUOUS
  62
7
  10
 1562.8207585622
  20
 4783.8796618006
  30
0.0
  11
 1562.8207585622
  21
 5070.4796618005
  31
0.0
   0
LINE
   5
37A
 100
AcDbEntity
   8
LEVEL001
 370
13
 100
AcDbLine
   6
CONTINUOUS
  62
7
  10
 1562.8207585622
  20
 5070.4796618005
  30
0.0
  11
 1473.7207585622
  21
 5070.4796618005
  31
0.0
   0
LINE
   5
37B
 100
AcDbEntity
   8
LEVEL001
 370
13
 100
AcDbLine
   6
CONTINUOUS
  62
7
  10
 1473.7207585622
  20
 5070.4796618005
  30
0.0
  11
 1473.7207585622
  21
 4783.8796618006
  31
0.0
   0
LINE
   5
37C
 100
AcDbEntity
   8
LEVEL001
 370
13
 100
AcDbLine
   6
CONTINUOUS
  62
7
  10
 1562.8207585622
  20
 4270.4796618005
  30
0.0
  11
 1562.8207585622
  21
 4563.8796618006
  31
0.0
   0
LINE
   5
37D
 100
AcDbEntity
   8
LEVEL001
 370
13
 100
AcDbLine
   6
CONTINUOUS
  62
7
  10
 1473.7207585622
  20
 4563.8796618006
  30
0.0
  11
 1473.7207585622
  21
 4270.4796618005
  31
0.0
   0
LINE
   5
37E
 100
AcDbEntity
   8
LEVEL001
 370
13
 100
AcDbLine
   6
CONTINUOUS
  62
3
  10
 2416.6707585622
  20
 4461.3796618006
  30
0.0
  11
 2416.6707585622
  21
 4926.3796618006
  31
0.0
   0
LEADER
   5
37F
 100
AcDbEntity
   8
LEVEL001
 370
13
   6
CONTINUOUS
  62
1
 100
AcDbLeader
   3
GMM002
  73
3
  74
1
  75
0
  40
 60.000000000000
  41
0.0
  76
2
  10
 1562.8207585622
  20
 2549.0646480202
  30
0.0
  10
 1708.0180328418
  20
 2634.8480881158
  30
0.0
  77
1
   0
MTEXT
   5
380
 100
AcDbEntity
   8
LEVEL001
 370
13
  62
1
 100
AcDbMText
  10
 1868.2707585622
  20
 2691.9082332291
  30
0.0
  40
 42.857142857142
  41
0.0
  71
1
  72
1
   1
{\T1.000000;支柱}\P%%c{\T1.000000;８９．１×３}{\T1.000000;.}{\T1.000000;２ｔ}\P{\T1.000000;×４４００Ｌ}
   7
GMM001
  44
 0.79999984000003
   0
DIMENSION
   5
381
 100
AcDbEntity
   8
LEVEL001
 370
13
   6
CONTINUOUS
  62
1
 100
AcDbDimension
   2
*D15
  10
 1768.2707585622
  20
 370.47966180054
  30
0.0
  11
 1518.2707585622
  21
 370.47966180054
  31
0.0
  70
128
   1
\A1;□500
   3
GMM003
 100
AcDbAlignedDimension
  13
 1268.2707585622
  23
 570.47966180054
  33
0.0
  14
 1768.2707585622
  24
 570.47966180054
  34
0.0
 100
AcDbRotatedDimension
   0
DIMENSION
   5
382
 100
AcDbEntity
   8
LEVEL001
 370
13
   6
CONTINUOUS
  62
1
 100
AcDbDimension
   2
*D16
  10
 3068.2707585622
  20
 370.47966180054
  30
0.0
  11
 2818.2707585622
  21
 370.47966180054
  31
0.0
  70
128
   1
\A1;□500
   3
GMM003
 100
AcDbAlignedDimension
  13
 2568.2707585622
  23
 570.47966180054
  33
0.0
  14
 3068.2707585622
  24
 570.47966180054
  34
0.0
 100
AcDbRotatedDimension
   0
DIMENSION
   5
383
 100
AcDbEntity
   8
0
 370
13
   6
CONTINUOUS
  62
1
 100
AcDbDimension
   2
*D17
  10
 518.27075856223
  20
 570.47966180054
  30
0.0
  11
 518.27075856223
  21
 620.47966180054
  31
0.0
  70
0
   3
GMM004
 100
AcDbAlignedDimension
  13
 1268.2707585622
  23
 670.47966180054
  33
0.0
  14
 1268.2707585622
  24
 570.47966180054
  34
0.0
  50
 270.00000000000
 100
AcDbRotatedDimension
   0
DIMENSION
   5
384
 100
AcDbEntity
   8
0
 370
13
   6
CONTINUOUS
  62
1
 100
AcDbDimension
   2
*D18
  10
 518.27075856223
  20
 1870.4796618005
  30
0.0
  11
 518.27075856223
  21
 1270.4796618005
  31
0.0
  70
0
   3
GMM004
 100
AcDbAlignedDimension
  13
 1268.2707585622
  23
 670.47966180054
  33
0.0
  14
 1018.2707585622
  24
 1870.4796618005
  34
0.0
  50
 90.000000000000
 100
AcDbRotatedDimension
   0
DIMENSION
   5
385
 100
AcDbEntity
   8
0
 370
13
   6
CONTINUOUS
  62
1
 100
AcDbDimension
   2
*D19
  10
 518.27075856223
  20
 4370.4796618005
  30
0.0
  11
 518.27075856223
  21
 3120.4796618005
  31
0.0
  70
0
   1
\A1;2500(標準設置高さ)
   3
GMM005
 100
AcDbAlignedDimension
  13
 1018.2707585622
  23
 1870.4796618005
  33
0.0
  14
 710.77075856223
  24
 4370.4796618005
  34
0.0
  50
 90.000000000000
 100
AcDbRotatedDimension
   0
LINE
   5
386
 100
AcDbEntity
   8
LEVEL001
 370
13
 100
AcDbLine
   6
CONTINUOUS
  62
5
  10
 1768.2707585622
  20
 1555.8350008599
  30
0.0
  11
 1562.8207585622
  21
 1350.3850008599
  31
0.0
   0
LINE
   5
387
 100
AcDbEntity
   8
LEVEL001
 370
13
 100
AcDbLine
   6
CONTINUOUS
  62
5
  10
 1562.8207585622
  20
 1315.0296618006
  30
0.0
  11
 1768.2707585622
  21
 1520.4796618006
  31
0.0
   0
LINE
   5
388
 100
AcDbEntity
   8
LEVEL001
 370
13
 100
AcDbLine
   6
CONTINUOUS
  62
5
  10
 1768.2707585622
  20
 1485.1243227413
  30
0.0
  11
 1562.8207585622
  21
 1279.6743227413
  31
0.0
   0
LINE
   5
389
 100
AcDbEntity
   8
LEVEL001
 370
13
 100
AcDbLine
   6
CONTINUOUS
  62
5
  10
 1768.2707585622
  20
 670.47966180054
  30
0.0
  11
 1768.2707585622
  21
 1870.4796618005
  31
0.0
   0
LINE
   5
38A
 100
AcDbEntity
   8
LEVEL001
 370
13
 100
AcDbLine
   6
CONTINUOUS
  62
5
  10
 1828.9509534089
  20
 1870.4796618005
  30
0.0
  11
 1776.4509534089
  21
 1817.9796618005
  31
0.0
   0
LINE
   5
38B
 100
AcDbEntity
   8
LEVEL001
 370
13
 100
AcDbLine
   6
CONTINUOUS
  62
5
  10
 1792.3608559849
  20
 1817.9796618005
  30
0.0
  11
 1844.8608559849
  21
 1870.4796618005
  31
0.0
   0
LINE
   5
38C
 100
AcDbEntity
   8
LEVEL001
 370
13
 100
AcDbLine
   6
CONTINUOUS
  62
5
  10
 1860.7707585626
  20
 1870.4796618005
  30
0.0
  11
 1808.2707585626
  21
 1817.9796618005
  31
0.0
   0
LINE
   5
38D
 100
AcDbEntity
   8
LEVEL001
 370
13
 100
AcDbLine
   6
CONTINUOUS
  62
5
  10
 1824.1806611386
  20
 1817.9796618005
  30
0.0
  11
 1876.6806611386
  21
 1870.4796618005
  31
0.0
   0
LINE
   5
38E
 100
AcDbEntity
   8
LEVEL001
 370
13
 100
AcDbLine
   6
CONTINUOUS
  62
5
  10
 1881.4509534092
  20
 1817.9796618005
  30
0.0
  11
 1852.8158072739
  21
 1846.6148079359
  31
0.0
   0
LINE
   5
38F
 100
AcDbEntity
   8
LEVEL001
 370
13
 100
AcDbLine
   6
CONTINUOUS
  62
5
  10
 1860.7707585621
  20
 1854.5697592241
  30
0.0
  11
 1897.3608559856
  21
 1817.9796618005
  31
0.0
   0
LINE
   5
390
 100
AcDbEntity
   8
LEVEL001
 370
13
 100
AcDbLine
   6
CONTINUOUS
  62
5
  10
 1913.2707585620
  20
 1817.9796618005
  30
0.0
  11
 1868.7257098503
  21
 1862.5247105123
  31
0.0
   0
LINE
   5
391
 100
AcDbEntity
   8
LEVEL001
 370
13
 100
AcDbLine
   6
CONTINUOUS
  62
5
  10
 1876.6806611386
  20
 1870.4796618005
  30
0.0
  11
 1929.1806611388
  21
 1817.9796618005
  31
0.0
   0
LINE
   5
392
 100
AcDbEntity
   8
LEVEL001
 370
13
 100
AcDbLine
   6
CONTINUOUS
  62
5
  10
 1929.1806611388
  20
 1817.9796618005
  30
0.0
  11
 1981.6806611388
  21
 1870.4796618005
  31
0.0
   0
LINE
   5
393
 100
AcDbEntity
   8
LEVEL001
 370
13
 100
AcDbLine
   6
CONTINUOUS
  62
5
  10
 1933.9509534091
  20
 1870.4796618005
  30
0.0
  11
 1905.3158072739
  21
 1841.8445156654
  31
0.0
   0
LINE
   5
394
 100
AcDbEntity
   8
LEVEL001
 370
13
 100
AcDbLine
   6
CONTINUOUS
  62
5
  10
 1913.2707585619
  20
 1833.8895643774
  30
0.0
  11
 1949.8608559852
  21
 1870.4796618005
  31
0.0
   0
LINE
   5
395
 100
AcDbEntity
   8
LEVEL001
 370
13
 100
AcDbLine
   6
CONTINUOUS
  62
5
  10
 1965.7707585628
  20
 1870.4796618005
  30
0.0
  11
 1921.2257098507
  21
 1825.9346130885
  31
0.0
   0
LINE
   5
396
 100
AcDbEntity
   8
LEVEL001
 370
13
 100
AcDbLine
   6
CONTINUOUS
  62
5
  10
 1986.4509534094
  20
 1817.9796618005
  30
0.0
  11
 1957.8158072740
  21
 1846.6148079359
  31
0.0
   0
LINE
   5
397
 100
AcDbEntity
   8
LEVEL001
 370
13
 100
AcDbLine
   6
CONTINUOUS
  62
5
  10
 1965.7707585622
  20
 1854.5697592241
  30
0.0
  11
 2002.3608559858
  21
 1817.9796618005
  31
0.0
   0
LINE
   5
398
 100
AcDbEntity
   8
LEVEL001
 370
13
 100
AcDbLine
   6
CONTINUOUS
  62
5
  10
 2018.2707585622
  20
 1817.9796618005
  30
0.0
  11
 1973.7257098504
  21
 1862.5247105123
  31
0.0
   0
LINE
   5
399
 100
AcDbEntity
   8
LEVEL001
 370
13
 100
AcDbLine
   6
CONTINUOUS
  62
5
  10
 1981.6806611388
  20
 1870.4796618005
  30
0.0
  11
 2018.2707585622
  21
 1833.8895643772
  31
0.0
   0
LINE
   5
39A
 100
AcDbEntity
   8
LEVEL001
 370
13
 100
AcDbLine
   6
CONTINUOUS
  62
5
  10
 1562.8207585622
  20
 1870.4796618005
  30
0.0
  11
 2018.2707585622
  21
 1870.4796618005
  31
0.0
   0
LINE
   5
39B
 100
AcDbEntity
   8
LEVEL001
 370
13
 100
AcDbLine
   6
CONTINUOUS
  62
5
  10
 1768.2707585622
  20
 670.47966180054
  30
0.0
  11
 1718.2707585622
  21
 570.47966180054
  31
0.0
   0
LINE
   5
39C
 100
AcDbEntity
   8
LEVEL001
 370
13
 100
AcDbLine
   6
CONTINUOUS
  62
5
  10
 1718.2707585622
  20
 670.47966180054
  30
0.0
  11
 1758.2707585622
  21
 650.47966180054
  31
0.0
   0
LINE
   5
39D
 100
AcDbEntity
   8
LEVEL001
 370
13
 100
AcDbLine
   6
CONTINUOUS
  62
5
  10
 1718.2707585622
  20
 670.47966180054
  30
0.0
  11
 1668.2707585622
  21
 570.47966180054
  31
0.0
   0
LINE
   5
39E
 100
AcDbEntity
   8
LEVEL001
 370
13
 100
AcDbLine
   6
CONTINUOUS
  62
5
  10
 1668.2707585622
  20
 670.47966180054
  30
0.0
  11
 1708.2707585622
  21
 650.47966180054
  31
0.0
   0
LINE
   5
39F
 100
AcDbEntity
   8
LEVEL001
 370
13
 100
AcDbLine
   6
CONTINUOUS
  62
5
  10
 1668.2707585622
  20
 670.47966180054
  30
0.0
  11
 1618.2707585622
  21
 570.47966180054
  31
0.0
   0
LINE
   5
3A0
 100
AcDbEntity
   8
LEVEL001
 370
13
 100
AcDbLine
   6
CONTINUOUS
  62
5
  10
 1618.2707585622
  20
 670.47966180054
  30
0.0
  11
 1658.2707585622
  21
 650.47966180054
  31
0.0
   0
LINE
   5
3A1
 100
AcDbEntity
   8
LEVEL001
 370
13
 100
AcDbLine
   6
CONTINUOUS
  62
5
  10
 1768.2707585622
  20
 570.47966180054
  30
0.0
  11
 1728.2707585622
  21
 590.47966180054
  31
0.0
   0
LINE
   5
3A2
 100
AcDbEntity
   8
LEVEL001
 370
13
 100
AcDbLine
   6
CONTINUOUS
  62
5
  10
 1718.2707585622
  20
 570.47966180054
  30
0.0
  11
 1678.2707585622
  21
 590.47966180054
  31
0.0
   0
LINE
   5
3A3
 100
AcDbEntity
   8
LEVEL001
 370
13
 100
AcDbLine
   6
CONTINUOUS
  62
5
  10
 1668.2707585622
  20
 570.47966180054
  30
0.0
  11
 1628.2707585622
  21
 590.47966180054
  31
0.0
   0
LINE
   5
3A4
 100
AcDbEntity
   8
LEVEL001
 370
13
 100
AcDbLine
   6
CONTINUOUS
  62
5
  10
 1268.2707585622
  20
 570.47966180054
  30
0.0
  11
 1768.2707585622
  21
 570.47966180054
  31
0.0
   0
LINE
   5
3A5
 100
AcDbEntity
   8
LEVEL001
 370
13
 100
AcDbLine
   6
CONTINUOUS
  62
5
  10
 1768.2707585622
  20
 570.47966180054
  30
0.0
  11
 1768.2707585622
  21
 670.47966180054
  31
0.0
   0
LINE
   5
3A6
 100
AcDbEntity
   8
LEVEL001
 370
13
 100
AcDbLine
   6
CONTINUOUS
  62
5
  10
 1768.2707585622
  20
 670.47966180054
  30
0.0
  11
 1268.2707585622
  21
 670.47966180054
  31
0.0
   0
LINE
   5
3A7
 100
AcDbEntity
   8
LEVEL001
 370
13
 100
AcDbLine
   6
CONTINUOUS
  62
5
  10
 1268.2707585622
  20
 670.47966180054
  30
0.0
  11
 1768.2707585622
  21
 670.47966180054
  31
0.0
   0
LINE
   5
3A8
 100
AcDbEntity
   8
LEVEL001
 370
13
 100
AcDbLine
   6
CONTINUOUS
  62
5
  10
 1418.2707585622
  20
 670.47966180054
  30
0.0
  11
 1368.2707585622
  21
 570.47966180054
  31
0.0
   0
LINE
   5
3A9
 100
AcDbEntity
   8
LEVEL001
 370
13
 100
AcDbLine
   6
CONTINUOUS
  62
5
  10
 1368.2707585622
  20
 670.47966180054
  30
0.0
  11
 1408.2707585622
  21
 650.47966180054
  31
0.0
   0
LINE
   5
3AA
 100
AcDbEntity
   8
LEVEL001
 370
13
 100
AcDbLine
   6
CONTINUOUS
  62
5
  10
 1368.2707585622
  20
 670.47966180054
  30
0.0
  11
 1318.2707585622
  21
 570.47966180054
  31
0.0
   0
LINE
   5
3AB
 100
AcDbEntity
   8
LEVEL001
 370
13
 100
AcDbLine
   6
CONTINUOUS
  62
5
  10
 1318.2707585622
  20
 670.47966180054
  30
0.0
  11
 1358.2707585622
  21
 650.47966180054
  31
0.0
   0
LINE
   5
3AC
 100
AcDbEntity
   8
LEVEL001
 370
13
 100
AcDbLine
   6
CONTINUOUS
  62
5
  10
 1318.2707585622
  20
 670.47966180054
  30
0.0
  11
 1268.2707585622
  21
 570.47966180054
  31
0.0
   0
LINE
   5
3AD
 100
AcDbEntity
   8
LEVEL001
 370
13
 100
AcDbLine
   6
CONTINUOUS
  62
5
  10
 1268.2707585622
  20
 670.47966180054
  30
0.0
  11
 1308.2707585622
  21
 650.47966180054
  31
0.0
   0
LINE
   5
3AE
 100
AcDbEntity
   8
LEVEL001
 370
13
 100
AcDbLine
   6
CONTINUOUS
  62
5
  10
 1418.2707585622
  20
 570.47966180054
  30
0.0
  11
 1378.2707585622
  21
 590.47966180054
  31
0.0
   0
LINE
   5
3AF
 100
AcDbEntity
   8
LEVEL001
 370
13
 100
AcDbLine
   6
CONTINUOUS
  62
5
  10
 1368.2707585622
  20
 570.47966180054
  30
0.0
  11
 1328.2707585622
  21
 590.47966180054
  31
0.0
   0
LINE
   5
3B0
 100
AcDbEntity
   8
LEVEL001
 370
13
 100
AcDbLine
   6
CONTINUOUS
  62
5
  10
 1318.2707585622
  20
 570.47966180054
  30
0.0
  11
 1278.2707585622
  21
 590.47966180054
  31
0.0
   0
LINE
   5
3B1
 100
AcDbEntity
   8
LEVEL001
 370
13
 100
AcDbLine
   6
CONTINUOUS
  62
5
  10
 1268.2707585622
  20
 1870.4796618005
  30
0.0
  11
 1268.2707585622
  21
 670.47966180054
  31
0.0
   0
LINE
   5
3B2
 100
AcDbEntity
   8
LEVEL001
 370
13
 100
AcDbLine
   6
CONTINUOUS
  62
5
  10
 1268.2707585622
  20
 670.47966180054
  30
0.0
  11
 1268.2707585622
  21
 570.47966180054
  31
0.0
   0
LINE
   5
3B3
 100
AcDbEntity
   8
LEVEL001
 370
13
 100
AcDbLine
   6
CONTINUOUS
  62
5
  10
 1473.7207585622
  20
 1261.2850008599
  30
0.0
  11
 1268.2707585622
  21
 1055.8350008599
  31
0.0
   0
LINE
   5
3B4
 100
AcDbEntity
   8
LEVEL001
 370
13
 100
AcDbLine
   6
CONTINUOUS
  62
5
  10
 1268.2707585622
  20
 1020.4796618006
  30
0.0
  11
 1473.7207585622
  21
 1225.9296618006
  31
0.0
   0
LINE
   5
3B5
 100
AcDbEntity
   8
LEVEL001
 370
13
 100
AcDbLine
   6
CONTINUOUS
  62
5
  10
 1473.7207585622
  20
 1190.5743227413
  30
0.0
  11
 1268.2707585622
  21
 985.12432274128
  31
0.0
   0
LINE
   5
3B6
 100
AcDbEntity
   8
LEVEL001
 370
13
 100
AcDbLine
   6
CONTINUOUS
  62
5
  10
 1179.1806611388
  20
 1817.9796618005
  30
0.0
  11
 1231.6806611388
  21
 1870.4796618005
  31
0.0
   0
LINE
   5
3B7
 100
AcDbEntity
   8
LEVEL001
 370
13
 100
AcDbLine
   6
CONTINUOUS
  62
5
  10
 1163.2707585619
  20
 1833.8895643774
  30
0.0
  11
 1199.8608559851
  21
 1870.4796618005
  31
0.0
   0
LINE
   5
3B8
 100
AcDbEntity
   8
LEVEL001
 370
13
 100
AcDbLine
   6
CONTINUOUS
  62
5
  10
 1215.7707585628
  20
 1870.4796618005
  30
0.0
  11
 1171.2257098507
  21
 1825.9346130885
  31
0.0
   0
LINE
   5
3B9
 100
AcDbEntity
   8
LEVEL001
 370
13
 100
AcDbLine
   6
CONTINUOUS
  62
5
  10
 1236.4509534094
  20
 1817.9796618005
  30
0.0
  11
 1207.8158072741
  21
 1846.6148079359
  31
0.0
   0
LINE
   5
3BA
 100
AcDbEntity
   8
LEVEL001
 370
13
 100
AcDbLine
   6
CONTINUOUS
  62
5
  10
 1215.7707585623
  20
 1854.5697592241
  30
0.0
  11
 1252.3608559858
  21
 1817.9796618005
  31
0.0
   0
LINE
   5
3BB
 100
AcDbEntity
   8
LEVEL001
 370
13
 100
AcDbLine
   6
CONTINUOUS
  62
5
  10
 1268.2707585622
  20
 1817.9796618005
  30
0.0
  11
 1223.7257098505
  21
 1862.5247105123
  31
0.0
   0
LINE
   5
3BC
 100
AcDbEntity
   8
LEVEL001
 370
13
 100
AcDbLine
   6
CONTINUOUS
  62
5
  10
 1078.9509534089
  20
 1870.4796618005
  30
0.0
  11
 1026.4509534089
  21
 1817.9796618005
  31
0.0
   0
LINE
   5
3BD
 100
AcDbEntity
   8
LEVEL001
 370
13
 100
AcDbLine
   6
CONTINUOUS
  62
5
  10
 1042.3608559849
  20
 1817.9796618005
  30
0.0
  11
 1094.8608559849
  21
 1870.4796618005
  31
0.0
   0
LINE
   5
3BE
 100
AcDbEntity
   8
LEVEL001
 370
13
 100
AcDbLine
   6
CONTINUOUS
  62
5
  10
 1110.7707585626
  20
 1870.4796618005
  30
0.0
  11
 1058.2707585626
  21
 1817.9796618005
  31
0.0
   0
LINE
   5
3BF
 100
AcDbEntity
   8
LEVEL001
 370
13
 100
AcDbLine
   6
CONTINUOUS
  62
5
  10
 1074.1806611386
  20
 1817.9796618005
  30
0.0
  11
 1126.6806611386
  21
 1870.4796618005
  31
0.0
   0
LINE
   5
3C0
 100
AcDbEntity
   8
LEVEL001
 370
13
 100
AcDbLine
   6
CONTINUOUS
  62
5
  10
 1131.4509534092
  20
 1817.9796618005
  30
0.0
  11
 1102.8158072739
  21
 1846.6148079359
  31
0.0
   0
LINE
   5
3C1
 100
AcDbEntity
   8
LEVEL001
 370
13
 100
AcDbLine
   6
CONTINUOUS
  62
5
  10
 1110.7707585621
  20
 1854.5697592241
  30
0.0
  11
 1147.3608559856
  21
 1817.9796618005
  31
0.0
   0
LINE
   5
3C2
 100
AcDbEntity
   8
LEVEL001
 370
13
 100
AcDbLine
   6
CONTINUOUS
  62
5
  10
 1163.2707585620
  20
 1817.9796618005
  30
0.0
  11
 1118.7257098503
  21
 1862.5247105123
  31
0.0
   0
LINE
   5
3C3
 100
AcDbEntity
   8
LEVEL001
 370
13
 100
AcDbLine
   6
CONTINUOUS
  62
5
  10
 1126.6806611386
  20
 1870.4796618005
  30
0.0
  11
 1179.1806611388
  21
 1817.9796618005
  31
0.0
   0
LINE
   5
3C4
 100
AcDbEntity
   8
LEVEL001
 370
13
 100
AcDbLine
   6
CONTINUOUS
  62
5
  10
 1183.9509534091
  20
 1870.4796618005
  30
0.0
  11
 1155.3158072739
  21
 1841.8445156654
  31
0.0
   0
LINE
   5
3C5
 100
AcDbEntity
   8
LEVEL001
 370
13
 100
AcDbLine
   6
CONTINUOUS
  62
5
  10
 1231.6806611388
  20
 1870.4796618005
  30
0.0
  11
 1268.2707585622
  21
 1833.8895643772
  31
0.0
   0
LINE
   5
3C6
 100
AcDbEntity
   8
LEVEL001
 370
13
 100
AcDbLine
   6
CONTINUOUS
  62
5
  10
 1473.7207585622
  20
 1870.4796618005
  30
0.0
  11
 1018.2707585622
  21
 1870.4796618005
  31
0.0
   0
LINE
   5
3C7
 100
AcDbEntity
   8
LEVEL001
 370
13
 100
AcDbLine
   6
CONTINUOUS
  62
5
  10
 2479.1806611388
  20
 1817.9796618005
  30
0.0
  11
 2531.6806611388
  21
 1870.4796618005
  31
0.0
   0
LINE
   5
3C8
 100
AcDbEntity
   8
LEVEL001
 370
13
 100
AcDbLine
   6
CONTINUOUS
  62
5
  10
 2463.2707585620
  20
 1833.8895643774
  30
0.0
  11
 2499.8608559852
  21
 1870.4796618005
  31
0.0
   0
LINE
   5
3C9
 100
AcDbEntity
   8
LEVEL001
 370
13
 100
AcDbLine
   6
CONTINUOUS
  62
5
  10
 2515.7707585628
  20
 1870.4796618005
  30
0.0
  11
 2471.2257098508
  21
 1825.9346130885
  31
0.0
   0
LINE
   5
3CA
 100
AcDbEntity
   8
LEVEL001
 370
13
 100
AcDbLine
   6
CONTINUOUS
  62
5
  10
 2536.4509534094
  20
 1817.9796618005
  30
0.0
  11
 2507.8158072740
  21
 1846.6148079359
  31
0.0
   0
LINE
   5
3CB
 100
AcDbEntity
   8
LEVEL001
 370
13
 100
AcDbLine
   6
CONTINUOUS
  62
5
  10
 2515.7707585622
  20
 1854.5697592241
  30
0.0
  11
 2552.3608559858
  21
 1817.9796618005
  31
0.0
   0
LINE
   5
3CC
 100
AcDbEntity
   8
LEVEL001
 370
13
 100
AcDbLine
   6
CONTINUOUS
  62
5
  10
 2568.2707585622
  20
 1817.9796618005
  30
0.0
  11
 2523.7257098504
  21
 1862.5247105123
  31
0.0
   0
LINE
   5
3CD
 100
AcDbEntity
   8
LEVEL001
 370
13
 100
AcDbLine
   6
CONTINUOUS
  62
5
  10
 2378.9509534088
  20
 1870.4796618005
  30
0.0
  11
 2326.4509534088
  21
 1817.9796618005
  31
0.0
   0
LINE
   5
3CE
 100
AcDbEntity
   8
LEVEL001
 370
13
 100
AcDbLine
   6
CONTINUOUS
  62
5
  10
 2342.3608559850
  20
 1817.9796618005
  30
0.0
  11
 2394.8608559850
  21
 1870.4796618005
  31
0.0
   0
LINE
   5
3CF
 100
AcDbEntity
   8
LEVEL001
 370
13
 100
AcDbLine
   6
CONTINUOUS
  62
5
  10
 2410.7707585626
  20
 1870.4796618005
  30
0.0
  11
 2358.2707585626
  21
 1817.9796618005
  31
0.0
   0
LINE
   5
3D0
 100
AcDbEntity
   8
LEVEL001
 370
13
 100
AcDbLine
   6
CONTINUOUS
  62
5
  10
 2374.1806611386
  20
 1817.9796618005
  30
0.0
  11
 2426.6806611386
  21
 1870.4796618005
  31
0.0
   0
LINE
   5
3D1
 100
AcDbEntity
   8
LEVEL001
 370
13
 100
AcDbLine
   6
CONTINUOUS
  62
5
  10
 2431.4509534092
  20
 1817.9796618005
  30
0.0
  11
 2402.8158072738
  21
 1846.6148079359
  31
0.0
   0
LINE
   5
3D2
 100
AcDbEntity
   8
LEVEL001
 370
13
 100
AcDbLine
   6
CONTINUOUS
  62
5
  10
 2410.7707585620
  20
 1854.5697592241
  30
0.0
  11
 2447.3608559856
  21
 1817.9796618005
  31
0.0
   0
LINE
   5
3D3
 100
AcDbEntity
   8
LEVEL001
 370
13
 100
AcDbLine
   6
CONTINUOUS
  62
5
  10
 2463.2707585620
  20
 1817.9796618005
  30
0.0
  11
 2418.7257098502
  21
 1862.5247105123
  31
0.0
   0
LINE
   5
3D4
 100
AcDbEntity
   8
LEVEL001
 370
13
 100
AcDbLine
   6
CONTINUOUS
  62
5
  10
 2426.6806611386
  20
 1870.4796618005
  30
0.0
  11
 2479.1806611388
  21
 1817.9796618005
  31
0.0
   0
LINE
   5
3D5
 100
AcDbEntity
   8
LEVEL001
 370
13
 100
AcDbLine
   6
CONTINUOUS
  62
5
  10
 2483.9509534090
  20
 1870.4796618005
  30
0.0
  11
 2455.3158072738
  21
 1841.8445156654
  31
0.0
   0
LINE
   5
3D6
 100
AcDbEntity
   8
LEVEL001
 370
13
 100
AcDbLine
   6
CONTINUOUS
  62
5
  10
 2531.6806611388
  20
 1870.4796618005
  30
0.0
  11
 2568.2707585622
  21
 1833.8895643772
  31
0.0
   0
LINE
   5
3D7
 100
AcDbEntity
   8
LEVEL001
 370
13
 100
AcDbLine
   6
CONTINUOUS
  62
5
  10
 2568.2707585622
  20
 1870.4796618006
  30
0.0
  11
 2568.2707585622
  21
 670.47966180059
  31
0.0
   0
LINE
   5
3D8
 100
AcDbEntity
   8
LEVEL001
 370
13
 100
AcDbLine
   6
CONTINUOUS
  62
5
  10
 2773.7207097340
  20
 1190.5742739132
  30
0.0
  11
 2568.2707585622
  21
 985.12432274131
  31
0.0
   0
LINE
   5
3D9
 100
AcDbEntity
   8
LEVEL001
 370
13
 100
AcDbLine
   6
CONTINUOUS
  62
5
  10
 2568.2707585622
  20
 1020.4796618006
  30
0.0
  11
 2773.7207097340
  21
 1225.9296129725
  31
0.0
   0
LINE
   5
3DA
 100
AcDbEntity
   8
LEVEL001
 370
13
 100
AcDbLine
   6
CONTINUOUS
  62
5
  10
 2773.7207097340
  20
 1261.2849520319
  30
0.0
  11
 2568.2707585622
  21
 1055.8350008600
  31
0.0
   0
LINE
   5
3DB
 100
AcDbEntity
   8
LEVEL001
 370
13
 100
AcDbLine
   6
CONTINUOUS
  62
5
  10
 3128.9509534088
  20
 1870.4796618005
  30
0.0
  11
 3076.4509534088
  21
 1817.9796618005
  31
0.0
   0
LINE
   5
3DC
 100
AcDbEntity
   8
LEVEL001
 370
13
 100
AcDbLine
   6
CONTINUOUS
  62
5
  10
 3092.3608559850
  20
 1817.9796618005
  30
0.0
  11
 3144.8608559850
  21
 1870.4796618005
  31
0.0
   0
LINE
   5
3DD
 100
AcDbEntity
   8
LEVEL001
 370
13
 100
AcDbLine
   6
CONTINUOUS
  62
5
  10
 3160.7707585626
  20
 1870.4796618005
  30
0.0
  11
 3108.2707585626
  21
 1817.9796618005
  31
0.0
   0
LINE
   5
3DE
 100
AcDbEntity
   8
LEVEL001
 370
13
 100
AcDbLine
   6
CONTINUOUS
  62
5
  10
 3124.1806611386
  20
 1817.9796618005
  30
0.0
  11
 3176.6806611386
  21
 1870.4796618005
  31
0.0
   0
LINE
   5
3DF
 100
AcDbEntity
   8
LEVEL001
 370
13
 100
AcDbLine
   6
CONTINUOUS
  62
5
  10
 3181.4509534092
  20
 1817.9796618005
  30
0.0
  11
 3152.8158072738
  21
 1846.6148079359
  31
0.0
   0
LINE
   5
3E0
 100
AcDbEntity
   8
LEVEL001
 370
13
 100
AcDbLine
   6
CONTINUOUS
  62
5
  10
 3160.7707585620
  20
 1854.5697592241
  30
0.0
  11
 3197.3608559856
  21
 1817.9796618005
  31
0.0
   0
LINE
   5
3E1
 100
AcDbEntity
   8
LEVEL001
 370
13
 100
AcDbLine
   6
CONTINUOUS
  62
5
  10
 3213.2707585620
  20
 1817.9796618005
  30
0.0
  11
 3168.7257098502
  21
 1862.5247105123
  31
0.0
   0
LINE
   5
3E2
 100
AcDbEntity
   8
LEVEL001
 370
13
 100
AcDbLine
   6
CONTINUOUS
  62
5
  10
 3176.6806611386
  20
 1870.4796618005
  30
0.0
  11
 3229.1806611388
  21
 1817.9796618005
  31
0.0
   0
LINE
   5
3E3
 100
AcDbEntity
   8
LEVEL001
 370
13
 100
AcDbLine
   6
CONTINUOUS
  62
5
  10
 3229.1806611388
  20
 1817.9796618005
  30
0.0
  11
 3281.6806611388
  21
 1870.4796618005
  31
0.0
   0
LINE
   5
3E4
 100
AcDbEntity
   8
LEVEL001
 370
13
 100
AcDbLine
   6
CONTINUOUS
  62
5
  10
 3233.9509534090
  20
 1870.4796618005
  30
0.0
  11
 3205.3158072738
  21
 1841.8445156654
  31
0.0
   0
LINE
   5
3E5
 100
AcDbEntity
   8
LEVEL001
 370
13
 100
AcDbLine
   6
CONTINUOUS
  62
5
  10
 3213.2707585620
  20
 1833.8895643774
  30
0.0
  11
 3249.8608559852
  21
 1870.4796618005
  31
0.0
   0
LINE
   5
3E6
 100
AcDbEntity
   8
LEVEL001
 370
13
 100
AcDbLine
   6
CONTINUOUS
  62
5
  10
 3265.7707585628
  20
 1870.4796618005
  30
0.0
  11
 3221.2257098508
  21
 1825.9346130885
  31
0.0
   0
LINE
   5
3E7
 100
AcDbEntity
   8
LEVEL001
 370
13
 100
AcDbLine
   6
CONTINUOUS
  62
5
  10
 3286.4509534094
  20
 1817.9796618005
  30
0.0
  11
 3257.8158072740
  21
 1846.6148079359
  31
0.0
   0
LINE
   5
3E8
 100
AcDbEntity
   8
LEVEL001
 370
13
 100
AcDbLine
   6
CONTINUOUS
  62
5
  10
 3265.7707585622
  20
 1854.5697592241
  30
0.0
  11
 3302.3608559858
  21
 1817.9796618005
  31
0.0
   0
LINE
   5
3E9
 100
AcDbEntity
   8
LEVEL001
 370
13
 100
AcDbLine
   6
CONTINUOUS
  62
5
  10
 3318.2707585622
  20
 1817.9796618005
  30
0.0
  11
 3273.7257098504
  21
 1862.5247105123
  31
0.0
   0
LINE
   5
3EA
 100
AcDbEntity
   8
LEVEL001
 370
13
 100
AcDbLine
   6
CONTINUOUS
  62
5
  10
 3281.6806611388
  20
 1870.4796618005
  30
0.0
  11
 3318.2707585622
  21
 1833.8895643772
  31
0.0
   0
LINE
   5
3EB
 100
AcDbEntity
   8
LEVEL001
 370
13
 100
AcDbLine
   6
CONTINUOUS
  62
5
  10
 3068.2707585622
  20
 1555.8350008600
  30
0.0
  11
 2862.8208073904
  21
 1350.3850496881
  31
0.0
   0
LINE
   5
3EC
 100
AcDbEntity
   8
LEVEL001
 370
13
 100
AcDbLine
   6
CONTINUOUS
  62
5
  10
 2862.8208073904
  20
 1315.0297106288
  30
0.0
  11
 3068.2707585622
  21
 1520.4796618006
  31
0.0
   0
LINE
   5
3ED
 100
AcDbEntity
   8
LEVEL001
 370
13
 100
AcDbLine
   6
CONTINUOUS
  62
5
  10
 3068.2707585622
  20
 1485.1243227413
  30
0.0
  11
 2862.8208073904
  21
 1279.6743715694
  31
0.0
   0
LINE
   5
3EE
 100
AcDbEntity
   8
LEVEL001
 370
13
 100
AcDbLine
   6
CONTINUOUS
  62
5
  10
 3068.2707585622
  20
 670.47966180059
  30
0.0
  11
 3068.2707585622
  21
 1870.4796618006
  31
0.0
   0
LINE
   5
3EF
 100
AcDbEntity
   8
LEVEL001
 370
13
 100
AcDbLine
   6
CONTINUOUS
  62
5
  10
 2955.3225955176
  20
 1870.4796618005
  30
0.0
  11
 3318.2707585622
  21
 1870.4796618005
  31
0.0
   0
LINE
   5
3F0
 100
AcDbEntity
   8
LEVEL001
 370
13
 100
AcDbLine
   6
CONTINUOUS
  62
5
  10
 2846.0310283410
  20
 1870.4796618005
  30
0.0
  11
 2318.2707585622
  21
 1870.4796618005
  31
0.0
   0
LINE
   5
3F1
 100
AcDbEntity
   8
LEVEL001
 370
13
 100
AcDbLine
   6
CONTINUOUS
  62
5
  10
 3068.2707585622
  20
 670.47966180059
  30
0.0
  11
 2568.2707585622
  21
 670.47966180059
  31
0.0
   0
LINE
   5
3F2
 100
AcDbEntity
   8
LEVEL001
 370
13
 100
AcDbLine
   6
CONTINUOUS
  62
5
  10
 2568.2707585622
  20
 670.47966180059
  30
0.0
  11
 2568.2707585622
  21
 570.47966180059
  31
0.0
   0
LINE
   5
3F3
 100
AcDbEntity
   8
LEVEL001
 370
13
 100
AcDbLine
   6
CONTINUOUS
  62
5
  10
 2568.2707585622
  20
 570.47966180059
  30
0.0
  11
 3068.2707585622
  21
 570.47966180059
  31
0.0
   0
LINE
   5
3F4
 100
AcDbEntity
   8
LEVEL001
 370
13
 100
AcDbLine
   6
CONTINUOUS
  62
5
  10
 2568.2707585622
  20
 670.47966180059
  30
0.0
  11
 3068.2707585622
  21
 670.47966180059
  31
0.0
   0
LINE
   5
3F5
 100
AcDbEntity
   8
LEVEL001
 370
13
 100
AcDbLine
   6
CONTINUOUS
  62
5
  10
 2618.2707585622
  20
 670.47966180059
  30
0.0
  11
 2568.2707585622
  21
 570.47966180059
  31
0.0
   0
LINE
   5
3F6
 100
AcDbEntity
   8
LEVEL001
 370
13
 100
AcDbLine
   6
CONTINUOUS
  62
5
  10
 2568.2707585622
  20
 670.47966180059
  30
0.0
  11
 2608.2707585622
  21
 650.47966180059
  31
0.0
   0
LINE
   5
3F7
 100
AcDbEntity
   8
LEVEL001
 370
13
 100
AcDbLine
   6
CONTINUOUS
  62
5
  10
 2618.2707585622
  20
 570.47966180059
  30
0.0
  11
 2578.2707585622
  21
 590.47966180059
  31
0.0
   0
LINE
   5
3F8
 100
AcDbEntity
   8
LEVEL001
 370
13
 100
AcDbLine
   6
CONTINUOUS
  62
5
  10
 2718.2707585622
  20
 670.47966180059
  30
0.0
  11
 2668.2707585622
  21
 570.47966180059
  31
0.0
   0
LINE
   5
3F9
 100
AcDbEntity
   8
LEVEL001
 370
13
 100
AcDbLine
   6
CONTINUOUS
  62
5
  10
 2668.2707585622
  20
 670.47966180059
  30
0.0
  11
 2708.2707585622
  21
 650.47966180059
  31
0.0
   0
LINE
   5
3FA
 100
AcDbEntity
   8
LEVEL001
 370
13
 100
AcDbLine
   6
CONTINUOUS
  62
5
  10
 2668.2707585622
  20
 670.47966180059
  30
0.0
  11
 2618.2707585622
  21
 570.47966180059
  31
0.0
   0
LINE
   5
3FB
 100
AcDbEntity
   8
LEVEL001
 370
13
 100
AcDbLine
   6
CONTINUOUS
  62
5
  10
 2618.2707585622
  20
 670.47966180059
  30
0.0
  11
 2658.2707585622
  21
 650.47966180059
  31
0.0
   0
LINE
   5
3FC
 100
AcDbEntity
   8
LEVEL001
 370
13
 100
AcDbLine
   6
CONTINUOUS
  62
5
  10
 2718.2707585622
  20
 570.47966180059
  30
0.0
  11
 2678.2707585622
  21
 590.47966180059
  31
0.0
   0
LINE
   5
3FD
 100
AcDbEntity
   8
LEVEL001
 370
13
 100
AcDbLine
   6
CONTINUOUS
  62
5
  10
 2668.2707585622
  20
 570.47966180059
  30
0.0
  11
 2628.2707585622
  21
 590.47966180059
  31
0.0
   0
LINE
   5
3FE
 100
AcDbEntity
   8
LEVEL001
 370
13
 100
AcDbLine
   6
CONTINUOUS
  62
5
  10
 3068.2707585622
  20
 670.47966180059
  30
0.0
  11
 3018.2707585622
  21
 570.47966180059
  31
0.0
   0
LINE
   5
3FF
 100
AcDbEntity
   8
LEVEL001
 370
13
 100
AcDbLine
   6
CONTINUOUS
  62
5
  10
 3018.2707585622
  20
 670.47966180059
  30
0.0
  11
 3058.2707585622
  21
 650.47966180059
  31
0.0
   0
LINE
   5
400
 100
AcDbEntity
   8
LEVEL001
 370
13
 100
AcDbLine
   6
CONTINUOUS
  62
5
  10
 3068.2707585622
  20
 570.47966180059
  30
0.0
  11
 3028.2707585622
  21
 590.47966180059
  31
0.0
   0
LINE
   5
401
 100
AcDbEntity
   8
LEVEL001
 370
13
 100
AcDbLine
   6
CONTINUOUS
  62
5
  10
 3068.2707585622
  20
 570.47966180059
  30
0.0
  11
 3068.2707585622
  21
 670.47966180059
  31
0.0
   0
LINE
   5
402
 100
AcDbEntity
   8
LEVEL001
 370
13
 100
AcDbLine
   6
CONTINUOUS
  62
5
  10
 3018.2707585622
  20
 670.47966180059
  30
0.0
  11
 2968.2707585622
  21
 570.47966180059
  31
0.0
   0
LINE
   5
403
 100
AcDbEntity
   8
LEVEL001
 370
13
 100
AcDbLine
   6
CONTINUOUS
  62
5
  10
 2968.2707585622
  20
 670.47966180059
  30
0.0
  11
 3008.2707585622
  21
 650.47966180059
  31
0.0
   0
LINE
   5
404
 100
AcDbEntity
   8
LEVEL001
 370
13
 100
AcDbLine
   6
CONTINUOUS
  62
5
  10
 2968.2707585622
  20
 670.47966180059
  30
0.0
  11
 2918.2707585622
  21
 570.47966180059
  31
0.0
   0
LINE
   5
405
 100
AcDbEntity
   8
LEVEL001
 370
13
 100
AcDbLine
   6
CONTINUOUS
  62
5
  10
 2918.2707585622
  20
 670.47966180059
  30
0.0
  11
 2958.2707585622
  21
 650.47966180059
  31
0.0
   0
LINE
   5
406
 100
AcDbEntity
   8
LEVEL001
 370
13
 100
AcDbLine
   6
CONTINUOUS
  62
5
  10
 3018.2707585622
  20
 570.47966180059
  30
0.0
  11
 2978.2707585622
  21
 590.47966180059
  31
0.0
   0
LINE
   5
407
 100
AcDbEntity
   8
LEVEL001
 370
13
 100
AcDbLine
   6
CONTINUOUS
  62
5
  10
 2968.2707585622
  20
 570.47966180059
  30
0.0
  11
 2928.2707585622
  21
 590.47966180059
  31
0.0
   0
LINE
   5
408
 100
AcDbEntity
   8
LEVEL001
 370
13
 100
AcDbLine
   6
CONTINUOUS
  62
6
  10
 5478.2707585622
  20
 2573.8796618006
  30
0.0
  11
 8118.2707585622
  21
 2573.8796618006
  31
0.0
   0
MTEXT
   5
409
 100
AcDbEntity
   8
LEVEL001
 370
13
  62
1
 100
AcDbMText
  10
 7358.2707585622
  20
 1673.8796618006
  30
0.0
  40
 51.428571428572
  41
0.0
  71
4
  72
1
   1
\T1.000000;静電粉体塗装
   7
GMM001
  44
 0.79999984000003
   0
MTEXT
   5
40A
 100
AcDbEntity
   8
LEVEL001
 370
13
  62
1
 100
AcDbMText
  10
 6798.2707585622
  20
 1673.8796618006
  30
0.0
  40
 51.428571428572
  41
0.0
  71
4
  72
1
   1
\T1.000000;ＳＴＫ４００
   7
GMM001
  44
 0.79999984000003
   0
MTEXT
   5
40B
 100
AcDbEntity
   8
LEVEL001
 370
13
  62
1
 100
AcDbMText
  10
 6730.2707585622
  20
 1673.8796618006
  30
0.0
  40
 51.428571428572
  41
0.0
  71
6
  72
1
   1
\T1.000000;１
   7
GMM001
  44
 0.79999984000003
   0
MTEXT
   5
40C
 100
AcDbEntity
   8
LEVEL001
 370
13
  62
1
 100
AcDbMText
  10
 7358.2707585622
  20
 1793.8796618006
  30
0.0
  40
 51.428571428572
  41
0.0
  71
4
  72
1
   1
\T1.000000;溶融亜鉛メッキ
   7
GMM001
  44
 0.79999984000003
   0
MTEXT
   5
40D
 100
AcDbEntity
   8
LEVEL001
 370
13
  62
1
 100
AcDbMText
  10
 6798.2707585622
  20
 1793.8796618006
  30
0.0
  40
 51.428571428572
  41
0.0
  71
4
  72
1
   1
\T1.000000;ＳＳ４００
   7
GMM001
  44
 0.79999984000003
   0
MTEXT
   5
40E
 100
AcDbEntity
   8
LEVEL001
 370
13
  62
1
 100
AcDbMText
  10
 6730.2707585622
  20
 1793.8796618006
  30
0.0
  40
 51.428571428572
  41
0.0
  71
6
  72
1
   1
\T1.000000;４
   7
GMM001
  44
 0.79999984000003
   0
MTEXT
   5
40F
 100
AcDbEntity
   8
LEVEL001
 370
13
  62
1
 100
AcDbMText
  10
 7358.2707585622
  20
 1913.8796618006
  30
0.0
  40
 51.428571428572
  41
0.0
  71
4
  72
1
   1
\T1.000000;溶融亜鉛メッキ
   7
GMM001
  44
 0.79999984000003
   0
MTEXT
   5
410
 100
AcDbEntity
   8
LEVEL001
 370
13
  62
1
 100
AcDbMText
  10
 7358.2707585622
  20
 2033.8796618006
  30
0.0
  40
 51.428571428572
  41
0.0
  71
4
  72
1
   1
\T1.000000;溶融亜鉛メッキ
   7
GMM001
  44
 0.79999984000003
   0
MTEXT
   5
411
 100
AcDbEntity
   8
LEVEL001
 370
13
  62
1
 100
AcDbMText
  10
 7358.2707585622
  20
 2153.8796618006
  30
0.0
  40
 51.428571428572
  41
0.0
  71
4
  72
1
   1
\T1.000000;溶融亜鉛メッキ
   7
GMM001
  44
 0.79999984000003
   0
MTEXT
   5
412
 100
AcDbEntity
   8
LEVEL001
 370
13
  62
1
 100
AcDbMText
  10
 6798.2707585622
  20
 1913.8796618006
  30
0.0
  40
 51.428571428572
  41
0.0
  71
4
  72
1
   1
\T1.000000;ＳＳ４００
   7
GMM001
  44
 0.79999984000003
   0
MTEXT
   5
413
 100
AcDbEntity
   8
LEVEL001
 370
13
  62
1
 100
AcDbMText
  10
 6798.2707585622
  20
 2033.8796618006
  30
0.0
  40
 51.428571428572
  41
0.0
  71
4
  72
1
   1
\T1.000000;ＳＳ４００
   7
GMM001
  44
 0.79999984000003
   0
MTEXT
   5
414
 100
AcDbEntity
   8
LEVEL001
 370
13
  62
1
 100
AcDbMText
  10
 6798.2707585622
  20
 2153.8796618006
  30
0.0
  40
 51.428571428572
  41
0.0
  71
4
  72
1
   1
\T1.000000;ＳＳ４００
   7
GMM001
  44
 0.79999984000003
   0
MTEXT
   5
415
 100
AcDbEntity
   8
LEVEL001
 370
13
  62
1
 100
AcDbMText
  10
 6730.2707585622
  20
 1913.8796618006
  30
0.0
  40
 51.428571428572
  41
0.0
  71
6
  72
1
   1
\T1.000000;１
   7
GMM001
  44
 0.79999984000003
   0
MTEXT
   5
416
 100
AcDbEntity
   8
LEVEL001
 370
13
  62
1
 100
AcDbMText
  10
 6730.2707585622
  20
 2033.8796618006
  30
0.0
  40
 51.428571428572
  41
0.0
  71
6
  72
1
   1
\T1.000000;８
   7
GMM001
  44
 0.79999984000003
   0
MTEXT
   5
417
 100
AcDbEntity
   8
LEVEL001
 370
13
  62
1
 100
AcDbMText
  10
 6730.2707585622
  20
 2153.8796618006
  30
0.0
  40
 51.428571428572
  41
0.0
  71
6
  72
1
   1
\T1.000000;８
   7
GMM001
  44
 0.79999984000003
   0
MTEXT
   5
418
 100
AcDbEntity
   8
LEVEL001
 370
13
  62
1
 100
AcDbMText
  10
 5650.2707585622
  20
 1673.8796618006
  30
0.0
  40
 51.428571428572
  41
0.0
  71
6
  72
1
   1
\T1.000000;１１
   7
GMM001
  44
 0.79999984000003
   0
MTEXT
   5
419
 100
AcDbEntity
   8
LEVEL001
 370
13
  62
1
 100
AcDbMText
  10
 5718.2707585622
  20
 1673.8796618006
  30
0.0
  40
 51.428571428572
  41
0.0
  71
4
  72
1
   1
\T1.000000;支柱
   7
GMM001
  44
 0.79999984000003
   0
MTEXT
   5
41A
 100
AcDbEntity
   8
LEVEL001
 370
13
  62
1
 100
AcDbMText
  10
 5718.2707585622
  20
 1793.8796618006
  30
0.0
  40
 51.428571428572
  41
0.0
  71
4
  72
1
   1
\T1.000000;同上ボルトナット
   7
GMM001
  44
 0.79999984000003
   0
MTEXT
   5
41B
 100
AcDbEntity
   8
LEVEL001
 370
13
  62
1
 100
AcDbMText
  10
 5650.2707585622
  20
 1793.8796618006
  30
0.0
  40
 51.428571428572
  41
0.0
  71
6
  72
1
   1
\T1.000000;１０
   7
GMM001
  44
 0.79999984000003
   0
MTEXT
   5
41C
 100
AcDbEntity
   8
LEVEL001
 370
13
  62
1
 100
AcDbMText
  10
 5650.2707585622
  20
 1913.8796618006
  30
0.0
  40
 51.428571428572
  41
0.0
  71
6
  72
1
   1
\T1.000000;９
   7
GMM001
  44
 0.79999984000003
   0
MTEXT
   5
41D
 100
AcDbEntity
   8
LEVEL001
 370
13
  62
1
 100
AcDbMText
  10
 5718.2707585622
  20
 1913.8796618006
  30
0.0
  40
 51.428571428572
  41
0.0
  71
4
  72
1
   1
\T1.000000;二面鏡用取付腕木
   7
GMM001
  44
 0.79999984000003
   0
MTEXT
   5
41E
 100
AcDbEntity
   8
LEVEL001
 370
13
  62
1
 100
AcDbMText
  10
 5650.2707585622
  20
 2033.8796618006
  30
0.0
  40
 51.428571428572
  41
0.0
  71
6
  72
1
   1
\T1.000000;８
   7
GMM001
  44
 0.79999984000003
   0
MTEXT
   5
41F
 100
AcDbEntity
   8
LEVEL001
 370
13
  62
1
 100
AcDbMText
  10
 5718.2707585622
  20
 2033.8796618006
  30
0.0
  40
 51.428571428572
  41
0.0
  71
4
  72
1
   1
\T1.000000;金具締付ボルトナット
   7
GMM001
  44
 0.79999984000003
   0
MTEXT
   5
420
 100
AcDbEntity
   8
LEVEL001
 370
13
  62
1
 100
AcDbMText
  10
 5650.2707585622
  20
 2153.8796618006
  30
0.0
  40
 51.428571428572
  41
0.0
  71
6
  72
1
   1
\T1.000000;７
   7
GMM001
  44
 0.79999984000003
   0
MTEXT
   5
421
 100
AcDbEntity
   8
LEVEL001
 370
13
  62
1
 100
AcDbMText
  10
 5718.2707585622
  20
 2153.8796618006
  30
0.0
  40
 51.428571428572
  41
0.0
  71
4
  72
1
   1
\T1.000000;裏板金具取付ボルト
   7
GMM001
  44
 0.79999984000003
   0
LINE
   5
422
 100
AcDbEntity
   8
LEVEL001
 370
13
 100
AcDbLine
   6
CONTINUOUS
  62
6
  10
 5478.2707585622
  20
 1733.8796618006
  30
0.0
  11
 8118.2707585622
  21
 1733.8796618006
  31
0.0
   0
LINE
   5
423
 100
AcDbEntity
   8
LEVEL001
 370
13
 100
AcDbLine
   6
CONTINUOUS
  62
6
  10
 5478.2707585622
  20
 1853.8796618006
  30
0.0
  11
 8118.2707585622
  21
 1853.8796618006
  31
0.0
   0
LINE
   5
424
 100
AcDbEntity
   8
LEVEL001
 370
13
 100
AcDbLine
   6
CONTINUOUS
  62
6
  10
 5478.2707585622
  20
 1973.8796618006
  30
0.0
  11
 8118.2707585622
  21
 1973.8796618006
  31
0.0
   0
LINE
   5
425
 100
AcDbEntity
   8
LEVEL001
 370
13
 100
AcDbLine
   6
CONTINUOUS
  62
6
  10
 5478.2707585622
  20
 2093.8796618006
  30
0.0
  11
 8118.2707585622
  21
 2093.8796618006
  31
0.0
   0
MTEXT
   5
426
 100
AcDbEntity
   8
LEVEL001
 370
13
  62
1
 100
AcDbMText
  10
 5718.2707585622
  20
 2273.8796618006
  30
0.0
  40
 51.428571428572
  41
0.0
  71
4
  72
1
   1
\T1.000000;支柱取付金具
   7
GMM001
  44
 0.79999984000003
   0
MTEXT
   5
427
 100
AcDbEntity
   8
LEVEL001
 370
13
  62
1
 100
AcDbMText
  10
 5650.2707585622
  20
 2273.8796618006
  30
0.0
  40
 51.428571428572
  41
0.0
  71
6
  72
1
   1
\T1.000000;６
   7
GMM001
  44
 0.79999984000003
   0
MTEXT
   5
428
 100
AcDbEntity
   8
LEVEL001
 370
13
  62
1
 100
AcDbMText
  10
 6730.2707585622
  20
 2273.8796618006
  30
0.0
  40
 51.428571428572
  41
0.0
  71
6
  72
1
   1
\T1.000000;２
   7
GMM001
  44
 0.79999984000003
   0
MTEXT
   5
429
 100
AcDbEntity
   8
LEVEL001
 370
13
  62
1
 100
AcDbMText
  10
 6798.2707585622
  20
 2273.8796618006
  30
0.0
  40
 51.428571428572
  41
0.0
  71
4
  72
1
   1
\T1.000000;ＳＳ４００
   7
GMM001
  44
 0.79999984000003
   0
MTEXT
   5
42A
 100
AcDbEntity
   8
LEVEL001
 370
13
  62
1
 100
AcDbMText
  10
 5650.2707585622
  20
 2393.8796618006
  30
0.0
  40
 51.428571428572
  41
0.0
  71
6
  72
1
   1
\T1.000000;５
   7
GMM001
  44
 0.79999984000003
   0
MTEXT
   5
42B
 100
AcDbEntity
   8
LEVEL001
 370
13
  62
1
 100
AcDbMText
  10
 5718.2707585622
  20
 2393.8796618006
  30
0.0
  40
 51.428571428572
  41
0.0
  71
4
  72
1
   1
\T1.000000;裏板取付金具
   7
GMM001
  44
 0.79999984000003
   0
MTEXT
   5
42C
 100
AcDbEntity
   8
LEVEL001
 370
13
  62
1
 100
AcDbMText
  10
 5650.2707585622
  20
 2513.8796618006
  30
0.0
  40
 51.428571428572
  41
0.0
  71
6
  72
1
   1
\T1.000000;４
   7
GMM001
  44
 0.79999984000003
   0
MTEXT
   5
42D
 100
AcDbEntity
   8
LEVEL001
 370
13
  62
1
 100
AcDbMText
  10
 5718.2707585622
  20
 2513.8796618006
  30
0.0
  40
 51.428571428572
  41
0.0
  71
4
  72
1
   1
\T1.000000;リング
   7
GMM001
  44
 0.79999984000003
   0
MTEXT
   5
42E
 100
AcDbEntity
   8
LEVEL001
 370
13
  62
1
 100
AcDbMText
  10
 5650.2707585622
  20
 2633.8796618006
  30
0.0
  40
 51.428571428572
  41
0.0
  71
6
  72
1
   1
\T1.000000;３
   7
GMM001
  44
 0.79999984000003
   0
MTEXT
   5
42F
 100
AcDbEntity
   8
LEVEL001
 370
13
  62
1
 100
AcDbMText
  10
 5718.2707585622
  20
 2633.8796618006
  30
0.0
  40
 51.428571428572
  41
0.0
  71
4
  72
1
   1
\T1.000000;フード
   7
GMM001
  44
 0.79999984000003
   0
MTEXT
   5
430
 100
AcDbEntity
   8
LEVEL001
 370
13
  62
1
 100
AcDbMText
  10
 5650.2707585622
  20
 2753.8796618006
  30
0.0
  40
 51.428571428572
  41
0.0
  71
6
  72
1
   1
\T1.000000;２
   7
GMM001
  44
 0.79999984000003
   0
MTEXT
   5
431
 100
AcDbEntity
   8
LEVEL001
 370
13
  62
1
 100
AcDbMText
  10
 5650.2707585622
  20
 2873.8796618006
  30
0.0
  40
 51.428571428572
  41
0.0
  71
6
  72
1
   1
\T1.000000;１
   7
GMM001
  44
 0.79999984000003
   0
MTEXT
   5
432
 100
AcDbEntity
   8
LEVEL001
 370
13
  62
1
 100
AcDbMText
  10
 5718.2707585622
  20
 2753.8796618006
  30
0.0
  40
 51.428571428572
  41
0.0
  71
4
  72
1
   1
\T1.000000;バックプレート
   7
GMM001
  44
 0.79999984000003
   0
MTEXT
   5
433
 100
AcDbEntity
   8
LEVEL001
 370
13
  62
1
 100
AcDbMText
  10
 6730.2707585622
  20
 2393.8796618006
  30
0.0
  40
 51.428571428572
  41
0.0
  71
6
  72
1
   1
\T1.000000;２
   7
GMM001
  44
 0.79999984000003
   0
MTEXT
   5
434
 100
AcDbEntity
   8
LEVEL001
 370
13
  62
1
 100
AcDbMText
  10
 6730.2707585622
  20
 2513.8796618006
  30
0.0
  40
 51.428571428572
  41
0.0
  71
6
  72
1
   1
\T1.000000;２
   7
GMM001
  44
 0.79999984000003
   0
MTEXT
   5
435
 100
AcDbEntity
   8
LEVEL001
 370
13
  62
1
 100
AcDbMText
  10
 6730.2707585622
  20
 2633.8796618006
  30
0.0
  40
 51.428571428572
  41
0.0
  71
6
  72
1
   1
\T1.000000;２
   7
GMM001
  44
 0.79999984000003
   0
MTEXT
   5
436
 100
AcDbEntity
   8
LEVEL001
 370
13
  62
1
 100
AcDbMText
  10
 6730.2707585622
  20
 2753.8796618006
  30
0.0
  40
 51.428571428572
  41
0.0
  71
6
  72
1
   1
\T1.000000;２
   7
GMM001
  44
 0.79999984000003
   0
MTEXT
   5
437
 100
AcDbEntity
   8
LEVEL001
 370
13
  62
1
 100
AcDbMText
  10
 6730.2707585622
  20
 2873.8796618006
  30
0.0
  40
 51.428571428572
  41
0.0
  71
6
  72
1
   1
\T1.000000;２
   7
GMM001
  44
 0.79999984000003
   0
MTEXT
   5
438
 100
AcDbEntity
   8
LEVEL001
 370
13
  62
1
 100
AcDbMText
  10
 6798.2707585622
  20
 2393.8796618006
  30
0.0
  40
 51.428571428572
  41
0.0
  71
4
  72
1
   1
\T1.000000;ＳＳ４００
   7
GMM001
  44
 0.79999984000003
   0
MTEXT
   5
439
 100
AcDbEntity
   8
LEVEL001
 370
13
  62
1
 100
AcDbMText
  10
 6798.2707585622
  20
 2513.8796618006
  30
0.0
  40
 51.428571428572
  41
0.0
  71
4
  72
1
   1
\T1.000000;軟質ＰＶＣ
   7
GMM001
  44
 0.79999984000003
   0
MTEXT
   5
43A
 100
AcDbEntity
   8
LEVEL001
 370
13
  62
1
 100
AcDbMText
  10
 6798.2707585622
  20
 2873.8796618006
  30
0.0
  40
 51.428571428572
  41
0.0
  71
4
  72
1
   1
\T1.000000;ＳＵＳ３０４
   7
GMM001
  44
 0.79999984000003
   0
MTEXT
   5
43B
 100
AcDbEntity
   8
LEVEL001
 370
13
  62
1
 100
AcDbMText
  10
 7358.2707585622
  20
 2273.8796618006
  30
0.0
  40
 51.428571428572
  41
0.0
  71
4
  72
1
   1
\T1.000000;溶融亜鉛メッキ
   7
GMM001
  44
 0.79999984000003
   0
MTEXT
   5
43C
 100
AcDbEntity
   8
LEVEL001
 370
13
  62
1
 100
AcDbMText
  10
 7358.2707585622
  20
 2393.8796618006
  30
0.0
  40
 51.428571428572
  41
0.0
  71
4
  72
1
   1
\T1.000000;溶融亜鉛メッキ
   7
GMM001
  44
 0.79999984000003
   0
MTEXT
   5
43D
 100
AcDbEntity
   8
LEVEL001
 370
13
  62
1
 100
AcDbMText
  10
 7358.2707585622
  20
 2873.8796618006
  30
0.0
  40
 51.428571428572
  41
0.0
  71
4
  72
1
   1
\T1.000000;t=0.9mm\T1.000000;・表面研磨
   7
GMM001
  44
 0.79999984000003
   0
LINE
   5
43E
 100
AcDbEntity
   8
LEVEL001
 370
13
 100
AcDbLine
   6
CONTINUOUS
  62
6
  10
 5478.2707585622
  20
 2213.8796618006
  30
0.0
  11
 8118.2707585622
  21
 2213.8796618006
  31
0.0
   0
LINE
   5
43F
 100
AcDbEntity
   8
LEVEL001
 370
13
 100
AcDbLine
   6
CONTINUOUS
  62
6
  10
 5478.2707585622
  20
 2333.8796618006
  30
0.0
  11
 8118.2707585622
  21
 2333.8796618006
  31
0.0
   0
LINE
   5
440
 100
AcDbEntity
   8
LEVEL001
 370
13
 100
AcDbLine
   6
CONTINUOUS
  62
6
  10
 5478.2707585622
  20
 2693.8796618006
  30
0.0
  11
 8118.2707585622
  21
 2693.8796618006
  31
0.0
   0
LINE
   5
441
 100
AcDbEntity
   8
LEVEL001
 370
13
 100
AcDbLine
   6
CONTINUOUS
  62
6
  10
 5478.2707585622
  20
 2453.8796618006
  30
0.0
  11
 8118.2707585622
  21
 2453.8796618006
  31
0.0
   0
LINE
   5
442
 100
AcDbEntity
   8
LEVEL001
 370
13
 100
AcDbLine
   6
CONTINUOUS
  62
6
  10
 5478.2707585622
  20
 2813.8796618006
  30
0.0
  11
 8118.2707585622
  21
 2813.8796618006
  31
0.0
   0
MTEXT
   5
443
 100
AcDbEntity
   8
LEVEL001
 370
13
  62
1
 100
AcDbMText
  10
 6118.2707585622
  20
 3013.8796618006
  30
0.0
  40
 51.428571428572
  41
0.0
  71
5
  72
1
   1
\T1.000000;名　　称
   7
GMM001
  44
 0.79999984000003
   0
MTEXT
   5
444
 100
AcDbEntity
   8
LEVEL001
 370
13
  62
1
 100
AcDbMText
  10
 6658.2707585622
  20
 3013.8796618006
  30
0.0
  40
 51.428571428572
  41
0.0
  71
5
  72
1
   1
\T1.000000;個数
   7
GMM001
  44
 0.79999984000003
   0
MTEXT
   5
445
 100
AcDbEntity
   8
LEVEL001
 370
13
  62
1
 100
AcDbMText
  10
 7038.2707585622
  20
 3013.8796618006
  30
0.0
  40
 51.428571428572
  41
0.0
  71
5
  72
1
   1
\T1.000000;材　　質
   7
GMM001
  44
 0.79999984000003
   0
MTEXT
   5
446
 100
AcDbEntity
   8
LEVEL001
 370
13
  62
1
 100
AcDbMText
  10
 7718.2707585622
  20
 3013.8796618006
  30
0.0
  40
 51.428571428572
  41
0.0
  71
5
  72
1
   1
\T1.000000;規格仕様
   7
GMM001
  44
 0.79999984000003
   0
LINE
   5
447
 100
AcDbEntity
   8
LEVEL001
 370
13
 100
AcDbLine
   6
CONTINUOUS
  62
2
  10
 5478.2707585622
  20
 3093.8796618006
  30
0.0
  11
 8118.2707585622
  21
 3093.8796618006
  31
0.0
   0
LINE
   5
448
 100
AcDbEntity
   8
LEVEL001
 370
13
 100
AcDbLine
   6
CONTINUOUS
  62
2
  10
 5478.2707585622
  20
 2933.8796618006
  30
0.0
  11
 8118.2707585622
  21
 2933.8796618006
  31
0.0
   0
MTEXT
   5
449
 100
AcDbEntity
   8
LEVEL001
 370
13
  62
1
 100
AcDbMText
  10
 5718.2707585622
  20
 2873.8796618006
  30
0.0
  40
 51.428571428572
  41
0.0
  71
4
  72
1
   1
\T1.000000;鏡面　Ｒ＝３０００
   7
GMM001
  44
 0.79999984000003
   0
MTEXT
   5
44A
 100
AcDbEntity
   8
LEVEL001
 370
13
  62
1
 100
AcDbMText
  10
 5578.2707585622
  20
 3173.8796618006
  30
0.0
  40
 57.142857142858
  41
0.0
  71
4
  72
1
   1
\T1.000000;□６００×８００（ダブル）
   7
GMM001
  44
 0.79999984000003
   0
MTEXT
   5
44B
 100
AcDbEntity
   8
LEVEL001
 370
13
  62
1
 100
AcDbMText
  10
 6798.2707585622
  20
 2633.8796618006
  30
0.0
  40
 51.428571428572
  41
0.0
  71
4
  72
1
   1
\T1.000000;ＳＵＳ４３０
   7
GMM001
  44
 0.79999984000003
   0
MTEXT
   5
44C
 100
AcDbEntity
   8
LEVEL001
 370
13
  62
1
 100
AcDbMText
  10
 5578.2707585622
  20
 3333.8796618006
  30
0.0
  40
 57.142857142858
  41
0.0
  71
4
  72
1
   1
\T1.000000;ステンレスミラー　＜Ｚタイプ＞
   7
GMM001
  44
 0.79999984000003
   0
MTEXT
   5
44D
 100
AcDbEntity
   8
LEVEL001
 370
13
  62
1
 100
AcDbMText
  10
 6798.2707585622
  20
 2753.8796618006
  30
0.0
  40
 51.428571428572
  41
0.0
  71
4
  72
1
   1
\T1.000000;高耐食溶融めっき鋼板
   7
GMM004
  44
 0.79999984000003
   0
LWPOLYLINE
   5
44E
 100
AcDbEntity
   8
0
 370
13
   6
CONTINUOUS
  62
2
 100
AcDbPolyline
  90
4
  70
1
  10
 5478.2707585622
  20
 893.87966180056
  10
 8118.2707585622
  20
 893.87966180056
  10
 8118.2707585622
  20
 3413.8796618006
  10
 5478.2707585622
  20
 3413.8796618006
   0
LINE
   5
44F
 100
AcDbEntity
   8
0
 370
13
 100
AcDbLine
   6
CONTINUOUS
  62
6
  10
 6758.2707585622
  20
 3093.8796618006
  30
0.0
  11
 6758.2707585622
  21
 893.87966180056
  31
0.0
   0
LINE
   5
450
 100
AcDbEntity
   8
0
 370
13
 100
AcDbLine
   6
CONTINUOUS
  62
6
  10
 7318.2707585622
  20
 3093.8796618006
  30
0.0
  11
 7318.2707585622
  21
 893.87966180056
  31
0.0
   0
LINE
   5
451
 100
AcDbEntity
   8
0
 370
13
 100
AcDbLine
   6
CONTINUOUS
  62
6
  10
 5678.2707585622
  20
 3093.8796618006
  30
0.0
  11
 5678.2707585622
  21
 893.87966180056
  31
0.0
   0
LINE
   5
452
 100
AcDbEntity
   8
0
 370
13
 100
AcDbLine
   6
CONTINUOUS
  62
6
  10
 6558.2707585622
  20
 3093.8796618006
  30
0.0
  11
 6558.2707585622
  21
 893.87966180056
  31
0.0
   0
MTEXT
   5
453
 100
AcDbEntity
   8
LEVEL001
 370
13
  62
1
 100
AcDbMText
  10
 6730.2707585622
  20
 1073.8796618006
  30
0.0
  40
 51.428571428572
  41
0.0
  71
6
  72
1
   1
\T1.000000;１式
   7
GMM001
  44
 0.79999984000003
   0
MTEXT
   5
454
 100
AcDbEntity
   8
LEVEL001
 370
13
  62
1
 100
AcDbMText
  10
 6798.2707585622
  20
 1073.8796618006
  30
0.0
  40
 51.428571428572
  41
0.0
  71
4
  72
1
   1
\T1.000000;―
   7
GMM001
  44
 0.79999984000003
   0
MTEXT
   5
455
 100
AcDbEntity
   8
LEVEL001
 370
13
  62
1
 100
AcDbMText
  10
 6798.2707585622
  20
 1193.8796618006
  30
0.0
  40
 51.428571428572
  41
0.0
  71
4
  72
1
   1
\T1.000000;―
   7
GMM001
  44
 0.79999984000003
   0
MTEXT
   5
456
 100
AcDbEntity
   8
LEVEL001
 370
13
  62
1
 100
AcDbMText
  10
 6798.2707585622
  20
 953.87966180056
  30
0.0
  40
 51.428571428572
  41
0.0
  71
4
  72
1
   1
\T1.000000;―
   7
GMM001
  44
 0.79999984000003
   0
MTEXT
   5
457
 100
AcDbEntity
   8
LEVEL001
 370
13
  62
1
 100
AcDbMText
  10
 6730.2707585622
  20
 953.87966180056
  30
0.0
  40
 51.428571428572
  41
0.0
  71
6
  72
1
   1
\T1.000000;１式
   7
GMM001
  44
 0.79999984000003
   0
MTEXT
   5
458
 100
AcDbEntity
   8
LEVEL001
 370
13
  62
1
 100
AcDbMText
  10
 7358.2707585622
  20
 1073.8796618006
  30
0.0
  40
 51.428571428572
  41
0.0
  71
4
  72
1
   1
\T1.000000;―
   7
GMM001
  44
 0.79999984000003
   0
MTEXT
   5
459
 100
AcDbEntity
   8
LEVEL001
 370
13
  62
1
 100
AcDbMText
  10
 7358.2707585622
  20
 953.87966180056
  30
0.0
  40
 51.428571428572
  41
0.0
  71
4
  72
1
   1
\T1.000000;―
   7
GMM001
  44
 0.79999984000003
   0
MTEXT
   5
45A
 100
AcDbEntity
   8
0
 370
13
  62
1
 100
AcDbMText
  10
 6729.2497323163
  20
 1520.1485115550
  30
0.0
  40
 51.428571428571
  41
0.0
  71
9
  72
1
   1
\T1.000000;１
   7
GMM001
  44
 0.79999984000003
   0
MTEXT
   5
45B
 100
AcDbEntity
   8
0
 370
13
  62
1
 100
AcDbMText
  10
 6797.8541496937
  20
 1520.1485115550
  30
0.0
  40
 51.428571428571
  41
0.0
  71
7
  72
1
   1
\T1.000000;ＳＴＫ４００
   7
GMM001
  44
 0.79999984000003
   0
MTEXT
   5
45C
 100
AcDbEntity
   8
0
 370
13
  62
1
 100
AcDbMText
  10
 7359.6522878122
  20
 1559.7397327715
  30
0.0
  40
 34.285720000000
  41
0.0
  71
4
  72
1
   1
{\T1.000000;下地亜鉛メッキ}\P{\T1.000000;＋静電粉体塗装}
   7
GMM005
  44
 0.79999984000003
   0
LINE
   5
45D
 100
AcDbEntity
   8
0
 370
13
 100
AcDbLine
   6
CONTINUOUS
  62
6
  10
 6558.2707585622
  20
 1613.8796618006
  30
0.0
  11
 8118.2707585622
  21
 1613.8796618006
  31
0.0
   0
MTEXT
   5
45E
 100
AcDbEntity
   8
LEVEL001
 370
13
  62
1
 100
AcDbMText
  10
 5718.2707585622
  20
 3593.8796618006
  30
0.0
  40
 51.428580000000
  41
0.0
  71
1
  72
1
   1
{\T1.000000;※構成部材は改良のため、変更する場合があります。}\P{\T1.000000;※本図は道路反射鏡ハンドブックに基づいています。}
   7
GMM001
  44
 0.79999984000003
   0
MTEXT
   5
45F
 100
AcDbEntity
   8
LEVEL001
 370
13
  62
1
 100
AcDbMText
  10
 5718.2707585622
  20
 1193.8796618006
  30
0.0
  40
 51.428571428572
  41
0.0
  71
4
  72
1
   1
\T1.000000;注意板
   7
GMM001
  44
 0.79999984000003
   0
MTEXT
   5
460
 100
AcDbEntity
   8
LEVEL001
 370
13
  62
1
 100
AcDbMText
  10
 6318.2707585622
  20
 738.09841180056
  30
0.0
  40
 42.857142857142
  41
0.0
  71
5
  72
1
   1
\T1.000000;ＭＺＨ６０８ＷＣＰ
   7
GMM001
  44
 0.79999984000003
   0
LINE
   5
461
 100
AcDbEntity
   8
LEVEL001
 370
13
 100
AcDbLine
   6
CONTINUOUS
  62
5
  10
 1518.2707585509
  20
 4220.4822591182
  30
0.0
  11
 1463.2707601900
  21
 4150.4822612044
  31
0.0
   0
LINE
   5
462
 100
AcDbEntity
   8
LEVEL001
 370
13
 100
AcDbLine
   6
CONTINUOUS
  62
5
  10
 1463.2707601900
  20
 4150.4822612044
  30
0.0
  11
 1493.2707592960
  21
 4150.4822612044
  31
0.0
   0
LINE
   5
463
 100
AcDbEntity
   8
LEVEL001
 370
13
 100
AcDbLine
   6
CONTINUOUS
  62
5
  10
 1493.2707592960
  20
 4150.4822612044
  30
0.0
  11
 1493.2707592960
  21
 4120.4822620983
  31
0.0
   0
LINE
   5
464
 100
AcDbEntity
   8
LEVEL001
 370
13
 100
AcDbLine
   6
CONTINUOUS
  62
5
  10
 1493.2707592960
  20
 4120.4822620983
  30
0.0
  11
 1543.2707578059
  21
 4120.4822620983
  31
0.0
   0
LINE
   5
465
 100
AcDbEntity
   8
LEVEL001
 370
13
 100
AcDbLine
   6
CONTINUOUS
  62
5
  10
 1543.2707578059
  20
 4120.4822620983
  30
0.0
  11
 1543.2707578059
  21
 4150.4822612044
  31
0.0
   0
LINE
   5
466
 100
AcDbEntity
   8
LEVEL001
 370
13
 100
AcDbLine
   6
CONTINUOUS
  62
5
  10
 1543.2707578059
  20
 4150.4822612044
  30
0.0
  11
 1573.2707569118
  21
 4150.4822612044
  31
0.0
   0
LINE
   5
467
 100
AcDbEntity
   8
LEVEL001
 370
13
 100
AcDbLine
   6
CONTINUOUS
  62
5
  10
 1573.2707569118
  20
 4150.4822612044
  30
0.0
  11
 1518.2707585509
  21
 4220.4822591182
  31
0.0
   0
LINE
   5
468
 100
AcDbEntity
   8
LEVEL001
 370
13
 100
AcDbLine
   6
CONTINUOUS
  62
5
  10
 1448.6278162905
  20
 4054.4733529328
  30
0.0
  11
 1463.8969808745
  21
 4052.2187143281
  31
0.0
   0
ARC
   5
469
 100
AcDbEntity
   8
LEVEL001
 370
13
   6
CONTINUOUS
  62
5
 100
AcDbCircle
  10
 1462.5142690383
  20
 4031.6855083753
  30
0.0
  40
 20.579709393390
 100
AcDbArc
  50
 10.432218603602
  51
 86.147502469004
   0
ARC
   5
46A
 100
AcDbEntity
   8
LEVEL001
 370
13
   6
CONTINUOUS
  62
5
 100
AcDbCircle
  10
 1468.8699309430
  20
 4035.1098636895
  30
0.0
  40
 13.887146297480
 100
AcDbArc
  50
 284.73811645764
  51
 1.2463330420235
   0
LINE
   5
46B
 100
AcDbEntity
   8
LEVEL001
 370
13
 100
AcDbLine
   6
CONTINUOUS
  62
5
  10
 1472.4028399960
  20
 4021.6796222207
  30
0.0
  11
 1448.6278162905
  21
 4054.4733529328
  31
0.0
   0
ARC
   5
46C
 100
AcDbEntity
   8
LEVEL001
 370
13
   6
CONTINUOUS
  62
5
 100
AcDbCircle
  10
 1456.1750262772
  20
 3994.8683544890
  30
0.0
  40
 20.228108756896
 100
AcDbArc
  50
 1.0517504589737
  51
 78.795792274219
   0
ARC
   5
46D
 100
AcDbEntity
   8
LEVEL001
 370
13
   6
CONTINUOUS
  62
5
 100
AcDbCircle
  10
 1461.4314567827
  20
 3997.0181403887
  30
0.0
  40
 15.073557642890
 100
AcDbArc
  50
 288.65956808366
  51
 353.22403827743
   0
LINE
   5
46E
 100
AcDbEntity
   8
LEVEL001
 370
13
 100
AcDbLine
   6
CONTINUOUS
  62
5
  10
 1450.9846887788
  20
 3968.6971408895
  30
0.0
  11
 1457.9533775360
  21
 3929.8569626038
  31
0.0
   0
ARC
   5
46F
 100
AcDbEntity
   8
LEVEL001
 370
13
   6
CONTINUOUS
  62
5
 100
AcDbCircle
  10
 1467.9357948577
  20
 3933.4889077901
  30
0.0
  40
 10.622602384609
 100
AcDbArc
  50
 199.99311911322
  51
 1.9679733412762
   0
LINE
   5
470
 100
AcDbEntity
   8
LEVEL001
 370
13
 100
AcDbLine
   6
CONTINUOUS
  62
5
  10
 1478.5521318049
  20
 3933.8536971038
  30
0.0
  11
 1475.3749468410
  21
 3950.9679544062
  31
0.0
   0
LINE
   5
471
 100
AcDbEntity
   8
LEVEL001
 370
13
 100
AcDbLine
   6
CONTINUOUS
  62
5
  10
 1475.3749468410
  20
 3950.9679544062
  30
0.0
  11
 1487.6726149315
  21
 4010.4067343730
  31
0.0
   0
LINE
   5
472
 100
AcDbEntity
   8
LEVEL001
 370
13
 100
AcDbLine
   6
CONTINUOUS
  62
5
  10
 1487.6726149315
  20
 4010.4067343730
  30
0.0
  11
 1464.8195272337
  21
 3960.4987463584
  31
0.0
   0
LINE
   5
473
 100
AcDbEntity
   8
LEVEL001
 370
13
 100
AcDbLine
   6
CONTINUOUS
  62
5
  10
 1464.8195272337
  20
 3960.4987463584
  30
0.0
  11
 1450.9846887788
  21
 3968.6971408895
  31
0.0
   0
ARC
   5
474
 100
AcDbEntity
   8
LEVEL001
 370
13
   6
CONTINUOUS
  62
5
 100
AcDbCircle
  10
 1573.0317975165
  20
 3989.1152627033
  30
0.0
  40
 5.0631766002424
 100
AcDbArc
  50
 274.72626205413
  51
 43.105625042975
   0
ARC
   5
475
 100
AcDbEntity
   8
LEVEL001
 370
13
   6
CONTINUOUS
  62
5
 100
AcDbCircle
  10
 1576.6714312238
  20
 4032.2642191663
  30
0.0
  40
 5.5826340442110
 100
AcDbArc
  50
 274.79665758028
  51
 36.910963374421
   0
LINE
   5
476
 100
AcDbEntity
   8
LEVEL001
 370
13
 100
AcDbLine
   6
CONTINUOUS
  62
5
  10
 1576.7283984103
  20
 3992.5751614182
  30
0.0
  11
 1560.3313041724
  21
 4005.5901451612
  31
0.0
   0
LINE
   5
477
 100
AcDbEntity
   8
LEVEL001
 370
13
 100
AcDbLine
   6
CONTINUOUS
  62
5
  10
 1560.3313041724
  20
 4005.5901451612
  30
0.0
  11
 1552.7476862343
  21
 3996.1618922682
  31
0.0
   0
LINE
   5
478
 100
AcDbEntity
   8
LEVEL001
 370
13
 100
AcDbLine
   6
CONTINUOUS
  62
5
  10
 1552.7476862343
  20
 3996.1618922682
  30
0.0
  11
 1539.9376280224
  21
 3996.1618922682
  31
0.0
   0
LINE
   5
479
 100
AcDbEntity
   8
LEVEL001
 370
13
 100
AcDbLine
   6
CONTINUOUS
  62
5
  10
 1539.9376280224
  20
 3996.1618922682
  30
0.0
  11
 1539.9376280224
  21
 4026.7011369635
  31
0.0
   0
LINE
   5
47A
 100
AcDbEntity
   8
LEVEL001
 370
13
 100
AcDbLine
   6
CONTINUOUS
  62
5
  10
 1539.9376280224
  20
 4026.7011369635
  30
0.0
  11
 1577.1382494723
  21
 4026.7011369635
  31
0.0
   0
LINE
   5
47B
 100
AcDbEntity
   8
LEVEL001
 370
13
 100
AcDbLine
   6
CONTINUOUS
  62
5
  10
 1581.1351365602
  20
 4035.6169997349
  30
0.0
  11
 1567.2999929296
  21
 4047.7095897065
  31
0.0
   0
LINE
   5
47C
 100
AcDbEntity
   8
LEVEL001
 370
13
 100
AcDbLine
   6
CONTINUOUS
  62
5
  10
 1567.2999929296
  20
 4047.7095897065
  30
0.0
  11
 1555.4124810768
  21
 4037.6665602208
  31
0.0
   0
LINE
   5
47D
 100
AcDbEntity
   8
LEVEL001
 370
13
 100
AcDbLine
   6
CONTINUOUS
  62
5
  10
 1555.4124810768
  20
 4037.6665602208
  30
0.0
  11
 1539.9376280224
  21
 4037.6665602208
  31
0.0
   0
LINE
   5
47E
 100
AcDbEntity
   8
LEVEL001
 370
13
 100
AcDbLine
   6
CONTINUOUS
  62
5
  10
 1539.9376280224
  20
 4037.6665602208
  30
0.0
  11
 1539.9376280224
  21
 4053.1411080994
  31
0.0
   0
LINE
   5
47F
 100
AcDbEntity
   8
LEVEL001
 370
13
 100
AcDbLine
   6
CONTINUOUS
  62
5
  10
 1539.9376280224
  20
 4053.1411080994
  30
0.0
  11
 1543.5246640483
  21
 4054.9857430541
  31
0.0
   0
LINE
   5
480
 100
AcDbEntity
   8
LEVEL001
 370
13
 100
AcDbLine
   6
CONTINUOUS
  62
5
  10
 1543.5246640483
  20
 4054.9857430541
  30
0.0
  11
 1543.8319760508
  21
 4057.6502327210
  31
0.0
   0
LINE
   5
481
 100
AcDbEntity
   8
LEVEL001
 370
13
 100
AcDbLine
   6
CONTINUOUS
  62
5
  10
 1543.8319760508
  20
 4057.6502327210
  30
0.0
  11
 1514.9324407793
  21
 4062.1593573424
  31
0.0
   0
LINE
   5
482
 100
AcDbEntity
   8
LEVEL001
 370
13
 100
AcDbLine
   6
CONTINUOUS
  62
5
  10
 1514.9324407793
  20
 4062.1593573424
  30
0.0
  11
 1514.9324407793
  21
 4037.6665602208
  31
0.0
   0
LINE
   5
483
 100
AcDbEntity
   8
LEVEL001
 370
13
 100
AcDbLine
   6
CONTINUOUS
  62
5
  10
 1514.9324407793
  20
 4037.6665602208
  30
0.0
  11
 1485.5205153863
  21
 4037.6665602208
  31
0.0
   0
LINE
   5
484
 100
AcDbEntity
   8
LEVEL001
 370
13
 100
AcDbLine
   6
CONTINUOUS
  62
5
  10
 1485.5205153863
  20
 4037.6665602208
  30
0.0
  11
 1489.9272535362
  21
 4026.7011369635
  31
0.0
   0
LINE
   5
485
 100
AcDbEntity
   8
LEVEL001
 370
13
 100
AcDbLine
   6
CONTINUOUS
  62
5
  10
 1489.9272535362
  20
 4026.7011369635
  30
0.0
  11
 1514.9324407793
  21
 4026.7011369635
  31
0.0
   0
LINE
   5
486
 100
AcDbEntity
   8
LEVEL001
 370
13
 100
AcDbLine
   6
CONTINUOUS
  62
5
  10
 1514.9324407793
  20
 4026.7011369635
  30
0.0
  11
 1514.9324407793
  21
 3996.1618922682
  31
0.0
   0
LINE
   5
487
 100
AcDbEntity
   8
LEVEL001
 370
13
 100
AcDbLine
   6
CONTINUOUS
  62
5
  10
 1514.9324407793
  20
 3996.1618922682
  30
0.0
  11
 1487.1602248101
  21
 3996.1618922682
  31
0.0
   0
LINE
   5
488
 100
AcDbEntity
   8
LEVEL001
 370
13
 100
AcDbLine
   6
CONTINUOUS
  62
5
  10
 1487.1602248101
  20
 3996.1618922682
  30
0.0
  11
 1492.0793530815
  21
 3984.0693022965
  31
0.0
   0
LINE
   5
489
 100
AcDbEntity
   8
LEVEL001
 370
13
 100
AcDbLine
   6
CONTINUOUS
  62
5
  10
 1492.0793530815
  20
 3984.0693022965
  30
0.0
  11
 1514.9324407793
  21
 3984.0693022965
  31
0.0
   0
LINE
   5
48A
 100
AcDbEntity
   8
LEVEL001
 370
13
 100
AcDbLine
   6
CONTINUOUS
  62
5
  10
 1514.9324407793
  20
 3984.0693022965
  30
0.0
  11
 1514.9324407793
  21
 3939.1828290250
  31
0.0
   0
LINE
   5
48B
 100
AcDbEntity
   8
LEVEL001
 370
13
 100
AcDbLine
   6
CONTINUOUS
  62
5
  10
 1514.9324407793
  20
 3939.1828290250
  30
0.0
  11
 1482.4461746576
  21
 3939.1828290250
  31
0.0
   0
LINE
   5
48C
 100
AcDbEntity
   8
LEVEL001
 370
13
 100
AcDbLine
   6
CONTINUOUS
  62
5
  10
 1482.4461746576
  20
 3939.1828290250
  30
0.0
  11
 1487.8776930504
  21
 3927.0899338775
  31
0.0
   0
LINE
   5
48D
 100
AcDbEntity
   8
LEVEL001
 370
13
 100
AcDbLine
   6
CONTINUOUS
  62
5
  10
 1487.8776930504
  20
 3927.0899338775
  30
0.0
  11
 1578.2554979741
  21
 3927.0899338775
  31
0.0
   0
LINE
   5
48E
 100
AcDbEntity
   8
LEVEL001
 370
13
 100
AcDbLine
   6
CONTINUOUS
  62
5
  10
 1581.7100877149
  20
 3938.6127606825
  30
0.0
  11
 1566.3777517461
  21
 3948.7134683893
  31
0.0
   0
LINE
   5
48F
 100
AcDbEntity
   8
LEVEL001
 370
13
 100
AcDbLine
   6
CONTINUOUS
  62
5
  10
 1566.3777517461
  20
 3948.7134683893
  30
0.0
  11
 1558.4868218055
  21
 3939.1828290250
  31
0.0
   0
LINE
   5
490
 100
AcDbEntity
   8
LEVEL001
 370
13
 100
AcDbLine
   6
CONTINUOUS
  62
5
  10
 1558.4868218055
  20
 3939.1828290250
  30
0.0
  11
 1539.9376280224
  21
 3939.1828290250
  31
0.0
   0
LINE
   5
491
 100
AcDbEntity
   8
LEVEL001
 370
13
 100
AcDbLine
   6
CONTINUOUS
  62
5
  10
 1539.9376280224
  20
 3939.1828290250
  30
0.0
  11
 1539.9376280224
  21
 3984.0693022965
  31
0.0
   0
LINE
   5
492
 100
AcDbEntity
   8
LEVEL001
 370
13
 100
AcDbLine
   6
CONTINUOUS
  62
5
  10
 1539.9376280224
  20
 3984.0693022965
  30
0.0
  11
 1573.4489795627
  21
 3984.0693022965
  31
0.0
   0
ARC
   5
493
 100
AcDbEntity
   8
LEVEL001
 370
13
   6
CONTINUOUS
  62
5
 100
AcDbCircle
  10
 1578.2559772741
  20
 3933.3690535213
  30
0.0
  40
 6.2791196620726
 100
AcDbArc
  50
 269.99562647859
  51
 56.626490037842
   0
ARC
   5
494
 100
AcDbEntity
   8
LEVEL001
 370
13
   6
CONTINUOUS
  62
5
 100
AcDbCircle
  10
 1582.0284236261
  20
 3826.9005358850
  30
0.0
  40
 4.7515310421130
 100
AcDbArc
  50
 274.70409570322
  51
 59.112293256321
   0
ARC
   5
495
 100
AcDbEntity
   8
LEVEL001
 370
13
   6
CONTINUOUS
  62
5
 100
AcDbCircle
  10
 1488.8691004285
  20
 3826.5434772339
  30
0.0
  40
 22.293228438698
 100
AcDbArc
  50
 35.161132790371
  51
 78.641284698091
   0
ARC
   5
496
 100
AcDbEntity
   8
LEVEL001
 370
13
   6
CONTINUOUS
  62
5
 100
AcDbCircle
  10
 1500.7491414239
  20
 3837.6001891692
  30
0.0
  40
 6.5907971086860
 100
AcDbArc
  50
 312.23536417684
  51
 15.681870099292
   0
LINE
   5
497
 100
AcDbEntity
   8
LEVEL001
 370
13
 100
AcDbLine
   6
CONTINUOUS
  62
5
  10
 1505.1793282770
  20
 3832.7204298540
  30
0.0
  11
 1524.1063296660
  21
 3832.7204298540
  31
0.0
   0
LINE
   5
498
 100
AcDbEntity
   8
LEVEL001
 370
13
 100
AcDbLine
   6
CONTINUOUS
  62
5
  10
 1524.1063296660
  20
 3832.7204298540
  30
0.0
  11
 1534.5595153897
  21
 3848.4000558515
  31
0.0
   0
LINE
   5
499
 100
AcDbEntity
   8
LEVEL001
 370
13
 100
AcDbLine
   6
CONTINUOUS
  62
5
  10
 1534.5595153897
  20
 3848.4000558515
  30
0.0
  11
 1493.2597729682
  21
 3848.4000558515
  31
0.0
   0
ARC
   5
49A
 100
AcDbEntity
   8
LEVEL001
 370
13
   6
CONTINUOUS
  62
5
 100
AcDbCircle
  10
 1572.5872262568
  20
 3853.5562294765
  30
0.0
  40
 5.1561789168066
 100
AcDbArc
  50
 269.91791191234
  51
 52.070025543831
   0
LINE
   5
49B
 100
AcDbEntity
   8
LEVEL001
 370
13
 100
AcDbLine
   6
CONTINUOUS
  62
5
  10
 1584.4676559922
  20
 3830.9781813708
  30
0.0
  11
 1566.5336965657
  21
 3841.4313670944
  31
0.0
   0
LINE
   5
49C
 100
AcDbEntity
   8
LEVEL001
 370
13
 100
AcDbLine
   6
CONTINUOUS
  62
5
  10
 1566.5336965657
  20
 3841.4313670944
  30
0.0
  11
 1559.9748588705
  21
 3832.7204298540
  31
0.0
   0
LINE
   5
49D
 100
AcDbEntity
   8
LEVEL001
 370
13
 100
AcDbLine
   6
CONTINUOUS
  62
5
  10
 1559.9748588705
  20
 3832.7204298540
  30
0.0
  11
 1544.2259579727
  21
 3832.7204298540
  31
0.0
   0
LINE
   5
49E
 100
AcDbEntity
   8
LEVEL001
 370
13
 100
AcDbLine
   6
CONTINUOUS
  62
5
  10
 1544.2259579727
  20
 3832.7204298540
  30
0.0
  11
 1553.3134821159
  21
 3840.9189769730
  31
0.0
   0
LINE
   5
49F
 100
AcDbEntity
   8
LEVEL001
 370
13
 100
AcDbLine
   6
CONTINUOUS
  62
5
  10
 1553.3134821159
  20
 3840.9189769730
  30
0.0
  11
 1557.1052910849
  21
 3841.4313670944
  31
0.0
   0
LINE
   5
4A0
 100
AcDbEntity
   8
LEVEL001
 370
13
 100
AcDbLine
   6
CONTINUOUS
  62
5
  10
 1557.1052910849
  20
 3841.4313670944
  30
0.0
  11
 1558.7450005088
  21
 3843.7882395827
  31
0.0
   0
LINE
   5
4A1
 100
AcDbEntity
   8
LEVEL001
 370
13
 100
AcDbLine
   6
CONTINUOUS
  62
5
  10
 1558.7450005088
  20
 3843.7882395827
  30
0.0
  11
 1556.0805108421
  21
 3848.4000558515
  31
0.0
   0
LINE
   5
4A2
 100
AcDbEntity
   8
LEVEL001
 370
13
 100
AcDbLine
   6
CONTINUOUS
  62
5
  10
 1556.0805108421
  20
 3848.4000558515
  30
0.0
  11
 1572.5798389636
  21
 3848.4000558515
  31
0.0
   0
LINE
   5
4A3
 100
AcDbEntity
   8
LEVEL001
 370
13
 100
AcDbLine
   6
CONTINUOUS
  62
5
  10
 1575.7567187517
  20
 3857.6232306255
  30
0.0
  11
 1557.1052910849
  21
 3867.8711856424
  31
0.0
   0
LINE
   5
4A4
 100
AcDbEntity
   8
LEVEL001
 370
13
 100
AcDbLine
   6
CONTINUOUS
  62
5
  10
 1557.1052910849
  20
 3867.8711856424
  30
0.0
  11
 1550.9563044518
  21
 3858.3405462779
  31
0.0
   0
LINE
   5
4A5
 100
AcDbEntity
   8
LEVEL001
 370
13
 100
AcDbLine
   6
CONTINUOUS
  62
5
  10
 1550.9563044518
  20
 3858.3405462779
  30
0.0
  11
 1529.5378480589
  21
 3858.3405462779
  31
0.0
   0
LINE
   5
4A6
 100
AcDbEntity
   8
LEVEL001
 370
13
 100
AcDbLine
   6
CONTINUOUS
  62
5
  10
 1529.5378480589
  20
 3858.3405462779
  30
0.0
  11
 1529.5378480589
  21
 3864.6943058544
  31
0.0
   0
LINE
   5
4A7
 100
AcDbEntity
   8
LEVEL001
 370
13
 100
AcDbLine
   6
CONTINUOUS
  62
5
  10
 1529.5378480589
  20
 3864.6943058544
  30
0.0
  11
 1531.6624817846
  21
 3868.3922732734
  31
0.0
   0
LINE
   5
4A8
 100
AcDbEntity
   8
LEVEL001
 370
13
 100
AcDbLine
   6
CONTINUOUS
  62
5
  10
 1531.6624817846
  20
 3868.3922732734
  30
0.0
  11
 1530.8424744848
  21
 3870.1343691688
  31
0.0
   0
LINE
   5
4A9
 100
AcDbEntity
   8
LEVEL001
 370
13
 100
AcDbLine
   6
CONTINUOUS
  62
5
  10
 1530.8424744848
  20
 3870.1343691688
  30
0.0
  11
 1506.0698311802
  21
 3870.7407534279
  31
0.0
   0
LINE
   5
4AA
 100
AcDbEntity
   8
LEVEL001
 370
13
 100
AcDbLine
   6
CONTINUOUS
  62
5
  10
 1506.0698311802
  20
 3870.7407534279
  30
0.0
  11
 1506.0698311802
  21
 3858.3405462779
  31
0.0
   0
LINE
   5
4AB
 100
AcDbEntity
   8
LEVEL001
 370
13
 100
AcDbLine
   6
CONTINUOUS
  62
5
  10
 1506.0698311802
  20
 3858.3405462779
  30
0.0
  11
 1456.6075523808
  21
 3858.3405462779
  31
0.0
   0
LINE
   5
4AC
 100
AcDbEntity
   8
LEVEL001
 370
13
 100
AcDbLine
   6
CONTINUOUS
  62
5
  10
 1456.6075523808
  20
 3858.3405462779
  30
0.0
  11
 1461.0808188491
  21
 3848.4000558515
  31
0.0
   0
LINE
   5
4AD
 100
AcDbEntity
   8
LEVEL001
 370
13
 100
AcDbLine
   6
CONTINUOUS
  62
5
  10
 1461.0808188491
  20
 3848.4000558515
  30
0.0
  11
 1478.7077714487
  21
 3848.4000558515
  31
0.0
   0
LINE
   5
4AE
 100
AcDbEntity
   8
LEVEL001
 370
13
 100
AcDbLine
   6
CONTINUOUS
  62
5
  10
 1478.7077714487
  20
 3848.4000558515
  30
0.0
  11
 1488.6482618751
  21
 3832.7204298540
  31
0.0
   0
LINE
   5
4AF
 100
AcDbEntity
   8
LEVEL001
 370
13
 100
AcDbLine
   6
CONTINUOUS
  62
5
  10
 1488.6482618751
  20
 3832.7204298540
  30
0.0
  11
 1453.9329919136
  21
 3832.7204298540
  31
0.0
   0
LINE
   5
4B0
 100
AcDbEntity
   8
LEVEL001
 370
13
 100
AcDbLine
   6
CONTINUOUS
  62
5
  10
 1453.9329919136
  20
 3832.7204298540
  30
0.0
  11
 1458.8335044629
  21
 3822.1650102468
  31
0.0
   0
LINE
   5
4B1
 100
AcDbEntity
   8
LEVEL001
 370
13
 100
AcDbLine
   6
CONTINUOUS
  62
5
  10
 1458.8335044629
  20
 3822.1650102468
  30
0.0
  11
 1582.4180955063
  21
 3822.1650102468
  31
0.0
   0
ARC
   5
4B2
 100
AcDbEntity
   8
LEVEL001
 370
13
   6
CONTINUOUS
  62
5
 100
AcDbCircle
  10
 1478.2074933165
  20
 3798.1344935260
  30
0.0
  40
 31.206602120202
 100
AcDbArc
  50
 246.86700487441
  51
 289.54634462660
   0
LINE
   5
4B3
 100
AcDbEntity
   8
LEVEL001
 370
13
 100
AcDbLine
   6
CONTINUOUS
  62
5
  10
 1488.6482618751
  20
 3798.0820641871
  30
0.0
  11
 1488.6482618751
  21
 3804.5382102349
  31
0.0
   0
LINE
   5
4B4
 100
AcDbEntity
   8
LEVEL001
 370
13
 100
AcDbLine
   6
CONTINUOUS
  62
5
  10
 1488.6482618751
  20
 3804.5382102349
  30
0.0
  11
 1545.2174740564
  21
 3804.5382102349
  31
0.0
   0
LINE
   5
4B5
 100
AcDbEntity
   8
LEVEL001
 370
13
 100
AcDbLine
   6
CONTINUOUS
  62
5
  10
 1545.2174740564
  20
 3804.5382102349
  30
0.0
  11
 1545.2174740564
  21
 3798.0820641871
  31
0.0
   0
LINE
   5
4B6
 100
AcDbEntity
   8
LEVEL001
 370
13
 100
AcDbLine
   6
CONTINUOUS
  62
5
  10
 1545.2174740564
  20
 3798.0820641871
  30
0.0
  11
 1488.6482618751
  21
 3798.0820641871
  31
0.0
   0
LINE
   5
4B7
 100
AcDbEntity
   8
LEVEL001
 370
13
 100
AcDbLine
   6
CONTINUOUS
  62
5
  10
 1571.7601368396
  20
 3811.5068989922
  30
0.0
  11
 1551.7763117516
  21
 3820.5253008230
  31
0.0
   0
LINE
   5
4B8
 100
AcDbEntity
   8
LEVEL001
 370
13
 100
AcDbLine
   6
CONTINUOUS
  62
5
  10
 1551.7763117516
  20
 3820.5253008230
  30
0.0
  11
 1545.2174740564
  21
 3812.8391438254
  31
0.0
   0
LINE
   5
4B9
 100
AcDbEntity
   8
LEVEL001
 370
13
 100
AcDbLine
   6
CONTINUOUS
  62
5
  10
 1545.2174740564
  20
 3812.8391438254
  30
0.0
  11
 1488.6482618751
  21
 3812.8391438254
  31
0.0
   0
LINE
   5
4BA
 100
AcDbEntity
   8
LEVEL001
 370
13
 100
AcDbLine
   6
CONTINUOUS
  62
5
  10
 1488.6482618751
  20
 3812.8391438254
  30
0.0
  11
 1488.6482618751
  21
 3814.5813923088
  31
0.0
   0
LINE
   5
4BB
 100
AcDbEntity
   8
LEVEL001
 370
13
 100
AcDbLine
   6
CONTINUOUS
  62
5
  10
 1488.6482618751
  20
 3814.5813923088
  30
0.0
  11
 1466.0002522962
  21
 3819.1929034018
  31
0.0
   0
LINE
   5
4BC
 100
AcDbEntity
   8
LEVEL001
 370
13
 100
AcDbLine
   6
CONTINUOUS
  62
5
  10
 1466.0002522962
  20
 3819.1929034018
  30
0.0
  11
 1465.9474568876
  21
 3769.4370455096
  31
0.0
   0
LINE
   5
4BD
 100
AcDbEntity
   8
LEVEL001
 370
13
 100
AcDbLine
   6
CONTINUOUS
  62
5
  10
 1488.6482618751
  20
 3782.0949735991
  30
0.0
  11
 1488.6482618751
  21
 3788.9576137753
  31
0.0
   0
LINE
   5
4BE
 100
AcDbEntity
   8
LEVEL001
 370
13
 100
AcDbLine
   6
CONTINUOUS
  62
5
  10
 1488.6482618751
  20
 3788.9576137753
  30
0.0
  11
 1545.2174740564
  21
 3788.9576137753
  31
0.0
   0
LINE
   5
4BF
 100
AcDbEntity
   8
LEVEL001
 370
13
 100
AcDbLine
   6
CONTINUOUS
  62
5
  10
 1545.2174740564
  20
 3788.9576137753
  30
0.0
  11
 1545.2174740564
  21
 3782.0949735991
  31
0.0
   0
LINE
   5
4C0
 100
AcDbEntity
   8
LEVEL001
 370
13
 100
AcDbLine
   6
CONTINUOUS
  62
5
  10
 1545.2174740564
  20
 3782.0949735991
  30
0.0
  11
 1488.6482618751
  21
 3782.0949735991
  31
0.0
   0
ARC
   5
4C1
 100
AcDbEntity
   8
LEVEL001
 370
13
   6
CONTINUOUS
  62
5
 100
AcDbCircle
  10
 1568.2611613151
  20
 3808.8948061873
  30
0.0
  40
 4.3664469013676
 100
AcDbArc
  50
 266.15058922019
  51
 36.742470507500
   0
LINE
   5
4C2
 100
AcDbEntity
   8
LEVEL001
 370
13
 100
AcDbLine
   6
CONTINUOUS
  62
5
  10
 1488.6482618751
  20
 3768.7262911362
  30
0.0
  11
 1488.6482618751
  21
 3773.4867280060
  31
0.0
   0
LINE
   5
4C3
 100
AcDbEntity
   8
LEVEL001
 370
13
 100
AcDbLine
   6
CONTINUOUS
  62
5
  10
 1488.6482618751
  20
 3773.4867280060
  30
0.0
  11
 1545.2174740564
  21
 3773.4867280060
  31
0.0
   0
LINE
   5
4C4
 100
AcDbEntity
   8
LEVEL001
 370
13
 100
AcDbLine
   6
CONTINUOUS
  62
5
  10
 1545.2174740564
  20
 3773.4867280060
  30
0.0
  11
 1545.2174740564
  21
 3768.5675997347
  31
0.0
   0
LINE
   5
4C5
 100
AcDbEntity
   8
LEVEL001
 370
13
 100
AcDbLine
   6
CONTINUOUS
  62
5
  10
 1545.2174740564
  20
 3768.5675997347
  30
0.0
  11
 1562.1269584158
  21
 3768.5675997347
  31
0.0
   0
LINE
   5
4C6
 100
AcDbEntity
   8
LEVEL001
 370
13
 100
AcDbLine
   6
CONTINUOUS
  62
5
  10
 1562.1269584158
  20
 3768.5675997347
  30
0.0
  11
 1565.8159231496
  21
 3770.6171602206
  31
0.0
   0
LINE
   5
4C7
 100
AcDbEntity
   8
LEVEL001
 370
13
 100
AcDbLine
   6
CONTINUOUS
  62
5
  10
 1565.8159231496
  20
 3770.6171602206
  30
0.0
  11
 1567.9680226948
  21
 3775.0238983703
  31
0.0
   0
LINE
   5
4C8
 100
AcDbEntity
   8
LEVEL001
 370
13
 100
AcDbLine
   6
CONTINUOUS
  62
5
  10
 1567.9680226948
  20
 3775.0238983703
  30
0.0
  11
 1567.9613088278
  21
 3804.5383628227
  31
0.0
   0
LINE
   5
4C9
 100
AcDbEntity
   8
LEVEL001
 370
13
 100
AcDbLine
   6
CONTINUOUS
  62
5
  10
 1472.1806720339
  20
 3763.1360813420
  30
0.0
  11
 1471.6682819124
  21
 3758.0121801274
  31
0.0
   0
LINE
   5
4CA
 100
AcDbEntity
   8
LEVEL001
 370
13
 100
AcDbLine
   6
CONTINUOUS
  62
5
  10
 1471.6682819124
  20
 3758.0121801274
  30
0.0
  11
 1469.7209553103
  21
 3754.4252966894
  31
0.0
   0
LINE
   5
4CB
 100
AcDbEntity
   8
LEVEL001
 370
13
 100
AcDbLine
   6
CONTINUOUS
  62
5
  10
 1469.7209553103
  20
 3754.4252966894
  30
0.0
  11
 1458.6531455815
  21
 3740.6928447060
  31
0.0
   0
ARC
   5
4CC
 100
AcDbEntity
   8
LEVEL001
 370
13
   6
CONTINUOUS
  62
5
 100
AcDbCircle
  10
 1467.1854080963
  20
 3735.0810912379
  30
0.0
  40
 10.212310248246
 100
AcDbArc
  50
 146.66668479904
  51
 331.70163256332
   0
ARC
   5
4CD
 100
AcDbEntity
   8
LEVEL001
 370
13
   6
CONTINUOUS
  62
5
 100
AcDbCircle
  10
 1453.1973239160
  20
 3744.1388781333
  30
0.0
  40
 26.856307183018
 100
AcDbArc
  50
 328.83298190801
  51
 45.020901175893
   0
LINE
   5
4CE
 100
AcDbEntity
   8
LEVEL001
 370
13
 100
AcDbLine
   6
CONTINUOUS
  62
5
  10
 1555.8049371198
  20
 3765.9031100679
  30
0.0
  11
 1569.2296193369
  21
 3743.5624124915
  31
0.0
   0
ARC
   5
4CF
 100
AcDbEntity
   8
LEVEL001
 370
13
   6
CONTINUOUS
  62
5
 100
AcDbCircle
  10
 1561.5362564746
  20
 3733.3867417706
  30
0.0
  40
 8.7884995702356
 100
AcDbArc
  50
 268.04310640188
  51
 95.976315926478
   0
ARC
   5
4D0
 100
AcDbEntity
   8
LEVEL001
 370
13
   6
CONTINUOUS
  62
5
 100
AcDbCircle
  10
 1494.3353155050
  20
 3731.2129588380
  30
0.0
  40
 6.6095999893666
 100
AcDbArc
  50
 179.99949488495
  51
 269.90651577933
   0
LINE
   5
4D1
 100
AcDbEntity
   8
LEVEL001
 370
13
 100
AcDbLine
   6
CONTINUOUS
  62
5
  10
 1494.3245312372
  20
 3724.6033676466
  30
0.0
  11
 1561.2361503368
  21
 3724.6033676466
  31
0.0
   0
LINE
   5
4D2
 100
AcDbEntity
   8
LEVEL001
 370
13
 100
AcDbLine
   6
CONTINUOUS
  62
5
  10
 1560.6212211559
  20
 3742.1274760110
  30
0.0
  11
 1553.2426813368
  21
 3760.5741307346
  31
0.0
   0
LINE
   5
4D3
 100
AcDbEntity
   8
LEVEL001
 370
13
 100
AcDbLine
   6
CONTINUOUS
  62
5
  10
 1553.2426813368
  20
 3760.5741307346
  30
0.0
  11
 1553.0376032179
  21
 3750.3260231300
  31
0.0
   0
LINE
   5
4D4
 100
AcDbEntity
   8
LEVEL001
 370
13
 100
AcDbLine
   6
CONTINUOUS
  62
5
  10
 1553.0376032179
  20
 3750.3260231300
  30
0.0
  11
 1550.3361872828
  21
 3742.1274760110
  31
0.0
   0
LINE
   5
4D5
 100
AcDbEntity
   8
LEVEL001
 370
13
 100
AcDbLine
   6
CONTINUOUS
  62
5
  10
 1550.3361872828
  20
 3742.1274760110
  30
0.0
  11
 1510.4765693301
  21
 3742.1274760110
  31
0.0
   0
LINE
   5
4D6
 100
AcDbEntity
   8
LEVEL001
 370
13
 100
AcDbLine
   6
CONTINUOUS
  62
5
  10
 1510.4765693301
  20
 3742.1274760110
  30
0.0
  11
 1510.4765693301
  21
 3758.0121801274
  31
0.0
   0
LINE
   5
4D7
 100
AcDbEntity
   8
LEVEL001
 370
13
 100
AcDbLine
   6
CONTINUOUS
  62
5
  10
 1510.4765693301
  20
 3758.0121801274
  30
0.0
  11
 1512.5261298159
  21
 3760.9839817966
  31
0.0
   0
LINE
   5
4D8
 100
AcDbEntity
   8
LEVEL001
 370
13
 100
AcDbLine
   6
CONTINUOUS
  62
5
  10
 1512.5261298159
  20
 3760.9839817966
  30
0.0
  11
 1510.6816474489
  21
 3763.1360813420
  31
0.0
   0
LINE
   5
4D9
 100
AcDbEntity
   8
LEVEL001
 370
13
 100
AcDbLine
   6
CONTINUOUS
  62
5
  10
 1510.6816474489
  20
 3763.1360813420
  30
0.0
  11
 1487.7257155159
  21
 3766.2104220705
  31
0.0
   0
LINE
   5
4DA
 100
AcDbEntity
   8
LEVEL001
 370
13
 100
AcDbLine
   6
CONTINUOUS
  62
5
  10
 1487.7257155159
  20
 3766.2104220705
  30
0.0
  11
 1487.7257155159
  21
 3731.2130171078
  31
0.0
   0
LINE
   5
4DB
 100
AcDbEntity
   8
LEVEL001
 370
13
 100
AcDbLine
   6
CONTINUOUS
  62
5
  10
 1530.5818543754
  20
 3746.4316751014
  30
0.0
  11
 1516.4397039180
  21
 3767.7477450227
  31
0.0
   0
ARC
   5
4DC
 100
AcDbEntity
   8
LEVEL001
 370
13
   6
CONTINUOUS
  62
5
 100
AcDbCircle
  10
 1535.4622053322
  20
 3754.1511599800
  30
0.0
  40
 9.1328129430768
 100
AcDbArc
  50
 237.69843463496
  51
 18.768732377513
   0
ARC
   5
4DD
 100
AcDbEntity
   8
LEVEL001
 370
13
   6
CONTINUOUS
  62
5
 100
AcDbCircle
  10
 1517.9269300677
  20
 3729.8479070147
  30
0.0
  40
 37.929006876678
 100
AcDbArc
  50
 46.131549416345
  51
 92.247188603530
   0
ARC
   5
4DE
 100
AcDbEntity
   8
LEVEL001
 370
13
   6
CONTINUOUS
  62
5
 100
AcDbCircle
  10
 1575.0222393742
  20
 3750.3706201493
  30
0.0
  40
 8.9390233475260
 100
AcDbArc
  50
 229.60790187546
  51
 6.7933956222492
   0
ARC
   5
4DF
 100
AcDbEntity
   8
LEVEL001
 370
13
   6
CONTINUOUS
  62
5
 100
AcDbCircle
  10
 1559.7134978683
  20
 3739.3392845600
  30
0.0
  40
 27.037970213950
 100
AcDbArc
  50
 26.557897354800
  51
 98.092162593046
   0
LINE
   5
4E0
 100
AcDbEntity
   8
LEVEL001
 370
13
 100
AcDbLine
   6
CONTINUOUS
  62
5
  10
 1445.1983688630
  20
 4017.0400824212
  30
0.0
  11
 1460.1054770812
  21
 4014.7109334635
  31
0.0
   0
LINE
   5
4E1
 100
AcDbEntity
   8
LEVEL001
 370
13
 100
AcDbLine
   6
CONTINUOUS
  62
5
  10
 1466.2541585386
  20
 3982.7369048754
  30
0.0
  11
 1445.1983688630
  21
 4014.9904996953
  31
0.0
   0
DIMENSION
   5
4E2
 100
AcDbEntity
   8
LEVEL001
 370
13
   6
CONTINUOUS
  62
1
 100
AcDbDimension
   2
*D20
  10
 1445.7707585622
  20
 4843.8796618006
  30
0.0
  11
 1077.0254081278
  21
 4843.8796618006
  31
0.0
  70
128
   1
\A1;800
   3
GMM006
 100
AcDbAlignedDimension
  13
 640.77075856223
  23
 4843.8796618006
  33
0.0
  14
 1445.7707585622
  24
 4843.8796618006
  34
0.0
 100
AcDbRotatedDimension
   0
DIMENSION
   5
4E3
 100
AcDbEntity
   8
LEVEL001
 370
13
   6
CONTINUOUS
  62
1
 100
AcDbDimension
   2
*D21
  10
 843.27075856223
  20
 4391.3796618006
  30
0.0
  11
 843.27075856223
  21
 4661.6289207722
  31
0.0
  70
128
   1
\A1;600
   3
GMM006
 100
AcDbAlignedDimension
  13
 843.27075856223
  23
 4996.3796618006
  33
0.0
  14
 843.27075856223
  24
 4391.3796618006
  34
0.0
  50
 270.00000000000
 100
AcDbRotatedDimension
   0
DIMENSION
   5
4E4
 100
AcDbEntity
   8
LEVEL001
 370
13
   6
CONTINUOUS
  62
1
 100
AcDbDimension
   2
*D22
  10
 2395.7707585622
  20
 4843.8796618006
  30
0.0
  11
 2027.0254081278
  21
 4843.8796618006
  31
0.0
  70
128
   1
\A1;800
   3
GMM006
 100
AcDbAlignedDimension
  13
 1590.7707585622
  23
 4843.8796618006
  33
0.0
  14
 2395.7707585622
  24
 4843.8796618006
  34
0.0
 100
AcDbRotatedDimension
   0
DIMENSION
   5
4E5
 100
AcDbEntity
   8
LEVEL001
 370
13
   6
CONTINUOUS
  62
1
 100
AcDbDimension
   2
*D23
  10
 1793.2707585622
  20
 4391.3796618006
  30
0.0
  11
 1793.2707585622
  21
 4661.6289207722
  31
0.0
  70
128
   1
\A1;600
   3
GMM006
 100
AcDbAlignedDimension
  13
 1793.2707585622
  23
 4996.3796618006
  33
0.0
  14
 1793.2707585622
  24
 4391.3796618006
  34
0.0
  50
 270.00000000000
 100
AcDbRotatedDimension
   0
DIMENSION
   5
4E6
 100
AcDbEntity
   8
0
 370
13
   6
CONTINUOUS
  62
1
 100
AcDbDimension
   2
*D24
  10
 3218.2707585622
  20
 2670.4796618005
  30
0.0
  11
 3018.2707585622
  21
 2670.4796618005
  31
0.0
  70
0
   3
GMM007
 100
AcDbAlignedDimension
  13
 2818.2707585622
  23
 1770.4796617989
  33
0.0
  14
 3218.2707585622
  24
 2270.4796617990
  34
0.0
 100
AcDbRotatedDimension
   0
MTEXT
   5
4E7
 100
AcDbEntity
   8
LEVEL001
 370
13
  62
1
 100
AcDbMText
  10
 7358.2707585622
  20
 2806.5408628081
  30
0.0
  40
 34.285714285714
  41
0.0
  71
1
  72
1
   1
{\T1.000000;ＺＡＭ処理鋼板}\P{\T1.000000;プレス成型}
   7
GMM005
  44
 1.0099997980000
   0
MTEXT
   5
4E8
 100
AcDbEntity
   8
LEVEL001
 370
13
  62
2
 100
AcDbMText
  10
 5488.2707585622
  20
 863.87966180056
  30
0.0
  40
 38.571428571428
  41
0.0
  71
4
  72
1
   1
\T1.370378;図面番号
   7
GMM001
  44
 0.79999984000003
   0
ENDSEC
  0
SECTION
  2
OBJECTS
  0
DICTIONARY
  5
C
100
AcDbDictionary
  3
ACAD_GROUP
350
D
  3
ACAD_MLINESTYLE
350
1B
  3
DWGPROPS
350
1C
  0
DICTIONARY
  5
D
102
{ACAD_REACTORS
330
C
102
}
100
AcDbDictionary
  0
DICTIONARY
  5
1B
102
{ACAD_REACTORS
330
C
102
}
100
AcDbDictionary
  3
STANDARD
350
1D
  0
MLINESTYLE
  5
1D
102
{ACAD_REACTORS
330
1B
102
}
100
AcDbMlineStyle
  2
STANDARD
 70
     0
  3

 62
   256
 51
90.0
 52
90.0
 71
     2
 49
0.5
 62
   256
  6
BYLAYER
 49
-0.5
 62
   256
  6
BYLAYER
   0
XRECORD
   5
1C
 102
{ACAD_REACTORS
 330
C
 102
}
 330
C
 100
AcDbXrecord
 280
1
   1
DWGPROPS COOKIE
   2
 
   3
 
   4
 
   6
 
   7
MZH608WCP
   8
 
   9

 300
 = 
 301
 = 
 302
 = 
 303
 = 
 304
 = 
 305
 = 
 306
 = 
 307
 = 
 308
 = 
 309
 = 
  40
0.0
  41
 2460340.5000000
  42
 2460342.5000000
   1

  90
10
   0
ENDSEC
   0
EOF
