   0
SECTION
   2
HEADER
   9
$ACADVER
   1
AC1015
   9
$DWGCODEPAGE
   3
ANSI_932
   9
$LIMMIN
  10
0.0
  20
0.0
   9
$LIMMAX
  10
 8400.0000000000
  20
 5940.0000000000
   9
$EXTMIN
  10
0.0
  20
0.0
  30
0.0
   9
$EXTMAX
  10
 8400.0000000000
  20
 5940.0000000000
  30
0.0
   9
$LTSCALE
  40
 168.00000000000
   9
$HANDSEED
   5
46B
   0
ENDSEC
   0
SECTION
   2
TABLES
  0
TABLE
  2
VPORT
  5
8
100
AcDbSymbolTable
 70
     1
  0
VPORT
  5
46A
100
AcDbSymbolTableRecord
100
AcDbViewportTableRecord
  2
*ACTIVE
 70
     0
 10
0.0
 20
0.0
 11
1.0
 21
1.0
  12
 4200.0000000000
  22
 2970.0000000000
 13
0.0
 23
0.0
 14
1.0
 24
1.0
 15
0.0
 25
0.0
 16
0.0
 26
0.0
 36
1.0
 17
0.0
 27
0.0
 37
0.0
  40
 8400.0000000000
  41
 1.4787878787879
 42
50.0
 43
0.0
 44
0.0
 50
0.0
 51
0.0
 71
     0
 72
   100
 73
     1
 74
     1
 75
     0
 76
     0
 77
     0
 78
     0
  0
ENDTAB
  0
TABLE
  2
LTYPE
  5
5
100
AcDbSymbolTable
 70
    25
  0
LTYPE
  5
12
100
AcDbSymbolTableRecord
100
AcDbLinetypeTableRecord
  2
BYBLOCK
 70
     0
  3

 72
    65
 73
     0
 40
0.0
  0
LTYPE
  5
13
100
AcDbSymbolTableRecord
100
AcDbLinetypeTableRecord
  2
BYLAYER
 70
     0
  3

 72
    65
 73
     0
 40
0.0
  0
LTYPE
  5
14
100
AcDbSymbolTableRecord
100
AcDbLinetypeTableRecord
  2
CONTINUOUS
 70
     0
  3
Solid line
 72
    65
 73
     0
 40
0.0
  0
LTYPE
  5
20
100
AcDbSymbolTableRecord
100
AcDbLinetypeTableRecord
  2
BORDER
 70
     0
  3
__ __ . __ __ . __ __ . __ __ . __ __ . __ __ .
 72
    65
 73
     6
 40
1.75
 49
0.5
 74
     0
 49
-0.25
 74
     0
 49
0.5
 74
     0
 49
-0.25
 74
     0
 49
0.0
 74
     0
 49
-0.25
 74
     0
  0
LTYPE
  5
21
100
AcDbSymbolTableRecord
100
AcDbLinetypeTableRecord
  2
BORDER2
 70
     0
  3
__.__.__.__.__.__.__.__.__.__.__.__.__.__.__.__
 72
    65
 73
     6
 40
0.875
 49
0.25
 74
     0
 49
-0.125
 74
     0
 49
0.25
 74
     0
 49
-0.125
 74
     0
 49
0.0
 74
     0
 49
-0.125
 74
     0
  0
LTYPE
  5
22
100
AcDbSymbolTableRecord
100
AcDbLinetypeTableRecord
  2
BORDERX2
 70
     0
  3
____  ____  .  ____  ____  .  ____  ____  .  __
 72
    65
 73
     6
 40
3.5
 49
1.0
 74
     0
 49
-0.5
 74
     0
 49
1.0
 74
     0
 49
-0.5
 74
     0
 49
0.0
 74
     0
 49
-0.5
 74
     0
  0
LTYPE
  5
23
100
AcDbSymbolTableRecord
100
AcDbLinetypeTableRecord
  2
CENTER
 70
     0
  3
____ _ ____ _ ____ _ ____ _ ____ _ ____ _ ____ 
 72
    65
 73
     4
 40
2.0
 49
1.25
 74
     0
 49
-0.25
 74
     0
 49
0.25
 74
     0
 49
-0.25
 74
     0
  0
LTYPE
  5
24
100
AcDbSymbolTableRecord
100
AcDbLinetypeTableRecord
  2
CENTER2
 70
     0
  3
___ _ ___ _ ___ _ ___ _ ___ _ ___ _ ___ _ ___ _
 72
    65
 73
     4
 40
1.125
 49
0.75
 74
     0
 49
-0.125
 74
     0
 49
0.125
 74
     0
 49
-0.125
 74
     0
  0
LTYPE
  5
25
100
AcDbSymbolTableRecord
100
AcDbLinetypeTableRecord
  2
CENTERX2
 70
     0
  3
________  __  ________  __  ________  __  _____
 72
    65
 73
     4
 40
4.0
 49
2.5
 74
     0
 49
-0.5
 74
     0
 49
0.5
 74
     0
 49
-0.5
 74
     0
  0
LTYPE
  5
26
100
AcDbSymbolTableRecord
100
AcDbLinetypeTableRecord
  2
DASHDOT
 70
     0
  3
__ . __ . __ . __ . __ . __ . __ . __ . __ . __
 72
    65
 73
     4
 40
1.0
 49
0.5
 74
     0
 49
-0.25
 74
     0
 49
0.0
 74
     0
 49
-0.25
 74
     0
  0
LTYPE
  5
27
100
AcDbSymbolTableRecord
100
AcDbLinetypeTableRecord
  2
DASHDOT2
 70
     0
  3
_._._._._._._._._._._._._._._._._._._._._._._._
 72
    65
 73
     4
 40
0.5
 49
0.25
 74
     0
 49
-0.125
 74
     0
 49
0.0
 74
     0
 49
-0.125
 74
     0
  0
LTYPE
  5
28
100
AcDbSymbolTableRecord
100
AcDbLinetypeTableRecord
  2
DASHDOTX2
 70
     0
  3
____  .  ____  .  ____  .  ____  .  ____  .  __
 72
    65
 73
     4
 40
2.0
 49
1.0
 74
     0
 49
-0.5
 74
     0
 49
0.0
 74
     0
 49
-0.5
 74
     0
  0
LTYPE
  5
29
100
AcDbSymbolTableRecord
100
AcDbLinetypeTableRecord
  2
DASHED
 70
     0
  3
__ __ __ __ __ __ __ __ __ __ __ __ __ __ __ __
 72
    65
 73
     2
 40
0.75
 49
0.5
 74
     0
 49
-0.25
 74
     0
  0
LTYPE
  5
2A
100
AcDbSymbolTableRecord
100
AcDbLinetypeTableRecord
  2
DASHED2
 70
     0
  3
_ _ _ _ _ _ _ _ _ _ _ _ _ _ _ _ _ _ _ _ _ _ _ _
 72
    65
 73
     2
 40
0.375
 49
0.25
 74
     0
 49
-0.125
 74
     0
  0
LTYPE
  5
2B
100
AcDbSymbolTableRecord
100
AcDbLinetypeTableRecord
  2
DASHEDX2
 70
     0
  3
____  ____  ____  ____  ____  ____  ____  ____ 
 72
    65
 73
     2
 40
1.5
 49
1.0
 74
     0
 49
-0.5
 74
     0
  0
LTYPE
  5
2C
100
AcDbSymbolTableRecord
100
AcDbLinetypeTableRecord
  2
DIVIDE
 70
     0
  3
____ . . ____ . . ____ . . ____ . . ____ . . __
 72
    65
 73
     6
 40
1.25
 49
0.5
 74
     0
 49
-0.25
 74
     0
 49
0.0
 74
     0
 49
-0.25
 74
     0
 49
0.0
 74
     0
 49
-0.25
 74
     0
  0
LTYPE
  5
2D
100
AcDbSymbolTableRecord
100
AcDbLinetypeTableRecord
  2
DIVIDE2
 70
     0
  3
__..__..__..__..__..__..__..__..__..__..__..__.
 72
    65
 73
     6
 40
0.625
 49
0.25
 74
     0
 49
-0.125
 74
     0
 49
0.0
 74
     0
 49
-0.125
 74
     0
 49
0.0
 74
     0
 49
-0.125
 74
     0
  0
LTYPE
  5
2E
100
AcDbSymbolTableRecord
100
AcDbLinetypeTableRecord
  2
DIVIDEX2
 70
     0
  3
________  .  .  ________  .  .  ________  .  . 
 72
    65
 73
     6
 40
2.5
 49
1.0
 74
     0
 49
-0.5
 74
     0
 49
0.0
 74
     0
 49
-0.5
 74
     0
 49
0.0
 74
     0
 49
-0.5
 74
     0
  0
LTYPE
  5
2F
100
AcDbSymbolTableRecord
100
AcDbLinetypeTableRecord
  2
DOT
 70
     0
  3
. . . . . . . . . . . . . . . . . . . . . . . .
 72
    65
 73
     2
 40
0.25
 49
0.0
 74
     0
 49
-0.25
 74
     0
  0
LTYPE
  5
30
100
AcDbSymbolTableRecord
100
AcDbLinetypeTableRecord
  2
DOT2
 70
     0
  3
...............................................
 72
    65
 73
     2
 40
0.125
 49
0.0
 74
     0
 49
-0.125
 74
     0
  0
LTYPE
  5
31
100
AcDbSymbolTableRecord
100
AcDbLinetypeTableRecord
  2
DOTX2
 70
     0
  3
.  .  .  .  .  .  .  .  .  .  .  .  .  .  .  . 
 72
    65
 73
     2
 40
0.5
 49
0.0
 74
     0
 49
-0.5
 74
     0
  0
LTYPE
  5
32
100
AcDbSymbolTableRecord
100
AcDbLinetypeTableRecord
  2
HIDDEN
 70
     0
  3
__ __ __ __ __ __ __ __ __ __ __ __ __ __ __ __
 72
    65
 73
     2
 40
0.375
 49
0.25
 74
     0
 49
-0.125
 74
     0
  0
LTYPE
  5
33
100
AcDbSymbolTableRecord
100
AcDbLinetypeTableRecord
  2
HIDDEN2
 70
     0
  3
_ _ _ _ _ _ _ _ _ _ _ _ _ _ _ _ _ _ _ _ _ _ _ _
 72
    65
 73
     2
 40
0.1875
 49
0.125
 74
     0
 49
-0.0625
 74
     0
  0
LTYPE
  5
34
100
AcDbSymbolTableRecord
100
AcDbLinetypeTableRecord
  2
HIDDENX2
 70
     0
  3
____ ____ ____ ____ ____ ____ ____ ____ ____ __
 72
    65
 73
     2
 40
0.75
 49
0.5
 74
     0
 49
-0.25
 74
     0
  0
LTYPE
  5
35
100
AcDbSymbolTableRecord
100
AcDbLinetypeTableRecord
  2
PHANTOM
 70
     0
  3
______  __  __  ______  __  __  ______  __  __ 
 72
    65
 73
     6
 40
2.5
 49
1.25
 74
     0
 49
-0.25
 74
     0
 49
0.25
 74
     0
 49
-0.25
 74
     0
 49
0.25
 74
     0
 49
-0.25
 74
     0
  0
LTYPE
  5
36
100
AcDbSymbolTableRecord
100
AcDbLinetypeTableRecord
  2
PHANTOM2
 70
     0
  3
___ _ _ ___ _ _ ___ _ _ ___ _ _ ___ _ _ ___ _ _
 72
    65
 73
     6
 40
1.25
 49
0.625
 74
     0
 49
-0.125
 74
     0
 49
0.125
 74
     0
 49
-0.125
 74
     0
 49
0.125
 74
     0
 49
-0.125
 74
     0
  0
LTYPE
  5
37
100
AcDbSymbolTableRecord
100
AcDbLinetypeTableRecord
  2
PHANTOMX2
 70
     0
  3
____________    ____    ____    ____________   
 72
    65
 73
     6
 40
5.0
 49
2.5
 74
     0
 49
-0.5
 74
     0
 49
0.5
 74
     0
 49
-0.5
 74
     0
 49
0.5
 74
     0
 49
-0.5
 74
     0
  0
ENDTAB
   0
TABLE
   2
LAYER
   5
2
 100
AcDbSymbolTable
  70
2
   0
LAYER
   5
E
 100
AcDbSymbolTableRecord
 100
AcDbLayerTableRecord
   2
0
  70
0
  62
7
   6
CONTINUOUS
 390
30
   0
LAYER
   5
39
 100
AcDbSymbolTableRecord
 100
AcDbLayerTableRecord
   2
LEVEL001
  70
0
  62
7
   6
CONTINUOUS
 390
30
   0
ENDTAB
  0
TABLE
  2
STYLE
  5
3
100
AcDbSymbolTable
  70
7
  0
STYLE
  5
F
100
AcDbSymbolTableRecord
100
AcDbTextStyleTableRecord
  2
STANDARD
 70
     0
 40
0.0
 41
1.0
 50
0.0
 71
     0
 42
0.2
  3
TXT
  4
BIGFONT
  0
STYLE
  5
38
100
AcDbSymbolTableRecord
100
AcDbTextStyleTableRecord
  2
STANDARD1
 70
     4
 40
0.0
 41
1.0
 50
0.0
 71
     0
 42
0.2
  3
TXT
  4
BIGFONT
   0
STYLE
   5
3A
 100
AcDbSymbolTableRecord
 100
AcDbTextStyleTableRecord
   2
GMM001
  70
0
  40
0.0
  41
 1.0000000000000
  50
0.0
  71
     0
  42
1.0
   3

   4

1001
ACAD
1000
ＭＳ ゴシック
1071
32817
   0
STYLE
   5
3B
 100
AcDbSymbolTableRecord
 100
AcDbTextStyleTableRecord
   2
GMM002
  70
0
  40
0.0
  41
 1.0000000000000
  50
0.0
  71
     0
  42
1.0
   3
txt.shx
   4
bigfont.shx
   0
STYLE
   5
3C
 100
AcDbSymbolTableRecord
 100
AcDbTextStyleTableRecord
   2
GMM003
  70
0
  40
0.0
  41
 0.75000000000000
  50
0.0
  71
     0
  42
1.0
   3
txt.shx
   4
bigfont.shx
   0
STYLE
   5
3D
 100
AcDbSymbolTableRecord
 100
AcDbTextStyleTableRecord
   2
GMM004
  70
0
  40
0.0
  41
 0.66666666666667
  50
0.0
  71
     0
  42
1.0
   3

   4

1001
ACAD
1000
ＭＳ ゴシック
1071
32817
   0
STYLE
   5
3E
 100
AcDbSymbolTableRecord
 100
AcDbTextStyleTableRecord
   2
GMM005
  70
0
  40
0.0
  41
 1.5000000000000
  50
0.0
  71
     0
  42
1.0
   3

   4

1001
ACAD
1000
ＭＳ ゴシック
1071
32817
   0
ENDTAB
  0
TABLE
  2
VIEW
  5
6
100
AcDbSymbolTable
 70
     0
  0
ENDTAB
  0
TABLE
  2
UCS
  5
7
100
AcDbSymbolTable
 70
     0
  0
ENDTAB
  0
TABLE
  2
APPID
  5
9
100
AcDbSymbolTable
 70
     1
  0
APPID
  5
10
100
AcDbSymbolTableRecord
100
AcDbRegAppTableRecord
  2
ACAD
 70
     0
  0
ENDTAB
   0
TABLE
   2
DIMSTYLE
   5
A
 100
AcDbSymbolTable
  70
8
 100
AcDbDimStyleTable
  0
DIMSTYLE
105
1D
100
AcDbSymbolTableRecord
100
AcDbDimStyleTableRecord
  2
STANDARD
 70
     0
  3

  4

  5

  6

  7

 40
1.0
 41
0.18
 42
0.0625
 43
0.38
 44
0.18
 45
0.0
 46
0.0
 47
0.0
 48
0.0
140
0.18
141
0.09
142
0.0
143
25.4
144
1.0
145
0.0
146
1.0
147
0.09
 71
     0
 72
     0
 73
     1
 74
     1
 75
     0
 76
     0
 77
     0
 78
     0
170
     0
171
     2
172
     0
173
     0
174
     0
175
     0
176
     0
177
     0
178
     0
270
     2
271
     4
272
     4
273
     2
274
     2
340
F
275
     0
280
     0
281
     0
282
     0
283
     1
284
     0
285
     0
286
     0
287
     3
288
     0
   0
DIMSTYLE
 105
3F
 100
AcDbSymbolTableRecord
 100
AcDbDimStyleTableRecord
   2
GMM001
  70
0
   3

   4

   5

   6
_OPEN
   7
_OPEN
  40
 1.0000000000000
  41
 42.000000000000
  42
 30.000000000000
  43
 160.00000000000
  44
 30.000000000000
  45
0.0
  46
0.0
  47
0.0
  48
0.0
 140
 60.000000000000
 141
 20.000000000000
 142
0.0
 143
 0.39400000000000E-1
 144
 1.0000000000000
 145
0.0
 146
 0.83333333333333
 147
0.0
  71
0
  72
0
  73
0
  74
0
  75
0
  76
0
  77
0
  78
8
 170
0
 171
2
 172
1
 173
1
 174
0
 175
0
 176
1
 177
1
 178
7
 270
2
 271
1
 272
0
 273
2
 274
2
 340
3B
 275
0
 280
0
 281
0
 282
0
 283
1
 284
0
 285
0
 286
0
 287
3
 288
1
   0
DIMSTYLE
 105
40
 100
AcDbSymbolTableRecord
 100
AcDbDimStyleTableRecord
   2
GMM002
  70
0
   3

   4

   5

   6
_OPEN
   7
_OPEN
  40
 1.0000000000000
  41
 30.000000000000
  42
 30.000000000000
  43
 160.00000000000
  44
 30.000000000000
  45
0.0
  46
0.0
  47
0.0
  48
0.0
 140
 66.000000000000
 141
 20.000000000000
 142
0.0
 143
 0.39400000000000E-1
 144
 1.0000000000000
 145
0.0
 146
 0.75757575757576
 147
0.0
  71
0
  72
0
  73
0
  74
0
  75
0
  76
0
  77
0
  78
8
 170
0
 171
2
 172
1
 173
1
 174
0
 175
0
 176
1
 177
1
 178
7
 270
2
 271
1
 272
0
 273
2
 274
2
 340
3B
 275
0
 280
0
 281
0
 282
0
 283
1
 284
0
 285
0
 286
0
 287
3
 288
1
   0
DIMSTYLE
 105
41
 100
AcDbSymbolTableRecord
 100
AcDbDimStyleTableRecord
   2
GMM003
  70
0
   3
□<>
   4

   5

   6
_OPEN
   7
_OPEN
  40
 1.0000000000000
  41
 42.000000000000
  42
 30.000000000000
  43
 160.00000000000
  44
 30.000000000000
  45
0.0
  46
0.0
  47
0.0
  48
0.0
 140
 60.000000000000
 141
 20.000000000000
 142
0.0
 143
 0.39400000000000E-1
 144
 1.0000000000000
 145
0.0
 146
 0.83333333333333
 147
 14.000000000000
  71
0
  72
0
  73
0
  74
0
  75
0
  76
0
  77
3
  78
8
 170
0
 171
2
 172
1
 173
1
 174
0
 175
0
 176
6
 177
6
 178
1
 270
2
 271
1
 272
0
 273
2
 274
2
 340
3B
 275
0
 280
0
 281
0
 282
0
 283
1
 284
0
 285
0
 286
0
 287
3
 288
1
   0
DIMSTYLE
 105
42
 100
AcDbSymbolTableRecord
 100
AcDbDimStyleTableRecord
   2
GMM004
  70
0
   3

   4

   5

   6
_OPEN
   7
_OPEN
  40
 1.0000000000000
  41
 42.000000000000
  42
 30.000000000000
  43
 160.00000000000
  44
 30.000000000000
  45
0.0
  46
0.0
  47
0.0
  48
0.0
 140
 60.000000000000
 141
 20.000000000000
 142
0.0
 143
 0.39400000000000E-1
 144
 1.0000000000000
 145
0.0
 146
 0.83333333333333
 147
 25.714285714286
  71
0
  72
0
  73
0
  74
0
  75
0
  76
0
  77
3
  78
8
 170
0
 171
2
 172
1
 173
1
 174
0
 175
0
 176
6
 177
6
 178
1
 270
2
 271
6
 272
0
 273
2
 274
2
 340
3B
 275
1
 280
0
 281
0
 282
0
 283
1
 284
0
 285
0
 286
0
 287
3
 288
0
   0
DIMSTYLE
 105
43
 100
AcDbSymbolTableRecord
 100
AcDbDimStyleTableRecord
   2
GMM005
  70
0
   3

   4

   5

   6
_OPEN
   7
_OPEN
  40
 1.0000000000000
  41
 42.000000000000
  42
 30.000000000000
  43
 160.00000000000
  44
 30.000000000000
  45
0.0
  46
0.0
  47
0.0
  48
0.0
 140
 60.000000000000
 141
 20.000000000000
 142
0.0
 143
 0.39400000000000E-1
 144
 1.0000000000000
 145
0.0
 146
 0.83333333333333
 147
 25.714285714286
  71
0
  72
0
  73
0
  74
0
  75
0
  76
0
  77
3
  78
8
 170
0
 171
2
 172
1
 173
1
 174
0
 175
0
 176
6
 177
6
 178
1
 270
2
 271
6
 272
0
 273
2
 274
2
 340
3B
 275
1
 280
0
 281
0
 282
0
 283
1
 284
0
 285
0
 286
0
 287
3
 288
0
   0
DIMSTYLE
 105
44
 100
AcDbSymbolTableRecord
 100
AcDbDimStyleTableRecord
   2
GMM006
  70
0
   3
%%c<>
   4

   5

   6
_OPEN
   7
_OPEN
  40
 1.0000000000000
  41
 42.000000000000
  42
 30.000000000000
  43
 160.00000000000
  44
 30.000000000000
  45
0.0
  46
0.0
  47
0.0
  48
0.0
 140
 60.000000000000
 141
 20.000000000000
 142
0.0
 143
 0.39400000000000E-1
 144
 1.0000000000000
 145
0.0
 146
 0.83333333333333
 147
 14.000000000000
  71
0
  72
0
  73
0
  74
0
  75
0
  76
0
  77
3
  78
8
 170
0
 171
2
 172
1
 173
1
 174
0
 175
0
 176
6
 177
6
 178
1
 270
2
 271
1
 272
0
 273
2
 274
2
 340
3B
 275
0
 280
0
 281
0
 282
0
 283
1
 284
0
 285
0
 286
0
 287
0
 288
1
   0
ENDTAB
  0
TABLE
  2
BLOCK_RECORD
  5
1
100
AcDbSymbolTable
 70
     0
  0
BLOCK_RECORD
  5
18
100
AcDbSymbolTableRecord
100
AcDbBlockTableRecord
  2
*MODEL_SPACE
  0
BLOCK_RECORD
  5
15
100
AcDbSymbolTableRecord
100
AcDbBlockTableRecord
  2
*PAPER_SPACE
   0
BLOCK_RECORD
   5
45
 100
AcDbSymbolTableRecord
 100
AcDbBlockTableRecord
   2
*D15
   0
BLOCK_RECORD
   5
46
 100
AcDbSymbolTableRecord
 100
AcDbBlockTableRecord
   2
*D16
   0
BLOCK_RECORD
   5
47
 100
AcDbSymbolTableRecord
 100
AcDbBlockTableRecord
   2
*D17
   0
BLOCK_RECORD
   5
48
 100
AcDbSymbolTableRecord
 100
AcDbBlockTableRecord
   2
*D18
   0
BLOCK_RECORD
   5
49
 100
AcDbSymbolTableRecord
 100
AcDbBlockTableRecord
   2
*D19
   0
BLOCK_RECORD
   5
4A
 100
AcDbSymbolTableRecord
 100
AcDbBlockTableRecord
   2
*D20
   0
BLOCK_RECORD
   5
4B
 100
AcDbSymbolTableRecord
 100
AcDbBlockTableRecord
   2
*D21
   0
BLOCK_RECORD
   5
4C
 100
AcDbSymbolTableRecord
 100
AcDbBlockTableRecord
   2
_ARCHTICK
   0
BLOCK_RECORD
   5
4D
 100
AcDbSymbolTableRecord
 100
AcDbBlockTableRecord
   2
_BOXBLANK
   0
BLOCK_RECORD
   5
4E
 100
AcDbSymbolTableRecord
 100
AcDbBlockTableRecord
   2
_BOXFILLED
   0
BLOCK_RECORD
   5
4F
 100
AcDbSymbolTableRecord
 100
AcDbBlockTableRecord
   2
_CLOSED
   0
BLOCK_RECORD
   5
50
 100
AcDbSymbolTableRecord
 100
AcDbBlockTableRecord
   2
_CLOSEDBLANK
   0
BLOCK_RECORD
   5
51
 100
AcDbSymbolTableRecord
 100
AcDbBlockTableRecord
   2
_DATUMBLANK
   0
BLOCK_RECORD
   5
52
 100
AcDbSymbolTableRecord
 100
AcDbBlockTableRecord
   2
_DATUMFILLED
   0
BLOCK_RECORD
   5
53
 100
AcDbSymbolTableRecord
 100
AcDbBlockTableRecord
   2
_DOT
   0
BLOCK_RECORD
   5
54
 100
AcDbSymbolTableRecord
 100
AcDbBlockTableRecord
   2
_DOTBLANK
   0
BLOCK_RECORD
   5
55
 100
AcDbSymbolTableRecord
 100
AcDbBlockTableRecord
   2
_DOTSMALL
   0
BLOCK_RECORD
   5
56
 100
AcDbSymbolTableRecord
 100
AcDbBlockTableRecord
   2
_INTEGRAL
   0
BLOCK_RECORD
   5
57
 100
AcDbSymbolTableRecord
 100
AcDbBlockTableRecord
   2
_NONE
   0
BLOCK_RECORD
   5
58
 100
AcDbSymbolTableRecord
 100
AcDbBlockTableRecord
   2
_OBLIQUE
   0
BLOCK_RECORD
   5
59
 100
AcDbSymbolTableRecord
 100
AcDbBlockTableRecord
   2
_OPEN
   0
BLOCK_RECORD
   5
5A
 100
AcDbSymbolTableRecord
 100
AcDbBlockTableRecord
   2
_OPEN30
   0
BLOCK_RECORD
   5
5B
 100
AcDbSymbolTableRecord
 100
AcDbBlockTableRecord
   2
_OPEN90
   0
BLOCK_RECORD
   5
5C
 100
AcDbSymbolTableRecord
 100
AcDbBlockTableRecord
   2
_ORIGIN
   0
ENDTAB
   0
ENDSEC
  0
SECTION
  2
BLOCKS
  0
BLOCK
  5
19
100
AcDbEntity
  8
0
100
AcDbBlockBegin
  2
*MODEL_SPACE
 70
     0
 10
0.0
 20
0.0
 30
0.0
  3
*MODEL_SPACE
  1

  0
ENDBLK
  5
1A
100
AcDbEntity
  8
0
100
AcDbBlockEnd
  0
BLOCK
  5
16
100
AcDbEntity
 67
     1
  8
0
100
AcDbBlockBegin
  2
*PAPER_SPACE
 70
     0
 10
0.0
 20
0.0
 30
0.0
  3
*PAPER_SPACE
  1

  0
ENDBLK
  5
17
100
AcDbEntity
 67
     1
  8
0
100
AcDbBlockEnd
   0
BLOCK
   5
5D
 100
AcDbEntity
   8
0
 100
AcDbBlockBegin
   2
_ARCHTICK
  70
0
  10
0.0
  20
0.0
  30
0.0
   3
_ARCHTICK
   0
POLYLINE
   5
5E
 100
AcDbEntity
   8
0
 370
-2
   6
BYBLOCK
  62
0
 100
AcDb2dPolyline
  66
1
  10
0.0
  20
0.0
  30
0.0
  70
1
  40
 0.15000000000000
  41
 0.15000000000000
   0
VERTEX
   5
5F
 100
AcDbEntity
   8
0
   6
BYBLOCK
  62
0
 100
AcDbVertex
 100
AcDb2dVertex
  10
-0.50000000000000
  20
-0.50000000000000
  30
0.0
  40
 0.15000000000000
  41
 0.15000000000000
   0
VERTEX
   5
60
 100
AcDbEntity
   8
0
   6
BYBLOCK
  62
0
 100
AcDbVertex
 100
AcDb2dVertex
  10
 0.50000000000000
  20
 0.50000000000000
  30
0.0
  40
 0.15000000000000
  41
 0.15000000000000
   0
SEQEND
   5
61
 100
AcDbEntity
   8
0
   6
BYBLOCK
  62
0
   0
ENDBLK
   5
62
 100
AcDbEntity
   8
0
 100
AcDbBlockEnd
   0
BLOCK
   5
63
 100
AcDbEntity
   8
0
 100
AcDbBlockBegin
   2
_OBLIQUE
  70
0
  10
0.0
  20
0.0
  30
0.0
   3
_OBLIQUE
   0
LINE
   5
64
 100
AcDbEntity
   8
0
 370
-2
 100
AcDbLine
   6
BYBLOCK
  62
0
  10
-0.50000000000000
  20
-0.50000000000000
  30
0.0
  11
 0.50000000000000
  21
 0.50000000000000
  31
0.0
   0
ENDBLK
   5
65
 100
AcDbEntity
   8
0
 100
AcDbBlockEnd
   0
BLOCK
   5
66
 100
AcDbEntity
   8
0
 100
AcDbBlockBegin
   2
_BOXBLANK
  70
0
  10
0.0
  20
0.0
  30
0.0
   3
_BOXBLANK
   0
LINE
   5
67
 100
AcDbEntity
   8
0
 370
-2
 100
AcDbLine
   6
BYBLOCK
  62
0
  10
-0.50000000000000
  20
-0.50000000000000
  30
0.0
  11
 0.50000000000000
  21
-0.50000000000000
  31
0.0
   0
LINE
   5
68
 100
AcDbEntity
   8
0
 370
-2
 100
AcDbLine
   6
BYBLOCK
  62
0
  10
 0.50000000000000
  20
-0.50000000000000
  30
0.0
  11
 0.50000000000000
  21
 0.50000000000000
  31
0.0
   0
LINE
   5
69
 100
AcDbEntity
   8
0
 370
-2
 100
AcDbLine
   6
BYBLOCK
  62
0
  10
 0.50000000000000
  20
 0.50000000000000
  30
0.0
  11
-0.50000000000000
  21
 0.50000000000000
  31
0.0
   0
LINE
   5
6A
 100
AcDbEntity
   8
0
 370
-2
 100
AcDbLine
   6
BYBLOCK
  62
0
  10
-0.50000000000000
  20
 0.50000000000000
  30
0.0
  11
-0.50000000000000
  21
-0.50000000000000
  31
0.0
   0
LINE
   5
6B
 100
AcDbEntity
   8
0
 370
-2
 100
AcDbLine
   6
BYBLOCK
  62
0
  10
-0.50000000000000
  20
0.0
  30
0.0
  11
-1.0000000000000
  21
0.0
  31
0.0
   0
ENDBLK
   5
6C
 100
AcDbEntity
   8
0
 100
AcDbBlockEnd
   0
BLOCK
   5
6D
 100
AcDbEntity
   8
0
 100
AcDbBlockBegin
   2
_BOXFILLED
  70
0
  10
0.0
  20
0.0
  30
0.0
   3
_BOXFILLED
   0
SOLID
   5
6E
 100
AcDbEntity
   8
0
 100
AcDbTrace
   6
BYBLOCK
  62
0
  10
-0.50000000000000
  20
 0.50000000000000
  30
0.0
  11
 0.50000000000000
  21
 0.50000000000000
  31
0.0
  12
-0.50000000000000
  22
-0.50000000000000
  32
0.0
  13
 0.50000000000000
  23
-0.50000000000000
  33
0.0
   0
LINE
   5
6F
 100
AcDbEntity
   8
0
 370
-2
 100
AcDbLine
   6
BYBLOCK
  62
0
  10
-0.50000000000000
  20
0.0
  30
0.0
  11
-1.0000000000000
  21
0.0
  31
0.0
   0
ENDBLK
   5
70
 100
AcDbEntity
   8
0
 100
AcDbBlockEnd
   0
BLOCK
   5
71
 100
AcDbEntity
   8
0
 100
AcDbBlockBegin
   2
_CLOSED
  70
0
  10
0.0
  20
0.0
  30
0.0
   3
_CLOSED
   0
LINE
   5
72
 100
AcDbEntity
   8
0
 370
-2
 100
AcDbLine
   6
BYBLOCK
  62
0
  10
-1.0000000000000
  20
 0.16666666666667
  30
0.0
  11
0.0
  21
0.0
  31
0.0
   0
LINE
   5
73
 100
AcDbEntity
   8
0
 370
-2
 100
AcDbLine
   6
BYBLOCK
  62
0
  10
0.0
  20
0.0
  30
0.0
  11
-1.0000000000000
  21
-0.16666666666667
  31
0.0
   0
LINE
   5
74
 100
AcDbEntity
   8
0
 370
-2
 100
AcDbLine
   6
BYBLOCK
  62
0
  10
-1.0000000000000
  20
 0.16666666666667
  30
0.0
  11
-1.0000000000000
  21
-0.16666666666667
  31
0.0
   0
LINE
   5
75
 100
AcDbEntity
   8
0
 370
-2
 100
AcDbLine
   6
BYBLOCK
  62
0
  10
0.0
  20
0.0
  30
0.0
  11
-1.0000000000000
  21
0.0
  31
0.0
   0
ENDBLK
   5
76
 100
AcDbEntity
   8
0
 100
AcDbBlockEnd
   0
BLOCK
   5
77
 100
AcDbEntity
   8
0
 100
AcDbBlockBegin
   2
_OPEN
  70
0
  10
0.0
  20
0.0
  30
0.0
   3
_OPEN
   0
LINE
   5
78
 100
AcDbEntity
   8
0
 370
-2
 100
AcDbLine
   6
BYBLOCK
  62
0
  10
-1.0000000000000
  20
 0.16666666666667
  30
0.0
  11
0.0
  21
0.0
  31
0.0
   0
LINE
   5
79
 100
AcDbEntity
   8
0
 370
-2
 100
AcDbLine
   6
BYBLOCK
  62
0
  10
0.0
  20
0.0
  30
0.0
  11
-1.0000000000000
  21
-0.16666666666667
  31
0.0
   0
LINE
   5
7A
 100
AcDbEntity
   8
0
 370
-2
 100
AcDbLine
   6
BYBLOCK
  62
0
  10
0.0
  20
0.0
  30
0.0
  11
-1.0000000000000
  21
0.0
  31
0.0
   0
ENDBLK
   5
7B
 100
AcDbEntity
   8
0
 100
AcDbBlockEnd
   0
BLOCK
   5
7C
 100
AcDbEntity
   8
0
 100
AcDbBlockBegin
   2
_OPEN30
  70
0
  10
0.0
  20
0.0
  30
0.0
   3
_OPEN30
   0
LINE
   5
7D
 100
AcDbEntity
   8
0
 370
-2
 100
AcDbLine
   6
BYBLOCK
  62
0
  10
-1.0000000000000
  20
 0.26794919243110
  30
0.0
  11
0.0
  21
0.0
  31
0.0
   0
LINE
   5
7E
 100
AcDbEntity
   8
0
 370
-2
 100
AcDbLine
   6
BYBLOCK
  62
0
  10
0.0
  20
0.0
  30
0.0
  11
-1.0000000000000
  21
-0.26794919243110
  31
0.0
   0
LINE
   5
7F
 100
AcDbEntity
   8
0
 370
-2
 100
AcDbLine
   6
BYBLOCK
  62
0
  10
0.0
  20
0.0
  30
0.0
  11
-1.0000000000000
  21
0.0
  31
0.0
   0
ENDBLK
   5
80
 100
AcDbEntity
   8
0
 100
AcDbBlockEnd
   0
BLOCK
   5
81
 100
AcDbEntity
   8
0
 100
AcDbBlockBegin
   2
_OPEN90
  70
0
  10
0.0
  20
0.0
  30
0.0
   3
_OPEN90
   0
LINE
   5
82
 100
AcDbEntity
   8
0
 370
-2
 100
AcDbLine
   6
BYBLOCK
  62
0
  10
-0.50000000000000
  20
 0.50000000000000
  30
0.0
  11
0.0
  21
0.0
  31
0.0
   0
LINE
   5
83
 100
AcDbEntity
   8
0
 370
-2
 100
AcDbLine
   6
BYBLOCK
  62
0
  10
0.0
  20
0.0
  30
0.0
  11
-0.50000000000000
  21
-0.50000000000000
  31
0.0
   0
LINE
   5
84
 100
AcDbEntity
   8
0
 370
-2
 100
AcDbLine
   6
BYBLOCK
  62
0
  10
0.0
  20
0.0
  30
0.0
  11
-1.0000000000000
  21
0.0
  31
0.0
   0
ENDBLK
   5
85
 100
AcDbEntity
   8
0
 100
AcDbBlockEnd
   0
BLOCK
   5
86
 100
AcDbEntity
   8
0
 100
AcDbBlockBegin
   2
_CLOSEDBLANK
  70
0
  10
0.0
  20
0.0
  30
0.0
   3
_CLOSEDBLANK
   0
LINE
   5
87
 100
AcDbEntity
   8
0
 370
-2
 100
AcDbLine
   6
BYBLOCK
  62
0
  10
-1.0000000000000
  20
 0.16666666666667
  30
0.0
  11
0.0
  21
0.0
  31
0.0
   0
LINE
   5
88
 100
AcDbEntity
   8
0
 370
-2
 100
AcDbLine
   6
BYBLOCK
  62
0
  10
0.0
  20
0.0
  30
0.0
  11
-1.0000000000000
  21
-0.16666666666667
  31
0.0
   0
LINE
   5
89
 100
AcDbEntity
   8
0
 370
-2
 100
AcDbLine
   6
BYBLOCK
  62
0
  10
-1.0000000000000
  20
 0.16666666666667
  30
0.0
  11
-1.0000000000000
  21
-0.16666666666667
  31
0.0
   0
ENDBLK
   5
8A
 100
AcDbEntity
   8
0
 100
AcDbBlockEnd
   0
BLOCK
   5
8B
 100
AcDbEntity
   8
0
 100
AcDbBlockBegin
   2
_DOT
  70
0
  10
0.0
  20
0.0
  30
0.0
   3
_DOT
   0
POLYLINE
   5
8C
 100
AcDbEntity
   8
0
 370
-2
   6
BYBLOCK
  62
0
 100
AcDb2dPolyline
  66
1
  10
0.0
  20
0.0
  30
0.0
  70
1
  40
 0.50000000000000
  41
 0.50000000000000
   0
VERTEX
   5
8D
 100
AcDbEntity
   8
0
   6
BYBLOCK
  62
0
 100
AcDbVertex
 100
AcDb2dVertex
  10
-0.25000000000000
  20
0.0
  30
0.0
  42
 1.0000000000000
  40
 0.50000000000000
  41
 0.50000000000000
   0
VERTEX
   5
8E
 100
AcDbEntity
   8
0
   6
BYBLOCK
  62
0
 100
AcDbVertex
 100
AcDb2dVertex
  10
 0.25000000000000
  20
0.0
  30
0.0
  42
 1.0000000000000
  40
 0.50000000000000
  41
 0.50000000000000
   0
SEQEND
   5
8F
 100
AcDbEntity
   8
0
   6
BYBLOCK
  62
0
   0
LINE
   5
90
 100
AcDbEntity
   8
0
 370
-2
 100
AcDbLine
   6
BYBLOCK
  62
0
  10
-0.50000000000000
  20
0.0
  30
0.0
  11
-1.0000000000000
  21
0.0
  31
0.0
   0
ENDBLK
   5
91
 100
AcDbEntity
   8
0
 100
AcDbBlockEnd
   0
BLOCK
   5
92
 100
AcDbEntity
   8
0
 100
AcDbBlockBegin
   2
_DOTSMALL
  70
0
  10
0.0
  20
0.0
  30
0.0
   3
_DOTSMALL
   0
POLYLINE
   5
93
 100
AcDbEntity
   8
0
 370
-2
   6
BYBLOCK
  62
0
 100
AcDb2dPolyline
  66
1
  10
0.0
  20
0.0
  30
0.0
  70
1
  40
 0.50000000000000
  41
 0.50000000000000
   0
VERTEX
   5
94
 100
AcDbEntity
   8
0
   6
BYBLOCK
  62
0
 100
AcDbVertex
 100
AcDb2dVertex
  10
-0.62500000000000E-1
  20
0.0
  30
0.0
  42
 1.0000000000000
  40
 0.50000000000000
  41
 0.50000000000000
   0
VERTEX
   5
95
 100
AcDbEntity
   8
0
   6
BYBLOCK
  62
0
 100
AcDbVertex
 100
AcDb2dVertex
  10
 0.62500000000000E-1
  20
0.0
  30
0.0
  42
 1.0000000000000
  40
 0.50000000000000
  41
 0.50000000000000
   0
SEQEND
   5
96
 100
AcDbEntity
   8
0
   6
BYBLOCK
  62
0
   0
ENDBLK
   5
97
 100
AcDbEntity
   8
0
 100
AcDbBlockEnd
   0
BLOCK
   5
98
 100
AcDbEntity
   8
0
 100
AcDbBlockBegin
   2
_DATUMBLANK
  70
0
  10
0.0
  20
0.0
  30
0.0
   3
_DATUMBLANK
   0
LINE
   5
99
 100
AcDbEntity
   8
0
 370
-2
 100
AcDbLine
   6
BYBLOCK
  62
0
  10
0.0
  20
 0.57735027000000
  30
0.0
  11
-1.0000000000000
  21
0.0
  31
0.0
   0
LINE
   5
9A
 100
AcDbEntity
   8
0
 370
-2
 100
AcDbLine
   6
BYBLOCK
  62
0
  10
-1.0000000000000
  20
0.0
  30
0.0
  11
0.0
  21
-0.57735027000000
  31
0.0
   0
LINE
   5
9B
 100
AcDbEntity
   8
0
 370
-2
 100
AcDbLine
   6
BYBLOCK
  62
0
  10
0.0
  20
-0.57735027000000
  30
0.0
  11
0.0
  21
 0.57735027000000
  31
0.0
   0
ENDBLK
   5
9C
 100
AcDbEntity
   8
0
 100
AcDbBlockEnd
   0
BLOCK
   5
9D
 100
AcDbEntity
   8
0
 100
AcDbBlockBegin
   2
_DATUMFILLED
  70
0
  10
0.0
  20
0.0
  30
0.0
   3
_DATUMFILLED
   0
SOLID
   5
9E
 100
AcDbEntity
   8
0
 100
AcDbTrace
   6
BYBLOCK
  62
0
  10
0.0
  20
 0.57735027000000
  30
0.0
  11
-1.0000000000000
  21
0.0
  31
0.0
  12
0.0
  22
-0.57735027000000
  32
0.0
  13
0.0
  23
-0.57735027000000
  33
0.0
   0
ENDBLK
   5
9F
 100
AcDbEntity
   8
0
 100
AcDbBlockEnd
   0
BLOCK
   5
A0
 100
AcDbEntity
   8
0
 100
AcDbBlockBegin
   2
_ORIGIN
  70
0
  10
0.0
  20
0.0
  30
0.0
   3
_ORIGIN
   0
CIRCLE
   5
A1
 100
AcDbEntity
   8
0
 370
-2
 100
AcDbCircle
   6
BYBLOCK
  62
0
  10
0.0
  20
0.0
  30
0.0
  40
 0.50000000000000
   0
LINE
   5
A2
 100
AcDbEntity
   8
0
 370
-2
 100
AcDbLine
   6
BYBLOCK
  62
0
  10
0.0
  20
0.0
  30
0.0
  11
-1.0000000000000
  21
0.0
  31
0.0
   0
ENDBLK
   5
A3
 100
AcDbEntity
   8
0
 100
AcDbBlockEnd
   0
BLOCK
   5
A4
 100
AcDbEntity
   8
0
 100
AcDbBlockBegin
   2
_NONE
  70
0
  10
0.0
  20
0.0
  30
0.0
   3
_NONE
   0
CIRCLE
   5
A5
 100
AcDbEntity
   8
0
 370
-2
 100
AcDbCircle
   6
BYBLOCK
  62
0
  10
0.0
  20
0.0
  30
0.0
  40
 0.25000000000000
   0
ENDBLK
   5
A6
 100
AcDbEntity
   8
0
 100
AcDbBlockEnd
   0
BLOCK
   5
A7
 100
AcDbEntity
   8
0
 100
AcDbBlockBegin
   2
_DOTBLANK
  70
0
  10
0.0
  20
0.0
  30
0.0
   3
_DOTBLANK
   0
CIRCLE
   5
A8
 100
AcDbEntity
   8
0
 370
-2
 100
AcDbCircle
   6
BYBLOCK
  62
0
  10
0.0
  20
0.0
  30
0.0
  40
 0.50000000000000
   0
LINE
   5
A9
 100
AcDbEntity
   8
0
 370
-2
 100
AcDbLine
   6
BYBLOCK
  62
0
  10
-0.50000000000000
  20
0.0
  30
0.0
  11
-1.0000000000000
  21
0.0
  31
0.0
   0
ENDBLK
   5
AA
 100
AcDbEntity
   8
0
 100
AcDbBlockEnd
   0
BLOCK
   5
AB
 100
AcDbEntity
   8
0
 100
AcDbBlockBegin
   2
_INTEGRAL
  70
0
  10
0.0
  20
0.0
  30
0.0
   3
_INTEGRAL
   0
ARC
   5
AC
 100
AcDbEntity
   8
0
 370
-2
   6
BYBLOCK
  62
0
 100
AcDbCircle
  10
 0.44488800000000
  20
-0.91335000000000E-1
  30
0.0
  40
 0.45416700000000
 100
AcDbArc
  50
 102.00000000000
  51
 168.00000000000
   0
ARC
   5
AD
 100
AcDbEntity
   8
0
 370
-2
   6
BYBLOCK
  62
0
 100
AcDbCircle
  10
-0.44488800000000
  20
 0.91335000000000E-1
  30
0.0
  40
 0.45416700000000
 100
AcDbArc
  50
 282.00000000000
  51
 348.00000000000
   0
ENDBLK
   5
AE
 100
AcDbEntity
   8
0
 100
AcDbBlockEnd
   0
BLOCK
   5
AF
 100
AcDbEntity
   8
0
 100
AcDbBlockBegin
   2
*D15
  70
65
  10
0.0
  20
0.0
  30
0.0
   3
*D15
   0
LINE
   5
B0
 100
AcDbEntity
   8
LEVEL001
 370
13
 100
AcDbLine
   6
CONTINUOUS
  62
6
  10
 2983.9738849712
  20
 727.46721678950
  30
0.0
  11
 2983.9738849712
  21
 527.46721678950
  31
0.0
   0
LINE
   5
B1
 100
AcDbEntity
   8
LEVEL001
 370
13
 100
AcDbLine
   6
CONTINUOUS
  62
6
  10
 3483.9738849712
  20
 727.46721678950
  30
0.0
  11
 3483.9738849712
  21
 527.46721678950
  31
0.0
   0
LINE
   5
B2
 100
AcDbEntity
   8
LEVEL001
 370
13
 100
AcDbLine
   6
CONTINUOUS
  62
6
  10
 2983.9738849712
  20
 557.46721678950
  30
0.0
  11
 3233.9738849712
  21
 557.46721678950
  31
0.0
   0
LINE
   5
B3
 100
AcDbEntity
   8
LEVEL001
 370
13
 100
AcDbLine
   6
CONTINUOUS
  62
6
  10
 3483.9738849712
  20
 557.46721678950
  30
0.0
  11
 3233.9738849712
  21
 557.46721678950
  31
0.0
   0
INSERT
   5
B4
 100
AcDbEntity
   8
LEVEL001
   6
CONTINUOUS
  62
6
 100
AcDbBlockReference
   2
_OPEN
  10
 2983.9738849712
  20
 557.46721678950
  30
0.0
  41
 42.000000000000
  42
 42.000000000000
  43
 42.000000000000
  50
 180.00000000000
   0
INSERT
   5
B5
 100
AcDbEntity
   8
LEVEL001
   6
CONTINUOUS
  62
6
 100
AcDbBlockReference
   2
_OPEN
  10
 3483.9738849712
  20
 557.46721678950
  30
0.0
  41
 42.000000000000
  42
 42.000000000000
  43
 42.000000000000
  50
0.0
   0
MTEXT
   5
B6
 100
AcDbEntity
   8
LEVEL001
 370
13
  62
1
 100
AcDbMText
  10
 3233.9738849712
  20
 571.46721678950
  30
0.0
  40
 60.000000000000
  41
0.0
  71
8
  72
1
   1
\A1;□500
   7
GMM002
   0
ENDBLK
   5
B7
 100
AcDbEntity
   8
0
 100
AcDbBlockEnd
   0
BLOCK
   5
B8
 100
AcDbEntity
   8
0
 100
AcDbBlockBegin
   2
*D16
  70
65
  10
0.0
  20
0.0
  30
0.0
   3
*D16
   0
LINE
   5
B9
 100
AcDbEntity
   8
LEVEL001
 370
13
 100
AcDbLine
   6
CONTINUOUS
  62
6
  10
 1283.9738849712
  20
 727.46721678950
  30
0.0
  11
 1283.9738849712
  21
 527.46721678950
  31
0.0
   0
LINE
   5
BA
 100
AcDbEntity
   8
LEVEL001
 370
13
 100
AcDbLine
   6
CONTINUOUS
  62
6
  10
 1783.9738849712
  20
 727.46721678950
  30
0.0
  11
 1783.9738849712
  21
 527.46721678950
  31
0.0
   0
LINE
   5
BB
 100
AcDbEntity
   8
LEVEL001
 370
13
 100
AcDbLine
   6
CONTINUOUS
  62
6
  10
 1283.9738849712
  20
 557.46721678950
  30
0.0
  11
 1533.9738849712
  21
 557.46721678950
  31
0.0
   0
LINE
   5
BC
 100
AcDbEntity
   8
LEVEL001
 370
13
 100
AcDbLine
   6
CONTINUOUS
  62
6
  10
 1783.9738849712
  20
 557.46721678950
  30
0.0
  11
 1533.9738849712
  21
 557.46721678950
  31
0.0
   0
INSERT
   5
BD
 100
AcDbEntity
   8
LEVEL001
   6
CONTINUOUS
  62
6
 100
AcDbBlockReference
   2
_OPEN
  10
 1283.9738849712
  20
 557.46721678950
  30
0.0
  41
 42.000000000000
  42
 42.000000000000
  43
 42.000000000000
  50
 180.00000000000
   0
INSERT
   5
BE
 100
AcDbEntity
   8
LEVEL001
   6
CONTINUOUS
  62
6
 100
AcDbBlockReference
   2
_OPEN
  10
 1783.9738849712
  20
 557.46721678950
  30
0.0
  41
 42.000000000000
  42
 42.000000000000
  43
 42.000000000000
  50
0.0
   0
MTEXT
   5
BF
 100
AcDbEntity
   8
LEVEL001
 370
13
  62
1
 100
AcDbMText
  10
 1533.9738849712
  20
 571.46721678950
  30
0.0
  40
 60.000000000000
  41
0.0
  71
8
  72
1
   1
\A1;□500
   7
GMM002
   0
ENDBLK
   5
C0
 100
AcDbEntity
   8
0
 100
AcDbBlockEnd
   0
BLOCK
   5
C1
 100
AcDbEntity
   8
0
 100
AcDbBlockBegin
   2
*D17
  70
65
  10
0.0
  20
0.0
  30
0.0
   3
*D17
   0
LINE
   5
C2
 100
AcDbEntity
   8
0
 370
13
 100
AcDbLine
   6
CONTINUOUS
  62
6
  10
 1253.9738849712
  20
 857.46721678950
  30
0.0
  11
 753.97388497123
  21
 857.46721678950
  31
0.0
   0
LINE
   5
C3
 100
AcDbEntity
   8
0
 370
13
 100
AcDbLine
   6
CONTINUOUS
  62
6
  10
 1253.9738849712
  20
 757.46721678950
  30
0.0
  11
 753.97388497123
  21
 757.46721678950
  31
0.0
   0
LINE
   5
C4
 100
AcDbEntity
   8
0
 370
13
 100
AcDbLine
   6
CONTINUOUS
  62
6
  10
 783.97388497123
  20
 857.46721678950
  30
0.0
  11
 783.97388497123
  21
 807.46721678950
  31
0.0
   0
LINE
   5
C5
 100
AcDbEntity
   8
0
 370
13
 100
AcDbLine
   6
CONTINUOUS
  62
6
  10
 783.97388497123
  20
 757.46721678950
  30
0.0
  11
 783.97388497123
  21
 807.46721678950
  31
0.0
   0
INSERT
   5
C6
 100
AcDbEntity
   8
0
   6
CONTINUOUS
  62
6
 100
AcDbBlockReference
   2
_OPEN
  10
 783.97388497123
  20
 857.46721678950
  30
0.0
  41
 42.000000000000
  42
 42.000000000000
  43
 42.000000000000
  50
 90.000000000000
   0
INSERT
   5
C7
 100
AcDbEntity
   8
0
   6
CONTINUOUS
  62
6
 100
AcDbBlockReference
   2
_OPEN
  10
 783.97388497123
  20
 757.46721678950
  30
0.0
  41
 42.000000000000
  42
 42.000000000000
  43
 42.000000000000
  50
 270.00000000000
   0
MTEXT
   5
C8
 100
AcDbEntity
   8
0
 370
13
  62
1
 100
AcDbMText
  10
 758.25959925694
  20
 807.46721678950
  30
0.0
  40
 60.000000000000
  41
0.0
  71
8
  72
1
   1
\A1;100
   7
GMM002
  11
0.0
  21
 1.0000000000000
  31
0.0
   0
ENDBLK
   5
C9
 100
AcDbEntity
   8
0
 100
AcDbBlockEnd
   0
BLOCK
   5
CA
 100
AcDbEntity
   8
0
 100
AcDbBlockBegin
   2
*D18
  70
65
  10
0.0
  20
0.0
  30
0.0
   3
*D18
   0
LINE
   5
CB
 100
AcDbEntity
   8
0
 370
13
 100
AcDbLine
   6
CONTINUOUS
  62
6
  10
 1253.9738849712
  20
 857.46721678950
  30
0.0
  11
 753.97388497123
  21
 857.46721678950
  31
0.0
   0
LINE
   5
CC
 100
AcDbEntity
   8
0
 370
13
 100
AcDbLine
   6
CONTINUOUS
  62
6
  10
 1003.9738849712
  20
 1857.4672167895
  30
0.0
  11
 753.97388497123
  21
 1857.4672167895
  31
0.0
   0
LINE
   5
CD
 100
AcDbEntity
   8
0
 370
13
 100
AcDbLine
   6
CONTINUOUS
  62
6
  10
 783.97388497123
  20
 857.46721678950
  30
0.0
  11
 783.97388497123
  21
 1357.4672167895
  31
0.0
   0
LINE
   5
CE
 100
AcDbEntity
   8
0
 370
13
 100
AcDbLine
   6
CONTINUOUS
  62
6
  10
 783.97388497123
  20
 1857.4672167895
  30
0.0
  11
 783.97388497123
  21
 1357.4672167895
  31
0.0
   0
INSERT
   5
CF
 100
AcDbEntity
   8
0
   6
CONTINUOUS
  62
6
 100
AcDbBlockReference
   2
_OPEN
  10
 783.97388497123
  20
 857.46721678950
  30
0.0
  41
 42.000000000000
  42
 42.000000000000
  43
 42.000000000000
  50
 270.00000000000
   0
INSERT
   5
D0
 100
AcDbEntity
   8
0
   6
CONTINUOUS
  62
6
 100
AcDbBlockReference
   2
_OPEN
  10
 783.97388497123
  20
 1857.4672167895
  30
0.0
  41
 42.000000000000
  42
 42.000000000000
  43
 42.000000000000
  50
 90.000000000000
   0
MTEXT
   5
D1
 100
AcDbEntity
   8
0
 370
13
  62
1
 100
AcDbMText
  10
 758.25959925694
  20
 1357.4672167895
  30
0.0
  40
 60.000000000000
  41
0.0
  71
8
  72
1
   1
\A1;1000
   7
GMM002
  11
0.0
  21
 1.0000000000000
  31
0.0
   0
ENDBLK
   5
D2
 100
AcDbEntity
   8
0
 100
AcDbBlockEnd
   0
BLOCK
   5
D3
 100
AcDbEntity
   8
0
 100
AcDbBlockBegin
   2
*D19
  70
65
  10
0.0
  20
0.0
  30
0.0
   3
*D19
   0
LINE
   5
D4
 100
AcDbEntity
   8
0
 370
13
 100
AcDbLine
   6
CONTINUOUS
  62
6
  10
 1003.9738849712
  20
 1857.4672167895
  30
0.0
  11
 753.97388497123
  21
 1857.4672167895
  31
0.0
   0
LINE
   5
D5
 100
AcDbEntity
   8
0
 370
13
 100
AcDbLine
   6
CONTINUOUS
  62
6
  10
 1103.9738849712
  20
 4357.4672167895
  30
0.0
  11
 753.97388497123
  21
 4357.4672167895
  31
0.0
   0
LINE
   5
D6
 100
AcDbEntity
   8
0
 370
13
 100
AcDbLine
   6
CONTINUOUS
  62
6
  10
 783.97388497123
  20
 1857.4672167895
  30
0.0
  11
 783.97388497123
  21
 3107.4672167895
  31
0.0
   0
LINE
   5
D7
 100
AcDbEntity
   8
0
 370
13
 100
AcDbLine
   6
CONTINUOUS
  62
6
  10
 783.97388497123
  20
 4357.4672167895
  30
0.0
  11
 783.97388497123
  21
 3107.4672167895
  31
0.0
   0
INSERT
   5
D8
 100
AcDbEntity
   8
0
   6
CONTINUOUS
  62
6
 100
AcDbBlockReference
   2
_OPEN
  10
 783.97388497123
  20
 1857.4672167895
  30
0.0
  41
 42.000000000000
  42
 42.000000000000
  43
 42.000000000000
  50
 270.00000000000
   0
INSERT
   5
D9
 100
AcDbEntity
   8
0
   6
CONTINUOUS
  62
6
 100
AcDbBlockReference
   2
_OPEN
  10
 783.97388497123
  20
 4357.4672167895
  30
0.0
  41
 42.000000000000
  42
 42.000000000000
  43
 42.000000000000
  50
 90.000000000000
   0
MTEXT
   5
DA
 100
AcDbEntity
   8
0
 370
13
  62
1
 100
AcDbMText
  10
 758.25959925694
  20
 3107.4672167895
  30
0.0
  40
 60.000000000000
  41
0.0
  71
8
  72
1
   1
\A1;2500(標準設置高さ)
   7
GMM002
  11
0.0
  21
 1.0000000000000
  31
0.0
   0
ENDBLK
   5
DB
 100
AcDbEntity
   8
0
 100
AcDbBlockEnd
   0
BLOCK
   5
DC
 100
AcDbEntity
   8
0
 100
AcDbBlockBegin
   2
*D20
  70
65
  10
0.0
  20
0.0
  30
0.0
   3
*D20
   0
LINE
   5
DD
 100
AcDbEntity
   8
LEVEL001
 370
13
 100
AcDbLine
   6
CONTINUOUS
  62
6
  10
 1398.1116331253
  20
 4842.4672167897
  30
0.0
  11
 1133.9738849712
  21
 4689.9672167895
  31
0.0
   0
LINE
   5
DE
 100
AcDbEntity
   8
LEVEL001
 370
13
 100
AcDbLine
   6
CONTINUOUS
  62
6
  10
 1133.9738849712
  20
 4689.9672167895
  30
0.0
  11
 869.83613681712
  21
 4537.4672167892
  31
0.0
   0
INSERT
   5
DF
 100
AcDbEntity
   8
LEVEL001
   6
CONTINUOUS
  62
6
 100
AcDbBlockReference
   2
_OPEN
  10
 1398.1116331253
  20
 4842.4672167897
  30
0.0
  41
 42.000000000000
  42
 42.000000000000
  43
 42.000000000000
  50
 30.000000000055
   0
INSERT
   5
E0
 100
AcDbEntity
   8
LEVEL001
   6
CONTINUOUS
  62
6
 100
AcDbBlockReference
   2
_OPEN
  10
 869.83613681712
  20
 4537.4672167892
  30
0.0
  41
 42.000000000000
  42
 42.000000000000
  43
 42.000000000000
  50
 210.00000000006
   0
MTEXT
   5
E1
 100
AcDbEntity
   8
LEVEL001
 370
13
  62
1
 100
AcDbMText
  10
 1126.9738849712
  20
 4702.0915724425
  30
0.0
  40
 60.000000000000
  41
0.0
  71
8
  72
1
   1
\A1;%%c600
   7
GMM002
  11
 0.86602540378395
  21
 0.50000000000084
  31
0.0
   0
ENDBLK
   5
E2
 100
AcDbEntity
   8
0
 100
AcDbBlockEnd
   0
BLOCK
   5
E3
 100
AcDbEntity
   8
0
 100
AcDbBlockBegin
   2
*D21
  70
65
  10
0.0
  20
0.0
  30
0.0
   3
*D21
   0
LINE
   5
E4
 100
AcDbEntity
   8
LEVEL001
 370
13
 100
AcDbLine
   6
CONTINUOUS
  62
6
  10
 2198.1116331254
  20
 4842.4672167898
  30
0.0
  11
 1933.9738849712
  21
 4689.9672167895
  31
0.0
   0
LINE
   5
E5
 100
AcDbEntity
   8
LEVEL001
 370
13
 100
AcDbLine
   6
CONTINUOUS
  62
6
  10
 1933.9738849712
  20
 4689.9672167895
  30
0.0
  11
 1669.8361368171
  21
 4537.4672167892
  31
0.0
   0
INSERT
   5
E6
 100
AcDbEntity
   8
LEVEL001
   6
CONTINUOUS
  62
6
 100
AcDbBlockReference
   2
_OPEN
  10
 2198.1116331254
  20
 4842.4672167898
  30
0.0
  41
 42.000000000000
  42
 42.000000000000
  43
 42.000000000000
  50
 30.000000000055
   0
INSERT
   5
E7
 100
AcDbEntity
   8
LEVEL001
   6
CONTINUOUS
  62
6
 100
AcDbBlockReference
   2
_OPEN
  10
 1669.8361368171
  20
 4537.4672167892
  30
0.0
  41
 42.000000000000
  42
 42.000000000000
  43
 42.000000000000
  50
 210.00000000006
   0
MTEXT
   5
E8
 100
AcDbEntity
   8
LEVEL001
 370
13
  62
1
 100
AcDbMText
  10
 1926.9738849712
  20
 4702.0915724425
  30
0.0
  40
 60.000000000000
  41
0.0
  71
8
  72
1
   1
\A1;%%c600
   7
GMM002
  11
 0.86602540378396
  21
 0.50000000000084
  31
0.0
   0
ENDBLK
   5
E9
 100
AcDbEntity
   8
0
 100
AcDbBlockEnd
   0
ENDSEC
   0
SECTION
   2
ENTITIES
   0
LINE
   5
EA
 100
AcDbEntity
   8
LEVEL001
 370
13
 100
AcDbLine
   6
CONTINUOUS
  62
7
  10
 8133.9738849712
  20
 5689.9672167895
  30
0.0
  11
 333.97388497123
  21
 5689.9672167895
  31
0.0
   0
LINE
   5
EB
 100
AcDbEntity
   8
LEVEL001
 370
13
 100
AcDbLine
   6
CONTINUOUS
  62
7
  10
 333.97388497123
  20
 5689.9672167895
  30
0.0
  11
 333.97388497123
  21
 189.96721678949
  31
0.0
   0
LINE
   5
EC
 100
AcDbEntity
   8
LEVEL001
 370
13
 100
AcDbLine
   6
CONTINUOUS
  62
7
  10
 333.97388497123
  20
 189.96721678949
  30
0.0
  11
 8133.9738849712
  21
 189.96721678949
  31
0.0
   0
LINE
   5
ED
 100
AcDbEntity
   8
LEVEL001
 370
13
 100
AcDbLine
   6
CONTINUOUS
  62
7
  10
 8133.9738849712
  20
 189.96721678949
  30
0.0
  11
 8133.9738849712
  21
 5689.9672167895
  31
0.0
   0
LINE
   5
EE
 100
AcDbEntity
   8
LEVEL001
 370
13
 100
AcDbLine
   6
CONTINUOUS
  62
2
  10
 5493.9738849712
  20
 669.96721678949
  30
0.0
  11
 7173.9738849712
  21
 669.96721678949
  31
0.0
   0
POINT
   5
EF
 100
AcDbEntity
   8
LEVEL001
 100
AcDbPoint
  62
3
  10
 6433.9738849712
  20
 729.96721678949
  30
0.0
   0
POINT
   5
F0
 100
AcDbEntity
   8
LEVEL001
 100
AcDbPoint
  62
3
  10
 6333.9738849712
  20
 729.96721678949
  30
0.0
   0
POINT
   5
F1
 100
AcDbEntity
   8
LEVEL001
 100
AcDbPoint
  62
3
  10
 6433.9738849712
  20
 829.96721678949
  30
0.0
   0
MTEXT
   5
F2
 100
AcDbEntity
   8
LEVEL001
 370
13
  62
1
 100
AcDbMText
  10
 5665.9738849712
  20
 949.96721678949
  30
0.0
  40
 51.428571428572
  41
0.0
  71
6
  72
1
   1
\T1.000000;１６
   7
GMM001
  44
 0.79999984000003
   0
MTEXT
   5
F3
 100
AcDbEntity
   8
LEVEL001
 370
13
  62
1
 100
AcDbMText
  10
 6823.9738849712
  20
 1307.1144321813
  30
0.0
  40
 51.428571428572
  41
0.0
  71
4
  72
1
   1
\T1.000000;ＰＥ
   7
GMM001
  44
 0.79999984000003
   0
MTEXT
   5
F4
 100
AcDbEntity
   8
LEVEL001
 370
13
  62
1
 100
AcDbMText
  10
 5733.9738849712
  20
 949.96721678949
  30
0.0
  40
 51.428571428572
  41
0.0
  71
4
  72
1
   1
\T1.000000;同上ボルトナット
   7
GMM001
  44
 0.79999984000003
   0
MTEXT
   5
F5
 100
AcDbEntity
   8
LEVEL001
 370
13
  62
1
 100
AcDbMText
  10
 5665.9738849712
  20
 1069.9672167895
  30
0.0
  40
 51.428571428572
  41
0.0
  71
6
  72
1
   1
\T1.000000;１５
   7
GMM001
  44
 0.79999984000003
   0
MTEXT
   5
F6
 100
AcDbEntity
   8
LEVEL001
 370
13
  62
1
 100
AcDbMText
  10
 5733.9738849712
  20
 1069.9672167895
  30
0.0
  40
 51.428571428572
  41
0.0
  71
4
  72
1
   1
\T1.000000;注意板取付バンド
   7
GMM001
  44
 0.79999984000003
   0
LINE
   5
F7
 100
AcDbEntity
   8
LEVEL001
 370
13
 100
AcDbLine
   6
CONTINUOUS
  62
6
  10
 5493.9738849712
  20
 1009.9672167895
  30
0.0
  11
 8133.9738849712
  21
 1009.9672167895
  31
0.0
   0
MTEXT
   5
F8
 100
AcDbEntity
   8
LEVEL001
 370
13
  62
1
 100
AcDbMText
  10
 5665.9738849712
  20
 1189.9672167895
  30
0.0
  40
 51.428571428572
  41
0.0
  71
6
  72
1
   1
\T1.000000;１４
   7
GMM001
  44
 0.79999984000003
   0
MTEXT
   5
F9
 100
AcDbEntity
   8
LEVEL001
 370
13
  62
1
 100
AcDbMText
  10
 6745.9738849712
  20
 1189.9672167895
  30
0.0
  40
 51.428571428572
  41
0.0
  71
6
  72
1
   1
\T1.000000;１
   7
GMM001
  44
 0.79999984000003
   0
LINE
   5
FA
 100
AcDbEntity
   8
LEVEL001
 370
13
 100
AcDbLine
   6
CONTINUOUS
  62
6
  10
 5493.9738849712
  20
 1129.9672167895
  30
0.0
  11
 8133.9738849712
  21
 1129.9672167895
  31
0.0
   0
LINE
   5
FB
 100
AcDbEntity
   8
LEVEL001
 370
13
 100
AcDbLine
   6
CONTINUOUS
  62
6
  10
 5493.9738849712
  20
 1249.9672167895
  30
0.0
  11
 8133.9738849712
  21
 1249.9672167895
  31
0.0
   0
MTEXT
   5
FC
 100
AcDbEntity
   8
LEVEL001
 370
13
  62
1
 100
AcDbMText
  10
 5665.9738849712
  20
 1309.9672167895
  30
0.0
  40
 51.428571428572
  41
0.0
  71
6
  72
1
   1
\T1.000000;１３
   7
GMM001
  44
 0.79999984000003
   0
MTEXT
   5
FD
 100
AcDbEntity
   8
LEVEL001
 370
13
  62
1
 100
AcDbMText
  10
 5733.9738849712
  20
 1309.9672167895
  30
0.0
  40
 51.428571428572
  41
0.0
  71
4
  72
1
   1
\T1.000000;キャップ
   7
GMM001
  44
 0.79999984000003
   0
MTEXT
   5
FE
 100
AcDbEntity
   8
LEVEL001
 370
13
  62
1
 100
AcDbMText
  10
 6745.9738849712
  20
 1309.9672167895
  30
0.0
  40
 51.428571428572
  41
0.0
  71
6
  72
1
   1
\T1.000000;１
   7
GMM001
  44
 0.79999984000003
   0
MTEXT
   5
FF
 100
AcDbEntity
   8
LEVEL001
 370
13
  62
1
 100
AcDbMText
  10
 5665.9738849712
  20
 1429.9672167895
  30
0.0
  40
 51.428571428572
  41
0.0
  71
6
  72
1
   1
\T1.000000;１２
   7
GMM001
  44
 0.79999984000003
   0
MTEXT
   5
100
 100
AcDbEntity
   8
LEVEL001
 370
13
  62
1
 100
AcDbMText
  10
 5733.9738849712
  20
 1429.9672167895
  30
0.0
  40
 51.428571428572
  41
0.0
  71
4
  72
1
   1
\T1.000000;根入れ鉄筋
   7
GMM001
  44
 0.79999984000003
   0
MTEXT
   5
101
 100
AcDbEntity
   8
LEVEL001
 370
13
  62
1
 100
AcDbMText
  10
 6745.9738849712
  20
 1429.9672167895
  30
0.0
  40
 51.428571428572
  41
0.0
  71
6
  72
1
   1
\T1.000000;１
   7
GMM001
  44
 0.79999984000003
   0
MTEXT
   5
102
 100
AcDbEntity
   8
LEVEL001
 370
13
  62
1
 100
AcDbMText
  10
 6813.9738849712
  20
 1429.9672167895
  30
0.0
  40
 51.428571428572
  41
0.0
  71
4
  72
1
   1
\T1.000000;ＳＤ２９５Ａ
   7
GMM001
  44
 0.79999984000003
   0
LINE
   5
103
 100
AcDbEntity
   8
LEVEL001
 370
13
 100
AcDbLine
   6
CONTINUOUS
  62
6
  10
 5493.9738849712
  20
 1369.9672167895
  30
0.0
  11
 8133.9738849712
  21
 1369.9672167895
  31
0.0
   0
LINE
   5
104
 100
AcDbEntity
   8
LEVEL001
 370
13
 100
AcDbLine
   6
CONTINUOUS
  62
6
  10
 5493.9738849712
  20
 1489.9672167895
  30
0.0
  11
 8133.9738849712
  21
 1489.9672167895
  31
0.0
   0
LINE
   5
105
 100
AcDbEntity
   8
LEVEL001
 370
13
 100
AcDbLine
   6
CONTINUOUS
  62
7
  10
 1463.3434354834
  20
 4738.6464290183
  30
0.0
  11
 1494.6224872832
  21
 4758.1917498447
  31
0.0
   0
LINE
   5
106
 100
AcDbEntity
   8
LEVEL001
 370
13
 100
AcDbLine
   6
CONTINUOUS
  62
7
  10
 1494.6224872832
  20
 4758.1917498447
  30
0.0
  11
 1494.6224872832
  21
 4687.4410456431
  31
0.0
   0
LINE
   5
107
 100
AcDbEntity
   8
LEVEL001
 370
13
 100
AcDbLine
   6
CONTINUOUS
  62
7
  10
 1494.6224872832
  20
 4687.4410456431
  30
0.0
  11
 1466.8422573261
  21
 4670.0820313539
  31
0.0
   0
LINE
   5
108
 100
AcDbEntity
   8
LEVEL001
 370
13
 100
AcDbLine
   6
CONTINUOUS
  62
7
  10
 1575.3238849712
  20
 4572.4671752613
  30
0.0
  11
 1575.3238849712
  21
 4557.4671752613
  31
0.0
   0
LINE
   5
109
 100
AcDbEntity
   8
LEVEL001
 370
13
 100
AcDbLine
   6
CONTINUOUS
  62
7
  10
 1575.3238849712
  20
 4557.4671752613
  30
0.0
  11
 1458.9738927452
  21
 4557.4671752613
  31
0.0
   0
LINE
   5
10A
 100
AcDbEntity
   8
LEVEL001
 370
13
 100
AcDbLine
   6
CONTINUOUS
  62
7
  10
 1458.9738927452
  20
 4557.4671752613
  30
0.0
  11
 1458.9738927452
  21
 4613.4497208695
  31
0.0
   0
LINE
   5
10B
 100
AcDbEntity
   8
LEVEL001
 370
13
 100
AcDbLine
   6
CONTINUOUS
  62
7
  10
 1466.6953841250
  20
 4667.4671752613
  30
0.0
  11
 1575.3238849712
  21
 4667.4671752613
  31
0.0
   0
LINE
   5
10C
 100
AcDbEntity
   8
LEVEL001
 370
13
 100
AcDbLine
   6
CONTINUOUS
  62
7
  10
 1575.3238849712
  20
 4667.4671752613
  30
0.0
  11
 1575.3238849712
  21
 4632.4671752613
  31
0.0
   0
LINE
   5
10D
 100
AcDbEntity
   8
LEVEL001
 370
13
 100
AcDbLine
   6
CONTINUOUS
  62
7
  10
 1605.2199816071
  20
 4632.4671752613
  30
0.0
  11
 1573.3252826592
  21
 4632.4671752613
  31
0.0
   0
LINE
   5
10E
 100
AcDbEntity
   8
LEVEL001
 370
13
 100
AcDbLine
   6
CONTINUOUS
  62
7
  10
 1573.3252826592
  20
 4632.4671752613
  30
0.0
  11
 1573.3252826592
  21
 4572.4671752613
  31
0.0
   0
LINE
   5
10F
 100
AcDbEntity
   8
LEVEL001
 370
13
 100
AcDbLine
   6
CONTINUOUS
  62
7
  10
 1573.3252826592
  20
 4572.4671752613
  30
0.0
  11
 1621.1175270076
  21
 4572.4671752613
  31
0.0
   0
LINE
   5
110
 100
AcDbEntity
   8
LEVEL001
 370
13
 100
AcDbLine
   6
CONTINUOUS
  62
7
  10
 1492.6238849712
  20
 4686.1921803117
  30
0.0
  11
 1492.6238849712
  21
 4667.4671752613
  31
0.0
   0
LINE
   5
111
 100
AcDbEntity
   8
LEVEL001
 370
13
 100
AcDbLine
   6
CONTINUOUS
  62
7
  10
 1492.6238849712
  20
 4667.4671752613
  30
0.0
  11
 1601.2515666402
  21
 4667.4671752613
  31
0.0
   0
LINE
   5
112
 100
AcDbEntity
   8
LEVEL001
 370
13
 100
AcDbLine
   6
CONTINUOUS
  62
7
  10
 1608.9738771973
  20
 4761.4884803807
  30
0.0
  11
 1608.9738771973
  21
 4777.4671752613
  31
0.0
   0
LINE
   5
113
 100
AcDbEntity
   8
LEVEL001
 370
13
 100
AcDbLine
   6
CONTINUOUS
  62
7
  10
 1608.9738771973
  20
 4777.4671752613
  30
0.0
  11
 1492.6238849712
  21
 4777.4671752613
  31
0.0
   0
LINE
   5
114
 100
AcDbEntity
   8
LEVEL001
 370
13
 100
AcDbLine
   6
CONTINUOUS
  62
7
  10
 1492.6238849712
  20
 4777.4671752613
  30
0.0
  11
 1492.6238849712
  21
 4756.9428845133
  31
0.0
   0
ARC
   5
115
 100
AcDbEntity
   8
LEVEL001
 370
13
   6
CONTINUOUS
  62
7
 100
AcDbCircle
  10
 1603.9735778601
  20
 4237.4672167895
  30
0.0
  40
 20.000000000000
 100
AcDbArc
  50
0.0
  51
 90.000000000000
   0
LINE
   5
116
 100
AcDbEntity
   8
LEVEL001
 370
13
 100
AcDbLine
   6
CONTINUOUS
  62
7
  10
 1603.9735778601
  20
 4257.4672167895
  30
0.0
  11
 1463.9761936999
  21
 4257.4672167895
  31
0.0
   0
ARC
   5
117
 100
AcDbEntity
   8
LEVEL001
 370
13
   6
CONTINUOUS
  62
7
 100
AcDbCircle
  10
 1463.9761936999
  20
 4237.4672167895
  30
0.0
  40
 20.000000000000
 100
AcDbArc
  50
 90.000000000000
  51
 180.00000000000
   0
LINE
   5
118
 100
AcDbEntity
   8
LEVEL001
 370
13
 100
AcDbLine
   6
CONTINUOUS
  62
7
  10
 1443.9761936999
  20
 4237.4672167895
  30
0.0
  11
 1443.9761936999
  21
 3677.4664320439
  31
0.0
   0
LINE
   5
119
 100
AcDbEntity
   8
LEVEL001
 370
13
 100
AcDbLine
   6
CONTINUOUS
  62
7
  10
 1623.9735778601
  20
 3677.4664320439
  30
0.0
  11
 1623.9735778601
  21
 4237.4672167895
  31
0.0
   0
LINE
   5
11A
 100
AcDbEntity
   8
LEVEL001
 370
13
 100
AcDbLine
   6
CONTINUOUS
  62
7
  10
 1495.8238849712
  20
 4557.4671752613
  30
0.0
  11
 1495.8238849712
  21
 4257.4672167895
  31
0.0
   0
LINE
   5
11B
 100
AcDbEntity
   8
LEVEL001
 370
13
 100
AcDbLine
   6
CONTINUOUS
  62
7
  10
 1572.1238849712
  20
 4257.4672167895
  30
0.0
  11
 1572.1238849712
  21
 4557.4671752613
  31
0.0
   0
CIRCLE
   5
11C
 100
AcDbEntity
   8
LEVEL001
 370
13
 100
AcDbCircle
   6
CONTINUOUS
  62
7
  10
 1133.9738849712
  20
 4689.9672167895
  30
0.0
  40
 332.50000000000
   0
CIRCLE
   5
11D
 100
AcDbEntity
   8
LEVEL001
 370
13
 100
AcDbCircle
   6
CONTINUOUS
  62
7
  10
 1133.9738849712
  20
 4689.9672167895
  30
0.0
  40
 312.50000000000
   0
CIRCLE
   5
11E
 100
AcDbEntity
   8
LEVEL001
 370
13
 100
AcDbCircle
   6
CONTINUOUS
  62
6
  10
 1133.9738849712
  20
 4689.9672167895
  30
0.0
  40
 305.00000000000
   0
CIRCLE
   5
11F
 100
AcDbEntity
   8
LEVEL001
 370
13
 100
AcDbCircle
   6
CONTINUOUS
  62
6
  10
 1133.9738849712
  20
 4689.9672167895
  30
0.0
  40
 310.00000000000
   0
ARC
   5
120
 100
AcDbEntity
   8
LEVEL001
 370
13
   6
CONTINUOUS
  62
1
 100
AcDbCircle
  10
 1133.9738849712
  20
 4689.9672167895
  30
0.0
  40
 310.00000000000
 100
AcDbArc
  50
 6.7865214711293
  51
 173.21347852887
   0
ARC
   5
121
 100
AcDbEntity
   8
LEVEL001
 370
13
   6
CONTINUOUS
  62
1
 100
AcDbCircle
  10
 1133.9738849712
  20
 4689.9672167895
  30
0.0
  40
 311.50000000000
 100
AcDbArc
  50
 6.7865214711232
  51
 173.21347852887
   0
LINE
   5
122
 100
AcDbEntity
   8
LEVEL001
 370
13
 100
AcDbLine
   6
CONTINUOUS
  62
1
  10
 826.14595126452
  20
 4726.6000330867
  30
0.0
  11
 824.65646126272
  21
 4726.7772886495
  31
0.0
   0
LINE
   5
123
 100
AcDbEntity
   8
LEVEL001
 370
13
 100
AcDbLine
   6
CONTINUOUS
  62
1
  10
 1441.8018186779
  20
 4726.6000330867
  30
0.0
  11
 1443.2913086797
  21
 4726.7772886495
  31
0.0
   0
CIRCLE
   5
124
 100
AcDbEntity
   8
LEVEL001
 370
13
 100
AcDbCircle
   6
CONTINUOUS
  62
7
  10
 1933.9738849712
  20
 4689.9672167895
  30
0.0
  40
 332.50000000000
   0
CIRCLE
   5
125
 100
AcDbEntity
   8
LEVEL001
 370
13
 100
AcDbCircle
   6
CONTINUOUS
  62
7
  10
 1933.9738849712
  20
 4689.9672167895
  30
0.0
  40
 312.50000000000
   0
CIRCLE
   5
126
 100
AcDbEntity
   8
LEVEL001
 370
13
 100
AcDbCircle
   6
CONTINUOUS
  62
6
  10
 1933.9738849712
  20
 4689.9672167895
  30
0.0
  40
 305.00000000000
   0
CIRCLE
   5
127
 100
AcDbEntity
   8
LEVEL001
 370
13
 100
AcDbCircle
   6
CONTINUOUS
  62
6
  10
 1933.9738849712
  20
 4689.9672167895
  30
0.0
  40
 310.00000000000
   0
ARC
   5
128
 100
AcDbEntity
   8
LEVEL001
 370
13
   6
CONTINUOUS
  62
1
 100
AcDbCircle
  10
 1933.9738849712
  20
 4689.9672167895
  30
0.0
  40
 310.00000000000
 100
AcDbArc
  50
 6.7865214711293
  51
 173.21347852887
   0
ARC
   5
129
 100
AcDbEntity
   8
LEVEL001
 370
13
   6
CONTINUOUS
  62
1
 100
AcDbCircle
  10
 1933.9738849712
  20
 4689.9672167895
  30
0.0
  40
 311.50000000000
 100
AcDbArc
  50
 6.7865214711232
  51
 173.21347852887
   0
LINE
   5
12A
 100
AcDbEntity
   8
LEVEL001
 370
13
 100
AcDbLine
   6
CONTINUOUS
  62
1
  10
 1626.1459512645
  20
 4726.6000330867
  30
0.0
  11
 1624.6564612627
  21
 4726.7772886495
  31
0.0
   0
LINE
   5
12B
 100
AcDbEntity
   8
LEVEL001
 370
13
 100
AcDbLine
   6
CONTINUOUS
  62
1
  10
 2241.8018186778
  20
 4726.6000330867
  30
0.0
  11
 2243.2913086798
  21
 4726.7772886495
  31
0.0
   0
LINE
   5
12C
 100
AcDbEntity
   8
LEVEL001
 370
13
 100
AcDbLine
   6
DASHDOT
  62
6
  10
 758.97388497123
  20
 4689.9672167895
  30
0.0
  11
 1508.9738849712
  21
 4689.9672167895
  31
0.0
   0
LINE
   5
12D
 100
AcDbEntity
   8
LEVEL001
 370
13
 100
AcDbLine
   6
DASHDOT
  62
6
  10
 1133.9738849712
  20
 5064.9672167895
  30
0.0
  11
 1133.9738849712
  21
 4314.9672167895
  31
0.0
   0
LINE
   5
12E
 100
AcDbEntity
   8
LEVEL001
 370
13
 100
AcDbLine
   6
DASHDOT
  62
6
  10
 1933.9738849712
  20
 5064.9672167895
  30
0.0
  11
 1933.9738849712
  21
 4314.9672167895
  31
0.0
   0
LINE
   5
12F
 100
AcDbEntity
   8
LEVEL001
 370
13
 100
AcDbLine
   6
DASHDOT
  62
6
  10
 1558.9738849712
  20
 4689.9672167895
  30
0.0
  11
 2308.9738849712
  21
 4689.9672167895
  31
0.0
   0
LINE
   5
130
 100
AcDbEntity
   8
LEVEL001
 370
13
 100
AcDbLine
   6
DASHDOT
  62
6
  10
 1573.9738771973
  20
 4752.4671752613
  30
0.0
  11
 1603.9738771973
  21
 4752.4671752613
  31
0.0
   0
LINE
   5
131
 100
AcDbEntity
   8
LEVEL001
 370
13
 100
AcDbLine
   6
DASHDOT
  62
6
  10
 1588.9738771973
  20
 4767.4671752613
  30
0.0
  11
 1588.9738771973
  21
 4737.4671752613
  31
0.0
   0
LINE
   5
132
 100
AcDbEntity
   8
LEVEL001
 370
13
 100
AcDbLine
   6
DASHDOT
  62
6
  10
 1573.9738771973
  20
 4692.4671752613
  30
0.0
  11
 1603.9738771973
  21
 4692.4671752613
  31
0.0
   0
LINE
   5
133
 100
AcDbEntity
   8
LEVEL001
 370
13
 100
AcDbLine
   6
DASHDOT
  62
6
  10
 1588.9738771973
  20
 4707.4671752613
  30
0.0
  11
 1588.9738771973
  21
 4677.4671752613
  31
0.0
   0
LINE
   5
134
 100
AcDbEntity
   8
LEVEL001
 370
13
 100
AcDbLine
   6
DASHDOT
  62
6
  10
 1463.9738927452
  20
 4642.4671752613
  30
0.0
  11
 1493.9738927452
  21
 4642.4671752613
  31
0.0
   0
LINE
   5
135
 100
AcDbEntity
   8
LEVEL001
 370
13
 100
AcDbLine
   6
DASHDOT
  62
6
  10
 1478.9738927452
  20
 4657.4671752613
  30
0.0
  11
 1478.9738927452
  21
 4627.4671752613
  31
0.0
   0
LINE
   5
136
 100
AcDbEntity
   8
LEVEL001
 370
13
 100
AcDbLine
   6
DASHDOT
  62
6
  10
 1463.9738927452
  20
 4582.4671752613
  30
0.0
  11
 1493.9738927452
  21
 4582.4671752613
  31
0.0
   0
LINE
   5
137
 100
AcDbEntity
   8
LEVEL001
 370
13
 100
AcDbLine
   6
DASHDOT
  62
6
  10
 1478.9738927452
  20
 4597.4671752613
  30
0.0
  11
 1478.9738927452
  21
 4567.4671752613
  31
0.0
   0
LINE
   5
138
 100
AcDbEntity
   8
LEVEL001
 370
13
 100
AcDbLine
   6
CONTINUOUS
  62
6
  10
 1569.3287862928
  20
 4772.4671752613
  30
0.0
  11
 1569.3287862928
  21
 4672.4671752613
  31
0.0
   0
LINE
   5
139
 100
AcDbEntity
   8
LEVEL001
 370
13
 100
AcDbLine
   6
CONTINUOUS
  62
6
  10
 1498.6189836496
  20
 4662.4671752613
  30
0.0
  11
 1498.6189836496
  21
 4562.4671752613
  31
0.0
   0
LINE
   5
13A
 100
AcDbEntity
   8
LEVEL001
 370
13
 100
AcDbLine
   6
CONTINUOUS
  62
3
  10
 1581.9738771973
  20
 4745.4671752613
  30
0.0
  11
 1595.9738771973
  21
 4745.4671752613
  31
0.0
   0
LINE
   5
13B
 100
AcDbEntity
   8
LEVEL001
 370
13
 100
AcDbLine
   6
CONTINUOUS
  62
3
  10
 1595.9738771973
  20
 4745.4671752613
  30
0.0
  11
 1595.9738771973
  21
 4759.4671752613
  31
0.0
   0
LINE
   5
13C
 100
AcDbEntity
   8
LEVEL001
 370
13
 100
AcDbLine
   6
CONTINUOUS
  62
3
  10
 1595.9738771973
  20
 4759.4671752613
  30
0.0
  11
 1581.9738771973
  21
 4759.4671752613
  31
0.0
   0
LINE
   5
13D
 100
AcDbEntity
   8
LEVEL001
 370
13
 100
AcDbLine
   6
CONTINUOUS
  62
3
  10
 1581.9738771973
  20
 4759.4671752613
  30
0.0
  11
 1581.9738771973
  21
 4745.4671752613
  31
0.0
   0
LINE
   5
13E
 100
AcDbEntity
   8
LEVEL001
 370
13
 100
AcDbLine
   6
CONTINUOUS
  62
3
  10
 1581.9738771973
  20
 4685.4671752613
  30
0.0
  11
 1595.9738771973
  21
 4685.4671752613
  31
0.0
   0
LINE
   5
13F
 100
AcDbEntity
   8
LEVEL001
 370
13
 100
AcDbLine
   6
CONTINUOUS
  62
3
  10
 1595.9738771973
  20
 4685.4671752613
  30
0.0
  11
 1595.9738771973
  21
 4699.4671752613
  31
0.0
   0
LINE
   5
140
 100
AcDbEntity
   8
LEVEL001
 370
13
 100
AcDbLine
   6
CONTINUOUS
  62
3
  10
 1595.9738771973
  20
 4699.4671752613
  30
0.0
  11
 1581.9738771973
  21
 4699.4671752613
  31
0.0
   0
LINE
   5
141
 100
AcDbEntity
   8
LEVEL001
 370
13
 100
AcDbLine
   6
CONTINUOUS
  62
3
  10
 1581.9738771973
  20
 4699.4671752613
  30
0.0
  11
 1581.9738771973
  21
 4685.4671752613
  31
0.0
   0
LINE
   5
142
 100
AcDbEntity
   8
LEVEL001
 370
13
 100
AcDbLine
   6
CONTINUOUS
  62
3
  10
 1485.9738927451
  20
 4635.4671752613
  30
0.0
  11
 1471.9738927451
  21
 4635.4671752613
  31
0.0
   0
LINE
   5
143
 100
AcDbEntity
   8
LEVEL001
 370
13
 100
AcDbLine
   6
CONTINUOUS
  62
3
  10
 1471.9738927451
  20
 4635.4671752613
  30
0.0
  11
 1471.9738927451
  21
 4649.4671752613
  31
0.0
   0
LINE
   5
144
 100
AcDbEntity
   8
LEVEL001
 370
13
 100
AcDbLine
   6
CONTINUOUS
  62
3
  10
 1471.9738927451
  20
 4649.4671752613
  30
0.0
  11
 1485.9738927451
  21
 4649.4671752613
  31
0.0
   0
LINE
   5
145
 100
AcDbEntity
   8
LEVEL001
 370
13
 100
AcDbLine
   6
CONTINUOUS
  62
3
  10
 1485.9738927451
  20
 4649.4671752613
  30
0.0
  11
 1485.9738927451
  21
 4635.4671752613
  31
0.0
   0
LINE
   5
146
 100
AcDbEntity
   8
LEVEL001
 370
13
 100
AcDbLine
   6
CONTINUOUS
  62
3
  10
 1485.9738927451
  20
 4575.4671752613
  30
0.0
  11
 1471.9738927451
  21
 4575.4671752613
  31
0.0
   0
LINE
   5
147
 100
AcDbEntity
   8
LEVEL001
 370
13
 100
AcDbLine
   6
CONTINUOUS
  62
3
  10
 1471.9738927451
  20
 4575.4671752613
  30
0.0
  11
 1471.9738927451
  21
 4589.4671752613
  31
0.0
   0
LINE
   5
148
 100
AcDbEntity
   8
LEVEL001
 370
13
 100
AcDbLine
   6
CONTINUOUS
  62
3
  10
 1471.9738927451
  20
 4589.4671752613
  30
0.0
  11
 1485.9738927451
  21
 4589.4671752613
  31
0.0
   0
LINE
   5
149
 100
AcDbEntity
   8
LEVEL001
 370
13
 100
AcDbLine
   6
CONTINUOUS
  62
3
  10
 1485.9738927451
  20
 4589.4671752613
  30
0.0
  11
 1485.9738927451
  21
 4575.4671752613
  31
0.0
   0
LINE
   5
14A
 100
AcDbEntity
   8
LEVEL001
 370
13
 100
AcDbLine
   6
CONTINUOUS
  62
7
  10
 1572.1238849712
  20
 4861.4672167895
  30
0.0
  11
 1495.8238849712
  21
 4861.4672167895
  31
0.0
   0
LINE
   5
14B
 100
AcDbEntity
   8
LEVEL001
 370
13
 100
AcDbLine
   6
CONTINUOUS
  62
7
  10
 1495.8238849712
  20
 4861.4672167895
  30
0.0
  11
 1495.8238849712
  21
 4858.4672167895
  31
0.0
   0
LINE
   5
14C
 100
AcDbEntity
   8
LEVEL001
 370
13
 100
AcDbLine
   6
CONTINUOUS
  62
7
  10
 1495.8238849712
  20
 4858.4672167895
  30
0.0
  11
 1572.1238849712
  21
 4858.4672167895
  31
0.0
   0
LINE
   5
14D
 100
AcDbEntity
   8
LEVEL001
 370
13
 100
AcDbLine
   6
CONTINUOUS
  62
7
  10
 1572.1238849712
  20
 4858.4672167895
  30
0.0
  11
 1572.1238849712
  21
 4861.4672167895
  31
0.0
   0
LINE
   5
14E
 100
AcDbEntity
   8
LEVEL001
 370
13
 100
AcDbLine
   6
DOT
  62
1
  10
 1567.1238849712
  20
 4858.4672167895
  30
0.0
  11
 1567.1238849712
  21
 4831.4672167895
  31
0.0
   0
LINE
   5
14F
 100
AcDbEntity
   8
LEVEL001
 370
13
 100
AcDbLine
   6
DOT
  62
1
  10
 1567.1238849712
  20
 4831.4672167895
  30
0.0
  11
 1500.8238849712
  21
 4831.4672167895
  31
0.0
   0
LINE
   5
150
 100
AcDbEntity
   8
LEVEL001
 370
13
 100
AcDbLine
   6
DOT
  62
1
  10
 1500.8238849712
  20
 4831.4672167895
  30
0.0
  11
 1500.8238849712
  21
 4858.4672167895
  31
0.0
   0
LINE
   5
151
 100
AcDbEntity
   8
LEVEL001
 370
13
 100
AcDbLine
   6
CONTINUOUS
  62
7
  10
 1572.1238849712
  20
 4777.4671752613
  30
0.0
  11
 1572.1238849712
  21
 4857.4672167895
  31
0.0
   0
LINE
   5
152
 100
AcDbEntity
   8
LEVEL001
 370
13
 100
AcDbLine
   6
CONTINUOUS
  62
7
  10
 1572.1238849712
  20
 4857.4672167895
  30
0.0
  11
 1495.8238849712
  21
 4857.4672167895
  31
0.0
   0
LINE
   5
153
 100
AcDbEntity
   8
LEVEL001
 370
13
 100
AcDbLine
   6
CONTINUOUS
  62
7
  10
 1495.8238849712
  20
 4857.4672167895
  30
0.0
  11
 1495.8238849712
  21
 4777.4671752613
  31
0.0
   0
LINE
   5
154
 100
AcDbEntity
   8
LEVEL001
 370
13
 100
AcDbLine
   6
DASHDOT
  62
6
  10
 1533.9738849712
  20
 4907.4672167895
  30
0.0
  11
 1533.9738849712
  21
 757.46721678950
  31
0.0
   0
ARC
   5
155
 100
AcDbEntity
   8
LEVEL001
 370
13
   6
CONTINUOUS
  62
7
 100
AcDbCircle
  10
 1463.9761936999
  20
 3677.4664320439
  30
0.0
  40
 20.000000000000
 100
AcDbArc
  50
 180.00000000000
  51
 270.00000000000
   0
LINE
   5
156
 100
AcDbEntity
   8
LEVEL001
 370
13
 100
AcDbLine
   6
CONTINUOUS
  62
7
  10
 1463.9761936999
  20
 3657.4664320439
  30
0.0
  11
 1603.9735778601
  21
 3657.4664320439
  31
0.0
   0
ARC
   5
157
 100
AcDbEntity
   8
LEVEL001
 370
13
   6
CONTINUOUS
  62
7
 100
AcDbCircle
  10
 1603.9735778601
  20
 3677.4664320439
  30
0.0
  40
 20.000000000000
 100
AcDbArc
  50
 270.00000000000
  51
0.0
   0
LINE
   5
158
 100
AcDbEntity
   8
LEVEL001
 370
13
 100
AcDbLine
   6
DASHDOT
  62
6
  10
 1473.9738668856
  20
 1257.4672167895
  30
0.0
  11
 1593.9738668856
  21
 1257.4672167895
  31
0.0
   0
CIRCLE
   5
159
 100
AcDbEntity
   8
LEVEL001
 370
13
 100
AcDbCircle
   6
CONTINUOUS
  62
7
  10
 1533.9738511691
  20
 1157.4672167895
  30
0.0
  40
 7.5000000000000
   0
LINE
   5
15A
 100
AcDbEntity
   8
LEVEL001
 370
13
 100
AcDbLine
   6
DASHDOT
  62
6
  10
 1503.9738511691
  20
 1157.4672167895
  30
0.0
  11
 1563.9738511691
  21
 1157.4672167895
  31
0.0
   0
LINE
   5
15B
 100
AcDbEntity
   8
LEVEL001
 370
13
 100
AcDbLine
   6
CONTINUOUS
  62
7
  10
 1495.8238849712
  20
 3657.4664320439
  30
0.0
  11
 1495.8238849712
  21
 857.46721678950
  31
0.0
   0
LINE
   5
15C
 100
AcDbEntity
   8
LEVEL001
 370
13
 100
AcDbLine
   6
CONTINUOUS
  62
7
  10
 1495.8238849712
  20
 857.46721678950
  30
0.0
  11
 1572.1238849712
  21
 857.46721678950
  31
0.0
   0
LINE
   5
15D
 100
AcDbEntity
   8
LEVEL001
 370
13
 100
AcDbLine
   6
CONTINUOUS
  62
7
  10
 1572.1238849712
  20
 857.46721678950
  30
0.0
  11
 1572.1238849712
  21
 3657.4664320439
  31
0.0
   0
CIRCLE
   5
15E
 100
AcDbEntity
   8
LEVEL001
 370
13
 100
AcDbCircle
   6
CONTINUOUS
  62
7
  10
 4536.8618364508
  20
 4689.9672167895
  30
0.0
  40
 332.50000000000
   0
CIRCLE
   5
15F
 100
AcDbEntity
   8
LEVEL001
 370
13
 100
AcDbCircle
   6
CONTINUOUS
  62
7
  10
 4395.4404802136
  20
 4831.3885730269
  30
0.0
  40
 35.000000000000
   0
CIRCLE
   5
160
 100
AcDbEntity
   8
LEVEL001
 370
13
 100
AcDbCircle
   6
CONTINUOUS
  62
6
  10
 4395.4404802136
  20
 4831.3885730269
  30
0.0
  40
 50.000000000000
   0
CIRCLE
   5
161
 100
AcDbEntity
   8
LEVEL001
 370
13
 100
AcDbCircle
   6
CONTINUOUS
  62
7
  10
 4678.2831926880
  20
 4831.3885730269
  30
0.0
  40
 35.000000000000
   0
CIRCLE
   5
162
 100
AcDbEntity
   8
LEVEL001
 370
13
 100
AcDbCircle
   6
CONTINUOUS
  62
6
  10
 4678.2831926880
  20
 4831.3885730269
  30
0.0
  40
 50.000000000000
   0
CIRCLE
   5
163
 100
AcDbEntity
   8
LEVEL001
 370
13
 100
AcDbCircle
   6
CONTINUOUS
  62
7
  10
 4678.2831926882
  20
 4548.5458605523
  30
0.0
  40
 35.000000000000
   0
CIRCLE
   5
164
 100
AcDbEntity
   8
LEVEL001
 370
13
 100
AcDbCircle
   6
CONTINUOUS
  62
6
  10
 4678.2831926882
  20
 4548.5458605523
  30
0.0
  40
 50.000000000000
   0
CIRCLE
   5
165
 100
AcDbEntity
   8
LEVEL001
 370
13
 100
AcDbCircle
   6
CONTINUOUS
  62
7
  10
 4395.4404802134
  20
 4548.5458605523
  30
0.0
  40
 35.000000000000
   0
CIRCLE
   5
166
 100
AcDbEntity
   8
LEVEL001
 370
13
 100
AcDbCircle
   6
CONTINUOUS
  62
6
  10
 4395.4404802134
  20
 4548.5458605523
  30
0.0
  40
 50.000000000000
   0
ARC
   5
167
 100
AcDbEntity
   8
LEVEL001
 370
13
   6
CONTINUOUS
  62
7
 100
AcDbCircle
  10
 4786.8618364508
  20
 4689.9672167895
  30
0.0
  40
 15.000000000000
 100
AcDbArc
  50
0.0
  51
 90.000000000000
   0
ARC
   5
168
 100
AcDbEntity
   8
LEVEL001
 370
13
   6
CONTINUOUS
  62
7
 100
AcDbCircle
  10
 4786.8618364508
  20
 4689.9672167895
  30
0.0
  40
 15.000000000000
 100
AcDbArc
  50
 270.00000000000
  51
0.0
   0
ARC
   5
169
 100
AcDbEntity
   8
LEVEL001
 370
13
   6
CONTINUOUS
  62
7
 100
AcDbCircle
  10
 4286.8618364508
  20
 4689.9672167897
  30
0.0
  40
 15.000000000000
 100
AcDbArc
  50
 180.00000000000
  51
 270.00000000000
   0
ARC
   5
16A
 100
AcDbEntity
   8
LEVEL001
 370
13
   6
CONTINUOUS
  62
7
 100
AcDbCircle
  10
 4286.8618364508
  20
 4689.9672167897
  30
0.0
  40
 15.000000000000
 100
AcDbArc
  50
 90.000000000000
  51
 180.00000000000
   0
ARC
   5
16B
 100
AcDbEntity
   8
LEVEL001
 370
13
   6
CONTINUOUS
  62
6
 100
AcDbCircle
  10
 4786.8618364508
  20
 4689.9672167895
  30
0.0
  40
 30.000000000000
 100
AcDbArc
  50
0.0
  51
 90.000000000000
   0
ARC
   5
16C
 100
AcDbEntity
   8
LEVEL001
 370
13
   6
CONTINUOUS
  62
6
 100
AcDbCircle
  10
 4786.8618364508
  20
 4689.9672167895
  30
0.0
  40
 30.000000000000
 100
AcDbArc
  50
 270.00000000000
  51
0.0
   0
ARC
   5
16D
 100
AcDbEntity
   8
LEVEL001
 370
13
   6
CONTINUOUS
  62
6
 100
AcDbCircle
  10
 4286.8618364508
  20
 4689.9672167897
  30
0.0
  40
 30.000000000000
 100
AcDbArc
  50
 180.00000000000
  51
 270.00000000000
   0
ARC
   5
16E
 100
AcDbEntity
   8
LEVEL001
 370
13
   6
CONTINUOUS
  62
6
 100
AcDbCircle
  10
 4286.8618364508
  20
 4689.9672167897
  30
0.0
  40
 30.000000000000
 100
AcDbArc
  50
 90.000000000000
  51
 180.00000000000
   0
ARC
   5
16F
 100
AcDbEntity
   8
LEVEL001
 370
13
   6
CONTINUOUS
  62
7
 100
AcDbCircle
  10
 4533.9738849714
  20
 4939.9672167895
  30
0.0
  40
 15.000000000000
 100
AcDbArc
  50
 90.000000000000
  51
 180.00000000000
   0
ARC
   5
170
 100
AcDbEntity
   8
LEVEL001
 370
13
   6
CONTINUOUS
  62
6
 100
AcDbCircle
  10
 4533.9738849714
  20
 4939.9672167895
  30
0.0
  40
 30.000000000000
 100
AcDbArc
  50
 90.000000000000
  51
 180.00000000000
   0
ARC
   5
171
 100
AcDbEntity
   8
LEVEL001
 370
13
   6
CONTINUOUS
  62
7
 100
AcDbCircle
  10
 4533.9738849714
  20
 4939.9672167895
  30
0.0
  40
 15.000000000000
 100
AcDbArc
  50
0.0
  51
 90.000000000000
   0
ARC
   5
172
 100
AcDbEntity
   8
LEVEL001
 370
13
   6
CONTINUOUS
  62
6
 100
AcDbCircle
  10
 4533.9738849714
  20
 4939.9672167895
  30
0.0
  40
 30.000000000000
 100
AcDbArc
  50
0.0
  51
 90.000000000000
   0
ARC
   5
173
 100
AcDbEntity
   8
LEVEL001
 370
13
   6
CONTINUOUS
  62
7
 100
AcDbCircle
  10
 4533.9738849712
  20
 4439.9672167897
  30
0.0
  40
 15.000000000000
 100
AcDbArc
  50
 180.00000000000
  51
 270.00000000000
   0
ARC
   5
174
 100
AcDbEntity
   8
LEVEL001
 370
13
   6
CONTINUOUS
  62
6
 100
AcDbCircle
  10
 4533.9738849712
  20
 4439.9672167897
  30
0.0
  40
 30.000000000000
 100
AcDbArc
  50
 180.00000000000
  51
 270.00000000000
   0
ARC
   5
175
 100
AcDbEntity
   8
LEVEL001
 370
13
   6
CONTINUOUS
  62
7
 100
AcDbCircle
  10
 4533.9738849712
  20
 4439.9672167897
  30
0.0
  40
 15.000000000000
 100
AcDbArc
  50
 270.00000000000
  51
0.0
   0
ARC
   5
176
 100
AcDbEntity
   8
LEVEL001
 370
13
   6
CONTINUOUS
  62
6
 100
AcDbCircle
  10
 4533.9738849712
  20
 4439.9672167897
  30
0.0
  40
 30.000000000000
 100
AcDbArc
  50
 270.00000000000
  51
0.0
   0
LINE
   5
177
 100
AcDbEntity
   8
LEVEL001
 370
13
 100
AcDbLine
   6
CONTINUOUS
  62
6
  10
 4286.8618364508
  20
 4719.9672167897
  30
0.0
  11
 4408.5745229314
  21
 4719.9672167897
  31
0.0
   0
ARC
   5
178
 100
AcDbEntity
   8
LEVEL001
 370
13
   6
CONTINUOUS
  62
6
 100
AcDbCircle
  10
 4408.5745229314
  20
 4739.9672167897
  30
0.0
  40
 20.000000000000
 100
AcDbArc
  50
 270.00000000000
  51
 338.26153920836
   0
LINE
   5
179
 100
AcDbEntity
   8
LEVEL001
 370
13
 100
AcDbLine
   6
CONTINUOUS
  62
6
  10
 4503.9738849714
  20
 4815.3665788295
  30
0.0
  11
 4503.9738849714
  21
 4939.9672167895
  31
0.0
   0
ARC
   5
17A
 100
AcDbEntity
   8
LEVEL001
 370
13
   6
CONTINUOUS
  62
6
 100
AcDbCircle
  10
 4483.9738849714
  20
 4815.3665788295
  30
0.0
  40
 20.000000000000
 100
AcDbArc
  50
 291.73846079140
  51
0.0
   0
ARC
   5
17B
 100
AcDbEntity
   8
LEVEL001
 370
13
   6
CONTINUOUS
  62
6
 100
AcDbCircle
  10
 4533.9738849712
  20
 4689.9672167895
  30
0.0
  40
 115.00000000000
 100
AcDbArc
  50
 111.73846079139
  51
 158.26153920835
   0
LINE
   5
17C
 100
AcDbEntity
   8
LEVEL001
 370
13
 100
AcDbLine
   6
CONTINUOUS
  62
6
  10
 4563.9738849714
  20
 4939.9672167895
  30
0.0
  11
 4563.9738849714
  21
 4815.3665788293
  31
0.0
   0
ARC
   5
17D
 100
AcDbEntity
   8
LEVEL001
 370
13
   6
CONTINUOUS
  62
6
 100
AcDbCircle
  10
 4583.9738849714
  20
 4815.3665788293
  30
0.0
  40
 20.000000000000
 100
AcDbArc
  50
 180.00000000000
  51
 248.26153920836
   0
LINE
   5
17E
 100
AcDbEntity
   8
LEVEL001
 370
13
 100
AcDbLine
   6
CONTINUOUS
  62
6
  10
 4659.3732470110
  20
 4719.9672167895
  30
0.0
  11
 4786.8618364508
  21
 4719.9672167895
  31
0.0
   0
ARC
   5
17F
 100
AcDbEntity
   8
LEVEL001
 370
13
   6
CONTINUOUS
  62
6
 100
AcDbCircle
  10
 4659.3732470110
  20
 4739.9672167895
  30
0.0
  40
 20.000000000000
 100
AcDbArc
  50
 201.73846079154
  51
 270.00000000000
   0
ARC
   5
180
 100
AcDbEntity
   8
LEVEL001
 370
13
   6
CONTINUOUS
  62
6
 100
AcDbCircle
  10
 4533.9738849712
  20
 4689.9672167895
  30
0.0
  40
 115.00000000000
 100
AcDbArc
  50
 21.738460791517
  51
 68.261539208359
   0
LINE
   5
181
 100
AcDbEntity
   8
LEVEL001
 370
13
 100
AcDbLine
   6
CONTINUOUS
  62
6
  10
 4786.8618364508
  20
 4659.9672167895
  30
0.0
  11
 4659.3732470110
  21
 4659.9672167895
  31
0.0
   0
ARC
   5
182
 100
AcDbEntity
   8
LEVEL001
 370
13
   6
CONTINUOUS
  62
6
 100
AcDbCircle
  10
 4659.3732470110
  20
 4639.9672167895
  30
0.0
  40
 20.000000000000
 100
AcDbArc
  50
 90.000000000000
  51
 158.26153920849
   0
LINE
   5
183
 100
AcDbEntity
   8
LEVEL001
 370
13
 100
AcDbLine
   6
CONTINUOUS
  62
6
  10
 4563.9738849712
  20
 4564.5678547497
  30
0.0
  11
 4563.9738849712
  21
 4439.9672167897
  31
0.0
   0
ARC
   5
184
 100
AcDbEntity
   8
LEVEL001
 370
13
   6
CONTINUOUS
  62
6
 100
AcDbCircle
  10
 4583.9738849712
  20
 4564.5678547497
  30
0.0
  40
 20.000000000000
 100
AcDbArc
  50
 111.73846079153
  51
 180.00000000000
   0
ARC
   5
185
 100
AcDbEntity
   8
LEVEL001
 370
13
   6
CONTINUOUS
  62
6
 100
AcDbCircle
  10
 4533.9738849712
  20
 4689.9672167895
  30
0.0
  40
 115.00000000000
 100
AcDbArc
  50
 291.73846079151
  51
 338.26153920848
   0
LINE
   5
186
 100
AcDbEntity
   8
LEVEL001
 370
13
 100
AcDbLine
   6
CONTINUOUS
  62
6
  10
 4503.9738849712
  20
 4439.9672167897
  30
0.0
  11
 4503.9738849712
  21
 4564.5678547497
  31
0.0
   0
ARC
   5
187
 100
AcDbEntity
   8
LEVEL001
 370
13
   6
CONTINUOUS
  62
6
 100
AcDbCircle
  10
 4483.9738849712
  20
 4564.5678547497
  30
0.0
  40
 20.000000000000
 100
AcDbArc
  50
0.0
  51
 68.261539208509
   0
LINE
   5
188
 100
AcDbEntity
   8
LEVEL001
 370
13
 100
AcDbLine
   6
CONTINUOUS
  62
6
  10
 4408.5745229312
  20
 4659.9672167897
  30
0.0
  11
 4286.8618364508
  21
 4659.9672167897
  31
0.0
   0
ARC
   5
189
 100
AcDbEntity
   8
LEVEL001
 370
13
   6
CONTINUOUS
  62
6
 100
AcDbCircle
  10
 4408.5745229312
  20
 4639.9672167897
  30
0.0
  40
 20.000000000000
 100
AcDbArc
  50
 21.738460791452
  51
 90.000000000000
   0
ARC
   5
18A
 100
AcDbEntity
   8
LEVEL001
 370
13
   6
CONTINUOUS
  62
6
 100
AcDbCircle
  10
 4533.9738849712
  20
 4689.9672167895
  30
0.0
  40
 115.00000000000
 100
AcDbArc
  50
 201.73846079140
  51
 248.26153920848
   0
LINE
   5
18B
 100
AcDbEntity
   8
LEVEL001
 370
13
 100
AcDbLine
   6
CONTINUOUS
  62
7
  10
 4286.8618364508
  20
 4704.9672167897
  30
0.0
  11
 4408.5745229314
  21
 4704.9672167897
  31
0.0
   0
ARC
   5
18C
 100
AcDbEntity
   8
LEVEL001
 370
13
   6
CONTINUOUS
  62
7
 100
AcDbCircle
  10
 4408.5745229314
  20
 4739.9672167897
  30
0.0
  40
 35.000000000000
 100
AcDbArc
  50
 270.00000000000
  51
 338.26153920837
   0
LINE
   5
18D
 100
AcDbEntity
   8
LEVEL001
 370
13
 100
AcDbLine
   6
CONTINUOUS
  62
7
  10
 4408.5745229312
  20
 4674.9672167897
  30
0.0
  11
 4286.8618364508
  21
 4674.9672167897
  31
0.0
   0
ARC
   5
18E
 100
AcDbEntity
   8
LEVEL001
 370
13
   6
CONTINUOUS
  62
7
 100
AcDbCircle
  10
 4408.5745229312
  20
 4639.9672167897
  30
0.0
  40
 35.000000000000
 100
AcDbArc
  50
 21.738460791401
  51
 90.000000000000
   0
LINE
   5
18F
 100
AcDbEntity
   8
LEVEL001
 370
13
 100
AcDbLine
   6
CONTINUOUS
  62
7
  10
 4518.9738849712
  20
 4439.9672167897
  30
0.0
  11
 4518.9738849712
  21
 4564.5678547497
  31
0.0
   0
ARC
   5
190
 100
AcDbEntity
   8
LEVEL001
 370
13
   6
CONTINUOUS
  62
7
 100
AcDbCircle
  10
 4483.9738849712
  20
 4564.5678547497
  30
0.0
  40
 35.000000000000
 100
AcDbArc
  50
0.0
  51
 68.261539208480
   0
ARC
   5
191
 100
AcDbEntity
   8
LEVEL001
 370
13
   6
CONTINUOUS
  62
7
 100
AcDbCircle
  10
 4533.9738849712
  20
 4689.9672167895
  30
0.0
  40
 100.00000000000
 100
AcDbArc
  50
 201.73846079139
  51
 248.26153920848
   0
LINE
   5
192
 100
AcDbEntity
   8
LEVEL001
 370
13
 100
AcDbLine
   6
CONTINUOUS
  62
7
  10
 4548.9738849712
  20
 4564.5678547497
  30
0.0
  11
 4548.9738849712
  21
 4439.9672167897
  31
0.0
   0
ARC
   5
193
 100
AcDbEntity
   8
LEVEL001
 370
13
   6
CONTINUOUS
  62
7
 100
AcDbCircle
  10
 4583.9738849712
  20
 4564.5678547497
  30
0.0
  40
 35.000000000000
 100
AcDbArc
  50
 111.73846079154
  51
 180.00000000000
   0
LINE
   5
194
 100
AcDbEntity
   8
LEVEL001
 370
13
 100
AcDbLine
   6
CONTINUOUS
  62
7
  10
 4786.8618364508
  20
 4674.9672167895
  30
0.0
  11
 4659.3732470110
  21
 4674.9672167895
  31
0.0
   0
ARC
   5
195
 100
AcDbEntity
   8
LEVEL001
 370
13
   6
CONTINUOUS
  62
7
 100
AcDbCircle
  10
 4659.3732470110
  20
 4639.9672167895
  30
0.0
  40
 35.000000000000
 100
AcDbArc
  50
 90.000000000000
  51
 158.26153920850
   0
ARC
   5
196
 100
AcDbEntity
   8
LEVEL001
 370
13
   6
CONTINUOUS
  62
7
 100
AcDbCircle
  10
 4533.9738849712
  20
 4689.9672167895
  30
0.0
  40
 100.00000000000
 100
AcDbArc
  50
 291.73846079151
  51
 338.26153920847
   0
LINE
   5
197
 100
AcDbEntity
   8
LEVEL001
 370
13
 100
AcDbLine
   6
CONTINUOUS
  62
7
  10
 4659.3732470110
  20
 4704.9672167895
  30
0.0
  11
 4786.8618364508
  21
 4704.9672167895
  31
0.0
   0
ARC
   5
198
 100
AcDbEntity
   8
LEVEL001
 370
13
   6
CONTINUOUS
  62
7
 100
AcDbCircle
  10
 4659.3732470110
  20
 4739.9672167895
  30
0.0
  40
 35.000000000000
 100
AcDbArc
  50
 201.73846079152
  51
 270.00000000000
   0
LINE
   5
199
 100
AcDbEntity
   8
LEVEL001
 370
13
 100
AcDbLine
   6
CONTINUOUS
  62
7
  10
 4548.9738849714
  20
 4939.9672167895
  30
0.0
  11
 4548.9738849714
  21
 4815.3665788293
  31
0.0
   0
ARC
   5
19A
 100
AcDbEntity
   8
LEVEL001
 370
13
   6
CONTINUOUS
  62
7
 100
AcDbCircle
  10
 4583.9738849714
  20
 4815.3665788293
  30
0.0
  40
 35.000000000000
 100
AcDbArc
  50
 180.00000000000
  51
 248.26153920836
   0
ARC
   5
19B
 100
AcDbEntity
   8
LEVEL001
 370
13
   6
CONTINUOUS
  62
7
 100
AcDbCircle
  10
 4533.9738849712
  20
 4689.9672167895
  30
0.0
  40
 100.00000000000
 100
AcDbArc
  50
 21.738460791525
  51
 68.261539208355
   0
LINE
   5
19C
 100
AcDbEntity
   8
LEVEL001
 370
13
 100
AcDbLine
   6
CONTINUOUS
  62
7
  10
 4518.9738849714
  20
 4815.3665788295
  30
0.0
  11
 4518.9738849714
  21
 4939.9672167895
  31
0.0
   0
ARC
   5
19D
 100
AcDbEntity
   8
LEVEL001
 370
13
   6
CONTINUOUS
  62
7
 100
AcDbCircle
  10
 4483.9738849714
  20
 4815.3665788295
  30
0.0
  40
 35.000000000000
 100
AcDbArc
  50
 291.73846079138
  51
0.0
   0
ARC
   5
19E
 100
AcDbEntity
   8
LEVEL001
 370
13
   6
CONTINUOUS
  62
7
 100
AcDbCircle
  10
 4533.9738849712
  20
 4689.9672167895
  30
0.0
  40
 100.00000000000
 100
AcDbArc
  50
 111.73846079139
  51
 158.26153920835
   0
CIRCLE
   5
19F
 100
AcDbEntity
   8
LEVEL001
 370
13
 100
AcDbCircle
   6
CONTINUOUS
  62
7
  10
 4536.8618364508
  20
 4689.9672167895
  30
0.0
  40
 307.50000000000
   0
CIRCLE
   5
1A0
 100
AcDbEntity
   8
LEVEL001
 370
13
 100
AcDbCircle
   6
CONTINUOUS
  62
7
  10
 4536.8618364508
  20
 4689.9672167895
  30
0.0
  40
 312.50000000000
   0
CIRCLE
   5
1A1
 100
AcDbEntity
   8
LEVEL001
 370
13
 100
AcDbCircle
   6
CONTINUOUS
  62
7
  10
 4536.8618364508
  20
 4689.9672167895
  30
0.0
  40
 305.00000000000
   0
LINE
   5
1A2
 100
AcDbEntity
   8
LEVEL001
 370
13
 100
AcDbLine
   6
DASHDOT
  62
6
  10
 4483.9738849712
  20
 4754.9672167895
  30
0.0
  11
 4483.9738849712
  21
 4724.9672167895
  31
0.0
   0
LINE
   5
1A3
 100
AcDbEntity
   8
LEVEL001
 370
13
 100
AcDbLine
   6
DASHDOT
  62
6
  10
 4468.9738849712
  20
 4739.9672167895
  30
0.0
  11
 4498.9738849712
  21
 4739.9672167895
  31
0.0
   0
LINE
   5
1A4
 100
AcDbEntity
   8
LEVEL001
 370
13
 100
AcDbLine
   6
DASHDOT
  62
6
  10
 4583.9738849712
  20
 4754.9672167895
  30
0.0
  11
 4583.9738849712
  21
 4724.9672167895
  31
0.0
   0
LINE
   5
1A5
 100
AcDbEntity
   8
LEVEL001
 370
13
 100
AcDbLine
   6
DASHDOT
  62
6
  10
 4568.9738849712
  20
 4739.9672167895
  30
0.0
  11
 4598.9738849712
  21
 4739.9672167895
  31
0.0
   0
LINE
   5
1A6
 100
AcDbEntity
   8
LEVEL001
 370
13
 100
AcDbLine
   6
DASHDOT
  62
6
  10
 4583.9738849712
  20
 4654.9672167895
  30
0.0
  11
 4583.9738849712
  21
 4624.9672167895
  31
0.0
   0
LINE
   5
1A7
 100
AcDbEntity
   8
LEVEL001
 370
13
 100
AcDbLine
   6
DASHDOT
  62
6
  10
 4568.9738849712
  20
 4639.9672167895
  30
0.0
  11
 4598.9738849712
  21
 4639.9672167895
  31
0.0
   0
LINE
   5
1A8
 100
AcDbEntity
   8
LEVEL001
 370
13
 100
AcDbLine
   6
DASHDOT
  62
6
  10
 4483.9738849712
  20
 4654.9672167895
  30
0.0
  11
 4483.9738849712
  21
 4624.9672167895
  31
0.0
   0
LINE
   5
1A9
 100
AcDbEntity
   8
LEVEL001
 370
13
 100
AcDbLine
   6
DASHDOT
  62
6
  10
 4468.9738849712
  20
 4639.9672167895
  30
0.0
  11
 4498.9738849712
  21
 4639.9672167895
  31
0.0
   0
LINE
   5
1AA
 100
AcDbEntity
   8
LEVEL001
 370
13
 100
AcDbLine
   6
DASHDOT
  62
6
  10
 4533.9738849712
  20
 5064.9560962729
  30
0.0
  11
 4533.9738849712
  21
 4314.9783373061
  31
0.0
   0
LINE
   5
1AB
 100
AcDbEntity
   8
LEVEL001
 370
13
 100
AcDbLine
   6
DASHDOT
  62
6
  10
 4161.8618364508
  20
 4689.9672167895
  30
0.0
  11
 4911.8618364508
  21
 4689.9672167895
  31
0.0
   0
CIRCLE
   5
1AC
 100
AcDbEntity
   8
LEVEL001
 370
13
 100
AcDbCircle
   6
CONTINUOUS
  62
3
  10
 4483.9738849712
  20
 4739.9672167895
  30
0.0
  40
 7.0000000000000
   0
CIRCLE
   5
1AD
 100
AcDbEntity
   8
LEVEL001
 370
13
 100
AcDbCircle
   6
CONTINUOUS
  62
3
  10
 4483.9738849712
  20
 4639.9672167895
  30
0.0
  40
 7.0000000000000
   0
CIRCLE
   5
1AE
 100
AcDbEntity
   8
LEVEL001
 370
13
 100
AcDbCircle
   6
CONTINUOUS
  62
3
  10
 4583.9738849712
  20
 4639.9672167895
  30
0.0
  40
 7.0000000000000
   0
CIRCLE
   5
1AF
 100
AcDbEntity
   8
LEVEL001
 370
13
 100
AcDbCircle
   6
CONTINUOUS
  62
3
  10
 4583.9738849712
  20
 4739.9672167895
  30
0.0
  40
 7.0000000000000
   0
CIRCLE
   5
1B0
 100
AcDbEntity
   8
LEVEL001
 370
13
 100
AcDbCircle
   6
CONTINUOUS
  62
1
  10
 2333.9738849712
  20
 5139.9672167895
  30
0.0
  40
 69.999997913838
   0
MTEXT
   5
1B1
 100
AcDbEntity
   8
LEVEL001
 370
13
  62
1
 100
AcDbMText
  10
 2333.9738849712
  20
 5139.9672167895
  30
0.0
  40
 57.142857142858
  41
0.0
  71
5
  72
1
   1
\T1.000000;3
   7
GMM001
  44
 0.79999984000003
   0
CIRCLE
   5
1B2
 100
AcDbEntity
   8
LEVEL001
 370
13
 100
AcDbCircle
   6
CONTINUOUS
  62
1
  10
 2333.9738849712
  20
 4239.9672167895
  30
0.0
  40
 69.999997913838
   0
MTEXT
   5
1B3
 100
AcDbEntity
   8
LEVEL001
 370
13
  62
1
 100
AcDbMText
  10
 2333.9738849712
  20
 4239.9672167895
  30
0.0
  40
 57.142857142858
  41
0.0
  71
5
  72
1
   1
\T1.000000;1
   7
GMM001
  44
 0.79999984000003
   0
CIRCLE
   5
1B4
 100
AcDbEntity
   8
LEVEL001
 370
13
 100
AcDbCircle
   6
CONTINUOUS
  62
1
  10
 2133.9738849712
  20
 4239.9672167895
  30
0.0
  40
 69.999997913838
   0
MTEXT
   5
1B5
 100
AcDbEntity
   8
LEVEL001
 370
13
  62
1
 100
AcDbMText
  10
 2133.9738849712
  20
 4239.9672167895
  30
0.0
  40
 57.142857142858
  41
0.0
  71
5
  72
1
   1
\T1.000000;4
   7
GMM001
  44
 0.79999984000003
   0
CIRCLE
   5
1B6
 100
AcDbEntity
   8
LEVEL001
 370
13
 100
AcDbCircle
   6
CONTINUOUS
  62
1
  10
 1783.9738849712
  20
 3857.4672167895
  30
0.0
  40
 70.000000000000
   0
MTEXT
   5
1B7
 100
AcDbEntity
   8
LEVEL001
 370
13
  62
1
 100
AcDbMText
  10
 1783.9738849712
  20
 3857.4672167895
  30
0.0
  40
 57.142857142858
  41
0.0
  71
5
  72
1
   1
\T1.000000;14
   7
GMM001
  44
 0.79999984000003
   0
CIRCLE
   5
1B8
 100
AcDbEntity
   8
LEVEL001
 370
13
 100
AcDbCircle
   6
CONTINUOUS
  62
1
  10
 4133.9738849712
  20
 4389.9672167895
  30
0.0
  40
 69.999997913838
   0
MTEXT
   5
1B9
 100
AcDbEntity
   8
LEVEL001
 370
13
  62
1
 100
AcDbMText
  10
 4133.9738849712
  20
 4389.9672167895
  30
0.0
  40
 57.142857142858
  41
0.0
  71
5
  72
1
   1
\T1.000000;2
   7
GMM001
  44
 0.79999984000003
   0
LEADER
   5
1BA
 100
AcDbEntity
   8
LEVEL001
 370
13
   6
CONTINUOUS
  62
1
 100
AcDbLeader
   3
GMM001
  73
3
  74
1
  75
0
  40
 60.000000000000
  41
0.0
  76
2
  10
 1623.9735778601
  20
 4017.4675239011
  30
0.0
  10
 1734.4764102884
  20
 3906.9646914729
  30
0.0
  77
1
   0
LEADER
   5
1BB
 100
AcDbEntity
   8
LEVEL001
 370
13
   6
CONTINUOUS
  62
1
 100
AcDbLeader
   3
GMM001
  73
3
  74
1
  75
0
  40
 60.000000000000
  41
0.0
  76
2
  10
 2083.9738849762
  20
 4489.9672167895
  30
0.0
  10
 2284.4764117658
  20
 4289.4646899999
  30
0.0
  77
1
   0
LEADER
   5
1BC
 100
AcDbEntity
   8
LEVEL001
 370
13
   6
CONTINUOUS
  62
1
 100
AcDbLeader
   3
GMM001
  73
3
  74
1
  75
0
  40
 60.000000000000
  41
0.0
  76
2
  10
 2008.1048092402
  20
 4365.8362925213
  30
0.0
  10
 2084.4764117636
  20
 4289.4646899979
  30
0.0
  77
1
   0
LEADER
   5
1BD
 100
AcDbEntity
   8
LEVEL001
 370
13
   6
CONTINUOUS
  62
1
 100
AcDbLeader
   3
GMM001
  73
3
  74
1
  75
0
  40
 60.000000000000
  41
0.0
  76
2
  10
 2044.2980669706
  20
 4981.2760303641
  30
0.0
  10
 2273.0288920516
  20
 5105.5331123873
  30
0.0
  77
1
   0
MTEXT
   5
1BF
 100
AcDbEntity
   8
LEVEL001
 370
13
  62
1
 100
AcDbMText
  10
 1154.6224901807
  20
 1866.1971538298
  30
0.0
  40
 40.000000000000
  41
0.0
  71
7
  72
1
   1
\T1.000000;ＧＬ
   7
GMM003
  44
 0.79999984000003
   0
LINE
   5
1C0
 100
AcDbEntity
   8
LEVEL001
 370
13
 100
AcDbLine
   6
CONTINUOUS
  62
1
  10
 1126.4738197359
  20
 1857.4672167895
  30
0.0
  11
 1101.4738197359
  21
 1907.4672167895
  31
0.0
   0
LINE
   5
1C1
 100
AcDbEntity
   8
LEVEL001
 370
13
 100
AcDbLine
   6
CONTINUOUS
  62
1
  10
 1101.4738197359
  20
 1907.4672167895
  30
0.0
  11
 1151.4738197359
  21
 1907.4672167895
  31
0.0
   0
LINE
   5
1C2
 100
AcDbEntity
   8
LEVEL001
 370
13
 100
AcDbLine
   6
CONTINUOUS
  62
1
  10
 1151.4738197359
  20
 1907.4672167895
  30
0.0
  11
 1126.4738197359
  21
 1857.4672167895
  31
0.0
   0
LEADER
   5
1C3
 100
AcDbEntity
   8
LEVEL001
 370
13
   6
CONTINUOUS
  62
1
 100
AcDbLeader
   3
GMM002
  73
3
  74
1
  75
0
  40
 66.000000000000
  41
0.0
  76
2
  10
 4283.1047070012
  20
 4578.1802809431
  30
0.0
  10
 4177.4429373378
  20
 4444.8347043781
  30
0.0
  77
1
   0
CIRCLE
   5
1C4
 100
AcDbEntity
   8
LEVEL001
 370
13
 100
AcDbCircle
   6
CONTINUOUS
  62
1
  10
 1783.9738849712
  20
 2657.4672167895
  30
0.0
  40
 70.000000000000
   0
MTEXT
   5
1C5
 100
AcDbEntity
   8
LEVEL001
 370
13
  62
1
 100
AcDbMText
  10
 1783.9738849712
  20
 2657.4672167895
  30
0.0
  40
 57.142857142858
  41
0.0
  71
5
  72
1
   1
\T1.000000;11
   7
GMM001
  44
 0.79999984000003
   0
LEADER
   5
1C6
 100
AcDbEntity
   8
LEVEL001
 370
13
   6
CONTINUOUS
  62
1
 100
AcDbLeader
   3
GMM001
  73
3
  74
1
  75
0
  40
 60.000000000000
  41
0.0
  76
2
  10
 1572.1238849712
  20
 2532.4672167895
  30
0.0
  10
 1723.6860956101
  20
 2621.8950021559
  30
0.0
  77
1
   0
MTEXT
   5
1C7
 100
AcDbEntity
   8
LEVEL001
 370
13
  62
1
 100
AcDbMText
  10
 1533.9738849712
  20
 5489.9672167895
  30
0.0
  40
 57.142857142858
  41
0.0
  71
5
  72
1
   1
\T1.000000;正　面　図
   7
GMM001
  44
 0.79999984000003
   0
MTEXT
   5
1C8
 100
AcDbEntity
   8
LEVEL001
 370
13
  62
1
 100
AcDbMText
  10
 4533.9738849712
  20
 5489.9672167895
  30
0.0
  40
 57.142857142858
  41
0.0
  71
5
  72
1
   1
\T1.000000;背　面　図
   7
GMM001
  44
 0.79999984000003
   0
LINE
   5
1C9
 100
AcDbEntity
   8
LEVEL001
 370
13
 100
AcDbLine
   6
CONTINUOUS
  62
6
  10
 3270.8789764026
  20
 4167.9672170697
  30
0.0
  11
 3270.8789764026
  21
 4158.9672170697
  31
0.0
   0
LINE
   5
1CA
 100
AcDbEntity
   8
LEVEL001
 370
13
 100
AcDbLine
   6
CONTINUOUS
  62
6
  10
 3270.8789764026
  20
 4143.9672170697
  30
0.0
  11
 3270.8789764026
  21
 4134.9672170697
  31
0.0
   0
LINE
   5
1CB
 100
AcDbEntity
   8
LEVEL001
 370
13
 100
AcDbLine
   6
CONTINUOUS
  62
7
  10
 3287.0509754030
  20
 4146.4672170697
  30
0.0
  11
 3277.0509754030
  21
 4146.4672170697
  31
0.0
   0
LINE
   5
1CC
 100
AcDbEntity
   8
LEVEL001
 370
13
 100
AcDbLine
   6
CONTINUOUS
  62
7
  10
 3277.0509754030
  20
 4146.4672170697
  30
0.0
  11
 3277.0509754030
  21
 4156.4672170697
  31
0.0
   0
LINE
   5
1CD
 100
AcDbEntity
   8
LEVEL001
 370
13
 100
AcDbLine
   6
CONTINUOUS
  62
7
  10
 3277.0509754030
  20
 4156.4672170697
  30
0.0
  11
 3287.0509754030
  21
 4156.4672170697
  31
0.0
   0
LINE
   5
1CE
 100
AcDbEntity
   8
LEVEL001
 370
13
 100
AcDbLine
   6
CONTINUOUS
  62
7
  10
 3287.0509754030
  20
 4156.4672170697
  30
0.0
  11
 3287.0509754030
  21
 4146.4672170697
  31
0.0
   0
LINE
   5
1CF
 100
AcDbEntity
   8
LEVEL001
 370
13
 100
AcDbLine
   6
CONTINUOUS
  62
6
  10
 3273.1975014438
  20
 4157.9672170697
  30
0.0
  11
 3273.1975014438
  21
 4144.9672170697
  31
0.0
   0
LINE
   5
1D0
 100
AcDbEntity
   8
LEVEL001
 370
13
 100
AcDbLine
   6
CONTINUOUS
  62
6
  10
 3197.4989100072
  20
 4156.9672170697
  30
0.0
  11
 3197.4989100072
  21
 4145.9672170697
  31
0.0
   0
LINE
   5
1D1
 100
AcDbEntity
   8
LEVEL001
 370
13
 100
AcDbLine
   6
CONTINUOUS
  62
6
  10
 3197.4989100072
  20
 4143.9672170697
  30
0.0
  11
 3197.4989100072
  21
 4134.9672170697
  31
0.0
   0
LINE
   5
1D2
 100
AcDbEntity
   8
LEVEL001
 370
13
 100
AcDbLine
   6
CONTINUOUS
  62
6
  10
 3197.4989100072
  20
 4167.9672170697
  30
0.0
  11
 3197.4989100072
  21
 4158.9672170697
  31
0.0
   0
LINE
   5
1D3
 100
AcDbEntity
   8
LEVEL001
 370
13
 100
AcDbLine
   6
CONTINUOUS
  62
6
  10
 3270.8789764026
  20
 4144.9672170697
  30
0.0
  11
 3198.7598045768
  21
 4144.9672170697
  31
0.0
   0
LINE
   5
1D4
 100
AcDbEntity
   8
LEVEL001
 370
13
 100
AcDbLine
   6
CONTINUOUS
  62
6
  10
 3198.7598045768
  20
 4157.9672170697
  30
0.0
  11
 3270.8789764026
  21
 4157.9672170697
  31
0.0
   0
LINE
   5
1D5
 100
AcDbEntity
   8
LEVEL001
 370
13
 100
AcDbLine
   6
CONTINUOUS
  62
7
  10
 3182.1224987120
  20
 4257.4672167895
  30
0.0
  11
 3179.4085919486
  21
 4250.6824498807
  31
0.0
   0
ARC
   5
1D6
 100
AcDbEntity
   8
LEVEL001
 370
13
   6
CONTINUOUS
  62
7
 100
AcDbCircle
  10
 3184.0509754030
  20
 4248.8254964989
  30
0.0
  40
 5.0000000000000
 100
AcDbArc
  50
 158.19859051371
  51
 180.00000000000
   0
LINE
   5
1D7
 100
AcDbEntity
   8
LEVEL001
 370
13
 100
AcDbLine
   6
CONTINUOUS
  62
7
  10
 3179.0509754030
  20
 4248.8254964989
  30
0.0
  11
 3179.0509754030
  21
 3666.1089370785
  31
0.0
   0
LINE
   5
1D8
 100
AcDbEntity
   8
LEVEL001
 370
13
 100
AcDbLine
   6
CONTINUOUS
  62
6
  10
 3186.0509754030
  20
 4186.4672778277
  30
0.0
  11
 3186.0509754030
  21
 4187.4672167887
  31
0.0
   0
ARC
   5
1D9
 100
AcDbEntity
   8
LEVEL001
 370
13
   6
CONTINUOUS
  62
7
 100
AcDbCircle
  10
 3178.0509754030
  20
 4241.6195703305
  30
0.0
  40
 5.0000000000000
 100
AcDbArc
  50
 0.16675266528351E-9
  51
 21.801409486445
   0
LINE
   5
1DA
 100
AcDbEntity
   8
LEVEL001
 370
13
 100
AcDbLine
   6
CONTINUOUS
  62
7
  10
 3180.8910880026
  20
 4247.9822008489
  30
0.0
  11
 3182.6933588574
  21
 4243.4765237121
  31
0.0
   0
ARC
   5
1DB
 100
AcDbEntity
   8
LEVEL001
 370
13
   6
CONTINUOUS
  62
7
 100
AcDbCircle
  10
 3185.5334714570
  20
 4249.8391542307
  30
0.0
  40
 5.0000000000000
 100
AcDbArc
  50
 158.19859051356
  51
 201.80140948644
   0
LINE
   5
1DC
 100
AcDbEntity
   8
LEVEL001
 370
13
 100
AcDbLine
   6
CONTINUOUS
  62
7
  10
 3182.1224987120
  20
 4257.4672167895
  30
0.0
  11
 3183.0509754030
  21
 4257.0958261131
  31
0.0
   0
LINE
   5
1DD
 100
AcDbEntity
   8
LEVEL001
 370
13
 100
AcDbLine
   6
CONTINUOUS
  62
7
  10
 3183.0509754030
  20
 4257.0958261131
  30
0.0
  11
 3180.8910880026
  21
 4251.6961076125
  31
0.0
   0
LINE
   5
1DE
 100
AcDbEntity
   8
LEVEL001
 370
13
 100
AcDbLine
   6
CONTINUOUS
  62
7
  10
 3183.0509754030
  20
 4241.6195703305
  30
0.0
  11
 3183.0509754030
  21
 3673.3148632469
  31
0.0
   0
LINE
   5
1DF
 100
AcDbEntity
   8
LEVEL001
 370
13
 100
AcDbLine
   6
CONTINUOUS
  62
7
  10
 3186.0509754030
  20
 4187.4672167887
  30
0.0
  11
 3183.0509754030
  21
 4187.4672167887
  31
0.0
   0
LINE
   5
1E0
 100
AcDbEntity
   8
LEVEL001
 370
13
 100
AcDbLine
   6
CONTINUOUS
  62
6
  10
 3183.0509754030
  20
 4186.4672778277
  30
0.0
  11
 3186.0509754030
  21
 4186.4672778277
  31
0.0
   0
LINE
   5
1E1
 100
AcDbEntity
   8
LEVEL001
 370
13
 100
AcDbLine
   6
CONTINUOUS
  62
7
  10
 3186.5064541820
  20
 4172.4668506363
  30
0.0
  11
 3186.5069119460
  21
 4130.4669423529
  31
0.0
   0
ELLIPSE
   5
1E2
 100
AcDbEntity
   8
LEVEL001
 370
13
   6
CONTINUOUS
  62
7
 100
AcDbEllipse
  10
 3182.5064516322
  20
 4172.4669725875
  30
0.0
  11
-4.0000025516047
  21
0.0
  31
0.0
  40
 0.99999938800000
  41
 3.1415621657857
  42
-1.7073511820429
   0
LINE
   5
1E3
 100
AcDbEntity
   8
LEVEL001
 370
13
 100
AcDbLine
   6
CONTINUOUS
  62
7
  10
 3186.5064814260
  20
 4169.9672170697
  30
0.0
  11
 3292.0509754030
  21
 4169.9672170697
  31
0.0
   0
LINE
   5
1E4
 100
AcDbEntity
   8
LEVEL001
 370
13
 100
AcDbLine
   6
CONTINUOUS
  62
7
  10
 3292.0509754030
  20
 4169.9672170697
  30
0.0
  11
 3292.0509754030
  21
 4132.9672170697
  31
0.0
   0
LINE
   5
1E5
 100
AcDbEntity
   8
LEVEL001
 370
13
 100
AcDbLine
   6
CONTINUOUS
  62
7
  10
 3292.0509754030
  20
 4132.9672170697
  30
0.0
  11
 3186.5068846950
  21
 4132.9672170697
  31
0.0
   0
LINE
   5
1E6
 100
AcDbEntity
   8
LEVEL001
 370
13
 100
AcDbLine
   6
CONTINUOUS
  62
7
  10
 3183.0509754030
  20
 4132.9672170697
  30
0.0
  11
 3183.0509754030
  21
 4169.9672170697
  31
0.0
   0
LINE
   5
1E7
 100
AcDbEntity
   8
LEVEL001
 370
13
 100
AcDbLine
   6
CONTINUOUS
  62
7
  10
 3195.8238849712
  20
 4132.9672170697
  30
0.0
  11
 3195.8238849712
  21
 3781.9672167887
  31
0.0
   0
LINE
   5
1E8
 100
AcDbEntity
   8
LEVEL001
 370
13
 100
AcDbLine
   6
CONTINUOUS
  62
7
  10
 3272.1238849712
  20
 3781.9672167887
  30
0.0
  11
 3272.1238849712
  21
 4132.9672170697
  31
0.0
   0
LINE
   5
1E9
 100
AcDbEntity
   8
LEVEL001
 370
13
 100
AcDbLine
   6
CONTINUOUS
  62
6
  10
 3269.3287862928
  20
 4732.4049541103
  30
0.0
  11
 3269.3287862928
  21
 4774.9672167895
  31
0.0
   0
LINE
   5
1EA
 100
AcDbEntity
   8
LEVEL001
 370
13
 100
AcDbLine
   6
CONTINUOUS
  62
6
  10
 3269.3287862928
  20
 4674.9672167895
  30
0.0
  11
 3269.3287862928
  21
 4717.5294794687
  31
0.0
   0
LINE
   5
1EB
 100
AcDbEntity
   8
LEVEL001
 370
13
 100
AcDbLine
   6
CONTINUOUS
  62
6
  10
 3198.6189836496
  20
 4622.4049541103
  30
0.0
  11
 3198.6189836496
  21
 4664.9672167895
  31
0.0
   0
LINE
   5
1EC
 100
AcDbEntity
   8
LEVEL001
 370
13
 100
AcDbLine
   6
CONTINUOUS
  62
6
  10
 3198.6189836496
  20
 4564.9672167895
  30
0.0
  11
 3198.6189836496
  21
 4607.5294794687
  31
0.0
   0
LINE
   5
1ED
 100
AcDbEntity
   8
LEVEL001
 370
13
 100
AcDbLine
   6
CONTINUOUS
  62
7
  10
 3194.6224872832
  20
 4760.6917913731
  30
0.0
  11
 3194.6224872832
  21
 4689.9410871713
  31
0.0
   0
LINE
   5
1EE
 100
AcDbEntity
   8
LEVEL001
 370
13
 100
AcDbLine
   6
CONTINUOUS
  62
7
  10
 3194.6224872832
  20
 4689.9410871713
  30
0.0
  11
 2994.6224872832
  21
 4564.9672167895
  31
0.0
   0
LINE
   5
1EF
 100
AcDbEntity
   8
LEVEL001
 370
13
 100
AcDbLine
   6
CONTINUOUS
  62
7
  10
 2994.6224872832
  20
 4564.9672167895
  30
0.0
  11
 2994.6224872832
  21
 4635.7179209913
  31
0.0
   0
LINE
   5
1F0
 100
AcDbEntity
   8
LEVEL001
 370
13
 100
AcDbLine
   6
CONTINUOUS
  62
7
  10
 2994.6224872832
  20
 4635.7179209913
  30
0.0
  11
 3194.6224872832
  21
 4760.6917913731
  31
0.0
   0
LINE
   5
1F1
 100
AcDbEntity
   8
LEVEL001
 370
13
 100
AcDbLine
   6
CONTINUOUS
  62
7
  10
 3192.6238849712
  20
 4688.6922218399
  30
0.0
  11
 3192.6238849712
  21
 4669.9672167895
  31
0.0
   0
LINE
   5
1F2
 100
AcDbEntity
   8
LEVEL001
 370
13
 100
AcDbLine
   6
CONTINUOUS
  62
7
  10
 3192.6238849712
  20
 4669.9672167895
  30
0.0
  11
 3308.9738771972
  21
 4669.9672167895
  31
0.0
   0
LINE
   5
1F3
 100
AcDbEntity
   8
LEVEL001
 370
13
 100
AcDbLine
   6
CONTINUOUS
  62
7
  10
 3308.9738771972
  20
 4669.9672167895
  30
0.0
  11
 3308.9738771972
  21
 4779.9672167895
  31
0.0
   0
LINE
   5
1F4
 100
AcDbEntity
   8
LEVEL001
 370
13
 100
AcDbLine
   6
CONTINUOUS
  62
7
  10
 3308.9738771972
  20
 4779.9672167895
  30
0.0
  11
 3192.6238849712
  21
 4779.9672167895
  31
0.0
   0
LINE
   5
1F5
 100
AcDbEntity
   8
LEVEL001
 370
13
 100
AcDbLine
   6
CONTINUOUS
  62
7
  10
 3192.6238849712
  20
 4779.9672167895
  30
0.0
  11
 3192.6238849712
  21
 4759.4429260417
  31
0.0
   0
LINE
   5
1F6
 100
AcDbEntity
   8
LEVEL001
 370
13
 100
AcDbLine
   6
CONTINUOUS
  62
7
  10
 3473.3252826592
  20
 4634.9672167895
  30
0.0
  11
 3273.3252826592
  21
 4634.9672167895
  31
0.0
   0
LINE
   5
1F7
 100
AcDbEntity
   8
LEVEL001
 370
13
 100
AcDbLine
   6
CONTINUOUS
  62
7
  10
 3273.3252826592
  20
 4634.9672167895
  30
0.0
  11
 3273.3252826592
  21
 4574.9672167895
  31
0.0
   0
LINE
   5
1F8
 100
AcDbEntity
   8
LEVEL001
 370
13
 100
AcDbLine
   6
CONTINUOUS
  62
7
  10
 3273.3252826592
  20
 4574.9672167895
  30
0.0
  11
 3473.3252826592
  21
 4574.9672167895
  31
0.0
   0
LINE
   5
1F9
 100
AcDbEntity
   8
LEVEL001
 370
13
 100
AcDbLine
   6
CONTINUOUS
  62
7
  10
 3473.3252826592
  20
 4574.9672167895
  30
0.0
  11
 3473.3252826592
  21
 4634.9672167895
  31
0.0
   0
LINE
   5
1FA
 100
AcDbEntity
   8
LEVEL001
 370
13
 100
AcDbLine
   6
CONTINUOUS
  62
7
  10
 3275.3238849712
  20
 4574.9672167895
  30
0.0
  11
 3275.3238849712
  21
 4559.9672167895
  31
0.0
   0
LINE
   5
1FB
 100
AcDbEntity
   8
LEVEL001
 370
13
 100
AcDbLine
   6
CONTINUOUS
  62
7
  10
 3275.3238849712
  20
 4559.9672167895
  30
0.0
  11
 3158.9738927452
  21
 4559.9672167895
  31
0.0
   0
LINE
   5
1FC
 100
AcDbEntity
   8
LEVEL001
 370
13
 100
AcDbLine
   6
CONTINUOUS
  62
7
  10
 3158.9738927452
  20
 4559.9672167895
  30
0.0
  11
 3158.9738927452
  21
 4669.9672167895
  31
0.0
   0
LINE
   5
1FD
 100
AcDbEntity
   8
LEVEL001
 370
13
 100
AcDbLine
   6
CONTINUOUS
  62
7
  10
 3158.9738927452
  20
 4669.9672167895
  30
0.0
  11
 3275.3238849712
  21
 4669.9672167895
  31
0.0
   0
LINE
   5
1FE
 100
AcDbEntity
   8
LEVEL001
 370
13
 100
AcDbLine
   6
CONTINUOUS
  62
7
  10
 3275.3238849712
  20
 4669.9672167895
  30
0.0
  11
 3275.3238849712
  21
 4634.9672167895
  31
0.0
   0
LINE
   5
1FF
 100
AcDbEntity
   8
LEVEL001
 370
13
 100
AcDbLine
   6
DASHDOT
  62
6
  10
 3509.2993358086
  20
 4779.9672167895
  30
0.0
  11
 3509.2993358086
  21
 4539.9672167895
  31
0.0
   0
LINE
   5
200
 100
AcDbEntity
   8
LEVEL001
 370
13
 100
AcDbLine
   6
CONTINUOUS
  62
7
  10
 3471.1493358086
  20
 4574.9672167895
  30
0.0
  11
 3471.1493358086
  21
 4559.9672167895
  31
0.0
   0
LINE
   5
201
 100
AcDbEntity
   8
LEVEL001
 370
13
 100
AcDbLine
   6
CONTINUOUS
  62
7
  10
 3471.1493358086
  20
 4559.9672167895
  30
0.0
  11
 3547.4493358086
  21
 4559.9672167895
  31
0.0
   0
LINE
   5
202
 100
AcDbEntity
   8
LEVEL001
 370
13
 100
AcDbLine
   6
CONTINUOUS
  62
7
  10
 3547.4493358086
  20
 4559.9672167895
  30
0.0
  11
 3547.4493358086
  21
 4634.9672167895
  31
0.0
   0
LINE
   5
203
 100
AcDbEntity
   8
LEVEL001
 370
13
 100
AcDbLine
   6
CONTINUOUS
  62
7
  10
 3547.4493358086
  20
 4744.9672167895
  30
0.0
  11
 3547.4493358086
  21
 4759.9672167895
  31
0.0
   0
LINE
   5
204
 100
AcDbEntity
   8
LEVEL001
 370
13
 100
AcDbLine
   6
CONTINUOUS
  62
7
  10
 3547.4493358086
  20
 4759.9672167895
  30
0.0
  11
 3471.1493358086
  21
 4759.9672167895
  31
0.0
   0
LINE
   5
205
 100
AcDbEntity
   8
LEVEL001
 370
13
 100
AcDbLine
   6
CONTINUOUS
  62
7
  10
 3471.1493358086
  20
 4759.9672167895
  30
0.0
  11
 3471.1493358086
  21
 4744.9672167895
  31
0.0
   0
LINE
   5
206
 100
AcDbEntity
   8
LEVEL001
 370
13
 100
AcDbLine
   6
DASHDOT
  62
6
  10
 2958.6484341338
  20
 4779.9672167895
  30
0.0
  11
 2958.6484341338
  21
 4539.9672167895
  31
0.0
   0
LINE
   5
207
 100
AcDbEntity
   8
LEVEL001
 370
13
 100
AcDbLine
   6
CONTINUOUS
  62
7
  10
 2996.7984341338
  20
 4637.0776034895
  30
0.0
  11
 2996.7984341338
  21
 4636.9667863227
  31
0.0
   0
LINE
   5
208
 100
AcDbEntity
   8
LEVEL001
 370
13
 100
AcDbLine
   6
CONTINUOUS
  62
7
  10
 2996.7984341338
  20
 4566.2160821209
  30
0.0
  11
 2996.7984341338
  21
 4559.9672167895
  31
0.0
   0
LINE
   5
209
 100
AcDbEntity
   8
LEVEL001
 370
13
 100
AcDbLine
   6
CONTINUOUS
  62
7
  10
 2996.7984341338
  20
 4559.9672167895
  30
0.0
  11
 2920.4984341338
  21
 4559.9672167895
  31
0.0
   0
LINE
   5
20A
 100
AcDbEntity
   8
LEVEL001
 370
13
 100
AcDbLine
   6
CONTINUOUS
  62
7
  10
 2920.4984341338
  20
 4559.9672167895
  30
0.0
  11
 2920.4984341338
  21
 4634.9672167895
  31
0.0
   0
LINE
   5
20B
 100
AcDbEntity
   8
LEVEL001
 370
13
 100
AcDbLine
   6
CONTINUOUS
  62
7
  10
 2920.4984341338
  20
 4744.9672167895
  30
0.0
  11
 2920.4984341338
  21
 4759.9672167895
  31
0.0
   0
LINE
   5
20C
 100
AcDbEntity
   8
LEVEL001
 370
13
 100
AcDbLine
   6
CONTINUOUS
  62
7
  10
 2920.4984341338
  20
 4759.9672167895
  30
0.0
  11
 2996.7984341338
  21
 4759.9672167895
  31
0.0
   0
LINE
   5
20D
 100
AcDbEntity
   8
LEVEL001
 370
13
 100
AcDbLine
   6
CONTINUOUS
  62
7
  10
 2996.7984341338
  20
 4759.9672167895
  30
0.0
  11
 2996.7984341338
  21
 4744.9672167895
  31
0.0
   0
LINE
   5
20E
 100
AcDbEntity
   8
LEVEL001
 370
13
 100
AcDbLine
   6
CONTINUOUS
  62
6
  10
 2995.2598407902
  20
 4739.9672167895
  30
0.0
  11
 2995.2598407902
  21
 4639.9672167895
  31
0.0
   0
LINE
   5
20F
 100
AcDbEntity
   8
LEVEL001
 370
13
 100
AcDbLine
   6
CONTINUOUS
  62
7
  10
 3195.8238849712
  20
 4559.9672167895
  30
0.0
  11
 3195.8238849712
  21
 4169.9672170697
  31
0.0
   0
LINE
   5
210
 100
AcDbEntity
   8
LEVEL001
 370
13
 100
AcDbLine
   6
CONTINUOUS
  62
7
  10
 3272.1238849712
  20
 4169.9672170697
  30
0.0
  11
 3272.1238849712
  21
 4559.9672167895
  31
0.0
   0
LINE
   5
211
 100
AcDbEntity
   8
LEVEL001
 370
13
 100
AcDbLine
   6
DASHDOT
  62
6
  10
 2999.8318312364
  20
 4719.9672167895
  30
0.0
  11
 3029.8318312364
  21
 4719.9672167895
  31
0.0
   0
LINE
   5
212
 100
AcDbEntity
   8
LEVEL001
 370
13
 100
AcDbLine
   6
DASHDOT
  62
6
  10
 3014.8318312364
  20
 4734.9672167895
  30
0.0
  11
 3014.8318312364
  21
 4704.9672167895
  31
0.0
   0
LINE
   5
213
 100
AcDbEntity
   8
LEVEL001
 370
13
 100
AcDbLine
   6
DASHDOT
  62
6
  10
 2999.8318312364
  20
 4659.9672167895
  30
0.0
  11
 3029.8318312364
  21
 4659.9672167895
  31
0.0
   0
LINE
   5
214
 100
AcDbEntity
   8
LEVEL001
 370
13
 100
AcDbLine
   6
DASHDOT
  62
6
  10
 3014.8318312364
  20
 4674.9672167895
  30
0.0
  11
 3014.8318312364
  21
 4644.9672167895
  31
0.0
   0
LINE
   5
215
 100
AcDbEntity
   8
LEVEL001
 370
13
 100
AcDbLine
   6
DASHDOT
  62
6
  10
 3273.9738771972
  20
 4754.9672167895
  30
0.0
  11
 3303.9738771972
  21
 4754.9672167895
  31
0.0
   0
LINE
   5
216
 100
AcDbEntity
   8
LEVEL001
 370
13
 100
AcDbLine
   6
DASHDOT
  62
6
  10
 3288.9738771972
  20
 4769.9672167895
  30
0.0
  11
 3288.9738771972
  21
 4739.9672167895
  31
0.0
   0
LINE
   5
217
 100
AcDbEntity
   8
LEVEL001
 370
13
 100
AcDbLine
   6
DASHDOT
  62
6
  10
 3273.9738771972
  20
 4694.9672167895
  30
0.0
  11
 3303.9738771972
  21
 4694.9672167895
  31
0.0
   0
LINE
   5
218
 100
AcDbEntity
   8
LEVEL001
 370
13
 100
AcDbLine
   6
DASHDOT
  62
6
  10
 3288.9738771972
  20
 4709.9672167895
  30
0.0
  11
 3288.9738771972
  21
 4679.9672167895
  31
0.0
   0
LINE
   5
219
 100
AcDbEntity
   8
LEVEL001
 370
13
 100
AcDbLine
   6
DASHDOT
  62
6
  10
 3163.9738927452
  20
 4644.9672167895
  30
0.0
  11
 3193.9738927452
  21
 4644.9672167895
  31
0.0
   0
LINE
   5
21A
 100
AcDbEntity
   8
LEVEL001
 370
13
 100
AcDbLine
   6
DASHDOT
  62
6
  10
 3178.9738927452
  20
 4659.9672167895
  30
0.0
  11
 3178.9738927452
  21
 4629.9672167895
  31
0.0
   0
LINE
   5
21B
 100
AcDbEntity
   8
LEVEL001
 370
13
 100
AcDbLine
   6
DASHDOT
  62
6
  10
 3163.9738927452
  20
 4584.9672167895
  30
0.0
  11
 3193.9738927452
  21
 4584.9672167895
  31
0.0
   0
LINE
   5
21C
 100
AcDbEntity
   8
LEVEL001
 370
13
 100
AcDbLine
   6
DASHDOT
  62
6
  10
 3178.9738927452
  20
 4599.9672167895
  30
0.0
  11
 3178.9738927452
  21
 4569.9672167895
  31
0.0
   0
LINE
   5
21D
 100
AcDbEntity
   8
LEVEL001
 370
13
 100
AcDbLine
   6
CONTINUOUS
  62
7
  10
 2920.8650713930
  20
 4634.9672167895
  30
0.0
  11
 3034.8318312364
  21
 4634.9672167895
  31
0.0
   0
LINE
   5
21E
 100
AcDbEntity
   8
LEVEL001
 370
13
 100
AcDbLine
   6
CONTINUOUS
  62
7
  10
 3034.8318312364
  20
 4634.9672167895
  30
0.0
  11
 3034.8318312364
  21
 4744.9672167895
  31
0.0
   0
LINE
   5
21F
 100
AcDbEntity
   8
LEVEL001
 370
13
 100
AcDbLine
   6
CONTINUOUS
  62
7
  10
 3034.8318312364
  20
 4744.9672167895
  30
0.0
  11
 2920.8650713930
  21
 4744.9672167895
  31
0.0
   0
LINE
   5
220
 100
AcDbEntity
   8
LEVEL001
 370
13
 100
AcDbLine
   6
DASHDOT
  62
6
  10
 3059.8318312364
  20
 4689.9672167895
  30
0.0
  11
 2658.0930032356
  21
 4689.9672167895
  31
0.0
   0
ARC
   5
221
 100
AcDbEntity
   8
LEVEL001
 370
13
   6
CONTINUOUS
  62
7
 100
AcDbCircle
  10
 2770.1650713930
  20
 4359.9672167895
  30
0.0
  40
 2.5000000000000
 100
AcDbArc
  50
 180.00000000000
  51
 270.00000000000
   0
LINE
   5
222
 100
AcDbEntity
   8
LEVEL001
 370
13
 100
AcDbLine
   6
CONTINUOUS
  62
7
  10
 2767.6650713930
  20
 5019.9672167895
  30
0.0
  11
 2767.6650713930
  21
 4359.9672167895
  31
0.0
   0
ARC
   5
223
 100
AcDbEntity
   8
LEVEL001
 370
13
   6
CONTINUOUS
  62
7
 100
AcDbCircle
  10
 2770.1650713930
  20
 5019.9672167895
  30
0.0
  40
 2.5000000000000
 100
AcDbArc
  50
 90.000000000000
  51
 180.00000000000
   0
ARC
   5
224
 100
AcDbEntity
   8
LEVEL001
 370
13
   6
CONTINUOUS
  62
7
 100
AcDbCircle
  10
 2770.1650713930
  20
 4359.9672167895
  30
0.0
  40
 2.5000000000000
 100
AcDbArc
  50
 270.00000000000
  51
0.0
   0
LINE
   5
225
 100
AcDbEntity
   8
LEVEL001
 370
13
 100
AcDbLine
   6
CONTINUOUS
  62
7
  10
 2772.6650713930
  20
 4359.9672167895
  30
0.0
  11
 2772.6650713930
  21
 5019.9672167895
  31
0.0
   0
ARC
   5
226
 100
AcDbEntity
   8
LEVEL001
 370
13
   6
CONTINUOUS
  62
7
 100
AcDbCircle
  10
 2770.1650713930
  20
 5019.9672167895
  30
0.0
  40
 2.5000000000000
 100
AcDbArc
  50
0.0
  51
 90.000000000000
   0
LINE
   5
227
 100
AcDbEntity
   8
LEVEL001
 370
13
 100
AcDbLine
   6
CONTINUOUS
  62
7
  10
 2767.6650713930
  20
 4379.9672167895
  30
0.0
  11
 2748.2922584470
  21
 4383.8417793787
  31
0.0
   0
ARC
   5
228
 100
AcDbEntity
   8
LEVEL001
 370
13
   6
CONTINUOUS
  62
7
 100
AcDbCircle
  10
 2749.6650713930
  20
 4390.7058441085
  30
0.0
  40
 7.0000000000000
 100
AcDbArc
  50
 180.00000000000
  51
 258.69006752600
   0
LINE
   5
229
 100
AcDbEntity
   8
LEVEL001
 370
13
 100
AcDbLine
   6
CONTINUOUS
  62
3
  10
 2767.6650713930
  20
 4726.6000330867
  30
0.0
  11
 2747.6650713930
  21
 4726.6000330867
  31
0.0
   0
LINE
   5
22A
 100
AcDbEntity
   8
LEVEL001
 370
13
 100
AcDbLine
   6
CONTINUOUS
  62
3
  10
 2747.6650713930
  20
 4726.6000330867
  30
0.0
  11
 2692.6650713930
  21
 4821.8628275029
  31
0.0
   0
LINE
   5
22B
 100
AcDbEntity
   8
LEVEL001
 370
13
 100
AcDbLine
   6
CONTINUOUS
  62
3
  10
 2692.6650713930
  20
 4821.8628275029
  30
0.0
  11
 2692.6650713930
  21
 5001.4672167895
  31
0.0
   0
LINE
   5
22C
 100
AcDbEntity
   8
LEVEL001
 370
13
 100
AcDbLine
   6
CONTINUOUS
  62
3
  10
 2692.6650713930
  20
 5001.4672167895
  30
0.0
  11
 2767.6650713930
  21
 5001.4672167895
  31
0.0
   0
ARC
   5
22D
 100
AcDbEntity
   8
LEVEL001
 370
13
   6
CONTINUOUS
  62
7
 100
AcDbCircle
  10
 4922.1145431632
  20
 4689.9672167895
  30
0.0
  40
 2200.0000000000
 100
AcDbArc
  50
 177.95610305487
  51
 187.83747976308
   0
LINE
   5
22E
 100
AcDbEntity
   8
LEVEL001
 370
13
 100
AcDbLine
   6
CONTINUOUS
  62
7
  10
 2742.6650713930
  20
 4390.7058441085
  30
0.0
  11
 2742.6650713930
  21
 4735.2602871245
  31
0.0
   0
ARC
   5
22F
 100
AcDbEntity
   8
LEVEL001
 370
13
   6
HIDDEN
  62
6
 100
AcDbCircle
  10
 4922.1145431632
  20
 4689.9672167895
  30
0.0
  40
 2200.0000000000
 100
AcDbArc
  50
 172.16252023692
  51
 177.95610305487
   0
LINE
   5
230
 100
AcDbEntity
   8
LEVEL001
 370
13
 100
AcDbLine
   6
HIDDEN
  62
6
  10
 2742.6650713930
  20
 4735.2602871245
  30
0.0
  11
 2742.6650713930
  21
 4989.2285894705
  31
0.0
   0
ARC
   5
231
 100
AcDbEntity
   8
LEVEL001
 370
13
   6
HIDDEN
  62
6
 100
AcDbCircle
  10
 2749.6650713930
  20
 4989.2285894705
  30
0.0
  40
 7.0000000000000
 100
AcDbArc
  50
 101.30993247400
  51
 180.00000000000
   0
LINE
   5
232
 100
AcDbEntity
   8
LEVEL001
 370
13
 100
AcDbLine
   6
HIDDEN
  62
6
  10
 2748.2922584470
  20
 4996.0926542003
  30
0.0
  11
 2767.6650713930
  21
 4999.9672167895
  31
0.0
   0
LINE
   5
233
 100
AcDbEntity
   8
LEVEL001
 370
13
 100
AcDbLine
   6
DASHDOT
  62
6
  10
 2825.8650713930
  20
 4719.9672167895
  30
0.0
  11
 2855.8650713930
  21
 4719.9672167895
  31
0.0
   0
LINE
   5
234
 100
AcDbEntity
   8
LEVEL001
 370
13
 100
AcDbLine
   6
DASHDOT
  62
6
  10
 2840.8650713930
  20
 4734.9672167895
  30
0.0
  11
 2840.8650713930
  21
 4704.9672167895
  31
0.0
   0
LINE
   5
235
 100
AcDbEntity
   8
LEVEL001
 370
13
 100
AcDbLine
   6
DASHDOT
  62
6
  10
 2825.8650713930
  20
 4659.9672167895
  30
0.0
  11
 2855.8650713930
  21
 4659.9672167895
  31
0.0
   0
LINE
   5
236
 100
AcDbEntity
   8
LEVEL001
 370
13
 100
AcDbLine
   6
DASHDOT
  62
6
  10
 2840.8650713930
  20
 4674.9672167895
  30
0.0
  11
 2840.8650713930
  21
 4644.9672167895
  31
0.0
   0
LINE
   5
237
 100
AcDbEntity
   8
LEVEL001
 370
13
 100
AcDbLine
   6
CONTINUOUS
  62
7
  10
 2865.8650713930
  20
 4744.9672167895
  30
0.0
  11
 2920.8650713930
  21
 4744.9672167895
  31
0.0
   0
LINE
   5
238
 100
AcDbEntity
   8
LEVEL001
 370
13
 100
AcDbLine
   6
CONTINUOUS
  62
7
  10
 2920.8650713930
  20
 4744.9672167895
  30
0.0
  11
 2920.8650713930
  21
 4634.9672167895
  31
0.0
   0
LINE
   5
239
 100
AcDbEntity
   8
LEVEL001
 370
13
 100
AcDbLine
   6
CONTINUOUS
  62
7
  10
 2920.8650713930
  20
 4634.9672167895
  30
0.0
  11
 2865.8650713930
  21
 4634.9672167895
  31
0.0
   0
LINE
   5
23A
 100
AcDbEntity
   8
LEVEL001
 370
13
 100
AcDbLine
   6
CONTINUOUS
  62
7
  10
 2772.6650713930
  20
 4634.9672167895
  30
0.0
  11
 2865.8650713930
  21
 4634.9672167895
  31
0.0
   0
LINE
   5
23B
 100
AcDbEntity
   8
LEVEL001
 370
13
 100
AcDbLine
   6
CONTINUOUS
  62
7
  10
 2865.8650713930
  20
 4634.9672167895
  30
0.0
  11
 2865.8650713930
  21
 4744.9672167895
  31
0.0
   0
LINE
   5
23C
 100
AcDbEntity
   8
LEVEL001
 370
13
 100
AcDbLine
   6
CONTINUOUS
  62
7
  10
 2865.8650713930
  20
 4744.9672167895
  30
0.0
  11
 2772.6650713930
  21
 4744.9672167895
  31
0.0
   0
LINE
   5
23D
 100
AcDbEntity
   8
LEVEL001
 370
13
 100
AcDbLine
   6
CONTINUOUS
  62
3
  10
 2833.8650713930
  20
 4712.9672167895
  30
0.0
  11
 2847.8650713930
  21
 4712.9672167895
  31
0.0
   0
LINE
   5
23E
 100
AcDbEntity
   8
LEVEL001
 370
13
 100
AcDbLine
   6
CONTINUOUS
  62
3
  10
 2847.8650713930
  20
 4712.9672167895
  30
0.0
  11
 2847.8650713930
  21
 4726.9672167895
  31
0.0
   0
LINE
   5
23F
 100
AcDbEntity
   8
LEVEL001
 370
13
 100
AcDbLine
   6
CONTINUOUS
  62
3
  10
 2847.8650713930
  20
 4726.9672167895
  30
0.0
  11
 2833.8650713930
  21
 4726.9672167895
  31
0.0
   0
LINE
   5
240
 100
AcDbEntity
   8
LEVEL001
 370
13
 100
AcDbLine
   6
CONTINUOUS
  62
3
  10
 2833.8650713930
  20
 4726.9672167895
  30
0.0
  11
 2833.8650713930
  21
 4712.9672167895
  31
0.0
   0
LINE
   5
241
 100
AcDbEntity
   8
LEVEL001
 370
13
 100
AcDbLine
   6
CONTINUOUS
  62
3
  10
 2833.8650713930
  20
 4652.9672167895
  30
0.0
  11
 2847.8650713930
  21
 4652.9672167895
  31
0.0
   0
LINE
   5
242
 100
AcDbEntity
   8
LEVEL001
 370
13
 100
AcDbLine
   6
CONTINUOUS
  62
3
  10
 2847.8650713930
  20
 4652.9672167895
  30
0.0
  11
 2847.8650713930
  21
 4666.9672167895
  31
0.0
   0
LINE
   5
243
 100
AcDbEntity
   8
LEVEL001
 370
13
 100
AcDbLine
   6
CONTINUOUS
  62
3
  10
 2847.8650713930
  20
 4666.9672167895
  30
0.0
  11
 2833.8650713930
  21
 4666.9672167895
  31
0.0
   0
LINE
   5
244
 100
AcDbEntity
   8
LEVEL001
 370
13
 100
AcDbLine
   6
CONTINUOUS
  62
3
  10
 2833.8650713930
  20
 4666.9672167895
  30
0.0
  11
 2833.8650713930
  21
 4652.9672167895
  31
0.0
   0
LINE
   5
245
 100
AcDbEntity
   8
LEVEL001
 370
13
 100
AcDbLine
   6
CONTINUOUS
  62
3
  10
 3007.8318312364
  20
 4712.9672167895
  30
0.0
  11
 3021.8318312364
  21
 4712.9672167895
  31
0.0
   0
LINE
   5
246
 100
AcDbEntity
   8
LEVEL001
 370
13
 100
AcDbLine
   6
CONTINUOUS
  62
3
  10
 3021.8318312364
  20
 4712.9672167895
  30
0.0
  11
 3021.8318312364
  21
 4726.9672167895
  31
0.0
   0
LINE
   5
247
 100
AcDbEntity
   8
LEVEL001
 370
13
 100
AcDbLine
   6
CONTINUOUS
  62
3
  10
 3021.8318312364
  20
 4726.9672167895
  30
0.0
  11
 3007.8318312364
  21
 4726.9672167895
  31
0.0
   0
LINE
   5
248
 100
AcDbEntity
   8
LEVEL001
 370
13
 100
AcDbLine
   6
CONTINUOUS
  62
3
  10
 3007.8318312364
  20
 4726.9672167895
  30
0.0
  11
 3007.8318312364
  21
 4712.9672167895
  31
0.0
   0
LINE
   5
249
 100
AcDbEntity
   8
LEVEL001
 370
13
 100
AcDbLine
   6
CONTINUOUS
  62
3
  10
 3007.8318312364
  20
 4652.9672167895
  30
0.0
  11
 3021.8318312364
  21
 4652.9672167895
  31
0.0
   0
LINE
   5
24A
 100
AcDbEntity
   8
LEVEL001
 370
13
 100
AcDbLine
   6
CONTINUOUS
  62
3
  10
 3021.8318312364
  20
 4652.9672167895
  30
0.0
  11
 3021.8318312364
  21
 4666.9672167895
  31
0.0
   0
LINE
   5
24B
 100
AcDbEntity
   8
LEVEL001
 370
13
 100
AcDbLine
   6
CONTINUOUS
  62
3
  10
 3021.8318312364
  20
 4666.9672167895
  30
0.0
  11
 3007.8318312364
  21
 4666.9672167895
  31
0.0
   0
LINE
   5
24C
 100
AcDbEntity
   8
LEVEL001
 370
13
 100
AcDbLine
   6
CONTINUOUS
  62
3
  10
 3007.8318312364
  20
 4666.9672167895
  30
0.0
  11
 3007.8318312364
  21
 4652.9672167895
  31
0.0
   0
LINE
   5
24D
 100
AcDbEntity
   8
LEVEL001
 370
13
 100
AcDbLine
   6
CONTINUOUS
  62
3
  10
 3281.9738771972
  20
 4747.9672167895
  30
0.0
  11
 3295.9738771972
  21
 4747.9672167895
  31
0.0
   0
LINE
   5
24E
 100
AcDbEntity
   8
LEVEL001
 370
13
 100
AcDbLine
   6
CONTINUOUS
  62
3
  10
 3295.9738771972
  20
 4747.9672167895
  30
0.0
  11
 3295.9738771972
  21
 4761.9672167895
  31
0.0
   0
LINE
   5
24F
 100
AcDbEntity
   8
LEVEL001
 370
13
 100
AcDbLine
   6
CONTINUOUS
  62
3
  10
 3295.9738771972
  20
 4761.9672167895
  30
0.0
  11
 3281.9738771972
  21
 4761.9672167895
  31
0.0
   0
LINE
   5
250
 100
AcDbEntity
   8
LEVEL001
 370
13
 100
AcDbLine
   6
CONTINUOUS
  62
3
  10
 3281.9738771972
  20
 4761.9672167895
  30
0.0
  11
 3281.9738771972
  21
 4747.9672167895
  31
0.0
   0
LINE
   5
251
 100
AcDbEntity
   8
LEVEL001
 370
13
 100
AcDbLine
   6
CONTINUOUS
  62
3
  10
 3281.9738771972
  20
 4687.9672167895
  30
0.0
  11
 3295.9738771972
  21
 4687.9672167895
  31
0.0
   0
LINE
   5
252
 100
AcDbEntity
   8
LEVEL001
 370
13
 100
AcDbLine
   6
CONTINUOUS
  62
3
  10
 3295.9738771972
  20
 4687.9672167895
  30
0.0
  11
 3295.9738771972
  21
 4701.9672167895
  31
0.0
   0
LINE
   5
253
 100
AcDbEntity
   8
LEVEL001
 370
13
 100
AcDbLine
   6
CONTINUOUS
  62
3
  10
 3295.9738771972
  20
 4701.9672167895
  30
0.0
  11
 3281.9738771972
  21
 4701.9672167895
  31
0.0
   0
LINE
   5
254
 100
AcDbEntity
   8
LEVEL001
 370
13
 100
AcDbLine
   6
CONTINUOUS
  62
3
  10
 3281.9738771972
  20
 4701.9672167895
  30
0.0
  11
 3281.9738771972
  21
 4687.9672167895
  31
0.0
   0
LINE
   5
255
 100
AcDbEntity
   8
LEVEL001
 370
13
 100
AcDbLine
   6
CONTINUOUS
  62
3
  10
 3185.9738927452
  20
 4637.9672167895
  30
0.0
  11
 3171.9738927452
  21
 4637.9672167895
  31
0.0
   0
LINE
   5
256
 100
AcDbEntity
   8
LEVEL001
 370
13
 100
AcDbLine
   6
CONTINUOUS
  62
3
  10
 3171.9738927452
  20
 4637.9672167895
  30
0.0
  11
 3171.9738927452
  21
 4651.9672167895
  31
0.0
   0
LINE
   5
257
 100
AcDbEntity
   8
LEVEL001
 370
13
 100
AcDbLine
   6
CONTINUOUS
  62
3
  10
 3171.9738927452
  20
 4651.9672167895
  30
0.0
  11
 3185.9738927452
  21
 4651.9672167895
  31
0.0
   0
LINE
   5
258
 100
AcDbEntity
   8
LEVEL001
 370
13
 100
AcDbLine
   6
CONTINUOUS
  62
3
  10
 3185.9738927452
  20
 4651.9672167895
  30
0.0
  11
 3185.9738927452
  21
 4637.9672167895
  31
0.0
   0
LINE
   5
259
 100
AcDbEntity
   8
LEVEL001
 370
13
 100
AcDbLine
   6
CONTINUOUS
  62
3
  10
 3185.9738927452
  20
 4577.9672167895
  30
0.0
  11
 3171.9738927452
  21
 4577.9672167895
  31
0.0
   0
LINE
   5
25A
 100
AcDbEntity
   8
LEVEL001
 370
13
 100
AcDbLine
   6
CONTINUOUS
  62
3
  10
 3171.9738927452
  20
 4577.9672167895
  30
0.0
  11
 3171.9738927452
  21
 4591.9672167895
  31
0.0
   0
LINE
   5
25B
 100
AcDbEntity
   8
LEVEL001
 370
13
 100
AcDbLine
   6
CONTINUOUS
  62
3
  10
 3171.9738927452
  20
 4591.9672167895
  30
0.0
  11
 3185.9738927452
  21
 4591.9672167895
  31
0.0
   0
LINE
   5
25C
 100
AcDbEntity
   8
LEVEL001
 370
13
 100
AcDbLine
   6
CONTINUOUS
  62
3
  10
 3185.9738927452
  20
 4591.9672167895
  30
0.0
  11
 3185.9738927452
  21
 4577.9672167895
  31
0.0
   0
LINE
   5
25D
 100
AcDbEntity
   8
LEVEL001
 370
13
 100
AcDbLine
   6
CONTINUOUS
  62
7
  10
 3700.2826985494
  20
 5019.9672167895
  30
0.0
  11
 3700.2826985494
  21
 4359.9672167895
  31
0.0
   0
ARC
   5
25E
 100
AcDbEntity
   8
LEVEL001
 370
13
   6
CONTINUOUS
  62
7
 100
AcDbCircle
  10
 3697.7826985494
  20
 5019.9672167895
  30
0.0
  40
 2.5000000000000
 100
AcDbArc
  50
0.0
  51
 90.000000000000
   0
LINE
   5
25F
 100
AcDbEntity
   8
LEVEL001
 370
13
 100
AcDbLine
   6
CONTINUOUS
  62
7
  10
 3695.2826985494
  20
 4359.9672167895
  30
0.0
  11
 3695.2826985494
  21
 5019.9672167895
  31
0.0
   0
ARC
   5
260
 100
AcDbEntity
   8
LEVEL001
 370
13
   6
CONTINUOUS
  62
7
 100
AcDbCircle
  10
 3697.7826985494
  20
 5019.9672167895
  30
0.0
  40
 2.5000000000000
 100
AcDbArc
  50
 90.000000000000
  51
 180.00000000000
   0
LINE
   5
261
 100
AcDbEntity
   8
LEVEL001
 370
13
 100
AcDbLine
   6
CONTINUOUS
  62
3
  10
 3700.2826985494
  20
 4726.6000330867
  30
0.0
  11
 3720.2826985494
  21
 4726.6000330867
  31
0.0
   0
LINE
   5
262
 100
AcDbEntity
   8
LEVEL001
 370
13
 100
AcDbLine
   6
CONTINUOUS
  62
3
  10
 3720.2826985494
  20
 4726.6000330867
  30
0.0
  11
 3775.2826985494
  21
 4821.8628275029
  31
0.0
   0
LINE
   5
263
 100
AcDbEntity
   8
LEVEL001
 370
13
 100
AcDbLine
   6
CONTINUOUS
  62
3
  10
 3775.2826985494
  20
 4821.8628275029
  30
0.0
  11
 3775.2826985494
  21
 5001.4672167895
  31
0.0
   0
LINE
   5
264
 100
AcDbEntity
   8
LEVEL001
 370
13
 100
AcDbLine
   6
CONTINUOUS
  62
3
  10
 3775.2826985494
  20
 5001.4672167895
  30
0.0
  11
 3700.2826985494
  21
 5001.4672167895
  31
0.0
   0
ARC
   5
265
 100
AcDbEntity
   8
LEVEL001
 370
13
   6
HIDDEN
  62
6
 100
AcDbCircle
  10
 1545.8332267791
  20
 4689.9672167895
  30
0.0
  40
 2200.0000000000
 100
AcDbArc
  50
 2.0438969451263
  51
 7.8374797630847
   0
LINE
   5
266
 100
AcDbEntity
   8
LEVEL001
 370
13
 100
AcDbLine
   6
HIDDEN
  62
6
  10
 3725.2826985494
  20
 4735.2602871245
  30
0.0
  11
 3725.2826985494
  21
 4989.2285894705
  31
0.0
   0
ARC
   5
267
 100
AcDbEntity
   8
LEVEL001
 370
13
   6
HIDDEN
  62
6
 100
AcDbCircle
  10
 3718.2826985494
  20
 4989.2285894705
  30
0.0
  40
 7.0000000000000
 100
AcDbArc
  50
0.0
  51
 78.690067525886
   0
LINE
   5
268
 100
AcDbEntity
   8
LEVEL001
 370
13
 100
AcDbLine
   6
HIDDEN
  62
6
  10
 3719.6555114954
  20
 4996.0926542003
  30
0.0
  11
 3700.2826985494
  21
 4999.9672167895
  31
0.0
   0
ARC
   5
269
 100
AcDbEntity
   8
LEVEL001
 370
13
   6
CONTINUOUS
  62
7
 100
AcDbCircle
  10
 3697.7826985494
  20
 4359.9672167895
  30
0.0
  40
 2.5000000000000
 100
AcDbArc
  50
 270.00000000000
  51
0.0
   0
ARC
   5
26A
 100
AcDbEntity
   8
LEVEL001
 370
13
   6
CONTINUOUS
  62
7
 100
AcDbCircle
  10
 3697.7826985494
  20
 4359.9672167895
  30
0.0
  40
 2.5000000000000
 100
AcDbArc
  50
 180.00000000000
  51
 270.00000000000
   0
LINE
   5
26B
 100
AcDbEntity
   8
LEVEL001
 370
13
 100
AcDbLine
   6
CONTINUOUS
  62
7
  10
 3700.2826985494
  20
 4379.9672167895
  30
0.0
  11
 3719.6555114954
  21
 4383.8417793787
  31
0.0
   0
ARC
   5
26C
 100
AcDbEntity
   8
LEVEL001
 370
13
   6
CONTINUOUS
  62
7
 100
AcDbCircle
  10
 3718.2826985494
  20
 4390.7058441085
  30
0.0
  40
 7.0000000000000
 100
AcDbArc
  50
 281.30993247411
  51
0.0
   0
ARC
   5
26D
 100
AcDbEntity
   8
LEVEL001
 370
13
   6
CONTINUOUS
  62
7
 100
AcDbCircle
  10
 1545.8332267791
  20
 4689.9672167895
  30
0.0
  40
 2200.0000000000
 100
AcDbArc
  50
 352.16252023692
  51
 2.0438969451259
   0
LINE
   5
26E
 100
AcDbEntity
   8
LEVEL001
 370
13
 100
AcDbLine
   6
CONTINUOUS
  62
7
  10
 3725.2826985494
  20
 4390.7058441085
  30
0.0
  11
 3725.2826985494
  21
 4735.2602871245
  31
0.0
   0
LINE
   5
26F
 100
AcDbEntity
   8
LEVEL001
 370
13
 100
AcDbLine
   6
CONTINUOUS
  62
6
  10
 3472.6879291522
  20
 4739.9672167895
  30
0.0
  11
 3472.6879291522
  21
 4639.9672167895
  31
0.0
   0
LINE
   5
270
 100
AcDbEntity
   8
LEVEL001
 370
13
 100
AcDbLine
   6
DASHDOT
  62
6
  10
 3468.1159387060
  20
 4719.9672167895
  30
0.0
  11
 3438.1159387060
  21
 4719.9672167895
  31
0.0
   0
LINE
   5
271
 100
AcDbEntity
   8
LEVEL001
 370
13
 100
AcDbLine
   6
DASHDOT
  62
6
  10
 3453.1159387060
  20
 4734.9672167895
  30
0.0
  11
 3453.1159387060
  21
 4704.9672167895
  31
0.0
   0
LINE
   5
272
 100
AcDbEntity
   8
LEVEL001
 370
13
 100
AcDbLine
   6
DASHDOT
  62
6
  10
 3468.1159387060
  20
 4659.9672167895
  30
0.0
  11
 3438.1159387060
  21
 4659.9672167895
  31
0.0
   0
LINE
   5
273
 100
AcDbEntity
   8
LEVEL001
 370
13
 100
AcDbLine
   6
DASHDOT
  62
6
  10
 3453.1159387060
  20
 4674.9672167895
  30
0.0
  11
 3453.1159387060
  21
 4644.9672167895
  31
0.0
   0
LINE
   5
274
 100
AcDbEntity
   8
LEVEL001
 370
13
 100
AcDbLine
   6
DASHDOT
  62
6
  10
 3408.1159387060
  20
 4689.9672167895
  30
0.0
  11
 3809.8547667068
  21
 4689.9672167895
  31
0.0
   0
LINE
   5
275
 100
AcDbEntity
   8
LEVEL001
 370
13
 100
AcDbLine
   6
DASHDOT
  62
6
  10
 3642.0826985494
  20
 4719.9672167895
  30
0.0
  11
 3612.0826985494
  21
 4719.9672167895
  31
0.0
   0
LINE
   5
276
 100
AcDbEntity
   8
LEVEL001
 370
13
 100
AcDbLine
   6
DASHDOT
  62
6
  10
 3627.0826985494
  20
 4734.9672167895
  30
0.0
  11
 3627.0826985494
  21
 4704.9672167895
  31
0.0
   0
LINE
   5
277
 100
AcDbEntity
   8
LEVEL001
 370
13
 100
AcDbLine
   6
DASHDOT
  62
6
  10
 3642.0826985494
  20
 4659.9672167895
  30
0.0
  11
 3612.0826985494
  21
 4659.9672167895
  31
0.0
   0
LINE
   5
278
 100
AcDbEntity
   8
LEVEL001
 370
13
 100
AcDbLine
   6
DASHDOT
  62
6
  10
 3627.0826985494
  20
 4674.9672167895
  30
0.0
  11
 3627.0826985494
  21
 4644.9672167895
  31
0.0
   0
LINE
   5
279
 100
AcDbEntity
   8
LEVEL001
 370
13
 100
AcDbLine
   6
CONTINUOUS
  62
7
  10
 3602.0826985494
  20
 4744.9672167895
  30
0.0
  11
 3547.0826985494
  21
 4744.9672167895
  31
0.0
   0
LINE
   5
27A
 100
AcDbEntity
   8
LEVEL001
 370
13
 100
AcDbLine
   6
CONTINUOUS
  62
7
  10
 3547.0826985494
  20
 4744.9672167895
  30
0.0
  11
 3547.0826985494
  21
 4634.9672167895
  31
0.0
   0
LINE
   5
27B
 100
AcDbEntity
   8
LEVEL001
 370
13
 100
AcDbLine
   6
CONTINUOUS
  62
7
  10
 3547.0826985494
  20
 4634.9672167895
  30
0.0
  11
 3602.0826985494
  21
 4634.9672167895
  31
0.0
   0
LINE
   5
27C
 100
AcDbEntity
   8
LEVEL001
 370
13
 100
AcDbLine
   6
CONTINUOUS
  62
7
  10
 3695.2826985494
  20
 4634.9672167895
  30
0.0
  11
 3602.0826985494
  21
 4634.9672167895
  31
0.0
   0
LINE
   5
27D
 100
AcDbEntity
   8
LEVEL001
 370
13
 100
AcDbLine
   6
CONTINUOUS
  62
7
  10
 3602.0826985494
  20
 4634.9672167895
  30
0.0
  11
 3602.0826985494
  21
 4744.9672167895
  31
0.0
   0
LINE
   5
27E
 100
AcDbEntity
   8
LEVEL001
 370
13
 100
AcDbLine
   6
CONTINUOUS
  62
7
  10
 3602.0826985494
  20
 4744.9672167895
  30
0.0
  11
 3695.2826985494
  21
 4744.9672167895
  31
0.0
   0
LINE
   5
27F
 100
AcDbEntity
   8
LEVEL001
 370
13
 100
AcDbLine
   6
CONTINUOUS
  62
3
  10
 3634.0826985494
  20
 4712.9672167895
  30
0.0
  11
 3620.0826985494
  21
 4712.9672167895
  31
0.0
   0
LINE
   5
280
 100
AcDbEntity
   8
LEVEL001
 370
13
 100
AcDbLine
   6
CONTINUOUS
  62
3
  10
 3620.0826985494
  20
 4712.9672167895
  30
0.0
  11
 3620.0826985494
  21
 4726.9672167895
  31
0.0
   0
LINE
   5
281
 100
AcDbEntity
   8
LEVEL001
 370
13
 100
AcDbLine
   6
CONTINUOUS
  62
3
  10
 3620.0826985494
  20
 4726.9672167895
  30
0.0
  11
 3634.0826985494
  21
 4726.9672167895
  31
0.0
   0
LINE
   5
282
 100
AcDbEntity
   8
LEVEL001
 370
13
 100
AcDbLine
   6
CONTINUOUS
  62
3
  10
 3634.0826985494
  20
 4726.9672167895
  30
0.0
  11
 3634.0826985494
  21
 4712.9672167895
  31
0.0
   0
LINE
   5
283
 100
AcDbEntity
   8
LEVEL001
 370
13
 100
AcDbLine
   6
CONTINUOUS
  62
3
  10
 3634.0826985494
  20
 4652.9672167895
  30
0.0
  11
 3620.0826985494
  21
 4652.9672167895
  31
0.0
   0
LINE
   5
284
 100
AcDbEntity
   8
LEVEL001
 370
13
 100
AcDbLine
   6
CONTINUOUS
  62
3
  10
 3620.0826985494
  20
 4652.9672167895
  30
0.0
  11
 3620.0826985494
  21
 4666.9672167895
  31
0.0
   0
LINE
   5
285
 100
AcDbEntity
   8
LEVEL001
 370
13
 100
AcDbLine
   6
CONTINUOUS
  62
3
  10
 3620.0826985494
  20
 4666.9672167895
  30
0.0
  11
 3634.0826985494
  21
 4666.9672167895
  31
0.0
   0
LINE
   5
286
 100
AcDbEntity
   8
LEVEL001
 370
13
 100
AcDbLine
   6
CONTINUOUS
  62
3
  10
 3634.0826985494
  20
 4666.9672167895
  30
0.0
  11
 3634.0826985494
  21
 4652.9672167895
  31
0.0
   0
LINE
   5
287
 100
AcDbEntity
   8
LEVEL001
 370
13
 100
AcDbLine
   6
CONTINUOUS
  62
3
  10
 3460.1159387060
  20
 4712.9672167895
  30
0.0
  11
 3446.1159387060
  21
 4712.9672167895
  31
0.0
   0
LINE
   5
288
 100
AcDbEntity
   8
LEVEL001
 370
13
 100
AcDbLine
   6
CONTINUOUS
  62
3
  10
 3446.1159387060
  20
 4712.9672167895
  30
0.0
  11
 3446.1159387060
  21
 4726.9672167895
  31
0.0
   0
LINE
   5
289
 100
AcDbEntity
   8
LEVEL001
 370
13
 100
AcDbLine
   6
CONTINUOUS
  62
3
  10
 3446.1159387060
  20
 4726.9672167895
  30
0.0
  11
 3460.1159387060
  21
 4726.9672167895
  31
0.0
   0
LINE
   5
28A
 100
AcDbEntity
   8
LEVEL001
 370
13
 100
AcDbLine
   6
CONTINUOUS
  62
3
  10
 3460.1159387060
  20
 4726.9672167895
  30
0.0
  11
 3460.1159387060
  21
 4712.9672167895
  31
0.0
   0
LINE
   5
28B
 100
AcDbEntity
   8
LEVEL001
 370
13
 100
AcDbLine
   6
CONTINUOUS
  62
3
  10
 3460.1159387060
  20
 4652.9672167895
  30
0.0
  11
 3446.1159387060
  21
 4652.9672167895
  31
0.0
   0
LINE
   5
28C
 100
AcDbEntity
   8
LEVEL001
 370
13
 100
AcDbLine
   6
CONTINUOUS
  62
3
  10
 3446.1159387060
  20
 4652.9672167895
  30
0.0
  11
 3446.1159387060
  21
 4666.9672167895
  31
0.0
   0
LINE
   5
28D
 100
AcDbEntity
   8
LEVEL001
 370
13
 100
AcDbLine
   6
CONTINUOUS
  62
3
  10
 3446.1159387060
  20
 4666.9672167895
  30
0.0
  11
 3460.1159387060
  21
 4666.9672167895
  31
0.0
   0
LINE
   5
28E
 100
AcDbEntity
   8
LEVEL001
 370
13
 100
AcDbLine
   6
CONTINUOUS
  62
3
  10
 3460.1159387060
  20
 4666.9672167895
  30
0.0
  11
 3460.1159387060
  21
 4652.9672167895
  31
0.0
   0
LINE
   5
28F
 100
AcDbEntity
   8
LEVEL001
 370
13
 100
AcDbLine
   6
CONTINUOUS
  62
7
  10
 3547.0826985494
  20
 4634.9672167895
  30
0.0
  11
 3433.1159387060
  21
 4634.9672167895
  31
0.0
   0
LINE
   5
290
 100
AcDbEntity
   8
LEVEL001
 370
13
 100
AcDbLine
   6
CONTINUOUS
  62
7
  10
 3433.1159387060
  20
 4634.9672167895
  30
0.0
  11
 3433.1159387060
  21
 4744.9672167895
  31
0.0
   0
LINE
   5
291
 100
AcDbEntity
   8
LEVEL001
 370
13
 100
AcDbLine
   6
CONTINUOUS
  62
7
  10
 3433.1159387060
  20
 4744.9672167895
  30
0.0
  11
 3547.0826985494
  21
 4744.9672167895
  31
0.0
   0
ARC
   5
292
 100
AcDbEntity
   8
LEVEL001
 370
13
   6
CONTINUOUS
  62
3
 100
AcDbCircle
  10
 2840.8650713930
  20
 4719.9672167895
  30
0.0
  40
 52.000000000010
 100
AcDbArc
  50
 298.73565374490
  51
 324.99999999998
   0
ARC
   5
293
 100
AcDbEntity
   8
LEVEL001
 370
13
   6
CONTINUOUS
  62
3
 100
AcDbCircle
  10
 2840.8650713930
  20
 4719.9672167895
  30
0.0
  40
 68.000000000070
 100
AcDbArc
  50
 291.57057830163
  51
 324.99999999997
   0
ARC
   5
294
 100
AcDbEntity
   8
LEVEL001
 370
13
   6
CONTINUOUS
  62
3
 100
AcDbCircle
  10
 2890.0141940504
  20
 4685.5526306083
  30
0.0
  40
 8.0000000000000
 100
AcDbArc
  50
 325.00000000003
  51
 146.50781277475
   0
LINE
   5
295
 100
AcDbEntity
   8
LEVEL001
 370
13
 100
AcDbLine
   6
DASHDOT
  62
6
  10
 2875.0141940504
  20
 4685.5526306083
  30
0.0
  11
 2905.0141940504
  21
 4685.5526306083
  31
0.0
   0
LINE
   5
296
 100
AcDbEntity
   8
LEVEL001
 370
13
 100
AcDbLine
   6
DASHDOT
  62
6
  10
 2890.0141940504
  20
 4700.5526306083
  30
0.0
  11
 2890.0141940504
  21
 4670.5526306083
  31
0.0
   0
ARC
   5
297
 100
AcDbEntity
   8
LEVEL001
 370
13
   6
CONTINUOUS
  62
3
 100
AcDbCircle
  10
 3627.0826985494
  20
 4719.9672167895
  30
0.0
  40
 52.000000000010
 100
AcDbArc
  50
 215.00000000002
  51
 241.26434625510
   0
ARC
   5
298
 100
AcDbEntity
   8
LEVEL001
 370
13
   6
CONTINUOUS
  62
3
 100
AcDbCircle
  10
 3627.0826985494
  20
 4719.9672167895
  30
0.0
  40
 68.000000000070
 100
AcDbArc
  50
 215.00000000003
  51
 248.42942169837
   0
ARC
   5
299
 100
AcDbEntity
   8
LEVEL001
 370
13
   6
CONTINUOUS
  62
3
 100
AcDbCircle
  10
 3577.9335758920
  20
 4685.5526306083
  30
0.0
  40
 8.0000000000000
 100
AcDbArc
  50
 33.492187225251
  51
 214.99999999997
   0
LINE
   5
29A
 100
AcDbEntity
   8
LEVEL001
 370
13
 100
AcDbLine
   6
DASHDOT
  62
6
  10
 3592.9335758920
  20
 4685.5526306083
  30
0.0
  11
 3562.9335758920
  21
 4685.5526306083
  31
0.0
   0
LINE
   5
29B
 100
AcDbEntity
   8
LEVEL001
 370
13
 100
AcDbLine
   6
DASHDOT
  62
6
  10
 3577.9335758920
  20
 4700.5526306083
  30
0.0
  11
 3577.9335758920
  21
 4670.5526306083
  31
0.0
   0
LINE
   5
29C
 100
AcDbEntity
   8
LEVEL001
 370
13
 100
AcDbLine
   6
CONTINUOUS
  62
6
  10
 3269.3287862928
  20
 4774.9672167895
  30
0.0
  11
 3269.3287862928
  21
 4674.9672167895
  31
0.0
   0
LINE
   5
29D
 100
AcDbEntity
   8
LEVEL001
 370
13
 100
AcDbLine
   6
CONTINUOUS
  62
6
  10
 3198.6189836496
  20
 4664.9672167895
  30
0.0
  11
 3198.6189836496
  21
 4564.9672167895
  31
0.0
   0
LINE
   5
29E
 100
AcDbEntity
   8
LEVEL001
 370
13
 100
AcDbLine
   6
CONTINUOUS
  62
7
  10
 3272.1238849712
  20
 4861.4672167895
  30
0.0
  11
 3195.8238849712
  21
 4861.4672167895
  31
0.0
   0
LINE
   5
29F
 100
AcDbEntity
   8
LEVEL001
 370
13
 100
AcDbLine
   6
CONTINUOUS
  62
7
  10
 3195.8238849712
  20
 4861.4672167895
  30
0.0
  11
 3195.8238849712
  21
 4858.4672167895
  31
0.0
   0
LINE
   5
2A0
 100
AcDbEntity
   8
LEVEL001
 370
13
 100
AcDbLine
   6
CONTINUOUS
  62
7
  10
 3195.8238849712
  20
 4858.4672167895
  30
0.0
  11
 3272.1238849712
  21
 4858.4672167895
  31
0.0
   0
LINE
   5
2A1
 100
AcDbEntity
   8
LEVEL001
 370
13
 100
AcDbLine
   6
CONTINUOUS
  62
7
  10
 3272.1238849712
  20
 4858.4672167895
  30
0.0
  11
 3272.1238849712
  21
 4861.4672167895
  31
0.0
   0
LINE
   5
2A2
 100
AcDbEntity
   8
LEVEL001
 370
13
 100
AcDbLine
   6
DOT
  62
1
  10
 3267.1238849712
  20
 4858.4672167895
  30
0.0
  11
 3267.1238849712
  21
 4831.4672167895
  31
0.0
   0
LINE
   5
2A3
 100
AcDbEntity
   8
LEVEL001
 370
13
 100
AcDbLine
   6
DOT
  62
1
  10
 3267.1238849712
  20
 4831.4672167895
  30
0.0
  11
 3200.8238849712
  21
 4831.4672167895
  31
0.0
   0
LINE
   5
2A4
 100
AcDbEntity
   8
LEVEL001
 370
13
 100
AcDbLine
   6
DOT
  62
1
  10
 3200.8238849712
  20
 4831.4672167895
  30
0.0
  11
 3200.8238849712
  21
 4858.4672167895
  31
0.0
   0
LINE
   5
2A5
 100
AcDbEntity
   8
LEVEL001
 370
13
 100
AcDbLine
   6
CONTINUOUS
  62
7
  10
 3272.1238849712
  20
 4779.9672167895
  30
0.0
  11
 3272.1238849712
  21
 4857.4672167895
  31
0.0
   0
LINE
   5
2A6
 100
AcDbEntity
   8
LEVEL001
 370
13
 100
AcDbLine
   6
CONTINUOUS
  62
7
  10
 3272.1238849712
  20
 4857.4672167895
  30
0.0
  11
 3195.8238849712
  21
 4857.4672167895
  31
0.0
   0
LINE
   5
2A7
 100
AcDbEntity
   8
LEVEL001
 370
13
 100
AcDbLine
   6
CONTINUOUS
  62
7
  10
 3195.8238849712
  20
 4857.4672167895
  30
0.0
  11
 3195.8238849712
  21
 4779.9672167895
  31
0.0
   0
LINE
   5
2A8
 100
AcDbEntity
   8
LEVEL001
 370
13
 100
AcDbLine
   6
CONTINUOUS
  62
6
  10
 3186.0509754030
  20
 4115.4672170697
  30
0.0
  11
 3186.0509754030
  21
 4116.4672475833
  31
0.0
   0
LINE
   5
2A9
 100
AcDbEntity
   8
LEVEL001
 370
13
 100
AcDbLine
   6
CONTINUOUS
  62
6
  10
 3186.0509754030
  20
 4116.4672475833
  30
0.0
  11
 3183.0509754030
  21
 4116.4672475833
  31
0.0
   0
ELLIPSE
   5
2AA
 100
AcDbEntity
   8
LEVEL001
 370
13
   6
CONTINUOUS
  62
7
 100
AcDbEllipse
  10
 3182.5069093948
  20
 4130.4670035053
  30
0.0
  11
-4.0000025516047
  21
0.0
  31
0.0
  40
 0.99999938800000
  41
 1.7072356670368
  42
 3.1415773654608
   0
LINE
   5
2AB
 100
AcDbEntity
   8
LEVEL001
 370
13
 100
AcDbLine
   6
CONTINUOUS
  62
7
  10
 3183.0509754030
  20
 4115.4672170697
  30
0.0
  11
 3186.0509754030
  21
 4115.4672170697
  31
0.0
   0
LINE
   5
2AC
 100
AcDbEntity
   8
LEVEL001
 370
13
 100
AcDbLine
   6
CONTINUOUS
  62
7
  10
 3183.0509754030
  20
 3799.4672165077
  30
0.0
  11
 3186.0509754030
  21
 3799.4672165077
  31
0.0
   0
LINE
   5
2AD
 100
AcDbEntity
   8
LEVEL001
 370
13
 100
AcDbLine
   6
CONTINUOUS
  62
6
  10
 3186.0509754030
  20
 3799.4672165077
  30
0.0
  11
 3186.0509754030
  21
 3798.4671859941
  31
0.0
   0
LINE
   5
2AE
 100
AcDbEntity
   8
LEVEL001
 370
13
 100
AcDbLine
   6
CONTINUOUS
  62
6
  10
 3186.0509754030
  20
 3798.4671859941
  30
0.0
  11
 3183.0509754030
  21
 3798.4671859941
  31
0.0
   0
LINE
   5
2AF
 100
AcDbEntity
   8
LEVEL001
 370
13
 100
AcDbLine
   6
CONTINUOUS
  62
7
  10
 3186.5064541820
  20
 3742.4675829411
  30
0.0
  11
 3186.5069119460
  21
 3784.4674912245
  31
0.0
   0
ELLIPSE
   5
2B0
 100
AcDbEntity
   8
LEVEL001
 370
13
   6
CONTINUOUS
  62
7
 100
AcDbEllipse
  10
 3182.5069093948
  20
 3784.4674300721
  30
0.0
  11
-4.0000025516047
  21
0.0
  31
0.0
  40
 0.99999938800000
  41
-3.1415773654645
  42
-1.7072356670373
   0
LINE
   5
2B1
 100
AcDbEntity
   8
LEVEL001
 370
13
 100
AcDbLine
   6
CONTINUOUS
  62
6
  10
 3186.0509754030
  20
 3728.4671557497
  30
0.0
  11
 3186.0509754030
  21
 3727.4672167887
  31
0.0
   0
LINE
   5
2B2
 100
AcDbEntity
   8
LEVEL001
 370
13
 100
AcDbLine
   6
CONTINUOUS
  62
6
  10
 3183.0509754030
  20
 3728.4671557497
  30
0.0
  11
 3186.0509754030
  21
 3728.4671557497
  31
0.0
   0
ELLIPSE
   5
2B3
 100
AcDbEntity
   8
LEVEL001
 370
13
   6
CONTINUOUS
  62
7
 100
AcDbEllipse
  10
 3182.5064516322
  20
 3742.4674609899
  30
0.0
  11
-4.0000025516047
  21
0.0
  31
0.0
  40
 0.99999938800000
  41
 1.7073511820429
  42
-3.1415621657857
   0
LINE
   5
2B4
 100
AcDbEntity
   8
LEVEL001
 370
13
 100
AcDbLine
   6
CONTINUOUS
  62
7
  10
 3186.0509754030
  20
 3727.4672167887
  30
0.0
  11
 3183.0509754030
  21
 3727.4672167887
  31
0.0
   0
ARC
   5
2B5
 100
AcDbEntity
   8
LEVEL001
 370
13
   6
CONTINUOUS
  62
7
 100
AcDbCircle
  10
 3184.0509754030
  20
 3666.1089370785
  30
0.0
  40
 5.0000000000000
 100
AcDbArc
  50
 180.00000000000
  51
 201.80140948629
   0
LINE
   5
2B6
 100
AcDbEntity
   8
LEVEL001
 370
13
 100
AcDbLine
   6
CONTINUOUS
  62
7
  10
 3182.1224987120
  20
 3657.4672167879
  30
0.0
  11
 3179.4085919486
  21
 3664.2519836967
  31
0.0
   0
ARC
   5
2B7
 100
AcDbEntity
   8
LEVEL001
 370
13
   6
CONTINUOUS
  62
7
 100
AcDbCircle
  10
 3178.0509754030
  20
 3673.3148632469
  30
0.0
  40
 5.0000000000000
 100
AcDbArc
  50
 338.19859051356
  51
0.0
   0
LINE
   5
2B8
 100
AcDbEntity
   8
LEVEL001
 370
13
 100
AcDbLine
   6
CONTINUOUS
  62
7
  10
 3180.8910880026
  20
 3666.9522327285
  30
0.0
  11
 3182.6933588574
  21
 3671.4579098653
  31
0.0
   0
ARC
   5
2B9
 100
AcDbEntity
   8
LEVEL001
 370
13
   6
CONTINUOUS
  62
7
 100
AcDbCircle
  10
 3185.5334714570
  20
 3665.0952793467
  30
0.0
  40
 5.0000000000000
 100
AcDbArc
  50
 158.19859051356
  51
 201.80140948644
   0
LINE
   5
2BA
 100
AcDbEntity
   8
LEVEL001
 370
13
 100
AcDbLine
   6
CONTINUOUS
  62
7
  10
 3182.1224987120
  20
 3657.4672167879
  30
0.0
  11
 3183.0509754030
  21
 3657.8386074643
  31
0.0
   0
LINE
   5
2BB
 100
AcDbEntity
   8
LEVEL001
 370
13
 100
AcDbLine
   6
CONTINUOUS
  62
7
  10
 3183.0509754030
  20
 3657.8386074643
  30
0.0
  11
 3180.8910880026
  21
 3663.2383259649
  31
0.0
   0
LINE
   5
2BC
 100
AcDbEntity
   8
LEVEL001
 370
13
 100
AcDbLine
   6
CONTINUOUS
  62
6
  10
 3270.8789813748
  20
 3756.9672167887
  30
0.0
  11
 3198.7598095492
  21
 3756.9672167887
  31
0.0
   0
LINE
   5
2BD
 100
AcDbEntity
   8
LEVEL001
 370
13
 100
AcDbLine
   6
CONTINUOUS
  62
6
  10
 3198.7598095492
  20
 3769.9672167887
  30
0.0
  11
 3270.8789813748
  21
 3769.9672167887
  31
0.0
   0
LINE
   5
2BE
 100
AcDbEntity
   8
LEVEL001
 370
13
 100
AcDbLine
   6
CONTINUOUS
  62
6
  10
 3270.8789813748
  20
 3779.9672167887
  30
0.0
  11
 3270.8789813748
  21
 3770.9672167887
  31
0.0
   0
LINE
   5
2BF
 100
AcDbEntity
   8
LEVEL001
 370
13
 100
AcDbLine
   6
CONTINUOUS
  62
6
  10
 3270.8789813748
  20
 3755.9672167887
  30
0.0
  11
 3270.8789813748
  21
 3746.9672167887
  31
0.0
   0
LINE
   5
2C0
 100
AcDbEntity
   8
LEVEL001
 370
13
 100
AcDbLine
   6
CONTINUOUS
  62
7
  10
 3287.0509803752
  20
 3758.4672167887
  30
0.0
  11
 3277.0509803752
  21
 3758.4672167887
  31
0.0
   0
LINE
   5
2C1
 100
AcDbEntity
   8
LEVEL001
 370
13
 100
AcDbLine
   6
CONTINUOUS
  62
7
  10
 3277.0509803752
  20
 3758.4672167887
  30
0.0
  11
 3277.0509803752
  21
 3768.4672167887
  31
0.0
   0
LINE
   5
2C2
 100
AcDbEntity
   8
LEVEL001
 370
13
 100
AcDbLine
   6
CONTINUOUS
  62
7
  10
 3277.0509803752
  20
 3768.4672167887
  30
0.0
  11
 3287.0509803752
  21
 3768.4672167887
  31
0.0
   0
LINE
   5
2C3
 100
AcDbEntity
   8
LEVEL001
 370
13
 100
AcDbLine
   6
CONTINUOUS
  62
7
  10
 3287.0509803752
  20
 3768.4672167887
  30
0.0
  11
 3287.0509803752
  21
 3758.4672167887
  31
0.0
   0
LINE
   5
2C4
 100
AcDbEntity
   8
LEVEL001
 370
13
 100
AcDbLine
   6
CONTINUOUS
  62
6
  10
 3273.1975064162
  20
 3769.9672167887
  30
0.0
  11
 3273.1975064162
  21
 3756.9672167887
  31
0.0
   0
LINE
   5
2C5
 100
AcDbEntity
   8
LEVEL001
 370
13
 100
AcDbLine
   6
CONTINUOUS
  62
6
  10
 3197.4989149796
  20
 3768.9672167887
  30
0.0
  11
 3197.4989149796
  21
 3757.9672167887
  31
0.0
   0
LINE
   5
2C6
 100
AcDbEntity
   8
LEVEL001
 370
13
 100
AcDbLine
   6
CONTINUOUS
  62
6
  10
 3197.4989149796
  20
 3779.9672167887
  30
0.0
  11
 3197.4989149796
  21
 3770.9672167887
  31
0.0
   0
LINE
   5
2C7
 100
AcDbEntity
   8
LEVEL001
 370
13
 100
AcDbLine
   6
CONTINUOUS
  62
6
  10
 3197.4989149796
  20
 3755.9672167887
  30
0.0
  11
 3197.4989149796
  21
 3746.9672167887
  31
0.0
   0
LINE
   5
2C8
 100
AcDbEntity
   8
LEVEL001
 370
13
 100
AcDbLine
   6
CONTINUOUS
  62
7
  10
 3186.5068846950
  20
 3781.9672167887
  30
0.0
  11
 3292.0509803752
  21
 3781.9672167887
  31
0.0
   0
LINE
   5
2C9
 100
AcDbEntity
   8
LEVEL001
 370
13
 100
AcDbLine
   6
CONTINUOUS
  62
7
  10
 3292.0509803752
  20
 3781.9672167887
  30
0.0
  11
 3292.0509803752
  21
 3744.9672167887
  31
0.0
   0
LINE
   5
2CA
 100
AcDbEntity
   8
LEVEL001
 370
13
 100
AcDbLine
   6
CONTINUOUS
  62
7
  10
 3292.0509803752
  20
 3744.9672167887
  30
0.0
  11
 3186.5064814260
  21
 3744.9672167887
  31
0.0
   0
LINE
   5
2CB
 100
AcDbEntity
   8
LEVEL001
 370
13
 100
AcDbLine
   6
CONTINUOUS
  62
7
  10
 3272.1238849712
  20
 3744.9672167887
  30
0.0
  11
 3272.1238849712
  21
 857.46721678950
  31
0.0
   0
LINE
   5
2CC
 100
AcDbEntity
   8
LEVEL001
 370
13
 100
AcDbLine
   6
CONTINUOUS
  62
7
  10
 3272.1238849712
  20
 857.46721678950
  30
0.0
  11
 3195.8238849712
  21
 857.46721678950
  31
0.0
   0
LINE
   5
2CD
 100
AcDbEntity
   8
LEVEL001
 370
13
 100
AcDbLine
   6
CONTINUOUS
  62
7
  10
 3195.8238849712
  20
 857.46721678950
  30
0.0
  11
 3195.8238849712
  21
 3744.9672167887
  31
0.0
   0
CIRCLE
   5
2CE
 100
AcDbEntity
   8
LEVEL001
 370
13
 100
AcDbCircle
   6
CONTINUOUS
  62
1
  10
 3593.4677030988
  20
 5139.9672167895
  30
0.0
  40
 69.999997913838
   0
CIRCLE
   5
2CF
 100
AcDbEntity
   8
LEVEL001
 370
13
 100
AcDbCircle
   6
CONTINUOUS
  62
1
  10
 3733.4676989266
  20
 5139.9672167895
  30
0.0
  40
 69.999997913838
   0
CIRCLE
   5
2D0
 100
AcDbEntity
   8
LEVEL001
 370
13
 100
AcDbCircle
   6
CONTINUOUS
  62
1
  10
 2893.9738891436
  20
 5139.9672167895
  30
0.0
  40
 69.999997913838
   0
CIRCLE
   5
2D1
 100
AcDbEntity
   8
LEVEL001
 370
13
 100
AcDbCircle
   6
CONTINUOUS
  62
1
  10
 3033.9738849712
  20
 5139.9672167895
  30
0.0
  40
 69.999997913838
   0
MTEXT
   5
2D2
 100
AcDbEntity
   8
LEVEL001
 370
13
  62
1
 100
AcDbMText
  10
 3433.9738849712
  20
 5139.9672167895
  30
0.0
  40
 57.142857142858
  41
0.0
  71
5
  72
1
   1
\T1.000000;13
   7
GMM001
  44
 0.79999984000003
   0
CIRCLE
   5
2D3
 100
AcDbEntity
   8
LEVEL001
 370
13
 100
AcDbCircle
   6
CONTINUOUS
  62
1
  10
 3433.9738849712
  20
 5139.9672167895
  30
0.0
  40
 70.000000000000
   0
MTEXT
   5
2D4
 100
AcDbEntity
   8
LEVEL001
 370
13
  62
1
 100
AcDbMText
  10
 3593.4677030988
  20
 5139.9672167895
  30
0.0
  40
 57.142857142858
  41
0.0
  71
5
  72
1
   1
\T1.000000;6
   7
GMM001
  44
 0.79999984000003
   0
MTEXT
   5
2D5
 100
AcDbEntity
   8
LEVEL001
 370
13
  62
1
 100
AcDbMText
  10
 3733.4676989266
  20
 5139.9672167895
  30
0.0
  40
 57.142857142858
  41
0.0
  71
5
  72
1
   1
\T1.000000;8
   7
GMM001
  44
 0.79999984000003
   0
MTEXT
   5
2D6
 100
AcDbEntity
   8
LEVEL001
 370
13
  62
1
 100
AcDbMText
  10
 3033.9738849712
  20
 5139.9672167895
  30
0.0
  40
 57.142857142858
  41
0.0
  71
5
  72
1
   1
\T1.000000;7
   7
GMM001
  44
 0.79999984000003
   0
MTEXT
   5
2D7
 100
AcDbEntity
   8
LEVEL001
 370
13
  62
1
 100
AcDbMText
  10
 2893.9738891436
  20
 5139.9672167895
  30
0.0
  40
 57.142857142858
  41
0.0
  71
5
  72
1
   1
\T1.000000;5
   7
GMM001
  44
 0.79999984000003
   0
CIRCLE
   5
2D8
 100
AcDbEntity
   8
LEVEL001
 370
13
 100
AcDbCircle
   6
CONTINUOUS
  62
1
  10
 3433.9738849712
  20
 4239.9672167895
  30
0.0
  40
 69.999997913838
   0
CIRCLE
   5
2D9
 100
AcDbEntity
   8
LEVEL001
 370
13
 100
AcDbCircle
   6
CONTINUOUS
  62
1
  10
 3573.9738828850
  20
 4239.9672167895
  30
0.0
  40
 70.000000000000
   0
MTEXT
   5
2DA
 100
AcDbEntity
   8
LEVEL001
 370
13
  62
1
 100
AcDbMText
  10
 3573.9738828850
  20
 4239.9672167895
  30
0.0
  40
 57.142857142858
  41
0.0
  71
5
  72
1
   1
\T1.000000;10
   7
GMM001
  44
 0.79999984000003
   0
MTEXT
   5
2DB
 100
AcDbEntity
   8
LEVEL001
 370
13
  62
1
 100
AcDbMText
  10
 3433.9738849712
  20
 4239.9672167895
  30
0.0
  40
 57.142857142858
  41
0.0
  71
5
  72
1
   1
\T1.000000;9
   7
GMM001
  44
 0.79999984000003
   0
CIRCLE
   5
2DC
 100
AcDbEntity
   8
LEVEL001
 370
13
 100
AcDbCircle
   6
CONTINUOUS
  62
1
  10
 3433.9738849712
  20
 3857.4672167895
  30
0.0
  40
 70.000000000000
   0
CIRCLE
   5
2DD
 100
AcDbEntity
   8
LEVEL001
 370
13
 100
AcDbCircle
   6
CONTINUOUS
  62
1
  10
 3573.9738849712
  20
 3857.4672167895
  30
0.0
  40
 70.000000000000
   0
MTEXT
   5
2DE
 100
AcDbEntity
   8
LEVEL001
 370
13
  62
1
 100
AcDbMText
  10
 3433.9738849712
  20
 3857.4672167895
  30
0.0
  40
 57.142857142858
  41
0.0
  71
5
  72
1
   1
\T1.000000;15
   7
GMM001
  44
 0.79999984000003
   0
MTEXT
   5
2DF
 100
AcDbEntity
   8
LEVEL001
 370
13
  62
1
 100
AcDbMText
  10
 3573.9738849712
  20
 3857.4672167895
  30
0.0
  40
 57.142857142858
  41
0.0
  71
5
  72
1
   1
\T1.000000;16
   7
GMM001
  44
 0.79999984000003
   0
LEADER
   5
2E0
 100
AcDbEntity
   8
LEVEL001
 370
13
   6
CONTINUOUS
  62
1
 100
AcDbLeader
   3
GMM001
  73
3
  74
1
  75
0
  40
 60.000000000000
  41
0.0
  76
2
  10
 3292.0509803752
  20
 3781.9672167887
  30
0.0
  10
 3372.6164946592
  20
 3823.7734391131
  30
0.0
  77
1
   0
LEADER
   5
2E1
 100
AcDbEntity
   8
LEVEL001
 370
13
   6
CONTINUOUS
  62
1
 100
AcDbLeader
   3
GMM001
  73
3
  74
1
  75
0
  40
 60.000000000000
  41
0.0
  76
2
  10
 3323.4721796988
  20
 4574.9672167895
  30
0.0
  10
 3412.4078414382
  20
 4306.5623027515
  30
0.0
  77
1
   0
LEADER
   5
2E2
 100
AcDbEntity
   8
LEVEL001
 370
13
   6
CONTINUOUS
  62
1
 100
AcDbLeader
   3
GMM001
  73
3
  74
1
  75
0
  40
 60.000000000000
  41
0.0
  76
2
  10
 2834.7545772880
  20
 4744.9672167897
  30
0.0
  10
 2882.5883248916
  20
 5070.8993614977
  30
0.0
  77
1
   0
LEADER
   5
2E3
 100
AcDbEntity
   8
LEVEL001
 370
13
   6
CONTINUOUS
  62
1
 100
AcDbLeader
   3
GMM001
  73
3
  74
1
  75
0
  40
 60.000000000000
  41
0.0
  76
2
  10
 3233.9738849712
  20
 4861.4672167895
  30
0.0
  10
 3391.0547997784
  20
 5084.6684634019
  30
0.0
  77
1
   0
LEADER
   5
2E4
 100
AcDbEntity
   8
LEVEL001
 370
13
   6
CONTINUOUS
  62
1
 100
AcDbLeader
   3
GMM001
  73
3
  74
1
  75
0
  40
 60.000000000000
  41
0.0
  76
2
  10
 3433.1159387060
  20
 4744.9672167895
  30
0.0
  10
 3567.5311764792
  20
 5074.9495553823
  30
0.0
  77
1
   0
LINE
   5
2E5
 100
AcDbEntity
   8
LEVEL001
 370
13
 100
AcDbLine
   6
DASHDOT
  62
6
  10
 3233.9738849712
  20
 4913.6632610919
  30
0.0
  11
 3233.9738849712
  21
 757.46721678950
  31
0.0
   0
MTEXT
   5
2E6
 100
AcDbEntity
   8
LEVEL001
 370
13
  62
1
 100
AcDbMText
  10
 3233.9738849712
  20
 5489.9672167895
  30
0.0
  40
 57.142857142858
  41
0.0
  71
5
  72
1
   1
\T1.000000;側　面　図
   7
GMM001
  44
 0.79999984000003
   0
CIRCLE
   5
2E7
 100
AcDbEntity
   8
LEVEL001
 370
13
 100
AcDbCircle
   6
CONTINUOUS
  62
7
  10
 3233.9738511692
  20
 1257.4672167895
  30
0.0
  40
 7.5000000000000
   0
LINE
   5
2E8
 100
AcDbEntity
   8
LEVEL001
 370
13
 100
AcDbLine
   6
DASHDOT
  62
6
  10
 3203.9738511692
  20
 1257.4672167895
  30
0.0
  11
 3263.9738511692
  21
 1257.4672167895
  31
0.0
   0
LINE
   5
2E9
 100
AcDbEntity
   8
LEVEL001
 370
13
 100
AcDbLine
   6
DASHDOT
  62
6
  10
 3173.9738668856
  20
 1157.4672167895
  30
0.0
  11
 3293.9738668856
  21
 1157.4672167895
  31
0.0
   0
LINE
   5
2EA
 100
AcDbEntity
   8
LEVEL001
 370
13
 100
AcDbLine
   6
CONTINUOUS
  62
7
  10
 3195.8238849712
  20
 1164.9672167895
  30
0.0
  11
 3123.9738668856
  21
 1164.9672167895
  31
0.0
   0
LINE
   5
2EB
 100
AcDbEntity
   8
LEVEL001
 370
13
 100
AcDbLine
   6
CONTINUOUS
  62
7
  10
 3123.9738668856
  20
 1164.9672167895
  30
0.0
  11
 3123.9738668856
  21
 1149.9672167895
  31
0.0
   0
LINE
   5
2EC
 100
AcDbEntity
   8
LEVEL001
 370
13
 100
AcDbLine
   6
CONTINUOUS
  62
7
  10
 3123.9738668856
  20
 1149.9672167895
  30
0.0
  11
 3195.8238849712
  21
 1149.9672167895
  31
0.0
   0
LINE
   5
2ED
 100
AcDbEntity
   8
LEVEL001
 370
13
 100
AcDbLine
   6
CONTINUOUS
  62
7
  10
 3272.1238849712
  20
 1164.9672167895
  30
0.0
  11
 3343.9738668856
  21
 1164.9672167895
  31
0.0
   0
LINE
   5
2EE
 100
AcDbEntity
   8
LEVEL001
 370
13
 100
AcDbLine
   6
CONTINUOUS
  62
7
  10
 3343.9738668856
  20
 1164.9672167895
  30
0.0
  11
 3343.9738668856
  21
 1149.9672167895
  31
0.0
   0
LINE
   5
2EF
 100
AcDbEntity
   8
LEVEL001
 370
13
 100
AcDbLine
   6
CONTINUOUS
  62
7
  10
 3343.9738668856
  20
 1149.9672167895
  30
0.0
  11
 3272.1238849712
  21
 1149.9672167895
  31
0.0
   0
CIRCLE
   5
2F0
 100
AcDbEntity
   8
LEVEL001
 370
13
 100
AcDbCircle
   6
CONTINUOUS
  62
1
  10
 2858.9738849712
  20
 1007.4672167895
  30
0.0
  40
 70.000000000000
   0
LINE
   5
2F1
 100
AcDbEntity
   8
LEVEL001
 370
13
 100
AcDbLine
   6
DOT
  62
1
  10
 3272.1238849712
  20
 1149.9672167895
  30
0.0
  11
 3195.8238849712
  21
 1149.9672167895
  31
0.0
   0
LINE
   5
2F2
 100
AcDbEntity
   8
LEVEL001
 370
13
 100
AcDbLine
   6
DOT
  62
1
  10
 3195.8238849712
  20
 1164.9672167895
  30
0.0
  11
 3272.1238849712
  21
 1164.9672167895
  31
0.0
   0
MTEXT
   5
2F3
 100
AcDbEntity
   8
LEVEL001
 370
13
  62
1
 100
AcDbMText
  10
 2858.9738849712
  20
 1007.4672167895
  30
0.0
  40
 57.142857142858
  41
0.0
  71
5
  72
1
   1
\T1.000000;12
   7
GMM001
  44
 0.79999984000003
   0
LEADER
   5
2F4
 100
AcDbEntity
   8
LEVEL001
 370
13
   6
CONTINUOUS
  62
1
 100
AcDbLeader
   3
GMM001
  73
3
  74
1
  75
0
  40
 60.000000000000
  41
0.0
  76
2
  10
 3123.9738668856
  20
 1149.9672167895
  30
0.0
  10
 2920.6255271112
  20
 1040.6195171839
  30
0.0
  77
1
   0
LINE
   5
2F5
 100
AcDbEntity
   8
LEVEL001
 370
13
 100
AcDbLine
   6
CONTINUOUS
  62
7
  10
 3733.9738849712
  20
 1804.9672167895
  30
0.0
  11
 3689.4288362594
  21
 1849.5122655012
  31
0.0
   0
LINE
   5
2F6
 100
AcDbEntity
   8
LEVEL001
 370
13
 100
AcDbLine
   6
CONTINUOUS
  62
7
  10
 3697.3837875478
  20
 1857.4672167895
  30
0.0
  11
 3733.9738849712
  21
 1820.8771193662
  31
0.0
   0
MTEXT
   5
2F8
 100
AcDbEntity
   8
LEVEL001
 370
13
  62
1
 100
AcDbMText
  10
 2854.6224901806
  20
 1866.1971538298
  30
0.0
  40
 40.000000000000
  41
0.0
  71
7
  72
1
   1
\T1.000000;ＧＬ
   7
GMM003
  44
 0.79999984000003
   0
LINE
   5
2F9
 100
AcDbEntity
   8
LEVEL001
 370
13
 100
AcDbLine
   6
CONTINUOUS
  62
1
  10
 2826.4738197358
  20
 1857.4672167895
  30
0.0
  11
 2801.4738197358
  21
 1907.4672167895
  31
0.0
   0
LINE
   5
2FA
 100
AcDbEntity
   8
LEVEL001
 370
13
 100
AcDbLine
   6
CONTINUOUS
  62
1
  10
 2801.4738197358
  20
 1907.4672167895
  30
0.0
  11
 2851.4738197358
  21
 1907.4672167895
  31
0.0
   0
LINE
   5
2FB
 100
AcDbEntity
   8
LEVEL001
 370
13
 100
AcDbLine
   6
CONTINUOUS
  62
1
  10
 2851.4738197358
  20
 1907.4672167895
  30
0.0
  11
 2826.4738197358
  21
 1857.4672167895
  31
0.0
   0
LEADER
   5
2FC
 100
AcDbEntity
   8
LEVEL001
 370
13
   6
CONTINUOUS
  62
1
 100
AcDbLeader
   3
GMM001
  73
3
  74
1
  75
0
  40
 60.000000000000
  41
0.0
  76
2
  10
 2731.2243131426
  20
 4489.9672167895
  30
0.0
  10
 2393.8051582630
  20
 4276.3020271539
  30
0.0
  77
1
   0
LEADER
   5
2FD
 100
AcDbEntity
   8
LEVEL001
 370
13
   6
CONTINUOUS
  62
1
 100
AcDbLeader
   3
GMM001
  73
3
  74
1
  75
0
  40
 60.000000000000
  41
0.0
  76
2
  10
 2692.6650713930
  20
 5001.4672167895
  30
0.0
  10
 2399.0964995768
  20
 5114.2953494079
  30
0.0
  77
1
   0
LINE
   5
2FE
 100
AcDbEntity
   8
LEVEL001
 370
13
 100
AcDbLine
   6
CONTINUOUS
  62
6
  10
 5493.9738849712
  20
 2569.9672167895
  30
0.0
  11
 8133.9738849712
  21
 2569.9672167895
  31
0.0
   0
MTEXT
   5
2FF
 100
AcDbEntity
   8
LEVEL001
 370
13
  62
1
 100
AcDbMText
  10
 7373.9738849712
  20
 1669.9672167895
  30
0.0
  40
 51.428571428572
  41
0.0
  71
4
  72
1
   1
\T1.000000;静電粉体塗装
   7
GMM001
  44
 0.79999984000003
   0
MTEXT
   5
300
 100
AcDbEntity
   8
LEVEL001
 370
13
  62
1
 100
AcDbMText
  10
 6813.9738849712
  20
 1669.9672167895
  30
0.0
  40
 51.428571428572
  41
0.0
  71
4
  72
1
   1
\T1.000000;ＳＴＫ４００
   7
GMM001
  44
 0.79999984000003
   0
MTEXT
   5
301
 100
AcDbEntity
   8
LEVEL001
 370
13
  62
1
 100
AcDbMText
  10
 6745.9738849712
  20
 1669.9672167895
  30
0.0
  40
 51.428571428572
  41
0.0
  71
6
  72
1
   1
\T1.000000;１
   7
GMM001
  44
 0.79999984000003
   0
MTEXT
   5
302
 100
AcDbEntity
   8
LEVEL001
 370
13
  62
1
 100
AcDbMText
  10
 7373.9738849712
  20
 1789.9672167895
  30
0.0
  40
 51.428571428572
  41
0.0
  71
4
  72
1
   1
\T1.000000;溶融亜鉛メッキ
   7
GMM001
  44
 0.79999984000003
   0
MTEXT
   5
303
 100
AcDbEntity
   8
LEVEL001
 370
13
  62
1
 100
AcDbMText
  10
 6813.9738849712
  20
 1789.9672167895
  30
0.0
  40
 51.428571428572
  41
0.0
  71
4
  72
1
   1
\T1.000000;ＳＳ４００
   7
GMM001
  44
 0.79999984000003
   0
MTEXT
   5
304
 100
AcDbEntity
   8
LEVEL001
 370
13
  62
1
 100
AcDbMText
  10
 6745.9738849712
  20
 1789.9672167895
  30
0.0
  40
 51.428571428572
  41
0.0
  71
6
  72
1
   1
\T1.000000;４
   7
GMM001
  44
 0.79999984000003
   0
MTEXT
   5
305
 100
AcDbEntity
   8
LEVEL001
 370
13
  62
1
 100
AcDbMText
  10
 7373.9738849712
  20
 1909.9672167895
  30
0.0
  40
 51.428571428572
  41
0.0
  71
4
  72
1
   1
\T1.000000;溶融亜鉛メッキ
   7
GMM001
  44
 0.79999984000003
   0
MTEXT
   5
306
 100
AcDbEntity
   8
LEVEL001
 370
13
  62
1
 100
AcDbMText
  10
 7373.9738849712
  20
 2029.9672167895
  30
0.0
  40
 51.428571428572
  41
0.0
  71
4
  72
1
   1
\T1.000000;溶融亜鉛メッキ
   7
GMM001
  44
 0.79999984000003
   0
MTEXT
   5
307
 100
AcDbEntity
   8
LEVEL001
 370
13
  62
1
 100
AcDbMText
  10
 7373.9738849712
  20
 2149.9672167895
  30
0.0
  40
 51.428571428572
  41
0.0
  71
4
  72
1
   1
\T1.000000;溶融亜鉛メッキ
   7
GMM001
  44
 0.79999984000003
   0
MTEXT
   5
308
 100
AcDbEntity
   8
LEVEL001
 370
13
  62
1
 100
AcDbMText
  10
 6813.9738849712
  20
 1909.9672167895
  30
0.0
  40
 51.428571428572
  41
0.0
  71
4
  72
1
   1
\T1.000000;ＳＳ４００
   7
GMM001
  44
 0.79999984000003
   0
MTEXT
   5
309
 100
AcDbEntity
   8
LEVEL001
 370
13
  62
1
 100
AcDbMText
  10
 6813.9738849712
  20
 2029.9672167895
  30
0.0
  40
 51.428571428572
  41
0.0
  71
4
  72
1
   1
\T1.000000;ＳＳ４００
   7
GMM001
  44
 0.79999984000003
   0
MTEXT
   5
30A
 100
AcDbEntity
   8
LEVEL001
 370
13
  62
1
 100
AcDbMText
  10
 6813.9738849712
  20
 2149.9672167895
  30
0.0
  40
 51.428571428572
  41
0.0
  71
4
  72
1
   1
\T1.000000;ＳＳ４００
   7
GMM001
  44
 0.79999984000003
   0
MTEXT
   5
30B
 100
AcDbEntity
   8
LEVEL001
 370
13
  62
1
 100
AcDbMText
  10
 6745.9738849712
  20
 1909.9672167895
  30
0.0
  40
 51.428571428572
  41
0.0
  71
6
  72
1
   1
\T1.000000;１
   7
GMM001
  44
 0.79999984000003
   0
MTEXT
   5
30C
 100
AcDbEntity
   8
LEVEL001
 370
13
  62
1
 100
AcDbMText
  10
 6745.9738849712
  20
 2029.9672167895
  30
0.0
  40
 51.428571428572
  41
0.0
  71
6
  72
1
   1
\T1.000000;８
   7
GMM001
  44
 0.79999984000003
   0
MTEXT
   5
30D
 100
AcDbEntity
   8
LEVEL001
 370
13
  62
1
 100
AcDbMText
  10
 6745.9738849712
  20
 2149.9672167895
  30
0.0
  40
 51.428571428572
  41
0.0
  71
6
  72
1
   1
\T1.000000;８
   7
GMM001
  44
 0.79999984000003
   0
MTEXT
   5
30E
 100
AcDbEntity
   8
LEVEL001
 370
13
  62
1
 100
AcDbMText
  10
 5665.9738849712
  20
 1669.9672167895
  30
0.0
  40
 51.428571428572
  41
0.0
  71
6
  72
1
   1
\T1.000000;１１
   7
GMM001
  44
 0.79999984000003
   0
MTEXT
   5
30F
 100
AcDbEntity
   8
LEVEL001
 370
13
  62
1
 100
AcDbMText
  10
 5733.9738849712
  20
 1669.9672167895
  30
0.0
  40
 51.428571428572
  41
0.0
  71
4
  72
1
   1
\T1.000000;支柱
   7
GMM001
  44
 0.79999984000003
   0
MTEXT
   5
310
 100
AcDbEntity
   8
LEVEL001
 370
13
  62
1
 100
AcDbMText
  10
 5733.9738849712
  20
 1789.9672167895
  30
0.0
  40
 51.428571428572
  41
0.0
  71
4
  72
1
   1
\T1.000000;同上ボルトナット
   7
GMM001
  44
 0.79999984000003
   0
MTEXT
   5
311
 100
AcDbEntity
   8
LEVEL001
 370
13
  62
1
 100
AcDbMText
  10
 5665.9738849712
  20
 1789.9672167895
  30
0.0
  40
 51.428571428572
  41
0.0
  71
6
  72
1
   1
\T1.000000;１０
   7
GMM001
  44
 0.79999984000003
   0
MTEXT
   5
312
 100
AcDbEntity
   8
LEVEL001
 370
13
  62
1
 100
AcDbMText
  10
 5665.9738849712
  20
 1909.9672167895
  30
0.0
  40
 51.428571428572
  41
0.0
  71
6
  72
1
   1
\T1.000000;９
   7
GMM001
  44
 0.79999984000003
   0
MTEXT
   5
313
 100
AcDbEntity
   8
LEVEL001
 370
13
  62
1
 100
AcDbMText
  10
 5733.9738849712
  20
 1909.9672167895
  30
0.0
  40
 51.428571428572
  41
0.0
  71
4
  72
1
   1
\T1.000000;二面鏡用取付腕木
   7
GMM001
  44
 0.79999984000003
   0
MTEXT
   5
314
 100
AcDbEntity
   8
LEVEL001
 370
13
  62
1
 100
AcDbMText
  10
 5665.9738849712
  20
 2029.9672167895
  30
0.0
  40
 51.428571428572
  41
0.0
  71
6
  72
1
   1
\T1.000000;８
   7
GMM001
  44
 0.79999984000003
   0
MTEXT
   5
315
 100
AcDbEntity
   8
LEVEL001
 370
13
  62
1
 100
AcDbMText
  10
 5733.9738849712
  20
 2029.9672167895
  30
0.0
  40
 51.428571428572
  41
0.0
  71
4
  72
1
   1
\T1.000000;金具締付ボルトナット
   7
GMM001
  44
 0.79999984000003
   0
MTEXT
   5
316
 100
AcDbEntity
   8
LEVEL001
 370
13
  62
1
 100
AcDbMText
  10
 5665.9738849712
  20
 2149.9672167895
  30
0.0
  40
 51.428571428572
  41
0.0
  71
6
  72
1
   1
\T1.000000;７
   7
GMM001
  44
 0.79999984000003
   0
MTEXT
   5
317
 100
AcDbEntity
   8
LEVEL001
 370
13
  62
1
 100
AcDbMText
  10
 5733.9738849712
  20
 2149.9672167895
  30
0.0
  40
 51.428571428572
  41
0.0
  71
4
  72
1
   1
\T1.000000;裏板金具取付ボルト
   7
GMM001
  44
 0.79999984000003
   0
LINE
   5
318
 100
AcDbEntity
   8
LEVEL001
 370
13
 100
AcDbLine
   6
CONTINUOUS
  62
6
  10
 5493.9738849712
  20
 1729.9672167895
  30
0.0
  11
 8133.9738849712
  21
 1729.9672167895
  31
0.0
   0
LINE
   5
319
 100
AcDbEntity
   8
LEVEL001
 370
13
 100
AcDbLine
   6
CONTINUOUS
  62
6
  10
 5493.9738849712
  20
 1849.9672167895
  30
0.0
  11
 8133.9738849712
  21
 1849.9672167895
  31
0.0
   0
LINE
   5
31A
 100
AcDbEntity
   8
LEVEL001
 370
13
 100
AcDbLine
   6
CONTINUOUS
  62
6
  10
 5493.9738849712
  20
 1969.9672167895
  30
0.0
  11
 8133.9738849712
  21
 1969.9672167895
  31
0.0
   0
LINE
   5
31B
 100
AcDbEntity
   8
LEVEL001
 370
13
 100
AcDbLine
   6
CONTINUOUS
  62
6
  10
 5493.9738849712
  20
 2089.9672167895
  30
0.0
  11
 8133.9738849712
  21
 2089.9672167895
  31
0.0
   0
MTEXT
   5
31C
 100
AcDbEntity
   8
LEVEL001
 370
13
  62
1
 100
AcDbMText
  10
 5733.9738849712
  20
 2269.9672167895
  30
0.0
  40
 51.428571428572
  41
0.0
  71
4
  72
1
   1
\T1.000000;支柱取付金具
   7
GMM001
  44
 0.79999984000003
   0
MTEXT
   5
31D
 100
AcDbEntity
   8
LEVEL001
 370
13
  62
1
 100
AcDbMText
  10
 5665.9738849712
  20
 2269.9672167895
  30
0.0
  40
 51.428571428572
  41
0.0
  71
6
  72
1
   1
\T1.000000;６
   7
GMM001
  44
 0.79999984000003
   0
MTEXT
   5
31E
 100
AcDbEntity
   8
LEVEL001
 370
13
  62
1
 100
AcDbMText
  10
 6745.9738849712
  20
 2269.9672167895
  30
0.0
  40
 51.428571428572
  41
0.0
  71
6
  72
1
   1
\T1.000000;２
   7
GMM001
  44
 0.79999984000003
   0
MTEXT
   5
31F
 100
AcDbEntity
   8
LEVEL001
 370
13
  62
1
 100
AcDbMText
  10
 6813.9738849712
  20
 2269.9672167895
  30
0.0
  40
 51.428571428572
  41
0.0
  71
4
  72
1
   1
\T1.000000;ＳＳ４００
   7
GMM001
  44
 0.79999984000003
   0
MTEXT
   5
320
 100
AcDbEntity
   8
LEVEL001
 370
13
  62
1
 100
AcDbMText
  10
 5665.9738849712
  20
 2389.9672167895
  30
0.0
  40
 51.428571428572
  41
0.0
  71
6
  72
1
   1
\T1.000000;５
   7
GMM001
  44
 0.79999984000003
   0
MTEXT
   5
321
 100
AcDbEntity
   8
LEVEL001
 370
13
  62
1
 100
AcDbMText
  10
 5733.9738849712
  20
 2389.9672167895
  30
0.0
  40
 51.428571428572
  41
0.0
  71
4
  72
1
   1
\T1.000000;裏板取付金具
   7
GMM001
  44
 0.79999984000003
   0
MTEXT
   5
322
 100
AcDbEntity
   8
LEVEL001
 370
13
  62
1
 100
AcDbMText
  10
 5665.9738849712
  20
 2509.9672167895
  30
0.0
  40
 51.428571428572
  41
0.0
  71
6
  72
1
   1
\T1.000000;４
   7
GMM001
  44
 0.79999984000003
   0
MTEXT
   5
323
 100
AcDbEntity
   8
LEVEL001
 370
13
  62
1
 100
AcDbMText
  10
 5733.9738849712
  20
 2509.9672167895
  30
0.0
  40
 51.428571428572
  41
0.0
  71
4
  72
1
   1
\T1.000000;リング
   7
GMM001
  44
 0.79999984000003
   0
MTEXT
   5
324
 100
AcDbEntity
   8
LEVEL001
 370
13
  62
1
 100
AcDbMText
  10
 5665.9738849712
  20
 2629.9672167895
  30
0.0
  40
 51.428571428572
  41
0.0
  71
6
  72
1
   1
\T1.000000;３
   7
GMM001
  44
 0.79999984000003
   0
MTEXT
   5
325
 100
AcDbEntity
   8
LEVEL001
 370
13
  62
1
 100
AcDbMText
  10
 5733.9738849712
  20
 2629.9672167895
  30
0.0
  40
 51.428571428572
  41
0.0
  71
4
  72
1
   1
\T1.000000;フード
   7
GMM001
  44
 0.79999984000003
   0
MTEXT
   5
326
 100
AcDbEntity
   8
LEVEL001
 370
13
  62
1
 100
AcDbMText
  10
 5665.9738849712
  20
 2749.9672167895
  30
0.0
  40
 51.428571428572
  41
0.0
  71
6
  72
1
   1
\T1.000000;２
   7
GMM001
  44
 0.79999984000003
   0
MTEXT
   5
327
 100
AcDbEntity
   8
LEVEL001
 370
13
  62
1
 100
AcDbMText
  10
 5665.9738849712
  20
 2869.9672167895
  30
0.0
  40
 51.428571428572
  41
0.0
  71
6
  72
1
   1
\T1.000000;１
   7
GMM001
  44
 0.79999984000003
   0
MTEXT
   5
328
 100
AcDbEntity
   8
LEVEL001
 370
13
  62
1
 100
AcDbMText
  10
 5733.9738849712
  20
 2749.9672167895
  30
0.0
  40
 51.428571428572
  41
0.0
  71
4
  72
1
   1
\T1.000000;バックプレート
   7
GMM001
  44
 0.79999984000003
   0
MTEXT
   5
329
 100
AcDbEntity
   8
LEVEL001
 370
13
  62
1
 100
AcDbMText
  10
 5733.9738849712
  20
 2869.9672167895
  30
0.0
  40
 51.428571428572
  41
0.0
  71
4
  72
1
   1
\T1.000000;鏡面　Ｒ＝２２００
   7
GMM001
  44
 0.79999984000003
   0
MTEXT
   5
32A
 100
AcDbEntity
   8
LEVEL001
 370
13
  62
1
 100
AcDbMText
  10
 6745.9738849712
  20
 2389.9672167895
  30
0.0
  40
 51.428571428572
  41
0.0
  71
6
  72
1
   1
\T1.000000;２
   7
GMM001
  44
 0.79999984000003
   0
MTEXT
   5
32B
 100
AcDbEntity
   8
LEVEL001
 370
13
  62
1
 100
AcDbMText
  10
 6745.9738849712
  20
 2509.9672167895
  30
0.0
  40
 51.428571428572
  41
0.0
  71
6
  72
1
   1
\T1.000000;２
   7
GMM001
  44
 0.79999984000003
   0
MTEXT
   5
32C
 100
AcDbEntity
   8
LEVEL001
 370
13
  62
1
 100
AcDbMText
  10
 6745.9738849712
  20
 2629.9672167895
  30
0.0
  40
 51.428571428572
  41
0.0
  71
6
  72
1
   1
\T1.000000;２
   7
GMM001
  44
 0.79999984000003
   0
MTEXT
   5
32D
 100
AcDbEntity
   8
LEVEL001
 370
13
  62
1
 100
AcDbMText
  10
 6745.9738849712
  20
 2749.9672167895
  30
0.0
  40
 51.428571428572
  41
0.0
  71
6
  72
1
   1
\T1.000000;２
   7
GMM001
  44
 0.79999984000003
   0
MTEXT
   5
32E
 100
AcDbEntity
   8
LEVEL001
 370
13
  62
1
 100
AcDbMText
  10
 6745.9738849712
  20
 2869.9672167895
  30
0.0
  40
 51.428571428572
  41
0.0
  71
6
  72
1
   1
\T1.000000;２
   7
GMM001
  44
 0.79999984000003
   0
MTEXT
   5
32F
 100
AcDbEntity
   8
LEVEL001
 370
13
  62
1
 100
AcDbMText
  10
 6813.9738849712
  20
 2389.9672167895
  30
0.0
  40
 51.428571428572
  41
0.0
  71
4
  72
1
   1
\T1.000000;ＳＳ４００
   7
GMM001
  44
 0.79999984000003
   0
MTEXT
   5
330
 100
AcDbEntity
   8
LEVEL001
 370
13
  62
1
 100
AcDbMText
  10
 6813.9738849712
  20
 2509.9672167895
  30
0.0
  40
 51.428571428572
  41
0.0
  71
4
  72
1
   1
\T1.000000;軟質ＰＶＣ
   7
GMM001
  44
 0.79999984000003
   0
MTEXT
   5
331
 100
AcDbEntity
   8
LEVEL001
 370
13
  62
1
 100
AcDbMText
  10
 6813.9738849712
  20
 2629.9672167895
  30
0.0
  40
 51.428571428572
  41
0.0
  71
4
  72
1
   1
\T1.000000;ＰＣ
   7
GMM001
  44
 0.79999984000003
   0
MTEXT
   5
332
 100
AcDbEntity
   8
LEVEL001
 370
13
  62
1
 100
AcDbMText
  10
 6813.9738849712
  20
 2869.9672167895
  30
0.0
  40
 51.428571428572
  41
0.0
  71
4
  72
1
   1
\T1.000000;ＳＵＳ３０４
   7
GMM001
  44
 0.79999984000003
   0
MTEXT
   5
333
 100
AcDbEntity
   8
LEVEL001
 370
13
  62
1
 100
AcDbMText
  10
 7373.9738849712
  20
 2269.9672167895
  30
0.0
  40
 51.428571428572
  41
0.0
  71
4
  72
1
   1
\T1.000000;溶融亜鉛メッキ
   7
GMM001
  44
 0.79999984000003
   0
MTEXT
   5
334
 100
AcDbEntity
   8
LEVEL001
 370
13
  62
1
 100
AcDbMText
  10
 7373.9738849712
  20
 2389.9672167895
  30
0.0
  40
 51.428571428572
  41
0.0
  71
4
  72
1
   1
\T1.000000;溶融亜鉛メッキ
   7
GMM001
  44
 0.79999984000003
   0
MTEXT
   5
335
 100
AcDbEntity
   8
LEVEL001
 370
13
  62
1
 100
AcDbMText
  10
 7373.9738849712
  20
 2869.9672167895
  30
0.0
  40
 51.428571428572
  41
0.0
  71
4
  72
1
   1
\T1.000000;t=0.9mm\T1.000000;・表面研磨
   7
GMM001
  44
 0.79999984000003
   0
MTEXT
   5
336
 100
AcDbEntity
   8
LEVEL001
 370
13
  62
1
 100
AcDbMText
  10
 7373.9738849712
  20
 2629.9672167895
  30
0.0
  40
 51.428571428572
  41
0.0
  71
4
  72
1
   1
\T1.000000;ＵＶグレ－ド
   7
GMM001
  44
 0.79999984000003
   0
LINE
   5
337
 100
AcDbEntity
   8
LEVEL001
 370
13
 100
AcDbLine
   6
CONTINUOUS
  62
6
  10
 5493.9738849712
  20
 2209.9672167895
  30
0.0
  11
 8133.9738849712
  21
 2209.9672167895
  31
0.0
   0
LINE
   5
338
 100
AcDbEntity
   8
LEVEL001
 370
13
 100
AcDbLine
   6
CONTINUOUS
  62
6
  10
 5493.9738849712
  20
 2329.9672167895
  30
0.0
  11
 8133.9738849712
  21
 2329.9672167895
  31
0.0
   0
LINE
   5
339
 100
AcDbEntity
   8
LEVEL001
 370
13
 100
AcDbLine
   6
CONTINUOUS
  62
6
  10
 5493.9738849712
  20
 2689.9672167895
  30
0.0
  11
 8133.9738849712
  21
 2689.9672167895
  31
0.0
   0
LINE
   5
33A
 100
AcDbEntity
   8
LEVEL001
 370
13
 100
AcDbLine
   6
CONTINUOUS
  62
6
  10
 5493.9738849712
  20
 2449.9672167895
  30
0.0
  11
 8133.9738849712
  21
 2449.9672167895
  31
0.0
   0
LINE
   5
33B
 100
AcDbEntity
   8
LEVEL001
 370
13
 100
AcDbLine
   6
CONTINUOUS
  62
6
  10
 5493.9738849712
  20
 2809.9672167895
  30
0.0
  11
 8133.9738849712
  21
 2809.9672167895
  31
0.0
   0
MTEXT
   5
33C
 100
AcDbEntity
   8
LEVEL001
 370
13
  62
1
 100
AcDbMText
  10
 5593.9738849712
  20
 3169.9672167895
  30
0.0
  40
 57.142857142858
  41
0.0
  71
4
  72
1
   1
%%c\T1.000000;６００（ダブル）
   7
GMM001
  44
 0.79999984000003
   0
MTEXT
   5
33D
 100
AcDbEntity
   8
LEVEL001
 370
13
  62
1
 100
AcDbMText
  10
 6133.9738849712
  20
 3009.9672167895
  30
0.0
  40
 51.428571428572
  41
0.0
  71
5
  72
1
   1
\T1.000000;名　　称
   7
GMM001
  44
 0.79999984000003
   0
MTEXT
   5
33E
 100
AcDbEntity
   8
LEVEL001
 370
13
  62
1
 100
AcDbMText
  10
 6673.9738849712
  20
 3009.9672167895
  30
0.0
  40
 51.428571428572
  41
0.0
  71
5
  72
1
   1
\T1.000000;個数
   7
GMM001
  44
 0.79999984000003
   0
MTEXT
   5
33F
 100
AcDbEntity
   8
LEVEL001
 370
13
  62
1
 100
AcDbMText
  10
 7053.9738849712
  20
 3009.9672167895
  30
0.0
  40
 51.428571428572
  41
0.0
  71
5
  72
1
   1
\T1.000000;材　　質
   7
GMM001
  44
 0.79999984000003
   0
MTEXT
   5
340
 100
AcDbEntity
   8
LEVEL001
 370
13
  62
1
 100
AcDbMText
  10
 7733.9738849712
  20
 3009.9672167895
  30
0.0
  40
 51.428571428572
  41
0.0
  71
5
  72
1
   1
\T1.000000;規格仕様
   7
GMM001
  44
 0.79999984000003
   0
LINE
   5
341
 100
AcDbEntity
   8
LEVEL001
 370
13
 100
AcDbLine
   6
CONTINUOUS
  62
6
  10
 5693.9738849712
  20
 3089.9672167895
  30
0.0
  11
 5693.9738849712
  21
 1009.9672167895
  31
0.0
   0
LINE
   5
342
 100
AcDbEntity
   8
LEVEL001
 370
13
 100
AcDbLine
   6
CONTINUOUS
  62
6
  10
 6573.9738849712
  20
 3089.9672167895
  30
0.0
  11
 6573.9738849712
  21
 1009.9672167895
  31
0.0
   0
LINE
   5
343
 100
AcDbEntity
   8
LEVEL001
 370
13
 100
AcDbLine
   6
CONTINUOUS
  62
6
  10
 6773.9738849712
  20
 3089.9672167895
  30
0.0
  11
 6773.9738849712
  21
 1009.9672167895
  31
0.0
   0
LINE
   5
344
 100
AcDbEntity
   8
LEVEL001
 370
13
 100
AcDbLine
   6
CONTINUOUS
  62
6
  10
 7333.9738849712
  20
 3089.9672167895
  30
0.0
  11
 7333.9738849712
  21
 1009.9672167895
  31
0.0
   0
LINE
   5
345
 100
AcDbEntity
   8
LEVEL001
 370
13
 100
AcDbLine
   6
CONTINUOUS
  62
2
  10
 5493.9738849712
  20
 3409.9672167895
  30
0.0
  11
 8133.9738849712
  21
 3409.9672167895
  31
0.0
   0
LINE
   5
346
 100
AcDbEntity
   8
LEVEL001
 370
13
 100
AcDbLine
   6
CONTINUOUS
  62
2
  10
 5493.9738849712
  20
 1009.9672167895
  30
0.0
  11
 5493.9738849712
  21
 3409.9672167895
  31
0.0
   0
LINE
   5
347
 100
AcDbEntity
   8
LEVEL001
 370
13
 100
AcDbLine
   6
CONTINUOUS
  62
2
  10
 5493.9738849712
  20
 3089.9672167895
  30
0.0
  11
 8133.9738849712
  21
 3089.9672167895
  31
0.0
   0
LINE
   5
348
 100
AcDbEntity
   8
LEVEL001
 370
13
 100
AcDbLine
   6
CONTINUOUS
  62
2
  10
 5493.9738849712
  20
 2929.9672167895
  30
0.0
  11
 8133.9738849712
  21
 2929.9672167895
  31
0.0
   0
MTEXT
   5
349
 100
AcDbEntity
   8
LEVEL001
 370
13
  62
1
 100
AcDbMText
  10
 5593.9738849712
  20
 3329.9672167895
  30
0.0
  40
 57.142857142858
  41
0.0
  71
4
  72
1
   1
\T1.000000;ステンレスミラー　＜Ｚタイプ＞
   7
GMM001
  44
 0.79999984000003
   0
MTEXT
   5
34A
 100
AcDbEntity
   8
LEVEL001
 370
13
  62
1
 100
AcDbMText
  10
 6813.9738849712
  20
 2749.9672167895
  30
0.0
  40
 51.428571428572
  41
0.0
  71
4
  72
1
   1
\T1.000000;高耐食溶融めっき鋼板
   7
GMM004
  44
 0.79999984000003
   0
LINE
   5
34B
 100
AcDbEntity
   8
0
 370
13
 100
AcDbLine
   6
CONTINUOUS
  62
6
  10
 6773.9738849712
  20
 3089.9672167895
  30
0.0
  11
 6773.9738849712
  21
 889.96721678949
  31
0.0
   0
LINE
   5
34C
 100
AcDbEntity
   8
0
 370
13
 100
AcDbLine
   6
CONTINUOUS
  62
6
  10
 7333.9738849712
  20
 3089.9672167895
  30
0.0
  11
 7333.9738849712
  21
 889.96721678949
  31
0.0
   0
MTEXT
   5
34D
 100
AcDbEntity
   8
0
 370
13
  62
1
 100
AcDbMText
  10
 6813.5572761027
  20
 1516.2360665439
  30
0.0
  40
 51.428571428571
  41
0.0
  71
7
  72
1
   1
\T1.000000;ＳＴＫ４００
   7
GMM001
  44
 0.79999984000003
   0
MTEXT
   5
34E
 100
AcDbEntity
   8
0
 370
13
  62
1
 100
AcDbMText
  10
 7375.3554142212
  20
 1555.8272877604
  30
0.0
  40
 34.285720000000
  41
0.0
  71
4
  72
1
   1
{\T1.000000;下地亜鉛メッキ}\P{\T1.000000;＋静電粉体塗装}
   7
GMM005
  44
 0.79999984000003
   0
MTEXT
   5
34F
 100
AcDbEntity
   8
0
 370
13
  62
1
 100
AcDbMText
  10
 6744.9528587253
  20
 1516.2360665439
  30
0.0
  40
 51.428571428571
  41
0.0
  71
9
  72
1
   1
\T1.000000;１
   7
GMM001
  44
 0.79999984000003
   0
MTEXT
   5
350
 100
AcDbEntity
   8
LEVEL001
 370
13
  62
1
 100
AcDbMText
  10
 6745.9738849712
  20
 1069.9672167895
  30
0.0
  40
 51.428571428572
  41
0.0
  71
6
  72
1
   1
\T1.000000;１式
   7
GMM001
  44
 0.79999984000003
   0
MTEXT
   5
351
 100
AcDbEntity
   8
LEVEL001
 370
13
  62
1
 100
AcDbMText
  10
 6745.9738849712
  20
 949.96721678949
  30
0.0
  40
 51.428571428572
  41
0.0
  71
6
  72
1
   1
\T1.000000;１式
   7
GMM001
  44
 0.79999984000003
   0
MTEXT
   5
352
 100
AcDbEntity
   8
LEVEL001
 370
13
  62
1
 100
AcDbMText
  10
 6813.9738849712
  20
 949.96721678949
  30
0.0
  40
 51.428571428572
  41
0.0
  71
4
  72
1
   1
\T1.000000;―
   7
GMM001
  44
 0.79999984000003
   0
MTEXT
   5
353
 100
AcDbEntity
   8
LEVEL001
 370
13
  62
1
 100
AcDbMText
  10
 6813.9738849712
  20
 1069.9672167895
  30
0.0
  40
 51.428571428572
  41
0.0
  71
4
  72
1
   1
\T1.000000;―
   7
GMM001
  44
 0.79999984000003
   0
MTEXT
   5
354
 100
AcDbEntity
   8
LEVEL001
 370
13
  62
1
 100
AcDbMText
  10
 7373.9738849712
  20
 1069.9672167895
  30
0.0
  40
 51.428571428572
  41
0.0
  71
4
  72
1
   1
\T1.000000;―
   7
GMM001
  44
 0.79999984000003
   0
MTEXT
   5
355
 100
AcDbEntity
   8
LEVEL001
 370
13
  62
1
 100
AcDbMText
  10
 7373.9738849712
  20
 949.96721678949
  30
0.0
  40
 51.428571428572
  41
0.0
  71
4
  72
1
   1
\T1.000000;―
   7
GMM001
  44
 0.79999984000003
   0
MTEXT
   5
356
 100
AcDbEntity
   8
LEVEL001
 370
13
  62
1
 100
AcDbMText
  10
 6813.9738849712
  20
 1189.9672167895
  30
0.0
  40
 51.428571428572
  41
0.0
  71
4
  72
1
   1
\T1.000000;―
   7
GMM001
  44
 0.79999984000003
   0
LINE
   5
357
 100
AcDbEntity
   8
0
 370
13
 100
AcDbLine
   6
CONTINUOUS
  62
6
  10
 5693.9738849712
  20
 3089.9672167895
  30
0.0
  11
 5693.9738849712
  21
 889.96721678949
  31
0.0
   0
LINE
   5
358
 100
AcDbEntity
   8
0
 370
13
 100
AcDbLine
   6
CONTINUOUS
  62
6
  10
 6573.9738849712
  20
 3089.9672167895
  30
0.0
  11
 6573.9738849712
  21
 889.96721678949
  31
0.0
   0
LWPOLYLINE
   5
359
 100
AcDbEntity
   8
0
 370
13
   6
CONTINUOUS
  62
2
 100
AcDbPolyline
  90
4
  70
1
  10
 5493.9738849712
  20
 3409.9672167895
  10
 5493.9738849712
  20
 889.96721678949
  10
 8133.9738849712
  20
 889.96721678949
  10
 8133.9738849712
  20
 3409.9672167895
   0
POINT
   5
35A
 100
AcDbEntity
   8
LEVEL001
 100
AcDbPoint
  62
3
  10
 6333.9738849712
  20
 729.96721678949
  30
0.0
   0
MTEXT
   5
35B
 100
AcDbEntity
   8
LEVEL001
 370
13
  62
2
 100
AcDbMText
  10
 5503.9738849712
  20
 859.96721678949
  30
0.0
  40
 38.571428571428
  41
0.0
  71
4
  72
1
   1
\T1.370378;図面番号
   7
GMM001
  44
 0.79999984000003
   0
MTEXT
   5
35C
 100
AcDbEntity
   8
LEVEL001
 370
13
  62
1
 100
AcDbMText
  10
 7376.7358867746
  20
 2803.7647542416
  30
0.0
  40
 34.285714285714
  41
0.0
  71
1
  72
1
   1
{\T1.000000;ＺＡＭ処理鋼板}\P{\T1.000000;プレス成型}
   7
GMM005
  44
 1.0099997980000
   0
MTEXT
   5
35D
 100
AcDbEntity
   8
LEVEL001
 370
13
  62
1
 100
AcDbMText
  10
 5733.9738849712
  20
 3589.9672167895
  30
0.0
  40
 51.428580000000
  41
0.0
  71
1
  72
1
   1
{\T1.000000;※構成部材は改良のため、変更する場合があります。}\P{\T1.000000;※本図は道路反射鏡ハンドブックに基づいています。}
   7
GMM001
  44
 0.79999984000003
   0
MTEXT
   5
35E
 100
AcDbEntity
   8
LEVEL001
 370
13
  62
1
 100
AcDbMText
  10
 5733.9738849712
  20
 1189.9672167895
  30
0.0
  40
 51.428571428572
  41
0.0
  71
4
  72
1
   1
\T1.000000;注意板
   7
GMM001
  44
 0.79999984000003
   0
MTEXT
   5
35F
 100
AcDbEntity
   8
LEVEL001
 370
13
  62
1
 100
AcDbMText
  10
 6333.9738849712
  20
 734.18596678949
  30
0.0
  40
 42.857142857142
  41
0.0
  71
5
  72
1
   1
\T1.000000;ＭＺＨ０６０Ｗ
   7
GMM001
  44
 0.79999984000003
   0
LINE
   5
360
 100
AcDbEntity
   8
LEVEL001
 370
13
 100
AcDbLine
   6
CONTINUOUS
  62
5
  10
 3483.9738849712
  20
 857.46721678950
  30
0.0
  11
 3433.9738849712
  21
 757.46721678950
  31
0.0
   0
LINE
   5
361
 100
AcDbEntity
   8
LEVEL001
 370
13
 100
AcDbLine
   6
CONTINUOUS
  62
5
  10
 3433.9738849712
  20
 857.46721678950
  30
0.0
  11
 3473.9738849712
  21
 837.46721678950
  31
0.0
   0
LINE
   5
362
 100
AcDbEntity
   8
LEVEL001
 370
13
 100
AcDbLine
   6
CONTINUOUS
  62
5
  10
 3433.9738849712
  20
 857.46721678950
  30
0.0
  11
 3383.9738849712
  21
 757.46721678950
  31
0.0
   0
LINE
   5
363
 100
AcDbEntity
   8
LEVEL001
 370
13
 100
AcDbLine
   6
CONTINUOUS
  62
5
  10
 3383.9738849712
  20
 857.46721678950
  30
0.0
  11
 3423.9738849712
  21
 837.46721678950
  31
0.0
   0
LINE
   5
364
 100
AcDbEntity
   8
LEVEL001
 370
13
 100
AcDbLine
   6
CONTINUOUS
  62
5
  10
 3383.9738849712
  20
 857.46721678950
  30
0.0
  11
 3333.9738849712
  21
 757.46721678950
  31
0.0
   0
LINE
   5
365
 100
AcDbEntity
   8
LEVEL001
 370
13
 100
AcDbLine
   6
CONTINUOUS
  62
5
  10
 3333.9738849712
  20
 857.46721678950
  30
0.0
  11
 3373.9738849712
  21
 837.46721678950
  31
0.0
   0
LINE
   5
366
 100
AcDbEntity
   8
LEVEL001
 370
13
 100
AcDbLine
   6
CONTINUOUS
  62
5
  10
 3483.9738849712
  20
 757.46721678950
  30
0.0
  11
 3443.9738849712
  21
 777.46721678950
  31
0.0
   0
LINE
   5
367
 100
AcDbEntity
   8
LEVEL001
 370
13
 100
AcDbLine
   6
CONTINUOUS
  62
5
  10
 3433.9738849712
  20
 757.46721678950
  30
0.0
  11
 3393.9738849712
  21
 777.46721678950
  31
0.0
   0
LINE
   5
368
 100
AcDbEntity
   8
LEVEL001
 370
13
 100
AcDbLine
   6
CONTINUOUS
  62
5
  10
 3383.9738849712
  20
 757.46721678950
  30
0.0
  11
 3343.9738849712
  21
 777.46721678950
  31
0.0
   0
LINE
   5
369
 100
AcDbEntity
   8
LEVEL001
 370
13
 100
AcDbLine
   6
CONTINUOUS
  62
5
  10
 3483.9738849712
  20
 857.46721678950
  30
0.0
  11
 2983.9738849712
  21
 857.46721678950
  31
0.0
   0
LINE
   5
36A
 100
AcDbEntity
   8
LEVEL001
 370
13
 100
AcDbLine
   6
CONTINUOUS
  62
5
  10
 2983.9738849712
  20
 757.46721678950
  30
0.0
  11
 3483.9738849712
  21
 757.46721678950
  31
0.0
   0
LINE
   5
36B
 100
AcDbEntity
   8
LEVEL001
 370
13
 100
AcDbLine
   6
CONTINUOUS
  62
5
  10
 3483.9738849712
  20
 757.46721678950
  30
0.0
  11
 3483.9738849712
  21
 857.46721678950
  31
0.0
   0
LINE
   5
36C
 100
AcDbEntity
   8
LEVEL001
 370
13
 100
AcDbLine
   6
CONTINUOUS
  62
5
  10
 3544.6540798178
  20
 1857.4672167895
  30
0.0
  11
 3492.1540798178
  21
 1804.9672167895
  31
0.0
   0
LINE
   5
36D
 100
AcDbEntity
   8
LEVEL001
 370
13
 100
AcDbLine
   6
CONTINUOUS
  62
5
  10
 3508.0639823940
  20
 1804.9672167895
  30
0.0
  11
 3560.5639823940
  21
 1857.4672167895
  31
0.0
   0
LINE
   5
36E
 100
AcDbEntity
   8
LEVEL001
 370
13
 100
AcDbLine
   6
CONTINUOUS
  62
5
  10
 3576.4738849716
  20
 1857.4672167895
  30
0.0
  11
 3523.9738849716
  21
 1804.9672167895
  31
0.0
   0
LINE
   5
36F
 100
AcDbEntity
   8
LEVEL001
 370
13
 100
AcDbLine
   6
CONTINUOUS
  62
5
  10
 3539.8837875476
  20
 1804.9672167895
  30
0.0
  11
 3592.3837875476
  21
 1857.4672167895
  31
0.0
   0
LINE
   5
370
 100
AcDbEntity
   8
LEVEL001
 370
13
 100
AcDbLine
   6
CONTINUOUS
  62
5
  10
 3597.1540798182
  20
 1804.9672167895
  30
0.0
  11
 3568.5189336828
  21
 1833.6023629248
  31
0.0
   0
LINE
   5
371
 100
AcDbEntity
   8
LEVEL001
 370
13
 100
AcDbLine
   6
CONTINUOUS
  62
5
  10
 3576.4738849710
  20
 1841.5573142130
  30
0.0
  11
 3613.0639823946
  21
 1804.9672167895
  31
0.0
   0
LINE
   5
372
 100
AcDbEntity
   8
LEVEL001
 370
13
 100
AcDbLine
   6
CONTINUOUS
  62
5
  10
 3628.9738849710
  20
 1804.9672167895
  30
0.0
  11
 3584.4288362592
  21
 1849.5122655012
  31
0.0
   0
LINE
   5
373
 100
AcDbEntity
   8
LEVEL001
 370
13
 100
AcDbLine
   6
CONTINUOUS
  62
5
  10
 3592.3837875476
  20
 1857.4672167895
  30
0.0
  11
 3644.8837875478
  21
 1804.9672167895
  31
0.0
   0
LINE
   5
374
 100
AcDbEntity
   8
LEVEL001
 370
13
 100
AcDbLine
   6
CONTINUOUS
  62
5
  10
 3644.8837875478
  20
 1804.9672167895
  30
0.0
  11
 3697.3837875478
  21
 1857.4672167895
  31
0.0
   0
LINE
   5
375
 100
AcDbEntity
   8
LEVEL001
 370
13
 100
AcDbLine
   6
CONTINUOUS
  62
5
  10
 3649.6540798180
  20
 1857.4672167895
  30
0.0
  11
 3621.0189336828
  21
 1828.8320706543
  31
0.0
   0
LINE
   5
376
 100
AcDbEntity
   8
LEVEL001
 370
13
 100
AcDbLine
   6
CONTINUOUS
  62
5
  10
 3628.9738849710
  20
 1820.8771193663
  30
0.0
  11
 3665.5639823942
  21
 1857.4672167895
  31
0.0
   0
LINE
   5
377
 100
AcDbEntity
   8
LEVEL001
 370
13
 100
AcDbLine
   6
CONTINUOUS
  62
5
  10
 3681.4738849718
  20
 1857.4672167895
  30
0.0
  11
 3636.9288362598
  21
 1812.9221680775
  31
0.0
   0
LINE
   5
378
 100
AcDbEntity
   8
LEVEL001
 370
13
 100
AcDbLine
   6
CONTINUOUS
  62
5
  10
 3702.1540798184
  20
 1804.9672167895
  30
0.0
  11
 3673.5189336830
  21
 1833.6023629248
  31
0.0
   0
LINE
   5
379
 100
AcDbEntity
   8
LEVEL001
 370
13
 100
AcDbLine
   6
CONTINUOUS
  62
5
  10
 3681.4738849712
  20
 1841.5573142130
  30
0.0
  11
 3718.0639823948
  21
 1804.9672167895
  31
0.0
   0
LINE
   5
37A
 100
AcDbEntity
   8
LEVEL001
 370
13
 100
AcDbLine
   6
CONTINUOUS
  62
5
  10
 2983.9738849712
  20
 857.46721678950
  30
0.0
  11
 3483.9738849712
  21
 857.46721678950
  31
0.0
   0
LINE
   5
37B
 100
AcDbEntity
   8
LEVEL001
 370
13
 100
AcDbLine
   6
CONTINUOUS
  62
5
  10
 3483.9738849712
  20
 857.46721678950
  30
0.0
  11
 3483.9738849712
  21
 1857.4672167895
  31
0.0
   0
LINE
   5
37C
 100
AcDbEntity
   8
LEVEL001
 370
13
 100
AcDbLine
   6
CONTINUOUS
  62
5
  10
 3272.1238849712
  20
 1857.4672167895
  30
0.0
  11
 3733.9738849712
  21
 1857.4672167895
  31
0.0
   0
LINE
   5
37D
 100
AcDbEntity
   8
LEVEL001
 370
13
 100
AcDbLine
   6
CONTINUOUS
  62
5
  10
 3483.9738849712
  20
 1580.9725558488
  30
0.0
  11
 3272.1238849712
  21
 1369.1225558488
  31
0.0
   0
LINE
   5
37E
 100
AcDbEntity
   8
LEVEL001
 370
13
 100
AcDbLine
   6
CONTINUOUS
  62
5
  10
 3272.1238849712
  20
 1333.7672167895
  30
0.0
  11
 3483.9738849712
  21
 1545.6172167895
  31
0.0
   0
LINE
   5
37F
 100
AcDbEntity
   8
LEVEL001
 370
13
 100
AcDbLine
   6
CONTINUOUS
  62
5
  10
 3483.9738849712
  20
 1510.2618777302
  30
0.0
  11
 3272.1238849712
  21
 1298.4118777302
  31
0.0
   0
LINE
   5
380
 100
AcDbEntity
   8
LEVEL001
 370
13
 100
AcDbLine
   6
CONTINUOUS
  62
5
  10
 2983.9738849712
  20
 1857.4672167895
  30
0.0
  11
 2983.9738849712
  21
 857.46721678950
  31
0.0
   0
LINE
   5
381
 100
AcDbEntity
   8
LEVEL001
 370
13
 100
AcDbLine
   6
CONTINUOUS
  62
5
  10
 2894.8837875478
  20
 1804.9672167895
  30
0.0
  11
 2947.3837875478
  21
 1857.4672167895
  31
0.0
   0
LINE
   5
382
 100
AcDbEntity
   8
LEVEL001
 370
13
 100
AcDbLine
   6
CONTINUOUS
  62
5
  10
 2878.9738849710
  20
 1820.8771193663
  30
0.0
  11
 2915.5639823942
  21
 1857.4672167895
  31
0.0
   0
LINE
   5
383
 100
AcDbEntity
   8
LEVEL001
 370
13
 100
AcDbLine
   6
CONTINUOUS
  62
5
  10
 2931.4738849718
  20
 1857.4672167895
  30
0.0
  11
 2886.9288362598
  21
 1812.9221680775
  31
0.0
   0
LINE
   5
384
 100
AcDbEntity
   8
LEVEL001
 370
13
 100
AcDbLine
   6
CONTINUOUS
  62
5
  10
 2952.1540798184
  20
 1804.9672167895
  30
0.0
  11
 2923.5189336830
  21
 1833.6023629248
  31
0.0
   0
LINE
   5
385
 100
AcDbEntity
   8
LEVEL001
 370
13
 100
AcDbLine
   6
CONTINUOUS
  62
5
  10
 2931.4738849712
  20
 1841.5573142130
  30
0.0
  11
 2968.0639823948
  21
 1804.9672167895
  31
0.0
   0
LINE
   5
386
 100
AcDbEntity
   8
LEVEL001
 370
13
 100
AcDbLine
   6
CONTINUOUS
  62
5
  10
 2983.9738849712
  20
 1804.9672167895
  30
0.0
  11
 2939.4288362594
  21
 1849.5122655012
  31
0.0
   0
LINE
   5
387
 100
AcDbEntity
   8
LEVEL001
 370
13
 100
AcDbLine
   6
CONTINUOUS
  62
5
  10
 2794.6540798178
  20
 1857.4672167895
  30
0.0
  11
 2742.1540798178
  21
 1804.9672167895
  31
0.0
   0
LINE
   5
388
 100
AcDbEntity
   8
LEVEL001
 370
13
 100
AcDbLine
   6
CONTINUOUS
  62
5
  10
 2758.0639823940
  20
 1804.9672167895
  30
0.0
  11
 2810.5639823940
  21
 1857.4672167895
  31
0.0
   0
LINE
   5
389
 100
AcDbEntity
   8
LEVEL001
 370
13
 100
AcDbLine
   6
CONTINUOUS
  62
5
  10
 2826.4738849716
  20
 1857.4672167895
  30
0.0
  11
 2773.9738849716
  21
 1804.9672167895
  31
0.0
   0
LINE
   5
38A
 100
AcDbEntity
   8
LEVEL001
 370
13
 100
AcDbLine
   6
CONTINUOUS
  62
5
  10
 2789.8837875476
  20
 1804.9672167895
  30
0.0
  11
 2842.3837875476
  21
 1857.4672167895
  31
0.0
   0
LINE
   5
38B
 100
AcDbEntity
   8
LEVEL001
 370
13
 100
AcDbLine
   6
CONTINUOUS
  62
5
  10
 2847.1540798182
  20
 1804.9672167895
  30
0.0
  11
 2818.5189336828
  21
 1833.6023629248
  31
0.0
   0
LINE
   5
38C
 100
AcDbEntity
   8
LEVEL001
 370
13
 100
AcDbLine
   6
CONTINUOUS
  62
5
  10
 2826.4738849710
  20
 1841.5573142130
  30
0.0
  11
 2863.0639823946
  21
 1804.9672167895
  31
0.0
   0
LINE
   5
38D
 100
AcDbEntity
   8
LEVEL001
 370
13
 100
AcDbLine
   6
CONTINUOUS
  62
5
  10
 2878.9738849710
  20
 1804.9672167895
  30
0.0
  11
 2834.4288362592
  21
 1849.5122655012
  31
0.0
   0
LINE
   5
38E
 100
AcDbEntity
   8
LEVEL001
 370
13
 100
AcDbLine
   6
CONTINUOUS
  62
5
  10
 2842.3837875476
  20
 1857.4672167895
  30
0.0
  11
 2894.8837875478
  21
 1804.9672167895
  31
0.0
   0
LINE
   5
38F
 100
AcDbEntity
   8
LEVEL001
 370
13
 100
AcDbLine
   6
CONTINUOUS
  62
5
  10
 2899.6540798180
  20
 1857.4672167895
  30
0.0
  11
 2871.0189336828
  21
 1828.8320706543
  31
0.0
   0
LINE
   5
390
 100
AcDbEntity
   8
LEVEL001
 370
13
 100
AcDbLine
   6
CONTINUOUS
  62
5
  10
 2947.3837875478
  20
 1857.4672167895
  30
0.0
  11
 2983.9738849712
  21
 1820.8771193662
  31
0.0
   0
LINE
   5
391
 100
AcDbEntity
   8
LEVEL001
 370
13
 100
AcDbLine
   6
CONTINUOUS
  62
5
  10
 3195.8238849712
  20
 1857.4672167895
  30
0.0
  11
 2733.9738849712
  21
 1857.4672167895
  31
0.0
   0
LINE
   5
392
 100
AcDbEntity
   8
LEVEL001
 370
13
 100
AcDbLine
   6
CONTINUOUS
  62
5
  10
 2983.9738849712
  20
 1045.6172167895
  30
0.0
  11
 3195.8238849712
  21
 1257.4672167895
  31
0.0
   0
LINE
   5
393
 100
AcDbEntity
   8
LEVEL001
 370
13
 100
AcDbLine
   6
CONTINUOUS
  62
5
  10
 3195.8238849712
  20
 1222.1118777302
  30
0.0
  11
 2983.9738849712
  21
 1010.2618777302
  31
0.0
   0
LINE
   5
394
 100
AcDbEntity
   8
LEVEL001
 370
13
 100
AcDbLine
   6
CONTINUOUS
  62
5
  10
 3195.8238849712
  20
 1292.8225558488
  30
0.0
  11
 2983.9738849712
  21
 1080.9725558488
  31
0.0
   0
LINE
   5
395
 100
AcDbEntity
   8
LEVEL001
 370
13
 100
AcDbLine
   6
CONTINUOUS
  62
5
  10
 3133.9738849712
  20
 857.46721678950
  30
0.0
  11
 3083.9738849712
  21
 757.46721678950
  31
0.0
   0
LINE
   5
396
 100
AcDbEntity
   8
LEVEL001
 370
13
 100
AcDbLine
   6
CONTINUOUS
  62
5
  10
 3083.9738849712
  20
 857.46721678950
  30
0.0
  11
 3123.9738849712
  21
 837.46721678950
  31
0.0
   0
LINE
   5
397
 100
AcDbEntity
   8
LEVEL001
 370
13
 100
AcDbLine
   6
CONTINUOUS
  62
5
  10
 3083.9738849712
  20
 857.46721678950
  30
0.0
  11
 3033.9738849712
  21
 757.46721678950
  31
0.0
   0
LINE
   5
398
 100
AcDbEntity
   8
LEVEL001
 370
13
 100
AcDbLine
   6
CONTINUOUS
  62
5
  10
 3033.9738849712
  20
 857.46721678950
  30
0.0
  11
 3073.9738849712
  21
 837.46721678950
  31
0.0
   0
LINE
   5
399
 100
AcDbEntity
   8
LEVEL001
 370
13
 100
AcDbLine
   6
CONTINUOUS
  62
5
  10
 3033.9738849712
  20
 857.46721678950
  30
0.0
  11
 2983.9738849712
  21
 757.46721678950
  31
0.0
   0
LINE
   5
39A
 100
AcDbEntity
   8
LEVEL001
 370
13
 100
AcDbLine
   6
CONTINUOUS
  62
5
  10
 2983.9738849712
  20
 857.46721678950
  30
0.0
  11
 3023.9738849712
  21
 837.46721678950
  31
0.0
   0
LINE
   5
39B
 100
AcDbEntity
   8
LEVEL001
 370
13
 100
AcDbLine
   6
CONTINUOUS
  62
5
  10
 3133.9738849712
  20
 757.46721678950
  30
0.0
  11
 3093.9738849712
  21
 777.46721678950
  31
0.0
   0
LINE
   5
39C
 100
AcDbEntity
   8
LEVEL001
 370
13
 100
AcDbLine
   6
CONTINUOUS
  62
5
  10
 3083.9738849712
  20
 757.46721678950
  30
0.0
  11
 3043.9738849712
  21
 777.46721678950
  31
0.0
   0
LINE
   5
39D
 100
AcDbEntity
   8
LEVEL001
 370
13
 100
AcDbLine
   6
CONTINUOUS
  62
5
  10
 3033.9738849712
  20
 757.46721678950
  30
0.0
  11
 2993.9738849712
  21
 777.46721678950
  31
0.0
   0
LINE
   5
39E
 100
AcDbEntity
   8
LEVEL001
 370
13
 100
AcDbLine
   6
CONTINUOUS
  62
5
  10
 2983.9738849712
  20
 857.46721678950
  30
0.0
  11
 2983.9738849712
  21
 757.46721678950
  31
0.0
   0
LINE
   5
39F
 100
AcDbEntity
   8
LEVEL001
 370
13
 100
AcDbLine
   6
CONTINUOUS
  62
5
  10
 1433.9738849712
  20
 857.46721678950
  30
0.0
  11
 1383.9738849712
  21
 757.46721678950
  31
0.0
   0
LINE
   5
3A0
 100
AcDbEntity
   8
LEVEL001
 370
13
 100
AcDbLine
   6
CONTINUOUS
  62
5
  10
 1383.9738849712
  20
 857.46721678950
  30
0.0
  11
 1423.9738849712
  21
 837.46721678950
  31
0.0
   0
LINE
   5
3A1
 100
AcDbEntity
   8
LEVEL001
 370
13
 100
AcDbLine
   6
CONTINUOUS
  62
5
  10
 1383.9738849712
  20
 857.46721678950
  30
0.0
  11
 1333.9738849712
  21
 757.46721678950
  31
0.0
   0
LINE
   5
3A2
 100
AcDbEntity
   8
LEVEL001
 370
13
 100
AcDbLine
   6
CONTINUOUS
  62
5
  10
 1333.9738849712
  20
 857.46721678950
  30
0.0
  11
 1373.9738849712
  21
 837.46721678950
  31
0.0
   0
LINE
   5
3A3
 100
AcDbEntity
   8
LEVEL001
 370
13
 100
AcDbLine
   6
CONTINUOUS
  62
5
  10
 1333.9738849712
  20
 857.46721678950
  30
0.0
  11
 1283.9738849712
  21
 757.46721678950
  31
0.0
   0
LINE
   5
3A4
 100
AcDbEntity
   8
LEVEL001
 370
13
 100
AcDbLine
   6
CONTINUOUS
  62
5
  10
 1283.9738849712
  20
 857.46721678950
  30
0.0
  11
 1323.9738849712
  21
 837.46721678950
  31
0.0
   0
LINE
   5
3A5
 100
AcDbEntity
   8
LEVEL001
 370
13
 100
AcDbLine
   6
CONTINUOUS
  62
5
  10
 1433.9738849712
  20
 757.46721678950
  30
0.0
  11
 1393.9738849712
  21
 777.46721678950
  31
0.0
   0
LINE
   5
3A6
 100
AcDbEntity
   8
LEVEL001
 370
13
 100
AcDbLine
   6
CONTINUOUS
  62
5
  10
 1383.9738849712
  20
 757.46721678950
  30
0.0
  11
 1343.9738849712
  21
 777.46721678950
  31
0.0
   0
LINE
   5
3A7
 100
AcDbEntity
   8
LEVEL001
 370
13
 100
AcDbLine
   6
CONTINUOUS
  62
5
  10
 1333.9738849712
  20
 757.46721678950
  30
0.0
  11
 1293.9738849712
  21
 777.46721678950
  31
0.0
   0
LINE
   5
3A8
 100
AcDbEntity
   8
LEVEL001
 370
13
 100
AcDbLine
   6
CONTINUOUS
  62
5
  10
 1783.9738849712
  20
 857.46721678950
  30
0.0
  11
 1283.9738849712
  21
 857.46721678950
  31
0.0
   0
LINE
   5
3A9
 100
AcDbEntity
   8
LEVEL001
 370
13
 100
AcDbLine
   6
CONTINUOUS
  62
5
  10
 1283.9738849712
  20
 857.46721678950
  30
0.0
  11
 1283.9738849712
  21
 757.46721678950
  31
0.0
   0
LINE
   5
3AA
 100
AcDbEntity
   8
LEVEL001
 370
13
 100
AcDbLine
   6
CONTINUOUS
  62
5
  10
 1283.9738849712
  20
 757.46721678950
  30
0.0
  11
 1783.9738849712
  21
 757.46721678950
  31
0.0
   0
LINE
   5
3AB
 100
AcDbEntity
   8
LEVEL001
 370
13
 100
AcDbLine
   6
CONTINUOUS
  62
5
  10
 1283.9738849712
  20
 1857.4672167895
  30
0.0
  11
 1283.9738849712
  21
 857.46721678950
  31
0.0
   0
LINE
   5
3AC
 100
AcDbEntity
   8
LEVEL001
 370
13
 100
AcDbLine
   6
CONTINUOUS
  62
5
  10
 1283.9738849712
  20
 857.46721678950
  30
0.0
  11
 1783.9738849712
  21
 857.46721678950
  31
0.0
   0
LINE
   5
3AD
 100
AcDbEntity
   8
LEVEL001
 370
13
 100
AcDbLine
   6
CONTINUOUS
  62
5
  10
 1783.9738849712
  20
 857.46721678950
  30
0.0
  11
 1733.9738849712
  21
 757.46721678950
  31
0.0
   0
LINE
   5
3AE
 100
AcDbEntity
   8
LEVEL001
 370
13
 100
AcDbLine
   6
CONTINUOUS
  62
5
  10
 1733.9738849712
  20
 857.46721678950
  30
0.0
  11
 1773.9738849712
  21
 837.46721678950
  31
0.0
   0
LINE
   5
3AF
 100
AcDbEntity
   8
LEVEL001
 370
13
 100
AcDbLine
   6
CONTINUOUS
  62
5
  10
 1733.9738849712
  20
 857.46721678950
  30
0.0
  11
 1683.9738849712
  21
 757.46721678950
  31
0.0
   0
LINE
   5
3B0
 100
AcDbEntity
   8
LEVEL001
 370
13
 100
AcDbLine
   6
CONTINUOUS
  62
5
  10
 1683.9738849712
  20
 857.46721678950
  30
0.0
  11
 1723.9738849712
  21
 837.46721678950
  31
0.0
   0
LINE
   5
3B1
 100
AcDbEntity
   8
LEVEL001
 370
13
 100
AcDbLine
   6
CONTINUOUS
  62
5
  10
 1683.9738849712
  20
 857.46721678950
  30
0.0
  11
 1633.9738849712
  21
 757.46721678950
  31
0.0
   0
LINE
   5
3B2
 100
AcDbEntity
   8
LEVEL001
 370
13
 100
AcDbLine
   6
CONTINUOUS
  62
5
  10
 1633.9738849712
  20
 857.46721678950
  30
0.0
  11
 1673.9738849712
  21
 837.46721678950
  31
0.0
   0
LINE
   5
3B3
 100
AcDbEntity
   8
LEVEL001
 370
13
 100
AcDbLine
   6
CONTINUOUS
  62
5
  10
 1783.9738849712
  20
 757.46721678950
  30
0.0
  11
 1743.9738849712
  21
 777.46721678950
  31
0.0
   0
LINE
   5
3B4
 100
AcDbEntity
   8
LEVEL001
 370
13
 100
AcDbLine
   6
CONTINUOUS
  62
5
  10
 1733.9738849712
  20
 757.46721678950
  30
0.0
  11
 1693.9738849712
  21
 777.46721678950
  31
0.0
   0
LINE
   5
3B5
 100
AcDbEntity
   8
LEVEL001
 370
13
 100
AcDbLine
   6
CONTINUOUS
  62
5
  10
 1683.9738849712
  20
 757.46721678950
  30
0.0
  11
 1643.9738849712
  21
 777.46721678950
  31
0.0
   0
LINE
   5
3B6
 100
AcDbEntity
   8
LEVEL001
 370
13
 100
AcDbLine
   6
CONTINUOUS
  62
5
  10
 1783.9738849712
  20
 757.46721678950
  30
0.0
  11
 1783.9738849712
  21
 857.46721678950
  31
0.0
   0
LINE
   5
3B7
 100
AcDbEntity
   8
LEVEL001
 370
13
 100
AcDbLine
   6
CONTINUOUS
  62
5
  10
 1783.9738849712
  20
 857.46721678950
  30
0.0
  11
 1783.9738849712
  21
 1857.4672167895
  31
0.0
   0
LINE
   5
3B8
 100
AcDbEntity
   8
LEVEL001
 370
13
 100
AcDbLine
   6
CONTINUOUS
  62
5
  10
 1844.6540798179
  20
 1857.4672167895
  30
0.0
  11
 1792.1540798179
  21
 1804.9672167895
  31
0.0
   0
LINE
   5
3B9
 100
AcDbEntity
   8
LEVEL001
 370
13
 100
AcDbLine
   6
CONTINUOUS
  62
5
  10
 1808.0639823939
  20
 1804.9672167895
  30
0.0
  11
 1860.5639823939
  21
 1857.4672167895
  31
0.0
   0
LINE
   5
3BA
 100
AcDbEntity
   8
LEVEL001
 370
13
 100
AcDbLine
   6
CONTINUOUS
  62
5
  10
 1876.4738849716
  20
 1857.4672167895
  30
0.0
  11
 1823.9738849716
  21
 1804.9672167895
  31
0.0
   0
LINE
   5
3BB
 100
AcDbEntity
   8
LEVEL001
 370
13
 100
AcDbLine
   6
CONTINUOUS
  62
5
  10
 1839.8837875476
  20
 1804.9672167895
  30
0.0
  11
 1892.3837875476
  21
 1857.4672167895
  31
0.0
   0
LINE
   5
3BC
 100
AcDbEntity
   8
LEVEL001
 370
13
 100
AcDbLine
   6
CONTINUOUS
  62
5
  10
 1897.1540798182
  20
 1804.9672167895
  30
0.0
  11
 1868.5189336829
  21
 1833.6023629248
  31
0.0
   0
LINE
   5
3BD
 100
AcDbEntity
   8
LEVEL001
 370
13
 100
AcDbLine
   6
CONTINUOUS
  62
5
  10
 1876.4738849711
  20
 1841.5573142130
  30
0.0
  11
 1913.0639823946
  21
 1804.9672167895
  31
0.0
   0
LINE
   5
3BE
 100
AcDbEntity
   8
LEVEL001
 370
13
 100
AcDbLine
   6
CONTINUOUS
  62
5
  10
 1928.9738849710
  20
 1804.9672167895
  30
0.0
  11
 1884.4288362593
  21
 1849.5122655012
  31
0.0
   0
LINE
   5
3BF
 100
AcDbEntity
   8
LEVEL001
 370
13
 100
AcDbLine
   6
CONTINUOUS
  62
5
  10
 1892.3837875476
  20
 1857.4672167895
  30
0.0
  11
 1944.8837875478
  21
 1804.9672167895
  31
0.0
   0
LINE
   5
3C0
 100
AcDbEntity
   8
LEVEL001
 370
13
 100
AcDbLine
   6
CONTINUOUS
  62
5
  10
 1944.8837875478
  20
 1804.9672167895
  30
0.0
  11
 1997.3837875478
  21
 1857.4672167895
  31
0.0
   0
LINE
   5
3C1
 100
AcDbEntity
   8
LEVEL001
 370
13
 100
AcDbLine
   6
CONTINUOUS
  62
5
  10
 1949.6540798181
  20
 1857.4672167895
  30
0.0
  11
 1921.0189336829
  21
 1828.8320706543
  31
0.0
   0
LINE
   5
3C2
 100
AcDbEntity
   8
LEVEL001
 370
13
 100
AcDbLine
   6
CONTINUOUS
  62
5
  10
 1928.9738849709
  20
 1820.8771193663
  30
0.0
  11
 1965.5639823942
  21
 1857.4672167895
  31
0.0
   0
LINE
   5
3C3
 100
AcDbEntity
   8
LEVEL001
 370
13
 100
AcDbLine
   6
CONTINUOUS
  62
5
  10
 1981.4738849718
  20
 1857.4672167895
  30
0.0
  11
 1936.9288362597
  21
 1812.9221680775
  31
0.0
   0
LINE
   5
3C4
 100
AcDbEntity
   8
LEVEL001
 370
13
 100
AcDbLine
   6
CONTINUOUS
  62
5
  10
 2002.1540798184
  20
 1804.9672167895
  30
0.0
  11
 1973.5189336830
  21
 1833.6023629248
  31
0.0
   0
LINE
   5
3C5
 100
AcDbEntity
   8
LEVEL001
 370
13
 100
AcDbLine
   6
CONTINUOUS
  62
5
  10
 1981.4738849712
  20
 1841.5573142130
  30
0.0
  11
 2018.0639823948
  21
 1804.9672167895
  31
0.0
   0
LINE
   5
3C6
 100
AcDbEntity
   8
LEVEL001
 370
13
 100
AcDbLine
   6
CONTINUOUS
  62
5
  10
 2033.9738849712
  20
 1804.9672167895
  30
0.0
  11
 1989.4288362594
  21
 1849.5122655012
  31
0.0
   0
LINE
   5
3C7
 100
AcDbEntity
   8
LEVEL001
 370
13
 100
AcDbLine
   6
CONTINUOUS
  62
5
  10
 1997.3837875478
  20
 1857.4672167895
  30
0.0
  11
 2033.9738849712
  21
 1820.8771193662
  31
0.0
   0
LINE
   5
3C8
 100
AcDbEntity
   8
LEVEL001
 370
13
 100
AcDbLine
   6
CONTINUOUS
  62
5
  10
 1572.1238849712
  20
 1857.4672167895
  30
0.0
  11
 2033.9738849712
  21
 1857.4672167895
  31
0.0
   0
LINE
   5
3C9
 100
AcDbEntity
   8
LEVEL001
 370
13
 100
AcDbLine
   6
CONTINUOUS
  62
5
  10
 1783.9738849712
  20
 1580.9725558488
  30
0.0
  11
 1572.1238849712
  21
 1369.1225558488
  31
0.0
   0
LINE
   5
3CA
 100
AcDbEntity
   8
LEVEL001
 370
13
 100
AcDbLine
   6
CONTINUOUS
  62
5
  10
 1572.1238849712
  20
 1333.7672167895
  30
0.0
  11
 1783.9738849712
  21
 1545.6172167895
  31
0.0
   0
LINE
   5
3CB
 100
AcDbEntity
   8
LEVEL001
 370
13
 100
AcDbLine
   6
CONTINUOUS
  62
5
  10
 1783.9738849712
  20
 1510.2618777302
  30
0.0
  11
 1572.1238849712
  21
 1298.4118777302
  31
0.0
   0
LINE
   5
3CC
 100
AcDbEntity
   8
LEVEL001
 370
13
 100
AcDbLine
   6
CONTINUOUS
  62
5
  10
 1194.8837875478
  20
 1804.9672167895
  30
0.0
  11
 1247.3837875478
  21
 1857.4672167895
  31
0.0
   0
LINE
   5
3CD
 100
AcDbEntity
   8
LEVEL001
 370
13
 100
AcDbLine
   6
CONTINUOUS
  62
5
  10
 1178.9738849709
  20
 1820.8771193663
  30
0.0
  11
 1215.5639823941
  21
 1857.4672167895
  31
0.0
   0
LINE
   5
3CE
 100
AcDbEntity
   8
LEVEL001
 370
13
 100
AcDbLine
   6
CONTINUOUS
  62
5
  10
 1231.4738849717
  20
 1857.4672167895
  30
0.0
  11
 1186.9288362597
  21
 1812.9221680775
  31
0.0
   0
LINE
   5
3CF
 100
AcDbEntity
   8
LEVEL001
 370
13
 100
AcDbLine
   6
CONTINUOUS
  62
5
  10
 1252.1540798184
  20
 1804.9672167895
  30
0.0
  11
 1223.5189336831
  21
 1833.6023629248
  31
0.0
   0
LINE
   5
3D0
 100
AcDbEntity
   8
LEVEL001
 370
13
 100
AcDbLine
   6
CONTINUOUS
  62
5
  10
 1231.4738849713
  20
 1841.5573142130
  30
0.0
  11
 1268.0639823948
  21
 1804.9672167895
  31
0.0
   0
LINE
   5
3D1
 100
AcDbEntity
   8
LEVEL001
 370
13
 100
AcDbLine
   6
CONTINUOUS
  62
5
  10
 1283.9738849712
  20
 1804.9672167895
  30
0.0
  11
 1239.4288362595
  21
 1849.5122655012
  31
0.0
   0
LINE
   5
3D2
 100
AcDbEntity
   8
LEVEL001
 370
13
 100
AcDbLine
   6
CONTINUOUS
  62
5
  10
 1094.6540798179
  20
 1857.4672167895
  30
0.0
  11
 1042.1540798179
  21
 1804.9672167895
  31
0.0
   0
LINE
   5
3D3
 100
AcDbEntity
   8
LEVEL001
 370
13
 100
AcDbLine
   6
CONTINUOUS
  62
5
  10
 1058.0639823939
  20
 1804.9672167895
  30
0.0
  11
 1110.5639823939
  21
 1857.4672167895
  31
0.0
   0
LINE
   5
3D4
 100
AcDbEntity
   8
LEVEL001
 370
13
 100
AcDbLine
   6
CONTINUOUS
  62
5
  10
 1126.4738849716
  20
 1857.4672167895
  30
0.0
  11
 1073.9738849716
  21
 1804.9672167895
  31
0.0
   0
LINE
   5
3D5
 100
AcDbEntity
   8
LEVEL001
 370
13
 100
AcDbLine
   6
CONTINUOUS
  62
5
  10
 1089.8837875476
  20
 1804.9672167895
  30
0.0
  11
 1142.3837875476
  21
 1857.4672167895
  31
0.0
   0
LINE
   5
3D6
 100
AcDbEntity
   8
LEVEL001
 370
13
 100
AcDbLine
   6
CONTINUOUS
  62
5
  10
 1147.1540798182
  20
 1804.9672167895
  30
0.0
  11
 1118.5189336829
  21
 1833.6023629248
  31
0.0
   0
LINE
   5
3D7
 100
AcDbEntity
   8
LEVEL001
 370
13
 100
AcDbLine
   6
CONTINUOUS
  62
5
  10
 1126.4738849711
  20
 1841.5573142130
  30
0.0
  11
 1163.0639823946
  21
 1804.9672167895
  31
0.0
   0
LINE
   5
3D8
 100
AcDbEntity
   8
LEVEL001
 370
13
 100
AcDbLine
   6
CONTINUOUS
  62
5
  10
 1178.9738849710
  20
 1804.9672167895
  30
0.0
  11
 1134.4288362593
  21
 1849.5122655012
  31
0.0
   0
LINE
   5
3D9
 100
AcDbEntity
   8
LEVEL001
 370
13
 100
AcDbLine
   6
CONTINUOUS
  62
5
  10
 1142.3837875476
  20
 1857.4672167895
  30
0.0
  11
 1194.8837875478
  21
 1804.9672167895
  31
0.0
   0
LINE
   5
3DA
 100
AcDbEntity
   8
LEVEL001
 370
13
 100
AcDbLine
   6
CONTINUOUS
  62
5
  10
 1199.6540798181
  20
 1857.4672167895
  30
0.0
  11
 1171.0189336829
  21
 1828.8320706543
  31
0.0
   0
LINE
   5
3DB
 100
AcDbEntity
   8
LEVEL001
 370
13
 100
AcDbLine
   6
CONTINUOUS
  62
5
  10
 1247.3837875478
  20
 1857.4672167895
  30
0.0
  11
 1283.9738849712
  21
 1820.8771193662
  31
0.0
   0
LINE
   5
3DC
 100
AcDbEntity
   8
LEVEL001
 370
13
 100
AcDbLine
   6
CONTINUOUS
  62
5
  10
 1495.8238849712
  20
 1857.4672167895
  30
0.0
  11
 1033.9738849712
  21
 1857.4672167895
  31
0.0
   0
LINE
   5
3DD
 100
AcDbEntity
   8
LEVEL001
 370
13
 100
AcDbLine
   6
CONTINUOUS
  62
5
  10
 1283.9738849712
  20
 1045.6172167895
  30
0.0
  11
 1495.8238849712
  21
 1257.4672167895
  31
0.0
   0
LINE
   5
3DE
 100
AcDbEntity
   8
LEVEL001
 370
13
 100
AcDbLine
   6
CONTINUOUS
  62
5
  10
 1495.8238849712
  20
 1222.1118777302
  30
0.0
  11
 1283.9738849712
  21
 1010.2618777302
  31
0.0
   0
LINE
   5
3DF
 100
AcDbEntity
   8
LEVEL001
 370
13
 100
AcDbLine
   6
CONTINUOUS
  62
5
  10
 1495.8238849712
  20
 1292.8225558488
  30
0.0
  11
 1283.9738849712
  21
 1080.9725558488
  31
0.0
   0
DIMENSION
   5
3E0
 100
AcDbEntity
   8
LEVEL001
 370
13
   6
CONTINUOUS
  62
1
 100
AcDbDimension
   2
*D15
  10
 3483.9738849712
  20
 557.46721678950
  30
0.0
  11
 3233.9738849712
  21
 557.46721678950
  31
0.0
  70
128
   1
\A1;□500
   3
GMM003
 100
AcDbAlignedDimension
  13
 2983.9738849712
  23
 757.46721678950
  33
0.0
  14
 3483.9738849712
  24
 757.46721678950
  34
0.0
 100
AcDbRotatedDimension
   0
DIMENSION
   5
3E1
 100
AcDbEntity
   8
LEVEL001
 370
13
   6
CONTINUOUS
  62
1
 100
AcDbDimension
   2
*D16
  10
 1783.9738849712
  20
 557.46721678950
  30
0.0
  11
 1533.9738849712
  21
 557.46721678950
  31
0.0
  70
128
   1
\A1;□500
   3
GMM003
 100
AcDbAlignedDimension
  13
 1283.9738849712
  23
 757.46721678950
  33
0.0
  14
 1783.9738849712
  24
 757.46721678950
  34
0.0
 100
AcDbRotatedDimension
   0
DIMENSION
   5
3E2
 100
AcDbEntity
   8
0
 370
13
   6
CONTINUOUS
  62
1
 100
AcDbDimension
   2
*D17
  10
 783.97388497123
  20
 757.46721678950
  30
0.0
  11
 783.97388497123
  21
 807.46721678950
  31
0.0
  70
0
   3
GMM004
 100
AcDbAlignedDimension
  13
 1283.9738849712
  23
 857.46721678950
  33
0.0
  14
 1283.9738849712
  24
 757.46721678950
  34
0.0
  50
 270.00000000000
 100
AcDbRotatedDimension
   0
DIMENSION
   5
3E3
 100
AcDbEntity
   8
0
 370
13
   6
CONTINUOUS
  62
1
 100
AcDbDimension
   2
*D18
  10
 783.97388497123
  20
 1857.4672167895
  30
0.0
  11
 783.97388497123
  21
 1357.4672167895
  31
0.0
  70
0
   3
GMM004
 100
AcDbAlignedDimension
  13
 1283.9738849712
  23
 857.46721678950
  33
0.0
  14
 1033.9738849712
  24
 1857.4672167895
  34
0.0
  50
 90.000000000000
 100
AcDbRotatedDimension
   0
DIMENSION
   5
3E4
 100
AcDbEntity
   8
0
 370
13
   6
CONTINUOUS
  62
1
 100
AcDbDimension
   2
*D19
  10
 783.97388497123
  20
 4357.4672167895
  30
0.0
  11
 783.97388497123
  21
 3107.4672167895
  31
0.0
  70
0
   1
\A1;2500(標準設置高さ)
   3
GMM005
 100
AcDbAlignedDimension
  13
 1033.9738849712
  23
 1857.4672167895
  33
0.0
  14
 1133.9738849712
  24
 4357.4672167895
  34
0.0
  50
 90.000000000000
 100
AcDbRotatedDimension
   0
DIMENSION
   5
3E5
 100
AcDbEntity
   8
LEVEL001
 370
13
   6
CONTINUOUS
  62
1
 100
AcDbDimension
   2
*D20
  10
 1398.1116331253
  20
 4842.4672167897
  30
0.0
  11
 1133.9738849712
  21
 4689.9672167895
  31
0.0
  70
131
   1
\A1;%%c600
   3
GMM006
 100
AcDbDiametricDimension
  15
 869.83613681712
  25
 4537.4672167892
  35
0.0
   0
DIMENSION
   5
3E6
 100
AcDbEntity
   8
LEVEL001
 370
13
   6
CONTINUOUS
  62
1
 100
AcDbDimension
   2
*D21
  10
 2198.1116331254
  20
 4842.4672167898
  30
0.0
  11
 1933.9738849712
  21
 4689.9672167895
  31
0.0
  70
131
   1
\A1;%%c600
   3
GMM006
 100
AcDbDiametricDimension
  15
 1669.8361368171
  25
 4537.4672167892
  35
0.0
   0
MTEXT
   5
3E7
 100
AcDbEntity
   8
LEVEL001
 370
13
  62
1
 100
AcDbMText
  10
 1883.9738849712
  20
 2678.8957882181
  30
0.0
  40
 42.857142857142
  41
0.0
  71
1
  72
1
   1
{\T1.000000;支柱}\P%%c{\T1.000000;７６}{\T1.000000;.}{\T1.000000;３×３}{\T1.000000;.}{\T1.000000;２ｔ}\P{\T1.000000;×４０００Ｌ}
   7
GMM001
  44
 0.79999984000003
   0
LINE
   5
3E8
 100
AcDbEntity
   8
LEVEL001
 370
13
 100
AcDbLine
   6
CONTINUOUS
  62
5
  10
 1533.9738849599
  20
 4207.4698141071
  30
0.0
  11
 1478.9738865990
  21
 4137.4698161933
  31
0.0
   0
LINE
   5
3E9
 100
AcDbEntity
   8
LEVEL001
 370
13
 100
AcDbLine
   6
CONTINUOUS
  62
5
  10
 1478.9738865990
  20
 4137.4698161933
  30
0.0
  11
 1508.9738857050
  21
 4137.4698161933
  31
0.0
   0
LINE
   5
3EA
 100
AcDbEntity
   8
LEVEL001
 370
13
 100
AcDbLine
   6
CONTINUOUS
  62
5
  10
 1508.9738857050
  20
 4137.4698161933
  30
0.0
  11
 1508.9738857050
  21
 4107.4698170873
  31
0.0
   0
LINE
   5
3EB
 100
AcDbEntity
   8
LEVEL001
 370
13
 100
AcDbLine
   6
CONTINUOUS
  62
5
  10
 1508.9738857050
  20
 4107.4698170873
  30
0.0
  11
 1558.9738842148
  21
 4107.4698170873
  31
0.0
   0
LINE
   5
3EC
 100
AcDbEntity
   8
LEVEL001
 370
13
 100
AcDbLine
   6
CONTINUOUS
  62
5
  10
 1558.9738842148
  20
 4107.4698170873
  30
0.0
  11
 1558.9738842148
  21
 4137.4698161933
  31
0.0
   0
LINE
   5
3ED
 100
AcDbEntity
   8
LEVEL001
 370
13
 100
AcDbLine
   6
CONTINUOUS
  62
5
  10
 1558.9738842148
  20
 4137.4698161933
  30
0.0
  11
 1588.9738833208
  21
 4137.4698161933
  31
0.0
   0
LINE
   5
3EE
 100
AcDbEntity
   8
LEVEL001
 370
13
 100
AcDbLine
   6
CONTINUOUS
  62
5
  10
 1588.9738833208
  20
 4137.4698161933
  30
0.0
  11
 1533.9738849599
  21
 4207.4698141071
  31
0.0
   0
LINE
   5
3EF
 100
AcDbEntity
   8
LEVEL001
 370
13
 100
AcDbLine
   6
CONTINUOUS
  62
5
  10
 1464.3309426995
  20
 4041.4609079217
  30
0.0
  11
 1479.6001072835
  21
 4039.2062693171
  31
0.0
   0
ARC
   5
3F0
 100
AcDbEntity
   8
LEVEL001
 370
13
   6
CONTINUOUS
  62
5
 100
AcDbCircle
  10
 1478.2173954473
  20
 4018.6730633643
  30
0.0
  40
 20.579709393390
 100
AcDbArc
  50
 10.432218603622
  51
 86.147502469019
   0
ARC
   5
3F1
 100
AcDbEntity
   8
LEVEL001
 370
13
   6
CONTINUOUS
  62
5
 100
AcDbCircle
  10
 1484.5730573519
  20
 4022.0974186785
  30
0.0
  40
 13.887146297480
 100
AcDbArc
  50
 284.73811645770
  51
 1.2463330419870
   0
LINE
   5
3F2
 100
AcDbEntity
   8
LEVEL001
 370
13
 100
AcDbLine
   6
CONTINUOUS
  62
5
  10
 1488.1059664050
  20
 4008.6671772097
  30
0.0
  11
 1464.3309426995
  21
 4041.4609079217
  31
0.0
   0
ARC
   5
3F3
 100
AcDbEntity
   8
LEVEL001
 370
13
   6
CONTINUOUS
  62
5
 100
AcDbCircle
  10
 1471.8781526862
  20
 3981.8559094779
  30
0.0
  40
 20.228108756896
 100
AcDbArc
  50
 1.0517504589889
  51
 78.795792274248
   0
ARC
   5
3F4
 100
AcDbEntity
   8
LEVEL001
 370
13
   6
CONTINUOUS
  62
5
 100
AcDbCircle
  10
 1477.1345831917
  20
 3984.0056953777
  30
0.0
  40
 15.073557642890
 100
AcDbArc
  50
 288.65956808357
  51
 353.22403827739
   0
LINE
   5
3F5
 100
AcDbEntity
   8
LEVEL001
 370
13
 100
AcDbLine
   6
CONTINUOUS
  62
5
  10
 1466.6878151878
  20
 3955.6846958785
  30
0.0
  11
 1473.6565039450
  21
 3916.8445175927
  31
0.0
   0
LINE
   5
3F6
 100
AcDbEntity
   8
LEVEL001
 370
13
 100
AcDbLine
   6
CONTINUOUS
  62
5
  10
 1494.2552582139
  20
 3920.8412520927
  30
0.0
  11
 1491.0780732500
  21
 3937.9555093951
  31
0.0
   0
LINE
   5
3F7
 100
AcDbEntity
   8
LEVEL001
 370
13
 100
AcDbLine
   6
CONTINUOUS
  62
5
  10
 1491.0780732500
  20
 3937.9555093951
  30
0.0
  11
 1503.3757413405
  21
 3997.3942893619
  31
0.0
   0
LINE
   5
3F8
 100
AcDbEntity
   8
LEVEL001
 370
13
 100
AcDbLine
   6
CONTINUOUS
  62
5
  10
 1503.3757413405
  20
 3997.3942893619
  30
0.0
  11
 1480.5226536427
  21
 3947.4863013473
  31
0.0
   0
LINE
   5
3F9
 100
AcDbEntity
   8
LEVEL001
 370
13
 100
AcDbLine
   6
CONTINUOUS
  62
5
  10
 1480.5226536427
  20
 3947.4863013473
  30
0.0
  11
 1466.6878151878
  21
 3955.6846958785
  31
0.0
   0
ARC
   5
3FA
 100
AcDbEntity
   8
LEVEL001
 370
13
   6
CONTINUOUS
  62
5
 100
AcDbCircle
  10
 1588.7349239255
  20
 3976.1028176923
  30
0.0
  40
 5.0631766002424
 100
AcDbArc
  50
 274.72626205423
  51
 43.105625042902
   0
ARC
   5
3FB
 100
AcDbEntity
   8
LEVEL001
 370
13
   6
CONTINUOUS
  62
5
 100
AcDbCircle
  10
 1592.3745576328
  20
 4019.2517741553
  30
0.0
  40
 5.5826340442110
 100
AcDbArc
  50
 274.79665758012
  51
 36.910963374394
   0
LINE
   5
3FC
 100
AcDbEntity
   8
LEVEL001
 370
13
 100
AcDbLine
   6
CONTINUOUS
  62
5
  10
 1592.4315248193
  20
 3979.5627164071
  30
0.0
  11
 1576.0344305814
  21
 3992.5777001501
  31
0.0
   0
LINE
   5
3FD
 100
AcDbEntity
   8
LEVEL001
 370
13
 100
AcDbLine
   6
CONTINUOUS
  62
5
  10
 1576.0344305814
  20
 3992.5777001501
  30
0.0
  11
 1568.4508126433
  21
 3983.1494472573
  31
0.0
   0
LINE
   5
3FE
 100
AcDbEntity
   8
LEVEL001
 370
13
 100
AcDbLine
   6
CONTINUOUS
  62
5
  10
 1568.4508126433
  20
 3983.1494472573
  30
0.0
  11
 1555.6407544314
  21
 3983.1494472573
  31
0.0
   0
LINE
   5
3FF
 100
AcDbEntity
   8
LEVEL001
 370
13
 100
AcDbLine
   6
CONTINUOUS
  62
5
  10
 1555.6407544314
  20
 3983.1494472573
  30
0.0
  11
 1555.6407544314
  21
 4013.6886919525
  31
0.0
   0
LINE
   5
400
 100
AcDbEntity
   8
LEVEL001
 370
13
 100
AcDbLine
   6
CONTINUOUS
  62
5
  10
 1555.6407544314
  20
 4013.6886919525
  30
0.0
  11
 1592.8413758813
  21
 4013.6886919525
  31
0.0
   0
LINE
   5
401
 100
AcDbEntity
   8
LEVEL001
 370
13
 100
AcDbLine
   6
CONTINUOUS
  62
5
  10
 1596.8382629692
  20
 4022.6045547239
  30
0.0
  11
 1583.0031193386
  21
 4034.6971446955
  31
0.0
   0
LINE
   5
402
 100
AcDbEntity
   8
LEVEL001
 370
13
 100
AcDbLine
   6
CONTINUOUS
  62
5
  10
 1583.0031193386
  20
 4034.6971446955
  30
0.0
  11
 1571.1156074858
  21
 4024.6541152097
  31
0.0
   0
LINE
   5
403
 100
AcDbEntity
   8
LEVEL001
 370
13
 100
AcDbLine
   6
CONTINUOUS
  62
5
  10
 1571.1156074858
  20
 4024.6541152097
  30
0.0
  11
 1555.6407544314
  21
 4024.6541152097
  31
0.0
   0
LINE
   5
404
 100
AcDbEntity
   8
LEVEL001
 370
13
 100
AcDbLine
   6
CONTINUOUS
  62
5
  10
 1555.6407544314
  20
 4024.6541152097
  30
0.0
  11
 1555.6407544314
  21
 4040.1286630883
  31
0.0
   0
LINE
   5
405
 100
AcDbEntity
   8
LEVEL001
 370
13
 100
AcDbLine
   6
CONTINUOUS
  62
5
  10
 1555.6407544314
  20
 4040.1286630883
  30
0.0
  11
 1559.2277904573
  21
 4041.9732980431
  31
0.0
   0
LINE
   5
406
 100
AcDbEntity
   8
LEVEL001
 370
13
 100
AcDbLine
   6
CONTINUOUS
  62
5
  10
 1559.2277904573
  20
 4041.9732980431
  30
0.0
  11
 1559.5351024598
  21
 4044.6377877099
  31
0.0
   0
LINE
   5
407
 100
AcDbEntity
   8
LEVEL001
 370
13
 100
AcDbLine
   6
CONTINUOUS
  62
5
  10
 1559.5351024598
  20
 4044.6377877099
  30
0.0
  11
 1530.6355671883
  21
 4049.1469123313
  31
0.0
   0
LINE
   5
408
 100
AcDbEntity
   8
LEVEL001
 370
13
 100
AcDbLine
   6
CONTINUOUS
  62
5
  10
 1530.6355671883
  20
 4049.1469123313
  30
0.0
  11
 1530.6355671883
  21
 4024.6541152097
  31
0.0
   0
LINE
   5
409
 100
AcDbEntity
   8
LEVEL001
 370
13
 100
AcDbLine
   6
CONTINUOUS
  62
5
  10
 1530.6355671883
  20
 4024.6541152097
  30
0.0
  11
 1501.2236417953
  21
 4024.6541152097
  31
0.0
   0
LINE
   5
40A
 100
AcDbEntity
   8
LEVEL001
 370
13
 100
AcDbLine
   6
CONTINUOUS
  62
5
  10
 1501.2236417953
  20
 4024.6541152097
  30
0.0
  11
 1505.6303799452
  21
 4013.6886919525
  31
0.0
   0
LINE
   5
40B
 100
AcDbEntity
   8
LEVEL001
 370
13
 100
AcDbLine
   6
CONTINUOUS
  62
5
  10
 1505.6303799452
  20
 4013.6886919525
  30
0.0
  11
 1530.6355671883
  21
 4013.6886919525
  31
0.0
   0
LINE
   5
40C
 100
AcDbEntity
   8
LEVEL001
 370
13
 100
AcDbLine
   6
CONTINUOUS
  62
5
  10
 1530.6355671883
  20
 4013.6886919525
  30
0.0
  11
 1530.6355671883
  21
 3983.1494472573
  31
0.0
   0
LINE
   5
40D
 100
AcDbEntity
   8
LEVEL001
 370
13
 100
AcDbLine
   6
CONTINUOUS
  62
5
  10
 1530.6355671883
  20
 3983.1494472573
  30
0.0
  11
 1502.8633512191
  21
 3983.1494472573
  31
0.0
   0
LINE
   5
40E
 100
AcDbEntity
   8
LEVEL001
 370
13
 100
AcDbLine
   6
CONTINUOUS
  62
5
  10
 1502.8633512191
  20
 3983.1494472573
  30
0.0
  11
 1507.7824794905
  21
 3971.0568572855
  31
0.0
   0
LINE
   5
40F
 100
AcDbEntity
   8
LEVEL001
 370
13
 100
AcDbLine
   6
CONTINUOUS
  62
5
  10
 1507.7824794905
  20
 3971.0568572855
  30
0.0
  11
 1530.6355671883
  21
 3971.0568572855
  31
0.0
   0
LINE
   5
410
 100
AcDbEntity
   8
LEVEL001
 370
13
 100
AcDbLine
   6
CONTINUOUS
  62
5
  10
 1530.6355671883
  20
 3971.0568572855
  30
0.0
  11
 1530.6355671883
  21
 3926.1703840139
  31
0.0
   0
LINE
   5
411
 100
AcDbEntity
   8
LEVEL001
 370
13
 100
AcDbLine
   6
CONTINUOUS
  62
5
  10
 1530.6355671883
  20
 3926.1703840139
  30
0.0
  11
 1498.1493010666
  21
 3926.1703840139
  31
0.0
   0
LINE
   5
412
 100
AcDbEntity
   8
LEVEL001
 370
13
 100
AcDbLine
   6
CONTINUOUS
  62
5
  10
 1498.1493010666
  20
 3926.1703840139
  30
0.0
  11
 1503.5808194594
  21
 3914.0774888665
  31
0.0
   0
LINE
   5
413
 100
AcDbEntity
   8
LEVEL001
 370
13
 100
AcDbLine
   6
CONTINUOUS
  62
5
  10
 1503.5808194594
  20
 3914.0774888665
  30
0.0
  11
 1593.9586243831
  21
 3914.0774888665
  31
0.0
   0
LINE
   5
414
 100
AcDbEntity
   8
LEVEL001
 370
13
 100
AcDbLine
   6
CONTINUOUS
  62
5
  10
 1597.4132141239
  20
 3925.6003156715
  30
0.0
  11
 1582.0808781551
  21
 3935.7010233783
  31
0.0
   0
LINE
   5
415
 100
AcDbEntity
   8
LEVEL001
 370
13
 100
AcDbLine
   6
CONTINUOUS
  62
5
  10
 1582.0808781551
  20
 3935.7010233783
  30
0.0
  11
 1574.1899482145
  21
 3926.1703840139
  31
0.0
   0
LINE
   5
416
 100
AcDbEntity
   8
LEVEL001
 370
13
 100
AcDbLine
   6
CONTINUOUS
  62
5
  10
 1574.1899482145
  20
 3926.1703840139
  30
0.0
  11
 1555.6407544314
  21
 3926.1703840139
  31
0.0
   0
LINE
   5
417
 100
AcDbEntity
   8
LEVEL001
 370
13
 100
AcDbLine
   6
CONTINUOUS
  62
5
  10
 1555.6407544314
  20
 3926.1703840139
  30
0.0
  11
 1555.6407544314
  21
 3971.0568572855
  31
0.0
   0
LINE
   5
418
 100
AcDbEntity
   8
LEVEL001
 370
13
 100
AcDbLine
   6
CONTINUOUS
  62
5
  10
 1555.6407544314
  20
 3971.0568572855
  30
0.0
  11
 1589.1521059717
  21
 3971.0568572855
  31
0.0
   0
LINE
   5
419
 100
AcDbEntity
   8
LEVEL001
 370
13
 100
AcDbLine
   6
CONTINUOUS
  62
5
  10
 1460.9014952720
  20
 4004.0276374101
  30
0.0
  11
 1475.8086034902
  21
 4001.6984884525
  31
0.0
   0
LINE
   5
41A
 100
AcDbEntity
   8
LEVEL001
 370
13
 100
AcDbLine
   6
CONTINUOUS
  62
5
  10
 1481.9572849476
  20
 3969.7244598643
  30
0.0
  11
 1460.9014952720
  21
 4001.9780546843
  31
0.0
   0
ARC
   5
41B
 100
AcDbEntity
   8
LEVEL001
 370
13
   6
CONTINUOUS
  62
5
 100
AcDbCircle
  10
 1483.6389212666
  20
 3920.4764627791
  30
0.0
  40
 10.622602384609
 100
AcDbArc
  50
 199.99311911328
  51
 1.9679733411471
   0
ARC
   5
41C
 100
AcDbEntity
   8
LEVEL001
 370
13
   6
CONTINUOUS
  62
5
 100
AcDbCircle
  10
 1593.9591036831
  20
 3920.3566085103
  30
0.0
  40
 6.2791196620726
 100
AcDbArc
  50
 269.99562647882
  51
 56.626490037523
   0
ARC
   5
41D
 100
AcDbEntity
   8
LEVEL001
 370
13
   6
CONTINUOUS
  62
5
 100
AcDbCircle
  10
 1597.7315500351
  20
 3813.8880908739
  30
0.0
  40
 4.7515310421130
 100
AcDbArc
  50
 274.70409570321
  51
 59.112293256555
   0
ARC
   5
41E
 100
AcDbEntity
   8
LEVEL001
 370
13
   6
CONTINUOUS
  62
5
 100
AcDbCircle
  10
 1504.5722268375
  20
 3813.5310322229
  30
0.0
  40
 22.293228438698
 100
AcDbArc
  50
 35.161132790332
  51
 78.641284698027
   0
ARC
   5
41F
 100
AcDbEntity
   8
LEVEL001
 370
13
   6
CONTINUOUS
  62
5
 100
AcDbCircle
  10
 1516.4522678328
  20
 3824.5877441581
  30
0.0
  40
 6.5907971086860
 100
AcDbArc
  50
 312.23536417691
  51
 15.681870098965
   0
LINE
   5
420
 100
AcDbEntity
   8
LEVEL001
 370
13
 100
AcDbLine
   6
CONTINUOUS
  62
5
  10
 1520.8824546860
  20
 3819.7079848429
  30
0.0
  11
 1539.8094560750
  21
 3819.7079848429
  31
0.0
   0
LINE
   5
421
 100
AcDbEntity
   8
LEVEL001
 370
13
 100
AcDbLine
   6
CONTINUOUS
  62
5
  10
 1539.8094560750
  20
 3819.7079848429
  30
0.0
  11
 1550.2626417987
  21
 3835.3876108405
  31
0.0
   0
LINE
   5
422
 100
AcDbEntity
   8
LEVEL001
 370
13
 100
AcDbLine
   6
CONTINUOUS
  62
5
  10
 1550.2626417987
  20
 3835.3876108405
  30
0.0
  11
 1508.9628993772
  21
 3835.3876108405
  31
0.0
   0
ARC
   5
423
 100
AcDbEntity
   8
LEVEL001
 370
13
   6
CONTINUOUS
  62
5
 100
AcDbCircle
  10
 1588.2903526658
  20
 3840.5437844655
  30
0.0
  40
 5.1561789168066
 100
AcDbArc
  50
 269.91791191248
  51
 52.070025543667
   0
LINE
   5
424
 100
AcDbEntity
   8
LEVEL001
 370
13
 100
AcDbLine
   6
CONTINUOUS
  62
5
  10
 1600.1707824011
  20
 3817.9657363597
  30
0.0
  11
 1582.2368229747
  21
 3828.4189220833
  31
0.0
   0
LINE
   5
425
 100
AcDbEntity
   8
LEVEL001
 370
13
 100
AcDbLine
   6
CONTINUOUS
  62
5
  10
 1582.2368229747
  20
 3828.4189220833
  30
0.0
  11
 1575.6779852795
  21
 3819.7079848429
  31
0.0
   0
LINE
   5
426
 100
AcDbEntity
   8
LEVEL001
 370
13
 100
AcDbLine
   6
CONTINUOUS
  62
5
  10
 1575.6779852795
  20
 3819.7079848429
  30
0.0
  11
 1559.9290843817
  21
 3819.7079848429
  31
0.0
   0
LINE
   5
427
 100
AcDbEntity
   8
LEVEL001
 370
13
 100
AcDbLine
   6
CONTINUOUS
  62
5
  10
 1559.9290843817
  20
 3819.7079848429
  30
0.0
  11
 1569.0166085249
  21
 3827.9065319619
  31
0.0
   0
LINE
   5
428
 100
AcDbEntity
   8
LEVEL001
 370
13
 100
AcDbLine
   6
CONTINUOUS
  62
5
  10
 1569.0166085249
  20
 3827.9065319619
  30
0.0
  11
 1572.8084174939
  21
 3828.4189220833
  31
0.0
   0
LINE
   5
429
 100
AcDbEntity
   8
LEVEL001
 370
13
 100
AcDbLine
   6
CONTINUOUS
  62
5
  10
 1572.8084174939
  20
 3828.4189220833
  30
0.0
  11
 1574.4481269177
  21
 3830.7757945717
  31
0.0
   0
LINE
   5
42A
 100
AcDbEntity
   8
LEVEL001
 370
13
 100
AcDbLine
   6
CONTINUOUS
  62
5
  10
 1574.4481269177
  20
 3830.7757945717
  30
0.0
  11
 1571.7836372510
  21
 3835.3876108405
  31
0.0
   0
LINE
   5
42B
 100
AcDbEntity
   8
LEVEL001
 370
13
 100
AcDbLine
   6
CONTINUOUS
  62
5
  10
 1571.7836372510
  20
 3835.3876108405
  30
0.0
  11
 1588.2829653726
  21
 3835.3876108405
  31
0.0
   0
LINE
   5
42C
 100
AcDbEntity
   8
LEVEL001
 370
13
 100
AcDbLine
   6
CONTINUOUS
  62
5
  10
 1591.4598451607
  20
 3844.6107856145
  30
0.0
  11
 1572.8084174939
  21
 3854.8587406313
  31
0.0
   0
LINE
   5
42D
 100
AcDbEntity
   8
LEVEL001
 370
13
 100
AcDbLine
   6
CONTINUOUS
  62
5
  10
 1572.8084174939
  20
 3854.8587406313
  30
0.0
  11
 1566.6594308608
  21
 3845.3281012669
  31
0.0
   0
LINE
   5
42E
 100
AcDbEntity
   8
LEVEL001
 370
13
 100
AcDbLine
   6
CONTINUOUS
  62
5
  10
 1566.6594308608
  20
 3845.3281012669
  30
0.0
  11
 1545.2409744679
  21
 3845.3281012669
  31
0.0
   0
LINE
   5
42F
 100
AcDbEntity
   8
LEVEL001
 370
13
 100
AcDbLine
   6
CONTINUOUS
  62
5
  10
 1545.2409744679
  20
 3845.3281012669
  30
0.0
  11
 1545.2409744679
  21
 3851.6818608433
  31
0.0
   0
LINE
   5
430
 100
AcDbEntity
   8
LEVEL001
 370
13
 100
AcDbLine
   6
CONTINUOUS
  62
5
  10
 1545.2409744679
  20
 3851.6818608433
  30
0.0
  11
 1547.3656081936
  21
 3855.3798282623
  31
0.0
   0
LINE
   5
431
 100
AcDbEntity
   8
LEVEL001
 370
13
 100
AcDbLine
   6
CONTINUOUS
  62
5
  10
 1547.3656081936
  20
 3855.3798282623
  30
0.0
  11
 1546.5456008938
  21
 3857.1219241577
  31
0.0
   0
LINE
   5
432
 100
AcDbEntity
   8
LEVEL001
 370
13
 100
AcDbLine
   6
CONTINUOUS
  62
5
  10
 1546.5456008938
  20
 3857.1219241577
  30
0.0
  11
 1521.7729575891
  21
 3857.7283084169
  31
0.0
   0
LINE
   5
433
 100
AcDbEntity
   8
LEVEL001
 370
13
 100
AcDbLine
   6
CONTINUOUS
  62
5
  10
 1521.7729575891
  20
 3857.7283084169
  30
0.0
  11
 1521.7729575891
  21
 3845.3281012669
  31
0.0
   0
LINE
   5
434
 100
AcDbEntity
   8
LEVEL001
 370
13
 100
AcDbLine
   6
CONTINUOUS
  62
5
  10
 1521.7729575891
  20
 3845.3281012669
  30
0.0
  11
 1472.3106787898
  21
 3845.3281012669
  31
0.0
   0
LINE
   5
435
 100
AcDbEntity
   8
LEVEL001
 370
13
 100
AcDbLine
   6
CONTINUOUS
  62
5
  10
 1472.3106787898
  20
 3845.3281012669
  30
0.0
  11
 1476.7839452580
  21
 3835.3876108405
  31
0.0
   0
LINE
   5
436
 100
AcDbEntity
   8
LEVEL001
 370
13
 100
AcDbLine
   6
CONTINUOUS
  62
5
  10
 1476.7839452580
  20
 3835.3876108405
  30
0.0
  11
 1494.4108978577
  21
 3835.3876108405
  31
0.0
   0
LINE
   5
437
 100
AcDbEntity
   8
LEVEL001
 370
13
 100
AcDbLine
   6
CONTINUOUS
  62
5
  10
 1494.4108978577
  20
 3835.3876108405
  30
0.0
  11
 1504.3513882841
  21
 3819.7079848429
  31
0.0
   0
LINE
   5
438
 100
AcDbEntity
   8
LEVEL001
 370
13
 100
AcDbLine
   6
CONTINUOUS
  62
5
  10
 1504.3513882841
  20
 3819.7079848429
  30
0.0
  11
 1469.6361183226
  21
 3819.7079848429
  31
0.0
   0
LINE
   5
439
 100
AcDbEntity
   8
LEVEL001
 370
13
 100
AcDbLine
   6
CONTINUOUS
  62
5
  10
 1469.6361183226
  20
 3819.7079848429
  30
0.0
  11
 1474.5366308719
  21
 3809.1525652357
  31
0.0
   0
LINE
   5
43A
 100
AcDbEntity
   8
LEVEL001
 370
13
 100
AcDbLine
   6
CONTINUOUS
  62
5
  10
 1474.5366308719
  20
 3809.1525652357
  30
0.0
  11
 1598.1212219153
  21
 3809.1525652357
  31
0.0
   0
ARC
   5
43B
 100
AcDbEntity
   8
LEVEL001
 370
13
   6
CONTINUOUS
  62
5
 100
AcDbCircle
  10
 1493.9106197255
  20
 3785.1220485149
  30
0.0
  40
 31.206602120202
 100
AcDbArc
  50
 246.86700487445
  51
 289.54634462666
   0
LINE
   5
43C
 100
AcDbEntity
   8
LEVEL001
 370
13
 100
AcDbLine
   6
CONTINUOUS
  62
5
  10
 1504.3513882841
  20
 3785.0696191761
  30
0.0
  11
 1504.3513882841
  21
 3791.5257652239
  31
0.0
   0
LINE
   5
43D
 100
AcDbEntity
   8
LEVEL001
 370
13
 100
AcDbLine
   6
CONTINUOUS
  62
5
  10
 1504.3513882841
  20
 3791.5257652239
  30
0.0
  11
 1560.9206004654
  21
 3791.5257652239
  31
0.0
   0
LINE
   5
43E
 100
AcDbEntity
   8
LEVEL001
 370
13
 100
AcDbLine
   6
CONTINUOUS
  62
5
  10
 1560.9206004654
  20
 3791.5257652239
  30
0.0
  11
 1560.9206004654
  21
 3785.0696191761
  31
0.0
   0
LINE
   5
43F
 100
AcDbEntity
   8
LEVEL001
 370
13
 100
AcDbLine
   6
CONTINUOUS
  62
5
  10
 1560.9206004654
  20
 3785.0696191761
  30
0.0
  11
 1504.3513882841
  21
 3785.0696191761
  31
0.0
   0
LINE
   5
440
 100
AcDbEntity
   8
LEVEL001
 370
13
 100
AcDbLine
   6
CONTINUOUS
  62
5
  10
 1587.4632632486
  20
 3798.4944539811
  30
0.0
  11
 1567.4794381606
  21
 3807.5128558119
  31
0.0
   0
LINE
   5
441
 100
AcDbEntity
   8
LEVEL001
 370
13
 100
AcDbLine
   6
CONTINUOUS
  62
5
  10
 1567.4794381606
  20
 3807.5128558119
  30
0.0
  11
 1560.9206004654
  21
 3799.8266988145
  31
0.0
   0
LINE
   5
442
 100
AcDbEntity
   8
LEVEL001
 370
13
 100
AcDbLine
   6
CONTINUOUS
  62
5
  10
 1560.9206004654
  20
 3799.8266988145
  30
0.0
  11
 1504.3513882841
  21
 3799.8266988145
  31
0.0
   0
LINE
   5
443
 100
AcDbEntity
   8
LEVEL001
 370
13
 100
AcDbLine
   6
CONTINUOUS
  62
5
  10
 1504.3513882841
  20
 3799.8266988145
  30
0.0
  11
 1504.3513882841
  21
 3801.5689472977
  31
0.0
   0
LINE
   5
444
 100
AcDbEntity
   8
LEVEL001
 370
13
 100
AcDbLine
   6
CONTINUOUS
  62
5
  10
 1504.3513882841
  20
 3801.5689472977
  30
0.0
  11
 1481.7033787052
  21
 3806.1804583907
  31
0.0
   0
LINE
   5
445
 100
AcDbEntity
   8
LEVEL001
 370
13
 100
AcDbLine
   6
CONTINUOUS
  62
5
  10
 1481.7033787052
  20
 3806.1804583907
  30
0.0
  11
 1481.6505832966
  21
 3756.4246004985
  31
0.0
   0
LINE
   5
446
 100
AcDbEntity
   8
LEVEL001
 370
13
 100
AcDbLine
   6
CONTINUOUS
  62
5
  10
 1504.3513882841
  20
 3769.0825285881
  30
0.0
  11
 1504.3513882841
  21
 3775.9451687645
  31
0.0
   0
LINE
   5
447
 100
AcDbEntity
   8
LEVEL001
 370
13
 100
AcDbLine
   6
CONTINUOUS
  62
5
  10
 1504.3513882841
  20
 3775.9451687645
  30
0.0
  11
 1560.9206004654
  21
 3775.9451687645
  31
0.0
   0
LINE
   5
448
 100
AcDbEntity
   8
LEVEL001
 370
13
 100
AcDbLine
   6
CONTINUOUS
  62
5
  10
 1560.9206004654
  20
 3775.9451687645
  30
0.0
  11
 1560.9206004654
  21
 3769.0825285881
  31
0.0
   0
LINE
   5
449
 100
AcDbEntity
   8
LEVEL001
 370
13
 100
AcDbLine
   6
CONTINUOUS
  62
5
  10
 1560.9206004654
  20
 3769.0825285881
  30
0.0
  11
 1504.3513882841
  21
 3769.0825285881
  31
0.0
   0
ARC
   5
44A
 100
AcDbEntity
   8
LEVEL001
 370
13
   6
CONTINUOUS
  62
5
 100
AcDbCircle
  10
 1583.9642877241
  20
 3795.8823611763
  30
0.0
  40
 4.3664469013676
 100
AcDbArc
  50
 266.15058922022
  51
 36.742470507437
   0
LINE
   5
44B
 100
AcDbEntity
   8
LEVEL001
 370
13
 100
AcDbLine
   6
CONTINUOUS
  62
5
  10
 1504.3513882841
  20
 3755.7138461251
  30
0.0
  11
 1504.3513882841
  21
 3760.4742829951
  31
0.0
   0
LINE
   5
44C
 100
AcDbEntity
   8
LEVEL001
 370
13
 100
AcDbLine
   6
CONTINUOUS
  62
5
  10
 1504.3513882841
  20
 3760.4742829951
  30
0.0
  11
 1560.9206004654
  21
 3760.4742829951
  31
0.0
   0
LINE
   5
44D
 100
AcDbEntity
   8
LEVEL001
 370
13
 100
AcDbLine
   6
CONTINUOUS
  62
5
  10
 1560.9206004654
  20
 3760.4742829951
  30
0.0
  11
 1560.9206004654
  21
 3755.5551547237
  31
0.0
   0
LINE
   5
44E
 100
AcDbEntity
   8
LEVEL001
 370
13
 100
AcDbLine
   6
CONTINUOUS
  62
5
  10
 1560.9206004654
  20
 3755.5551547237
  30
0.0
  11
 1577.8300848248
  21
 3755.5551547237
  31
0.0
   0
LINE
   5
44F
 100
AcDbEntity
   8
LEVEL001
 370
13
 100
AcDbLine
   6
CONTINUOUS
  62
5
  10
 1577.8300848248
  20
 3755.5551547237
  30
0.0
  11
 1581.5190495586
  21
 3757.6047152095
  31
0.0
   0
LINE
   5
450
 100
AcDbEntity
   8
LEVEL001
 370
13
 100
AcDbLine
   6
CONTINUOUS
  62
5
  10
 1581.5190495586
  20
 3757.6047152095
  30
0.0
  11
 1583.6711491038
  21
 3762.0114533593
  31
0.0
   0
LINE
   5
451
 100
AcDbEntity
   8
LEVEL001
 370
13
 100
AcDbLine
   6
CONTINUOUS
  62
5
  10
 1583.6711491038
  20
 3762.0114533593
  30
0.0
  11
 1583.6644352368
  21
 3791.5259178117
  31
0.0
   0
LINE
   5
452
 100
AcDbEntity
   8
LEVEL001
 370
13
 100
AcDbLine
   6
CONTINUOUS
  62
5
  10
 1487.8837984429
  20
 3750.1236363309
  30
0.0
  11
 1487.3714083214
  21
 3744.9997351163
  31
0.0
   0
LINE
   5
453
 100
AcDbEntity
   8
LEVEL001
 370
13
 100
AcDbLine
   6
CONTINUOUS
  62
5
  10
 1487.3714083214
  20
 3744.9997351163
  30
0.0
  11
 1485.4240817193
  21
 3741.4128516783
  31
0.0
   0
LINE
   5
454
 100
AcDbEntity
   8
LEVEL001
 370
13
 100
AcDbLine
   6
CONTINUOUS
  62
5
  10
 1485.4240817193
  20
 3741.4128516783
  30
0.0
  11
 1474.3562719905
  21
 3727.6803996949
  31
0.0
   0
ARC
   5
455
 100
AcDbEntity
   8
LEVEL001
 370
13
   6
CONTINUOUS
  62
5
 100
AcDbCircle
  10
 1482.8885345052
  20
 3722.0686462267
  30
0.0
  40
 10.212310248246
 100
AcDbArc
  50
 146.66668479797
  51
 331.70163256428
   0
ARC
   5
456
 100
AcDbEntity
   8
LEVEL001
 370
13
   6
CONTINUOUS
  62
5
 100
AcDbCircle
  10
 1468.9004503250
  20
 3731.1264331223
  30
0.0
  40
 26.856307183018
 100
AcDbArc
  50
 328.83298190806
  51
 45.020901175880
   0
LINE
   5
457
 100
AcDbEntity
   8
LEVEL001
 370
13
 100
AcDbLine
   6
CONTINUOUS
  62
5
  10
 1571.5080635288
  20
 3752.8906650569
  30
0.0
  11
 1584.9327457459
  21
 3730.5499674805
  31
0.0
   0
ARC
   5
458
 100
AcDbEntity
   8
LEVEL001
 370
13
   6
CONTINUOUS
  62
5
 100
AcDbCircle
  10
 1577.2393828833
  20
 3720.3742967595
  30
0.0
  40
 8.7884995702356
 100
AcDbArc
  50
 268.04310640375
  51
 95.976315924688
   0
ARC
   5
459
 100
AcDbEntity
   8
LEVEL001
 370
13
   6
CONTINUOUS
  62
5
 100
AcDbCircle
  10
 1510.0384419140
  20
 3718.2005138269
  30
0.0
  40
 6.6095999893666
 100
AcDbArc
  50
 179.99949488507
  51
 269.90651577931
   0
LINE
   5
45A
 100
AcDbEntity
   8
LEVEL001
 370
13
 100
AcDbLine
   6
CONTINUOUS
  62
5
  10
 1510.0276576462
  20
 3711.5909226355
  30
0.0
  11
 1576.9392767458
  21
 3711.5909226355
  31
0.0
   0
LINE
   5
45B
 100
AcDbEntity
   8
LEVEL001
 370
13
 100
AcDbLine
   6
CONTINUOUS
  62
5
  10
 1576.3243475649
  20
 3729.1150309999
  30
0.0
  11
 1568.9458077458
  21
 3747.5616857235
  31
0.0
   0
LINE
   5
45C
 100
AcDbEntity
   8
LEVEL001
 370
13
 100
AcDbLine
   6
CONTINUOUS
  62
5
  10
 1568.9458077458
  20
 3747.5616857235
  30
0.0
  11
 1568.7407296269
  21
 3737.3135781189
  31
0.0
   0
LINE
   5
45D
 100
AcDbEntity
   8
LEVEL001
 370
13
 100
AcDbLine
   6
CONTINUOUS
  62
5
  10
 1568.7407296269
  20
 3737.3135781189
  30
0.0
  11
 1566.0393136918
  21
 3729.1150309999
  31
0.0
   0
LINE
   5
45E
 100
AcDbEntity
   8
LEVEL001
 370
13
 100
AcDbLine
   6
CONTINUOUS
  62
5
  10
 1566.0393136918
  20
 3729.1150309999
  30
0.0
  11
 1526.1796957391
  21
 3729.1150309999
  31
0.0
   0
LINE
   5
45F
 100
AcDbEntity
   8
LEVEL001
 370
13
 100
AcDbLine
   6
CONTINUOUS
  62
5
  10
 1526.1796957391
  20
 3729.1150309999
  30
0.0
  11
 1526.1796957391
  21
 3744.9997351163
  31
0.0
   0
LINE
   5
460
 100
AcDbEntity
   8
LEVEL001
 370
13
 100
AcDbLine
   6
CONTINUOUS
  62
5
  10
 1526.1796957391
  20
 3744.9997351163
  30
0.0
  11
 1528.2292562249
  21
 3747.9715367855
  31
0.0
   0
LINE
   5
461
 100
AcDbEntity
   8
LEVEL001
 370
13
 100
AcDbLine
   6
CONTINUOUS
  62
5
  10
 1528.2292562249
  20
 3747.9715367855
  30
0.0
  11
 1526.3847738579
  21
 3750.1236363309
  31
0.0
   0
LINE
   5
462
 100
AcDbEntity
   8
LEVEL001
 370
13
 100
AcDbLine
   6
CONTINUOUS
  62
5
  10
 1526.3847738579
  20
 3750.1236363309
  30
0.0
  11
 1503.4288419249
  21
 3753.1979770595
  31
0.0
   0
LINE
   5
463
 100
AcDbEntity
   8
LEVEL001
 370
13
 100
AcDbLine
   6
CONTINUOUS
  62
5
  10
 1503.4288419249
  20
 3753.1979770595
  30
0.0
  11
 1503.4288419249
  21
 3718.2005720967
  31
0.0
   0
LINE
   5
464
 100
AcDbEntity
   8
LEVEL001
 370
13
 100
AcDbLine
   6
CONTINUOUS
  62
5
  10
 1546.2849807844
  20
 3733.4192300903
  30
0.0
  11
 1532.1428303270
  21
 3754.7353000117
  31
0.0
   0
ARC
   5
465
 100
AcDbEntity
   8
LEVEL001
 370
13
   6
CONTINUOUS
  62
5
 100
AcDbCircle
  10
 1551.1653317412
  20
 3741.1387149691
  30
0.0
  40
 9.1328129430768
 100
AcDbArc
  50
 237.69843463468
  51
 18.768732377766
   0
ARC
   5
466
 100
AcDbEntity
   8
LEVEL001
 370
13
   6
CONTINUOUS
  62
5
 100
AcDbCircle
  10
 1533.6300564767
  20
 3716.8354620037
  30
0.0
  40
 37.929006876678
 100
AcDbArc
  50
 46.131549416359
  51
 92.247188603554
   0
ARC
   5
467
 100
AcDbEntity
   8
LEVEL001
 370
13
   6
CONTINUOUS
  62
5
 100
AcDbCircle
  10
 1590.7253657832
  20
 3737.3581751383
  30
0.0
  40
 8.9390233475260
 100
AcDbArc
  50
 229.60790187559
  51
 6.7933956221297
   0
ARC
   5
468
 100
AcDbEntity
   8
LEVEL001
 370
13
   6
CONTINUOUS
  62
5
 100
AcDbCircle
  10
 1575.4166242773
  20
 3726.3268395489
  30
0.0
  40
 27.037970213950
 100
AcDbArc
  50
 26.557897354844
  51
 98.092162593092
   0
LINE
   5
469
 100
AcDbEntity
   8
0
 370
13
 100
AcDbLine
   6
CONTINUOUS
  62
6
  10
 6573.9738849712
  20
 1609.9672167895
  30
0.0
  11
 8133.9738849712
  21
 1609.9672167895
  31
0.0
   0
ENDSEC
  0
SECTION
  2
OBJECTS
  0
DICTIONARY
  5
C
100
AcDbDictionary
  3
ACAD_GROUP
350
D
  3
ACAD_MLINESTYLE
350
1B
  3
DWGPROPS
350
1C
  0
DICTIONARY
  5
D
102
{ACAD_REACTORS
330
C
102
}
100
AcDbDictionary
  0
DICTIONARY
  5
1B
102
{ACAD_REACTORS
330
C
102
}
100
AcDbDictionary
  3
STANDARD
350
1D
  0
MLINESTYLE
  5
1D
102
{ACAD_REACTORS
330
1B
102
}
100
AcDbMlineStyle
  2
STANDARD
 70
     0
  3

 62
   256
 51
90.0
 52
90.0
 71
     2
 49
0.5
 62
   256
  6
BYLAYER
 49
-0.5
 62
   256
  6
BYLAYER
   0
XRECORD
   5
1C
 102
{ACAD_REACTORS
 330
C
 102
}
 330
C
 100
AcDbXrecord
 280
1
   1
DWGPROPS COOKIE
   2
 
   3
 
   4
 
   6
 
   7
MZH060W
   8
 
   9

 300
 = 
 301
 = 
 302
 = 
 303
 = 
 304
 = 
 305
 = 
 306
 = 
 307
 = 
 308
 = 
 309
 = 
  40
0.0
  41
 2460340.5000000
  42
 2460340.5000000
   1

  90
10
   0
ENDSEC
   0
EOF
