   0
SECTION
   2
HEADER
   9
$ACADVER
   1
AC1015
   9
$DWGCODEPAGE
   3
ANSI_932
   9
$LIMMIN
  10
0.0
  20
0.0
   9
$LIMMAX
  10
 8400.0000000000
  20
 5940.0000000000
   9
$EXTMIN
  10
0.0
  20
0.0
  30
0.0
   9
$EXTMAX
  10
 8400.0000000000
  20
 5940.0000000000
  30
0.0
   9
$LTSCALE
  40
 168.00000000000
   9
$HANDSEED
   5
3B3
   0
ENDSEC
   0
SECTION
   2
TABLES
  0
TABLE
  2
VPORT
  5
8
100
AcDbSymbolTable
 70
     1
  0
VPORT
  5
3B2
100
AcDbSymbolTableRecord
100
AcDbViewportTableRecord
  2
*ACTIVE
 70
     0
 10
0.0
 20
0.0
 11
1.0
 21
1.0
  12
 4200.0000000000
  22
 2970.0000000000
 13
0.0
 23
0.0
 14
1.0
 24
1.0
 15
0.0
 25
0.0
 16
0.0
 26
0.0
 36
1.0
 17
0.0
 27
0.0
 37
0.0
  40
 8400.0000000000
  41
 1.4787878787879
 42
50.0
 43
0.0
 44
0.0
 50
0.0
 51
0.0
 71
     0
 72
   100
 73
     1
 74
     1
 75
     0
 76
     0
 77
     0
 78
     0
  0
ENDTAB
  0
TABLE
  2
LTYPE
  5
5
100
AcDbSymbolTable
 70
    25
  0
LTYPE
  5
12
100
AcDbSymbolTableRecord
100
AcDbLinetypeTableRecord
  2
BYBLOCK
 70
     0
  3

 72
    65
 73
     0
 40
0.0
  0
LTYPE
  5
13
100
AcDbSymbolTableRecord
100
AcDbLinetypeTableRecord
  2
BYLAYER
 70
     0
  3

 72
    65
 73
     0
 40
0.0
  0
LTYPE
  5
14
100
AcDbSymbolTableRecord
100
AcDbLinetypeTableRecord
  2
CONTINUOUS
 70
     0
  3
Solid line
 72
    65
 73
     0
 40
0.0
  0
LTYPE
  5
20
100
AcDbSymbolTableRecord
100
AcDbLinetypeTableRecord
  2
BORDER
 70
     0
  3
__ __ . __ __ . __ __ . __ __ . __ __ . __ __ .
 72
    65
 73
     6
 40
1.75
 49
0.5
 74
     0
 49
-0.25
 74
     0
 49
0.5
 74
     0
 49
-0.25
 74
     0
 49
0.0
 74
     0
 49
-0.25
 74
     0
  0
LTYPE
  5
21
100
AcDbSymbolTableRecord
100
AcDbLinetypeTableRecord
  2
BORDER2
 70
     0
  3
__.__.__.__.__.__.__.__.__.__.__.__.__.__.__.__
 72
    65
 73
     6
 40
0.875
 49
0.25
 74
     0
 49
-0.125
 74
     0
 49
0.25
 74
     0
 49
-0.125
 74
     0
 49
0.0
 74
     0
 49
-0.125
 74
     0
  0
LTYPE
  5
22
100
AcDbSymbolTableRecord
100
AcDbLinetypeTableRecord
  2
BORDERX2
 70
     0
  3
____  ____  .  ____  ____  .  ____  ____  .  __
 72
    65
 73
     6
 40
3.5
 49
1.0
 74
     0
 49
-0.5
 74
     0
 49
1.0
 74
     0
 49
-0.5
 74
     0
 49
0.0
 74
     0
 49
-0.5
 74
     0
  0
LTYPE
  5
23
100
AcDbSymbolTableRecord
100
AcDbLinetypeTableRecord
  2
CENTER
 70
     0
  3
____ _ ____ _ ____ _ ____ _ ____ _ ____ _ ____ 
 72
    65
 73
     4
 40
2.0
 49
1.25
 74
     0
 49
-0.25
 74
     0
 49
0.25
 74
     0
 49
-0.25
 74
     0
  0
LTYPE
  5
24
100
AcDbSymbolTableRecord
100
AcDbLinetypeTableRecord
  2
CENTER2
 70
     0
  3
___ _ ___ _ ___ _ ___ _ ___ _ ___ _ ___ _ ___ _
 72
    65
 73
     4
 40
1.125
 49
0.75
 74
     0
 49
-0.125
 74
     0
 49
0.125
 74
     0
 49
-0.125
 74
     0
  0
LTYPE
  5
25
100
AcDbSymbolTableRecord
100
AcDbLinetypeTableRecord
  2
CENTERX2
 70
     0
  3
________  __  ________  __  ________  __  _____
 72
    65
 73
     4
 40
4.0
 49
2.5
 74
     0
 49
-0.5
 74
     0
 49
0.5
 74
     0
 49
-0.5
 74
     0
  0
LTYPE
  5
26
100
AcDbSymbolTableRecord
100
AcDbLinetypeTableRecord
  2
DASHDOT
 70
     0
  3
__ . __ . __ . __ . __ . __ . __ . __ . __ . __
 72
    65
 73
     4
 40
1.0
 49
0.5
 74
     0
 49
-0.25
 74
     0
 49
0.0
 74
     0
 49
-0.25
 74
     0
  0
LTYPE
  5
27
100
AcDbSymbolTableRecord
100
AcDbLinetypeTableRecord
  2
DASHDOT2
 70
     0
  3
_._._._._._._._._._._._._._._._._._._._._._._._
 72
    65
 73
     4
 40
0.5
 49
0.25
 74
     0
 49
-0.125
 74
     0
 49
0.0
 74
     0
 49
-0.125
 74
     0
  0
LTYPE
  5
28
100
AcDbSymbolTableRecord
100
AcDbLinetypeTableRecord
  2
DASHDOTX2
 70
     0
  3
____  .  ____  .  ____  .  ____  .  ____  .  __
 72
    65
 73
     4
 40
2.0
 49
1.0
 74
     0
 49
-0.5
 74
     0
 49
0.0
 74
     0
 49
-0.5
 74
     0
  0
LTYPE
  5
29
100
AcDbSymbolTableRecord
100
AcDbLinetypeTableRecord
  2
DASHED
 70
     0
  3
__ __ __ __ __ __ __ __ __ __ __ __ __ __ __ __
 72
    65
 73
     2
 40
0.75
 49
0.5
 74
     0
 49
-0.25
 74
     0
  0
LTYPE
  5
2A
100
AcDbSymbolTableRecord
100
AcDbLinetypeTableRecord
  2
DASHED2
 70
     0
  3
_ _ _ _ _ _ _ _ _ _ _ _ _ _ _ _ _ _ _ _ _ _ _ _
 72
    65
 73
     2
 40
0.375
 49
0.25
 74
     0
 49
-0.125
 74
     0
  0
LTYPE
  5
2B
100
AcDbSymbolTableRecord
100
AcDbLinetypeTableRecord
  2
DASHEDX2
 70
     0
  3
____  ____  ____  ____  ____  ____  ____  ____ 
 72
    65
 73
     2
 40
1.5
 49
1.0
 74
     0
 49
-0.5
 74
     0
  0
LTYPE
  5
2C
100
AcDbSymbolTableRecord
100
AcDbLinetypeTableRecord
  2
DIVIDE
 70
     0
  3
____ . . ____ . . ____ . . ____ . . ____ . . __
 72
    65
 73
     6
 40
1.25
 49
0.5
 74
     0
 49
-0.25
 74
     0
 49
0.0
 74
     0
 49
-0.25
 74
     0
 49
0.0
 74
     0
 49
-0.25
 74
     0
  0
LTYPE
  5
2D
100
AcDbSymbolTableRecord
100
AcDbLinetypeTableRecord
  2
DIVIDE2
 70
     0
  3
__..__..__..__..__..__..__..__..__..__..__..__.
 72
    65
 73
     6
 40
0.625
 49
0.25
 74
     0
 49
-0.125
 74
     0
 49
0.0
 74
     0
 49
-0.125
 74
     0
 49
0.0
 74
     0
 49
-0.125
 74
     0
  0
LTYPE
  5
2E
100
AcDbSymbolTableRecord
100
AcDbLinetypeTableRecord
  2
DIVIDEX2
 70
     0
  3
________  .  .  ________  .  .  ________  .  . 
 72
    65
 73
     6
 40
2.5
 49
1.0
 74
     0
 49
-0.5
 74
     0
 49
0.0
 74
     0
 49
-0.5
 74
     0
 49
0.0
 74
     0
 49
-0.5
 74
     0
  0
LTYPE
  5
2F
100
AcDbSymbolTableRecord
100
AcDbLinetypeTableRecord
  2
DOT
 70
     0
  3
. . . . . . . . . . . . . . . . . . . . . . . .
 72
    65
 73
     2
 40
0.25
 49
0.0
 74
     0
 49
-0.25
 74
     0
  0
LTYPE
  5
30
100
AcDbSymbolTableRecord
100
AcDbLinetypeTableRecord
  2
DOT2
 70
     0
  3
...............................................
 72
    65
 73
     2
 40
0.125
 49
0.0
 74
     0
 49
-0.125
 74
     0
  0
LTYPE
  5
31
100
AcDbSymbolTableRecord
100
AcDbLinetypeTableRecord
  2
DOTX2
 70
     0
  3
.  .  .  .  .  .  .  .  .  .  .  .  .  .  .  . 
 72
    65
 73
     2
 40
0.5
 49
0.0
 74
     0
 49
-0.5
 74
     0
  0
LTYPE
  5
32
100
AcDbSymbolTableRecord
100
AcDbLinetypeTableRecord
  2
HIDDEN
 70
     0
  3
__ __ __ __ __ __ __ __ __ __ __ __ __ __ __ __
 72
    65
 73
     2
 40
0.375
 49
0.25
 74
     0
 49
-0.125
 74
     0
  0
LTYPE
  5
33
100
AcDbSymbolTableRecord
100
AcDbLinetypeTableRecord
  2
HIDDEN2
 70
     0
  3
_ _ _ _ _ _ _ _ _ _ _ _ _ _ _ _ _ _ _ _ _ _ _ _
 72
    65
 73
     2
 40
0.1875
 49
0.125
 74
     0
 49
-0.0625
 74
     0
  0
LTYPE
  5
34
100
AcDbSymbolTableRecord
100
AcDbLinetypeTableRecord
  2
HIDDENX2
 70
     0
  3
____ ____ ____ ____ ____ ____ ____ ____ ____ __
 72
    65
 73
     2
 40
0.75
 49
0.5
 74
     0
 49
-0.25
 74
     0
  0
LTYPE
  5
35
100
AcDbSymbolTableRecord
100
AcDbLinetypeTableRecord
  2
PHANTOM
 70
     0
  3
______  __  __  ______  __  __  ______  __  __ 
 72
    65
 73
     6
 40
2.5
 49
1.25
 74
     0
 49
-0.25
 74
     0
 49
0.25
 74
     0
 49
-0.25
 74
     0
 49
0.25
 74
     0
 49
-0.25
 74
     0
  0
LTYPE
  5
36
100
AcDbSymbolTableRecord
100
AcDbLinetypeTableRecord
  2
PHANTOM2
 70
     0
  3
___ _ _ ___ _ _ ___ _ _ ___ _ _ ___ _ _ ___ _ _
 72
    65
 73
     6
 40
1.25
 49
0.625
 74
     0
 49
-0.125
 74
     0
 49
0.125
 74
     0
 49
-0.125
 74
     0
 49
0.125
 74
     0
 49
-0.125
 74
     0
  0
LTYPE
  5
37
100
AcDbSymbolTableRecord
100
AcDbLinetypeTableRecord
  2
PHANTOMX2
 70
     0
  3
____________    ____    ____    ____________   
 72
    65
 73
     6
 40
5.0
 49
2.5
 74
     0
 49
-0.5
 74
     0
 49
0.5
 74
     0
 49
-0.5
 74
     0
 49
0.5
 74
     0
 49
-0.5
 74
     0
  0
ENDTAB
   0
TABLE
   2
LAYER
   5
2
 100
AcDbSymbolTable
  70
2
   0
LAYER
   5
E
 100
AcDbSymbolTableRecord
 100
AcDbLayerTableRecord
   2
0
  70
0
  62
7
   6
CONTINUOUS
 390
30
   0
LAYER
   5
39
 100
AcDbSymbolTableRecord
 100
AcDbLayerTableRecord
   2
LEVEL001
  70
0
  62
7
   6
CONTINUOUS
 390
30
   0
ENDTAB
  0
TABLE
  2
STYLE
  5
3
100
AcDbSymbolTable
  70
7
  0
STYLE
  5
F
100
AcDbSymbolTableRecord
100
AcDbTextStyleTableRecord
  2
STANDARD
 70
     0
 40
0.0
 41
1.0
 50
0.0
 71
     0
 42
0.2
  3
TXT
  4
BIGFONT
  0
STYLE
  5
38
100
AcDbSymbolTableRecord
100
AcDbTextStyleTableRecord
  2
STANDARD1
 70
     4
 40
0.0
 41
1.0
 50
0.0
 71
     0
 42
0.2
  3
TXT
  4
BIGFONT
   0
STYLE
   5
3A
 100
AcDbSymbolTableRecord
 100
AcDbTextStyleTableRecord
   2
GMM001
  70
0
  40
0.0
  41
 1.0000000000000
  50
0.0
  71
     0
  42
1.0
   3

   4

1001
ACAD
1000
ＭＳ ゴシック
1071
32817
   0
STYLE
   5
3B
 100
AcDbSymbolTableRecord
 100
AcDbTextStyleTableRecord
   2
GMM002
  70
0
  40
0.0
  41
 1.0000000000000
  50
0.0
  71
     0
  42
1.0
   3
txt.shx
   4
bigfont.shx
   0
STYLE
   5
3C
 100
AcDbSymbolTableRecord
 100
AcDbTextStyleTableRecord
   2
GMM003
  70
0
  40
0.0
  41
 0.75000000000000
  50
0.0
  71
     0
  42
1.0
   3
txt.shx
   4
bigfont.shx
   0
STYLE
   5
3D
 100
AcDbSymbolTableRecord
 100
AcDbTextStyleTableRecord
   2
GMM004
  70
0
  40
0.0
  41
 0.66666666666667
  50
0.0
  71
     0
  42
1.0
   3

   4

1001
ACAD
1000
ＭＳ ゴシック
1071
32817
   0
STYLE
   5
3E
 100
AcDbSymbolTableRecord
 100
AcDbTextStyleTableRecord
   2
GMM005
  70
0
  40
0.0
  41
 1.5000000000000
  50
0.0
  71
     0
  42
1.0
   3

   4

1001
ACAD
1000
ＭＳ ゴシック
1071
32817
   0
ENDTAB
  0
TABLE
  2
VIEW
  5
6
100
AcDbSymbolTable
 70
     0
  0
ENDTAB
  0
TABLE
  2
UCS
  5
7
100
AcDbSymbolTable
 70
     0
  0
ENDTAB
  0
TABLE
  2
APPID
  5
9
100
AcDbSymbolTable
 70
     1
  0
APPID
  5
10
100
AcDbSymbolTableRecord
100
AcDbRegAppTableRecord
  2
ACAD
 70
     0
  0
ENDTAB
   0
TABLE
   2
DIMSTYLE
   5
A
 100
AcDbSymbolTable
  70
9
 100
AcDbDimStyleTable
  0
DIMSTYLE
105
1D
100
AcDbSymbolTableRecord
100
AcDbDimStyleTableRecord
  2
STANDARD
 70
     0
  3

  4

  5

  6

  7

 40
1.0
 41
0.18
 42
0.0625
 43
0.38
 44
0.18
 45
0.0
 46
0.0
 47
0.0
 48
0.0
140
0.18
141
0.09
142
0.0
143
25.4
144
1.0
145
0.0
146
1.0
147
0.09
 71
     0
 72
     0
 73
     1
 74
     1
 75
     0
 76
     0
 77
     0
 78
     0
170
     0
171
     2
172
     0
173
     0
174
     0
175
     0
176
     0
177
     0
178
     0
270
     2
271
     4
272
     4
273
     2
274
     2
340
F
275
     0
280
     0
281
     0
282
     0
283
     1
284
     0
285
     0
286
     0
287
     3
288
     0
   0
DIMSTYLE
 105
3F
 100
AcDbSymbolTableRecord
 100
AcDbDimStyleTableRecord
   2
GMM001
  70
0
   3

   4

   5

   6
_OPEN
   7
_OPEN
  40
 1.0000000000000
  41
 30.000000000000
  42
 30.000000000000
  43
 160.00000000000
  44
 30.000000000000
  45
0.0
  46
0.0
  47
0.0
  48
0.0
 140
 66.000000000000
 141
 20.000000000000
 142
0.0
 143
 0.39400000000000E-1
 144
 1.0000000000000
 145
0.0
 146
 0.75757575757576
 147
0.0
  71
0
  72
0
  73
0
  74
0
  75
0
  76
0
  77
0
  78
8
 170
0
 171
2
 172
1
 173
1
 174
0
 175
0
 176
1
 177
1
 178
7
 270
2
 271
1
 272
0
 273
2
 274
2
 340
3B
 275
0
 280
0
 281
0
 282
0
 283
1
 284
0
 285
0
 286
0
 287
3
 288
1
   0
DIMSTYLE
 105
40
 100
AcDbSymbolTableRecord
 100
AcDbDimStyleTableRecord
   2
GMM002
  70
0
   3

   4

   5

   6
_OPEN
   7
_OPEN
  40
 1.0000000000000
  41
 42.000000000000
  42
 30.000000000000
  43
 160.00000000000
  44
 30.000000000000
  45
0.0
  46
0.0
  47
0.0
  48
0.0
 140
 60.000000000000
 141
 20.000000000000
 142
0.0
 143
 0.39400000000000E-1
 144
 1.0000000000000
 145
0.0
 146
 0.83333333333333
 147
0.0
  71
0
  72
0
  73
0
  74
0
  75
0
  76
0
  77
0
  78
8
 170
0
 171
2
 172
1
 173
1
 174
0
 175
0
 176
1
 177
1
 178
7
 270
2
 271
1
 272
0
 273
2
 274
2
 340
3B
 275
0
 280
0
 281
0
 282
0
 283
1
 284
0
 285
0
 286
0
 287
3
 288
1
   0
DIMSTYLE
 105
41
 100
AcDbSymbolTableRecord
 100
AcDbDimStyleTableRecord
   2
GMM003
  70
0
   3

   4

   5

   6
_OPEN
   7
_OPEN
  40
 1.0000000000000
  41
 42.000000000000
  42
 30.000000000000
  43
 160.00000000000
  44
 30.000000000000
  45
0.0
  46
0.0
  47
0.0
  48
0.0
 140
 60.000000000000
 141
 20.000000000000
 142
0.0
 143
 0.39400000000000E-1
 144
 1.0000000000000
 145
0.0
 146
 0.83333333333333
 147
 25.714285714286
  71
0
  72
0
  73
0
  74
0
  75
0
  76
0
  77
3
  78
8
 170
0
 171
2
 172
1
 173
1
 174
0
 175
0
 176
6
 177
6
 178
1
 270
2
 271
6
 272
0
 273
2
 274
2
 340
3B
 275
1
 280
0
 281
0
 282
0
 283
1
 284
0
 285
0
 286
0
 287
3
 288
0
   0
DIMSTYLE
 105
42
 100
AcDbSymbolTableRecord
 100
AcDbDimStyleTableRecord
   2
GMM004
  70
0
   3

   4

   5

   6
_OPEN
   7
_OPEN
  40
 1.0000000000000
  41
 42.000000000000
  42
 30.000000000000
  43
 160.00000000000
  44
 30.000000000000
  45
0.0
  46
0.0
  47
0.0
  48
0.0
 140
 60.000000000000
 141
 20.000000000000
 142
0.0
 143
 0.39400000000000E-1
 144
 1.0000000000000
 145
0.0
 146
 0.83333333333333
 147
 25.714285714286
  71
0
  72
0
  73
0
  74
0
  75
0
  76
0
  77
3
  78
8
 170
0
 171
2
 172
1
 173
1
 174
0
 175
0
 176
6
 177
6
 178
1
 270
2
 271
6
 272
0
 273
2
 274
2
 340
3B
 275
1
 280
0
 281
0
 282
0
 283
1
 284
0
 285
0
 286
0
 287
3
 288
0
   0
DIMSTYLE
 105
43
 100
AcDbSymbolTableRecord
 100
AcDbDimStyleTableRecord
   2
GMM005
  70
0
   3
□<>
   4

   5

   6
_OPEN
   7
_OPEN
  40
 1.0000000000000
  41
 42.000000000000
  42
 30.000000000000
  43
 160.00000000000
  44
 30.000000000000
  45
0.0
  46
0.0
  47
0.0
  48
0.0
 140
 60.000000000000
 141
 20.000000000000
 142
0.0
 143
 0.39400000000000E-1
 144
 1.0000000000000
 145
0.0
 146
 0.83333333333333
 147
 25.714285714286
  71
0
  72
0
  73
0
  74
0
  75
0
  76
0
  77
3
  78
8
 170
0
 171
2
 172
1
 173
1
 174
0
 175
0
 176
6
 177
6
 178
1
 270
2
 271
6
 272
0
 273
2
 274
2
 340
3B
 275
1
 280
0
 281
0
 282
0
 283
1
 284
0
 285
0
 286
0
 287
3
 288
0
   0
DIMSTYLE
 105
44
 100
AcDbSymbolTableRecord
 100
AcDbDimStyleTableRecord
   2
GMM006
  70
0
   3
%%c<>
   4

   5

   6
_OPEN
   7
_OPEN
  40
 1.0000000000000
  41
 42.000000000000
  42
 30.000000000000
  43
 160.00000000000
  44
 30.000000000000
  45
0.0
  46
0.0
  47
0.0
  48
0.0
 140
 60.000000000000
 141
 20.000000000000
 142
0.0
 143
 0.39400000000000E-1
 144
 1.0000000000000
 145
0.0
 146
 0.83333333333333
 147
 14.000000000000
  71
0
  72
0
  73
0
  74
0
  75
0
  76
0
  77
3
  78
8
 170
0
 171
2
 172
1
 173
1
 174
0
 175
0
 176
6
 177
6
 178
1
 270
2
 271
1
 272
0
 273
2
 274
2
 340
3B
 275
0
 280
0
 281
0
 282
0
 283
1
 284
0
 285
0
 286
0
 287
0
 288
1
   0
DIMSTYLE
 105
45
 100
AcDbSymbolTableRecord
 100
AcDbDimStyleTableRecord
   2
GMM007
  70
0
   3

   4

   5

   6
_OPEN
   7
_OPEN
  40
 1.0000000000000
  41
 42.000000000000
  42
 30.000000000000
  43
 160.00000000000
  44
 30.000000000000
  45
0.0
  46
0.0
  47
0.0
  48
0.0
 140
 60.000000000000
 141
 20.000000000000
 142
0.0
 143
 0.39400000000000E-1
 144
 1.0000000000000
 145
0.0
 146
 0.83333333333333
 147
 25.714285714286
  71
0
  72
0
  73
0
  74
0
  75
1
  76
0
  77
3
  78
8
 170
0
 171
2
 172
1
 173
1
 174
0
 175
0
 176
6
 177
6
 178
1
 270
2
 271
6
 272
0
 273
2
 274
2
 340
3B
 275
1
 280
0
 281
0
 282
0
 283
1
 284
0
 285
0
 286
0
 287
3
 288
0
   0
ENDTAB
  0
TABLE
  2
BLOCK_RECORD
  5
1
100
AcDbSymbolTable
 70
     0
  0
BLOCK_RECORD
  5
18
100
AcDbSymbolTableRecord
100
AcDbBlockTableRecord
  2
*MODEL_SPACE
  0
BLOCK_RECORD
  5
15
100
AcDbSymbolTableRecord
100
AcDbBlockTableRecord
  2
*PAPER_SPACE
   0
BLOCK_RECORD
   5
46
 100
AcDbSymbolTableRecord
 100
AcDbBlockTableRecord
   2
*D13
   0
BLOCK_RECORD
   5
47
 100
AcDbSymbolTableRecord
 100
AcDbBlockTableRecord
   2
*D15
   0
BLOCK_RECORD
   5
48
 100
AcDbSymbolTableRecord
 100
AcDbBlockTableRecord
   2
*D16
   0
BLOCK_RECORD
   5
49
 100
AcDbSymbolTableRecord
 100
AcDbBlockTableRecord
   2
*D17
   0
BLOCK_RECORD
   5
4A
 100
AcDbSymbolTableRecord
 100
AcDbBlockTableRecord
   2
*D18
   0
BLOCK_RECORD
   5
4B
 100
AcDbSymbolTableRecord
 100
AcDbBlockTableRecord
   2
*D19
   0
BLOCK_RECORD
   5
4C
 100
AcDbSymbolTableRecord
 100
AcDbBlockTableRecord
   2
*D20
   0
BLOCK_RECORD
   5
4D
 100
AcDbSymbolTableRecord
 100
AcDbBlockTableRecord
   2
*D21
   0
BLOCK_RECORD
   5
4E
 100
AcDbSymbolTableRecord
 100
AcDbBlockTableRecord
   2
_ARCHTICK
   0
BLOCK_RECORD
   5
4F
 100
AcDbSymbolTableRecord
 100
AcDbBlockTableRecord
   2
_BOXBLANK
   0
BLOCK_RECORD
   5
50
 100
AcDbSymbolTableRecord
 100
AcDbBlockTableRecord
   2
_BOXFILLED
   0
BLOCK_RECORD
   5
51
 100
AcDbSymbolTableRecord
 100
AcDbBlockTableRecord
   2
_CLOSED
   0
BLOCK_RECORD
   5
52
 100
AcDbSymbolTableRecord
 100
AcDbBlockTableRecord
   2
_CLOSEDBLANK
   0
BLOCK_RECORD
   5
53
 100
AcDbSymbolTableRecord
 100
AcDbBlockTableRecord
   2
_DATUMBLANK
   0
BLOCK_RECORD
   5
54
 100
AcDbSymbolTableRecord
 100
AcDbBlockTableRecord
   2
_DATUMFILLED
   0
BLOCK_RECORD
   5
55
 100
AcDbSymbolTableRecord
 100
AcDbBlockTableRecord
   2
_DOT
   0
BLOCK_RECORD
   5
56
 100
AcDbSymbolTableRecord
 100
AcDbBlockTableRecord
   2
_DOTBLANK
   0
BLOCK_RECORD
   5
57
 100
AcDbSymbolTableRecord
 100
AcDbBlockTableRecord
   2
_DOTSMALL
   0
BLOCK_RECORD
   5
58
 100
AcDbSymbolTableRecord
 100
AcDbBlockTableRecord
   2
_INTEGRAL
   0
BLOCK_RECORD
   5
59
 100
AcDbSymbolTableRecord
 100
AcDbBlockTableRecord
   2
_NONE
   0
BLOCK_RECORD
   5
5A
 100
AcDbSymbolTableRecord
 100
AcDbBlockTableRecord
   2
_OBLIQUE
   0
BLOCK_RECORD
   5
5B
 100
AcDbSymbolTableRecord
 100
AcDbBlockTableRecord
   2
_OPEN
   0
BLOCK_RECORD
   5
5C
 100
AcDbSymbolTableRecord
 100
AcDbBlockTableRecord
   2
_OPEN30
   0
BLOCK_RECORD
   5
5D
 100
AcDbSymbolTableRecord
 100
AcDbBlockTableRecord
   2
_OPEN90
   0
BLOCK_RECORD
   5
5E
 100
AcDbSymbolTableRecord
 100
AcDbBlockTableRecord
   2
_ORIGIN
   0
ENDTAB
   0
ENDSEC
  0
SECTION
  2
BLOCKS
  0
BLOCK
  5
19
100
AcDbEntity
  8
0
100
AcDbBlockBegin
  2
*MODEL_SPACE
 70
     0
 10
0.0
 20
0.0
 30
0.0
  3
*MODEL_SPACE
  1

  0
ENDBLK
  5
1A
100
AcDbEntity
  8
0
100
AcDbBlockEnd
  0
BLOCK
  5
16
100
AcDbEntity
 67
     1
  8
0
100
AcDbBlockBegin
  2
*PAPER_SPACE
 70
     0
 10
0.0
 20
0.0
 30
0.0
  3
*PAPER_SPACE
  1

  0
ENDBLK
  5
17
100
AcDbEntity
 67
     1
  8
0
100
AcDbBlockEnd
   0
BLOCK
   5
5F
 100
AcDbEntity
   8
0
 100
AcDbBlockBegin
   2
_ARCHTICK
  70
0
  10
0.0
  20
0.0
  30
0.0
   3
_ARCHTICK
   0
POLYLINE
   5
60
 100
AcDbEntity
   8
0
 370
-2
   6
BYBLOCK
  62
0
 100
AcDb2dPolyline
  66
1
  10
0.0
  20
0.0
  30
0.0
  70
1
  40
 0.15000000000000
  41
 0.15000000000000
   0
VERTEX
   5
61
 100
AcDbEntity
   8
0
   6
BYBLOCK
  62
0
 100
AcDbVertex
 100
AcDb2dVertex
  10
-0.50000000000000
  20
-0.50000000000000
  30
0.0
  40
 0.15000000000000
  41
 0.15000000000000
   0
VERTEX
   5
62
 100
AcDbEntity
   8
0
   6
BYBLOCK
  62
0
 100
AcDbVertex
 100
AcDb2dVertex
  10
 0.50000000000000
  20
 0.50000000000000
  30
0.0
  40
 0.15000000000000
  41
 0.15000000000000
   0
SEQEND
   5
63
 100
AcDbEntity
   8
0
   6
BYBLOCK
  62
0
   0
ENDBLK
   5
64
 100
AcDbEntity
   8
0
 100
AcDbBlockEnd
   0
BLOCK
   5
65
 100
AcDbEntity
   8
0
 100
AcDbBlockBegin
   2
_OBLIQUE
  70
0
  10
0.0
  20
0.0
  30
0.0
   3
_OBLIQUE
   0
LINE
   5
66
 100
AcDbEntity
   8
0
 370
-2
 100
AcDbLine
   6
BYBLOCK
  62
0
  10
-0.50000000000000
  20
-0.50000000000000
  30
0.0
  11
 0.50000000000000
  21
 0.50000000000000
  31
0.0
   0
ENDBLK
   5
67
 100
AcDbEntity
   8
0
 100
AcDbBlockEnd
   0
BLOCK
   5
68
 100
AcDbEntity
   8
0
 100
AcDbBlockBegin
   2
_BOXBLANK
  70
0
  10
0.0
  20
0.0
  30
0.0
   3
_BOXBLANK
   0
LINE
   5
69
 100
AcDbEntity
   8
0
 370
-2
 100
AcDbLine
   6
BYBLOCK
  62
0
  10
-0.50000000000000
  20
-0.50000000000000
  30
0.0
  11
 0.50000000000000
  21
-0.50000000000000
  31
0.0
   0
LINE
   5
6A
 100
AcDbEntity
   8
0
 370
-2
 100
AcDbLine
   6
BYBLOCK
  62
0
  10
 0.50000000000000
  20
-0.50000000000000
  30
0.0
  11
 0.50000000000000
  21
 0.50000000000000
  31
0.0
   0
LINE
   5
6B
 100
AcDbEntity
   8
0
 370
-2
 100
AcDbLine
   6
BYBLOCK
  62
0
  10
 0.50000000000000
  20
 0.50000000000000
  30
0.0
  11
-0.50000000000000
  21
 0.50000000000000
  31
0.0
   0
LINE
   5
6C
 100
AcDbEntity
   8
0
 370
-2
 100
AcDbLine
   6
BYBLOCK
  62
0
  10
-0.50000000000000
  20
 0.50000000000000
  30
0.0
  11
-0.50000000000000
  21
-0.50000000000000
  31
0.0
   0
LINE
   5
6D
 100
AcDbEntity
   8
0
 370
-2
 100
AcDbLine
   6
BYBLOCK
  62
0
  10
-0.50000000000000
  20
0.0
  30
0.0
  11
-1.0000000000000
  21
0.0
  31
0.0
   0
ENDBLK
   5
6E
 100
AcDbEntity
   8
0
 100
AcDbBlockEnd
   0
BLOCK
   5
6F
 100
AcDbEntity
   8
0
 100
AcDbBlockBegin
   2
_BOXFILLED
  70
0
  10
0.0
  20
0.0
  30
0.0
   3
_BOXFILLED
   0
SOLID
   5
70
 100
AcDbEntity
   8
0
 100
AcDbTrace
   6
BYBLOCK
  62
0
  10
-0.50000000000000
  20
 0.50000000000000
  30
0.0
  11
 0.50000000000000
  21
 0.50000000000000
  31
0.0
  12
-0.50000000000000
  22
-0.50000000000000
  32
0.0
  13
 0.50000000000000
  23
-0.50000000000000
  33
0.0
   0
LINE
   5
71
 100
AcDbEntity
   8
0
 370
-2
 100
AcDbLine
   6
BYBLOCK
  62
0
  10
-0.50000000000000
  20
0.0
  30
0.0
  11
-1.0000000000000
  21
0.0
  31
0.0
   0
ENDBLK
   5
72
 100
AcDbEntity
   8
0
 100
AcDbBlockEnd
   0
BLOCK
   5
73
 100
AcDbEntity
   8
0
 100
AcDbBlockBegin
   2
_CLOSED
  70
0
  10
0.0
  20
0.0
  30
0.0
   3
_CLOSED
   0
LINE
   5
74
 100
AcDbEntity
   8
0
 370
-2
 100
AcDbLine
   6
BYBLOCK
  62
0
  10
-1.0000000000000
  20
 0.16666666666667
  30
0.0
  11
0.0
  21
0.0
  31
0.0
   0
LINE
   5
75
 100
AcDbEntity
   8
0
 370
-2
 100
AcDbLine
   6
BYBLOCK
  62
0
  10
0.0
  20
0.0
  30
0.0
  11
-1.0000000000000
  21
-0.16666666666667
  31
0.0
   0
LINE
   5
76
 100
AcDbEntity
   8
0
 370
-2
 100
AcDbLine
   6
BYBLOCK
  62
0
  10
-1.0000000000000
  20
 0.16666666666667
  30
0.0
  11
-1.0000000000000
  21
-0.16666666666667
  31
0.0
   0
LINE
   5
77
 100
AcDbEntity
   8
0
 370
-2
 100
AcDbLine
   6
BYBLOCK
  62
0
  10
0.0
  20
0.0
  30
0.0
  11
-1.0000000000000
  21
0.0
  31
0.0
   0
ENDBLK
   5
78
 100
AcDbEntity
   8
0
 100
AcDbBlockEnd
   0
BLOCK
   5
79
 100
AcDbEntity
   8
0
 100
AcDbBlockBegin
   2
_OPEN
  70
0
  10
0.0
  20
0.0
  30
0.0
   3
_OPEN
   0
LINE
   5
7A
 100
AcDbEntity
   8
0
 370
-2
 100
AcDbLine
   6
BYBLOCK
  62
0
  10
-1.0000000000000
  20
 0.16666666666667
  30
0.0
  11
0.0
  21
0.0
  31
0.0
   0
LINE
   5
7B
 100
AcDbEntity
   8
0
 370
-2
 100
AcDbLine
   6
BYBLOCK
  62
0
  10
0.0
  20
0.0
  30
0.0
  11
-1.0000000000000
  21
-0.16666666666667
  31
0.0
   0
LINE
   5
7C
 100
AcDbEntity
   8
0
 370
-2
 100
AcDbLine
   6
BYBLOCK
  62
0
  10
0.0
  20
0.0
  30
0.0
  11
-1.0000000000000
  21
0.0
  31
0.0
   0
ENDBLK
   5
7D
 100
AcDbEntity
   8
0
 100
AcDbBlockEnd
   0
BLOCK
   5
7E
 100
AcDbEntity
   8
0
 100
AcDbBlockBegin
   2
_OPEN30
  70
0
  10
0.0
  20
0.0
  30
0.0
   3
_OPEN30
   0
LINE
   5
7F
 100
AcDbEntity
   8
0
 370
-2
 100
AcDbLine
   6
BYBLOCK
  62
0
  10
-1.0000000000000
  20
 0.26794919243110
  30
0.0
  11
0.0
  21
0.0
  31
0.0
   0
LINE
   5
80
 100
AcDbEntity
   8
0
 370
-2
 100
AcDbLine
   6
BYBLOCK
  62
0
  10
0.0
  20
0.0
  30
0.0
  11
-1.0000000000000
  21
-0.26794919243110
  31
0.0
   0
LINE
   5
81
 100
AcDbEntity
   8
0
 370
-2
 100
AcDbLine
   6
BYBLOCK
  62
0
  10
0.0
  20
0.0
  30
0.0
  11
-1.0000000000000
  21
0.0
  31
0.0
   0
ENDBLK
   5
82
 100
AcDbEntity
   8
0
 100
AcDbBlockEnd
   0
BLOCK
   5
83
 100
AcDbEntity
   8
0
 100
AcDbBlockBegin
   2
_OPEN90
  70
0
  10
0.0
  20
0.0
  30
0.0
   3
_OPEN90
   0
LINE
   5
84
 100
AcDbEntity
   8
0
 370
-2
 100
AcDbLine
   6
BYBLOCK
  62
0
  10
-0.50000000000000
  20
 0.50000000000000
  30
0.0
  11
0.0
  21
0.0
  31
0.0
   0
LINE
   5
85
 100
AcDbEntity
   8
0
 370
-2
 100
AcDbLine
   6
BYBLOCK
  62
0
  10
0.0
  20
0.0
  30
0.0
  11
-0.50000000000000
  21
-0.50000000000000
  31
0.0
   0
LINE
   5
86
 100
AcDbEntity
   8
0
 370
-2
 100
AcDbLine
   6
BYBLOCK
  62
0
  10
0.0
  20
0.0
  30
0.0
  11
-1.0000000000000
  21
0.0
  31
0.0
   0
ENDBLK
   5
87
 100
AcDbEntity
   8
0
 100
AcDbBlockEnd
   0
BLOCK
   5
88
 100
AcDbEntity
   8
0
 100
AcDbBlockBegin
   2
_CLOSEDBLANK
  70
0
  10
0.0
  20
0.0
  30
0.0
   3
_CLOSEDBLANK
   0
LINE
   5
89
 100
AcDbEntity
   8
0
 370
-2
 100
AcDbLine
   6
BYBLOCK
  62
0
  10
-1.0000000000000
  20
 0.16666666666667
  30
0.0
  11
0.0
  21
0.0
  31
0.0
   0
LINE
   5
8A
 100
AcDbEntity
   8
0
 370
-2
 100
AcDbLine
   6
BYBLOCK
  62
0
  10
0.0
  20
0.0
  30
0.0
  11
-1.0000000000000
  21
-0.16666666666667
  31
0.0
   0
LINE
   5
8B
 100
AcDbEntity
   8
0
 370
-2
 100
AcDbLine
   6
BYBLOCK
  62
0
  10
-1.0000000000000
  20
 0.16666666666667
  30
0.0
  11
-1.0000000000000
  21
-0.16666666666667
  31
0.0
   0
ENDBLK
   5
8C
 100
AcDbEntity
   8
0
 100
AcDbBlockEnd
   0
BLOCK
   5
8D
 100
AcDbEntity
   8
0
 100
AcDbBlockBegin
   2
_DOT
  70
0
  10
0.0
  20
0.0
  30
0.0
   3
_DOT
   0
POLYLINE
   5
8E
 100
AcDbEntity
   8
0
 370
-2
   6
BYBLOCK
  62
0
 100
AcDb2dPolyline
  66
1
  10
0.0
  20
0.0
  30
0.0
  70
1
  40
 0.50000000000000
  41
 0.50000000000000
   0
VERTEX
   5
8F
 100
AcDbEntity
   8
0
   6
BYBLOCK
  62
0
 100
AcDbVertex
 100
AcDb2dVertex
  10
-0.25000000000000
  20
0.0
  30
0.0
  42
 1.0000000000000
  40
 0.50000000000000
  41
 0.50000000000000
   0
VERTEX
   5
90
 100
AcDbEntity
   8
0
   6
BYBLOCK
  62
0
 100
AcDbVertex
 100
AcDb2dVertex
  10
 0.25000000000000
  20
0.0
  30
0.0
  42
 1.0000000000000
  40
 0.50000000000000
  41
 0.50000000000000
   0
SEQEND
   5
91
 100
AcDbEntity
   8
0
   6
BYBLOCK
  62
0
   0
LINE
   5
92
 100
AcDbEntity
   8
0
 370
-2
 100
AcDbLine
   6
BYBLOCK
  62
0
  10
-0.50000000000000
  20
0.0
  30
0.0
  11
-1.0000000000000
  21
0.0
  31
0.0
   0
ENDBLK
   5
93
 100
AcDbEntity
   8
0
 100
AcDbBlockEnd
   0
BLOCK
   5
94
 100
AcDbEntity
   8
0
 100
AcDbBlockBegin
   2
_DOTSMALL
  70
0
  10
0.0
  20
0.0
  30
0.0
   3
_DOTSMALL
   0
POLYLINE
   5
95
 100
AcDbEntity
   8
0
 370
-2
   6
BYBLOCK
  62
0
 100
AcDb2dPolyline
  66
1
  10
0.0
  20
0.0
  30
0.0
  70
1
  40
 0.50000000000000
  41
 0.50000000000000
   0
VERTEX
   5
96
 100
AcDbEntity
   8
0
   6
BYBLOCK
  62
0
 100
AcDbVertex
 100
AcDb2dVertex
  10
-0.62500000000000E-1
  20
0.0
  30
0.0
  42
 1.0000000000000
  40
 0.50000000000000
  41
 0.50000000000000
   0
VERTEX
   5
97
 100
AcDbEntity
   8
0
   6
BYBLOCK
  62
0
 100
AcDbVertex
 100
AcDb2dVertex
  10
 0.62500000000000E-1
  20
0.0
  30
0.0
  42
 1.0000000000000
  40
 0.50000000000000
  41
 0.50000000000000
   0
SEQEND
   5
98
 100
AcDbEntity
   8
0
   6
BYBLOCK
  62
0
   0
ENDBLK
   5
99
 100
AcDbEntity
   8
0
 100
AcDbBlockEnd
   0
BLOCK
   5
9A
 100
AcDbEntity
   8
0
 100
AcDbBlockBegin
   2
_DATUMBLANK
  70
0
  10
0.0
  20
0.0
  30
0.0
   3
_DATUMBLANK
   0
LINE
   5
9B
 100
AcDbEntity
   8
0
 370
-2
 100
AcDbLine
   6
BYBLOCK
  62
0
  10
0.0
  20
 0.57735027000000
  30
0.0
  11
-1.0000000000000
  21
0.0
  31
0.0
   0
LINE
   5
9C
 100
AcDbEntity
   8
0
 370
-2
 100
AcDbLine
   6
BYBLOCK
  62
0
  10
-1.0000000000000
  20
0.0
  30
0.0
  11
0.0
  21
-0.57735027000000
  31
0.0
   0
LINE
   5
9D
 100
AcDbEntity
   8
0
 370
-2
 100
AcDbLine
   6
BYBLOCK
  62
0
  10
0.0
  20
-0.57735027000000
  30
0.0
  11
0.0
  21
 0.57735027000000
  31
0.0
   0
ENDBLK
   5
9E
 100
AcDbEntity
   8
0
 100
AcDbBlockEnd
   0
BLOCK
   5
9F
 100
AcDbEntity
   8
0
 100
AcDbBlockBegin
   2
_DATUMFILLED
  70
0
  10
0.0
  20
0.0
  30
0.0
   3
_DATUMFILLED
   0
SOLID
   5
A0
 100
AcDbEntity
   8
0
 100
AcDbTrace
   6
BYBLOCK
  62
0
  10
0.0
  20
 0.57735027000000
  30
0.0
  11
-1.0000000000000
  21
0.0
  31
0.0
  12
0.0
  22
-0.57735027000000
  32
0.0
  13
0.0
  23
-0.57735027000000
  33
0.0
   0
ENDBLK
   5
A1
 100
AcDbEntity
   8
0
 100
AcDbBlockEnd
   0
BLOCK
   5
A2
 100
AcDbEntity
   8
0
 100
AcDbBlockBegin
   2
_ORIGIN
  70
0
  10
0.0
  20
0.0
  30
0.0
   3
_ORIGIN
   0
CIRCLE
   5
A3
 100
AcDbEntity
   8
0
 370
-2
 100
AcDbCircle
   6
BYBLOCK
  62
0
  10
0.0
  20
0.0
  30
0.0
  40
 0.50000000000000
   0
LINE
   5
A4
 100
AcDbEntity
   8
0
 370
-2
 100
AcDbLine
   6
BYBLOCK
  62
0
  10
0.0
  20
0.0
  30
0.0
  11
-1.0000000000000
  21
0.0
  31
0.0
   0
ENDBLK
   5
A5
 100
AcDbEntity
   8
0
 100
AcDbBlockEnd
   0
BLOCK
   5
A6
 100
AcDbEntity
   8
0
 100
AcDbBlockBegin
   2
_NONE
  70
0
  10
0.0
  20
0.0
  30
0.0
   3
_NONE
   0
CIRCLE
   5
A7
 100
AcDbEntity
   8
0
 370
-2
 100
AcDbCircle
   6
BYBLOCK
  62
0
  10
0.0
  20
0.0
  30
0.0
  40
 0.25000000000000
   0
ENDBLK
   5
A8
 100
AcDbEntity
   8
0
 100
AcDbBlockEnd
   0
BLOCK
   5
A9
 100
AcDbEntity
   8
0
 100
AcDbBlockBegin
   2
_DOTBLANK
  70
0
  10
0.0
  20
0.0
  30
0.0
   3
_DOTBLANK
   0
CIRCLE
   5
AA
 100
AcDbEntity
   8
0
 370
-2
 100
AcDbCircle
   6
BYBLOCK
  62
0
  10
0.0
  20
0.0
  30
0.0
  40
 0.50000000000000
   0
LINE
   5
AB
 100
AcDbEntity
   8
0
 370
-2
 100
AcDbLine
   6
BYBLOCK
  62
0
  10
-0.50000000000000
  20
0.0
  30
0.0
  11
-1.0000000000000
  21
0.0
  31
0.0
   0
ENDBLK
   5
AC
 100
AcDbEntity
   8
0
 100
AcDbBlockEnd
   0
BLOCK
   5
AD
 100
AcDbEntity
   8
0
 100
AcDbBlockBegin
   2
_INTEGRAL
  70
0
  10
0.0
  20
0.0
  30
0.0
   3
_INTEGRAL
   0
ARC
   5
AE
 100
AcDbEntity
   8
0
 370
-2
   6
BYBLOCK
  62
0
 100
AcDbCircle
  10
 0.44488800000000
  20
-0.91335000000000E-1
  30
0.0
  40
 0.45416700000000
 100
AcDbArc
  50
 102.00000000000
  51
 168.00000000000
   0
ARC
   5
AF
 100
AcDbEntity
   8
0
 370
-2
   6
BYBLOCK
  62
0
 100
AcDbCircle
  10
-0.44488800000000
  20
 0.91335000000000E-1
  30
0.0
  40
 0.45416700000000
 100
AcDbArc
  50
 282.00000000000
  51
 348.00000000000
   0
ENDBLK
   5
B0
 100
AcDbEntity
   8
0
 100
AcDbBlockEnd
   0
BLOCK
   5
B1
 100
AcDbEntity
   8
0
 100
AcDbBlockBegin
   2
*D13
  70
65
  10
0.0
  20
0.0
  30
0.0
   3
*D13
   0
LINE
   5
B2
 100
AcDbEntity
   8
0
 370
13
 100
AcDbLine
   6
CONTINUOUS
  62
6
  10
 1411.4567415730
  20
 4405.1123595506
  30
0.0
  11
 699.60674157302
  21
 4405.1123595506
  31
0.0
   0
LINE
   5
B3
 100
AcDbEntity
   8
0
 370
13
 100
AcDbLine
   6
CONTINUOUS
  62
6
  10
 949.60674157303
  20
 1905.1123595506
  30
0.0
  11
 699.60674157302
  21
 1905.1123595506
  31
0.0
   0
LINE
   5
B4
 100
AcDbEntity
   8
0
 370
13
 100
AcDbLine
   6
CONTINUOUS
  62
6
  10
 729.60674157302
  20
 4405.1123595506
  30
0.0
  11
 729.60674157302
  21
 3155.1123595506
  31
0.0
   0
LINE
   5
B5
 100
AcDbEntity
   8
0
 370
13
 100
AcDbLine
   6
CONTINUOUS
  62
6
  10
 729.60674157302
  20
 1905.1123595506
  30
0.0
  11
 729.60674157302
  21
 3155.1123595506
  31
0.0
   0
INSERT
   5
B6
 100
AcDbEntity
   8
0
   6
CONTINUOUS
  62
6
 100
AcDbBlockReference
   2
_OPEN
  10
 729.60674157302
  20
 4405.1123595506
  30
0.0
  41
 42.000000000000
  42
 42.000000000000
  43
 42.000000000000
  50
 90.000000000000
   0
INSERT
   5
B7
 100
AcDbEntity
   8
0
   6
CONTINUOUS
  62
6
 100
AcDbBlockReference
   2
_OPEN
  10
 729.60674157302
  20
 1905.1123595506
  30
0.0
  41
 42.000000000000
  42
 42.000000000000
  43
 42.000000000000
  50
 270.00000000000
   0
MTEXT
   5
B8
 100
AcDbEntity
   8
0
 370
13
  62
1
 100
AcDbMText
  10
 703.89245585874
  20
 3155.1123595506
  30
0.0
  40
 60.000000000000
  41
0.0
  71
8
  72
1
   1
\A1;2500(標準設置高さ)
   7
GMM002
  11
0.0
  21
 1.0000000000000
  31
0.0
   0
ENDBLK
   5
B9
 100
AcDbEntity
   8
0
 100
AcDbBlockEnd
   0
BLOCK
   5
BA
 100
AcDbEntity
   8
0
 100
AcDbBlockBegin
   2
*D15
  70
65
  10
0.0
  20
0.0
  30
0.0
   3
*D15
   0
LINE
   5
BB
 100
AcDbEntity
   8
0
 370
13
 100
AcDbLine
   6
CONTINUOUS
  62
6
  10
 1199.6067415730
  20
 1105.1123595506
  30
0.0
  11
 699.60674157302
  21
 1105.1123595506
  31
0.0
   0
LINE
   5
BC
 100
AcDbEntity
   8
0
 370
13
 100
AcDbLine
   6
CONTINUOUS
  62
6
  10
 949.60674157302
  20
 1905.1123595506
  30
0.0
  11
 699.60674157302
  21
 1905.1123595506
  31
0.0
   0
LINE
   5
BD
 100
AcDbEntity
   8
0
 370
13
 100
AcDbLine
   6
CONTINUOUS
  62
6
  10
 729.60674157302
  20
 1105.1123595506
  30
0.0
  11
 729.60674157302
  21
 1505.1123595506
  31
0.0
   0
LINE
   5
BE
 100
AcDbEntity
   8
0
 370
13
 100
AcDbLine
   6
CONTINUOUS
  62
6
  10
 729.60674157302
  20
 1905.1123595506
  30
0.0
  11
 729.60674157302
  21
 1505.1123595506
  31
0.0
   0
INSERT
   5
BF
 100
AcDbEntity
   8
0
   6
CONTINUOUS
  62
6
 100
AcDbBlockReference
   2
_OPEN
  10
 729.60674157302
  20
 1105.1123595506
  30
0.0
  41
 42.000000000000
  42
 42.000000000000
  43
 42.000000000000
  50
 270.00000000000
   0
INSERT
   5
C0
 100
AcDbEntity
   8
0
   6
CONTINUOUS
  62
6
 100
AcDbBlockReference
   2
_OPEN
  10
 729.60674157302
  20
 1905.1123595506
  30
0.0
  41
 42.000000000000
  42
 42.000000000000
  43
 42.000000000000
  50
 90.000000000000
   0
MTEXT
   5
C1
 100
AcDbEntity
   8
0
 370
13
  62
1
 100
AcDbMText
  10
 703.89245585874
  20
 1505.1123595506
  30
0.0
  40
 60.000000000000
  41
0.0
  71
8
  72
1
   1
\A1;800
   7
GMM002
  11
0.0
  21
 1.0000000000000
  31
0.0
   0
ENDBLK
   5
C2
 100
AcDbEntity
   8
0
 100
AcDbBlockEnd
   0
BLOCK
   5
C3
 100
AcDbEntity
   8
0
 100
AcDbBlockBegin
   2
*D16
  70
65
  10
0.0
  20
0.0
  30
0.0
   3
*D16
   0
LINE
   5
C4
 100
AcDbEntity
   8
0
 370
13
 100
AcDbLine
   6
CONTINUOUS
  62
6
  10
 1199.6067415730
  20
 1005.1123595506
  30
0.0
  11
 699.60674157302
  21
 1005.1123595506
  31
0.0
   0
LINE
   5
C5
 100
AcDbEntity
   8
0
 370
13
 100
AcDbLine
   6
CONTINUOUS
  62
6
  10
 1199.6067415730
  20
 1105.1123595506
  30
0.0
  11
 699.60674157302
  21
 1105.1123595506
  31
0.0
   0
LINE
   5
C6
 100
AcDbEntity
   8
0
 370
13
 100
AcDbLine
   6
CONTINUOUS
  62
6
  10
 729.60674157302
  20
 1005.1123595506
  30
0.0
  11
 729.60674157302
  21
 1055.1123595506
  31
0.0
   0
LINE
   5
C7
 100
AcDbEntity
   8
0
 370
13
 100
AcDbLine
   6
CONTINUOUS
  62
6
  10
 729.60674157302
  20
 1105.1123595506
  30
0.0
  11
 729.60674157302
  21
 1055.1123595506
  31
0.0
   0
INSERT
   5
C8
 100
AcDbEntity
   8
0
   6
CONTINUOUS
  62
6
 100
AcDbBlockReference
   2
_OPEN
  10
 729.60674157302
  20
 1005.1123595506
  30
0.0
  41
 42.000000000000
  42
 42.000000000000
  43
 42.000000000000
  50
 270.00000000000
   0
INSERT
   5
C9
 100
AcDbEntity
   8
0
   6
CONTINUOUS
  62
6
 100
AcDbBlockReference
   2
_OPEN
  10
 729.60674157302
  20
 1105.1123595506
  30
0.0
  41
 42.000000000000
  42
 42.000000000000
  43
 42.000000000000
  50
 90.000000000000
   0
MTEXT
   5
CA
 100
AcDbEntity
   8
0
 370
13
  62
1
 100
AcDbMText
  10
 703.89245585874
  20
 1055.1123595506
  30
0.0
  40
 60.000000000000
  41
0.0
  71
8
  72
1
   1
\A1;100
   7
GMM002
  11
0.0
  21
 1.0000000000000
  31
0.0
   0
ENDBLK
   5
CB
 100
AcDbEntity
   8
0
 100
AcDbBlockEnd
   0
BLOCK
   5
CC
 100
AcDbEntity
   8
0
 100
AcDbBlockBegin
   2
*D17
  70
65
  10
0.0
  20
0.0
  30
0.0
   3
*D17
   0
LINE
   5
CD
 100
AcDbEntity
   8
0
 370
13
 100
AcDbLine
   6
CONTINUOUS
  62
6
  10
 1199.6067415730
  20
 1105.1123595506
  30
0.0
  11
 699.60674157302
  21
 1105.1123595506
  31
0.0
   0
LINE
   5
CE
 100
AcDbEntity
   8
0
 370
13
 100
AcDbLine
   6
CONTINUOUS
  62
6
  10
 949.60674157303
  20
 1905.1123595506
  30
0.0
  11
 699.60674157302
  21
 1905.1123595506
  31
0.0
   0
LINE
   5
CF
 100
AcDbEntity
   8
0
 370
13
 100
AcDbLine
   6
CONTINUOUS
  62
6
  10
 729.60674157302
  20
 1105.1123595506
  30
0.0
  11
 729.60674157302
  21
 1505.1123595506
  31
0.0
   0
LINE
   5
D0
 100
AcDbEntity
   8
0
 370
13
 100
AcDbLine
   6
CONTINUOUS
  62
6
  10
 729.60674157302
  20
 1905.1123595506
  30
0.0
  11
 729.60674157302
  21
 1505.1123595506
  31
0.0
   0
INSERT
   5
D1
 100
AcDbEntity
   8
0
   6
CONTINUOUS
  62
6
 100
AcDbBlockReference
   2
_OPEN
  10
 729.60674157302
  20
 1105.1123595506
  30
0.0
  41
 42.000000000000
  42
 42.000000000000
  43
 42.000000000000
  50
 270.00000000000
   0
INSERT
   5
D2
 100
AcDbEntity
   8
0
   6
CONTINUOUS
  62
6
 100
AcDbBlockReference
   2
_OPEN
  10
 729.60674157302
  20
 1905.1123595506
  30
0.0
  41
 42.000000000000
  42
 42.000000000000
  43
 42.000000000000
  50
 90.000000000000
   0
MTEXT
   5
D3
 100
AcDbEntity
   8
0
 370
13
  62
1
 100
AcDbMText
  10
 703.89245585874
  20
 1505.1123595506
  30
0.0
  40
 60.000000000000
  41
0.0
  71
8
  72
1
   1
\A1;800
   7
GMM002
  11
0.0
  21
 1.0000000000000
  31
0.0
   0
ENDBLK
   5
D4
 100
AcDbEntity
   8
0
 100
AcDbBlockEnd
   0
BLOCK
   5
D5
 100
AcDbEntity
   8
0
 100
AcDbBlockBegin
   2
*D18
  70
65
  10
0.0
  20
0.0
  30
0.0
   3
*D18
   0
LINE
   5
D6
 100
AcDbEntity
   8
0
 370
13
 100
AcDbLine
   6
CONTINUOUS
  62
6
  10
 1229.6067415730
  20
 975.11235955058
  30
0.0
  11
 1229.6067415730
  21
 775.11235955058
  31
0.0
   0
LINE
   5
D7
 100
AcDbEntity
   8
0
 370
13
 100
AcDbLine
   6
CONTINUOUS
  62
6
  10
 1729.6067415730
  20
 975.11235955058
  30
0.0
  11
 1729.6067415730
  21
 775.11235955058
  31
0.0
   0
LINE
   5
D8
 100
AcDbEntity
   8
0
 370
13
 100
AcDbLine
   6
CONTINUOUS
  62
6
  10
 1229.6067415730
  20
 805.11235955058
  30
0.0
  11
 1479.6067415730
  21
 805.11235955058
  31
0.0
   0
LINE
   5
D9
 100
AcDbEntity
   8
0
 370
13
 100
AcDbLine
   6
CONTINUOUS
  62
6
  10
 1729.6067415730
  20
 805.11235955058
  30
0.0
  11
 1479.6067415730
  21
 805.11235955058
  31
0.0
   0
INSERT
   5
DA
 100
AcDbEntity
   8
0
   6
CONTINUOUS
  62
6
 100
AcDbBlockReference
   2
_OPEN
  10
 1229.6067415730
  20
 805.11235955058
  30
0.0
  41
 42.000000000000
  42
 42.000000000000
  43
 42.000000000000
  50
 180.00000000000
   0
INSERT
   5
DB
 100
AcDbEntity
   8
0
   6
CONTINUOUS
  62
6
 100
AcDbBlockReference
   2
_OPEN
  10
 1729.6067415730
  20
 805.11235955058
  30
0.0
  41
 42.000000000000
  42
 42.000000000000
  43
 42.000000000000
  50
0.0
   0
MTEXT
   5
DC
 100
AcDbEntity
   8
0
 370
13
  62
1
 100
AcDbMText
  10
 1479.6067415730
  20
 830.82664526486
  30
0.0
  40
 60.000000000000
  41
0.0
  71
8
  72
1
   1
\A1;□500
   7
GMM002
   0
ENDBLK
   5
DD
 100
AcDbEntity
   8
0
 100
AcDbBlockEnd
   0
BLOCK
   5
DE
 100
AcDbEntity
   8
0
 100
AcDbBlockBegin
   2
*D19
  70
65
  10
0.0
  20
0.0
  30
0.0
   3
*D19
   0
LINE
   5
DF
 100
AcDbEntity
   8
0
 370
13
 100
AcDbLine
   6
CONTINUOUS
  62
6
  10
 2879.6067415730
  20
 975.11235955058
  30
0.0
  11
 2879.6067415730
  21
 775.11235955058
  31
0.0
   0
LINE
   5
E0
 100
AcDbEntity
   8
0
 370
13
 100
AcDbLine
   6
CONTINUOUS
  62
6
  10
 2379.6067415730
  20
 975.11235955058
  30
0.0
  11
 2379.6067415730
  21
 775.11235955058
  31
0.0
   0
LINE
   5
E1
 100
AcDbEntity
   8
0
 370
13
 100
AcDbLine
   6
CONTINUOUS
  62
6
  10
 2879.6067415730
  20
 805.11235955058
  30
0.0
  11
 2629.6067415730
  21
 805.11235955058
  31
0.0
   0
LINE
   5
E2
 100
AcDbEntity
   8
0
 370
13
 100
AcDbLine
   6
CONTINUOUS
  62
6
  10
 2379.6067415730
  20
 805.11235955058
  30
0.0
  11
 2629.6067415730
  21
 805.11235955058
  31
0.0
   0
INSERT
   5
E3
 100
AcDbEntity
   8
0
   6
CONTINUOUS
  62
6
 100
AcDbBlockReference
   2
_OPEN
  10
 2879.6067415730
  20
 805.11235955058
  30
0.0
  41
 42.000000000000
  42
 42.000000000000
  43
 42.000000000000
  50
0.0
   0
INSERT
   5
E4
 100
AcDbEntity
   8
0
   6
CONTINUOUS
  62
6
 100
AcDbBlockReference
   2
_OPEN
  10
 2379.6067415730
  20
 805.11235955058
  30
0.0
  41
 42.000000000000
  42
 42.000000000000
  43
 42.000000000000
  50
 180.00000000000
   0
MTEXT
   5
E5
 100
AcDbEntity
   8
0
 370
13
  62
1
 100
AcDbMText
  10
 2629.6067415730
  20
 830.82664526486
  30
0.0
  40
 60.000000000000
  41
0.0
  71
8
  72
1
   1
\A1;□500
   7
GMM002
   0
ENDBLK
   5
E6
 100
AcDbEntity
   8
0
 100
AcDbBlockEnd
   0
BLOCK
   5
E7
 100
AcDbEntity
   8
0
 100
AcDbBlockBegin
   2
*D20
  70
65
  10
0.0
  20
0.0
  30
0.0
   3
*D20
   0
LINE
   5
E8
 100
AcDbEntity
   8
LEVEL001
 370
13
 100
AcDbLine
   6
CONTINUOUS
  62
6
  10
 1743.7444897271
  20
 4890.1123595508
  30
0.0
  11
 1479.6067415730
  21
 4737.6123595506
  31
0.0
   0
LINE
   5
E9
 100
AcDbEntity
   8
LEVEL001
 370
13
 100
AcDbLine
   6
CONTINUOUS
  62
6
  10
 1479.6067415730
  20
 4737.6123595506
  30
0.0
  11
 1215.4689934189
  21
 4585.1123595503
  31
0.0
   0
INSERT
   5
EA
 100
AcDbEntity
   8
LEVEL001
   6
CONTINUOUS
  62
6
 100
AcDbBlockReference
   2
_OPEN
  10
 1743.7444897271
  20
 4890.1123595508
  30
0.0
  41
 42.000000000000
  42
 42.000000000000
  43
 42.000000000000
  50
 30.000000000055
   0
INSERT
   5
EB
 100
AcDbEntity
   8
LEVEL001
   6
CONTINUOUS
  62
6
 100
AcDbBlockReference
   2
_OPEN
  10
 1215.4689934189
  20
 4585.1123595503
  30
0.0
  41
 42.000000000000
  42
 42.000000000000
  43
 42.000000000000
  50
 210.00000000006
   0
MTEXT
   5
EC
 100
AcDbEntity
   8
LEVEL001
 370
13
  62
1
 100
AcDbMText
  10
 1472.6067415730
  20
 4749.7367152035
  30
0.0
  40
 60.000000000000
  41
0.0
  71
8
  72
1
   1
\A1;%%c600
   7
GMM002
  11
 0.86602540378395
  21
 0.50000000000084
  31
0.0
   0
ENDBLK
   5
ED
 100
AcDbEntity
   8
0
 100
AcDbBlockEnd
   0
BLOCK
   5
EE
 100
AcDbEntity
   8
0
 100
AcDbBlockBegin
   2
*D21
  70
65
  10
0.0
  20
0.0
  30
0.0
   3
*D21
   0
LINE
   5
EF
 100
AcDbEntity
   8
0
 370
13
 100
AcDbLine
   6
CONTINUOUS
  62
6
  10
 2979.6067415730
  20
 4375.1123595506
  30
0.0
  11
 2979.6067415730
  21
 2875.1123595506
  31
0.0
   0
LINE
   5
F0
 100
AcDbEntity
   8
0
 370
13
 100
AcDbLine
   6
CONTINUOUS
  62
6
  10
 2629.6067415730
  20
 2905.1123595506
  30
0.0
  11
 2804.6067415730
  21
 2905.1123595506
  31
0.0
   0
LINE
   5
F1
 100
AcDbEntity
   8
0
 370
13
 100
AcDbLine
   6
CONTINUOUS
  62
6
  10
 2979.6067415730
  20
 2905.1123595506
  30
0.0
  11
 2804.6067415730
  21
 2905.1123595506
  31
0.0
   0
INSERT
   5
F2
 100
AcDbEntity
   8
0
   6
CONTINUOUS
  62
6
 100
AcDbBlockReference
   2
_OPEN
  10
 2629.6067415730
  20
 2905.1123595506
  30
0.0
  41
 42.000000000000
  42
 42.000000000000
  43
 42.000000000000
  50
 180.00000000000
   0
INSERT
   5
F3
 100
AcDbEntity
   8
0
   6
CONTINUOUS
  62
6
 100
AcDbBlockReference
   2
_OPEN
  10
 2979.6067415730
  20
 2905.1123595506
  30
0.0
  41
 42.000000000000
  42
 42.000000000000
  43
 42.000000000000
  50
0.0
   0
MTEXT
   5
F4
 100
AcDbEntity
   8
0
 370
13
  62
1
 100
AcDbMText
  10
 2804.6067415730
  20
 2930.8266452648
  30
0.0
  40
 60.000000000000
  41
0.0
  71
8
  72
1
   1
\A1;350
   7
GMM002
   0
ENDBLK
   5
F5
 100
AcDbEntity
   8
0
 100
AcDbBlockEnd
   0
ENDSEC
   0
SECTION
   2
ENTITIES
   0
LINE
   5
F6
 100
AcDbEntity
   8
LEVEL001
 370
13
 100
AcDbLine
   6
CONTINUOUS
  62
7
  10
 8079.6067415730
  20
 5737.6123595506
  30
0.0
  11
 279.60674157303
  21
 5737.6123595506
  31
0.0
   0
LINE
   5
F7
 100
AcDbEntity
   8
LEVEL001
 370
13
 100
AcDbLine
   6
CONTINUOUS
  62
7
  10
 279.60674157303
  20
 5737.6123595506
  30
0.0
  11
 279.60674157303
  21
 237.61235955056
  31
0.0
   0
LINE
   5
F8
 100
AcDbEntity
   8
LEVEL001
 370
13
 100
AcDbLine
   6
CONTINUOUS
  62
7
  10
 279.60674157303
  20
 237.61235955056
  30
0.0
  11
 8079.6067415730
  21
 237.61235955056
  31
0.0
   0
LINE
   5
F9
 100
AcDbEntity
   8
LEVEL001
 370
13
 100
AcDbLine
   6
CONTINUOUS
  62
7
  10
 8079.6067415730
  20
 237.61235955056
  30
0.0
  11
 8079.6067415730
  21
 5737.6123595506
  31
0.0
   0
LINE
   5
FA
 100
AcDbEntity
   8
LEVEL001
 370
13
 100
AcDbLine
   6
CONTINUOUS
  62
6
  10
 5439.6067415730
  20
 2497.6123595506
  30
0.0
  11
 8079.6067415730
  21
 2497.6123595506
  31
0.0
   0
LINE
   5
FB
 100
AcDbEntity
   8
LEVEL001
 370
13
 100
AcDbLine
   6
CONTINUOUS
  62
6
  10
 5439.6067415730
  20
 1057.6123595506
  30
0.0
  11
 8079.6067415730
  21
 1057.6123595506
  31
0.0
   0
LINE
   5
FC
 100
AcDbEntity
   8
LEVEL001
 370
13
 100
AcDbLine
   6
CONTINUOUS
  62
6
  10
 5439.6067415730
  20
 1177.6123595506
  30
0.0
  11
 8079.6067415730
  21
 1177.6123595506
  31
0.0
   0
LINE
   5
FD
 100
AcDbEntity
   8
LEVEL001
 370
13
 100
AcDbLine
   6
CONTINUOUS
  62
6
  10
 5439.6067415730
  20
 1297.6123595506
  30
0.0
  11
 8079.6067415730
  21
 1297.6123595506
  31
0.0
   0
LINE
   5
FE
 100
AcDbEntity
   8
LEVEL001
 370
13
 100
AcDbLine
   6
CONTINUOUS
  62
6
  10
 5439.6067415730
  20
 1417.6123595506
  30
0.0
  11
 8079.6067415730
  21
 1417.6123595506
  31
0.0
   0
LINE
   5
FF
 100
AcDbEntity
   8
LEVEL001
 370
13
 100
AcDbLine
   6
CONTINUOUS
  62
6
  10
 5439.6067415730
  20
 1537.6123595506
  30
0.0
  11
 8079.6067415730
  21
 1537.6123595506
  31
0.0
   0
MTEXT
   5
100
 100
AcDbEntity
   8
LEVEL001
 370
13
  62
1
 100
AcDbMText
  10
 7319.6067415730
  20
 1957.6123595506
  30
0.0
  40
 51.428571428572
  41
0.0
  71
4
  72
1
   1
\T1.000000;溶融亜鉛メッキ
   7
GMM001
  44
 0.79999984000003
   0
MTEXT
   5
101
 100
AcDbEntity
   8
LEVEL001
 370
13
  62
1
 100
AcDbMText
  10
 7319.6067415730
  20
 2077.6123595506
  30
0.0
  40
 51.428571428572
  41
0.0
  71
4
  72
1
   1
\T1.000000;溶融亜鉛メッキ
   7
GMM001
  44
 0.79999984000003
   0
MTEXT
   5
102
 100
AcDbEntity
   8
LEVEL001
 370
13
  62
1
 100
AcDbMText
  10
 6759.6067415730
  20
 1957.6123595506
  30
0.0
  40
 51.428571428572
  41
0.0
  71
4
  72
1
   1
\T1.000000;ＳＳ４００
   7
GMM001
  44
 0.79999984000003
   0
MTEXT
   5
103
 100
AcDbEntity
   8
LEVEL001
 370
13
  62
1
 100
AcDbMText
  10
 6759.6067415730
  20
 2077.6123595506
  30
0.0
  40
 51.428571428572
  41
0.0
  71
4
  72
1
   1
\T1.000000;ＳＳ４００
   7
GMM001
  44
 0.79999984000003
   0
MTEXT
   5
104
 100
AcDbEntity
   8
LEVEL001
 370
13
  62
1
 100
AcDbMText
  10
 5611.6067415730
  20
 1837.6123595506
  30
0.0
  40
 51.428571428572
  41
0.0
  71
6
  72
1
   1
\T1.000000;９
   7
GMM001
  44
 0.79999984000003
   0
MTEXT
   5
105
 100
AcDbEntity
   8
LEVEL001
 370
13
  62
1
 100
AcDbMText
  10
 5611.6067415730
  20
 1957.6123595506
  30
0.0
  40
 51.428571428572
  41
0.0
  71
6
  72
1
   1
\T1.000000;８
   7
GMM001
  44
 0.79999984000003
   0
MTEXT
   5
106
 100
AcDbEntity
   8
LEVEL001
 370
13
  62
1
 100
AcDbMText
  10
 5679.6067415730
  20
 1957.6123595506
  30
0.0
  40
 51.428571428572
  41
0.0
  71
4
  72
1
   1
\T1.000000;金具締付ボルトナット
   7
GMM001
  44
 0.79999984000003
   0
MTEXT
   5
107
 100
AcDbEntity
   8
LEVEL001
 370
13
  62
1
 100
AcDbMText
  10
 5611.6067415730
  20
 2077.6123595506
  30
0.0
  40
 51.428571428572
  41
0.0
  71
6
  72
1
   1
\T1.000000;７
   7
GMM001
  44
 0.79999984000003
   0
MTEXT
   5
108
 100
AcDbEntity
   8
LEVEL001
 370
13
  62
1
 100
AcDbMText
  10
 5679.6067415730
  20
 2077.6123595506
  30
0.0
  40
 51.428571428572
  41
0.0
  71
4
  72
1
   1
\T1.000000;裏板金具取付ボルト
   7
GMM001
  44
 0.79999984000003
   0
LINE
   5
109
 100
AcDbEntity
   8
LEVEL001
 370
13
 100
AcDbLine
   6
CONTINUOUS
  62
6
  10
 5439.6067415730
  20
 1657.6123595506
  30
0.0
  11
 8079.6067415730
  21
 1657.6123595506
  31
0.0
   0
LINE
   5
10A
 100
AcDbEntity
   8
LEVEL001
 370
13
 100
AcDbLine
   6
CONTINUOUS
  62
6
  10
 5439.6067415730
  20
 1897.6123595506
  30
0.0
  11
 8079.6067415730
  21
 1897.6123595506
  31
0.0
   0
LINE
   5
10B
 100
AcDbEntity
   8
LEVEL001
 370
13
 100
AcDbLine
   6
CONTINUOUS
  62
6
  10
 5439.6067415730
  20
 2017.6123595506
  30
0.0
  11
 8079.6067415730
  21
 2017.6123595506
  31
0.0
   0
MTEXT
   5
10C
 100
AcDbEntity
   8
LEVEL001
 370
13
  62
1
 100
AcDbMText
  10
 5679.6067415730
  20
 2197.6123595506
  30
0.0
  40
 51.428571428572
  41
0.0
  71
4
  72
1
   1
\T1.000000;支柱取付金具
   7
GMM001
  44
 0.79999984000003
   0
MTEXT
   5
10D
 100
AcDbEntity
   8
LEVEL001
 370
13
  62
1
 100
AcDbMText
  10
 5611.6067415730
  20
 2197.6123595506
  30
0.0
  40
 51.428571428572
  41
0.0
  71
6
  72
1
   1
\T1.000000;６
   7
GMM001
  44
 0.79999984000003
   0
MTEXT
   5
10E
 100
AcDbEntity
   8
LEVEL001
 370
13
  62
1
 100
AcDbMText
  10
 6759.6067415730
  20
 2197.6123595506
  30
0.0
  40
 51.428571428572
  41
0.0
  71
4
  72
1
   1
\T1.000000;ＳＳ４００
   7
GMM001
  44
 0.79999984000003
   0
MTEXT
   5
10F
 100
AcDbEntity
   8
LEVEL001
 370
13
  62
1
 100
AcDbMText
  10
 5611.6067415730
  20
 2317.6123595506
  30
0.0
  40
 51.428571428572
  41
0.0
  71
6
  72
1
   1
\T1.000000;５
   7
GMM001
  44
 0.79999984000003
   0
MTEXT
   5
110
 100
AcDbEntity
   8
LEVEL001
 370
13
  62
1
 100
AcDbMText
  10
 5679.6067415730
  20
 2317.6123595506
  30
0.0
  40
 51.428571428572
  41
0.0
  71
4
  72
1
   1
\T1.000000;裏板取付金具
   7
GMM001
  44
 0.79999984000003
   0
MTEXT
   5
111
 100
AcDbEntity
   8
LEVEL001
 370
13
  62
1
 100
AcDbMText
  10
 5611.6067415730
  20
 2437.6123595506
  30
0.0
  40
 51.428571428572
  41
0.0
  71
6
  72
1
   1
\T1.000000;４
   7
GMM001
  44
 0.79999984000003
   0
MTEXT
   5
112
 100
AcDbEntity
   8
LEVEL001
 370
13
  62
1
 100
AcDbMText
  10
 5679.6067415730
  20
 2437.6123595506
  30
0.0
  40
 51.428571428572
  41
0.0
  71
4
  72
1
   1
\T1.000000;リング
   7
GMM001
  44
 0.79999984000003
   0
MTEXT
   5
113
 100
AcDbEntity
   8
LEVEL001
 370
13
  62
1
 100
AcDbMText
  10
 5611.6067415730
  20
 2557.6123595506
  30
0.0
  40
 51.428571428572
  41
0.0
  71
6
  72
1
   1
\T1.000000;３
   7
GMM001
  44
 0.79999984000003
   0
MTEXT
   5
114
 100
AcDbEntity
   8
LEVEL001
 370
13
  62
1
 100
AcDbMText
  10
 5679.6067415730
  20
 2557.6123595506
  30
0.0
  40
 51.428571428572
  41
0.0
  71
4
  72
1
   1
\T1.000000;フード
   7
GMM001
  44
 0.79999984000003
   0
MTEXT
   5
115
 100
AcDbEntity
   8
LEVEL001
 370
13
  62
1
 100
AcDbMText
  10
 5611.6067415730
  20
 2677.6123595506
  30
0.0
  40
 51.428571428572
  41
0.0
  71
6
  72
1
   1
\T1.000000;２
   7
GMM001
  44
 0.79999984000003
   0
MTEXT
   5
116
 100
AcDbEntity
   8
LEVEL001
 370
13
  62
1
 100
AcDbMText
  10
 5611.6067415730
  20
 2797.6123595506
  30
0.0
  40
 51.428571428572
  41
0.0
  71
6
  72
1
   1
\T1.000000;１
   7
GMM001
  44
 0.79999984000003
   0
MTEXT
   5
117
 100
AcDbEntity
   8
LEVEL001
 370
13
  62
1
 100
AcDbMText
  10
 5679.6067415730
  20
 2677.6123595506
  30
0.0
  40
 51.428571428572
  41
0.0
  71
4
  72
1
   1
\T1.000000;バックプレート
   7
GMM001
  44
 0.79999984000003
   0
MTEXT
   5
118
 100
AcDbEntity
   8
LEVEL001
 370
13
  62
1
 100
AcDbMText
  10
 5679.6067415730
  20
 2797.6123595506
  30
0.0
  40
 51.428571428572
  41
0.0
  71
4
  72
1
   1
\T1.000000;鏡面　Ｒ＝２２００
   7
GMM001
  44
 0.79999984000003
   0
MTEXT
   5
119
 100
AcDbEntity
   8
LEVEL001
 370
13
  62
1
 100
AcDbMText
  10
 6759.6067415730
  20
 2317.6123595506
  30
0.0
  40
 51.428571428572
  41
0.0
  71
4
  72
1
   1
\T1.000000;ＳＳ４００
   7
GMM001
  44
 0.79999984000003
   0
MTEXT
   5
11A
 100
AcDbEntity
   8
LEVEL001
 370
13
  62
1
 100
AcDbMText
  10
 6759.6067415730
  20
 2437.6123595506
  30
0.0
  40
 51.428571428572
  41
0.0
  71
4
  72
1
   1
\T1.000000;軟質ＰＶＣ
   7
GMM001
  44
 0.79999984000003
   0
MTEXT
   5
11B
 100
AcDbEntity
   8
LEVEL001
 370
13
  62
1
 100
AcDbMText
  10
 6759.6067415730
  20
 2557.6123595506
  30
0.0
  40
 51.428571428572
  41
0.0
  71
4
  72
1
   1
\T1.000000;ＰＣ
   7
GMM001
  44
 0.79999984000003
   0
MTEXT
   5
11C
 100
AcDbEntity
   8
LEVEL001
 370
13
  62
1
 100
AcDbMText
  10
 6759.6067415730
  20
 2797.6123595506
  30
0.0
  40
 51.428571428572
  41
0.0
  71
4
  72
1
   1
\T1.000000;ＳＵＳ３０４
   7
GMM001
  44
 0.79999984000003
   0
MTEXT
   5
11D
 100
AcDbEntity
   8
LEVEL001
 370
13
  62
1
 100
AcDbMText
  10
 7319.6067415730
  20
 2197.6123595506
  30
0.0
  40
 51.428571428572
  41
0.0
  71
4
  72
1
   1
\T1.000000;溶融亜鉛メッキ
   7
GMM001
  44
 0.79999984000003
   0
MTEXT
   5
11E
 100
AcDbEntity
   8
LEVEL001
 370
13
  62
1
 100
AcDbMText
  10
 7319.6067415730
  20
 2317.6123595506
  30
0.0
  40
 51.428571428572
  41
0.0
  71
4
  72
1
   1
\T1.000000;溶融亜鉛メッキ
   7
GMM001
  44
 0.79999984000003
   0
MTEXT
   5
11F
 100
AcDbEntity
   8
LEVEL001
 370
13
  62
1
 100
AcDbMText
  10
 7319.6067415730
  20
 2797.6123595506
  30
0.0
  40
 51.428571428572
  41
0.0
  71
4
  72
1
   1
\T1.000000;t=0.9mm\T1.000000;・表面研磨
   7
GMM001
  44
 0.79999984000003
   0
MTEXT
   5
120
 100
AcDbEntity
   8
LEVEL001
 370
13
  62
1
 100
AcDbMText
  10
 7319.6067415730
  20
 2557.6123595506
  30
0.0
  40
 51.428571428572
  41
0.0
  71
4
  72
1
   1
\T1.000000;ＵＶグレ－ド
   7
GMM001
  44
 0.79999984000003
   0
LINE
   5
121
 100
AcDbEntity
   8
LEVEL001
 370
13
 100
AcDbLine
   6
CONTINUOUS
  62
6
  10
 5439.6067415730
  20
 2137.6123595506
  30
0.0
  11
 8079.6067415730
  21
 2137.6123595506
  31
0.0
   0
LINE
   5
122
 100
AcDbEntity
   8
LEVEL001
 370
13
 100
AcDbLine
   6
CONTINUOUS
  62
6
  10
 5439.6067415730
  20
 2257.6123595506
  30
0.0
  11
 8079.6067415730
  21
 2257.6123595506
  31
0.0
   0
LINE
   5
123
 100
AcDbEntity
   8
LEVEL001
 370
13
 100
AcDbLine
   6
CONTINUOUS
  62
6
  10
 5439.6067415730
  20
 2617.6123595506
  30
0.0
  11
 8079.6067415730
  21
 2617.6123595506
  31
0.0
   0
LINE
   5
124
 100
AcDbEntity
   8
LEVEL001
 370
13
 100
AcDbLine
   6
CONTINUOUS
  62
6
  10
 5439.6067415730
  20
 2377.6123595506
  30
0.0
  11
 8079.6067415730
  21
 2377.6123595506
  31
0.0
   0
LINE
   5
125
 100
AcDbEntity
   8
LEVEL001
 370
13
 100
AcDbLine
   6
CONTINUOUS
  62
6
  10
 5439.6067415730
  20
 2737.6123595506
  30
0.0
  11
 8079.6067415730
  21
 2737.6123595506
  31
0.0
   0
MTEXT
   5
126
 100
AcDbEntity
   8
LEVEL001
 370
13
  62
1
 100
AcDbMText
  10
 6079.6067415730
  20
 2937.6123595506
  30
0.0
  40
 51.428571428572
  41
0.0
  71
5
  72
1
   1
\T1.000000;名　　称
   7
GMM001
  44
 0.79999984000003
   0
MTEXT
   5
127
 100
AcDbEntity
   8
LEVEL001
 370
13
  62
1
 100
AcDbMText
  10
 6619.6067415730
  20
 2937.6123595506
  30
0.0
  40
 51.428571428572
  41
0.0
  71
5
  72
1
   1
\T1.000000;個数
   7
GMM001
  44
 0.79999984000003
   0
MTEXT
   5
128
 100
AcDbEntity
   8
LEVEL001
 370
13
  62
1
 100
AcDbMText
  10
 6999.6067415730
  20
 2937.6123595506
  30
0.0
  40
 51.428571428572
  41
0.0
  71
5
  72
1
   1
\T1.000000;材　　質
   7
GMM001
  44
 0.79999984000003
   0
MTEXT
   5
129
 100
AcDbEntity
   8
LEVEL001
 370
13
  62
1
 100
AcDbMText
  10
 7679.6067415730
  20
 2937.6123595506
  30
0.0
  40
 51.428571428572
  41
0.0
  71
5
  72
1
   1
\T1.000000;規格仕様
   7
GMM001
  44
 0.79999984000003
   0
LINE
   5
12A
 100
AcDbEntity
   8
LEVEL001
 370
13
 100
AcDbLine
   6
CONTINUOUS
  62
6
  10
 5639.6067415730
  20
 3017.6123595506
  30
0.0
  11
 5639.6067415730
  21
 937.61235955056
  31
0.0
   0
LINE
   5
12B
 100
AcDbEntity
   8
LEVEL001
 370
13
 100
AcDbLine
   6
CONTINUOUS
  62
6
  10
 6519.6067415730
  20
 3017.6123595506
  30
0.0
  11
 6519.6067415730
  21
 937.61235955056
  31
0.0
   0
LINE
   5
12C
 100
AcDbEntity
   8
LEVEL001
 370
13
 100
AcDbLine
   6
CONTINUOUS
  62
6
  10
 6719.6067415730
  20
 3017.6123595506
  30
0.0
  11
 6719.6067415730
  21
 937.61235955056
  31
0.0
   0
LINE
   5
12D
 100
AcDbEntity
   8
LEVEL001
 370
13
 100
AcDbLine
   6
CONTINUOUS
  62
6
  10
 7279.6067415730
  20
 3017.6123595506
  30
0.0
  11
 7279.6067415730
  21
 937.61235955056
  31
0.0
   0
LINE
   5
12E
 100
AcDbEntity
   8
LEVEL001
 370
13
 100
AcDbLine
   6
CONTINUOUS
  62
2
  10
 5439.6067415730
  20
 3017.6123595506
  30
0.0
  11
 8079.6067415730
  21
 3017.6123595506
  31
0.0
   0
LINE
   5
12F
 100
AcDbEntity
   8
LEVEL001
 370
13
 100
AcDbLine
   6
CONTINUOUS
  62
2
  10
 5439.6067415730
  20
 2857.6123595506
  30
0.0
  11
 8079.6067415730
  21
 2857.6123595506
  31
0.0
   0
CIRCLE
   5
130
 100
AcDbEntity
   8
LEVEL001
 370
13
 100
AcDbCircle
   6
CONTINUOUS
  62
7
  10
 4482.4946930526
  20
 4737.6123595506
  30
0.0
  40
 332.50000000000
   0
CIRCLE
   5
131
 100
AcDbEntity
   8
LEVEL001
 370
13
 100
AcDbCircle
   6
CONTINUOUS
  62
7
  10
 4341.0733368154
  20
 4879.0337157880
  30
0.0
  40
 35.000000000000
   0
CIRCLE
   5
132
 100
AcDbEntity
   8
LEVEL001
 370
13
 100
AcDbCircle
   6
CONTINUOUS
  62
6
  10
 4341.0733368154
  20
 4879.0337157880
  30
0.0
  40
 50.000000000000
   0
CIRCLE
   5
133
 100
AcDbEntity
   8
LEVEL001
 370
13
 100
AcDbCircle
   6
CONTINUOUS
  62
7
  10
 4623.9160492898
  20
 4879.0337157880
  30
0.0
  40
 35.000000000000
   0
CIRCLE
   5
134
 100
AcDbEntity
   8
LEVEL001
 370
13
 100
AcDbCircle
   6
CONTINUOUS
  62
6
  10
 4623.9160492898
  20
 4879.0337157880
  30
0.0
  40
 50.000000000000
   0
CIRCLE
   5
135
 100
AcDbEntity
   8
LEVEL001
 370
13
 100
AcDbCircle
   6
CONTINUOUS
  62
7
  10
 4623.9160492900
  20
 4596.1910033134
  30
0.0
  40
 35.000000000000
   0
CIRCLE
   5
136
 100
AcDbEntity
   8
LEVEL001
 370
13
 100
AcDbCircle
   6
CONTINUOUS
  62
6
  10
 4623.9160492900
  20
 4596.1910033134
  30
0.0
  40
 50.000000000000
   0
CIRCLE
   5
137
 100
AcDbEntity
   8
LEVEL001
 370
13
 100
AcDbCircle
   6
CONTINUOUS
  62
7
  10
 4341.0733368152
  20
 4596.1910033134
  30
0.0
  40
 35.000000000000
   0
CIRCLE
   5
138
 100
AcDbEntity
   8
LEVEL001
 370
13
 100
AcDbCircle
   6
CONTINUOUS
  62
6
  10
 4341.0733368152
  20
 4596.1910033134
  30
0.0
  40
 50.000000000000
   0
ARC
   5
139
 100
AcDbEntity
   8
LEVEL001
 370
13
   6
CONTINUOUS
  62
7
 100
AcDbCircle
  10
 4732.4946930526
  20
 4737.6123595506
  30
0.0
  40
 15.000000000000
 100
AcDbArc
  50
0.0
  51
 90.000000000000
   0
ARC
   5
13A
 100
AcDbEntity
   8
LEVEL001
 370
13
   6
CONTINUOUS
  62
7
 100
AcDbCircle
  10
 4732.4946930526
  20
 4737.6123595506
  30
0.0
  40
 15.000000000000
 100
AcDbArc
  50
 270.00000000000
  51
0.0
   0
ARC
   5
13B
 100
AcDbEntity
   8
LEVEL001
 370
13
   6
CONTINUOUS
  62
7
 100
AcDbCircle
  10
 4232.4946930526
  20
 4737.6123595508
  30
0.0
  40
 15.000000000000
 100
AcDbArc
  50
 180.00000000000
  51
 270.00000000000
   0
ARC
   5
13C
 100
AcDbEntity
   8
LEVEL001
 370
13
   6
CONTINUOUS
  62
7
 100
AcDbCircle
  10
 4232.4946930526
  20
 4737.6123595508
  30
0.0
  40
 15.000000000000
 100
AcDbArc
  50
 90.000000000000
  51
 180.00000000000
   0
ARC
   5
13D
 100
AcDbEntity
   8
LEVEL001
 370
13
   6
CONTINUOUS
  62
6
 100
AcDbCircle
  10
 4732.4946930526
  20
 4737.6123595506
  30
0.0
  40
 30.000000000000
 100
AcDbArc
  50
0.0
  51
 90.000000000000
   0
ARC
   5
13E
 100
AcDbEntity
   8
LEVEL001
 370
13
   6
CONTINUOUS
  62
6
 100
AcDbCircle
  10
 4732.4946930526
  20
 4737.6123595506
  30
0.0
  40
 30.000000000000
 100
AcDbArc
  50
 270.00000000000
  51
0.0
   0
ARC
   5
13F
 100
AcDbEntity
   8
LEVEL001
 370
13
   6
CONTINUOUS
  62
6
 100
AcDbCircle
  10
 4232.4946930526
  20
 4737.6123595508
  30
0.0
  40
 30.000000000000
 100
AcDbArc
  50
 180.00000000000
  51
 270.00000000000
   0
ARC
   5
140
 100
AcDbEntity
   8
LEVEL001
 370
13
   6
CONTINUOUS
  62
6
 100
AcDbCircle
  10
 4232.4946930526
  20
 4737.6123595508
  30
0.0
  40
 30.000000000000
 100
AcDbArc
  50
 90.000000000000
  51
 180.00000000000
   0
ARC
   5
141
 100
AcDbEntity
   8
LEVEL001
 370
13
   6
CONTINUOUS
  62
7
 100
AcDbCircle
  10
 4479.6067415732
  20
 4987.6123595506
  30
0.0
  40
 15.000000000000
 100
AcDbArc
  50
 90.000000000000
  51
 180.00000000000
   0
ARC
   5
142
 100
AcDbEntity
   8
LEVEL001
 370
13
   6
CONTINUOUS
  62
6
 100
AcDbCircle
  10
 4479.6067415732
  20
 4987.6123595506
  30
0.0
  40
 30.000000000000
 100
AcDbArc
  50
 90.000000000000
  51
 180.00000000000
   0
ARC
   5
143
 100
AcDbEntity
   8
LEVEL001
 370
13
   6
CONTINUOUS
  62
7
 100
AcDbCircle
  10
 4479.6067415732
  20
 4987.6123595506
  30
0.0
  40
 15.000000000000
 100
AcDbArc
  50
0.0
  51
 90.000000000000
   0
ARC
   5
144
 100
AcDbEntity
   8
LEVEL001
 370
13
   6
CONTINUOUS
  62
6
 100
AcDbCircle
  10
 4479.6067415732
  20
 4987.6123595506
  30
0.0
  40
 30.000000000000
 100
AcDbArc
  50
0.0
  51
 90.000000000000
   0
ARC
   5
145
 100
AcDbEntity
   8
LEVEL001
 370
13
   6
CONTINUOUS
  62
7
 100
AcDbCircle
  10
 4479.6067415730
  20
 4487.6123595508
  30
0.0
  40
 15.000000000000
 100
AcDbArc
  50
 180.00000000000
  51
 270.00000000000
   0
ARC
   5
146
 100
AcDbEntity
   8
LEVEL001
 370
13
   6
CONTINUOUS
  62
6
 100
AcDbCircle
  10
 4479.6067415730
  20
 4487.6123595508
  30
0.0
  40
 30.000000000000
 100
AcDbArc
  50
 180.00000000000
  51
 270.00000000000
   0
ARC
   5
147
 100
AcDbEntity
   8
LEVEL001
 370
13
   6
CONTINUOUS
  62
7
 100
AcDbCircle
  10
 4479.6067415730
  20
 4487.6123595508
  30
0.0
  40
 15.000000000000
 100
AcDbArc
  50
 270.00000000000
  51
0.0
   0
ARC
   5
148
 100
AcDbEntity
   8
LEVEL001
 370
13
   6
CONTINUOUS
  62
6
 100
AcDbCircle
  10
 4479.6067415730
  20
 4487.6123595508
  30
0.0
  40
 30.000000000000
 100
AcDbArc
  50
 270.00000000000
  51
0.0
   0
LINE
   5
149
 100
AcDbEntity
   8
LEVEL001
 370
13
 100
AcDbLine
   6
CONTINUOUS
  62
6
  10
 4232.4946930526
  20
 4767.6123595508
  30
0.0
  11
 4354.2073795332
  21
 4767.6123595508
  31
0.0
   0
ARC
   5
14A
 100
AcDbEntity
   8
LEVEL001
 370
13
   6
CONTINUOUS
  62
6
 100
AcDbCircle
  10
 4354.2073795332
  20
 4787.6123595508
  30
0.0
  40
 20.000000000000
 100
AcDbArc
  50
 270.00000000000
  51
 338.26153920835
   0
LINE
   5
14B
 100
AcDbEntity
   8
LEVEL001
 370
13
 100
AcDbLine
   6
CONTINUOUS
  62
6
  10
 4449.6067415732
  20
 4863.0117215906
  30
0.0
  11
 4449.6067415732
  21
 4987.6123595506
  31
0.0
   0
ARC
   5
14C
 100
AcDbEntity
   8
LEVEL001
 370
13
   6
CONTINUOUS
  62
6
 100
AcDbCircle
  10
 4429.6067415732
  20
 4863.0117215906
  30
0.0
  40
 20.000000000000
 100
AcDbArc
  50
 291.73846079136
  51
0.0
   0
ARC
   5
14D
 100
AcDbEntity
   8
LEVEL001
 370
13
   6
CONTINUOUS
  62
6
 100
AcDbCircle
  10
 4479.6067415730
  20
 4737.6123595506
  30
0.0
  40
 115.00000000000
 100
AcDbArc
  50
 111.73846079139
  51
 158.26153920835
   0
LINE
   5
14E
 100
AcDbEntity
   8
LEVEL001
 370
13
 100
AcDbLine
   6
CONTINUOUS
  62
6
  10
 4509.6067415732
  20
 4987.6123595506
  30
0.0
  11
 4509.6067415732
  21
 4863.0117215904
  31
0.0
   0
ARC
   5
14F
 100
AcDbEntity
   8
LEVEL001
 370
13
   6
CONTINUOUS
  62
6
 100
AcDbCircle
  10
 4529.6067415732
  20
 4863.0117215904
  30
0.0
  40
 20.000000000000
 100
AcDbArc
  50
 180.00000000000
  51
 248.26153920838
   0
LINE
   5
150
 100
AcDbEntity
   8
LEVEL001
 370
13
 100
AcDbLine
   6
CONTINUOUS
  62
6
  10
 4605.0061036128
  20
 4767.6123595506
  30
0.0
  11
 4732.4946930526
  21
 4767.6123595506
  31
0.0
   0
ARC
   5
151
 100
AcDbEntity
   8
LEVEL001
 370
13
   6
CONTINUOUS
  62
6
 100
AcDbCircle
  10
 4605.0061036128
  20
 4787.6123595506
  30
0.0
  40
 20.000000000000
 100
AcDbArc
  50
 201.73846079155
  51
 270.00000000000
   0
ARC
   5
152
 100
AcDbEntity
   8
LEVEL001
 370
13
   6
CONTINUOUS
  62
6
 100
AcDbCircle
  10
 4479.6067415730
  20
 4737.6123595506
  30
0.0
  40
 115.00000000000
 100
AcDbArc
  50
 21.738460791516
  51
 68.261539208356
   0
LINE
   5
153
 100
AcDbEntity
   8
LEVEL001
 370
13
 100
AcDbLine
   6
CONTINUOUS
  62
6
  10
 4732.4946930526
  20
 4707.6123595506
  30
0.0
  11
 4605.0061036128
  21
 4707.6123595506
  31
0.0
   0
ARC
   5
154
 100
AcDbEntity
   8
LEVEL001
 370
13
   6
CONTINUOUS
  62
6
 100
AcDbCircle
  10
 4605.0061036128
  20
 4687.6123595506
  30
0.0
  40
 20.000000000000
 100
AcDbArc
  50
 90.000000000000
  51
 158.26153920845
   0
LINE
   5
155
 100
AcDbEntity
   8
LEVEL001
 370
13
 100
AcDbLine
   6
CONTINUOUS
  62
6
  10
 4509.6067415730
  20
 4612.2129975108
  30
0.0
  11
 4509.6067415730
  21
 4487.6123595508
  31
0.0
   0
ARC
   5
156
 100
AcDbEntity
   8
LEVEL001
 370
13
   6
CONTINUOUS
  62
6
 100
AcDbCircle
  10
 4529.6067415730
  20
 4612.2129975108
  30
0.0
  40
 20.000000000000
 100
AcDbArc
  50
 111.73846079151
  51
 180.00000000000
   0
ARC
   5
157
 100
AcDbEntity
   8
LEVEL001
 370
13
   6
CONTINUOUS
  62
6
 100
AcDbCircle
  10
 4479.6067415730
  20
 4737.6123595506
  30
0.0
  40
 115.00000000000
 100
AcDbArc
  50
 291.73846079152
  51
 338.26153920848
   0
LINE
   5
158
 100
AcDbEntity
   8
LEVEL001
 370
13
 100
AcDbLine
   6
CONTINUOUS
  62
6
  10
 4449.6067415730
  20
 4487.6123595508
  30
0.0
  11
 4449.6067415730
  21
 4612.2129975108
  31
0.0
   0
ARC
   5
159
 100
AcDbEntity
   8
LEVEL001
 370
13
   6
CONTINUOUS
  62
6
 100
AcDbCircle
  10
 4429.6067415730
  20
 4612.2129975108
  30
0.0
  40
 20.000000000000
 100
AcDbArc
  50
0.0
  51
 68.261539208490
   0
LINE
   5
15A
 100
AcDbEntity
   8
LEVEL001
 370
13
 100
AcDbLine
   6
CONTINUOUS
  62
6
  10
 4354.2073795330
  20
 4707.6123595508
  30
0.0
  11
 4232.4946930526
  21
 4707.6123595508
  31
0.0
   0
ARC
   5
15B
 100
AcDbEntity
   8
LEVEL001
 370
13
   6
CONTINUOUS
  62
6
 100
AcDbCircle
  10
 4354.2073795330
  20
 4687.6123595508
  30
0.0
  40
 20.000000000000
 100
AcDbArc
  50
 21.738460791413
  51
 90.000000000000
   0
ARC
   5
15C
 100
AcDbEntity
   8
LEVEL001
 370
13
   6
CONTINUOUS
  62
6
 100
AcDbCircle
  10
 4479.6067415730
  20
 4737.6123595506
  30
0.0
  40
 115.00000000000
 100
AcDbArc
  50
 201.73846079139
  51
 248.26153920848
   0
LINE
   5
15D
 100
AcDbEntity
   8
LEVEL001
 370
13
 100
AcDbLine
   6
CONTINUOUS
  62
7
  10
 4232.4946930526
  20
 4752.6123595508
  30
0.0
  11
 4354.2073795332
  21
 4752.6123595508
  31
0.0
   0
ARC
   5
15E
 100
AcDbEntity
   8
LEVEL001
 370
13
   6
CONTINUOUS
  62
7
 100
AcDbCircle
  10
 4354.2073795332
  20
 4787.6123595508
  30
0.0
  40
 35.000000000000
 100
AcDbArc
  50
 270.00000000000
  51
 338.26153920835
   0
LINE
   5
15F
 100
AcDbEntity
   8
LEVEL001
 370
13
 100
AcDbLine
   6
CONTINUOUS
  62
7
  10
 4354.2073795330
  20
 4722.6123595508
  30
0.0
  11
 4232.4946930526
  21
 4722.6123595508
  31
0.0
   0
ARC
   5
160
 100
AcDbEntity
   8
LEVEL001
 370
13
   6
CONTINUOUS
  62
7
 100
AcDbCircle
  10
 4354.2073795330
  20
 4687.6123595508
  30
0.0
  40
 35.000000000000
 100
AcDbArc
  50
 21.738460791374
  51
 90.000000000000
   0
LINE
   5
161
 100
AcDbEntity
   8
LEVEL001
 370
13
 100
AcDbLine
   6
CONTINUOUS
  62
7
  10
 4464.6067415730
  20
 4487.6123595508
  30
0.0
  11
 4464.6067415730
  21
 4612.2129975108
  31
0.0
   0
ARC
   5
162
 100
AcDbEntity
   8
LEVEL001
 370
13
   6
CONTINUOUS
  62
7
 100
AcDbCircle
  10
 4429.6067415730
  20
 4612.2129975108
  30
0.0
  40
 35.000000000000
 100
AcDbArc
  50
0.0
  51
 68.261539208488
   0
ARC
   5
163
 100
AcDbEntity
   8
LEVEL001
 370
13
   6
CONTINUOUS
  62
7
 100
AcDbCircle
  10
 4479.6067415730
  20
 4737.6123595506
  30
0.0
  40
 100.00000000000
 100
AcDbArc
  50
 201.73846079139
  51
 248.26153920848
   0
LINE
   5
164
 100
AcDbEntity
   8
LEVEL001
 370
13
 100
AcDbLine
   6
CONTINUOUS
  62
7
  10
 4494.6067415730
  20
 4612.2129975108
  30
0.0
  11
 4494.6067415730
  21
 4487.6123595508
  31
0.0
   0
ARC
   5
165
 100
AcDbEntity
   8
LEVEL001
 370
13
   6
CONTINUOUS
  62
7
 100
AcDbCircle
  10
 4529.6067415730
  20
 4612.2129975108
  30
0.0
  40
 35.000000000000
 100
AcDbArc
  50
 111.73846079151
  51
 180.00000000000
   0
LINE
   5
166
 100
AcDbEntity
   8
LEVEL001
 370
13
 100
AcDbLine
   6
CONTINUOUS
  62
7
  10
 4732.4946930526
  20
 4722.6123595506
  30
0.0
  11
 4605.0061036128
  21
 4722.6123595506
  31
0.0
   0
ARC
   5
167
 100
AcDbEntity
   8
LEVEL001
 370
13
   6
CONTINUOUS
  62
7
 100
AcDbCircle
  10
 4605.0061036128
  20
 4687.6123595506
  30
0.0
  40
 35.000000000000
 100
AcDbArc
  50
 90.000000000000
  51
 158.26153920850
   0
ARC
   5
168
 100
AcDbEntity
   8
LEVEL001
 370
13
   6
CONTINUOUS
  62
7
 100
AcDbCircle
  10
 4479.6067415730
  20
 4737.6123595506
  30
0.0
  40
 100.00000000000
 100
AcDbArc
  50
 291.73846079152
  51
 338.26153920847
   0
LINE
   5
169
 100
AcDbEntity
   8
LEVEL001
 370
13
 100
AcDbLine
   6
CONTINUOUS
  62
7
  10
 4605.0061036128
  20
 4752.6123595506
  30
0.0
  11
 4732.4946930526
  21
 4752.6123595506
  31
0.0
   0
ARC
   5
16A
 100
AcDbEntity
   8
LEVEL001
 370
13
   6
CONTINUOUS
  62
7
 100
AcDbCircle
  10
 4605.0061036128
  20
 4787.6123595506
  30
0.0
  40
 35.000000000000
 100
AcDbArc
  50
 201.73846079150
  51
 270.00000000000
   0
LINE
   5
16B
 100
AcDbEntity
   8
LEVEL001
 370
13
 100
AcDbLine
   6
CONTINUOUS
  62
7
  10
 4494.6067415732
  20
 4987.6123595506
  30
0.0
  11
 4494.6067415732
  21
 4863.0117215904
  31
0.0
   0
ARC
   5
16C
 100
AcDbEntity
   8
LEVEL001
 370
13
   6
CONTINUOUS
  62
7
 100
AcDbCircle
  10
 4529.6067415732
  20
 4863.0117215904
  30
0.0
  40
 35.000000000000
 100
AcDbArc
  50
 180.00000000000
  51
 248.26153920836
   0
ARC
   5
16D
 100
AcDbEntity
   8
LEVEL001
 370
13
   6
CONTINUOUS
  62
7
 100
AcDbCircle
  10
 4479.6067415730
  20
 4737.6123595506
  30
0.0
  40
 100.00000000000
 100
AcDbArc
  50
 21.738460791529
  51
 68.261539208351
   0
LINE
   5
16E
 100
AcDbEntity
   8
LEVEL001
 370
13
 100
AcDbLine
   6
CONTINUOUS
  62
7
  10
 4464.6067415732
  20
 4863.0117215906
  30
0.0
  11
 4464.6067415732
  21
 4987.6123595506
  31
0.0
   0
ARC
   5
16F
 100
AcDbEntity
   8
LEVEL001
 370
13
   6
CONTINUOUS
  62
7
 100
AcDbCircle
  10
 4429.6067415732
  20
 4863.0117215906
  30
0.0
  40
 35.000000000000
 100
AcDbArc
  50
 291.73846079139
  51
0.0
   0
ARC
   5
170
 100
AcDbEntity
   8
LEVEL001
 370
13
   6
CONTINUOUS
  62
7
 100
AcDbCircle
  10
 4479.6067415730
  20
 4737.6123595506
  30
0.0
  40
 100.00000000000
 100
AcDbArc
  50
 111.73846079139
  51
 158.26153920835
   0
CIRCLE
   5
171
 100
AcDbEntity
   8
LEVEL001
 370
13
 100
AcDbCircle
   6
CONTINUOUS
  62
7
  10
 4482.4946930526
  20
 4737.6123595506
  30
0.0
  40
 307.50000000000
   0
CIRCLE
   5
172
 100
AcDbEntity
   8
LEVEL001
 370
13
 100
AcDbCircle
   6
CONTINUOUS
  62
7
  10
 4482.4946930526
  20
 4737.6123595506
  30
0.0
  40
 312.50000000000
   0
CIRCLE
   5
173
 100
AcDbEntity
   8
LEVEL001
 370
13
 100
AcDbCircle
   6
CONTINUOUS
  62
7
  10
 4482.4946930526
  20
 4737.6123595506
  30
0.0
  40
 305.00000000000
   0
LINE
   5
174
 100
AcDbEntity
   8
LEVEL001
 370
13
 100
AcDbLine
   6
DASHDOT
  62
6
  10
 4429.6067415730
  20
 4802.6123595506
  30
0.0
  11
 4429.6067415730
  21
 4772.6123595506
  31
0.0
   0
LINE
   5
175
 100
AcDbEntity
   8
LEVEL001
 370
13
 100
AcDbLine
   6
DASHDOT
  62
6
  10
 4414.6067415730
  20
 4787.6123595506
  30
0.0
  11
 4444.6067415730
  21
 4787.6123595506
  31
0.0
   0
LINE
   5
176
 100
AcDbEntity
   8
LEVEL001
 370
13
 100
AcDbLine
   6
DASHDOT
  62
6
  10
 4529.6067415730
  20
 4802.6123595506
  30
0.0
  11
 4529.6067415730
  21
 4772.6123595506
  31
0.0
   0
LINE
   5
177
 100
AcDbEntity
   8
LEVEL001
 370
13
 100
AcDbLine
   6
DASHDOT
  62
6
  10
 4514.6067415730
  20
 4787.6123595506
  30
0.0
  11
 4544.6067415730
  21
 4787.6123595506
  31
0.0
   0
LINE
   5
178
 100
AcDbEntity
   8
LEVEL001
 370
13
 100
AcDbLine
   6
DASHDOT
  62
6
  10
 4529.6067415730
  20
 4702.6123595506
  30
0.0
  11
 4529.6067415730
  21
 4672.6123595506
  31
0.0
   0
LINE
   5
179
 100
AcDbEntity
   8
LEVEL001
 370
13
 100
AcDbLine
   6
DASHDOT
  62
6
  10
 4514.6067415730
  20
 4687.6123595506
  30
0.0
  11
 4544.6067415730
  21
 4687.6123595506
  31
0.0
   0
LINE
   5
17A
 100
AcDbEntity
   8
LEVEL001
 370
13
 100
AcDbLine
   6
DASHDOT
  62
6
  10
 4429.6067415730
  20
 4702.6123595506
  30
0.0
  11
 4429.6067415730
  21
 4672.6123595506
  31
0.0
   0
LINE
   5
17B
 100
AcDbEntity
   8
LEVEL001
 370
13
 100
AcDbLine
   6
DASHDOT
  62
6
  10
 4414.6067415730
  20
 4687.6123595506
  30
0.0
  11
 4444.6067415730
  21
 4687.6123595506
  31
0.0
   0
LINE
   5
17C
 100
AcDbEntity
   8
LEVEL001
 370
13
 100
AcDbLine
   6
DASHDOT
  62
6
  10
 4479.6067415730
  20
 5112.6012390340
  30
0.0
  11
 4479.6067415730
  21
 4362.6234800672
  31
0.0
   0
LINE
   5
17D
 100
AcDbEntity
   8
LEVEL001
 370
13
 100
AcDbLine
   6
DASHDOT
  62
6
  10
 4107.4946930526
  20
 4737.6123595506
  30
0.0
  11
 4857.4946930526
  21
 4737.6123595506
  31
0.0
   0
CIRCLE
   5
17E
 100
AcDbEntity
   8
LEVEL001
 370
13
 100
AcDbCircle
   6
CONTINUOUS
  62
3
  10
 4429.6067415730
  20
 4787.6123595506
  30
0.0
  40
 7.0000000000000
   0
CIRCLE
   5
17F
 100
AcDbEntity
   8
LEVEL001
 370
13
 100
AcDbCircle
   6
CONTINUOUS
  62
3
  10
 4429.6067415730
  20
 4687.6123595506
  30
0.0
  40
 7.0000000000000
   0
CIRCLE
   5
180
 100
AcDbEntity
   8
LEVEL001
 370
13
 100
AcDbCircle
   6
CONTINUOUS
  62
3
  10
 4529.6067415730
  20
 4687.6123595506
  30
0.0
  40
 7.0000000000000
   0
CIRCLE
   5
181
 100
AcDbEntity
   8
LEVEL001
 370
13
 100
AcDbCircle
   6
CONTINUOUS
  62
3
  10
 4529.6067415730
  20
 4787.6123595506
  30
0.0
  40
 7.0000000000000
   0
CIRCLE
   5
182
 100
AcDbEntity
   8
LEVEL001
 370
13
 100
AcDbCircle
   6
CONTINUOUS
  62
1
  10
 3339.1005597006
  20
 5187.6123595506
  30
0.0
  40
 69.999997913838
   0
CIRCLE
   5
183
 100
AcDbEntity
   8
LEVEL001
 370
13
 100
AcDbCircle
   6
CONTINUOUS
  62
1
  10
 3479.1005555284
  20
 5187.6123595506
  30
0.0
  40
 69.999997913838
   0
CIRCLE
   5
184
 100
AcDbEntity
   8
LEVEL001
 370
13
 100
AcDbCircle
   6
CONTINUOUS
  62
1
  10
 3179.6067415730
  20
 5187.6123595506
  30
0.0
  40
 70.000000000000
   0
MTEXT
   5
185
 100
AcDbEntity
   8
LEVEL001
 370
13
  62
1
 100
AcDbMText
  10
 3339.1005597006
  20
 5187.6123595506
  30
0.0
  40
 57.142857142858
  41
0.0
  71
5
  72
1
   1
\T1.000000;6
   7
GMM001
  44
 0.79999984000003
   0
MTEXT
   5
186
 100
AcDbEntity
   8
LEVEL001
 370
13
  62
1
 100
AcDbMText
  10
 3479.1005555284
  20
 5187.6123595506
  30
0.0
  40
 57.142857142858
  41
0.0
  71
5
  72
1
   1
\T1.000000;8
   7
GMM001
  44
 0.79999984000003
   0
CIRCLE
   5
187
 100
AcDbEntity
   8
LEVEL001
 370
13
 100
AcDbCircle
   6
CONTINUOUS
  62
1
  10
 2279.6067415730
  20
 5187.6123595506
  30
0.0
  40
 69.999997913838
   0
MTEXT
   5
188
 100
AcDbEntity
   8
LEVEL001
 370
13
  62
1
 100
AcDbMText
  10
 2279.6067415730
  20
 5187.6123595506
  30
0.0
  40
 57.142857142858
  41
0.0
  71
5
  72
1
   1
\T1.000000;3
   7
GMM001
  44
 0.79999984000003
   0
CIRCLE
   5
189
 100
AcDbEntity
   8
LEVEL001
 370
13
 100
AcDbCircle
   6
CONTINUOUS
  62
1
  10
 2279.6067415730
  20
 4287.6123595506
  30
0.0
  40
 69.999997913838
   0
MTEXT
   5
18A
 100
AcDbEntity
   8
LEVEL001
 370
13
  62
1
 100
AcDbMText
  10
 2279.6067415730
  20
 4287.6123595506
  30
0.0
  40
 57.142857142858
  41
0.0
  71
5
  72
1
   1
\T1.000000;1
   7
GMM001
  44
 0.79999984000003
   0
CIRCLE
   5
18B
 100
AcDbEntity
   8
LEVEL001
 370
13
 100
AcDbCircle
   6
CONTINUOUS
  62
1
  10
 4079.6067415730
  20
 4437.6123595506
  30
0.0
  40
 69.999997913838
   0
MTEXT
   5
18C
 100
AcDbEntity
   8
LEVEL001
 370
13
  62
1
 100
AcDbMText
  10
 4079.6067415730
  20
 4437.6123595506
  30
0.0
  40
 57.142857142858
  41
0.0
  71
5
  72
1
   1
\T1.000000;2
   7
GMM001
  44
 0.79999984000003
   0
LEADER
   5
18D
 100
AcDbEntity
   8
LEVEL001
 370
13
   6
CONTINUOUS
  62
1
 100
AcDbLeader
   3
GMM001
  73
3
  74
1
  75
0
  40
 66.000000000000
  41
0.0
  76
2
  10
 4252.5067874958
  20
 4613.0875189316
  30
0.0
  10
 4129.6067415730
  20
 4486.6021514254
  30
0.0
  77
1
   0
MTEXT
   5
18F
 100
AcDbEntity
   8
LEVEL001
 370
13
  62
1
 100
AcDbMText
  10
 1100.2553467825
  20
 1913.8422965909
  30
0.0
  40
 40.000000000000
  41
0.0
  71
7
  72
1
   1
\T1.000000;ＧＬ
   7
GMM003
  44
 0.79999984000003
   0
LINE
   5
190
 100
AcDbEntity
   8
LEVEL001
 370
13
 100
AcDbLine
   6
CONTINUOUS
  62
1
  10
 1072.1066763377
  20
 1905.1123595506
  30
0.0
  11
 1047.1066763377
  21
 1955.1123595506
  31
0.0
   0
LINE
   5
191
 100
AcDbEntity
   8
LEVEL001
 370
13
 100
AcDbLine
   6
CONTINUOUS
  62
1
  10
 1047.1066763377
  20
 1955.1123595506
  30
0.0
  11
 1097.1066763377
  21
 1955.1123595506
  31
0.0
   0
LINE
   5
192
 100
AcDbEntity
   8
LEVEL001
 370
13
 100
AcDbLine
   6
CONTINUOUS
  62
1
  10
 1097.1066763377
  20
 1955.1123595506
  30
0.0
  11
 1072.1066763377
  21
 1905.1123595506
  31
0.0
   0
CIRCLE
   5
193
 100
AcDbEntity
   8
LEVEL001
 370
13
 100
AcDbCircle
   6
CONTINUOUS
  62
7
  10
 1479.6067415730
  20
 4737.6123595506
  30
0.0
  40
 332.50000000000
   0
CIRCLE
   5
194
 100
AcDbEntity
   8
LEVEL001
 370
13
 100
AcDbCircle
   6
CONTINUOUS
  62
7
  10
 1479.6067415730
  20
 4737.6123595506
  30
0.0
  40
 312.50000000000
   0
CIRCLE
   5
195
 100
AcDbEntity
   8
LEVEL001
 370
13
 100
AcDbCircle
   6
CONTINUOUS
  62
6
  10
 1479.6067415730
  20
 4737.6123595506
  30
0.0
  40
 305.00000000000
   0
CIRCLE
   5
196
 100
AcDbEntity
   8
LEVEL001
 370
13
 100
AcDbCircle
   6
CONTINUOUS
  62
6
  10
 1479.6067415730
  20
 4737.6123595506
  30
0.0
  40
 310.00000000000
   0
ARC
   5
197
 100
AcDbEntity
   8
LEVEL001
 370
13
   6
CONTINUOUS
  62
1
 100
AcDbCircle
  10
 1479.6067415730
  20
 4737.6123595506
  30
0.0
  40
 310.00000000000
 100
AcDbArc
  50
 6.7865214711293
  51
 173.21347852887
   0
ARC
   5
198
 100
AcDbEntity
   8
LEVEL001
 370
13
   6
CONTINUOUS
  62
1
 100
AcDbCircle
  10
 1479.6067415730
  20
 4737.6123595506
  30
0.0
  40
 311.50000000000
 100
AcDbArc
  50
 6.7865214711257
  51
 173.21347852887
   0
LINE
   5
199
 100
AcDbEntity
   8
LEVEL001
 370
13
 100
AcDbLine
   6
CONTINUOUS
  62
1
  10
 1171.7788078663
  20
 4774.2451758478
  30
0.0
  11
 1170.2893178645
  21
 4774.4224314106
  31
0.0
   0
LINE
   5
19A
 100
AcDbEntity
   8
LEVEL001
 370
13
 100
AcDbLine
   6
CONTINUOUS
  62
1
  10
 1787.4346752797
  20
 4774.2451758478
  30
0.0
  11
 1788.9241652815
  21
 4774.4224314106
  31
0.0
   0
LINE
   5
19B
 100
AcDbEntity
   8
LEVEL001
 370
13
 100
AcDbLine
   6
DASHDOT
  62
6
  10
 1104.6067415730
  20
 4737.6123595506
  30
0.0
  11
 1854.6067415730
  21
 4737.6123595506
  31
0.0
   0
MTEXT
   5
19C
 100
AcDbEntity
   8
LEVEL001
 370
13
  62
1
 100
AcDbMText
  10
 3179.6067415730
  20
 5187.6123595506
  30
0.0
  40
 57.142857142858
  41
0.0
  71
5
  72
1
   1
\T1.000000;11
   7
GMM001
  44
 0.79999984000003
   0
LINE
   5
19D
 100
AcDbEntity
   8
LEVEL001
 370
13
 100
AcDbLine
   6
CONTINUOUS
  62
7
  10
 2788.6233788322
  20
 5067.6123595506
  30
0.0
  11
 2788.6233788322
  21
 4407.6123595506
  31
0.0
   0
ARC
   5
19E
 100
AcDbEntity
   8
LEVEL001
 370
13
   6
CONTINUOUS
  62
7
 100
AcDbCircle
  10
 2791.1233788322
  20
 5067.6123595506
  30
0.0
  40
 2.5000000000000
 100
AcDbArc
  50
 90.000000000000
  51
 180.00000000000
   0
LINE
   5
19F
 100
AcDbEntity
   8
LEVEL001
 370
13
 100
AcDbLine
   6
CONTINUOUS
  62
7
  10
 2793.6233788322
  20
 4407.6123595506
  30
0.0
  11
 2793.6233788322
  21
 5067.6123595506
  31
0.0
   0
ARC
   5
1A0
 100
AcDbEntity
   8
LEVEL001
 370
13
   6
CONTINUOUS
  62
7
 100
AcDbCircle
  10
 2791.1233788322
  20
 5067.6123595506
  30
0.0
  40
 2.5000000000000
 100
AcDbArc
  50
0.0
  51
 90.000000000000
   0
LINE
   5
1A1
 100
AcDbEntity
   8
LEVEL001
 370
13
 100
AcDbLine
   6
CONTINUOUS
  62
3
  10
 2788.6233788322
  20
 4774.2451758478
  30
0.0
  11
 2768.6233788322
  21
 4774.2451758478
  31
0.0
   0
LINE
   5
1A2
 100
AcDbEntity
   8
LEVEL001
 370
13
 100
AcDbLine
   6
CONTINUOUS
  62
3
  10
 2768.6233788322
  20
 4774.2451758478
  30
0.0
  11
 2713.6233788322
  21
 4869.5079702640
  31
0.0
   0
LINE
   5
1A3
 100
AcDbEntity
   8
LEVEL001
 370
13
 100
AcDbLine
   6
CONTINUOUS
  62
3
  10
 2713.6233788322
  20
 4869.5079702640
  30
0.0
  11
 2713.6233788322
  21
 5049.1123595506
  31
0.0
   0
LINE
   5
1A4
 100
AcDbEntity
   8
LEVEL001
 370
13
 100
AcDbLine
   6
CONTINUOUS
  62
3
  10
 2713.6233788322
  20
 5049.1123595506
  30
0.0
  11
 2788.6233788322
  21
 5049.1123595506
  31
0.0
   0
ARC
   5
1A5
 100
AcDbEntity
   8
LEVEL001
 370
13
   6
CONTINUOUS
  62
7
 100
AcDbCircle
  10
 4943.0728506026
  20
 4737.6123595506
  30
0.0
  40
 2200.0000000000
 100
AcDbArc
  50
 177.95610305487
  51
 187.83747976308
   0
LINE
   5
1A6
 100
AcDbEntity
   8
LEVEL001
 370
13
 100
AcDbLine
   6
CONTINUOUS
  62
7
  10
 2763.6233788322
  20
 4438.3509868696
  30
0.0
  11
 2763.6233788322
  21
 4782.9054298856
  31
0.0
   0
ARC
   5
1A7
 100
AcDbEntity
   8
LEVEL001
 370
13
   6
HIDDEN
  62
6
 100
AcDbCircle
  10
 4943.0728506026
  20
 4737.6123595506
  30
0.0
  40
 2200.0000000000
 100
AcDbArc
  50
 172.16252023692
  51
 177.95610305487
   0
LINE
   5
1A8
 100
AcDbEntity
   8
LEVEL001
 370
13
 100
AcDbLine
   6
HIDDEN
  62
6
  10
 2763.6233788322
  20
 4782.9054298856
  30
0.0
  11
 2763.6233788322
  21
 5036.8737322316
  31
0.0
   0
ARC
   5
1A9
 100
AcDbEntity
   8
LEVEL001
 370
13
   6
HIDDEN
  62
6
 100
AcDbCircle
  10
 2770.6233788322
  20
 5036.8737322316
  30
0.0
  40
 7.0000000000000
 100
AcDbArc
  50
 101.30993247400
  51
 180.00000000000
   0
LINE
   5
1AA
 100
AcDbEntity
   8
LEVEL001
 370
13
 100
AcDbLine
   6
HIDDEN
  62
6
  10
 2769.2505658862
  20
 5043.7377969614
  30
0.0
  11
 2788.6233788322
  21
 5047.6123595506
  31
0.0
   0
LINE
   5
1AB
 100
AcDbEntity
   8
LEVEL001
 370
13
 100
AcDbLine
   6
CONTINUOUS
  62
7
  10
 2793.6233788322
  20
 4682.6123595506
  30
0.0
  11
 2886.8233788322
  21
 4682.6123595506
  31
0.0
   0
LINE
   5
1AC
 100
AcDbEntity
   8
LEVEL001
 370
13
 100
AcDbLine
   6
CONTINUOUS
  62
7
  10
 2886.8233788322
  20
 4682.6123595506
  30
0.0
  11
 2886.8233788322
  21
 4792.6123595506
  31
0.0
   0
LINE
   5
1AD
 100
AcDbEntity
   8
LEVEL001
 370
13
 100
AcDbLine
   6
CONTINUOUS
  62
7
  10
 2886.8233788322
  20
 4792.6123595506
  30
0.0
  11
 2793.6233788322
  21
 4792.6123595506
  31
0.0
   0
LINE
   5
1AE
 100
AcDbEntity
   8
LEVEL001
 370
13
 100
AcDbLine
   6
DASHDOT
  62
6
  10
 3104.6067586756
  20
 4737.6123595506
  30
0.0
  11
 2679.0513106748
  21
 4737.6123595506
  31
0.0
   0
ARC
   5
1AF
 100
AcDbEntity
   8
LEVEL001
 370
13
   6
CONTINUOUS
  62
7
 100
AcDbCircle
  10
 2791.1233788322
  20
 4407.6123595506
  30
0.0
  40
 2.5000000000000
 100
AcDbArc
  50
 180.00000000000
  51
 270.00000000000
   0
ARC
   5
1B0
 100
AcDbEntity
   8
LEVEL001
 370
13
   6
CONTINUOUS
  62
7
 100
AcDbCircle
  10
 2791.1233788322
  20
 4407.6123595506
  30
0.0
  40
 2.5000000000000
 100
AcDbArc
  50
 270.00000000000
  51
0.0
   0
LINE
   5
1B1
 100
AcDbEntity
   8
LEVEL001
 370
13
 100
AcDbLine
   6
CONTINUOUS
  62
7
  10
 2788.6233788322
  20
 4427.6123595506
  30
0.0
  11
 2769.2505658862
  21
 4431.4869221398
  31
0.0
   0
ARC
   5
1B2
 100
AcDbEntity
   8
LEVEL001
 370
13
   6
CONTINUOUS
  62
7
 100
AcDbCircle
  10
 2770.6233788322
  20
 4438.3509868696
  30
0.0
  40
 7.0000000000000
 100
AcDbArc
  50
 180.00000000000
  51
 258.69006752600
   0
LINE
   5
1B3
 100
AcDbEntity
   8
LEVEL001
 370
13
 100
AcDbLine
   6
DASHDOT
  62
6
  10
 2861.8233788322
  20
 4782.6123595506
  30
0.0
  11
 2861.8233788322
  21
 4752.6123595506
  31
0.0
   0
LINE
   5
1B4
 100
AcDbEntity
   8
LEVEL001
 370
13
 100
AcDbLine
   6
DASHDOT
  62
6
  10
 2846.8233788322
  20
 4767.6123595506
  30
0.0
  11
 2876.8233788322
  21
 4767.6123595506
  31
0.0
   0
LINE
   5
1B5
 100
AcDbEntity
   8
LEVEL001
 370
13
 100
AcDbLine
   6
DASHDOT
  62
6
  10
 2861.8233788322
  20
 4722.6123595506
  30
0.0
  11
 2861.8233788322
  21
 4692.6123595506
  31
0.0
   0
LINE
   5
1B6
 100
AcDbEntity
   8
LEVEL001
 370
13
 100
AcDbLine
   6
DASHDOT
  62
6
  10
 2846.8233788322
  20
 4707.6123595506
  30
0.0
  11
 2876.8233788322
  21
 4707.6123595506
  31
0.0
   0
LINE
   5
1B7
 100
AcDbEntity
   8
LEVEL001
 370
13
 100
AcDbLine
   6
CONTINUOUS
  62
7
  10
 2886.8233788322
  20
 4792.6123595506
  30
0.0
  11
 2941.8233788322
  21
 4792.6123595506
  31
0.0
   0
LINE
   5
1B8
 100
AcDbEntity
   8
LEVEL001
 370
13
 100
AcDbLine
   6
CONTINUOUS
  62
7
  10
 2941.8233788322
  20
 4792.6123595506
  30
0.0
  11
 2941.8233788322
  21
 4682.6123595506
  31
0.0
   0
LINE
   5
1B9
 100
AcDbEntity
   8
LEVEL001
 370
13
 100
AcDbLine
   6
CONTINUOUS
  62
7
  10
 2941.8233788322
  20
 4682.6123595506
  30
0.0
  11
 2886.8233788322
  21
 4682.6123595506
  31
0.0
   0
LINE
   5
1BA
 100
AcDbEntity
   8
LEVEL001
 370
13
 100
AcDbLine
   6
DASHDOT
  62
6
  10
 2910.9725014896
  20
 4748.1977733694
  30
0.0
  11
 2910.9725014896
  21
 4718.1977733694
  31
0.0
   0
LINE
   5
1BB
 100
AcDbEntity
   8
LEVEL001
 370
13
 100
AcDbLine
   6
DASHDOT
  62
6
  10
 2895.9725014896
  20
 4733.1977733694
  30
0.0
  11
 2925.9725014896
  21
 4733.1977733694
  31
0.0
   0
LINE
   5
1BC
 100
AcDbEntity
   8
LEVEL001
 370
13
 100
AcDbLine
   6
CONTINUOUS
  62
3
  10
 2854.8233788322
  20
 4760.6123595506
  30
0.0
  11
 2868.8233788322
  21
 4760.6123595506
  31
0.0
   0
LINE
   5
1BD
 100
AcDbEntity
   8
LEVEL001
 370
13
 100
AcDbLine
   6
CONTINUOUS
  62
3
  10
 2868.8233788322
  20
 4760.6123595506
  30
0.0
  11
 2868.8233788322
  21
 4774.6123595506
  31
0.0
   0
LINE
   5
1BE
 100
AcDbEntity
   8
LEVEL001
 370
13
 100
AcDbLine
   6
CONTINUOUS
  62
3
  10
 2868.8233788322
  20
 4774.6123595506
  30
0.0
  11
 2854.8233788322
  21
 4774.6123595506
  31
0.0
   0
LINE
   5
1BF
 100
AcDbEntity
   8
LEVEL001
 370
13
 100
AcDbLine
   6
CONTINUOUS
  62
3
  10
 2854.8233788322
  20
 4774.6123595506
  30
0.0
  11
 2854.8233788322
  21
 4760.6123595506
  31
0.0
   0
LINE
   5
1C0
 100
AcDbEntity
   8
LEVEL001
 370
13
 100
AcDbLine
   6
CONTINUOUS
  62
3
  10
 2854.8233788322
  20
 4700.6123595506
  30
0.0
  11
 2868.8233788322
  21
 4700.6123595506
  31
0.0
   0
LINE
   5
1C1
 100
AcDbEntity
   8
LEVEL001
 370
13
 100
AcDbLine
   6
CONTINUOUS
  62
3
  10
 2868.8233788322
  20
 4700.6123595506
  30
0.0
  11
 2868.8233788322
  21
 4714.6123595506
  31
0.0
   0
LINE
   5
1C2
 100
AcDbEntity
   8
LEVEL001
 370
13
 100
AcDbLine
   6
CONTINUOUS
  62
3
  10
 2868.8233788322
  20
 4714.6123595506
  30
0.0
  11
 2854.8233788322
  21
 4714.6123595506
  31
0.0
   0
LINE
   5
1C3
 100
AcDbEntity
   8
LEVEL001
 370
13
 100
AcDbLine
   6
CONTINUOUS
  62
3
  10
 2854.8233788322
  20
 4714.6123595506
  30
0.0
  11
 2854.8233788322
  21
 4700.6123595506
  31
0.0
   0
ARC
   5
1C4
 100
AcDbEntity
   8
LEVEL001
 370
13
   6
CONTINUOUS
  62
3
 100
AcDbCircle
  10
 2861.8233788322
  20
 4767.6123595506
  30
0.0
  40
 52.000000000000
 100
AcDbArc
  50
 298.73565374491
  51
 324.99999999987
   0
ARC
   5
1C5
 100
AcDbEntity
   8
LEVEL001
 370
13
   6
CONTINUOUS
  62
3
 100
AcDbCircle
  10
 2910.9725014896
  20
 4733.1977733694
  30
0.0
  40
 8.0000000000000
 100
AcDbArc
  50
 324.99999999986
  51
 146.50781277452
   0
ARC
   5
1C6
 100
AcDbEntity
   8
LEVEL001
 370
13
   6
CONTINUOUS
  62
3
 100
AcDbCircle
  10
 2861.8233788322
  20
 4767.6123595506
  30
0.0
  40
 68.000000000000
 100
AcDbArc
  50
 291.57057830161
  51
 324.99999999990
   0
LINE
   5
1C7
 100
AcDbEntity
   8
LEVEL001
 370
13
 100
AcDbLine
   6
DASHDOT
  62
6
  10
 3034.6067586756
  20
 4782.6123595506
  30
0.0
  11
 3034.6067586756
  21
 4752.6123595506
  31
0.0
   0
LINE
   5
1C8
 100
AcDbEntity
   8
LEVEL001
 370
13
 100
AcDbLine
   6
DASHDOT
  62
6
  10
 3019.6067586756
  20
 4767.6123595506
  30
0.0
  11
 3049.6067586756
  21
 4767.6123595506
  31
0.0
   0
LINE
   5
1C9
 100
AcDbEntity
   8
LEVEL001
 370
13
 100
AcDbLine
   6
DASHDOT
  62
6
  10
 3034.6067586756
  20
 4722.6123595506
  30
0.0
  11
 3034.6067586756
  21
 4692.6123595506
  31
0.0
   0
LINE
   5
1CA
 100
AcDbEntity
   8
LEVEL001
 370
13
 100
AcDbLine
   6
DASHDOT
  62
6
  10
 3019.6067586756
  20
 4707.6123595506
  30
0.0
  11
 3049.6067586756
  21
 4707.6123595506
  31
0.0
   0
LINE
   5
1CB
 100
AcDbEntity
   8
LEVEL001
 370
13
 100
AcDbLine
   6
CONTINUOUS
  62
7
  10
 2941.8233788322
  20
 4682.6123595506
  30
0.0
  11
 3054.6067586756
  21
 4682.6123595506
  31
0.0
   0
LINE
   5
1CC
 100
AcDbEntity
   8
LEVEL001
 370
13
 100
AcDbLine
   6
CONTINUOUS
  62
7
  10
 3054.6067586756
  20
 4682.6123595506
  30
0.0
  11
 3054.6067586756
  21
 4792.6123595506
  31
0.0
   0
LINE
   5
1CD
 100
AcDbEntity
   8
LEVEL001
 370
13
 100
AcDbLine
   6
CONTINUOUS
  62
7
  10
 3054.6067586756
  20
 4792.6123595506
  30
0.0
  11
 2941.8233788322
  21
 4792.6123595506
  31
0.0
   0
LINE
   5
1CE
 100
AcDbEntity
   8
LEVEL001
 370
13
 100
AcDbLine
   6
CONTINUOUS
  62
3
  10
 3027.6067586756
  20
 4700.6123595506
  30
0.0
  11
 3041.6067586756
  21
 4700.6123595506
  31
0.0
   0
LINE
   5
1CF
 100
AcDbEntity
   8
LEVEL001
 370
13
 100
AcDbLine
   6
CONTINUOUS
  62
3
  10
 3041.6067586756
  20
 4700.6123595506
  30
0.0
  11
 3041.6067586756
  21
 4714.6123595506
  31
0.0
   0
LINE
   5
1D0
 100
AcDbEntity
   8
LEVEL001
 370
13
 100
AcDbLine
   6
CONTINUOUS
  62
3
  10
 3041.6067586756
  20
 4714.6123595506
  30
0.0
  11
 3027.6067586756
  21
 4714.6123595506
  31
0.0
   0
LINE
   5
1D1
 100
AcDbEntity
   8
LEVEL001
 370
13
 100
AcDbLine
   6
CONTINUOUS
  62
3
  10
 3027.6067586756
  20
 4714.6123595506
  30
0.0
  11
 3027.6067586756
  21
 4700.6123595506
  31
0.0
   0
LINE
   5
1D2
 100
AcDbEntity
   8
LEVEL001
 370
13
 100
AcDbLine
   6
CONTINUOUS
  62
3
  10
 3027.6067586756
  20
 4760.6123595506
  30
0.0
  11
 3041.6067586756
  21
 4760.6123595506
  31
0.0
   0
LINE
   5
1D3
 100
AcDbEntity
   8
LEVEL001
 370
13
 100
AcDbLine
   6
CONTINUOUS
  62
3
  10
 3041.6067586756
  20
 4760.6123595506
  30
0.0
  11
 3041.6067586756
  21
 4774.6123595506
  31
0.0
   0
LINE
   5
1D4
 100
AcDbEntity
   8
LEVEL001
 370
13
 100
AcDbLine
   6
CONTINUOUS
  62
3
  10
 3041.6067586756
  20
 4774.6123595506
  30
0.0
  11
 3027.6067586756
  21
 4774.6123595506
  31
0.0
   0
LINE
   5
1D5
 100
AcDbEntity
   8
LEVEL001
 370
13
 100
AcDbLine
   6
CONTINUOUS
  62
3
  10
 3027.6067586756
  20
 4774.6123595506
  30
0.0
  11
 3027.6067586756
  21
 4760.6123595506
  31
0.0
   0
LINE
   5
1D6
 100
AcDbEntity
   8
LEVEL001
 370
13
 100
AcDbLine
   6
CONTINUOUS
  62
6
  10
 3015.0347682296
  20
 4787.6123595506
  30
0.0
  11
 3015.0347682296
  21
 4687.6123595506
  31
0.0
   0
CIRCLE
   5
1D7
 100
AcDbEntity
   8
LEVEL001
 370
13
 100
AcDbCircle
   6
CONTINUOUS
  62
1
  10
 2689.6067457454
  20
 5187.6123595506
  30
0.0
  40
 69.999997913838
   0
CIRCLE
   5
1D8
 100
AcDbEntity
   8
LEVEL001
 370
13
 100
AcDbCircle
   6
CONTINUOUS
  62
1
  10
 2829.6067415730
  20
 5187.6123595506
  30
0.0
  40
 69.999997913838
   0
MTEXT
   5
1D9
 100
AcDbEntity
   8
LEVEL001
 370
13
  62
1
 100
AcDbMText
  10
 2829.6067415730
  20
 5187.6123595506
  30
0.0
  40
 57.142857142858
  41
0.0
  71
5
  72
1
   1
\T1.000000;7
   7
GMM001
  44
 0.79999984000003
   0
MTEXT
   5
1DA
 100
AcDbEntity
   8
LEVEL001
 370
13
  62
1
 100
AcDbMText
  10
 2689.6067457454
  20
 5187.6123595506
  30
0.0
  40
 57.142857142858
  41
0.0
  71
5
  72
1
   1
\T1.000000;5
   7
GMM001
  44
 0.79999984000003
   0
LEADER
   5
1DB
 100
AcDbEntity
   8
LEVEL001
 370
13
   6
CONTINUOUS
  62
1
 100
AcDbLeader
   3
GMM002
  73
3
  74
1
  75
0
  40
 60.000000000000
  41
0.0
  76
2
  10
 3054.6067586756
  20
 4792.6123595506
  30
0.0
  10
 3298.6303354680
  20
 5130.4970318486
  30
0.0
  77
1
   0
LEADER
   5
1DC
 100
AcDbEntity
   8
LEVEL001
 370
13
   6
CONTINUOUS
  62
1
 100
AcDbLeader
   3
GMM002
  73
3
  74
1
  75
0
  40
 60.000000000000
  41
0.0
  76
2
  10
 2871.1966472512
  20
 4792.6123595506
  30
0.0
  10
 2838.7598551150
  20
 5118.2133666154
  30
0.0
  77
1
   0
CIRCLE
   5
1DD
 100
AcDbEntity
   8
LEVEL001
 370
13
 100
AcDbCircle
   6
CONTINUOUS
  62
1
  10
 1729.6067415730
  20
 4287.6123595506
  30
0.0
  40
 69.999997913838
   0
MTEXT
   5
1DE
 100
AcDbEntity
   8
LEVEL001
 370
13
  62
1
 100
AcDbMText
  10
 1729.6067415730
  20
 4287.6123595506
  30
0.0
  40
 57.142857142858
  41
0.0
  71
5
  72
1
   1
\T1.000000;4
   7
GMM001
  44
 0.79999984000003
   0
LEADER
   5
1DF
 100
AcDbEntity
   8
LEVEL001
 370
13
   6
CONTINUOUS
  62
1
 100
AcDbLeader
   3
GMM002
  73
3
  74
1
  75
0
  40
 60.000000000000
  41
0.0
  76
2
  10
 1592.2515329938
  20
 4424.7747004272
  30
0.0
  10
 1680.1092683655
  20
 4337.1098327590
  30
0.0
  77
1
   0
LEADER
   5
1E0
 100
AcDbEntity
   8
LEVEL001
 370
13
   6
CONTINUOUS
  62
1
 100
AcDbLeader
   3
GMM002
  73
3
  74
1
  75
0
  40
 60.000000000000
  41
0.0
  76
2
  10
 1592.7373867100
  20
 4537.6123595506
  30
0.0
  10
 2213.9494785422
  20
 4311.8842263770
  30
0.0
  77
1
   0
LEADER
   5
1E1
 100
AcDbEntity
   8
LEVEL001
 370
13
   6
CONTINUOUS
  62
1
 100
AcDbLeader
   3
GMM002
  73
3
  74
1
  75
0
  40
 60.000000000000
  41
0.0
  76
2
  10
 2752.1826205820
  20
 4537.6123595506
  30
0.0
  10
 2342.2516292802
  20
 4318.8472399264
  30
0.0
  77
1
   0
LEADER
   5
1E2
 100
AcDbEntity
   8
LEVEL001
 370
13
   6
CONTINUOUS
  62
1
 100
AcDbLeader
   3
GMM002
  73
3
  74
1
  75
0
  40
 60.000000000000
  41
0.0
  76
2
  10
 1589.9309235723
  20
 5028.9211731252
  30
0.0
  10
 2211.2496885000
  20
 5172.5354565828
  30
0.0
  77
1
   0
LINE
   5
1E3
 100
AcDbEntity
   8
LEVEL001
 370
13
 100
AcDbLine
   6
DASHDOT
  62
6
  10
 1479.6067415730
  20
 5112.6123595506
  30
0.0
  11
 1479.6067415730
  21
 1005.1123595506
  31
0.0
   0
MTEXT
   5
1E4
 100
AcDbEntity
   8
LEVEL001
 370
13
  62
1
 100
AcDbMText
  10
 5539.6067415730
  20
 3097.6123595506
  30
0.0
  40
 57.142857142858
  41
0.0
  71
4
  72
1
   1
%%c\T1.000000;６００（シングル）
   7
GMM001
  44
 0.79999984000003
   0
MTEXT
   5
1E5
 100
AcDbEntity
   8
LEVEL001
 370
13
  62
1
 100
AcDbMText
  10
 7319.6067415730
  20
 1837.6123595506
  30
0.0
  40
 51.428571428572
  41
0.0
  71
4
  72
1
   1
\T1.000000;静電粉体塗装
   7
GMM001
  44
 0.79999984000003
   0
MTEXT
   5
1E6
 100
AcDbEntity
   8
LEVEL001
 370
13
  62
1
 100
AcDbMText
  10
 6759.6067415730
  20
 1837.6123595506
  30
0.0
  40
 51.428571428572
  41
0.0
  71
4
  72
1
   1
\T1.000000;ＳＴＫ４００
   7
GMM001
  44
 0.79999984000003
   0
MTEXT
   5
1E7
 100
AcDbEntity
   8
LEVEL001
 370
13
  62
1
 100
AcDbMText
  10
 6691.6067415730
  20
 1837.6123595506
  30
0.0
  40
 51.428571428572
  41
0.0
  71
6
  72
1
   1
\T1.000000;１
   7
GMM001
  44
 0.79999984000003
   0
MTEXT
   5
1E8
 100
AcDbEntity
   8
LEVEL001
 370
13
  62
1
 100
AcDbMText
  10
 5679.6067415730
  20
 1837.6123595506
  30
0.0
  40
 51.428571428572
  41
0.0
  71
4
  72
1
   1
\T1.000000;支柱
   7
GMM001
  44
 0.79999984000003
   0
MTEXT
   5
1E9
 100
AcDbEntity
   8
LEVEL001
 370
13
  62
1
 100
AcDbMText
  10
 6691.6067415730
  20
 2797.6123595506
  30
0.0
  40
 51.428571428572
  41
0.0
  71
6
  72
1
   1
\T1.000000;１
   7
GMM001
  44
 0.79999984000003
   0
MTEXT
   5
1EA
 100
AcDbEntity
   8
LEVEL001
 370
13
  62
1
 100
AcDbMText
  10
 6691.6067415730
  20
 2077.6123595506
  30
0.0
  40
 51.428571428572
  41
0.0
  71
6
  72
1
   1
\T1.000000;４
   7
GMM001
  44
 0.79999984000003
   0
MTEXT
   5
1EB
 100
AcDbEntity
   8
LEVEL001
 370
13
  62
1
 100
AcDbMText
  10
 6691.6067415730
  20
 1957.6123595506
  30
0.0
  40
 51.428571428572
  41
0.0
  71
6
  72
1
   1
\T1.000000;４
   7
GMM001
  44
 0.79999984000003
   0
MTEXT
   5
1EC
 100
AcDbEntity
   8
LEVEL001
 370
13
  62
1
 100
AcDbMText
  10
 6691.6067415730
  20
 2677.6123595506
  30
0.0
  40
 51.428571428572
  41
0.0
  71
6
  72
1
   1
\T1.000000;１
   7
GMM001
  44
 0.79999984000003
   0
MTEXT
   5
1ED
 100
AcDbEntity
   8
LEVEL001
 370
13
  62
1
 100
AcDbMText
  10
 6691.6067415730
  20
 2557.6123595506
  30
0.0
  40
 51.428571428572
  41
0.0
  71
6
  72
1
   1
\T1.000000;１
   7
GMM001
  44
 0.79999984000003
   0
MTEXT
   5
1EE
 100
AcDbEntity
   8
LEVEL001
 370
13
  62
1
 100
AcDbMText
  10
 6691.6067415730
  20
 2437.6123595506
  30
0.0
  40
 51.428571428572
  41
0.0
  71
6
  72
1
   1
\T1.000000;１
   7
GMM001
  44
 0.79999984000003
   0
MTEXT
   5
1EF
 100
AcDbEntity
   8
LEVEL001
 370
13
  62
1
 100
AcDbMText
  10
 6691.6067415730
  20
 2317.6123595506
  30
0.0
  40
 51.428571428572
  41
0.0
  71
6
  72
1
   1
\T1.000000;１
   7
GMM001
  44
 0.79999984000003
   0
MTEXT
   5
1F0
 100
AcDbEntity
   8
LEVEL001
 370
13
  62
1
 100
AcDbMText
  10
 6691.6067415730
  20
 2197.6123595506
  30
0.0
  40
 51.428571428572
  41
0.0
  71
6
  72
1
   1
\T1.000000;１
   7
GMM001
  44
 0.79999984000003
   0
MTEXT
   5
1F2
 100
AcDbEntity
   8
LEVEL001
 370
13
  62
1
 100
AcDbMText
  10
 2250.2553467824
  20
 1913.8422965909
  30
0.0
  40
 40.000000000000
  41
0.0
  71
7
  72
1
   1
\T1.000000;ＧＬ
   7
GMM003
  44
 0.79999984000003
   0
LINE
   5
1F3
 100
AcDbEntity
   8
LEVEL001
 370
13
 100
AcDbLine
   6
CONTINUOUS
  62
1
  10
 2222.1066763376
  20
 1905.1123595506
  30
0.0
  11
 2197.1066763376
  21
 1955.1123595506
  31
0.0
   0
LINE
   5
1F4
 100
AcDbEntity
   8
LEVEL001
 370
13
 100
AcDbLine
   6
CONTINUOUS
  62
1
  10
 2197.1066763376
  20
 1955.1123595506
  30
0.0
  11
 2247.1066763376
  21
 1955.1123595506
  31
0.0
   0
LINE
   5
1F5
 100
AcDbEntity
   8
LEVEL001
 370
13
 100
AcDbLine
   6
CONTINUOUS
  62
1
  10
 2247.1066763376
  20
 1955.1123595506
  30
0.0
  11
 2222.1066763376
  21
 1905.1123595506
  31
0.0
   0
CIRCLE
   5
1F6
 100
AcDbEntity
   8
LEVEL001
 370
13
 100
AcDbCircle
   6
CONTINUOUS
  62
1
  10
 1729.6067415730
  20
 2705.1123595506
  30
0.0
  40
 70.000000000000
   0
LEADER
   5
1F7
 100
AcDbEntity
   8
LEVEL001
 370
13
   6
CONTINUOUS
  62
1
 100
AcDbLeader
   3
GMM002
  73
3
  74
1
  75
0
  40
 60.000000000000
  41
0.0
  76
2
  10
 1517.7567415730
  20
 2580.1123595506
  30
0.0
  10
 1669.3189522119
  20
 2669.5401449170
  30
0.0
  77
1
   0
MTEXT
   5
1F8
 100
AcDbEntity
   8
LEVEL001
 370
13
  62
1
 100
AcDbMText
  10
 1729.6067415730
  20
 2705.1123595506
  30
0.0
  40
 57.142857142858
  41
0.0
  71
5
  72
1
   1
\T1.000000;9
   7
GMM001
  44
 0.79999984000003
   0
LINE
   5
1F9
 100
AcDbEntity
   8
LEVEL001
 370
13
 100
AcDbLine
   6
CONTINUOUS
  62
7
  10
 3017.7567415730
  20
 4909.1123595506
  30
0.0
  11
 2941.4567415730
  21
 4909.1123595506
  31
0.0
   0
LINE
   5
1FA
 100
AcDbEntity
   8
LEVEL001
 370
13
 100
AcDbLine
   6
CONTINUOUS
  62
7
  10
 2941.4567415730
  20
 4909.1123595506
  30
0.0
  11
 2941.4567415730
  21
 4906.1123595506
  31
0.0
   0
LINE
   5
1FB
 100
AcDbEntity
   8
LEVEL001
 370
13
 100
AcDbLine
   6
CONTINUOUS
  62
7
  10
 2941.4567415730
  20
 4906.1123595506
  30
0.0
  11
 3017.7567415730
  21
 4906.1123595506
  31
0.0
   0
LINE
   5
1FC
 100
AcDbEntity
   8
LEVEL001
 370
13
 100
AcDbLine
   6
CONTINUOUS
  62
7
  10
 3017.7567415730
  20
 4906.1123595506
  30
0.0
  11
 3017.7567415730
  21
 4909.1123595506
  31
0.0
   0
LINE
   5
1FD
 100
AcDbEntity
   8
LEVEL001
 370
13
 100
AcDbLine
   6
DOT
  62
1
  10
 3012.7567415730
  20
 4906.1123595506
  30
0.0
  11
 3012.7567415730
  21
 4879.1123595506
  31
0.0
   0
LINE
   5
1FE
 100
AcDbEntity
   8
LEVEL001
 370
13
 100
AcDbLine
   6
DOT
  62
1
  10
 3012.7567415730
  20
 4879.1123595506
  30
0.0
  11
 2946.4567415730
  21
 4879.1123595506
  31
0.0
   0
LINE
   5
1FF
 100
AcDbEntity
   8
LEVEL001
 370
13
 100
AcDbLine
   6
DOT
  62
1
  10
 2946.4567415730
  20
 4879.1123595506
  30
0.0
  11
 2946.4567415730
  21
 4906.1123595506
  31
0.0
   0
LINE
   5
200
 100
AcDbEntity
   8
LEVEL001
 370
13
 100
AcDbLine
   6
CONTINUOUS
  62
7
  10
 3017.7567415730
  20
 4792.6123595506
  30
0.0
  11
 3017.7567415730
  21
 4905.1123595506
  31
0.0
   0
LINE
   5
201
 100
AcDbEntity
   8
LEVEL001
 370
13
 100
AcDbLine
   6
CONTINUOUS
  62
7
  10
 3017.7567415730
  20
 4905.1123595506
  30
0.0
  11
 2941.4567415730
  21
 4905.1123595506
  31
0.0
   0
LINE
   5
202
 100
AcDbEntity
   8
LEVEL001
 370
13
 100
AcDbLine
   6
CONTINUOUS
  62
7
  10
 2941.4567415730
  20
 4905.1123595506
  30
0.0
  11
 2941.4567415730
  21
 4792.6123595506
  31
0.0
   0
LINE
   5
203
 100
AcDbEntity
   8
LEVEL001
 370
13
 100
AcDbLine
   6
DASHDOT
  62
6
  10
 1419.6067234874
  20
 1705.1123595506
  30
0.0
  11
 1539.6067234874
  21
 1705.1123595506
  31
0.0
   0
CIRCLE
   5
204
 100
AcDbEntity
   8
LEVEL001
 370
13
 100
AcDbCircle
   6
CONTINUOUS
  62
7
  10
 1479.6067077709
  20
 1605.1123595506
  30
0.0
  40
 7.5000000000000
   0
LINE
   5
205
 100
AcDbEntity
   8
LEVEL001
 370
13
 100
AcDbLine
   6
DASHDOT
  62
6
  10
 1449.6067077709
  20
 1605.1123595506
  30
0.0
  11
 1509.6067077709
  21
 1605.1123595506
  31
0.0
   0
CIRCLE
   5
206
 100
AcDbEntity
   8
LEVEL001
 370
13
 100
AcDbCircle
   6
CONTINUOUS
  62
7
  10
 2629.6067077710
  20
 1705.1123595506
  30
0.0
  40
 7.5000000000000
   0
LINE
   5
207
 100
AcDbEntity
   8
LEVEL001
 370
13
 100
AcDbLine
   6
DASHDOT
  62
6
  10
 2599.6067077710
  20
 1705.1123595506
  30
0.0
  11
 2659.6067077710
  21
 1705.1123595506
  31
0.0
   0
LINE
   5
208
 100
AcDbEntity
   8
LEVEL001
 370
13
 100
AcDbLine
   6
DASHDOT
  62
6
  10
 2569.6067234874
  20
 1605.1123595506
  30
0.0
  11
 2689.6067234874
  21
 1605.1123595506
  31
0.0
   0
LINE
   5
209
 100
AcDbEntity
   8
LEVEL001
 370
13
 100
AcDbLine
   6
CONTINUOUS
  62
7
  10
 2591.4567415730
  20
 1612.6123595506
  30
0.0
  11
 2519.6067234874
  21
 1612.6123595506
  31
0.0
   0
LINE
   5
20A
 100
AcDbEntity
   8
LEVEL001
 370
13
 100
AcDbLine
   6
CONTINUOUS
  62
7
  10
 2519.6067234874
  20
 1612.6123595506
  30
0.0
  11
 2519.6067234874
  21
 1597.6123595506
  31
0.0
   0
LINE
   5
20B
 100
AcDbEntity
   8
LEVEL001
 370
13
 100
AcDbLine
   6
CONTINUOUS
  62
7
  10
 2519.6067234874
  20
 1597.6123595506
  30
0.0
  11
 2591.4567415730
  21
 1597.6123595506
  31
0.0
   0
LINE
   5
20C
 100
AcDbEntity
   8
LEVEL001
 370
13
 100
AcDbLine
   6
CONTINUOUS
  62
7
  10
 2667.7567415730
  20
 1612.6123595506
  30
0.0
  11
 2739.6067234874
  21
 1612.6123595506
  31
0.0
   0
LINE
   5
20D
 100
AcDbEntity
   8
LEVEL001
 370
13
 100
AcDbLine
   6
CONTINUOUS
  62
7
  10
 2739.6067234874
  20
 1612.6123595506
  30
0.0
  11
 2739.6067234874
  21
 1597.6123595506
  31
0.0
   0
LINE
   5
20E
 100
AcDbEntity
   8
LEVEL001
 370
13
 100
AcDbLine
   6
CONTINUOUS
  62
7
  10
 2739.6067234874
  20
 1597.6123595506
  30
0.0
  11
 2667.7567415730
  21
 1597.6123595506
  31
0.0
   0
CIRCLE
   5
20F
 100
AcDbEntity
   8
LEVEL001
 370
13
 100
AcDbCircle
   6
CONTINUOUS
  62
1
  10
 2254.6067415730
  20
 1455.1123595506
  30
0.0
  40
 70.000000000000
   0
LINE
   5
210
 100
AcDbEntity
   8
LEVEL001
 370
13
 100
AcDbLine
   6
DOT
  62
1
  10
 2667.7567415730
  20
 1597.6123595506
  30
0.0
  11
 2591.4567415730
  21
 1597.6123595506
  31
0.0
   0
LINE
   5
211
 100
AcDbEntity
   8
LEVEL001
 370
13
 100
AcDbLine
   6
DOT
  62
1
  10
 2591.4567415730
  20
 1612.6123595506
  30
0.0
  11
 2667.7567415730
  21
 1612.6123595506
  31
0.0
   0
MTEXT
   5
212
 100
AcDbEntity
   8
LEVEL001
 370
13
  62
1
 100
AcDbMText
  10
 2254.6067415730
  20
 1455.1123595506
  30
0.0
  40
 57.142857142858
  41
0.0
  71
5
  72
1
   1
\T1.000000;10
   7
GMM001
  44
 0.79999984000003
   0
LEADER
   5
213
 100
AcDbEntity
   8
LEVEL001
 370
13
   6
CONTINUOUS
  62
1
 100
AcDbLeader
   3
GMM002
  73
3
  74
1
  75
0
  40
 60.000000000000
  41
0.0
  76
2
  10
 2979.6067415730
  20
 4909.1123595506
  30
0.0
  10
 3139.0563942172
  20
 5130.5538866538
  30
0.0
  77
1
   0
MTEXT
   5
214
 100
AcDbEntity
   8
LEVEL001
 370
13
  62
1
 100
AcDbMText
  10
 4479.6067415730
  20
 5537.6123595506
  30
0.0
  40
 57.142857142858
  41
0.0
  71
5
  72
1
   1
\T1.000000;背　面　図
   7
GMM001
  44
 0.79999984000003
   0
MTEXT
   5
215
 100
AcDbEntity
   8
LEVEL001
 370
13
  62
1
 100
AcDbMText
  10
 2979.6067415730
  20
 5537.6123595506
  30
0.0
  40
 57.142857142858
  41
0.0
  71
5
  72
1
   1
\T1.000000;側　面　図
   7
GMM001
  44
 0.79999984000003
   0
MTEXT
   5
216
 100
AcDbEntity
   8
LEVEL001
 370
13
  62
1
 100
AcDbMText
  10
 1479.6067415730
  20
 5537.6123595506
  30
0.0
  40
 57.142857142858
  41
0.0
  71
5
  72
1
   1
\T1.000000;正　面　図
   7
GMM001
  44
 0.79999984000003
   0
LEADER
   5
217
 100
AcDbEntity
   8
LEVEL001
 370
13
   6
CONTINUOUS
  62
1
 100
AcDbLeader
   3
GMM002
  73
3
  74
1
  75
0
  40
 60.000000000000
  41
0.0
  76
2
  10
 2713.6233788322
  20
 5049.1123595506
  30
0.0
  10
 2346.3808858246
  20
 5166.6072799888
  30
0.0
  77
1
   0
MTEXT
   5
218
 100
AcDbEntity
   8
LEVEL001
 370
13
  62
1
 100
AcDbMText
  10
 5539.6067415730
  20
 3257.6123595506
  30
0.0
  40
 57.142857142858
  41
0.0
  71
4
  72
1
   1
\T1.000000;ステンレスミラー　＜Ｚタイプ＞
   7
GMM001
  44
 0.79999984000003
   0
MTEXT
   5
219
 100
AcDbEntity
   8
LEVEL001
 370
13
  62
1
 100
AcDbMText
  10
 6759.6067415730
  20
 2677.6123595506
  30
0.0
  40
 51.428571428572
  41
0.0
  71
4
  72
1
   1
\T1.000000;高耐食溶融めっき鋼板
   7
GMM004
  44
 0.79999984000003
   0
LINE
   5
21A
 100
AcDbEntity
   8
LEVEL001
 370
13
 100
AcDbLine
   6
CONTINUOUS
  62
7
  10
 2577.7553553138
  20
 3926.5904735600
  30
0.0
  11
 2575.0414485504
  21
 3919.8057066512
  31
0.0
   0
ARC
   5
21B
 100
AcDbEntity
   8
LEVEL001
 370
13
   6
CONTINUOUS
  62
7
 100
AcDbCircle
  10
 2579.6838320048
  20
 3917.9487532694
  30
0.0
  40
 5.0000000000000
 100
AcDbArc
  50
 158.19859051386
  51
 180.00000000000
   0
LINE
   5
21C
 100
AcDbEntity
   8
LEVEL001
 370
13
 100
AcDbLine
   6
CONTINUOUS
  62
7
  10
 2574.6838320048
  20
 3917.9487532694
  30
0.0
  11
 2574.6838320048
  21
 3335.2321938490
  31
0.0
   0
LINE
   5
21D
 100
AcDbEntity
   8
LEVEL001
 370
13
 100
AcDbLine
   6
CONTINUOUS
  62
6
  10
 2581.6838320048
  20
 3855.5905345983
  30
0.0
  11
 2581.6838320048
  21
 3856.5904735592
  31
0.0
   0
ARC
   5
21E
 100
AcDbEntity
   8
LEVEL001
 370
13
   6
CONTINUOUS
  62
7
 100
AcDbCircle
  10
 2573.6838320048
  20
 3910.7428271010
  30
0.0
  40
 5.0000000000000
 100
AcDbArc
  50
0.0
  51
 21.801409486445
   0
LINE
   5
21F
 100
AcDbEntity
   8
LEVEL001
 370
13
 100
AcDbLine
   6
CONTINUOUS
  62
7
  10
 2576.5239446044
  20
 3917.1054576196
  30
0.0
  11
 2578.3262154592
  21
 3912.5997804827
  31
0.0
   0
ARC
   5
220
 100
AcDbEntity
   8
LEVEL001
 370
13
   6
CONTINUOUS
  62
7
 100
AcDbCircle
  10
 2581.1663280588
  20
 3918.9624110012
  30
0.0
  40
 5.0000000000000
 100
AcDbArc
  50
 158.19859051371
  51
 201.80140948629
   0
LINE
   5
221
 100
AcDbEntity
   8
LEVEL001
 370
13
 100
AcDbLine
   6
CONTINUOUS
  62
7
  10
 2577.7553553138
  20
 3926.5904735600
  30
0.0
  11
 2578.6838320048
  21
 3926.2190828838
  31
0.0
   0
LINE
   5
222
 100
AcDbEntity
   8
LEVEL001
 370
13
 100
AcDbLine
   6
CONTINUOUS
  62
7
  10
 2578.6838320048
  20
 3926.2190828838
  30
0.0
  11
 2576.5239446044
  21
 3920.8193643830
  31
0.0
   0
LINE
   5
223
 100
AcDbEntity
   8
LEVEL001
 370
13
 100
AcDbLine
   6
CONTINUOUS
  62
7
  10
 2578.6838320048
  20
 3910.7428271010
  30
0.0
  11
 2578.6838320048
  21
 3342.4381200176
  31
0.0
   0
LINE
   5
224
 100
AcDbEntity
   8
LEVEL001
 370
13
 100
AcDbLine
   6
CONTINUOUS
  62
7
  10
 2581.6838320048
  20
 3856.5904735592
  30
0.0
  11
 2578.6838320048
  21
 3856.5904735592
  31
0.0
   0
LINE
   5
225
 100
AcDbEntity
   8
LEVEL001
 370
13
 100
AcDbLine
   6
CONTINUOUS
  62
6
  10
 2578.6838320048
  20
 3855.5905345983
  30
0.0
  11
 2581.6838320048
  21
 3855.5905345983
  31
0.0
   0
LINE
   5
226
 100
AcDbEntity
   8
LEVEL001
 370
13
 100
AcDbLine
   6
CONTINUOUS
  62
7
  10
 2582.1393107838
  20
 3841.5901074068
  30
0.0
  11
 2582.1397685478
  21
 3799.5901991234
  31
0.0
   0
ELLIPSE
   5
227
 100
AcDbEntity
   8
LEVEL001
 370
13
   6
CONTINUOUS
  62
7
 100
AcDbEllipse
  10
 2578.1393082340
  20
 3841.5902293580
  30
0.0
  11
-4.0000025516047
  21
0.0
  31
0.0
  40
 0.99999938800000
  41
 3.1415621657857
  42
-1.7073511820429
   0
LINE
   5
228
 100
AcDbEntity
   8
LEVEL001
 370
13
 100
AcDbLine
   6
CONTINUOUS
  62
6
  10
 2581.6838320048
  20
 3784.5904738402
  30
0.0
  11
 2581.6838320048
  21
 3785.5905043538
  31
0.0
   0
LINE
   5
229
 100
AcDbEntity
   8
LEVEL001
 370
13
 100
AcDbLine
   6
CONTINUOUS
  62
6
  10
 2581.6838320048
  20
 3785.5905043538
  30
0.0
  11
 2578.6838320048
  21
 3785.5905043538
  31
0.0
   0
ELLIPSE
   5
22A
 100
AcDbEntity
   8
LEVEL001
 370
13
   6
CONTINUOUS
  62
7
 100
AcDbEllipse
  10
 2578.1397659966
  20
 3799.5902602760
  30
0.0
  11
-4.0000025516047
  21
0.0
  31
0.0
  40
 0.99999938800000
  41
 1.7072356670378
  42
 3.1415773654681
   0
LINE
   5
22B
 100
AcDbEntity
   8
LEVEL001
 370
13
 100
AcDbLine
   6
CONTINUOUS
  62
7
  10
 2578.6838320048
  20
 3784.5904738402
  30
0.0
  11
 2581.6838320048
  21
 3784.5904738402
  31
0.0
   0
LINE
   5
22C
 100
AcDbEntity
   8
LEVEL001
 370
13
 100
AcDbLine
   6
CONTINUOUS
  62
7
  10
 2582.1393380278
  20
 3839.0904738402
  30
0.0
  11
 2687.6838320048
  21
 3839.0904738402
  31
0.0
   0
LINE
   5
22D
 100
AcDbEntity
   8
LEVEL001
 370
13
 100
AcDbLine
   6
CONTINUOUS
  62
7
  10
 2687.6838320048
  20
 3839.0904738402
  30
0.0
  11
 2687.6838320048
  21
 3802.0904738402
  31
0.0
   0
LINE
   5
22E
 100
AcDbEntity
   8
LEVEL001
 370
13
 100
AcDbLine
   6
CONTINUOUS
  62
7
  10
 2687.6838320048
  20
 3802.0904738402
  30
0.0
  11
 2582.1397412968
  21
 3802.0904738402
  31
0.0
   0
LINE
   5
22F
 100
AcDbEntity
   8
LEVEL001
 370
13
 100
AcDbLine
   6
CONTINUOUS
  62
7
  10
 2578.6838320048
  20
 3802.0904738402
  30
0.0
  11
 2578.6838320048
  21
 3839.0904738402
  31
0.0
   0
LINE
   5
230
 100
AcDbEntity
   8
LEVEL001
 370
13
 100
AcDbLine
   6
CONTINUOUS
  62
7
  10
 2578.6838320048
  20
 3468.5904732784
  30
0.0
  11
 2581.6838320048
  21
 3468.5904732784
  31
0.0
   0
LINE
   5
231
 100
AcDbEntity
   8
LEVEL001
 370
13
 100
AcDbLine
   6
CONTINUOUS
  62
6
  10
 2581.6838320048
  20
 3468.5904732784
  30
0.0
  11
 2581.6838320048
  21
 3467.5904427646
  31
0.0
   0
LINE
   5
232
 100
AcDbEntity
   8
LEVEL001
 370
13
 100
AcDbLine
   6
CONTINUOUS
  62
6
  10
 2581.6838320048
  20
 3467.5904427646
  30
0.0
  11
 2578.6838320048
  21
 3467.5904427646
  31
0.0
   0
LINE
   5
233
 100
AcDbEntity
   8
LEVEL001
 370
13
 100
AcDbLine
   6
CONTINUOUS
  62
7
  10
 2582.1393107838
  20
 3411.5908397116
  30
0.0
  11
 2582.1397685478
  21
 3453.5907479950
  31
0.0
   0
ELLIPSE
   5
234
 100
AcDbEntity
   8
LEVEL001
 370
13
   6
CONTINUOUS
  62
7
 100
AcDbEllipse
  10
 2578.1397659966
  20
 3453.5906868426
  30
0.0
  11
-4.0000025516047
  21
0.0
  31
0.0
  40
 0.99999938800000
  41
-3.1415773654608
  42
-1.7072356670373
   0
LINE
   5
235
 100
AcDbEntity
   8
LEVEL001
 370
13
 100
AcDbLine
   6
CONTINUOUS
  62
6
  10
 2581.6838320048
  20
 3397.5904125202
  30
0.0
  11
 2581.6838320048
  21
 3396.5904735592
  31
0.0
   0
LINE
   5
236
 100
AcDbEntity
   8
LEVEL001
 370
13
 100
AcDbLine
   6
CONTINUOUS
  62
6
  10
 2578.6838320048
  20
 3397.5904125202
  30
0.0
  11
 2581.6838320048
  21
 3397.5904125202
  31
0.0
   0
ELLIPSE
   5
237
 100
AcDbEntity
   8
LEVEL001
 370
13
   6
CONTINUOUS
  62
7
 100
AcDbEllipse
  10
 2578.1393082340
  20
 3411.5907177604
  30
0.0
  11
-4.0000025516047
  21
0.0
  31
0.0
  40
 0.99999938800000
  41
 1.7073511820429
  42
-3.1415621657857
   0
LINE
   5
238
 100
AcDbEntity
   8
LEVEL001
 370
13
 100
AcDbLine
   6
CONTINUOUS
  62
7
  10
 2581.6838320048
  20
 3396.5904735592
  30
0.0
  11
 2578.6838320048
  21
 3396.5904735592
  31
0.0
   0
ARC
   5
239
 100
AcDbEntity
   8
LEVEL001
 370
13
   6
CONTINUOUS
  62
7
 100
AcDbCircle
  10
 2579.6838320048
  20
 3335.2321938490
  30
0.0
  40
 5.0000000000000
 100
AcDbArc
  50
 180.00000000000
  51
 201.80140948644
   0
LINE
   5
23A
 100
AcDbEntity
   8
LEVEL001
 370
13
 100
AcDbLine
   6
CONTINUOUS
  62
7
  10
 2577.7553553138
  20
 3326.5904735584
  30
0.0
  11
 2575.0414485504
  21
 3333.3752404674
  31
0.0
   0
ARC
   5
23B
 100
AcDbEntity
   8
LEVEL001
 370
13
   6
CONTINUOUS
  62
7
 100
AcDbCircle
  10
 2573.6838320048
  20
 3342.4381200176
  30
0.0
  40
 5.0000000000000
 100
AcDbArc
  50
 338.19859051386
  51
0.0
   0
LINE
   5
23C
 100
AcDbEntity
   8
LEVEL001
 370
13
 100
AcDbLine
   6
CONTINUOUS
  62
7
  10
 2576.5239446044
  20
 3336.0754894990
  30
0.0
  11
 2578.3262154592
  21
 3340.5811666358
  31
0.0
   0
ARC
   5
23D
 100
AcDbEntity
   8
LEVEL001
 370
13
   6
CONTINUOUS
  62
7
 100
AcDbCircle
  10
 2581.1663280588
  20
 3334.2185361172
  30
0.0
  40
 5.0000000000000
 100
AcDbArc
  50
 158.19859051356
  51
 201.80140948629
   0
LINE
   5
23E
 100
AcDbEntity
   8
LEVEL001
 370
13
 100
AcDbLine
   6
CONTINUOUS
  62
7
  10
 2577.7553553138
  20
 3326.5904735584
  30
0.0
  11
 2578.6838320048
  21
 3326.9618642348
  31
0.0
   0
LINE
   5
23F
 100
AcDbEntity
   8
LEVEL001
 370
13
 100
AcDbLine
   6
CONTINUOUS
  62
7
  10
 2578.6838320048
  20
 3326.9618642348
  30
0.0
  11
 2576.5239446044
  21
 3332.3615827354
  31
0.0
   0
LINE
   5
240
 100
AcDbEntity
   8
LEVEL001
 370
13
 100
AcDbLine
   6
CONTINUOUS
  62
7
  10
 2582.1397412968
  20
 3451.0904735592
  30
0.0
  11
 2687.6838369770
  21
 3451.0904735592
  31
0.0
   0
LINE
   5
241
 100
AcDbEntity
   8
LEVEL001
 370
13
 100
AcDbLine
   6
CONTINUOUS
  62
7
  10
 2687.6838369770
  20
 3451.0904735592
  30
0.0
  11
 2687.6838369770
  21
 3414.0904735592
  31
0.0
   0
LINE
   5
242
 100
AcDbEntity
   8
LEVEL001
 370
13
 100
AcDbLine
   6
CONTINUOUS
  62
7
  10
 2687.6838369770
  20
 3414.0904735592
  30
0.0
  11
 2582.1393380278
  21
 3414.0904735592
  31
0.0
   0
LINE
   5
243
 100
AcDbEntity
   8
LEVEL001
 370
13
 100
AcDbLine
   6
CONTINUOUS
  62
6
  10
 2666.5118379766
  20
 3426.0904735592
  30
0.0
  11
 2594.3926661510
  21
 3426.0904735592
  31
0.0
   0
LINE
   5
244
 100
AcDbEntity
   8
LEVEL001
 370
13
 100
AcDbLine
   6
CONTINUOUS
  62
6
  10
 2594.3926661510
  20
 3439.0904735592
  30
0.0
  11
 2666.5118379766
  21
 3439.0904735592
  31
0.0
   0
LINE
   5
245
 100
AcDbEntity
   8
LEVEL001
 370
13
 100
AcDbLine
   6
CONTINUOUS
  62
6
  10
 2666.5118379766
  20
 3449.0904735592
  30
0.0
  11
 2666.5118379766
  21
 3440.0904735591
  31
0.0
   0
LINE
   5
246
 100
AcDbEntity
   8
LEVEL001
 370
13
 100
AcDbLine
   6
CONTINUOUS
  62
6
  10
 2666.5118379766
  20
 3425.0904735591
  30
0.0
  11
 2666.5118379766
  21
 3416.0904735592
  31
0.0
   0
LINE
   5
247
 100
AcDbEntity
   8
LEVEL001
 370
13
 100
AcDbLine
   6
CONTINUOUS
  62
7
  10
 2682.6838369770
  20
 3427.5904735592
  30
0.0
  11
 2672.6838369770
  21
 3427.5904735592
  31
0.0
   0
LINE
   5
248
 100
AcDbEntity
   8
LEVEL001
 370
13
 100
AcDbLine
   6
CONTINUOUS
  62
7
  10
 2672.6838369770
  20
 3427.5904735592
  30
0.0
  11
 2672.6838369770
  21
 3437.5904735592
  31
0.0
   0
LINE
   5
249
 100
AcDbEntity
   8
LEVEL001
 370
13
 100
AcDbLine
   6
CONTINUOUS
  62
7
  10
 2672.6838369770
  20
 3437.5904735592
  30
0.0
  11
 2682.6838369770
  21
 3437.5904735592
  31
0.0
   0
LINE
   5
24A
 100
AcDbEntity
   8
LEVEL001
 370
13
 100
AcDbLine
   6
CONTINUOUS
  62
7
  10
 2682.6838369770
  20
 3437.5904735592
  30
0.0
  11
 2682.6838369770
  21
 3427.5904735592
  31
0.0
   0
LINE
   5
24B
 100
AcDbEntity
   8
LEVEL001
 370
13
 100
AcDbLine
   6
CONTINUOUS
  62
6
  10
 2668.8303630180
  20
 3439.0904735592
  30
0.0
  11
 2668.8303630180
  21
 3426.0904735592
  31
0.0
   0
LINE
   5
24C
 100
AcDbEntity
   8
LEVEL001
 370
13
 100
AcDbLine
   6
CONTINUOUS
  62
6
  10
 2593.1317715814
  20
 3438.0904735592
  30
0.0
  11
 2593.1317715814
  21
 3427.0904735592
  31
0.0
   0
LINE
   5
24D
 100
AcDbEntity
   8
LEVEL001
 370
13
 100
AcDbLine
   6
CONTINUOUS
  62
6
  10
 2593.1317715814
  20
 3449.0904735592
  30
0.0
  11
 2593.1317715814
  21
 3440.0904735591
  31
0.0
   0
LINE
   5
24E
 100
AcDbEntity
   8
LEVEL001
 370
13
 100
AcDbLine
   6
CONTINUOUS
  62
6
  10
 2593.1317715814
  20
 3425.0904735591
  30
0.0
  11
 2593.1317715814
  21
 3416.0904735592
  31
0.0
   0
LINE
   5
24F
 100
AcDbEntity
   8
LEVEL001
 370
13
 100
AcDbLine
   6
CONTINUOUS
  62
6
  10
 2666.5118330044
  20
 3837.0904738402
  30
0.0
  11
 2666.5118330044
  21
 3828.0904738402
  31
0.0
   0
LINE
   5
250
 100
AcDbEntity
   8
LEVEL001
 370
13
 100
AcDbLine
   6
CONTINUOUS
  62
6
  10
 2666.5118330044
  20
 3813.0904738402
  30
0.0
  11
 2666.5118330044
  21
 3804.0904738402
  31
0.0
   0
LINE
   5
251
 100
AcDbEntity
   8
LEVEL001
 370
13
 100
AcDbLine
   6
CONTINUOUS
  62
7
  10
 2682.6838320048
  20
 3815.5904738402
  30
0.0
  11
 2672.6838320048
  21
 3815.5904738402
  31
0.0
   0
LINE
   5
252
 100
AcDbEntity
   8
LEVEL001
 370
13
 100
AcDbLine
   6
CONTINUOUS
  62
7
  10
 2672.6838320048
  20
 3815.5904738402
  30
0.0
  11
 2672.6838320048
  21
 3825.5904738402
  31
0.0
   0
LINE
   5
253
 100
AcDbEntity
   8
LEVEL001
 370
13
 100
AcDbLine
   6
CONTINUOUS
  62
7
  10
 2672.6838320048
  20
 3825.5904738402
  30
0.0
  11
 2682.6838320048
  21
 3825.5904738402
  31
0.0
   0
LINE
   5
254
 100
AcDbEntity
   8
LEVEL001
 370
13
 100
AcDbLine
   6
CONTINUOUS
  62
7
  10
 2682.6838320048
  20
 3825.5904738402
  30
0.0
  11
 2682.6838320048
  21
 3815.5904738402
  31
0.0
   0
LINE
   5
255
 100
AcDbEntity
   8
LEVEL001
 370
13
 100
AcDbLine
   6
CONTINUOUS
  62
6
  10
 2668.8303580456
  20
 3827.0904738402
  30
0.0
  11
 2668.8303580456
  21
 3814.0904738402
  31
0.0
   0
LINE
   5
256
 100
AcDbEntity
   8
LEVEL001
 370
13
 100
AcDbLine
   6
CONTINUOUS
  62
6
  10
 2593.1317666090
  20
 3826.0904738402
  30
0.0
  11
 2593.1317666090
  21
 3815.0904738402
  31
0.0
   0
LINE
   5
257
 100
AcDbEntity
   8
LEVEL001
 370
13
 100
AcDbLine
   6
CONTINUOUS
  62
6
  10
 2593.1317666090
  20
 3813.0904738402
  30
0.0
  11
 2593.1317666090
  21
 3804.0904738402
  31
0.0
   0
LINE
   5
258
 100
AcDbEntity
   8
LEVEL001
 370
13
 100
AcDbLine
   6
CONTINUOUS
  62
6
  10
 2593.1317666090
  20
 3837.0904738402
  30
0.0
  11
 2593.1317666090
  21
 3828.0904738402
  31
0.0
   0
LINE
   5
259
 100
AcDbEntity
   8
LEVEL001
 370
13
 100
AcDbLine
   6
CONTINUOUS
  62
6
  10
 2666.5118330044
  20
 3814.0904738402
  30
0.0
  11
 2594.3926611786
  21
 3814.0904738402
  31
0.0
   0
LINE
   5
25A
 100
AcDbEntity
   8
LEVEL001
 370
13
 100
AcDbLine
   6
CONTINUOUS
  62
6
  10
 2594.3926611786
  20
 3827.0904738402
  30
0.0
  11
 2666.5118330044
  21
 3827.0904738402
  31
0.0
   0
LINE
   5
25B
 100
AcDbEntity
   8
LEVEL001
 370
13
 100
AcDbLine
   6
CONTINUOUS
  62
7
  10
 2667.7567415730
  20
 3451.0904735592
  30
0.0
  11
 2667.7567415730
  21
 3802.0904738402
  31
0.0
   0
LINE
   5
25C
 100
AcDbEntity
   8
LEVEL001
 370
13
 100
AcDbLine
   6
CONTINUOUS
  62
7
  10
 2591.4567415730
  20
 3802.0904738402
  30
0.0
  11
 2591.4567415730
  21
 3451.0904735592
  31
0.0
   0
ARC
   5
25D
 100
AcDbEntity
   8
LEVEL001
 370
13
   6
CONTINUOUS
  62
7
 100
AcDbCircle
  10
 2641.4567415730
  20
 4521.1342452610
  30
0.0
  40
 300.00000000000
 100
AcDbArc
  50
 322.12501634890
  51
0.0
   0
ARC
   5
25E
 100
AcDbEntity
   8
LEVEL001
 370
13
   6
DASHDOT
  62
6
 100
AcDbCircle
  10
 2641.4567415730
  20
 4521.1342452610
  30
0.0
  40
 338.15000000000
 100
AcDbArc
  50
 322.12501634890
  51
0.0
   0
ARC
   5
25F
 100
AcDbEntity
   8
LEVEL001
 370
13
   6
CONTINUOUS
  62
7
 100
AcDbCircle
  10
 2641.4567415730
  20
 4521.1342452610
  30
0.0
  40
 376.30000000000
 100
AcDbArc
  50
 322.12501634890
  51
0.0
   0
POINT
   5
260
 100
AcDbEntity
   8
LEVEL001
 100
AcDbPoint
  62
2
  10
 2979.6067415730
  20
 4405.1123595506
  30
0.0
   0
ARC
   5
261
 100
AcDbEntity
   8
LEVEL001
 370
13
   6
CONTINUOUS
  62
7
 100
AcDbCircle
  10
 2967.7567415730
  20
 3839.0904738402
  30
0.0
  40
 300.00000000000
 100
AcDbArc
  50
 142.12501634890
  51
 180.00000000000
   0
ARC
   5
262
 100
AcDbEntity
   8
LEVEL001
 370
13
   6
DASHDOT
  62
6
 100
AcDbCircle
  10
 2967.7567415730
  20
 3839.0904738402
  30
0.0
  40
 338.15000000000
 100
AcDbArc
  50
 142.12501634890
  51
 180.00000000000
   0
ARC
   5
263
 100
AcDbEntity
   8
LEVEL001
 370
13
   6
CONTINUOUS
  62
7
 100
AcDbCircle
  10
 2967.7567415730
  20
 3839.0904738402
  30
0.0
  40
 376.30000000000
 100
AcDbArc
  50
 142.12501634890
  51
 180.00000000000
   0
LINE
   5
264
 100
AcDbEntity
   8
LEVEL001
 370
13
 100
AcDbLine
   6
CONTINUOUS
  62
7
  10
 2730.9510763602
  20
 4023.2726578946
  30
0.0
  11
 2938.4899809718
  21
 4290.1083923954
  31
0.0
   0
POINT
   5
265
 100
AcDbEntity
   8
LEVEL001
 100
AcDbPoint
  62
2
  10
 2629.6067415730
  20
 3955.1123595506
  30
0.0
   0
LINE
   5
266
 100
AcDbEntity
   8
LEVEL001
 370
13
 100
AcDbLine
   6
DASHDOT
  62
6
  10
 2700.8372892672
  20
 4046.6944923002
  30
0.0
  11
 2908.3761938788
  21
 4313.5302268010
  31
0.0
   0
LEADER
   5
267
 100
AcDbEntity
   8
LEVEL001
 370
13
   6
CONTINUOUS
  62
1
 100
AcDbLeader
   3
GMM002
  73
3
  74
1
  75
0
  40
 60.000000000000
  41
0.0
  76
2
  10
 2687.6838369770
  20
 3451.0904735592
  30
0.0
  10
 3110.5940149580
  20
 3514.8753736820
  30
0.0
  77
1
   0
CIRCLE
   5
268
 100
AcDbEntity
   8
LEVEL001
 370
13
 100
AcDbCircle
   6
CONTINUOUS
  62
1
  10
 3179.6067415730
  20
 3526.5904735600
  30
0.0
  40
 70.000000000000
   0
CIRCLE
   5
269
 100
AcDbEntity
   8
LEVEL001
 370
13
 100
AcDbCircle
   6
CONTINUOUS
  62
1
  10
 3319.6067415730
  20
 3526.5904735600
  30
0.0
  40
 70.000000000000
   0
LINE
   5
26A
 100
AcDbEntity
   8
LEVEL001
 370
13
 100
AcDbLine
   6
CONTINUOUS
  62
7
  10
 3017.7567415730
  20
 4521.1342452610
  30
0.0
  11
 3017.7567415730
  21
 4682.6123595506
  31
0.0
   0
LINE
   5
26B
 100
AcDbEntity
   8
LEVEL001
 370
13
 100
AcDbLine
   6
CONTINUOUS
  62
7
  10
 2941.4567415730
  20
 4682.6123595506
  30
0.0
  11
 2941.4567415730
  21
 4521.1342452610
  31
0.0
   0
LINE
   5
26C
 100
AcDbEntity
   8
LEVEL001
 370
13
 100
AcDbLine
   6
CONTINUOUS
  62
7
  10
 2591.4567415730
  20
 3414.0904735592
  30
0.0
  11
 2591.4567415730
  21
 1305.1123595506
  31
0.0
   0
LINE
   5
26D
 100
AcDbEntity
   8
LEVEL001
 370
13
 100
AcDbLine
   6
CONTINUOUS
  62
7
  10
 2591.4567415730
  20
 1305.1123595506
  30
0.0
  11
 2667.7567415730
  21
 1305.1123595506
  31
0.0
   0
LINE
   5
26E
 100
AcDbEntity
   8
LEVEL001
 370
13
 100
AcDbLine
   6
CONTINUOUS
  62
7
  10
 2667.7567415730
  20
 1305.1123595506
  30
0.0
  11
 2667.7567415730
  21
 3414.0904735592
  31
0.0
   0
LINE
   5
26F
 100
AcDbEntity
   8
LEVEL001
 370
13
 100
AcDbLine
   6
DASHDOT
  62
6
  10
 2629.6067415730
  20
 3839.0904738402
  30
0.0
  11
 2629.6067415730
  21
 1005.1123595506
  31
0.0
   0
LINE
   5
270
 100
AcDbEntity
   8
LEVEL001
 370
13
 100
AcDbLine
   6
DASHDOT
  62
6
  10
 2979.6067415730
  20
 4961.3084038530
  30
0.0
  11
 2979.6067415730
  21
 4521.5435411142
  31
0.0
   0
ARC
   5
271
 100
AcDbEntity
   8
LEVEL001
 370
13
   6
CONTINUOUS
  62
7
 100
AcDbCircle
  10
 1549.6064344619
  20
 3906.5912583041
  30
0.0
  40
 20.000000000000
 100
AcDbArc
  50
0.0
  51
 90.000000000000
   0
LINE
   5
272
 100
AcDbEntity
   8
LEVEL001
 370
13
 100
AcDbLine
   6
CONTINUOUS
  62
7
  10
 1549.6064344619
  20
 3926.5912583041
  30
0.0
  11
 1409.6090503017
  21
 3926.5912583041
  31
0.0
   0
ARC
   5
273
 100
AcDbEntity
   8
LEVEL001
 370
13
   6
CONTINUOUS
  62
7
 100
AcDbCircle
  10
 1409.6090503017
  20
 3906.5912583041
  30
0.0
  40
 20.000000000000
 100
AcDbArc
  50
 90.000000000000
  51
 180.00000000000
   0
LINE
   5
274
 100
AcDbEntity
   8
LEVEL001
 370
13
 100
AcDbLine
   6
CONTINUOUS
  62
7
  10
 1389.6090503017
  20
 3906.5912583041
  30
0.0
  11
 1389.6090503017
  21
 3346.5904735584
  31
0.0
   0
LINE
   5
275
 100
AcDbEntity
   8
LEVEL001
 370
13
 100
AcDbLine
   6
CONTINUOUS
  62
7
  10
 1569.6064344619
  20
 3346.5904735584
  30
0.0
  11
 1569.6064344619
  21
 3906.5912583041
  31
0.0
   0
ARC
   5
276
 100
AcDbEntity
   8
LEVEL001
 370
13
   6
CONTINUOUS
  62
7
 100
AcDbCircle
  10
 1409.6090503017
  20
 3346.5904735584
  30
0.0
  40
 20.000000000000
 100
AcDbArc
  50
 180.00000000000
  51
 270.00000000000
   0
LINE
   5
277
 100
AcDbEntity
   8
LEVEL001
 370
13
 100
AcDbLine
   6
CONTINUOUS
  62
7
  10
 1409.6090503017
  20
 3326.5904735584
  30
0.0
  11
 1549.6064344619
  21
 3326.5904735584
  31
0.0
   0
ARC
   5
278
 100
AcDbEntity
   8
LEVEL001
 370
13
   6
CONTINUOUS
  62
7
 100
AcDbCircle
  10
 1549.6064344619
  20
 3346.5904735584
  30
0.0
  40
 20.000000000000
 100
AcDbArc
  50
 270.00000000000
  51
0.0
   0
CIRCLE
   5
279
 100
AcDbEntity
   8
LEVEL001
 370
13
 100
AcDbCircle
   6
CONTINUOUS
  62
1
  10
 1729.6067415730
  20
 3526.5912583041
  30
0.0
  40
 70.000000000000
   0
LINE
   5
27A
 100
AcDbEntity
   8
LEVEL001
 370
13
 100
AcDbLine
   6
CONTINUOUS
  62
7
  10
 1517.7567415730
  20
 3926.5912583041
  30
0.0
  11
 1517.7567415730
  21
 4407.4980959964
  31
0.0
   0
LINE
   5
27B
 100
AcDbEntity
   8
LEVEL001
 370
13
 100
AcDbLine
   6
CONTINUOUS
  62
7
  10
 1441.4567415730
  20
 4407.2879112138
  30
0.0
  11
 1441.4567415730
  21
 3926.5912583041
  31
0.0
   0
MTEXT
   5
27C
 100
AcDbEntity
   8
LEVEL001
 370
13
  62
1
 100
AcDbMText
  10
 1729.6067415730
  20
 3526.5912583041
  30
0.0
  40
 57.142857142858
  41
0.0
  71
5
  72
1
   1
\T1.000000;12
   7
GMM001
  44
 0.79999984000003
   0
LINE
   5
27D
 100
AcDbEntity
   8
LEVEL001
 370
13
 100
AcDbLine
   6
CONTINUOUS
  62
7
  10
 1441.4567415730
  20
 3326.5904735584
  30
0.0
  11
 1441.4567415730
  21
 1305.1123595506
  31
0.0
   0
LINE
   5
27E
 100
AcDbEntity
   8
LEVEL001
 370
13
 100
AcDbLine
   6
CONTINUOUS
  62
7
  10
 1441.4567415730
  20
 1305.1123595506
  30
0.0
  11
 1517.7567415730
  21
 1305.1123595506
  31
0.0
   0
LINE
   5
27F
 100
AcDbEntity
   8
LEVEL001
 370
13
 100
AcDbLine
   6
CONTINUOUS
  62
7
  10
 1517.7567415730
  20
 1305.1123595506
  30
0.0
  11
 1517.7567415730
  21
 3326.5904735584
  31
0.0
   0
MTEXT
   5
280
 100
AcDbEntity
   8
LEVEL001
 370
13
  62
1
 100
AcDbMText
  10
 3179.6067415730
  20
 3526.5904735600
  30
0.0
  40
 57.142857142858
  41
0.0
  71
5
  72
1
   1
\T1.000000;13
   7
GMM001
  44
 0.79999984000003
   0
MTEXT
   5
281
 100
AcDbEntity
   8
LEVEL001
 370
13
  62
1
 100
AcDbMText
  10
 3319.6067415730
  20
 3526.5904735600
  30
0.0
  40
 57.142857142858
  41
0.0
  71
5
  72
1
   1
\T1.000000;14
   7
GMM001
  44
 0.79999984000003
   0
LINE
   5
282
 100
AcDbEntity
   8
LEVEL001
 370
13
 100
AcDbLine
   6
CONTINUOUS
  62
7
  10
 2878.2624067858
  20
 4336.9520612066
  30
0.0
  11
 2670.7235021742
  21
 4070.1163267058
  31
0.0
   0
LEADER
   5
283
 100
AcDbEntity
   8
LEVEL001
 370
13
   6
CONTINUOUS
  62
1
 100
AcDbLeader
   3
GMM002
  73
3
  74
1
  75
0
  40
 60.000000000000
  41
0.0
  76
2
  10
 1569.6064344619
  20
 3626.5904735584
  30
0.0
  10
 1670.1819147875
  20
 3563.5870683576
  30
0.0
  77
1
   0
LWPOLYLINE
   5
284
 100
AcDbEntity
   8
0
 370
13
   6
CONTINUOUS
  62
2
 100
AcDbPolyline
  90
4
  70
1
  10
 5439.6067415730
  20
 937.61235955056
  10
 8079.6067415730
  20
 937.61235955056
  10
 8079.6067415730
  20
 3337.6123595506
  10
 5439.6067415730
  20
 3337.6123595506
   0
MTEXT
   5
285
 100
AcDbEntity
   8
LEVEL001
 370
13
  62
1
 100
AcDbMText
  10
 5611.6067415730
  20
 1117.6123595506
  30
0.0
  40
 51.428571428572
  41
0.0
  71
6
  72
1
   1
\T1.000000;１４
   7
GMM001
  44
 0.79999984000003
   0
MTEXT
   5
286
 100
AcDbEntity
   8
LEVEL001
 370
13
  62
1
 100
AcDbMText
  10
 5611.6067415730
  20
 1237.6123595506
  30
0.0
  40
 51.428571428572
  41
0.0
  71
6
  72
1
   1
\T1.000000;１３
   7
GMM001
  44
 0.79999984000003
   0
MTEXT
   5
287
 100
AcDbEntity
   8
LEVEL001
 370
13
  62
1
 100
AcDbMText
  10
 5611.6067415730
  20
 1357.6123595506
  30
0.0
  40
 51.428571428572
  41
0.0
  71
6
  72
1
   1
\T1.000000;１２
   7
GMM001
  44
 0.79999984000003
   0
MTEXT
   5
288
 100
AcDbEntity
   8
LEVEL001
 370
13
  62
1
 100
AcDbMText
  10
 5611.6067415730
  20
 1477.6123595506
  30
0.0
  40
 51.428571428572
  41
0.0
  71
6
  72
1
   1
\T1.000000;１１
   7
GMM001
  44
 0.79999984000003
   0
MTEXT
   5
289
 100
AcDbEntity
   8
LEVEL001
 370
13
  62
1
 100
AcDbMText
  10
 5611.6067415730
  20
 1597.6123595506
  30
0.0
  40
 51.428571428572
  41
0.0
  71
6
  72
1
   1
\T1.000000;１０
   7
GMM001
  44
 0.79999984000003
   0
MTEXT
   5
28A
 100
AcDbEntity
   8
LEVEL001
 370
13
  62
1
 100
AcDbMText
  10
 5679.6067415730
  20
 1117.6123595506
  30
0.0
  40
 51.428571428572
  41
0.0
  71
4
  72
1
   1
\T1.000000;同上ボルトナット
   7
GMM001
  44
 0.79999984000003
   0
MTEXT
   5
28B
 100
AcDbEntity
   8
LEVEL001
 370
13
  62
1
 100
AcDbMText
  10
 5679.6067415730
  20
 1237.6123595506
  30
0.0
  40
 51.428571428572
  41
0.0
  71
4
  72
1
   1
\T1.000000;注意板取付バンド
   7
GMM001
  44
 0.79999984000003
   0
MTEXT
   5
28C
 100
AcDbEntity
   8
LEVEL001
 370
13
  62
1
 100
AcDbMText
  10
 5679.6067415730
  20
 1357.6123595506
  30
0.0
  40
 51.428571428572
  41
0.0
  71
4
  72
1
   1
\T1.000000;注意板（大）
   7
GMM001
  44
 0.79999984000003
   0
MTEXT
   5
28D
 100
AcDbEntity
   8
LEVEL001
 370
13
  62
1
 100
AcDbMText
  10
 5679.6067415730
  20
 1477.6123595506
  30
0.0
  40
 51.428571428572
  41
0.0
  71
4
  72
1
   1
\T1.000000;キャップ
   7
GMM001
  44
 0.79999984000003
   0
MTEXT
   5
28E
 100
AcDbEntity
   8
LEVEL001
 370
13
  62
1
 100
AcDbMText
  10
 5679.6067415730
  20
 1597.6123595506
  30
0.0
  40
 51.428571428572
  41
0.0
  71
4
  72
1
   1
\T1.000000;根入れ鉄筋
   7
GMM001
  44
 0.79999984000003
   0
MTEXT
   5
28F
 100
AcDbEntity
   8
LEVEL001
 370
13
  62
1
 100
AcDbMText
  10
 6769.6067415730
  20
 1474.7595749423
  30
0.0
  40
 51.428571428572
  41
0.0
  71
4
  72
1
   1
\T1.000000;ＰＥ
   7
GMM001
  44
 0.79999984000003
   0
MTEXT
   5
290
 100
AcDbEntity
   8
LEVEL001
 370
13
  62
1
 100
AcDbMText
  10
 6759.6067415730
  20
 1597.6123595506
  30
0.0
  40
 51.428571428572
  41
0.0
  71
4
  72
1
   1
\T1.000000;ＳＤ２９５Ａ
   7
GMM001
  44
 0.79999984000003
   0
MTEXT
   5
291
 100
AcDbEntity
   8
LEVEL001
 370
13
  62
1
 100
AcDbMText
  10
 6691.6067415730
  20
 1357.6123595506
  30
0.0
  40
 51.428571428572
  41
0.0
  71
6
  72
1
   1
\T1.000000;１
   7
GMM001
  44
 0.79999984000003
   0
MTEXT
   5
292
 100
AcDbEntity
   8
LEVEL001
 370
13
  62
1
 100
AcDbMText
  10
 6691.6067415730
  20
 1477.6123595506
  30
0.0
  40
 51.428571428572
  41
0.0
  71
6
  72
1
   1
\T1.000000;１
   7
GMM001
  44
 0.79999984000003
   0
MTEXT
   5
293
 100
AcDbEntity
   8
LEVEL001
 370
13
  62
1
 100
AcDbMText
  10
 6691.6067415730
  20
 1597.6123595506
  30
0.0
  40
 51.428571428572
  41
0.0
  71
6
  72
1
   1
\T1.000000;１
   7
GMM001
  44
 0.79999984000003
   0
MTEXT
   5
294
 100
AcDbEntity
   8
0
 370
13
  62
1
 100
AcDbMText
  10
 6690.5857153271
  20
 1683.8812093050
  30
0.0
  40
 51.428571428571
  41
0.0
  71
9
  72
1
   1
\T1.000000;１
   7
GMM001
  44
 0.79999984000003
   0
MTEXT
   5
295
 100
AcDbEntity
   8
0
 370
13
  62
1
 100
AcDbMText
  10
 6759.1901327045
  20
 1683.8812093050
  30
0.0
  40
 51.428571428571
  41
0.0
  71
7
  72
1
   1
\T1.000000;ＳＴＫ４００
   7
GMM001
  44
 0.79999984000003
   0
MTEXT
   5
296
 100
AcDbEntity
   8
0
 370
13
  62
1
 100
AcDbMText
  10
 7320.9882708230
  20
 1723.4724305215
  30
0.0
  40
 34.285720000000
  41
0.0
  71
4
  72
1
   1
{\T1.000000;下地亜鉛メッキ}\P{\T1.000000;＋静電粉体塗装}
   7
GMM005
  44
 0.79999984000003
   0
MTEXT
   5
297
 100
AcDbEntity
   8
LEVEL001
 370
13
  62
1
 100
AcDbMText
  10
 6691.6067415730
  20
 1237.6123595506
  30
0.0
  40
 51.428571428572
  41
0.0
  71
6
  72
1
   1
\T1.000000;１式
   7
GMM001
  44
 0.79999984000003
   0
MTEXT
   5
298
 100
AcDbEntity
   8
LEVEL001
 370
13
  62
1
 100
AcDbMText
  10
 6691.6067415730
  20
 1117.6123595506
  30
0.0
  40
 51.428571428572
  41
0.0
  71
6
  72
1
   1
\T1.000000;１式
   7
GMM001
  44
 0.79999984000003
   0
MTEXT
   5
299
 100
AcDbEntity
   8
LEVEL001
 370
13
  62
1
 100
AcDbMText
  10
 6759.6067415730
  20
 1117.6123595506
  30
0.0
  40
 51.428571428572
  41
0.0
  71
4
  72
1
   1
\T1.000000;―
   7
GMM001
  44
 0.79999984000003
   0
MTEXT
   5
29A
 100
AcDbEntity
   8
LEVEL001
 370
13
  62
1
 100
AcDbMText
  10
 6759.6067415730
  20
 1237.6123595506
  30
0.0
  40
 51.428571428572
  41
0.0
  71
4
  72
1
   1
\T1.000000;―
   7
GMM001
  44
 0.79999984000003
   0
MTEXT
   5
29B
 100
AcDbEntity
   8
LEVEL001
 370
13
  62
1
 100
AcDbMText
  10
 6759.6067415730
  20
 1357.6123595506
  30
0.0
  40
 51.428571428572
  41
0.0
  71
4
  72
1
   1
\T1.000000;―
   7
GMM001
  44
 0.79999984000003
   0
MTEXT
   5
29C
 100
AcDbEntity
   8
LEVEL001
 370
13
  62
1
 100
AcDbMText
  10
 7319.6067415730
  20
 1237.6123595506
  30
0.0
  40
 51.428571428572
  41
0.0
  71
4
  72
1
   1
\T1.000000;―
   7
GMM001
  44
 0.79999984000003
   0
MTEXT
   5
29D
 100
AcDbEntity
   8
LEVEL001
 370
13
  62
1
 100
AcDbMText
  10
 7319.6067415730
  20
 1117.6123595506
  30
0.0
  40
 51.428571428572
  41
0.0
  71
4
  72
1
   1
\T1.000000;―
   7
GMM001
  44
 0.79999984000003
   0
LINE
   5
29E
 100
AcDbEntity
   8
0
 370
13
 100
AcDbLine
   6
CONTINUOUS
  62
6
  10
 6519.6067415730
  20
 1777.6123595506
  30
0.0
  11
 8079.6067415730
  21
 1777.6123595506
  31
0.0
   0
MTEXT
   5
29F
 100
AcDbEntity
   8
LEVEL001
 370
13
  62
1
 100
AcDbMText
  10
 5679.6067415730
  20
 3517.6123595506
  30
0.0
  40
 51.428580000000
  41
0.0
  71
1
  72
1
   1
{\T1.000000;※構成部材は改良のため、変更する場合があります。}\P{\T1.000000;※本図は道路反射鏡ハンドブックに基づいています。}
   7
GMM001
  44
 0.79999984000003
   0
LINE
   5
2A0
 100
AcDbEntity
   8
LEVEL001
 370
13
 100
AcDbLine
   6
CONTINUOUS
  62
2
  10
 5439.6067415730
  20
 717.61235955056
  30
0.0
  11
 7119.6067415730
  21
 717.61235955056
  31
0.0
   0
MTEXT
   5
2A1
 100
AcDbEntity
   8
LEVEL001
 370
13
  62
2
 100
AcDbMText
  10
 5449.6067415730
  20
 907.61235955056
  30
0.0
  40
 38.571428571428
  41
0.0
  71
4
  72
1
   1
\T1.370378;図面番号
   7
GMM001
  44
 0.79999984000003
   0
MTEXT
   5
2A2
 100
AcDbEntity
   8
LEVEL001
 370
13
  62
1
 100
AcDbMText
  10
 7320.1938167178
  20
 2730.6229738803
  30
0.0
  40
 34.285714285714
  41
0.0
  71
1
  72
1
   1
{\T1.000000;ＺＡＭ処理鋼板}\P{\T1.000000;プレス成型}
   7
GMM005
  44
 1.0099997980000
   0
POINT
   5
2A3
 100
AcDbEntity
   8
LEVEL001
 100
AcDbPoint
  62
3
  10
 6279.6067415730
  20
 777.61235955056
  30
0.0
   0
MTEXT
   5
2A4
 100
AcDbEntity
   8
LEVEL001
 370
13
  62
1
 100
AcDbMText
  10
 6279.6067415730
  20
 781.83110955056
  30
0.0
  40
 42.857142857142
  41
0.0
  71
5
  72
1
   1
\T1.000000;ＭＺＨ０６０ＳＵＰ
   7
GMM001
  44
 0.79999984000003
   0
LINE
   5
2A5
 100
AcDbEntity
   8
LEVEL001
 370
13
 100
AcDbLine
   6
CONTINUOUS
  62
5
  10
 1479.6067415617
  20
 3876.5938556218
  30
0.0
  11
 1424.6067432008
  21
 3806.5938577079
  31
0.0
   0
LINE
   5
2A6
 100
AcDbEntity
   8
LEVEL001
 370
13
 100
AcDbLine
   6
CONTINUOUS
  62
5
  10
 1424.6067432008
  20
 3806.5938577079
  30
0.0
  11
 1454.6067423068
  21
 3806.5938577079
  31
0.0
   0
LINE
   5
2A7
 100
AcDbEntity
   8
LEVEL001
 370
13
 100
AcDbLine
   6
CONTINUOUS
  62
5
  10
 1454.6067423068
  20
 3806.5938577079
  30
0.0
  11
 1454.6067423068
  21
 3776.5938586020
  31
0.0
   0
LINE
   5
2A8
 100
AcDbEntity
   8
LEVEL001
 370
13
 100
AcDbLine
   6
CONTINUOUS
  62
5
  10
 1454.6067423068
  20
 3776.5938586020
  30
0.0
  11
 1504.6067408166
  21
 3776.5938586020
  31
0.0
   0
LINE
   5
2A9
 100
AcDbEntity
   8
LEVEL001
 370
13
 100
AcDbLine
   6
CONTINUOUS
  62
5
  10
 1504.6067408166
  20
 3776.5938586020
  30
0.0
  11
 1504.6067408166
  21
 3806.5938577079
  31
0.0
   0
LINE
   5
2AA
 100
AcDbEntity
   8
LEVEL001
 370
13
 100
AcDbLine
   6
CONTINUOUS
  62
5
  10
 1504.6067408166
  20
 3806.5938577079
  30
0.0
  11
 1534.6067399226
  21
 3806.5938577079
  31
0.0
   0
LINE
   5
2AB
 100
AcDbEntity
   8
LEVEL001
 370
13
 100
AcDbLine
   6
CONTINUOUS
  62
5
  10
 1534.6067399226
  20
 3806.5938577079
  30
0.0
  11
 1479.6067415617
  21
 3876.5938556218
  31
0.0
   0
LINE
   5
2AC
 100
AcDbEntity
   8
LEVEL001
 370
13
 100
AcDbLine
   6
CONTINUOUS
  62
5
  10
 1409.9637993013
  20
 3710.5849494363
  30
0.0
  11
 1425.2329638853
  21
 3708.3303108318
  31
0.0
   0
ARC
   5
2AD
 100
AcDbEntity
   8
LEVEL001
 370
13
   6
CONTINUOUS
  62
5
 100
AcDbCircle
  10
 1423.8502520491
  20
 3687.7971048790
  30
0.0
  40
 20.579709393390
 100
AcDbArc
  50
 10.432218603622
  51
 86.147502468993
   0
ARC
   5
2AE
 100
AcDbEntity
   8
LEVEL001
 370
13
   6
CONTINUOUS
  62
5
 100
AcDbCircle
  10
 1430.2059139537
  20
 3691.2214601930
  30
0.0
  40
 13.887146297480
 100
AcDbArc
  50
 284.73811645764
  51
 1.2463330418669
   0
LINE
   5
2AF
 100
AcDbEntity
   8
LEVEL001
 370
13
 100
AcDbLine
   6
CONTINUOUS
  62
5
  10
 1433.7388230068
  20
 3677.7912187242
  30
0.0
  11
 1409.9637993013
  21
 3710.5849494363
  31
0.0
   0
ARC
   5
2B0
 100
AcDbEntity
   8
LEVEL001
 370
13
   6
CONTINUOUS
  62
5
 100
AcDbCircle
  10
 1417.5110092880
  20
 3650.9799509926
  30
0.0
  40
 20.228108756896
 100
AcDbArc
  50
 1.0517504590305
  51
 78.795792274248
   0
ARC
   5
2B1
 100
AcDbEntity
   8
LEVEL001
 370
13
   6
CONTINUOUS
  62
5
 100
AcDbCircle
  10
 1422.7674397935
  20
 3653.1297368924
  30
0.0
  40
 15.073557642890
 100
AcDbArc
  50
 288.65956808362
  51
 353.22403827745
   0
LINE
   5
2B2
 100
AcDbEntity
   8
LEVEL001
 370
13
 100
AcDbLine
   6
CONTINUOUS
  62
5
  10
 1412.3206717897
  20
 3624.8087373932
  30
0.0
  11
 1419.2893605468
  21
 3585.9685591072
  31
0.0
   0
LINE
   5
2B3
 100
AcDbEntity
   8
LEVEL001
 370
13
 100
AcDbLine
   6
CONTINUOUS
  62
5
  10
 1439.8881148157
  20
 3589.9652936074
  30
0.0
  11
 1436.7109298518
  21
 3607.0795509098
  31
0.0
   0
LINE
   5
2B4
 100
AcDbEntity
   8
LEVEL001
 370
13
 100
AcDbLine
   6
CONTINUOUS
  62
5
  10
 1436.7109298518
  20
 3607.0795509098
  30
0.0
  11
 1449.0085979424
  21
 3666.5183308766
  31
0.0
   0
LINE
   5
2B5
 100
AcDbEntity
   8
LEVEL001
 370
13
 100
AcDbLine
   6
CONTINUOUS
  62
5
  10
 1449.0085979424
  20
 3666.5183308766
  30
0.0
  11
 1426.1555102445
  21
 3616.6103428620
  31
0.0
   0
LINE
   5
2B6
 100
AcDbEntity
   8
LEVEL001
 370
13
 100
AcDbLine
   6
CONTINUOUS
  62
5
  10
 1426.1555102445
  20
 3616.6103428620
  30
0.0
  11
 1412.3206717897
  21
 3624.8087373932
  31
0.0
   0
ARC
   5
2B7
 100
AcDbEntity
   8
LEVEL001
 370
13
   6
CONTINUOUS
  62
5
 100
AcDbCircle
  10
 1534.3677805273
  20
 3645.2268592068
  30
0.0
  40
 5.0631766002424
 100
AcDbArc
  50
 274.72626205424
  51
 43.105625043079
   0
ARC
   5
2B8
 100
AcDbEntity
   8
LEVEL001
 370
13
   6
CONTINUOUS
  62
5
 100
AcDbCircle
  10
 1538.0074142346
  20
 3688.3758156700
  30
0.0
  40
 5.5826340442110
 100
AcDbArc
  50
 274.79665758012
  51
 36.910963374514
   0
LINE
   5
2B9
 100
AcDbEntity
   8
LEVEL001
 370
13
 100
AcDbLine
   6
CONTINUOUS
  62
5
  10
 1538.0643814211
  20
 3648.6867579218
  30
0.0
  11
 1521.6672871832
  21
 3661.7017416648
  31
0.0
   0
LINE
   5
2BA
 100
AcDbEntity
   8
LEVEL001
 370
13
 100
AcDbLine
   6
CONTINUOUS
  62
5
  10
 1521.6672871832
  20
 3661.7017416648
  30
0.0
  11
 1514.0836692451
  21
 3652.2734887718
  31
0.0
   0
LINE
   5
2BB
 100
AcDbEntity
   8
LEVEL001
 370
13
 100
AcDbLine
   6
CONTINUOUS
  62
5
  10
 1514.0836692451
  20
 3652.2734887718
  30
0.0
  11
 1501.2736110332
  21
 3652.2734887718
  31
0.0
   0
LINE
   5
2BC
 100
AcDbEntity
   8
LEVEL001
 370
13
 100
AcDbLine
   6
CONTINUOUS
  62
5
  10
 1501.2736110332
  20
 3652.2734887718
  30
0.0
  11
 1501.2736110332
  21
 3682.8127334672
  31
0.0
   0
LINE
   5
2BD
 100
AcDbEntity
   8
LEVEL001
 370
13
 100
AcDbLine
   6
CONTINUOUS
  62
5
  10
 1501.2736110332
  20
 3682.8127334672
  30
0.0
  11
 1538.4742324831
  21
 3682.8127334672
  31
0.0
   0
LINE
   5
2BE
 100
AcDbEntity
   8
LEVEL001
 370
13
 100
AcDbLine
   6
CONTINUOUS
  62
5
  10
 1542.4711195710
  20
 3691.7285962386
  30
0.0
  11
 1528.6359759404
  21
 3703.8211862102
  31
0.0
   0
LINE
   5
2BF
 100
AcDbEntity
   8
LEVEL001
 370
13
 100
AcDbLine
   6
CONTINUOUS
  62
5
  10
 1528.6359759404
  20
 3703.8211862102
  30
0.0
  11
 1516.7484640876
  21
 3693.7781567244
  31
0.0
   0
LINE
   5
2C0
 100
AcDbEntity
   8
LEVEL001
 370
13
 100
AcDbLine
   6
CONTINUOUS
  62
5
  10
 1516.7484640876
  20
 3693.7781567244
  30
0.0
  11
 1501.2736110332
  21
 3693.7781567244
  31
0.0
   0
LINE
   5
2C1
 100
AcDbEntity
   8
LEVEL001
 370
13
 100
AcDbLine
   6
CONTINUOUS
  62
5
  10
 1501.2736110332
  20
 3693.7781567244
  30
0.0
  11
 1501.2736110332
  21
 3709.2527046030
  31
0.0
   0
LINE
   5
2C2
 100
AcDbEntity
   8
LEVEL001
 370
13
 100
AcDbLine
   6
CONTINUOUS
  62
5
  10
 1501.2736110332
  20
 3709.2527046030
  30
0.0
  11
 1504.8606470591
  21
 3711.0973395578
  31
0.0
   0
LINE
   5
2C3
 100
AcDbEntity
   8
LEVEL001
 370
13
 100
AcDbLine
   6
CONTINUOUS
  62
5
  10
 1504.8606470591
  20
 3711.0973395578
  30
0.0
  11
 1505.1679590616
  21
 3713.7618292246
  31
0.0
   0
LINE
   5
2C4
 100
AcDbEntity
   8
LEVEL001
 370
13
 100
AcDbLine
   6
CONTINUOUS
  62
5
  10
 1505.1679590616
  20
 3713.7618292246
  30
0.0
  11
 1476.2684237901
  21
 3718.2709538460
  31
0.0
   0
LINE
   5
2C5
 100
AcDbEntity
   8
LEVEL001
 370
13
 100
AcDbLine
   6
CONTINUOUS
  62
5
  10
 1476.2684237901
  20
 3718.2709538460
  30
0.0
  11
 1476.2684237901
  21
 3693.7781567244
  31
0.0
   0
LINE
   5
2C6
 100
AcDbEntity
   8
LEVEL001
 370
13
 100
AcDbLine
   6
CONTINUOUS
  62
5
  10
 1476.2684237901
  20
 3693.7781567244
  30
0.0
  11
 1446.8564983971
  21
 3693.7781567244
  31
0.0
   0
LINE
   5
2C7
 100
AcDbEntity
   8
LEVEL001
 370
13
 100
AcDbLine
   6
CONTINUOUS
  62
5
  10
 1446.8564983971
  20
 3693.7781567244
  30
0.0
  11
 1451.2632365470
  21
 3682.8127334672
  31
0.0
   0
LINE
   5
2C8
 100
AcDbEntity
   8
LEVEL001
 370
13
 100
AcDbLine
   6
CONTINUOUS
  62
5
  10
 1451.2632365470
  20
 3682.8127334672
  30
0.0
  11
 1476.2684237901
  21
 3682.8127334672
  31
0.0
   0
LINE
   5
2C9
 100
AcDbEntity
   8
LEVEL001
 370
13
 100
AcDbLine
   6
CONTINUOUS
  62
5
  10
 1476.2684237901
  20
 3682.8127334672
  30
0.0
  11
 1476.2684237901
  21
 3652.2734887718
  31
0.0
   0
LINE
   5
2CA
 100
AcDbEntity
   8
LEVEL001
 370
13
 100
AcDbLine
   6
CONTINUOUS
  62
5
  10
 1476.2684237901
  20
 3652.2734887718
  30
0.0
  11
 1448.4962078209
  21
 3652.2734887718
  31
0.0
   0
LINE
   5
2CB
 100
AcDbEntity
   8
LEVEL001
 370
13
 100
AcDbLine
   6
CONTINUOUS
  62
5
  10
 1448.4962078209
  20
 3652.2734887718
  30
0.0
  11
 1453.4153360923
  21
 3640.1808988002
  31
0.0
   0
LINE
   5
2CC
 100
AcDbEntity
   8
LEVEL001
 370
13
 100
AcDbLine
   6
CONTINUOUS
  62
5
  10
 1453.4153360923
  20
 3640.1808988002
  30
0.0
  11
 1476.2684237901
  21
 3640.1808988002
  31
0.0
   0
LINE
   5
2CD
 100
AcDbEntity
   8
LEVEL001
 370
13
 100
AcDbLine
   6
CONTINUOUS
  62
5
  10
 1476.2684237901
  20
 3640.1808988002
  30
0.0
  11
 1476.2684237901
  21
 3595.2944255286
  31
0.0
   0
LINE
   5
2CE
 100
AcDbEntity
   8
LEVEL001
 370
13
 100
AcDbLine
   6
CONTINUOUS
  62
5
  10
 1476.2684237901
  20
 3595.2944255286
  30
0.0
  11
 1443.7821576684
  21
 3595.2944255286
  31
0.0
   0
LINE
   5
2CF
 100
AcDbEntity
   8
LEVEL001
 370
13
 100
AcDbLine
   6
CONTINUOUS
  62
5
  10
 1443.7821576684
  20
 3595.2944255286
  30
0.0
  11
 1449.2136760612
  21
 3583.2015303812
  31
0.0
   0
LINE
   5
2D0
 100
AcDbEntity
   8
LEVEL001
 370
13
 100
AcDbLine
   6
CONTINUOUS
  62
5
  10
 1449.2136760612
  20
 3583.2015303812
  30
0.0
  11
 1539.5914809849
  21
 3583.2015303812
  31
0.0
   0
LINE
   5
2D1
 100
AcDbEntity
   8
LEVEL001
 370
13
 100
AcDbLine
   6
CONTINUOUS
  62
5
  10
 1543.0460707257
  20
 3594.7243571862
  30
0.0
  11
 1527.7137347569
  21
 3604.8250648930
  31
0.0
   0
LINE
   5
2D2
 100
AcDbEntity
   8
LEVEL001
 370
13
 100
AcDbLine
   6
CONTINUOUS
  62
5
  10
 1527.7137347569
  20
 3604.8250648930
  30
0.0
  11
 1519.8228048163
  21
 3595.2944255286
  31
0.0
   0
LINE
   5
2D3
 100
AcDbEntity
   8
LEVEL001
 370
13
 100
AcDbLine
   6
CONTINUOUS
  62
5
  10
 1519.8228048163
  20
 3595.2944255286
  30
0.0
  11
 1501.2736110332
  21
 3595.2944255286
  31
0.0
   0
LINE
   5
2D4
 100
AcDbEntity
   8
LEVEL001
 370
13
 100
AcDbLine
   6
CONTINUOUS
  62
5
  10
 1501.2736110332
  20
 3595.2944255286
  30
0.0
  11
 1501.2736110332
  21
 3640.1808988002
  31
0.0
   0
LINE
   5
2D5
 100
AcDbEntity
   8
LEVEL001
 370
13
 100
AcDbLine
   6
CONTINUOUS
  62
5
  10
 1501.2736110332
  20
 3640.1808988002
  30
0.0
  11
 1534.7849625735
  21
 3640.1808988002
  31
0.0
   0
LINE
   5
2D6
 100
AcDbEntity
   8
LEVEL001
 370
13
 100
AcDbLine
   6
CONTINUOUS
  62
5
  10
 1406.5343518738
  20
 3673.1516789248
  30
0.0
  11
 1421.4414600920
  21
 3670.8225299672
  31
0.0
   0
LINE
   5
2D7
 100
AcDbEntity
   8
LEVEL001
 370
13
 100
AcDbLine
   6
CONTINUOUS
  62
5
  10
 1427.5901415494
  20
 3638.8485013790
  30
0.0
  11
 1406.5343518738
  21
 3671.1020961990
  31
0.0
   0
ARC
   5
2D8
 100
AcDbEntity
   8
LEVEL001
 370
13
   6
CONTINUOUS
  62
5
 100
AcDbCircle
  10
 1429.2717778684
  20
 3589.6005042938
  30
0.0
  40
 10.622602384609
 100
AcDbArc
  50
 199.99311911328
  51
 1.9679733411471
   0
ARC
   5
2D9
 100
AcDbEntity
   8
LEVEL001
 370
13
   6
CONTINUOUS
  62
5
 100
AcDbCircle
  10
 1539.5919602849
  20
 3589.4806500250
  30
0.0
  40
 6.2791196620726
 100
AcDbArc
  50
 269.99562647876
  51
 56.626490037724
   0
ARC
   5
2DA
 100
AcDbEntity
   8
LEVEL001
 370
13
   6
CONTINUOUS
  62
5
 100
AcDbCircle
  10
 1543.3644066369
  20
 3483.0121323886
  30
0.0
  40
 4.7515310421130
 100
AcDbArc
  50
 274.70409570313
  51
 59.112293256555
   0
ARC
   5
2DB
 100
AcDbEntity
   8
LEVEL001
 370
13
   6
CONTINUOUS
  62
5
 100
AcDbCircle
  10
 1450.2050834393
  20
 3482.6550737376
  30
0.0
  40
 22.293228438698
 100
AcDbArc
  50
 35.161132790332
  51
 78.641284698034
   0
ARC
   5
2DC
 100
AcDbEntity
   8
LEVEL001
 370
13
   6
CONTINUOUS
  62
5
 100
AcDbCircle
  10
 1462.0851244346
  20
 3493.7117856728
  30
0.0
  40
 6.5907971086860
 100
AcDbArc
  50
 312.23536417687
  51
 15.681870099121
   0
LINE
   5
2DD
 100
AcDbEntity
   8
LEVEL001
 370
13
 100
AcDbLine
   6
CONTINUOUS
  62
5
  10
 1466.5153112878
  20
 3488.8320263576
  30
0.0
  11
 1485.4423126768
  21
 3488.8320263576
  31
0.0
   0
LINE
   5
2DE
 100
AcDbEntity
   8
LEVEL001
 370
13
 100
AcDbLine
   6
CONTINUOUS
  62
5
  10
 1485.4423126768
  20
 3488.8320263576
  30
0.0
  11
 1495.8954984005
  21
 3504.5116523552
  31
0.0
   0
LINE
   5
2DF
 100
AcDbEntity
   8
LEVEL001
 370
13
 100
AcDbLine
   6
CONTINUOUS
  62
5
  10
 1495.8954984005
  20
 3504.5116523552
  30
0.0
  11
 1454.5957559790
  21
 3504.5116523552
  31
0.0
   0
ARC
   5
2E0
 100
AcDbEntity
   8
LEVEL001
 370
13
   6
CONTINUOUS
  62
5
 100
AcDbCircle
  10
 1533.9232092676
  20
 3509.6678259800
  30
0.0
  40
 5.1561789168066
 100
AcDbArc
  50
 269.91791191264
  51
 52.070025543603
   0
LINE
   5
2E1
 100
AcDbEntity
   8
LEVEL001
 370
13
 100
AcDbLine
   6
CONTINUOUS
  62
5
  10
 1545.8036390029
  20
 3487.0897778744
  30
0.0
  11
 1527.8696795765
  21
 3497.5429635980
  31
0.0
   0
LINE
   5
2E2
 100
AcDbEntity
   8
LEVEL001
 370
13
 100
AcDbLine
   6
CONTINUOUS
  62
5
  10
 1527.8696795765
  20
 3497.5429635980
  30
0.0
  11
 1521.3108418813
  21
 3488.8320263576
  31
0.0
   0
LINE
   5
2E3
 100
AcDbEntity
   8
LEVEL001
 370
13
 100
AcDbLine
   6
CONTINUOUS
  62
5
  10
 1521.3108418813
  20
 3488.8320263576
  30
0.0
  11
 1505.5619409835
  21
 3488.8320263576
  31
0.0
   0
LINE
   5
2E4
 100
AcDbEntity
   8
LEVEL001
 370
13
 100
AcDbLine
   6
CONTINUOUS
  62
5
  10
 1505.5619409835
  20
 3488.8320263576
  30
0.0
  11
 1514.6494651267
  21
 3497.0305734766
  31
0.0
   0
LINE
   5
2E5
 100
AcDbEntity
   8
LEVEL001
 370
13
 100
AcDbLine
   6
CONTINUOUS
  62
5
  10
 1514.6494651267
  20
 3497.0305734766
  30
0.0
  11
 1518.4412740957
  21
 3497.5429635980
  31
0.0
   0
LINE
   5
2E6
 100
AcDbEntity
   8
LEVEL001
 370
13
 100
AcDbLine
   6
CONTINUOUS
  62
5
  10
 1518.4412740957
  20
 3497.5429635980
  30
0.0
  11
 1520.0809835196
  21
 3499.8998360864
  31
0.0
   0
LINE
   5
2E7
 100
AcDbEntity
   8
LEVEL001
 370
13
 100
AcDbLine
   6
CONTINUOUS
  62
5
  10
 1520.0809835196
  20
 3499.8998360864
  30
0.0
  11
 1517.4164938528
  21
 3504.5116523552
  31
0.0
   0
LINE
   5
2E8
 100
AcDbEntity
   8
LEVEL001
 370
13
 100
AcDbLine
   6
CONTINUOUS
  62
5
  10
 1517.4164938528
  20
 3504.5116523552
  30
0.0
  11
 1533.9158219744
  21
 3504.5116523552
  31
0.0
   0
LINE
   5
2E9
 100
AcDbEntity
   8
LEVEL001
 370
13
 100
AcDbLine
   6
CONTINUOUS
  62
5
  10
 1537.0927017625
  20
 3513.7348271292
  30
0.0
  11
 1518.4412740957
  21
 3523.9827821459
  31
0.0
   0
LINE
   5
2EA
 100
AcDbEntity
   8
LEVEL001
 370
13
 100
AcDbLine
   6
CONTINUOUS
  62
5
  10
 1518.4412740957
  20
 3523.9827821459
  30
0.0
  11
 1512.2922874626
  21
 3514.4521427816
  31
0.0
   0
LINE
   5
2EB
 100
AcDbEntity
   8
LEVEL001
 370
13
 100
AcDbLine
   6
CONTINUOUS
  62
5
  10
 1512.2922874626
  20
 3514.4521427816
  30
0.0
  11
 1490.8738310697
  21
 3514.4521427816
  31
0.0
   0
LINE
   5
2EC
 100
AcDbEntity
   8
LEVEL001
 370
13
 100
AcDbLine
   6
CONTINUOUS
  62
5
  10
 1490.8738310697
  20
 3514.4521427816
  30
0.0
  11
 1490.8738310697
  21
 3520.8059023578
  31
0.0
   0
LINE
   5
2ED
 100
AcDbEntity
   8
LEVEL001
 370
13
 100
AcDbLine
   6
CONTINUOUS
  62
5
  10
 1490.8738310697
  20
 3520.8059023578
  30
0.0
  11
 1492.9984647954
  21
 3524.5038697770
  31
0.0
   0
LINE
   5
2EE
 100
AcDbEntity
   8
LEVEL001
 370
13
 100
AcDbLine
   6
CONTINUOUS
  62
5
  10
 1492.9984647954
  20
 3524.5038697770
  30
0.0
  11
 1492.1784574956
  21
 3526.2459656724
  31
0.0
   0
LINE
   5
2EF
 100
AcDbEntity
   8
LEVEL001
 370
13
 100
AcDbLine
   6
CONTINUOUS
  62
5
  10
 1492.1784574956
  20
 3526.2459656724
  30
0.0
  11
 1467.4058141909
  21
 3526.8523499316
  31
0.0
   0
LINE
   5
2F0
 100
AcDbEntity
   8
LEVEL001
 370
13
 100
AcDbLine
   6
CONTINUOUS
  62
5
  10
 1467.4058141909
  20
 3526.8523499316
  30
0.0
  11
 1467.4058141909
  21
 3514.4521427816
  31
0.0
   0
LINE
   5
2F1
 100
AcDbEntity
   8
LEVEL001
 370
13
 100
AcDbLine
   6
CONTINUOUS
  62
5
  10
 1467.4058141909
  20
 3514.4521427816
  30
0.0
  11
 1417.9435353916
  21
 3514.4521427816
  31
0.0
   0
LINE
   5
2F2
 100
AcDbEntity
   8
LEVEL001
 370
13
 100
AcDbLine
   6
CONTINUOUS
  62
5
  10
 1417.9435353916
  20
 3514.4521427816
  30
0.0
  11
 1422.4168018598
  21
 3504.5116523552
  31
0.0
   0
LINE
   5
2F3
 100
AcDbEntity
   8
LEVEL001
 370
13
 100
AcDbLine
   6
CONTINUOUS
  62
5
  10
 1422.4168018598
  20
 3504.5116523552
  30
0.0
  11
 1440.0437544595
  21
 3504.5116523552
  31
0.0
   0
LINE
   5
2F4
 100
AcDbEntity
   8
LEVEL001
 370
13
 100
AcDbLine
   6
CONTINUOUS
  62
5
  10
 1440.0437544595
  20
 3504.5116523552
  30
0.0
  11
 1449.9842448859
  21
 3488.8320263576
  31
0.0
   0
LINE
   5
2F5
 100
AcDbEntity
   8
LEVEL001
 370
13
 100
AcDbLine
   6
CONTINUOUS
  62
5
  10
 1449.9842448859
  20
 3488.8320263576
  30
0.0
  11
 1415.2689749244
  21
 3488.8320263576
  31
0.0
   0
LINE
   5
2F6
 100
AcDbEntity
   8
LEVEL001
 370
13
 100
AcDbLine
   6
CONTINUOUS
  62
5
  10
 1415.2689749244
  20
 3488.8320263576
  30
0.0
  11
 1420.1694874737
  21
 3478.2766067504
  31
0.0
   0
LINE
   5
2F7
 100
AcDbEntity
   8
LEVEL001
 370
13
 100
AcDbLine
   6
CONTINUOUS
  62
5
  10
 1420.1694874737
  20
 3478.2766067504
  30
0.0
  11
 1543.7540785171
  21
 3478.2766067504
  31
0.0
   0
ARC
   5
2F8
 100
AcDbEntity
   8
LEVEL001
 370
13
   6
CONTINUOUS
  62
5
 100
AcDbCircle
  10
 1439.5434763273
  20
 3454.2460900296
  30
0.0
  40
 31.206602120202
 100
AcDbArc
  50
 246.86700487446
  51
 289.54634462665
   0
LINE
   5
2F9
 100
AcDbEntity
   8
LEVEL001
 370
13
 100
AcDbLine
   6
CONTINUOUS
  62
5
  10
 1449.9842448859
  20
 3454.1936606908
  30
0.0
  11
 1449.9842448859
  21
 3460.6498067386
  31
0.0
   0
LINE
   5
2FA
 100
AcDbEntity
   8
LEVEL001
 370
13
 100
AcDbLine
   6
CONTINUOUS
  62
5
  10
 1449.9842448859
  20
 3460.6498067386
  30
0.0
  11
 1506.5534570672
  21
 3460.6498067386
  31
0.0
   0
LINE
   5
2FB
 100
AcDbEntity
   8
LEVEL001
 370
13
 100
AcDbLine
   6
CONTINUOUS
  62
5
  10
 1506.5534570672
  20
 3460.6498067386
  30
0.0
  11
 1506.5534570672
  21
 3454.1936606908
  31
0.0
   0
LINE
   5
2FC
 100
AcDbEntity
   8
LEVEL001
 370
13
 100
AcDbLine
   6
CONTINUOUS
  62
5
  10
 1506.5534570672
  20
 3454.1936606908
  30
0.0
  11
 1449.9842448859
  21
 3454.1936606908
  31
0.0
   0
LINE
   5
2FD
 100
AcDbEntity
   8
LEVEL001
 370
13
 100
AcDbLine
   6
CONTINUOUS
  62
5
  10
 1533.0961198504
  20
 3467.6184954958
  30
0.0
  11
 1513.1122947624
  21
 3476.6368973266
  31
0.0
   0
LINE
   5
2FE
 100
AcDbEntity
   8
LEVEL001
 370
13
 100
AcDbLine
   6
CONTINUOUS
  62
5
  10
 1513.1122947624
  20
 3476.6368973266
  30
0.0
  11
 1506.5534570672
  21
 3468.9507403290
  31
0.0
   0
LINE
   5
2FF
 100
AcDbEntity
   8
LEVEL001
 370
13
 100
AcDbLine
   6
CONTINUOUS
  62
5
  10
 1506.5534570672
  20
 3468.9507403290
  30
0.0
  11
 1449.9842448859
  21
 3468.9507403290
  31
0.0
   0
LINE
   5
300
 100
AcDbEntity
   8
LEVEL001
 370
13
 100
AcDbLine
   6
CONTINUOUS
  62
5
  10
 1449.9842448859
  20
 3468.9507403290
  30
0.0
  11
 1449.9842448859
  21
 3470.6929888122
  31
0.0
   0
LINE
   5
301
 100
AcDbEntity
   8
LEVEL001
 370
13
 100
AcDbLine
   6
CONTINUOUS
  62
5
  10
 1449.9842448859
  20
 3470.6929888122
  30
0.0
  11
 1427.3362353070
  21
 3475.3044999054
  31
0.0
   0
LINE
   5
302
 100
AcDbEntity
   8
LEVEL001
 370
13
 100
AcDbLine
   6
CONTINUOUS
  62
5
  10
 1427.3362353070
  20
 3475.3044999054
  30
0.0
  11
 1427.2834398984
  21
 3425.5486420132
  31
0.0
   0
LINE
   5
303
 100
AcDbEntity
   8
LEVEL001
 370
13
 100
AcDbLine
   6
CONTINUOUS
  62
5
  10
 1449.9842448859
  20
 3438.2065701028
  30
0.0
  11
 1449.9842448859
  21
 3445.0692102790
  31
0.0
   0
LINE
   5
304
 100
AcDbEntity
   8
LEVEL001
 370
13
 100
AcDbLine
   6
CONTINUOUS
  62
5
  10
 1449.9842448859
  20
 3445.0692102790
  30
0.0
  11
 1506.5534570672
  21
 3445.0692102790
  31
0.0
   0
LINE
   5
305
 100
AcDbEntity
   8
LEVEL001
 370
13
 100
AcDbLine
   6
CONTINUOUS
  62
5
  10
 1506.5534570672
  20
 3445.0692102790
  30
0.0
  11
 1506.5534570672
  21
 3438.2065701028
  31
0.0
   0
LINE
   5
306
 100
AcDbEntity
   8
LEVEL001
 370
13
 100
AcDbLine
   6
CONTINUOUS
  62
5
  10
 1506.5534570672
  20
 3438.2065701028
  30
0.0
  11
 1449.9842448859
  21
 3438.2065701028
  31
0.0
   0
ARC
   5
307
 100
AcDbEntity
   8
LEVEL001
 370
13
   6
CONTINUOUS
  62
5
 100
AcDbCircle
  10
 1529.5971443259
  20
 3465.0064026908
  30
0.0
  40
 4.3664469013676
 100
AcDbArc
  50
 266.15058922022
  51
 36.742470507494
   0
LINE
   5
308
 100
AcDbEntity
   8
LEVEL001
 370
13
 100
AcDbLine
   6
CONTINUOUS
  62
5
  10
 1449.9842448859
  20
 3424.8378876398
  30
0.0
  11
 1449.9842448859
  21
 3429.5983245096
  31
0.0
   0
LINE
   5
309
 100
AcDbEntity
   8
LEVEL001
 370
13
 100
AcDbLine
   6
CONTINUOUS
  62
5
  10
 1449.9842448859
  20
 3429.5983245096
  30
0.0
  11
 1506.5534570672
  21
 3429.5983245096
  31
0.0
   0
LINE
   5
30A
 100
AcDbEntity
   8
LEVEL001
 370
13
 100
AcDbLine
   6
CONTINUOUS
  62
5
  10
 1506.5534570672
  20
 3429.5983245096
  30
0.0
  11
 1506.5534570672
  21
 3424.6791962382
  31
0.0
   0
LINE
   5
30B
 100
AcDbEntity
   8
LEVEL001
 370
13
 100
AcDbLine
   6
CONTINUOUS
  62
5
  10
 1506.5534570672
  20
 3424.6791962382
  30
0.0
  11
 1523.4629414266
  21
 3424.6791962382
  31
0.0
   0
LINE
   5
30C
 100
AcDbEntity
   8
LEVEL001
 370
13
 100
AcDbLine
   6
CONTINUOUS
  62
5
  10
 1523.4629414266
  20
 3424.6791962382
  30
0.0
  11
 1527.1519061604
  21
 3426.7287567240
  31
0.0
   0
LINE
   5
30D
 100
AcDbEntity
   8
LEVEL001
 370
13
 100
AcDbLine
   6
CONTINUOUS
  62
5
  10
 1527.1519061604
  20
 3426.7287567240
  30
0.0
  11
 1529.3040057056
  21
 3431.1354948740
  31
0.0
   0
LINE
   5
30E
 100
AcDbEntity
   8
LEVEL001
 370
13
 100
AcDbLine
   6
CONTINUOUS
  62
5
  10
 1529.3040057056
  20
 3431.1354948740
  30
0.0
  11
 1529.2972918386
  21
 3460.6499593264
  31
0.0
   0
LINE
   5
30F
 100
AcDbEntity
   8
LEVEL001
 370
13
 100
AcDbLine
   6
CONTINUOUS
  62
5
  10
 1433.5166550447
  20
 3419.2476778454
  30
0.0
  11
 1433.0042649232
  21
 3414.1237766310
  31
0.0
   0
LINE
   5
310
 100
AcDbEntity
   8
LEVEL001
 370
13
 100
AcDbLine
   6
CONTINUOUS
  62
5
  10
 1433.0042649232
  20
 3414.1237766310
  30
0.0
  11
 1431.0569383211
  21
 3410.5368931930
  31
0.0
   0
LINE
   5
311
 100
AcDbEntity
   8
LEVEL001
 370
13
 100
AcDbLine
   6
CONTINUOUS
  62
5
  10
 1431.0569383211
  20
 3410.5368931930
  30
0.0
  11
 1419.9891285923
  21
 3396.8044412096
  31
0.0
   0
ARC
   5
312
 100
AcDbEntity
   8
LEVEL001
 370
13
   6
CONTINUOUS
  62
5
 100
AcDbCircle
  10
 1428.5213911070
  20
 3391.1926877414
  30
0.0
  40
 10.212310248246
 100
AcDbArc
  50
 146.66668479804
  51
 331.70163256433
   0
ARC
   5
313
 100
AcDbEntity
   8
LEVEL001
 370
13
   6
CONTINUOUS
  62
5
 100
AcDbCircle
  10
 1414.5333069268
  20
 3400.2504746370
  30
0.0
  40
 26.856307183018
 100
AcDbArc
  50
 328.83298190809
  51
 45.020901175858
   0
LINE
   5
314
 100
AcDbEntity
   8
LEVEL001
 370
13
 100
AcDbLine
   6
CONTINUOUS
  62
5
  10
 1517.1409201306
  20
 3422.0147065716
  30
0.0
  11
 1530.5656023477
  21
 3399.6740089952
  31
0.0
   0
ARC
   5
315
 100
AcDbEntity
   8
LEVEL001
 370
13
   6
CONTINUOUS
  62
5
 100
AcDbCircle
  10
 1522.8722394851
  20
 3389.4983382742
  30
0.0
  40
 8.7884995702356
 100
AcDbArc
  50
 268.04310640375
  51
 95.976315924688
   0
ARC
   5
316
 100
AcDbEntity
   8
LEVEL001
 370
13
   6
CONTINUOUS
  62
5
 100
AcDbCircle
  10
 1455.6712985158
  20
 3387.3245553416
  30
0.0
  40
 6.6095999893666
 100
AcDbArc
  50
 179.99949488494
  51
 269.90651577925
   0
LINE
   5
317
 100
AcDbEntity
   8
LEVEL001
 370
13
 100
AcDbLine
   6
CONTINUOUS
  62
5
  10
 1455.6605142480
  20
 3380.7149641500
  30
0.0
  11
 1522.5721333477
  21
 3380.7149641500
  31
0.0
   0
LINE
   5
318
 100
AcDbEntity
   8
LEVEL001
 370
13
 100
AcDbLine
   6
CONTINUOUS
  62
5
  10
 1521.9572041667
  20
 3398.2390725146
  30
0.0
  11
 1514.5786643476
  21
 3416.6857272382
  31
0.0
   0
LINE
   5
319
 100
AcDbEntity
   8
LEVEL001
 370
13
 100
AcDbLine
   6
CONTINUOUS
  62
5
  10
 1514.5786643476
  20
 3416.6857272382
  30
0.0
  11
 1514.3735862287
  21
 3406.4376196335
  31
0.0
   0
LINE
   5
31A
 100
AcDbEntity
   8
LEVEL001
 370
13
 100
AcDbLine
   6
CONTINUOUS
  62
5
  10
 1514.3735862287
  20
 3406.4376196335
  30
0.0
  11
 1511.6721702936
  21
 3398.2390725146
  31
0.0
   0
LINE
   5
31B
 100
AcDbEntity
   8
LEVEL001
 370
13
 100
AcDbLine
   6
CONTINUOUS
  62
5
  10
 1511.6721702936
  20
 3398.2390725146
  30
0.0
  11
 1471.8125523409
  21
 3398.2390725146
  31
0.0
   0
LINE
   5
31C
 100
AcDbEntity
   8
LEVEL001
 370
13
 100
AcDbLine
   6
CONTINUOUS
  62
5
  10
 1471.8125523409
  20
 3398.2390725146
  30
0.0
  11
 1471.8125523409
  21
 3414.1237766310
  31
0.0
   0
LINE
   5
31D
 100
AcDbEntity
   8
LEVEL001
 370
13
 100
AcDbLine
   6
CONTINUOUS
  62
5
  10
 1471.8125523409
  20
 3414.1237766310
  30
0.0
  11
 1473.8621128267
  21
 3417.0955783002
  31
0.0
   0
LINE
   5
31E
 100
AcDbEntity
   8
LEVEL001
 370
13
 100
AcDbLine
   6
CONTINUOUS
  62
5
  10
 1473.8621128267
  20
 3417.0955783002
  30
0.0
  11
 1472.0176304597
  21
 3419.2476778454
  31
0.0
   0
LINE
   5
31F
 100
AcDbEntity
   8
LEVEL001
 370
13
 100
AcDbLine
   6
CONTINUOUS
  62
5
  10
 1472.0176304597
  20
 3419.2476778454
  30
0.0
  11
 1449.0616985267
  21
 3422.3220185742
  31
0.0
   0
LINE
   5
320
 100
AcDbEntity
   8
LEVEL001
 370
13
 100
AcDbLine
   6
CONTINUOUS
  62
5
  10
 1449.0616985267
  20
 3422.3220185742
  30
0.0
  11
 1449.0616985267
  21
 3387.3246136114
  31
0.0
   0
LINE
   5
321
 100
AcDbEntity
   8
LEVEL001
 370
13
 100
AcDbLine
   6
CONTINUOUS
  62
5
  10
 1491.9178373862
  20
 3402.5432716050
  30
0.0
  11
 1477.7756869288
  21
 3423.8593415264
  31
0.0
   0
ARC
   5
322
 100
AcDbEntity
   8
LEVEL001
 370
13
   6
CONTINUOUS
  62
5
 100
AcDbCircle
  10
 1496.7981883430
  20
 3410.2627564836
  30
0.0
  40
 9.1328129430768
 100
AcDbArc
  50
 237.69843463472
  51
 18.768732377665
   0
ARC
   5
323
 100
AcDbEntity
   8
LEVEL001
 370
13
   6
CONTINUOUS
  62
5
 100
AcDbCircle
  10
 1479.2629130785
  20
 3385.9595035184
  30
0.0
  40
 37.929006876678
 100
AcDbArc
  50
 46.131549416320
  51
 92.247188603533
   0
ARC
   5
324
 100
AcDbEntity
   8
LEVEL001
 370
13
   6
CONTINUOUS
  62
5
 100
AcDbCircle
  10
 1536.3582223850
  20
 3406.4822166530
  30
0.0
  40
 8.9390233475260
 100
AcDbArc
  50
 229.60790187555
  51
 6.7933956221297
   0
ARC
   5
325
 100
AcDbEntity
   8
LEVEL001
 370
13
   6
CONTINUOUS
  62
5
 100
AcDbCircle
  10
 1521.0494808791
  20
 3395.4508810636
  30
0.0
  40
 27.037970213950
 100
AcDbArc
  50
 26.557897354809
  51
 98.092162593081
   0
LINE
   5
326
 100
AcDbEntity
   8
LEVEL001
 370
13
 100
AcDbLine
   6
CONTINUOUS
  62
5
  10
 1790.2869364197
  20
 1905.1123595506
  30
0.0
  11
 1737.7869364197
  21
 1852.6123595506
  31
0.0
   0
LINE
   5
327
 100
AcDbEntity
   8
LEVEL001
 370
13
 100
AcDbLine
   6
CONTINUOUS
  62
5
  10
 1753.6968389957
  20
 1852.6123595506
  30
0.0
  11
 1806.1968389957
  21
 1905.1123595506
  31
0.0
   0
LINE
   5
328
 100
AcDbEntity
   8
LEVEL001
 370
13
 100
AcDbLine
   6
CONTINUOUS
  62
5
  10
 1822.1067415734
  20
 1905.1123595506
  30
0.0
  11
 1769.6067415734
  21
 1852.6123595506
  31
0.0
   0
LINE
   5
329
 100
AcDbEntity
   8
LEVEL001
 370
13
 100
AcDbLine
   6
CONTINUOUS
  62
5
  10
 1785.5166441494
  20
 1852.6123595506
  30
0.0
  11
 1838.0166441494
  21
 1905.1123595506
  31
0.0
   0
LINE
   5
32A
 100
AcDbEntity
   8
LEVEL001
 370
13
 100
AcDbLine
   6
CONTINUOUS
  62
5
  10
 1842.7869364200
  20
 1852.6123595506
  30
0.0
  11
 1814.1517902847
  21
 1881.2475056859
  31
0.0
   0
LINE
   5
32B
 100
AcDbEntity
   8
LEVEL001
 370
13
 100
AcDbLine
   6
CONTINUOUS
  62
5
  10
 1822.1067415729
  20
 1889.2024569741
  30
0.0
  11
 1858.6968389964
  21
 1852.6123595506
  31
0.0
   0
LINE
   5
32C
 100
AcDbEntity
   8
LEVEL001
 370
13
 100
AcDbLine
   6
CONTINUOUS
  62
5
  10
 1874.6067415728
  20
 1852.6123595506
  30
0.0
  11
 1830.0616928611
  21
 1897.1574082623
  31
0.0
   0
LINE
   5
32D
 100
AcDbEntity
   8
LEVEL001
 370
13
 100
AcDbLine
   6
CONTINUOUS
  62
5
  10
 1838.0166441494
  20
 1905.1123595506
  30
0.0
  11
 1890.5166441496
  21
 1852.6123595506
  31
0.0
   0
LINE
   5
32E
 100
AcDbEntity
   8
LEVEL001
 370
13
 100
AcDbLine
   6
CONTINUOUS
  62
5
  10
 1890.5166441496
  20
 1852.6123595506
  30
0.0
  11
 1943.0166441496
  21
 1905.1123595506
  31
0.0
   0
LINE
   5
32F
 100
AcDbEntity
   8
LEVEL001
 370
13
 100
AcDbLine
   6
CONTINUOUS
  62
5
  10
 1895.2869364199
  20
 1905.1123595506
  30
0.0
  11
 1866.6517902847
  21
 1876.4772134154
  31
0.0
   0
LINE
   5
330
 100
AcDbEntity
   8
LEVEL001
 370
13
 100
AcDbLine
   6
CONTINUOUS
  62
5
  10
 1874.6067415727
  20
 1868.5222621274
  30
0.0
  11
 1911.1968389960
  21
 1905.1123595506
  31
0.0
   0
LINE
   5
331
 100
AcDbEntity
   8
LEVEL001
 370
13
 100
AcDbLine
   6
CONTINUOUS
  62
5
  10
 1927.1067415736
  20
 1905.1123595506
  30
0.0
  11
 1882.5616928615
  21
 1860.5673108386
  31
0.0
   0
LINE
   5
332
 100
AcDbEntity
   8
LEVEL001
 370
13
 100
AcDbLine
   6
CONTINUOUS
  62
5
  10
 1947.7869364202
  20
 1852.6123595506
  30
0.0
  11
 1919.1517902848
  21
 1881.2475056859
  31
0.0
   0
LINE
   5
333
 100
AcDbEntity
   8
LEVEL001
 370
13
 100
AcDbLine
   6
CONTINUOUS
  62
5
  10
 1927.1067415730
  20
 1889.2024569741
  30
0.0
  11
 1963.6968389966
  21
 1852.6123595506
  31
0.0
   0
LINE
   5
334
 100
AcDbEntity
   8
LEVEL001
 370
13
 100
AcDbLine
   6
CONTINUOUS
  62
5
  10
 1979.6067415730
  20
 1852.6123595506
  30
0.0
  11
 1935.0616928612
  21
 1897.1574082623
  31
0.0
   0
LINE
   5
335
 100
AcDbEntity
   8
LEVEL001
 370
13
 100
AcDbLine
   6
CONTINUOUS
  62
5
  10
 1943.0166441496
  20
 1905.1123595506
  30
0.0
  11
 1979.6067415730
  21
 1868.5222621273
  31
0.0
   0
LINE
   5
336
 100
AcDbEntity
   8
LEVEL001
 370
13
 100
AcDbLine
   6
CONTINUOUS
  62
5
  10
 1517.7567415730
  20
 1905.1123595506
  30
0.0
  11
 1979.6067415730
  21
 1905.1123595506
  31
0.0
   0
LINE
   5
337
 100
AcDbEntity
   8
LEVEL001
 370
13
 100
AcDbLine
   6
CONTINUOUS
  62
5
  10
 1729.6067415730
  20
 1105.1123595506
  30
0.0
  11
 1679.6067415730
  21
 1005.1123595506
  31
0.0
   0
LINE
   5
338
 100
AcDbEntity
   8
LEVEL001
 370
13
 100
AcDbLine
   6
CONTINUOUS
  62
5
  10
 1679.6067415730
  20
 1105.1123595506
  30
0.0
  11
 1719.6067415730
  21
 1085.1123595506
  31
0.0
   0
LINE
   5
339
 100
AcDbEntity
   8
LEVEL001
 370
13
 100
AcDbLine
   6
CONTINUOUS
  62
5
  10
 1679.6067415730
  20
 1105.1123595506
  30
0.0
  11
 1629.6067415730
  21
 1005.1123595506
  31
0.0
   0
LINE
   5
33A
 100
AcDbEntity
   8
LEVEL001
 370
13
 100
AcDbLine
   6
CONTINUOUS
  62
5
  10
 1629.6067415730
  20
 1105.1123595506
  30
0.0
  11
 1669.6067415730
  21
 1085.1123595506
  31
0.0
   0
LINE
   5
33B
 100
AcDbEntity
   8
LEVEL001
 370
13
 100
AcDbLine
   6
CONTINUOUS
  62
5
  10
 1629.6067415730
  20
 1105.1123595506
  30
0.0
  11
 1579.6067415730
  21
 1005.1123595506
  31
0.0
   0
LINE
   5
33C
 100
AcDbEntity
   8
LEVEL001
 370
13
 100
AcDbLine
   6
CONTINUOUS
  62
5
  10
 1579.6067415730
  20
 1105.1123595506
  30
0.0
  11
 1619.6067415730
  21
 1085.1123595506
  31
0.0
   0
LINE
   5
33D
 100
AcDbEntity
   8
LEVEL001
 370
13
 100
AcDbLine
   6
CONTINUOUS
  62
5
  10
 1729.6067415730
  20
 1005.1123595506
  30
0.0
  11
 1689.6067415730
  21
 1025.1123595506
  31
0.0
   0
LINE
   5
33E
 100
AcDbEntity
   8
LEVEL001
 370
13
 100
AcDbLine
   6
CONTINUOUS
  62
5
  10
 1679.6067415730
  20
 1005.1123595506
  30
0.0
  11
 1639.6067415730
  21
 1025.1123595506
  31
0.0
   0
LINE
   5
33F
 100
AcDbEntity
   8
LEVEL001
 370
13
 100
AcDbLine
   6
CONTINUOUS
  62
5
  10
 1629.6067415730
  20
 1005.1123595506
  30
0.0
  11
 1589.6067415730
  21
 1025.1123595506
  31
0.0
   0
LINE
   5
340
 100
AcDbEntity
   8
LEVEL001
 370
13
 100
AcDbLine
   6
CONTINUOUS
  62
5
  10
 1729.6067415730
  20
 1105.1123595506
  30
0.0
  11
 1229.6067415730
  21
 1105.1123595506
  31
0.0
   0
LINE
   5
341
 100
AcDbEntity
   8
LEVEL001
 370
13
 100
AcDbLine
   6
CONTINUOUS
  62
5
  10
 1229.6067415730
  20
 1005.1123595506
  30
0.0
  11
 1729.6067415730
  21
 1005.1123595506
  31
0.0
   0
LINE
   5
342
 100
AcDbEntity
   8
LEVEL001
 370
13
 100
AcDbLine
   6
CONTINUOUS
  62
5
  10
 1729.6067415730
  20
 1005.1123595506
  30
0.0
  11
 1729.6067415730
  21
 1105.1123595506
  31
0.0
   0
LINE
   5
343
 100
AcDbEntity
   8
LEVEL001
 370
13
 100
AcDbLine
   6
CONTINUOUS
  62
5
  10
 1229.6067415730
  20
 1105.1123595506
  30
0.0
  11
 1729.6067415730
  21
 1105.1123595506
  31
0.0
   0
LINE
   5
344
 100
AcDbEntity
   8
LEVEL001
 370
13
 100
AcDbLine
   6
CONTINUOUS
  62
5
  10
 1729.6067415730
  20
 1105.1123595506
  30
0.0
  11
 1729.6067415730
  21
 1905.1123595506
  31
0.0
   0
LINE
   5
345
 100
AcDbEntity
   8
LEVEL001
 370
13
 100
AcDbLine
   6
CONTINUOUS
  62
5
  10
 1729.6067415730
  20
 1752.3176986099
  30
0.0
  11
 1517.7567415730
  21
 1540.4676986099
  31
0.0
   0
LINE
   5
346
 100
AcDbEntity
   8
LEVEL001
 370
13
 100
AcDbLine
   6
CONTINUOUS
  62
5
  10
 1517.7567415730
  20
 1505.1123595506
  30
0.0
  11
 1729.6067415730
  21
 1716.9623595506
  31
0.0
   0
LINE
   5
347
 100
AcDbEntity
   8
LEVEL001
 370
13
 100
AcDbLine
   6
CONTINUOUS
  62
5
  10
 1729.6067415730
  20
 1681.6070204912
  30
0.0
  11
 1517.7567415730
  21
 1469.7570204912
  31
0.0
   0
LINE
   5
348
 100
AcDbEntity
   8
LEVEL001
 370
13
 100
AcDbLine
   6
CONTINUOUS
  62
5
  10
 1140.5166441496
  20
 1852.6123595506
  30
0.0
  11
 1193.0166441496
  21
 1905.1123595506
  31
0.0
   0
LINE
   5
349
 100
AcDbEntity
   8
LEVEL001
 370
13
 100
AcDbLine
   6
CONTINUOUS
  62
5
  10
 1124.6067415727
  20
 1868.5222621274
  30
0.0
  11
 1161.1968389959
  21
 1905.1123595506
  31
0.0
   0
LINE
   5
34A
 100
AcDbEntity
   8
LEVEL001
 370
13
 100
AcDbLine
   6
CONTINUOUS
  62
5
  10
 1177.1067415735
  20
 1905.1123595506
  30
0.0
  11
 1132.5616928615
  21
 1860.5673108386
  31
0.0
   0
LINE
   5
34B
 100
AcDbEntity
   8
LEVEL001
 370
13
 100
AcDbLine
   6
CONTINUOUS
  62
5
  10
 1197.7869364202
  20
 1852.6123595506
  30
0.0
  11
 1169.1517902849
  21
 1881.2475056859
  31
0.0
   0
LINE
   5
34C
 100
AcDbEntity
   8
LEVEL001
 370
13
 100
AcDbLine
   6
CONTINUOUS
  62
5
  10
 1177.1067415731
  20
 1889.2024569741
  30
0.0
  11
 1213.6968389966
  21
 1852.6123595506
  31
0.0
   0
LINE
   5
34D
 100
AcDbEntity
   8
LEVEL001
 370
13
 100
AcDbLine
   6
CONTINUOUS
  62
5
  10
 1229.6067415730
  20
 1852.6123595506
  30
0.0
  11
 1185.0616928613
  21
 1897.1574082623
  31
0.0
   0
LINE
   5
34E
 100
AcDbEntity
   8
LEVEL001
 370
13
 100
AcDbLine
   6
CONTINUOUS
  62
5
  10
 1040.2869364197
  20
 1905.1123595506
  30
0.0
  11
 987.78693641971
  21
 1852.6123595506
  31
0.0
   0
LINE
   5
34F
 100
AcDbEntity
   8
LEVEL001
 370
13
 100
AcDbLine
   6
CONTINUOUS
  62
5
  10
 1003.6968389957
  20
 1852.6123595506
  30
0.0
  11
 1056.1968389957
  21
 1905.1123595506
  31
0.0
   0
LINE
   5
350
 100
AcDbEntity
   8
LEVEL001
 370
13
 100
AcDbLine
   6
CONTINUOUS
  62
5
  10
 1072.1067415734
  20
 1905.1123595506
  30
0.0
  11
 1019.6067415734
  21
 1852.6123595506
  31
0.0
   0
LINE
   5
351
 100
AcDbEntity
   8
LEVEL001
 370
13
 100
AcDbLine
   6
CONTINUOUS
  62
5
  10
 1035.5166441494
  20
 1852.6123595506
  30
0.0
  11
 1088.0166441494
  21
 1905.1123595506
  31
0.0
   0
LINE
   5
352
 100
AcDbEntity
   8
LEVEL001
 370
13
 100
AcDbLine
   6
CONTINUOUS
  62
5
  10
 1092.7869364200
  20
 1852.6123595506
  30
0.0
  11
 1064.1517902847
  21
 1881.2475056859
  31
0.0
   0
LINE
   5
353
 100
AcDbEntity
   8
LEVEL001
 370
13
 100
AcDbLine
   6
CONTINUOUS
  62
5
  10
 1072.1067415729
  20
 1889.2024569741
  30
0.0
  11
 1108.6968389964
  21
 1852.6123595506
  31
0.0
   0
LINE
   5
354
 100
AcDbEntity
   8
LEVEL001
 370
13
 100
AcDbLine
   6
CONTINUOUS
  62
5
  10
 1124.6067415728
  20
 1852.6123595506
  30
0.0
  11
 1080.0616928611
  21
 1897.1574082623
  31
0.0
   0
LINE
   5
355
 100
AcDbEntity
   8
LEVEL001
 370
13
 100
AcDbLine
   6
CONTINUOUS
  62
5
  10
 1088.0166441494
  20
 1905.1123595506
  30
0.0
  11
 1140.5166441496
  21
 1852.6123595506
  31
0.0
   0
LINE
   5
356
 100
AcDbEntity
   8
LEVEL001
 370
13
 100
AcDbLine
   6
CONTINUOUS
  62
5
  10
 1145.2869364199
  20
 1905.1123595506
  30
0.0
  11
 1116.6517902847
  21
 1876.4772134154
  31
0.0
   0
LINE
   5
357
 100
AcDbEntity
   8
LEVEL001
 370
13
 100
AcDbLine
   6
CONTINUOUS
  62
5
  10
 1193.0166441496
  20
 1905.1123595506
  30
0.0
  11
 1229.6067415730
  21
 1868.5222621273
  31
0.0
   0
LINE
   5
358
 100
AcDbEntity
   8
LEVEL001
 370
13
 100
AcDbLine
   6
CONTINUOUS
  62
5
  10
 1229.6067415730
  20
 1905.1123595506
  30
0.0
  11
 1229.6067415730
  21
 1105.1123595506
  31
0.0
   0
LINE
   5
359
 100
AcDbEntity
   8
LEVEL001
 370
13
 100
AcDbLine
   6
CONTINUOUS
  62
5
  10
 1441.4567415730
  20
 1905.1123595506
  30
0.0
  11
 979.60674157303
  21
 1905.1123595506
  31
0.0
   0
LINE
   5
35A
 100
AcDbEntity
   8
LEVEL001
 370
13
 100
AcDbLine
   6
CONTINUOUS
  62
5
  10
 1379.6067415730
  20
 1105.1123595506
  30
0.0
  11
 1329.6067415730
  21
 1005.1123595506
  31
0.0
   0
LINE
   5
35B
 100
AcDbEntity
   8
LEVEL001
 370
13
 100
AcDbLine
   6
CONTINUOUS
  62
5
  10
 1329.6067415730
  20
 1105.1123595506
  30
0.0
  11
 1369.6067415730
  21
 1085.1123595506
  31
0.0
   0
LINE
   5
35C
 100
AcDbEntity
   8
LEVEL001
 370
13
 100
AcDbLine
   6
CONTINUOUS
  62
5
  10
 1329.6067415730
  20
 1105.1123595506
  30
0.0
  11
 1279.6067415730
  21
 1005.1123595506
  31
0.0
   0
LINE
   5
35D
 100
AcDbEntity
   8
LEVEL001
 370
13
 100
AcDbLine
   6
CONTINUOUS
  62
5
  10
 1279.6067415730
  20
 1105.1123595506
  30
0.0
  11
 1319.6067415730
  21
 1085.1123595506
  31
0.0
   0
LINE
   5
35E
 100
AcDbEntity
   8
LEVEL001
 370
13
 100
AcDbLine
   6
CONTINUOUS
  62
5
  10
 1379.6067415730
  20
 1005.1123595506
  30
0.0
  11
 1339.6067415730
  21
 1025.1123595506
  31
0.0
   0
LINE
   5
35F
 100
AcDbEntity
   8
LEVEL001
 370
13
 100
AcDbLine
   6
CONTINUOUS
  62
5
  10
 1329.6067415730
  20
 1005.1123595506
  30
0.0
  11
 1289.6067415730
  21
 1025.1123595506
  31
0.0
   0
LINE
   5
360
 100
AcDbEntity
   8
LEVEL001
 370
13
 100
AcDbLine
   6
CONTINUOUS
  62
5
  10
 1229.6067415730
  20
 1216.9623595506
  30
0.0
  11
 1441.4567415730
  21
 1428.8123595506
  31
0.0
   0
LINE
   5
361
 100
AcDbEntity
   8
LEVEL001
 370
13
 100
AcDbLine
   6
CONTINUOUS
  62
5
  10
 1441.4567415730
  20
 1393.4570204912
  30
0.0
  11
 1229.6067415730
  21
 1181.6070204912
  31
0.0
   0
LINE
   5
362
 100
AcDbEntity
   8
LEVEL001
 370
13
 100
AcDbLine
   6
CONTINUOUS
  62
5
  10
 1441.4567415730
  20
 1464.1676986099
  30
0.0
  11
 1229.6067415730
  21
 1252.3176986099
  31
0.0
   0
LINE
   5
363
 100
AcDbEntity
   8
LEVEL001
 370
13
 100
AcDbLine
   6
CONTINUOUS
  62
5
  10
 1279.6067415730
  20
 1105.1123595506
  30
0.0
  11
 1229.6067415730
  21
 1005.1123595506
  31
0.0
   0
LINE
   5
364
 100
AcDbEntity
   8
LEVEL001
 370
13
 100
AcDbLine
   6
CONTINUOUS
  62
5
  10
 1229.6067415730
  20
 1105.1123595506
  30
0.0
  11
 1269.6067415730
  21
 1085.1123595506
  31
0.0
   0
LINE
   5
365
 100
AcDbEntity
   8
LEVEL001
 370
13
 100
AcDbLine
   6
CONTINUOUS
  62
5
  10
 1279.6067415730
  20
 1005.1123595506
  30
0.0
  11
 1239.6067415730
  21
 1025.1123595506
  31
0.0
   0
LINE
   5
366
 100
AcDbEntity
   8
LEVEL001
 370
13
 100
AcDbLine
   6
CONTINUOUS
  62
5
  10
 1229.6067415730
  20
 1105.1123595506
  30
0.0
  11
 1229.6067415730
  21
 1005.1123595506
  31
0.0
   0
LINE
   5
367
 100
AcDbEntity
   8
LEVEL001
 370
13
 100
AcDbLine
   6
CONTINUOUS
  62
5
  10
 2529.6067415730
  20
 1105.1123595506
  30
0.0
  11
 2479.6067415730
  21
 1005.1123595506
  31
0.0
   0
LINE
   5
368
 100
AcDbEntity
   8
LEVEL001
 370
13
 100
AcDbLine
   6
CONTINUOUS
  62
5
  10
 2479.6067415730
  20
 1105.1123595506
  30
0.0
  11
 2519.6067415730
  21
 1085.1123595506
  31
0.0
   0
LINE
   5
369
 100
AcDbEntity
   8
LEVEL001
 370
13
 100
AcDbLine
   6
CONTINUOUS
  62
5
  10
 2479.6067415730
  20
 1105.1123595506
  30
0.0
  11
 2429.6067415730
  21
 1005.1123595506
  31
0.0
   0
LINE
   5
36A
 100
AcDbEntity
   8
LEVEL001
 370
13
 100
AcDbLine
   6
CONTINUOUS
  62
5
  10
 2429.6067415730
  20
 1105.1123595506
  30
0.0
  11
 2469.6067415730
  21
 1085.1123595506
  31
0.0
   0
LINE
   5
36B
 100
AcDbEntity
   8
LEVEL001
 370
13
 100
AcDbLine
   6
CONTINUOUS
  62
5
  10
 2429.6067415730
  20
 1105.1123595506
  30
0.0
  11
 2379.6067415730
  21
 1005.1123595506
  31
0.0
   0
LINE
   5
36C
 100
AcDbEntity
   8
LEVEL001
 370
13
 100
AcDbLine
   6
CONTINUOUS
  62
5
  10
 2379.6067415730
  20
 1105.1123595506
  30
0.0
  11
 2419.6067415730
  21
 1085.1123595506
  31
0.0
   0
LINE
   5
36D
 100
AcDbEntity
   8
LEVEL001
 370
13
 100
AcDbLine
   6
CONTINUOUS
  62
5
  10
 2529.6067415730
  20
 1005.1123595506
  30
0.0
  11
 2489.6067415730
  21
 1025.1123595506
  31
0.0
   0
LINE
   5
36E
 100
AcDbEntity
   8
LEVEL001
 370
13
 100
AcDbLine
   6
CONTINUOUS
  62
5
  10
 2479.6067415730
  20
 1005.1123595506
  30
0.0
  11
 2439.6067415730
  21
 1025.1123595506
  31
0.0
   0
LINE
   5
36F
 100
AcDbEntity
   8
LEVEL001
 370
13
 100
AcDbLine
   6
CONTINUOUS
  62
5
  10
 2429.6067415730
  20
 1005.1123595506
  30
0.0
  11
 2389.6067415730
  21
 1025.1123595506
  31
0.0
   0
LINE
   5
370
 100
AcDbEntity
   8
LEVEL001
 370
13
 100
AcDbLine
   6
CONTINUOUS
  62
5
  10
 2879.6067415730
  20
 1105.1123595506
  30
0.0
  11
 2379.6067415730
  21
 1105.1123595506
  31
0.0
   0
LINE
   5
371
 100
AcDbEntity
   8
LEVEL001
 370
13
 100
AcDbLine
   6
CONTINUOUS
  62
5
  10
 2379.6067415730
  20
 1105.1123595506
  30
0.0
  11
 2379.6067415730
  21
 1005.1123595506
  31
0.0
   0
LINE
   5
372
 100
AcDbEntity
   8
LEVEL001
 370
13
 100
AcDbLine
   6
CONTINUOUS
  62
5
  10
 2379.6067415730
  20
 1005.1123595506
  30
0.0
  11
 2879.6067415730
  21
 1005.1123595506
  31
0.0
   0
LINE
   5
373
 100
AcDbEntity
   8
LEVEL001
 370
13
 100
AcDbLine
   6
CONTINUOUS
  62
5
  10
 2379.6067415730
  20
 1905.1123595506
  30
0.0
  11
 2379.6067415730
  21
 1105.1123595506
  31
0.0
   0
LINE
   5
374
 100
AcDbEntity
   8
LEVEL001
 370
13
 100
AcDbLine
   6
CONTINUOUS
  62
5
  10
 2379.6067415730
  20
 1105.1123595506
  30
0.0
  11
 2879.6067415730
  21
 1105.1123595506
  31
0.0
   0
LINE
   5
375
 100
AcDbEntity
   8
LEVEL001
 370
13
 100
AcDbLine
   6
CONTINUOUS
  62
5
  10
 2379.6067415730
  20
 1216.9623595506
  30
0.0
  11
 2591.4567415730
  21
 1428.8123595506
  31
0.0
   0
LINE
   5
376
 100
AcDbEntity
   8
LEVEL001
 370
13
 100
AcDbLine
   6
CONTINUOUS
  62
5
  10
 2591.4567415730
  20
 1393.4570204912
  30
0.0
  11
 2379.6067415730
  21
 1181.6070204912
  31
0.0
   0
LINE
   5
377
 100
AcDbEntity
   8
LEVEL001
 370
13
 100
AcDbLine
   6
CONTINUOUS
  62
5
  10
 2591.4567415730
  20
 1464.1676986099
  30
0.0
  11
 2379.6067415730
  21
 1252.3176986099
  31
0.0
   0
LINE
   5
378
 100
AcDbEntity
   8
LEVEL001
 370
13
 100
AcDbLine
   6
CONTINUOUS
  62
5
  10
 2879.6067415730
  20
 1105.1123595506
  30
0.0
  11
 2829.6067415730
  21
 1005.1123595506
  31
0.0
   0
LINE
   5
379
 100
AcDbEntity
   8
LEVEL001
 370
13
 100
AcDbLine
   6
CONTINUOUS
  62
5
  10
 2829.6067415730
  20
 1105.1123595506
  30
0.0
  11
 2869.6067415730
  21
 1085.1123595506
  31
0.0
   0
LINE
   5
37A
 100
AcDbEntity
   8
LEVEL001
 370
13
 100
AcDbLine
   6
CONTINUOUS
  62
5
  10
 2829.6067415730
  20
 1105.1123595506
  30
0.0
  11
 2779.6067415730
  21
 1005.1123595506
  31
0.0
   0
LINE
   5
37B
 100
AcDbEntity
   8
LEVEL001
 370
13
 100
AcDbLine
   6
CONTINUOUS
  62
5
  10
 2779.6067415730
  20
 1105.1123595506
  30
0.0
  11
 2819.6067415730
  21
 1085.1123595506
  31
0.0
   0
LINE
   5
37C
 100
AcDbEntity
   8
LEVEL001
 370
13
 100
AcDbLine
   6
CONTINUOUS
  62
5
  10
 2779.6067415730
  20
 1105.1123595506
  30
0.0
  11
 2729.6067415730
  21
 1005.1123595506
  31
0.0
   0
LINE
   5
37D
 100
AcDbEntity
   8
LEVEL001
 370
13
 100
AcDbLine
   6
CONTINUOUS
  62
5
  10
 2729.6067415730
  20
 1105.1123595506
  30
0.0
  11
 2769.6067415730
  21
 1085.1123595506
  31
0.0
   0
LINE
   5
37E
 100
AcDbEntity
   8
LEVEL001
 370
13
 100
AcDbLine
   6
CONTINUOUS
  62
5
  10
 2879.6067415730
  20
 1005.1123595506
  30
0.0
  11
 2839.6067415730
  21
 1025.1123595506
  31
0.0
   0
LINE
   5
37F
 100
AcDbEntity
   8
LEVEL001
 370
13
 100
AcDbLine
   6
CONTINUOUS
  62
5
  10
 2829.6067415730
  20
 1005.1123595506
  30
0.0
  11
 2789.6067415730
  21
 1025.1123595506
  31
0.0
   0
LINE
   5
380
 100
AcDbEntity
   8
LEVEL001
 370
13
 100
AcDbLine
   6
CONTINUOUS
  62
5
  10
 2779.6067415730
  20
 1005.1123595506
  30
0.0
  11
 2739.6067415730
  21
 1025.1123595506
  31
0.0
   0
LINE
   5
381
 100
AcDbEntity
   8
LEVEL001
 370
13
 100
AcDbLine
   6
CONTINUOUS
  62
5
  10
 2879.6067415730
  20
 1005.1123595506
  30
0.0
  11
 2879.6067415730
  21
 1105.1123595506
  31
0.0
   0
LINE
   5
382
 100
AcDbEntity
   8
LEVEL001
 370
13
 100
AcDbLine
   6
CONTINUOUS
  62
5
  10
 2879.6067415730
  20
 1105.1123595506
  30
0.0
  11
 2879.6067415730
  21
 1905.1123595506
  31
0.0
   0
LINE
   5
383
 100
AcDbEntity
   8
LEVEL001
 370
13
 100
AcDbLine
   6
CONTINUOUS
  62
5
  10
 2879.6067415730
  20
 1752.3176986099
  30
0.0
  11
 2667.7567415730
  21
 1540.4676986099
  31
0.0
   0
LINE
   5
384
 100
AcDbEntity
   8
LEVEL001
 370
13
 100
AcDbLine
   6
CONTINUOUS
  62
5
  10
 2667.7567415730
  20
 1505.1123595506
  30
0.0
  11
 2879.6067415730
  21
 1716.9623595506
  31
0.0
   0
LINE
   5
385
 100
AcDbEntity
   8
LEVEL001
 370
13
 100
AcDbLine
   6
CONTINUOUS
  62
5
  10
 2879.6067415730
  20
 1681.6070204912
  30
0.0
  11
 2667.7567415730
  21
 1469.7570204912
  31
0.0
   0
LINE
   5
386
 100
AcDbEntity
   8
LEVEL001
 370
13
 100
AcDbLine
   6
CONTINUOUS
  62
5
  10
 2940.2869364196
  20
 1905.1123595506
  30
0.0
  11
 2887.7869364196
  21
 1852.6123595506
  31
0.0
   0
LINE
   5
387
 100
AcDbEntity
   8
LEVEL001
 370
13
 100
AcDbLine
   6
CONTINUOUS
  62
5
  10
 2903.6968389958
  20
 1852.6123595506
  30
0.0
  11
 2956.1968389958
  21
 1905.1123595506
  31
0.0
   0
LINE
   5
388
 100
AcDbEntity
   8
LEVEL001
 370
13
 100
AcDbLine
   6
CONTINUOUS
  62
5
  10
 2972.1067415734
  20
 1905.1123595506
  30
0.0
  11
 2919.6067415734
  21
 1852.6123595506
  31
0.0
   0
LINE
   5
389
 100
AcDbEntity
   8
LEVEL001
 370
13
 100
AcDbLine
   6
CONTINUOUS
  62
5
  10
 2935.5166441494
  20
 1852.6123595506
  30
0.0
  11
 2988.0166441494
  21
 1905.1123595506
  31
0.0
   0
LINE
   5
38A
 100
AcDbEntity
   8
LEVEL001
 370
13
 100
AcDbLine
   6
CONTINUOUS
  62
5
  10
 2992.7869364200
  20
 1852.6123595506
  30
0.0
  11
 2964.1517902846
  21
 1881.2475056859
  31
0.0
   0
LINE
   5
38B
 100
AcDbEntity
   8
LEVEL001
 370
13
 100
AcDbLine
   6
CONTINUOUS
  62
5
  10
 2972.1067415728
  20
 1889.2024569741
  30
0.0
  11
 3008.6968389964
  21
 1852.6123595506
  31
0.0
   0
LINE
   5
38C
 100
AcDbEntity
   8
LEVEL001
 370
13
 100
AcDbLine
   6
CONTINUOUS
  62
5
  10
 3024.6067415728
  20
 1852.6123595506
  30
0.0
  11
 2980.0616928610
  21
 1897.1574082623
  31
0.0
   0
LINE
   5
38D
 100
AcDbEntity
   8
LEVEL001
 370
13
 100
AcDbLine
   6
CONTINUOUS
  62
5
  10
 2988.0166441494
  20
 1905.1123595506
  30
0.0
  11
 3040.5166441496
  21
 1852.6123595506
  31
0.0
   0
LINE
   5
38E
 100
AcDbEntity
   8
LEVEL001
 370
13
 100
AcDbLine
   6
CONTINUOUS
  62
5
  10
 3040.5166441496
  20
 1852.6123595506
  30
0.0
  11
 3093.0166441496
  21
 1905.1123595506
  31
0.0
   0
LINE
   5
38F
 100
AcDbEntity
   8
LEVEL001
 370
13
 100
AcDbLine
   6
CONTINUOUS
  62
5
  10
 3045.2869364198
  20
 1905.1123595506
  30
0.0
  11
 3016.6517902846
  21
 1876.4772134154
  31
0.0
   0
LINE
   5
390
 100
AcDbEntity
   8
LEVEL001
 370
13
 100
AcDbLine
   6
CONTINUOUS
  62
5
  10
 3024.6067415728
  20
 1868.5222621274
  30
0.0
  11
 3061.1968389960
  21
 1905.1123595506
  31
0.0
   0
LINE
   5
391
 100
AcDbEntity
   8
LEVEL001
 370
13
 100
AcDbLine
   6
CONTINUOUS
  62
5
  10
 3077.1067415736
  20
 1905.1123595506
  30
0.0
  11
 3032.5616928616
  21
 1860.5673108386
  31
0.0
   0
LINE
   5
392
 100
AcDbEntity
   8
LEVEL001
 370
13
 100
AcDbLine
   6
CONTINUOUS
  62
5
  10
 3097.7869364202
  20
 1852.6123595506
  30
0.0
  11
 3069.1517902848
  21
 1881.2475056859
  31
0.0
   0
LINE
   5
393
 100
AcDbEntity
   8
LEVEL001
 370
13
 100
AcDbLine
   6
CONTINUOUS
  62
5
  10
 3077.1067415730
  20
 1889.2024569741
  30
0.0
  11
 3113.6968389966
  21
 1852.6123595506
  31
0.0
   0
LINE
   5
394
 100
AcDbEntity
   8
LEVEL001
 370
13
 100
AcDbLine
   6
CONTINUOUS
  62
5
  10
 3129.6067415730
  20
 1852.6123595506
  30
0.0
  11
 3085.0616928612
  21
 1897.1574082623
  31
0.0
   0
LINE
   5
395
 100
AcDbEntity
   8
LEVEL001
 370
13
 100
AcDbLine
   6
CONTINUOUS
  62
5
  10
 3093.0166441496
  20
 1905.1123595506
  30
0.0
  11
 3129.6067415730
  21
 1868.5222621273
  31
0.0
   0
LINE
   5
396
 100
AcDbEntity
   8
LEVEL001
 370
13
 100
AcDbLine
   6
CONTINUOUS
  62
5
  10
 2667.7567415730
  20
 1905.1123595506
  30
0.0
  11
 3129.6067415730
  21
 1905.1123595506
  31
0.0
   0
LINE
   5
397
 100
AcDbEntity
   8
LEVEL001
 370
13
 100
AcDbLine
   6
CONTINUOUS
  62
5
  10
 2290.5166441496
  20
 1852.6123595506
  30
0.0
  11
 2343.0166441496
  21
 1905.1123595506
  31
0.0
   0
LINE
   5
398
 100
AcDbEntity
   8
LEVEL001
 370
13
 100
AcDbLine
   6
CONTINUOUS
  62
5
  10
 2274.6067415728
  20
 1868.5222621274
  30
0.0
  11
 2311.1968389960
  21
 1905.1123595506
  31
0.0
   0
LINE
   5
399
 100
AcDbEntity
   8
LEVEL001
 370
13
 100
AcDbLine
   6
CONTINUOUS
  62
5
  10
 2327.1067415736
  20
 1905.1123595506
  30
0.0
  11
 2282.5616928616
  21
 1860.5673108386
  31
0.0
   0
LINE
   5
39A
 100
AcDbEntity
   8
LEVEL001
 370
13
 100
AcDbLine
   6
CONTINUOUS
  62
5
  10
 2347.7869364202
  20
 1852.6123595506
  30
0.0
  11
 2319.1517902848
  21
 1881.2475056859
  31
0.0
   0
LINE
   5
39B
 100
AcDbEntity
   8
LEVEL001
 370
13
 100
AcDbLine
   6
CONTINUOUS
  62
5
  10
 2327.1067415730
  20
 1889.2024569741
  30
0.0
  11
 2363.6968389966
  21
 1852.6123595506
  31
0.0
   0
LINE
   5
39C
 100
AcDbEntity
   8
LEVEL001
 370
13
 100
AcDbLine
   6
CONTINUOUS
  62
5
  10
 2379.6067415730
  20
 1852.6123595506
  30
0.0
  11
 2335.0616928612
  21
 1897.1574082623
  31
0.0
   0
LINE
   5
39D
 100
AcDbEntity
   8
LEVEL001
 370
13
 100
AcDbLine
   6
CONTINUOUS
  62
5
  10
 2190.2869364196
  20
 1905.1123595506
  30
0.0
  11
 2137.7869364196
  21
 1852.6123595506
  31
0.0
   0
LINE
   5
39E
 100
AcDbEntity
   8
LEVEL001
 370
13
 100
AcDbLine
   6
CONTINUOUS
  62
5
  10
 2153.6968389958
  20
 1852.6123595506
  30
0.0
  11
 2206.1968389958
  21
 1905.1123595506
  31
0.0
   0
LINE
   5
39F
 100
AcDbEntity
   8
LEVEL001
 370
13
 100
AcDbLine
   6
CONTINUOUS
  62
5
  10
 2222.1067415734
  20
 1905.1123595506
  30
0.0
  11
 2169.6067415734
  21
 1852.6123595506
  31
0.0
   0
LINE
   5
3A0
 100
AcDbEntity
   8
LEVEL001
 370
13
 100
AcDbLine
   6
CONTINUOUS
  62
5
  10
 2185.5166441494
  20
 1852.6123595506
  30
0.0
  11
 2238.0166441494
  21
 1905.1123595506
  31
0.0
   0
LINE
   5
3A1
 100
AcDbEntity
   8
LEVEL001
 370
13
 100
AcDbLine
   6
CONTINUOUS
  62
5
  10
 2242.7869364200
  20
 1852.6123595506
  30
0.0
  11
 2214.1517902846
  21
 1881.2475056859
  31
0.0
   0
LINE
   5
3A2
 100
AcDbEntity
   8
LEVEL001
 370
13
 100
AcDbLine
   6
CONTINUOUS
  62
5
  10
 2222.1067415728
  20
 1889.2024569741
  30
0.0
  11
 2258.6968389964
  21
 1852.6123595506
  31
0.0
   0
LINE
   5
3A3
 100
AcDbEntity
   8
LEVEL001
 370
13
 100
AcDbLine
   6
CONTINUOUS
  62
5
  10
 2274.6067415728
  20
 1852.6123595506
  30
0.0
  11
 2230.0616928610
  21
 1897.1574082623
  31
0.0
   0
LINE
   5
3A4
 100
AcDbEntity
   8
LEVEL001
 370
13
 100
AcDbLine
   6
CONTINUOUS
  62
5
  10
 2238.0166441494
  20
 1905.1123595506
  30
0.0
  11
 2290.5166441496
  21
 1852.6123595506
  31
0.0
   0
LINE
   5
3A5
 100
AcDbEntity
   8
LEVEL001
 370
13
 100
AcDbLine
   6
CONTINUOUS
  62
5
  10
 2295.2869364198
  20
 1905.1123595506
  30
0.0
  11
 2266.6517902846
  21
 1876.4772134154
  31
0.0
   0
LINE
   5
3A6
 100
AcDbEntity
   8
LEVEL001
 370
13
 100
AcDbLine
   6
CONTINUOUS
  62
5
  10
 2343.0166441496
  20
 1905.1123595506
  30
0.0
  11
 2379.6067415730
  21
 1868.5222621273
  31
0.0
   0
LINE
   5
3A7
 100
AcDbEntity
   8
LEVEL001
 370
13
 100
AcDbLine
   6
CONTINUOUS
  62
5
  10
 2591.4567415730
  20
 1905.1123595506
  30
0.0
  11
 2129.6067415730
  21
 1905.1123595506
  31
0.0
   0
MTEXT
   5
3A8
 100
AcDbEntity
   8
LEVEL001
 370
13
  62
1
 100
AcDbMText
  10
 1829.6067415730
  20
 2726.5409309792
  30
0.0
  40
 42.857142857142
  41
0.0
  71
1
  72
1
   1
{\T1.000000;支柱}\P%%c{\T1.000000;７６}{\T1.000000;.}{\T1.000000;３×３}{\T1.000000;.}{\T1.000000;２ｔ}\P{\T1.000000;×３６００Ｌ}
   7
GMM001
  44
 0.79999984000003
   0
DIMENSION
   5
3A9
 100
AcDbEntity
   8
0
 370
13
   6
CONTINUOUS
  62
1
 100
AcDbDimension
   2
*D13
  10
 729.60674157302
  20
 1905.1123595506
  30
0.0
  11
 729.60674157302
  21
 3155.1123595506
  31
0.0
  70
0
   1
\A1;2500(標準設置高さ)
   3
GMM003
 100
AcDbAlignedDimension
  13
 1441.4567415730
  23
 4405.1123595506
  33
0.0
  14
 979.60674157303
  24
 1905.1123595506
  34
0.0
  50
 270.00000000000
 100
AcDbRotatedDimension
   0
LEADER
   5
3AA
 100
AcDbEntity
   8
LEVEL001
 370
13
   6
CONTINUOUS
  62
1
 100
AcDbLeader
   3
GMM002
  73
3
  74
1
  75
0
  40
 60.000000000000
  41
0.0
  76
2
  10
 2519.6067234874
  20
 1597.6123595506
  30
0.0
  10
 2316.2583837130
  20
 1488.2646599450
  30
0.0
  77
1
   0
DIMENSION
   5
3AB
 100
AcDbEntity
   8
0
 370
13
   6
CONTINUOUS
  62
1
 100
AcDbDimension
   2
*D15
  10
 729.60674157302
  20
 1905.1123595506
  30
0.0
  11
 729.60674157302
  21
 1505.1123595506
  31
0.0
  70
0
   3
GMM004
 100
AcDbAlignedDimension
  13
 1229.6067415730
  23
 1105.1123595506
  33
0.0
  14
 979.60674157302
  24
 1905.1123595506
  34
0.0
  50
 90.000000000000
 100
AcDbRotatedDimension
   0
DIMENSION
   5
3AC
 100
AcDbEntity
   8
0
 370
13
   6
CONTINUOUS
  62
1
 100
AcDbDimension
   2
*D16
  10
 729.60674157302
  20
 1105.1123595506
  30
0.0
  11
 729.60674157302
  21
 1055.1123595506
  31
0.0
  70
0
   3
GMM004
 100
AcDbAlignedDimension
  13
 1229.6067415730
  23
 1005.1123595506
  33
0.0
  14
 1229.6067415730
  24
 1105.1123595506
  34
0.0
  50
 90.000000000000
 100
AcDbRotatedDimension
   0
DIMENSION
   5
3AD
 100
AcDbEntity
   8
0
 370
13
   6
CONTINUOUS
  62
1
 100
AcDbDimension
   2
*D17
  10
 729.60674157302
  20
 1905.1123595506
  30
0.0
  11
 729.60674157302
  21
 1505.1123595506
  31
0.0
  70
0
   3
GMM004
 100
AcDbAlignedDimension
  13
 1229.6067415730
  23
 1105.1123595506
  33
0.0
  14
 979.60674157303
  24
 1905.1123595506
  34
0.0
  50
 90.000000000000
 100
AcDbRotatedDimension
   0
DIMENSION
   5
3AE
 100
AcDbEntity
   8
0
 370
13
   6
CONTINUOUS
  62
1
 100
AcDbDimension
   2
*D18
  10
 1729.6067415730
  20
 805.11235955058
  30
0.0
  11
 1479.6067415730
  21
 805.11235955058
  31
0.0
  70
0
   3
GMM005
 100
AcDbAlignedDimension
  13
 1229.6067415730
  23
 1005.1123595506
  33
0.0
  14
 1729.6067415730
  24
 1005.1123595506
  34
0.0
 100
AcDbRotatedDimension
   0
DIMENSION
   5
3AF
 100
AcDbEntity
   8
0
 370
13
   6
CONTINUOUS
  62
1
 100
AcDbDimension
   2
*D19
  10
 2379.6067415730
  20
 805.11235955058
  30
0.0
  11
 2629.6067415730
  21
 805.11235955058
  31
0.0
  70
0
   3
GMM005
 100
AcDbAlignedDimension
  13
 2879.6067415730
  23
 1005.1123595506
  33
0.0
  14
 2379.6067415730
  24
 1005.1123595506
  34
0.0
  50
 180.00000000000
 100
AcDbRotatedDimension
   0
DIMENSION
   5
3B0
 100
AcDbEntity
   8
LEVEL001
 370
13
   6
CONTINUOUS
  62
1
 100
AcDbDimension
   2
*D20
  10
 1743.7444897271
  20
 4890.1123595508
  30
0.0
  11
 1479.6067415730
  21
 4737.6123595506
  31
0.0
  70
131
   1
\A1;%%c600
   3
GMM006
 100
AcDbDiametricDimension
  15
 1215.4689934189
  25
 4585.1123595503
  35
0.0
   0
DIMENSION
   5
3B1
 100
AcDbEntity
   8
0
 370
13
   6
CONTINUOUS
  62
1
 100
AcDbDimension
   2
*D21
  10
 2979.6067415730
  20
 2905.1123595506
  30
0.0
  11
 2804.6067415730
  21
 2905.1123595506
  31
0.0
  70
0
   3
GMM007
 100
AcDbAlignedDimension
  13
 2629.6067415730
  23
 3955.1123595506
  33
0.0
  14
 2979.6067415730
  24
 4405.1123595506
  34
0.0
 100
AcDbRotatedDimension
   0
ENDSEC
  0
SECTION
  2
OBJECTS
  0
DICTIONARY
  5
C
100
AcDbDictionary
  3
ACAD_GROUP
350
D
  3
ACAD_MLINESTYLE
350
1B
  3
DWGPROPS
350
1C
  0
DICTIONARY
  5
D
102
{ACAD_REACTORS
330
C
102
}
100
AcDbDictionary
  0
DICTIONARY
  5
1B
102
{ACAD_REACTORS
330
C
102
}
100
AcDbDictionary
  3
STANDARD
350
1D
  0
MLINESTYLE
  5
1D
102
{ACAD_REACTORS
330
1B
102
}
100
AcDbMlineStyle
  2
STANDARD
 70
     0
  3

 62
   256
 51
90.0
 52
90.0
 71
     2
 49
0.5
 62
   256
  6
BYLAYER
 49
-0.5
 62
   256
  6
BYLAYER
   0
XRECORD
   5
1C
 102
{ACAD_REACTORS
 330
C
 102
}
 330
C
 100
AcDbXrecord
 280
1
   1
DWGPROPS COOKIE
   2
 
   3
 
   4
 
   6
 
   7
MZH060SUP
   8
 
   9

 300
 = 
 301
 = 
 302
 = 
 303
 = 
 304
 = 
 305
 = 
 306
 = 
 307
 = 
 308
 = 
 309
 = 
  40
0.0
  41
 2460340.5000000
  42
 2460340.5000000
   1

  90
10
   0
ENDSEC
   0
EOF
