   0
SECTION
   2
HEADER
   9
$ACADVER
   1
AC1015
   9
$DWGCODEPAGE
   3
ANSI_932
   9
$LIMMIN
  10
0.0
  20
0.0
   9
$LIMMAX
  10
 8400.0000000000
  20
 5940.0000000000
   9
$EXTMIN
  10
0.0
  20
0.0
  30
0.0
   9
$EXTMAX
  10
 8400.0000000000
  20
 5940.0000000000
  30
0.0
   9
$LTSCALE
  40
 168.00000000000
   9
$HANDSEED
   5
63C
   0
ENDSEC
   0
SECTION
   2
TABLES
  0
TABLE
  2
VPORT
  5
8
100
AcDbSymbolTable
 70
     1
  0
VPORT
  5
63B
100
AcDbSymbolTableRecord
100
AcDbViewportTableRecord
  2
*ACTIVE
 70
     0
 10
0.0
 20
0.0
 11
1.0
 21
1.0
  12
 4200.0000000000
  22
 2970.0000000000
 13
0.0
 23
0.0
 14
1.0
 24
1.0
 15
0.0
 25
0.0
 16
0.0
 26
0.0
 36
1.0
 17
0.0
 27
0.0
 37
0.0
  40
 8400.0000000000
  41
 1.4787878787879
 42
50.0
 43
0.0
 44
0.0
 50
0.0
 51
0.0
 71
     0
 72
   100
 73
     1
 74
     1
 75
     0
 76
     0
 77
     0
 78
     0
  0
ENDTAB
  0
TABLE
  2
LTYPE
  5
5
100
AcDbSymbolTable
 70
    25
  0
LTYPE
  5
12
100
AcDbSymbolTableRecord
100
AcDbLinetypeTableRecord
  2
BYBLOCK
 70
     0
  3

 72
    65
 73
     0
 40
0.0
  0
LTYPE
  5
13
100
AcDbSymbolTableRecord
100
AcDbLinetypeTableRecord
  2
BYLAYER
 70
     0
  3

 72
    65
 73
     0
 40
0.0
  0
LTYPE
  5
14
100
AcDbSymbolTableRecord
100
AcDbLinetypeTableRecord
  2
CONTINUOUS
 70
     0
  3
Solid line
 72
    65
 73
     0
 40
0.0
  0
LTYPE
  5
20
100
AcDbSymbolTableRecord
100
AcDbLinetypeTableRecord
  2
BORDER
 70
     0
  3
__ __ . __ __ . __ __ . __ __ . __ __ . __ __ .
 72
    65
 73
     6
 40
1.75
 49
0.5
 74
     0
 49
-0.25
 74
     0
 49
0.5
 74
     0
 49
-0.25
 74
     0
 49
0.0
 74
     0
 49
-0.25
 74
     0
  0
LTYPE
  5
21
100
AcDbSymbolTableRecord
100
AcDbLinetypeTableRecord
  2
BORDER2
 70
     0
  3
__.__.__.__.__.__.__.__.__.__.__.__.__.__.__.__
 72
    65
 73
     6
 40
0.875
 49
0.25
 74
     0
 49
-0.125
 74
     0
 49
0.25
 74
     0
 49
-0.125
 74
     0
 49
0.0
 74
     0
 49
-0.125
 74
     0
  0
LTYPE
  5
22
100
AcDbSymbolTableRecord
100
AcDbLinetypeTableRecord
  2
BORDERX2
 70
     0
  3
____  ____  .  ____  ____  .  ____  ____  .  __
 72
    65
 73
     6
 40
3.5
 49
1.0
 74
     0
 49
-0.5
 74
     0
 49
1.0
 74
     0
 49
-0.5
 74
     0
 49
0.0
 74
     0
 49
-0.5
 74
     0
  0
LTYPE
  5
23
100
AcDbSymbolTableRecord
100
AcDbLinetypeTableRecord
  2
CENTER
 70
     0
  3
____ _ ____ _ ____ _ ____ _ ____ _ ____ _ ____ 
 72
    65
 73
     4
 40
2.0
 49
1.25
 74
     0
 49
-0.25
 74
     0
 49
0.25
 74
     0
 49
-0.25
 74
     0
  0
LTYPE
  5
24
100
AcDbSymbolTableRecord
100
AcDbLinetypeTableRecord
  2
CENTER2
 70
     0
  3
___ _ ___ _ ___ _ ___ _ ___ _ ___ _ ___ _ ___ _
 72
    65
 73
     4
 40
1.125
 49
0.75
 74
     0
 49
-0.125
 74
     0
 49
0.125
 74
     0
 49
-0.125
 74
     0
  0
LTYPE
  5
25
100
AcDbSymbolTableRecord
100
AcDbLinetypeTableRecord
  2
CENTERX2
 70
     0
  3
________  __  ________  __  ________  __  _____
 72
    65
 73
     4
 40
4.0
 49
2.5
 74
     0
 49
-0.5
 74
     0
 49
0.5
 74
     0
 49
-0.5
 74
     0
  0
LTYPE
  5
26
100
AcDbSymbolTableRecord
100
AcDbLinetypeTableRecord
  2
DASHDOT
 70
     0
  3
__ . __ . __ . __ . __ . __ . __ . __ . __ . __
 72
    65
 73
     4
 40
1.0
 49
0.5
 74
     0
 49
-0.25
 74
     0
 49
0.0
 74
     0
 49
-0.25
 74
     0
  0
LTYPE
  5
27
100
AcDbSymbolTableRecord
100
AcDbLinetypeTableRecord
  2
DASHDOT2
 70
     0
  3
_._._._._._._._._._._._._._._._._._._._._._._._
 72
    65
 73
     4
 40
0.5
 49
0.25
 74
     0
 49
-0.125
 74
     0
 49
0.0
 74
     0
 49
-0.125
 74
     0
  0
LTYPE
  5
28
100
AcDbSymbolTableRecord
100
AcDbLinetypeTableRecord
  2
DASHDOTX2
 70
     0
  3
____  .  ____  .  ____  .  ____  .  ____  .  __
 72
    65
 73
     4
 40
2.0
 49
1.0
 74
     0
 49
-0.5
 74
     0
 49
0.0
 74
     0
 49
-0.5
 74
     0
  0
LTYPE
  5
29
100
AcDbSymbolTableRecord
100
AcDbLinetypeTableRecord
  2
DASHED
 70
     0
  3
__ __ __ __ __ __ __ __ __ __ __ __ __ __ __ __
 72
    65
 73
     2
 40
0.75
 49
0.5
 74
     0
 49
-0.25
 74
     0
  0
LTYPE
  5
2A
100
AcDbSymbolTableRecord
100
AcDbLinetypeTableRecord
  2
DASHED2
 70
     0
  3
_ _ _ _ _ _ _ _ _ _ _ _ _ _ _ _ _ _ _ _ _ _ _ _
 72
    65
 73
     2
 40
0.375
 49
0.25
 74
     0
 49
-0.125
 74
     0
  0
LTYPE
  5
2B
100
AcDbSymbolTableRecord
100
AcDbLinetypeTableRecord
  2
DASHEDX2
 70
     0
  3
____  ____  ____  ____  ____  ____  ____  ____ 
 72
    65
 73
     2
 40
1.5
 49
1.0
 74
     0
 49
-0.5
 74
     0
  0
LTYPE
  5
2C
100
AcDbSymbolTableRecord
100
AcDbLinetypeTableRecord
  2
DIVIDE
 70
     0
  3
____ . . ____ . . ____ . . ____ . . ____ . . __
 72
    65
 73
     6
 40
1.25
 49
0.5
 74
     0
 49
-0.25
 74
     0
 49
0.0
 74
     0
 49
-0.25
 74
     0
 49
0.0
 74
     0
 49
-0.25
 74
     0
  0
LTYPE
  5
2D
100
AcDbSymbolTableRecord
100
AcDbLinetypeTableRecord
  2
DIVIDE2
 70
     0
  3
__..__..__..__..__..__..__..__..__..__..__..__.
 72
    65
 73
     6
 40
0.625
 49
0.25
 74
     0
 49
-0.125
 74
     0
 49
0.0
 74
     0
 49
-0.125
 74
     0
 49
0.0
 74
     0
 49
-0.125
 74
     0
  0
LTYPE
  5
2E
100
AcDbSymbolTableRecord
100
AcDbLinetypeTableRecord
  2
DIVIDEX2
 70
     0
  3
________  .  .  ________  .  .  ________  .  . 
 72
    65
 73
     6
 40
2.5
 49
1.0
 74
     0
 49
-0.5
 74
     0
 49
0.0
 74
     0
 49
-0.5
 74
     0
 49
0.0
 74
     0
 49
-0.5
 74
     0
  0
LTYPE
  5
2F
100
AcDbSymbolTableRecord
100
AcDbLinetypeTableRecord
  2
DOT
 70
     0
  3
. . . . . . . . . . . . . . . . . . . . . . . .
 72
    65
 73
     2
 40
0.25
 49
0.0
 74
     0
 49
-0.25
 74
     0
  0
LTYPE
  5
30
100
AcDbSymbolTableRecord
100
AcDbLinetypeTableRecord
  2
DOT2
 70
     0
  3
...............................................
 72
    65
 73
     2
 40
0.125
 49
0.0
 74
     0
 49
-0.125
 74
     0
  0
LTYPE
  5
31
100
AcDbSymbolTableRecord
100
AcDbLinetypeTableRecord
  2
DOTX2
 70
     0
  3
.  .  .  .  .  .  .  .  .  .  .  .  .  .  .  . 
 72
    65
 73
     2
 40
0.5
 49
0.0
 74
     0
 49
-0.5
 74
     0
  0
LTYPE
  5
32
100
AcDbSymbolTableRecord
100
AcDbLinetypeTableRecord
  2
HIDDEN
 70
     0
  3
__ __ __ __ __ __ __ __ __ __ __ __ __ __ __ __
 72
    65
 73
     2
 40
0.375
 49
0.25
 74
     0
 49
-0.125
 74
     0
  0
LTYPE
  5
33
100
AcDbSymbolTableRecord
100
AcDbLinetypeTableRecord
  2
HIDDEN2
 70
     0
  3
_ _ _ _ _ _ _ _ _ _ _ _ _ _ _ _ _ _ _ _ _ _ _ _
 72
    65
 73
     2
 40
0.1875
 49
0.125
 74
     0
 49
-0.0625
 74
     0
  0
LTYPE
  5
34
100
AcDbSymbolTableRecord
100
AcDbLinetypeTableRecord
  2
HIDDENX2
 70
     0
  3
____ ____ ____ ____ ____ ____ ____ ____ ____ __
 72
    65
 73
     2
 40
0.75
 49
0.5
 74
     0
 49
-0.25
 74
     0
  0
LTYPE
  5
35
100
AcDbSymbolTableRecord
100
AcDbLinetypeTableRecord
  2
PHANTOM
 70
     0
  3
______  __  __  ______  __  __  ______  __  __ 
 72
    65
 73
     6
 40
2.5
 49
1.25
 74
     0
 49
-0.25
 74
     0
 49
0.25
 74
     0
 49
-0.25
 74
     0
 49
0.25
 74
     0
 49
-0.25
 74
     0
  0
LTYPE
  5
36
100
AcDbSymbolTableRecord
100
AcDbLinetypeTableRecord
  2
PHANTOM2
 70
     0
  3
___ _ _ ___ _ _ ___ _ _ ___ _ _ ___ _ _ ___ _ _
 72
    65
 73
     6
 40
1.25
 49
0.625
 74
     0
 49
-0.125
 74
     0
 49
0.125
 74
     0
 49
-0.125
 74
     0
 49
0.125
 74
     0
 49
-0.125
 74
     0
  0
LTYPE
  5
37
100
AcDbSymbolTableRecord
100
AcDbLinetypeTableRecord
  2
PHANTOMX2
 70
     0
  3
____________    ____    ____    ____________   
 72
    65
 73
     6
 40
5.0
 49
2.5
 74
     0
 49
-0.5
 74
     0
 49
0.5
 74
     0
 49
-0.5
 74
     0
 49
0.5
 74
     0
 49
-0.5
 74
     0
  0
ENDTAB
   0
TABLE
   2
LAYER
   5
2
 100
AcDbSymbolTable
  70
2
   0
LAYER
   5
E
 100
AcDbSymbolTableRecord
 100
AcDbLayerTableRecord
   2
0
  70
0
  62
7
   6
CONTINUOUS
 390
30
   0
LAYER
   5
39
 100
AcDbSymbolTableRecord
 100
AcDbLayerTableRecord
   2
LEVEL001
  70
0
  62
7
   6
CONTINUOUS
 390
30
   0
ENDTAB
  0
TABLE
  2
STYLE
  5
3
100
AcDbSymbolTable
  70
7
  0
STYLE
  5
F
100
AcDbSymbolTableRecord
100
AcDbTextStyleTableRecord
  2
STANDARD
 70
     0
 40
0.0
 41
1.0
 50
0.0
 71
     0
 42
0.2
  3
TXT
  4
BIGFONT
  0
STYLE
  5
38
100
AcDbSymbolTableRecord
100
AcDbTextStyleTableRecord
  2
STANDARD1
 70
     4
 40
0.0
 41
1.0
 50
0.0
 71
     0
 42
0.2
  3
TXT
  4
BIGFONT
   0
STYLE
   5
3A
 100
AcDbSymbolTableRecord
 100
AcDbTextStyleTableRecord
   2
GMM001
  70
0
  40
0.0
  41
 1.0000000000000
  50
0.0
  71
     0
  42
1.0
   3

   4

1001
ACAD
1000
ＭＳ ゴシック
1071
32817
   0
STYLE
   5
3B
 100
AcDbSymbolTableRecord
 100
AcDbTextStyleTableRecord
   2
GMM002
  70
0
  40
0.0
  41
 0.66666666666667
  50
0.0
  71
     0
  42
1.0
   3

   4

1001
ACAD
1000
ＭＳ ゴシック
1071
32817
   0
STYLE
   5
3C
 100
AcDbSymbolTableRecord
 100
AcDbTextStyleTableRecord
   2
GMM003
  70
0
  40
0.0
  41
 1.5000000000000
  50
0.0
  71
     0
  42
1.0
   3

   4

1001
ACAD
1000
ＭＳ ゴシック
1071
32817
   0
STYLE
   5
3D
 100
AcDbSymbolTableRecord
 100
AcDbTextStyleTableRecord
   2
GMM004
  70
0
  40
0.0
  41
 1.0000000000000
  50
0.0
  71
     0
  42
1.0
   3
txt.shx
   4
bigfont.shx
   0
STYLE
   5
3E
 100
AcDbSymbolTableRecord
 100
AcDbTextStyleTableRecord
   2
GMM005
  70
0
  40
0.0
  41
 0.75000000000000
  50
0.0
  71
     0
  42
1.0
   3
txt.shx
   4
bigfont.shx
   0
ENDTAB
  0
TABLE
  2
VIEW
  5
6
100
AcDbSymbolTable
 70
     0
  0
ENDTAB
  0
TABLE
  2
UCS
  5
7
100
AcDbSymbolTable
 70
     0
  0
ENDTAB
  0
TABLE
  2
APPID
  5
9
100
AcDbSymbolTable
 70
     1
  0
APPID
  5
10
100
AcDbSymbolTableRecord
100
AcDbRegAppTableRecord
  2
ACAD
 70
     0
  0
ENDTAB
   0
TABLE
   2
DIMSTYLE
   5
A
 100
AcDbSymbolTable
  70
9
 100
AcDbDimStyleTable
  0
DIMSTYLE
105
1D
100
AcDbSymbolTableRecord
100
AcDbDimStyleTableRecord
  2
STANDARD
 70
     0
  3

  4

  5

  6

  7

 40
1.0
 41
0.18
 42
0.0625
 43
0.38
 44
0.18
 45
0.0
 46
0.0
 47
0.0
 48
0.0
140
0.18
141
0.09
142
0.0
143
25.4
144
1.0
145
0.0
146
1.0
147
0.09
 71
     0
 72
     0
 73
     1
 74
     1
 75
     0
 76
     0
 77
     0
 78
     0
170
     0
171
     2
172
     0
173
     0
174
     0
175
     0
176
     0
177
     0
178
     0
270
     2
271
     4
272
     4
273
     2
274
     2
340
F
275
     0
280
     0
281
     0
282
     0
283
     1
284
     0
285
     0
286
     0
287
     3
288
     0
   0
DIMSTYLE
 105
3F
 100
AcDbSymbolTableRecord
 100
AcDbDimStyleTableRecord
   2
GMM001
  70
0
   3

   4

   5

   6
_OPEN
   7
_OPEN
  40
 1.0000000000000
  41
 30.000000000000
  42
 30.000000000000
  43
 160.00000000000
  44
 30.000000000000
  45
0.0
  46
0.0
  47
0.0
  48
0.0
 140
 66.000000000000
 141
 20.000000000000
 142
0.0
 143
 0.39400000000000E-1
 144
 1.0000000000000
 145
0.0
 146
 0.75757575757576
 147
0.0
  71
0
  72
0
  73
0
  74
0
  75
0
  76
0
  77
0
  78
8
 170
0
 171
2
 172
1
 173
1
 174
0
 175
0
 176
1
 177
1
 178
7
 270
2
 271
1
 272
0
 273
2
 274
2
 340
3D
 275
0
 280
0
 281
0
 282
0
 283
1
 284
0
 285
0
 286
0
 287
3
 288
1
   0
DIMSTYLE
 105
40
 100
AcDbSymbolTableRecord
 100
AcDbDimStyleTableRecord
   2
GMM002
  70
0
   3

   4

   5

   6
_OPEN
   7
_OPEN
  40
 1.0000000000000
  41
 42.000000000000
  42
 30.000000000000
  43
 160.00000000000
  44
 30.000000000000
  45
0.0
  46
0.0
  47
0.0
  48
0.0
 140
 60.000000000000
 141
 20.000000000000
 142
0.0
 143
 0.39400000000000E-1
 144
 1.0000000000000
 145
0.0
 146
 0.83333333333333
 147
0.0
  71
0
  72
0
  73
0
  74
0
  75
0
  76
0
  77
0
  78
8
 170
0
 171
2
 172
1
 173
1
 174
0
 175
0
 176
1
 177
1
 178
7
 270
2
 271
1
 272
0
 273
2
 274
2
 340
3D
 275
0
 280
0
 281
0
 282
0
 283
1
 284
0
 285
0
 286
0
 287
3
 288
1
   0
DIMSTYLE
 105
41
 100
AcDbSymbolTableRecord
 100
AcDbDimStyleTableRecord
   2
GMM003
  70
0
   3

   4

   5

   6
_OPEN
   7
_OPEN
  40
 1.0000000000000
  41
 42.000000000000
  42
 30.000000000000
  43
 160.00000000000
  44
 30.000000000000
  45
0.0
  46
0.0
  47
0.0
  48
0.0
 140
 60.000000000000
 141
 20.000000000000
 142
0.0
 143
 0.39400000000000E-1
 144
 1.0000000000000
 145
0.0
 146
 0.83333333333333
 147
 25.714285714286
  71
0
  72
0
  73
0
  74
0
  75
0
  76
0
  77
3
  78
8
 170
0
 171
2
 172
1
 173
1
 174
0
 175
0
 176
6
 177
6
 178
1
 270
2
 271
6
 272
0
 273
2
 274
2
 340
3D
 275
1
 280
0
 281
0
 282
0
 283
1
 284
0
 285
0
 286
0
 287
3
 288
0
   0
DIMSTYLE
 105
42
 100
AcDbSymbolTableRecord
 100
AcDbDimStyleTableRecord
   2
GMM004
  70
0
   3

   4

   5

   6
_OPEN
   7
_OPEN
  40
 1.0000000000000
  41
 42.000000000000
  42
 30.000000000000
  43
 160.00000000000
  44
 30.000000000000
  45
0.0
  46
0.0
  47
0.0
  48
0.0
 140
 60.000000000000
 141
 20.000000000000
 142
0.0
 143
 0.39400000000000E-1
 144
 1.0000000000000
 145
0.0
 146
 0.83333333333333
 147
 25.714285714286
  71
0
  72
0
  73
0
  74
0
  75
0
  76
0
  77
3
  78
8
 170
0
 171
2
 172
1
 173
1
 174
0
 175
0
 176
6
 177
6
 178
1
 270
2
 271
6
 272
0
 273
2
 274
2
 340
3D
 275
1
 280
0
 281
0
 282
0
 283
1
 284
0
 285
0
 286
0
 287
3
 288
0
   0
DIMSTYLE
 105
43
 100
AcDbSymbolTableRecord
 100
AcDbDimStyleTableRecord
   2
GMM005
  70
0
   3
□<>
   4

   5

   6
_OPEN
   7
_OPEN
  40
 1.0000000000000
  41
 42.000000000000
  42
 30.000000000000
  43
 160.00000000000
  44
 30.000000000000
  45
0.0
  46
0.0
  47
0.0
  48
0.0
 140
 60.000000000000
 141
 20.000000000000
 142
0.0
 143
 0.39400000000000E-1
 144
 1.0000000000000
 145
0.0
 146
 0.83333333333333
 147
 25.714285714286
  71
0
  72
0
  73
0
  74
0
  75
0
  76
0
  77
3
  78
8
 170
0
 171
2
 172
1
 173
1
 174
0
 175
0
 176
6
 177
6
 178
1
 270
2
 271
6
 272
0
 273
2
 274
2
 340
3D
 275
1
 280
0
 281
0
 282
0
 283
1
 284
0
 285
0
 286
0
 287
3
 288
0
   0
DIMSTYLE
 105
44
 100
AcDbSymbolTableRecord
 100
AcDbDimStyleTableRecord
   2
GMM006
  70
0
   3

   4

   5

   6
_OPEN
   7
_OPEN
  40
 1.0000000000000
  41
 42.000000000000
  42
 30.000000000000
  43
 160.00000000000
  44
 30.000000000000
  45
0.0
  46
0.0
  47
0.0
  48
0.0
 140
 60.000000000000
 141
 20.000000000000
 142
0.0
 143
 0.39400000000000E-1
 144
 1.0000000000000
 145
0.0
 146
 0.83333333333333
 147
 25.714285714286
  71
0
  72
0
  73
0
  74
0
  75
0
  76
1
  77
3
  78
8
 170
0
 171
2
 172
1
 173
1
 174
0
 175
0
 176
6
 177
6
 178
1
 270
2
 271
6
 272
0
 273
2
 274
2
 340
3D
 275
1
 280
0
 281
0
 282
0
 283
1
 284
0
 285
0
 286
0
 287
3
 288
0
   0
DIMSTYLE
 105
45
 100
AcDbSymbolTableRecord
 100
AcDbDimStyleTableRecord
   2
GMM007
  70
0
   3
%%c<>
   4

   5

   6
_OPEN
   7
_OPEN
  40
 1.0000000000000
  41
 42.000000000000
  42
 30.000000000000
  43
 160.00000000000
  44
 30.000000000000
  45
0.0
  46
0.0
  47
0.0
  48
0.0
 140
 60.000000000000
 141
 20.000000000000
 142
0.0
 143
 0.39400000000000E-1
 144
 1.0000000000000
 145
0.0
 146
 0.83333333333333
 147
 14.000000000000
  71
0
  72
0
  73
0
  74
0
  75
0
  76
0
  77
3
  78
8
 170
0
 171
2
 172
1
 173
1
 174
0
 175
0
 176
6
 177
6
 178
1
 270
2
 271
1
 272
0
 273
2
 274
2
 340
3D
 275
0
 280
0
 281
0
 282
0
 283
1
 284
0
 285
0
 286
0
 287
0
 288
1
   0
ENDTAB
  0
TABLE
  2
BLOCK_RECORD
  5
1
100
AcDbSymbolTable
 70
     0
  0
BLOCK_RECORD
  5
18
100
AcDbSymbolTableRecord
100
AcDbBlockTableRecord
  2
*MODEL_SPACE
  0
BLOCK_RECORD
  5
15
100
AcDbSymbolTableRecord
100
AcDbBlockTableRecord
  2
*PAPER_SPACE
   0
BLOCK_RECORD
   5
46
 100
AcDbSymbolTableRecord
 100
AcDbBlockTableRecord
   2
*D14
   0
BLOCK_RECORD
   5
47
 100
AcDbSymbolTableRecord
 100
AcDbBlockTableRecord
   2
*D15
   0
BLOCK_RECORD
   5
48
 100
AcDbSymbolTableRecord
 100
AcDbBlockTableRecord
   2
*D16
   0
BLOCK_RECORD
   5
49
 100
AcDbSymbolTableRecord
 100
AcDbBlockTableRecord
   2
*D17
   0
BLOCK_RECORD
   5
4A
 100
AcDbSymbolTableRecord
 100
AcDbBlockTableRecord
   2
*D18
   0
BLOCK_RECORD
   5
4B
 100
AcDbSymbolTableRecord
 100
AcDbBlockTableRecord
   2
*D19
   0
BLOCK_RECORD
   5
4C
 100
AcDbSymbolTableRecord
 100
AcDbBlockTableRecord
   2
*D20
   0
BLOCK_RECORD
   5
4D
 100
AcDbSymbolTableRecord
 100
AcDbBlockTableRecord
   2
*D21
   0
BLOCK_RECORD
   5
4E
 100
AcDbSymbolTableRecord
 100
AcDbBlockTableRecord
   2
*D35
   0
BLOCK_RECORD
   5
4F
 100
AcDbSymbolTableRecord
 100
AcDbBlockTableRecord
   2
*D36
   0
BLOCK_RECORD
   5
50
 100
AcDbSymbolTableRecord
 100
AcDbBlockTableRecord
   2
*D37
   0
BLOCK_RECORD
   5
51
 100
AcDbSymbolTableRecord
 100
AcDbBlockTableRecord
   2
*D38
   0
BLOCK_RECORD
   5
52
 100
AcDbSymbolTableRecord
 100
AcDbBlockTableRecord
   2
*D39
   0
BLOCK_RECORD
   5
53
 100
AcDbSymbolTableRecord
 100
AcDbBlockTableRecord
   2
*D40
   0
BLOCK_RECORD
   5
54
 100
AcDbSymbolTableRecord
 100
AcDbBlockTableRecord
   2
*D41
   0
BLOCK_RECORD
   5
55
 100
AcDbSymbolTableRecord
 100
AcDbBlockTableRecord
   2
_ARCHTICK
   0
BLOCK_RECORD
   5
56
 100
AcDbSymbolTableRecord
 100
AcDbBlockTableRecord
   2
_BOXBLANK
   0
BLOCK_RECORD
   5
57
 100
AcDbSymbolTableRecord
 100
AcDbBlockTableRecord
   2
_BOXFILLED
   0
BLOCK_RECORD
   5
58
 100
AcDbSymbolTableRecord
 100
AcDbBlockTableRecord
   2
_CLOSED
   0
BLOCK_RECORD
   5
59
 100
AcDbSymbolTableRecord
 100
AcDbBlockTableRecord
   2
_CLOSEDBLANK
   0
BLOCK_RECORD
   5
5A
 100
AcDbSymbolTableRecord
 100
AcDbBlockTableRecord
   2
_DATUMBLANK
   0
BLOCK_RECORD
   5
5B
 100
AcDbSymbolTableRecord
 100
AcDbBlockTableRecord
   2
_DATUMFILLED
   0
BLOCK_RECORD
   5
5C
 100
AcDbSymbolTableRecord
 100
AcDbBlockTableRecord
   2
_DOT
   0
BLOCK_RECORD
   5
5D
 100
AcDbSymbolTableRecord
 100
AcDbBlockTableRecord
   2
_DOTBLANK
   0
BLOCK_RECORD
   5
5E
 100
AcDbSymbolTableRecord
 100
AcDbBlockTableRecord
   2
_DOTSMALL
   0
BLOCK_RECORD
   5
5F
 100
AcDbSymbolTableRecord
 100
AcDbBlockTableRecord
   2
_INTEGRAL
   0
BLOCK_RECORD
   5
60
 100
AcDbSymbolTableRecord
 100
AcDbBlockTableRecord
   2
_NONE
   0
BLOCK_RECORD
   5
61
 100
AcDbSymbolTableRecord
 100
AcDbBlockTableRecord
   2
_OBLIQUE
   0
BLOCK_RECORD
   5
62
 100
AcDbSymbolTableRecord
 100
AcDbBlockTableRecord
   2
_OPEN
   0
BLOCK_RECORD
   5
63
 100
AcDbSymbolTableRecord
 100
AcDbBlockTableRecord
   2
_OPEN30
   0
BLOCK_RECORD
   5
64
 100
AcDbSymbolTableRecord
 100
AcDbBlockTableRecord
   2
_OPEN90
   0
BLOCK_RECORD
   5
65
 100
AcDbSymbolTableRecord
 100
AcDbBlockTableRecord
   2
_ORIGIN
   0
ENDTAB
   0
ENDSEC
  0
SECTION
  2
BLOCKS
  0
BLOCK
  5
19
100
AcDbEntity
  8
0
100
AcDbBlockBegin
  2
*MODEL_SPACE
 70
     0
 10
0.0
 20
0.0
 30
0.0
  3
*MODEL_SPACE
  1

  0
ENDBLK
  5
1A
100
AcDbEntity
  8
0
100
AcDbBlockEnd
  0
BLOCK
  5
16
100
AcDbEntity
 67
     1
  8
0
100
AcDbBlockBegin
  2
*PAPER_SPACE
 70
     0
 10
0.0
 20
0.0
 30
0.0
  3
*PAPER_SPACE
  1

  0
ENDBLK
  5
17
100
AcDbEntity
 67
     1
  8
0
100
AcDbBlockEnd
   0
BLOCK
   5
66
 100
AcDbEntity
   8
0
 100
AcDbBlockBegin
   2
_ARCHTICK
  70
0
  10
0.0
  20
0.0
  30
0.0
   3
_ARCHTICK
   0
POLYLINE
   5
67
 100
AcDbEntity
   8
0
 370
-2
   6
BYBLOCK
  62
0
 100
AcDb2dPolyline
  66
1
  10
0.0
  20
0.0
  30
0.0
  70
1
  40
 0.15000000000000
  41
 0.15000000000000
   0
VERTEX
   5
68
 100
AcDbEntity
   8
0
   6
BYBLOCK
  62
0
 100
AcDbVertex
 100
AcDb2dVertex
  10
-0.50000000000000
  20
-0.50000000000000
  30
0.0
  40
 0.15000000000000
  41
 0.15000000000000
   0
VERTEX
   5
69
 100
AcDbEntity
   8
0
   6
BYBLOCK
  62
0
 100
AcDbVertex
 100
AcDb2dVertex
  10
 0.50000000000000
  20
 0.50000000000000
  30
0.0
  40
 0.15000000000000
  41
 0.15000000000000
   0
SEQEND
   5
6A
 100
AcDbEntity
   8
0
   6
BYBLOCK
  62
0
   0
ENDBLK
   5
6B
 100
AcDbEntity
   8
0
 100
AcDbBlockEnd
   0
BLOCK
   5
6C
 100
AcDbEntity
   8
0
 100
AcDbBlockBegin
   2
_OBLIQUE
  70
0
  10
0.0
  20
0.0
  30
0.0
   3
_OBLIQUE
   0
LINE
   5
6D
 100
AcDbEntity
   8
0
 370
-2
 100
AcDbLine
   6
BYBLOCK
  62
0
  10
-0.50000000000000
  20
-0.50000000000000
  30
0.0
  11
 0.50000000000000
  21
 0.50000000000000
  31
0.0
   0
ENDBLK
   5
6E
 100
AcDbEntity
   8
0
 100
AcDbBlockEnd
   0
BLOCK
   5
6F
 100
AcDbEntity
   8
0
 100
AcDbBlockBegin
   2
_BOXBLANK
  70
0
  10
0.0
  20
0.0
  30
0.0
   3
_BOXBLANK
   0
LINE
   5
70
 100
AcDbEntity
   8
0
 370
-2
 100
AcDbLine
   6
BYBLOCK
  62
0
  10
-0.50000000000000
  20
-0.50000000000000
  30
0.0
  11
 0.50000000000000
  21
-0.50000000000000
  31
0.0
   0
LINE
   5
71
 100
AcDbEntity
   8
0
 370
-2
 100
AcDbLine
   6
BYBLOCK
  62
0
  10
 0.50000000000000
  20
-0.50000000000000
  30
0.0
  11
 0.50000000000000
  21
 0.50000000000000
  31
0.0
   0
LINE
   5
72
 100
AcDbEntity
   8
0
 370
-2
 100
AcDbLine
   6
BYBLOCK
  62
0
  10
 0.50000000000000
  20
 0.50000000000000
  30
0.0
  11
-0.50000000000000
  21
 0.50000000000000
  31
0.0
   0
LINE
   5
73
 100
AcDbEntity
   8
0
 370
-2
 100
AcDbLine
   6
BYBLOCK
  62
0
  10
-0.50000000000000
  20
 0.50000000000000
  30
0.0
  11
-0.50000000000000
  21
-0.50000000000000
  31
0.0
   0
LINE
   5
74
 100
AcDbEntity
   8
0
 370
-2
 100
AcDbLine
   6
BYBLOCK
  62
0
  10
-0.50000000000000
  20
0.0
  30
0.0
  11
-1.0000000000000
  21
0.0
  31
0.0
   0
ENDBLK
   5
75
 100
AcDbEntity
   8
0
 100
AcDbBlockEnd
   0
BLOCK
   5
76
 100
AcDbEntity
   8
0
 100
AcDbBlockBegin
   2
_BOXFILLED
  70
0
  10
0.0
  20
0.0
  30
0.0
   3
_BOXFILLED
   0
SOLID
   5
77
 100
AcDbEntity
   8
0
 100
AcDbTrace
   6
BYBLOCK
  62
0
  10
-0.50000000000000
  20
 0.50000000000000
  30
0.0
  11
 0.50000000000000
  21
 0.50000000000000
  31
0.0
  12
-0.50000000000000
  22
-0.50000000000000
  32
0.0
  13
 0.50000000000000
  23
-0.50000000000000
  33
0.0
   0
LINE
   5
78
 100
AcDbEntity
   8
0
 370
-2
 100
AcDbLine
   6
BYBLOCK
  62
0
  10
-0.50000000000000
  20
0.0
  30
0.0
  11
-1.0000000000000
  21
0.0
  31
0.0
   0
ENDBLK
   5
79
 100
AcDbEntity
   8
0
 100
AcDbBlockEnd
   0
BLOCK
   5
7A
 100
AcDbEntity
   8
0
 100
AcDbBlockBegin
   2
_CLOSED
  70
0
  10
0.0
  20
0.0
  30
0.0
   3
_CLOSED
   0
LINE
   5
7B
 100
AcDbEntity
   8
0
 370
-2
 100
AcDbLine
   6
BYBLOCK
  62
0
  10
-1.0000000000000
  20
 0.16666666666667
  30
0.0
  11
0.0
  21
0.0
  31
0.0
   0
LINE
   5
7C
 100
AcDbEntity
   8
0
 370
-2
 100
AcDbLine
   6
BYBLOCK
  62
0
  10
0.0
  20
0.0
  30
0.0
  11
-1.0000000000000
  21
-0.16666666666667
  31
0.0
   0
LINE
   5
7D
 100
AcDbEntity
   8
0
 370
-2
 100
AcDbLine
   6
BYBLOCK
  62
0
  10
-1.0000000000000
  20
 0.16666666666667
  30
0.0
  11
-1.0000000000000
  21
-0.16666666666667
  31
0.0
   0
LINE
   5
7E
 100
AcDbEntity
   8
0
 370
-2
 100
AcDbLine
   6
BYBLOCK
  62
0
  10
0.0
  20
0.0
  30
0.0
  11
-1.0000000000000
  21
0.0
  31
0.0
   0
ENDBLK
   5
7F
 100
AcDbEntity
   8
0
 100
AcDbBlockEnd
   0
BLOCK
   5
80
 100
AcDbEntity
   8
0
 100
AcDbBlockBegin
   2
_OPEN
  70
0
  10
0.0
  20
0.0
  30
0.0
   3
_OPEN
   0
LINE
   5
81
 100
AcDbEntity
   8
0
 370
-2
 100
AcDbLine
   6
BYBLOCK
  62
0
  10
-1.0000000000000
  20
 0.16666666666667
  30
0.0
  11
0.0
  21
0.0
  31
0.0
   0
LINE
   5
82
 100
AcDbEntity
   8
0
 370
-2
 100
AcDbLine
   6
BYBLOCK
  62
0
  10
0.0
  20
0.0
  30
0.0
  11
-1.0000000000000
  21
-0.16666666666667
  31
0.0
   0
LINE
   5
83
 100
AcDbEntity
   8
0
 370
-2
 100
AcDbLine
   6
BYBLOCK
  62
0
  10
0.0
  20
0.0
  30
0.0
  11
-1.0000000000000
  21
0.0
  31
0.0
   0
ENDBLK
   5
84
 100
AcDbEntity
   8
0
 100
AcDbBlockEnd
   0
BLOCK
   5
85
 100
AcDbEntity
   8
0
 100
AcDbBlockBegin
   2
_OPEN30
  70
0
  10
0.0
  20
0.0
  30
0.0
   3
_OPEN30
   0
LINE
   5
86
 100
AcDbEntity
   8
0
 370
-2
 100
AcDbLine
   6
BYBLOCK
  62
0
  10
-1.0000000000000
  20
 0.26794919243110
  30
0.0
  11
0.0
  21
0.0
  31
0.0
   0
LINE
   5
87
 100
AcDbEntity
   8
0
 370
-2
 100
AcDbLine
   6
BYBLOCK
  62
0
  10
0.0
  20
0.0
  30
0.0
  11
-1.0000000000000
  21
-0.26794919243110
  31
0.0
   0
LINE
   5
88
 100
AcDbEntity
   8
0
 370
-2
 100
AcDbLine
   6
BYBLOCK
  62
0
  10
0.0
  20
0.0
  30
0.0
  11
-1.0000000000000
  21
0.0
  31
0.0
   0
ENDBLK
   5
89
 100
AcDbEntity
   8
0
 100
AcDbBlockEnd
   0
BLOCK
   5
8A
 100
AcDbEntity
   8
0
 100
AcDbBlockBegin
   2
_OPEN90
  70
0
  10
0.0
  20
0.0
  30
0.0
   3
_OPEN90
   0
LINE
   5
8B
 100
AcDbEntity
   8
0
 370
-2
 100
AcDbLine
   6
BYBLOCK
  62
0
  10
-0.50000000000000
  20
 0.50000000000000
  30
0.0
  11
0.0
  21
0.0
  31
0.0
   0
LINE
   5
8C
 100
AcDbEntity
   8
0
 370
-2
 100
AcDbLine
   6
BYBLOCK
  62
0
  10
0.0
  20
0.0
  30
0.0
  11
-0.50000000000000
  21
-0.50000000000000
  31
0.0
   0
LINE
   5
8D
 100
AcDbEntity
   8
0
 370
-2
 100
AcDbLine
   6
BYBLOCK
  62
0
  10
0.0
  20
0.0
  30
0.0
  11
-1.0000000000000
  21
0.0
  31
0.0
   0
ENDBLK
   5
8E
 100
AcDbEntity
   8
0
 100
AcDbBlockEnd
   0
BLOCK
   5
8F
 100
AcDbEntity
   8
0
 100
AcDbBlockBegin
   2
_CLOSEDBLANK
  70
0
  10
0.0
  20
0.0
  30
0.0
   3
_CLOSEDBLANK
   0
LINE
   5
90
 100
AcDbEntity
   8
0
 370
-2
 100
AcDbLine
   6
BYBLOCK
  62
0
  10
-1.0000000000000
  20
 0.16666666666667
  30
0.0
  11
0.0
  21
0.0
  31
0.0
   0
LINE
   5
91
 100
AcDbEntity
   8
0
 370
-2
 100
AcDbLine
   6
BYBLOCK
  62
0
  10
0.0
  20
0.0
  30
0.0
  11
-1.0000000000000
  21
-0.16666666666667
  31
0.0
   0
LINE
   5
92
 100
AcDbEntity
   8
0
 370
-2
 100
AcDbLine
   6
BYBLOCK
  62
0
  10
-1.0000000000000
  20
 0.16666666666667
  30
0.0
  11
-1.0000000000000
  21
-0.16666666666667
  31
0.0
   0
ENDBLK
   5
93
 100
AcDbEntity
   8
0
 100
AcDbBlockEnd
   0
BLOCK
   5
94
 100
AcDbEntity
   8
0
 100
AcDbBlockBegin
   2
_DOT
  70
0
  10
0.0
  20
0.0
  30
0.0
   3
_DOT
   0
POLYLINE
   5
95
 100
AcDbEntity
   8
0
 370
-2
   6
BYBLOCK
  62
0
 100
AcDb2dPolyline
  66
1
  10
0.0
  20
0.0
  30
0.0
  70
1
  40
 0.50000000000000
  41
 0.50000000000000
   0
VERTEX
   5
96
 100
AcDbEntity
   8
0
   6
BYBLOCK
  62
0
 100
AcDbVertex
 100
AcDb2dVertex
  10
-0.25000000000000
  20
0.0
  30
0.0
  42
 1.0000000000000
  40
 0.50000000000000
  41
 0.50000000000000
   0
VERTEX
   5
97
 100
AcDbEntity
   8
0
   6
BYBLOCK
  62
0
 100
AcDbVertex
 100
AcDb2dVertex
  10
 0.25000000000000
  20
0.0
  30
0.0
  42
 1.0000000000000
  40
 0.50000000000000
  41
 0.50000000000000
   0
SEQEND
   5
98
 100
AcDbEntity
   8
0
   6
BYBLOCK
  62
0
   0
LINE
   5
99
 100
AcDbEntity
   8
0
 370
-2
 100
AcDbLine
   6
BYBLOCK
  62
0
  10
-0.50000000000000
  20
0.0
  30
0.0
  11
-1.0000000000000
  21
0.0
  31
0.0
   0
ENDBLK
   5
9A
 100
AcDbEntity
   8
0
 100
AcDbBlockEnd
   0
BLOCK
   5
9B
 100
AcDbEntity
   8
0
 100
AcDbBlockBegin
   2
_DOTSMALL
  70
0
  10
0.0
  20
0.0
  30
0.0
   3
_DOTSMALL
   0
POLYLINE
   5
9C
 100
AcDbEntity
   8
0
 370
-2
   6
BYBLOCK
  62
0
 100
AcDb2dPolyline
  66
1
  10
0.0
  20
0.0
  30
0.0
  70
1
  40
 0.50000000000000
  41
 0.50000000000000
   0
VERTEX
   5
9D
 100
AcDbEntity
   8
0
   6
BYBLOCK
  62
0
 100
AcDbVertex
 100
AcDb2dVertex
  10
-0.62500000000000E-1
  20
0.0
  30
0.0
  42
 1.0000000000000
  40
 0.50000000000000
  41
 0.50000000000000
   0
VERTEX
   5
9E
 100
AcDbEntity
   8
0
   6
BYBLOCK
  62
0
 100
AcDbVertex
 100
AcDb2dVertex
  10
 0.62500000000000E-1
  20
0.0
  30
0.0
  42
 1.0000000000000
  40
 0.50000000000000
  41
 0.50000000000000
   0
SEQEND
   5
9F
 100
AcDbEntity
   8
0
   6
BYBLOCK
  62
0
   0
ENDBLK
   5
A0
 100
AcDbEntity
   8
0
 100
AcDbBlockEnd
   0
BLOCK
   5
A1
 100
AcDbEntity
   8
0
 100
AcDbBlockBegin
   2
_DATUMBLANK
  70
0
  10
0.0
  20
0.0
  30
0.0
   3
_DATUMBLANK
   0
LINE
   5
A2
 100
AcDbEntity
   8
0
 370
-2
 100
AcDbLine
   6
BYBLOCK
  62
0
  10
0.0
  20
 0.57735027000000
  30
0.0
  11
-1.0000000000000
  21
0.0
  31
0.0
   0
LINE
   5
A3
 100
AcDbEntity
   8
0
 370
-2
 100
AcDbLine
   6
BYBLOCK
  62
0
  10
-1.0000000000000
  20
0.0
  30
0.0
  11
0.0
  21
-0.57735027000000
  31
0.0
   0
LINE
   5
A4
 100
AcDbEntity
   8
0
 370
-2
 100
AcDbLine
   6
BYBLOCK
  62
0
  10
0.0
  20
-0.57735027000000
  30
0.0
  11
0.0
  21
 0.57735027000000
  31
0.0
   0
ENDBLK
   5
A5
 100
AcDbEntity
   8
0
 100
AcDbBlockEnd
   0
BLOCK
   5
A6
 100
AcDbEntity
   8
0
 100
AcDbBlockBegin
   2
_DATUMFILLED
  70
0
  10
0.0
  20
0.0
  30
0.0
   3
_DATUMFILLED
   0
SOLID
   5
A7
 100
AcDbEntity
   8
0
 100
AcDbTrace
   6
BYBLOCK
  62
0
  10
0.0
  20
 0.57735027000000
  30
0.0
  11
-1.0000000000000
  21
0.0
  31
0.0
  12
0.0
  22
-0.57735027000000
  32
0.0
  13
0.0
  23
-0.57735027000000
  33
0.0
   0
ENDBLK
   5
A8
 100
AcDbEntity
   8
0
 100
AcDbBlockEnd
   0
BLOCK
   5
A9
 100
AcDbEntity
   8
0
 100
AcDbBlockBegin
   2
_ORIGIN
  70
0
  10
0.0
  20
0.0
  30
0.0
   3
_ORIGIN
   0
CIRCLE
   5
AA
 100
AcDbEntity
   8
0
 370
-2
 100
AcDbCircle
   6
BYBLOCK
  62
0
  10
0.0
  20
0.0
  30
0.0
  40
 0.50000000000000
   0
LINE
   5
AB
 100
AcDbEntity
   8
0
 370
-2
 100
AcDbLine
   6
BYBLOCK
  62
0
  10
0.0
  20
0.0
  30
0.0
  11
-1.0000000000000
  21
0.0
  31
0.0
   0
ENDBLK
   5
AC
 100
AcDbEntity
   8
0
 100
AcDbBlockEnd
   0
BLOCK
   5
AD
 100
AcDbEntity
   8
0
 100
AcDbBlockBegin
   2
_NONE
  70
0
  10
0.0
  20
0.0
  30
0.0
   3
_NONE
   0
CIRCLE
   5
AE
 100
AcDbEntity
   8
0
 370
-2
 100
AcDbCircle
   6
BYBLOCK
  62
0
  10
0.0
  20
0.0
  30
0.0
  40
 0.25000000000000
   0
ENDBLK
   5
AF
 100
AcDbEntity
   8
0
 100
AcDbBlockEnd
   0
BLOCK
   5
B0
 100
AcDbEntity
   8
0
 100
AcDbBlockBegin
   2
_DOTBLANK
  70
0
  10
0.0
  20
0.0
  30
0.0
   3
_DOTBLANK
   0
CIRCLE
   5
B1
 100
AcDbEntity
   8
0
 370
-2
 100
AcDbCircle
   6
BYBLOCK
  62
0
  10
0.0
  20
0.0
  30
0.0
  40
 0.50000000000000
   0
LINE
   5
B2
 100
AcDbEntity
   8
0
 370
-2
 100
AcDbLine
   6
BYBLOCK
  62
0
  10
-0.50000000000000
  20
0.0
  30
0.0
  11
-1.0000000000000
  21
0.0
  31
0.0
   0
ENDBLK
   5
B3
 100
AcDbEntity
   8
0
 100
AcDbBlockEnd
   0
BLOCK
   5
B4
 100
AcDbEntity
   8
0
 100
AcDbBlockBegin
   2
_INTEGRAL
  70
0
  10
0.0
  20
0.0
  30
0.0
   3
_INTEGRAL
   0
ARC
   5
B5
 100
AcDbEntity
   8
0
 370
-2
   6
BYBLOCK
  62
0
 100
AcDbCircle
  10
 0.44488800000000
  20
-0.91335000000000E-1
  30
0.0
  40
 0.45416700000000
 100
AcDbArc
  50
 102.00000000000
  51
 168.00000000000
   0
ARC
   5
B6
 100
AcDbEntity
   8
0
 370
-2
   6
BYBLOCK
  62
0
 100
AcDbCircle
  10
-0.44488800000000
  20
 0.91335000000000E-1
  30
0.0
  40
 0.45416700000000
 100
AcDbArc
  50
 282.00000000000
  51
 348.00000000000
   0
ENDBLK
   5
B7
 100
AcDbEntity
   8
0
 100
AcDbBlockEnd
   0
BLOCK
   5
B8
 100
AcDbEntity
   8
0
 100
AcDbBlockBegin
   2
*D14
  70
65
  10
0.0
  20
0.0
  30
0.0
   3
*D14
   0
LINE
   5
B9
 100
AcDbEntity
   8
0
 370
13
 100
AcDbLine
   6
CONTINUOUS
  62
6
  10
-5163.2927757835
  20
 4874.3656286687
  30
0.0
  11
-5875.1427757835
  21
 4874.3656286687
  31
0.0
   0
LINE
   5
BA
 100
AcDbEntity
   8
0
 370
13
 100
AcDbLine
   6
CONTINUOUS
  62
6
  10
-5625.1427757835
  20
 2374.3656286687
  30
0.0
  11
-5875.1427757835
  21
 2374.3656286687
  31
0.0
   0
LINE
   5
BB
 100
AcDbEntity
   8
0
 370
13
 100
AcDbLine
   6
CONTINUOUS
  62
6
  10
-5845.1427757835
  20
 4874.3656286687
  30
0.0
  11
-5845.1427757835
  21
 3624.3656286687
  31
0.0
   0
LINE
   5
BC
 100
AcDbEntity
   8
0
 370
13
 100
AcDbLine
   6
CONTINUOUS
  62
6
  10
-5845.1427757835
  20
 2374.3656286687
  30
0.0
  11
-5845.1427757835
  21
 3624.3656286687
  31
0.0
   0
INSERT
   5
BD
 100
AcDbEntity
   8
0
   6
CONTINUOUS
  62
6
 100
AcDbBlockReference
   2
_OPEN
  10
-5845.1427757835
  20
 4874.3656286687
  30
0.0
  41
 42.000000000000
  42
 42.000000000000
  43
 42.000000000000
  50
 90.000000000000
   0
INSERT
   5
BE
 100
AcDbEntity
   8
0
   6
CONTINUOUS
  62
6
 100
AcDbBlockReference
   2
_OPEN
  10
-5845.1427757835
  20
 2374.3656286687
  30
0.0
  41
 42.000000000000
  42
 42.000000000000
  43
 42.000000000000
  50
 270.00000000000
   0
MTEXT
   5
BF
 100
AcDbEntity
   8
0
 370
13
  62
1
 100
AcDbMText
  10
-5870.8570614978
  20
 3624.3656286687
  30
0.0
  40
 60.000000000000
  41
0.0
  71
8
  72
1
   1
\A1;2500(標準設置高さ)
   7
GMM004
  11
0.0
  21
 1.0000000000000
  31
0.0
   0
ENDBLK
   5
C0
 100
AcDbEntity
   8
0
 100
AcDbBlockEnd
   0
BLOCK
   5
C1
 100
AcDbEntity
   8
0
 100
AcDbBlockBegin
   2
*D15
  70
65
  10
0.0
  20
0.0
  30
0.0
   3
*D15
   0
LINE
   5
C2
 100
AcDbEntity
   8
0
 370
13
 100
AcDbLine
   6
CONTINUOUS
  62
6
  10
-5375.1427757835
  20
 1574.3656286687
  30
0.0
  11
-5875.1427757835
  21
 1574.3656286687
  31
0.0
   0
LINE
   5
C3
 100
AcDbEntity
   8
0
 370
13
 100
AcDbLine
   6
CONTINUOUS
  62
6
  10
-5625.1427757835
  20
 2374.3656286687
  30
0.0
  11
-5875.1427757835
  21
 2374.3656286687
  31
0.0
   0
LINE
   5
C4
 100
AcDbEntity
   8
0
 370
13
 100
AcDbLine
   6
CONTINUOUS
  62
6
  10
-5845.1427757835
  20
 1574.3656286687
  30
0.0
  11
-5845.1427757835
  21
 1974.3656286687
  31
0.0
   0
LINE
   5
C5
 100
AcDbEntity
   8
0
 370
13
 100
AcDbLine
   6
CONTINUOUS
  62
6
  10
-5845.1427757835
  20
 2374.3656286687
  30
0.0
  11
-5845.1427757835
  21
 1974.3656286687
  31
0.0
   0
INSERT
   5
C6
 100
AcDbEntity
   8
0
   6
CONTINUOUS
  62
6
 100
AcDbBlockReference
   2
_OPEN
  10
-5845.1427757835
  20
 1574.3656286687
  30
0.0
  41
 42.000000000000
  42
 42.000000000000
  43
 42.000000000000
  50
 270.00000000000
   0
INSERT
   5
C7
 100
AcDbEntity
   8
0
   6
CONTINUOUS
  62
6
 100
AcDbBlockReference
   2
_OPEN
  10
-5845.1427757835
  20
 2374.3656286687
  30
0.0
  41
 42.000000000000
  42
 42.000000000000
  43
 42.000000000000
  50
 90.000000000000
   0
MTEXT
   5
C8
 100
AcDbEntity
   8
0
 370
13
  62
1
 100
AcDbMText
  10
-5870.8570614978
  20
 1974.3656286687
  30
0.0
  40
 60.000000000000
  41
0.0
  71
8
  72
1
   1
\A1;800
   7
GMM004
  11
0.0
  21
 1.0000000000000
  31
0.0
   0
ENDBLK
   5
C9
 100
AcDbEntity
   8
0
 100
AcDbBlockEnd
   0
BLOCK
   5
CA
 100
AcDbEntity
   8
0
 100
AcDbBlockBegin
   2
*D16
  70
65
  10
0.0
  20
0.0
  30
0.0
   3
*D16
   0
LINE
   5
CB
 100
AcDbEntity
   8
0
 370
13
 100
AcDbLine
   6
CONTINUOUS
  62
6
  10
-5375.1427757835
  20
 1474.3656286687
  30
0.0
  11
-5875.1427757835
  21
 1474.3656286687
  31
0.0
   0
LINE
   5
CC
 100
AcDbEntity
   8
0
 370
13
 100
AcDbLine
   6
CONTINUOUS
  62
6
  10
-5375.1427757835
  20
 1574.3656286687
  30
0.0
  11
-5875.1427757835
  21
 1574.3656286687
  31
0.0
   0
LINE
   5
CD
 100
AcDbEntity
   8
0
 370
13
 100
AcDbLine
   6
CONTINUOUS
  62
6
  10
-5845.1427757835
  20
 1474.3656286687
  30
0.0
  11
-5845.1427757835
  21
 1524.3656286687
  31
0.0
   0
LINE
   5
CE
 100
AcDbEntity
   8
0
 370
13
 100
AcDbLine
   6
CONTINUOUS
  62
6
  10
-5845.1427757835
  20
 1574.3656286687
  30
0.0
  11
-5845.1427757835
  21
 1524.3656286687
  31
0.0
   0
INSERT
   5
CF
 100
AcDbEntity
   8
0
   6
CONTINUOUS
  62
6
 100
AcDbBlockReference
   2
_OPEN
  10
-5845.1427757835
  20
 1474.3656286687
  30
0.0
  41
 42.000000000000
  42
 42.000000000000
  43
 42.000000000000
  50
 270.00000000000
   0
INSERT
   5
D0
 100
AcDbEntity
   8
0
   6
CONTINUOUS
  62
6
 100
AcDbBlockReference
   2
_OPEN
  10
-5845.1427757835
  20
 1574.3656286687
  30
0.0
  41
 42.000000000000
  42
 42.000000000000
  43
 42.000000000000
  50
 90.000000000000
   0
MTEXT
   5
D1
 100
AcDbEntity
   8
0
 370
13
  62
1
 100
AcDbMText
  10
-5870.8570614978
  20
 1524.3656286687
  30
0.0
  40
 60.000000000000
  41
0.0
  71
8
  72
1
   1
\A1;100
   7
GMM004
  11
0.0
  21
 1.0000000000000
  31
0.0
   0
ENDBLK
   5
D2
 100
AcDbEntity
   8
0
 100
AcDbBlockEnd
   0
BLOCK
   5
D3
 100
AcDbEntity
   8
0
 100
AcDbBlockBegin
   2
*D17
  70
65
  10
0.0
  20
0.0
  30
0.0
   3
*D17
   0
LINE
   5
D4
 100
AcDbEntity
   8
0
 370
13
 100
AcDbLine
   6
CONTINUOUS
  62
6
  10
-5375.1427757835
  20
 1574.3656286687
  30
0.0
  11
-5875.1427757835
  21
 1574.3656286687
  31
0.0
   0
LINE
   5
D5
 100
AcDbEntity
   8
0
 370
13
 100
AcDbLine
   6
CONTINUOUS
  62
6
  10
-5625.1427757835
  20
 2374.3656286687
  30
0.0
  11
-5875.1427757835
  21
 2374.3656286687
  31
0.0
   0
LINE
   5
D6
 100
AcDbEntity
   8
0
 370
13
 100
AcDbLine
   6
CONTINUOUS
  62
6
  10
-5845.1427757835
  20
 1574.3656286687
  30
0.0
  11
-5845.1427757835
  21
 1974.3656286687
  31
0.0
   0
LINE
   5
D7
 100
AcDbEntity
   8
0
 370
13
 100
AcDbLine
   6
CONTINUOUS
  62
6
  10
-5845.1427757835
  20
 2374.3656286687
  30
0.0
  11
-5845.1427757835
  21
 1974.3656286687
  31
0.0
   0
INSERT
   5
D8
 100
AcDbEntity
   8
0
   6
CONTINUOUS
  62
6
 100
AcDbBlockReference
   2
_OPEN
  10
-5845.1427757835
  20
 1574.3656286687
  30
0.0
  41
 42.000000000000
  42
 42.000000000000
  43
 42.000000000000
  50
 270.00000000000
   0
INSERT
   5
D9
 100
AcDbEntity
   8
0
   6
CONTINUOUS
  62
6
 100
AcDbBlockReference
   2
_OPEN
  10
-5845.1427757835
  20
 2374.3656286687
  30
0.0
  41
 42.000000000000
  42
 42.000000000000
  43
 42.000000000000
  50
 90.000000000000
   0
MTEXT
   5
DA
 100
AcDbEntity
   8
0
 370
13
  62
1
 100
AcDbMText
  10
-5870.8570614978
  20
 1974.3656286687
  30
0.0
  40
 60.000000000000
  41
0.0
  71
8
  72
1
   1
\A1;800
   7
GMM004
  11
0.0
  21
 1.0000000000000
  31
0.0
   0
ENDBLK
   5
DB
 100
AcDbEntity
   8
0
 100
AcDbBlockEnd
   0
BLOCK
   5
DC
 100
AcDbEntity
   8
0
 100
AcDbBlockBegin
   2
*D18
  70
65
  10
0.0
  20
0.0
  30
0.0
   3
*D18
   0
LINE
   5
DD
 100
AcDbEntity
   8
0
 370
13
 100
AcDbLine
   6
CONTINUOUS
  62
6
  10
-5345.1427757835
  20
 1444.3656286687
  30
0.0
  11
-5345.1427757835
  21
 1244.3656286687
  31
0.0
   0
LINE
   5
DE
 100
AcDbEntity
   8
0
 370
13
 100
AcDbLine
   6
CONTINUOUS
  62
6
  10
-4845.1427757835
  20
 1444.3656286687
  30
0.0
  11
-4845.1427757835
  21
 1244.3656286687
  31
0.0
   0
LINE
   5
DF
 100
AcDbEntity
   8
0
 370
13
 100
AcDbLine
   6
CONTINUOUS
  62
6
  10
-5345.1427757835
  20
 1274.3656286687
  30
0.0
  11
-5095.1427757835
  21
 1274.3656286687
  31
0.0
   0
LINE
   5
E0
 100
AcDbEntity
   8
0
 370
13
 100
AcDbLine
   6
CONTINUOUS
  62
6
  10
-4845.1427757835
  20
 1274.3656286687
  30
0.0
  11
-5095.1427757835
  21
 1274.3656286687
  31
0.0
   0
INSERT
   5
E1
 100
AcDbEntity
   8
0
   6
CONTINUOUS
  62
6
 100
AcDbBlockReference
   2
_OPEN
  10
-5345.1427757835
  20
 1274.3656286687
  30
0.0
  41
 42.000000000000
  42
 42.000000000000
  43
 42.000000000000
  50
 180.00000000000
   0
INSERT
   5
E2
 100
AcDbEntity
   8
0
   6
CONTINUOUS
  62
6
 100
AcDbBlockReference
   2
_OPEN
  10
-4845.1427757835
  20
 1274.3656286687
  30
0.0
  41
 42.000000000000
  42
 42.000000000000
  43
 42.000000000000
  50
0.0
   0
MTEXT
   5
E3
 100
AcDbEntity
   8
0
 370
13
  62
1
 100
AcDbMText
  10
-5095.1427757835
  20
 1300.0799143830
  30
0.0
  40
 60.000000000000
  41
0.0
  71
8
  72
1
   1
\A1;□500
   7
GMM004
   0
ENDBLK
   5
E4
 100
AcDbEntity
   8
0
 100
AcDbBlockEnd
   0
BLOCK
   5
E5
 100
AcDbEntity
   8
0
 100
AcDbBlockBegin
   2
*D19
  70
65
  10
0.0
  20
0.0
  30
0.0
   3
*D19
   0
LINE
   5
E6
 100
AcDbEntity
   8
0
 370
13
 100
AcDbLine
   6
CONTINUOUS
  62
6
  10
-3695.1427757835
  20
 1444.3656286687
  30
0.0
  11
-3695.1427757835
  21
 1244.3656286687
  31
0.0
   0
LINE
   5
E7
 100
AcDbEntity
   8
0
 370
13
 100
AcDbLine
   6
CONTINUOUS
  62
6
  10
-4195.1427757835
  20
 1444.3656286687
  30
0.0
  11
-4195.1427757835
  21
 1244.3656286687
  31
0.0
   0
LINE
   5
E8
 100
AcDbEntity
   8
0
 370
13
 100
AcDbLine
   6
CONTINUOUS
  62
6
  10
-3695.1427757835
  20
 1274.3656286687
  30
0.0
  11
-3945.1427757835
  21
 1274.3656286687
  31
0.0
   0
LINE
   5
E9
 100
AcDbEntity
   8
0
 370
13
 100
AcDbLine
   6
CONTINUOUS
  62
6
  10
-4195.1427757835
  20
 1274.3656286687
  30
0.0
  11
-3945.1427757835
  21
 1274.3656286687
  31
0.0
   0
INSERT
   5
EA
 100
AcDbEntity
   8
0
   6
CONTINUOUS
  62
6
 100
AcDbBlockReference
   2
_OPEN
  10
-3695.1427757835
  20
 1274.3656286687
  30
0.0
  41
 42.000000000000
  42
 42.000000000000
  43
 42.000000000000
  50
0.0
   0
INSERT
   5
EB
 100
AcDbEntity
   8
0
   6
CONTINUOUS
  62
6
 100
AcDbBlockReference
   2
_OPEN
  10
-4195.1427757835
  20
 1274.3656286687
  30
0.0
  41
 42.000000000000
  42
 42.000000000000
  43
 42.000000000000
  50
 180.00000000000
   0
MTEXT
   5
EC
 100
AcDbEntity
   8
0
 370
13
  62
1
 100
AcDbMText
  10
-3945.1427757835
  20
 1300.0799143830
  30
0.0
  40
 60.000000000000
  41
0.0
  71
8
  72
1
   1
\A1;□500
   7
GMM004
   0
ENDBLK
   5
ED
 100
AcDbEntity
   8
0
 100
AcDbBlockEnd
   0
BLOCK
   5
EE
 100
AcDbEntity
   8
0
 100
AcDbBlockBegin
   2
*D20
  70
65
  10
0.0
  20
0.0
  30
0.0
   3
*D20
   0
LINE
   5
EF
 100
AcDbEntity
   8
0
 370
13
 100
AcDbLine
   6
CONTINUOUS
  62
6
  10
-3595.1427757835
  20
 4844.3656286687
  30
0.0
  11
-3595.1427757835
  21
 3344.3656286687
  31
0.0
   0
LINE
   5
F0
 100
AcDbEntity
   8
0
 370
13
 100
AcDbLine
   6
CONTINUOUS
  62
6
  10
-3595.1427757835
  20
 3374.3656286687
  30
0.0
  11
-3770.1427757835
  21
 3374.3656286687
  31
0.0
   0
LINE
   5
F1
 100
AcDbEntity
   8
0
 370
13
 100
AcDbLine
   6
CONTINUOUS
  62
6
  10
-3945.1427757835
  20
 3374.3656286687
  30
0.0
  11
-3770.1427757835
  21
 3374.3656286687
  31
0.0
   0
INSERT
   5
F2
 100
AcDbEntity
   8
0
   6
CONTINUOUS
  62
6
 100
AcDbBlockReference
   2
_OPEN
  10
-3595.1427757835
  20
 3374.3656286687
  30
0.0
  41
 42.000000000000
  42
 42.000000000000
  43
 42.000000000000
  50
0.0
   0
INSERT
   5
F3
 100
AcDbEntity
   8
0
   6
CONTINUOUS
  62
6
 100
AcDbBlockReference
   2
_OPEN
  10
-3945.1427757835
  20
 3374.3656286687
  30
0.0
  41
 42.000000000000
  42
 42.000000000000
  43
 42.000000000000
  50
 180.00000000000
   0
MTEXT
   5
F4
 100
AcDbEntity
   8
0
 370
13
  62
1
 100
AcDbMText
  10
-3770.1427757835
  20
 3400.0799143829
  30
0.0
  40
 60.000000000000
  41
0.0
  71
8
  72
1
   1
\A1;350
   7
GMM004
   0
ENDBLK
   5
F5
 100
AcDbEntity
   8
0
 100
AcDbBlockEnd
   0
BLOCK
   5
F6
 100
AcDbEntity
   8
0
 100
AcDbBlockBegin
   2
*D21
  70
65
  10
0.0
  20
0.0
  30
0.0
   3
*D21
   0
LINE
   5
F7
 100
AcDbEntity
   8
LEVEL001
 370
13
 100
AcDbLine
   6
CONTINUOUS
  62
6
  10
-4831.0050276294
  20
 5359.3656286689
  30
0.0
  11
-5095.1427757835
  21
 5206.8656286687
  31
0.0
   0
LINE
   5
F8
 100
AcDbEntity
   8
LEVEL001
 370
13
 100
AcDbLine
   6
CONTINUOUS
  62
6
  10
-5095.1427757835
  20
 5206.8656286687
  30
0.0
  11
-5359.2805239376
  21
 5054.3656286684
  31
0.0
   0
INSERT
   5
F9
 100
AcDbEntity
   8
LEVEL001
   6
CONTINUOUS
  62
6
 100
AcDbBlockReference
   2
_OPEN
  10
-4831.0050276294
  20
 5359.3656286689
  30
0.0
  41
 42.000000000000
  42
 42.000000000000
  43
 42.000000000000
  50
 30.000000000055
   0
INSERT
   5
FA
 100
AcDbEntity
   8
LEVEL001
   6
CONTINUOUS
  62
6
 100
AcDbBlockReference
   2
_OPEN
  10
-5359.2805239376
  20
 5054.3656286684
  30
0.0
  41
 42.000000000000
  42
 42.000000000000
  43
 42.000000000000
  50
 210.00000000006
   0
MTEXT
   5
FB
 100
AcDbEntity
   8
LEVEL001
 370
13
  62
1
 100
AcDbMText
  10
-5102.1427757835
  20
 5218.9899843216
  30
0.0
  40
 60.000000000000
  41
0.0
  71
8
  72
1
   1
\A1;%%c600
   7
GMM004
  11
 0.86602540378395
  21
 0.50000000000084
  31
0.0
   0
ENDBLK
   5
FC
 100
AcDbEntity
   8
0
 100
AcDbBlockEnd
   0
BLOCK
   5
FD
 100
AcDbEntity
   8
0
 100
AcDbBlockBegin
   2
*D35
  70
65
  10
0.0
  20
0.0
  30
0.0
   3
*D35
   0
LINE
   5
FE
 100
AcDbEntity
   8
0
 370
13
 100
AcDbLine
   6
CONTINUOUS
  62
6
  10
 1441.9052780132
  20
 4397.2597298888
  30
0.0
  11
 730.05527801325
  21
 4397.2597298888
  31
0.0
   0
LINE
   5
FF
 100
AcDbEntity
   8
0
 370
13
 100
AcDbLine
   6
CONTINUOUS
  62
6
  10
 980.05527801325
  20
 1897.2597298888
  30
0.0
  11
 730.05527801325
  21
 1897.2597298888
  31
0.0
   0
LINE
   5
100
 100
AcDbEntity
   8
0
 370
13
 100
AcDbLine
   6
CONTINUOUS
  62
6
  10
 760.05527801325
  20
 4397.2597298888
  30
0.0
  11
 760.05527801325
  21
 3147.2597298888
  31
0.0
   0
LINE
   5
101
 100
AcDbEntity
   8
0
 370
13
 100
AcDbLine
   6
CONTINUOUS
  62
6
  10
 760.05527801325
  20
 1897.2597298888
  30
0.0
  11
 760.05527801325
  21
 3147.2597298888
  31
0.0
   0
INSERT
   5
102
 100
AcDbEntity
   8
0
   6
CONTINUOUS
  62
6
 100
AcDbBlockReference
   2
_OPEN
  10
 760.05527801325
  20
 4397.2597298888
  30
0.0
  41
 42.000000000000
  42
 42.000000000000
  43
 42.000000000000
  50
 90.000000000000
   0
INSERT
   5
103
 100
AcDbEntity
   8
0
   6
CONTINUOUS
  62
6
 100
AcDbBlockReference
   2
_OPEN
  10
 760.05527801325
  20
 1897.2597298888
  30
0.0
  41
 42.000000000000
  42
 42.000000000000
  43
 42.000000000000
  50
 270.00000000000
   0
MTEXT
   5
104
 100
AcDbEntity
   8
0
 370
13
  62
1
 100
AcDbMText
  10
 734.34099229896
  20
 3147.2597298888
  30
0.0
  40
 60.000000000000
  41
0.0
  71
8
  72
1
   1
\A1;2500(標準設置高さ)
   7
GMM004
  11
0.0
  21
 1.0000000000000
  31
0.0
   0
ENDBLK
   5
105
 100
AcDbEntity
   8
0
 100
AcDbBlockEnd
   0
BLOCK
   5
106
 100
AcDbEntity
   8
0
 100
AcDbBlockBegin
   2
*D36
  70
65
  10
0.0
  20
0.0
  30
0.0
   3
*D36
   0
LINE
   5
107
 100
AcDbEntity
   8
0
 370
13
 100
AcDbLine
   6
CONTINUOUS
  62
6
  10
 1230.0552780132
  20
 1097.2597298888
  30
0.0
  11
 730.05527801325
  21
 1097.2597298888
  31
0.0
   0
LINE
   5
108
 100
AcDbEntity
   8
0
 370
13
 100
AcDbLine
   6
CONTINUOUS
  62
6
  10
 980.05527801325
  20
 1897.2597298888
  30
0.0
  11
 730.05527801325
  21
 1897.2597298888
  31
0.0
   0
LINE
   5
109
 100
AcDbEntity
   8
0
 370
13
 100
AcDbLine
   6
CONTINUOUS
  62
6
  10
 760.05527801325
  20
 1097.2597298888
  30
0.0
  11
 760.05527801325
  21
 1497.2597298888
  31
0.0
   0
LINE
   5
10A
 100
AcDbEntity
   8
0
 370
13
 100
AcDbLine
   6
CONTINUOUS
  62
6
  10
 760.05527801325
  20
 1897.2597298888
  30
0.0
  11
 760.05527801325
  21
 1497.2597298888
  31
0.0
   0
INSERT
   5
10B
 100
AcDbEntity
   8
0
   6
CONTINUOUS
  62
6
 100
AcDbBlockReference
   2
_OPEN
  10
 760.05527801325
  20
 1097.2597298888
  30
0.0
  41
 42.000000000000
  42
 42.000000000000
  43
 42.000000000000
  50
 270.00000000000
   0
INSERT
   5
10C
 100
AcDbEntity
   8
0
   6
CONTINUOUS
  62
6
 100
AcDbBlockReference
   2
_OPEN
  10
 760.05527801325
  20
 1897.2597298888
  30
0.0
  41
 42.000000000000
  42
 42.000000000000
  43
 42.000000000000
  50
 90.000000000000
   0
MTEXT
   5
10D
 100
AcDbEntity
   8
0
 370
13
  62
1
 100
AcDbMText
  10
 734.34099229896
  20
 1497.2597298888
  30
0.0
  40
 60.000000000000
  41
0.0
  71
8
  72
1
   1
\A1;800
   7
GMM004
  11
0.0
  21
 1.0000000000000
  31
0.0
   0
ENDBLK
   5
10E
 100
AcDbEntity
   8
0
 100
AcDbBlockEnd
   0
BLOCK
   5
10F
 100
AcDbEntity
   8
0
 100
AcDbBlockBegin
   2
*D37
  70
65
  10
0.0
  20
0.0
  30
0.0
   3
*D37
   0
LINE
   5
110
 100
AcDbEntity
   8
0
 370
13
 100
AcDbLine
   6
CONTINUOUS
  62
6
  10
 1230.0552780132
  20
 997.25972988877
  30
0.0
  11
 730.05527801325
  21
 997.25972988877
  31
0.0
   0
LINE
   5
111
 100
AcDbEntity
   8
0
 370
13
 100
AcDbLine
   6
CONTINUOUS
  62
6
  10
 1230.0552780132
  20
 1097.2597298888
  30
0.0
  11
 730.05527801325
  21
 1097.2597298888
  31
0.0
   0
LINE
   5
112
 100
AcDbEntity
   8
0
 370
13
 100
AcDbLine
   6
CONTINUOUS
  62
6
  10
 760.05527801325
  20
 997.25972988877
  30
0.0
  11
 760.05527801325
  21
 1047.2597298888
  31
0.0
   0
LINE
   5
113
 100
AcDbEntity
   8
0
 370
13
 100
AcDbLine
   6
CONTINUOUS
  62
6
  10
 760.05527801325
  20
 1097.2597298888
  30
0.0
  11
 760.05527801325
  21
 1047.2597298888
  31
0.0
   0
INSERT
   5
114
 100
AcDbEntity
   8
0
   6
CONTINUOUS
  62
6
 100
AcDbBlockReference
   2
_OPEN
  10
 760.05527801325
  20
 997.25972988877
  30
0.0
  41
 42.000000000000
  42
 42.000000000000
  43
 42.000000000000
  50
 270.00000000000
   0
INSERT
   5
115
 100
AcDbEntity
   8
0
   6
CONTINUOUS
  62
6
 100
AcDbBlockReference
   2
_OPEN
  10
 760.05527801325
  20
 1097.2597298888
  30
0.0
  41
 42.000000000000
  42
 42.000000000000
  43
 42.000000000000
  50
 90.000000000000
   0
MTEXT
   5
116
 100
AcDbEntity
   8
0
 370
13
  62
1
 100
AcDbMText
  10
 734.34099229896
  20
 1047.2597298888
  30
0.0
  40
 60.000000000000
  41
0.0
  71
8
  72
1
   1
\A1;100
   7
GMM004
  11
0.0
  21
 1.0000000000000
  31
0.0
   0
ENDBLK
   5
117
 100
AcDbEntity
   8
0
 100
AcDbBlockEnd
   0
BLOCK
   5
118
 100
AcDbEntity
   8
0
 100
AcDbBlockBegin
   2
*D38
  70
65
  10
0.0
  20
0.0
  30
0.0
   3
*D38
   0
LINE
   5
119
 100
AcDbEntity
   8
0
 370
13
 100
AcDbLine
   6
CONTINUOUS
  62
6
  10
 1230.0552780132
  20
 1097.2597298888
  30
0.0
  11
 730.05527801325
  21
 1097.2597298888
  31
0.0
   0
LINE
   5
11A
 100
AcDbEntity
   8
0
 370
13
 100
AcDbLine
   6
CONTINUOUS
  62
6
  10
 980.05527801325
  20
 1897.2597298888
  30
0.0
  11
 730.05527801325
  21
 1897.2597298888
  31
0.0
   0
LINE
   5
11B
 100
AcDbEntity
   8
0
 370
13
 100
AcDbLine
   6
CONTINUOUS
  62
6
  10
 760.05527801325
  20
 1097.2597298888
  30
0.0
  11
 760.05527801325
  21
 1497.2597298888
  31
0.0
   0
LINE
   5
11C
 100
AcDbEntity
   8
0
 370
13
 100
AcDbLine
   6
CONTINUOUS
  62
6
  10
 760.05527801325
  20
 1897.2597298888
  30
0.0
  11
 760.05527801325
  21
 1497.2597298888
  31
0.0
   0
INSERT
   5
11D
 100
AcDbEntity
   8
0
   6
CONTINUOUS
  62
6
 100
AcDbBlockReference
   2
_OPEN
  10
 760.05527801325
  20
 1097.2597298888
  30
0.0
  41
 42.000000000000
  42
 42.000000000000
  43
 42.000000000000
  50
 270.00000000000
   0
INSERT
   5
11E
 100
AcDbEntity
   8
0
   6
CONTINUOUS
  62
6
 100
AcDbBlockReference
   2
_OPEN
  10
 760.05527801325
  20
 1897.2597298888
  30
0.0
  41
 42.000000000000
  42
 42.000000000000
  43
 42.000000000000
  50
 90.000000000000
   0
MTEXT
   5
11F
 100
AcDbEntity
   8
0
 370
13
  62
1
 100
AcDbMText
  10
 734.34099229896
  20
 1497.2597298888
  30
0.0
  40
 60.000000000000
  41
0.0
  71
8
  72
1
   1
\A1;800
   7
GMM004
  11
0.0
  21
 1.0000000000000
  31
0.0
   0
ENDBLK
   5
120
 100
AcDbEntity
   8
0
 100
AcDbBlockEnd
   0
BLOCK
   5
121
 100
AcDbEntity
   8
0
 100
AcDbBlockBegin
   2
*D39
  70
65
  10
0.0
  20
0.0
  30
0.0
   3
*D39
   0
LINE
   5
122
 100
AcDbEntity
   8
0
 370
13
 100
AcDbLine
   6
CONTINUOUS
  62
6
  10
 1260.0552780132
  20
 967.25972988877
  30
0.0
  11
 1260.0552780132
  21
 767.25972988877
  31
0.0
   0
LINE
   5
123
 100
AcDbEntity
   8
0
 370
13
 100
AcDbLine
   6
CONTINUOUS
  62
6
  10
 1760.0552780132
  20
 967.25972988877
  30
0.0
  11
 1760.0552780132
  21
 767.25972988877
  31
0.0
   0
LINE
   5
124
 100
AcDbEntity
   8
0
 370
13
 100
AcDbLine
   6
CONTINUOUS
  62
6
  10
 1260.0552780132
  20
 797.25972988877
  30
0.0
  11
 1510.0552780132
  21
 797.25972988877
  31
0.0
   0
LINE
   5
125
 100
AcDbEntity
   8
0
 370
13
 100
AcDbLine
   6
CONTINUOUS
  62
6
  10
 1760.0552780132
  20
 797.25972988877
  30
0.0
  11
 1510.0552780132
  21
 797.25972988877
  31
0.0
   0
INSERT
   5
126
 100
AcDbEntity
   8
0
   6
CONTINUOUS
  62
6
 100
AcDbBlockReference
   2
_OPEN
  10
 1260.0552780132
  20
 797.25972988877
  30
0.0
  41
 42.000000000000
  42
 42.000000000000
  43
 42.000000000000
  50
 180.00000000000
   0
INSERT
   5
127
 100
AcDbEntity
   8
0
   6
CONTINUOUS
  62
6
 100
AcDbBlockReference
   2
_OPEN
  10
 1760.0552780132
  20
 797.25972988877
  30
0.0
  41
 42.000000000000
  42
 42.000000000000
  43
 42.000000000000
  50
0.0
   0
MTEXT
   5
128
 100
AcDbEntity
   8
0
 370
13
  62
1
 100
AcDbMText
  10
 1510.0552780132
  20
 822.97401560306
  30
0.0
  40
 60.000000000000
  41
0.0
  71
8
  72
1
   1
\A1;□500
   7
GMM004
   0
ENDBLK
   5
129
 100
AcDbEntity
   8
0
 100
AcDbBlockEnd
   0
BLOCK
   5
12A
 100
AcDbEntity
   8
0
 100
AcDbBlockBegin
   2
*D40
  70
65
  10
0.0
  20
0.0
  30
0.0
   3
*D40
   0
LINE
   5
12B
 100
AcDbEntity
   8
0
 370
13
 100
AcDbLine
   6
CONTINUOUS
  62
6
  10
 3260.0552780132
  20
 967.25972988877
  30
0.0
  11
 3260.0552780132
  21
 767.25972988877
  31
0.0
   0
LINE
   5
12C
 100
AcDbEntity
   8
0
 370
13
 100
AcDbLine
   6
CONTINUOUS
  62
6
  10
 2760.0552780132
  20
 967.25972988877
  30
0.0
  11
 2760.0552780132
  21
 767.25972988877
  31
0.0
   0
LINE
   5
12D
 100
AcDbEntity
   8
0
 370
13
 100
AcDbLine
   6
CONTINUOUS
  62
6
  10
 3260.0552780132
  20
 797.25972988877
  30
0.0
  11
 3010.0552780132
  21
 797.25972988877
  31
0.0
   0
LINE
   5
12E
 100
AcDbEntity
   8
0
 370
13
 100
AcDbLine
   6
CONTINUOUS
  62
6
  10
 2760.0552780132
  20
 797.25972988877
  30
0.0
  11
 3010.0552780132
  21
 797.25972988877
  31
0.0
   0
INSERT
   5
12F
 100
AcDbEntity
   8
0
   6
CONTINUOUS
  62
6
 100
AcDbBlockReference
   2
_OPEN
  10
 3260.0552780132
  20
 797.25972988877
  30
0.0
  41
 42.000000000000
  42
 42.000000000000
  43
 42.000000000000
  50
0.0
   0
INSERT
   5
130
 100
AcDbEntity
   8
0
   6
CONTINUOUS
  62
6
 100
AcDbBlockReference
   2
_OPEN
  10
 2760.0552780132
  20
 797.25972988877
  30
0.0
  41
 42.000000000000
  42
 42.000000000000
  43
 42.000000000000
  50
 180.00000000000
   0
MTEXT
   5
131
 100
AcDbEntity
   8
0
 370
13
  62
1
 100
AcDbMText
  10
 3010.0552780132
  20
 822.97401560306
  30
0.0
  40
 60.000000000000
  41
0.0
  71
8
  72
1
   1
\A1;□500
   7
GMM004
   0
ENDBLK
   5
132
 100
AcDbEntity
   8
0
 100
AcDbBlockEnd
   0
BLOCK
   5
133
 100
AcDbEntity
   8
0
 100
AcDbBlockBegin
   2
*D41
  70
65
  10
0.0
  20
0.0
  30
0.0
   3
*D41
   0
LINE
   5
134
 100
AcDbEntity
   8
LEVEL001
 370
13
 100
AcDbLine
   6
CONTINUOUS
  62
6
  10
 1774.1930261674
  20
 4882.2597298890
  30
0.0
  11
 1510.0552780132
  21
 4729.7597298888
  31
0.0
   0
LINE
   5
135
 100
AcDbEntity
   8
LEVEL001
 370
13
 100
AcDbLine
   6
CONTINUOUS
  62
6
  10
 1510.0552780132
  20
 4729.7597298888
  30
0.0
  11
 1245.9175298591
  21
 4577.2597298885
  31
0.0
   0
INSERT
   5
136
 100
AcDbEntity
   8
LEVEL001
   6
CONTINUOUS
  62
6
 100
AcDbBlockReference
   2
_OPEN
  10
 1774.1930261674
  20
 4882.2597298890
  30
0.0
  41
 42.000000000000
  42
 42.000000000000
  43
 42.000000000000
  50
 30.000000000055
   0
INSERT
   5
137
 100
AcDbEntity
   8
LEVEL001
   6
CONTINUOUS
  62
6
 100
AcDbBlockReference
   2
_OPEN
  10
 1245.9175298591
  20
 4577.2597298885
  30
0.0
  41
 42.000000000000
  42
 42.000000000000
  43
 42.000000000000
  50
 210.00000000006
   0
MTEXT
   5
138
 100
AcDbEntity
   8
LEVEL001
 370
13
  62
1
 100
AcDbMText
  10
 1503.0552780133
  20
 4741.8840855417
  30
0.0
  40
 60.000000000000
  41
0.0
  71
8
  72
1
   1
\A1;%%c600
   7
GMM004
  11
 0.86602540378395
  21
 0.50000000000084
  31
0.0
   0
ENDBLK
   5
139
 100
AcDbEntity
   8
0
 100
AcDbBlockEnd
   0
ENDSEC
   0
SECTION
   2
ENTITIES
   0
LINE
   5
13A
 100
AcDbEntity
   8
LEVEL001
 370
13
 100
AcDbLine
   6
CONTINUOUS
  62
7
  10
 8110.0552780132
  20
 5729.7597298888
  30
0.0
  11
 310.05527801325
  21
 5729.7597298888
  31
0.0
   0
LINE
   5
13B
 100
AcDbEntity
   8
LEVEL001
 370
13
 100
AcDbLine
   6
CONTINUOUS
  62
7
  10
 310.05527801325
  20
 5729.7597298888
  30
0.0
  11
 310.05527801325
  21
 229.75972988876
  31
0.0
   0
LINE
   5
13C
 100
AcDbEntity
   8
LEVEL001
 370
13
 100
AcDbLine
   6
CONTINUOUS
  62
7
  10
 310.05527801325
  20
 229.75972988876
  30
0.0
  11
 8110.0552780132
  21
 229.75972988876
  31
0.0
   0
LINE
   5
13D
 100
AcDbEntity
   8
LEVEL001
 370
13
 100
AcDbLine
   6
CONTINUOUS
  62
7
  10
 8110.0552780132
  20
 229.75972988876
  30
0.0
  11
 8110.0552780132
  21
 5729.7597298888
  31
0.0
   0
LINE
   5
13E
 100
AcDbEntity
   8
LEVEL001
 370
13
 100
AcDbLine
   6
CONTINUOUS
  62
2
  10
 5470.0552780132
  20
 709.75972988876
  30
0.0
  11
 7150.0552780132
  21
 709.75972988876
  31
0.0
   0
POINT
   5
13F
 100
AcDbEntity
   8
LEVEL001
 100
AcDbPoint
  62
3
  10
 6310.0552780132
  20
 769.75972988876
  30
0.0
   0
LINE
   5
140
 100
AcDbEntity
   8
LEVEL001
 370
13
 100
AcDbLine
   6
CONTINUOUS
  62
6
  10
 5470.0552780132
  20
 2489.7597298888
  30
0.0
  11
 8110.0552780132
  21
 2489.7597298888
  31
0.0
   0
LINE
   5
141
 100
AcDbEntity
   8
LEVEL001
 370
13
 100
AcDbLine
   6
CONTINUOUS
  62
6
  10
 5470.0552780132
  20
 1049.7597298888
  30
0.0
  11
 8110.0552780132
  21
 1049.7597298888
  31
0.0
   0
LINE
   5
142
 100
AcDbEntity
   8
LEVEL001
 370
13
 100
AcDbLine
   6
CONTINUOUS
  62
6
  10
 5470.0552780132
  20
 1169.7597298888
  30
0.0
  11
 8110.0552780132
  21
 1169.7597298888
  31
0.0
   0
LINE
   5
143
 100
AcDbEntity
   8
LEVEL001
 370
13
 100
AcDbLine
   6
CONTINUOUS
  62
6
  10
 5470.0552780132
  20
 1289.7597298888
  30
0.0
  11
 8110.0552780132
  21
 1289.7597298888
  31
0.0
   0
LINE
   5
144
 100
AcDbEntity
   8
LEVEL001
 370
13
 100
AcDbLine
   6
CONTINUOUS
  62
6
  10
 5470.0552780132
  20
 1409.7597298888
  30
0.0
  11
 8110.0552780132
  21
 1409.7597298888
  31
0.0
   0
LINE
   5
145
 100
AcDbEntity
   8
LEVEL001
 370
13
 100
AcDbLine
   6
CONTINUOUS
  62
6
  10
 5470.0552780132
  20
 1529.7597298888
  30
0.0
  11
 8110.0552780132
  21
 1529.7597298888
  31
0.0
   0
MTEXT
   5
146
 100
AcDbEntity
   8
LEVEL001
 370
13
  62
1
 100
AcDbMText
  10
 7350.0552780132
  20
 1949.7597298888
  30
0.0
  40
 51.428571428572
  41
0.0
  71
4
  72
1
   1
\T1.000000;溶融亜鉛メッキ
   7
GMM001
  44
 0.79999984000003
   0
MTEXT
   5
147
 100
AcDbEntity
   8
LEVEL001
 370
13
  62
1
 100
AcDbMText
  10
 7350.0552780132
  20
 2069.7597298888
  30
0.0
  40
 51.428571428572
  41
0.0
  71
4
  72
1
   1
\T1.000000;溶融亜鉛メッキ
   7
GMM001
  44
 0.79999984000003
   0
MTEXT
   5
148
 100
AcDbEntity
   8
LEVEL001
 370
13
  62
1
 100
AcDbMText
  10
 6790.0552780132
  20
 1949.7597298888
  30
0.0
  40
 51.428571428572
  41
0.0
  71
4
  72
1
   1
\T1.000000;ＳＳ４００
   7
GMM001
  44
 0.79999984000003
   0
MTEXT
   5
149
 100
AcDbEntity
   8
LEVEL001
 370
13
  62
1
 100
AcDbMText
  10
 6790.0552780132
  20
 2069.7597298888
  30
0.0
  40
 51.428571428572
  41
0.0
  71
4
  72
1
   1
\T1.000000;ＳＳ４００
   7
GMM001
  44
 0.79999984000003
   0
MTEXT
   5
14A
 100
AcDbEntity
   8
LEVEL001
 370
13
  62
1
 100
AcDbMText
  10
 5642.0552780132
  20
 1829.7597298888
  30
0.0
  40
 51.428571428572
  41
0.0
  71
6
  72
1
   1
\T1.000000;９
   7
GMM001
  44
 0.79999984000003
   0
MTEXT
   5
14B
 100
AcDbEntity
   8
LEVEL001
 370
13
  62
1
 100
AcDbMText
  10
 5642.0552780132
  20
 1949.7597298888
  30
0.0
  40
 51.428571428572
  41
0.0
  71
6
  72
1
   1
\T1.000000;８
   7
GMM001
  44
 0.79999984000003
   0
MTEXT
   5
14C
 100
AcDbEntity
   8
LEVEL001
 370
13
  62
1
 100
AcDbMText
  10
 5710.0552780132
  20
 1949.7597298888
  30
0.0
  40
 51.428571428572
  41
0.0
  71
4
  72
1
   1
\T1.000000;金具締付ボルトナット
   7
GMM001
  44
 0.79999984000003
   0
MTEXT
   5
14D
 100
AcDbEntity
   8
LEVEL001
 370
13
  62
1
 100
AcDbMText
  10
 5642.0552780132
  20
 2069.7597298888
  30
0.0
  40
 51.428571428572
  41
0.0
  71
6
  72
1
   1
\T1.000000;７
   7
GMM001
  44
 0.79999984000003
   0
MTEXT
   5
14E
 100
AcDbEntity
   8
LEVEL001
 370
13
  62
1
 100
AcDbMText
  10
 5710.0552780132
  20
 2069.7597298888
  30
0.0
  40
 51.428571428572
  41
0.0
  71
4
  72
1
   1
\T1.000000;裏板金具取付ボルト
   7
GMM001
  44
 0.79999984000003
   0
LINE
   5
14F
 100
AcDbEntity
   8
LEVEL001
 370
13
 100
AcDbLine
   6
CONTINUOUS
  62
6
  10
 5470.0552780132
  20
 1649.7597298888
  30
0.0
  11
 8110.0552780132
  21
 1649.7597298888
  31
0.0
   0
LINE
   5
150
 100
AcDbEntity
   8
LEVEL001
 370
13
 100
AcDbLine
   6
CONTINUOUS
  62
6
  10
 5470.0552780132
  20
 1889.7597298888
  30
0.0
  11
 8110.0552780132
  21
 1889.7597298888
  31
0.0
   0
LINE
   5
151
 100
AcDbEntity
   8
LEVEL001
 370
13
 100
AcDbLine
   6
CONTINUOUS
  62
6
  10
 5470.0552780132
  20
 2009.7597298888
  30
0.0
  11
 8110.0552780132
  21
 2009.7597298888
  31
0.0
   0
MTEXT
   5
152
 100
AcDbEntity
   8
LEVEL001
 370
13
  62
1
 100
AcDbMText
  10
 5710.0552780132
  20
 2189.7597298888
  30
0.0
  40
 51.428571428572
  41
0.0
  71
4
  72
1
   1
\T1.000000;支柱取付金具
   7
GMM001
  44
 0.79999984000003
   0
MTEXT
   5
153
 100
AcDbEntity
   8
LEVEL001
 370
13
  62
1
 100
AcDbMText
  10
 5642.0552780132
  20
 2189.7597298888
  30
0.0
  40
 51.428571428572
  41
0.0
  71
6
  72
1
   1
\T1.000000;６
   7
GMM001
  44
 0.79999984000003
   0
MTEXT
   5
154
 100
AcDbEntity
   8
LEVEL001
 370
13
  62
1
 100
AcDbMText
  10
 6790.0552780132
  20
 2189.7597298888
  30
0.0
  40
 51.428571428572
  41
0.0
  71
4
  72
1
   1
\T1.000000;ＳＳ４００
   7
GMM001
  44
 0.79999984000003
   0
MTEXT
   5
155
 100
AcDbEntity
   8
LEVEL001
 370
13
  62
1
 100
AcDbMText
  10
 5642.0552780132
  20
 2309.7597298888
  30
0.0
  40
 51.428571428572
  41
0.0
  71
6
  72
1
   1
\T1.000000;５
   7
GMM001
  44
 0.79999984000003
   0
MTEXT
   5
156
 100
AcDbEntity
   8
LEVEL001
 370
13
  62
1
 100
AcDbMText
  10
 5710.0552780132
  20
 2309.7597298888
  30
0.0
  40
 51.428571428572
  41
0.0
  71
4
  72
1
   1
\T1.000000;裏板取付金具
   7
GMM001
  44
 0.79999984000003
   0
MTEXT
   5
157
 100
AcDbEntity
   8
LEVEL001
 370
13
  62
1
 100
AcDbMText
  10
 5642.0552780132
  20
 2429.7597298888
  30
0.0
  40
 51.428571428572
  41
0.0
  71
6
  72
1
   1
\T1.000000;４
   7
GMM001
  44
 0.79999984000003
   0
MTEXT
   5
158
 100
AcDbEntity
   8
LEVEL001
 370
13
  62
1
 100
AcDbMText
  10
 5710.0552780132
  20
 2429.7597298888
  30
0.0
  40
 51.428571428572
  41
0.0
  71
4
  72
1
   1
\T1.000000;リング
   7
GMM001
  44
 0.79999984000003
   0
MTEXT
   5
159
 100
AcDbEntity
   8
LEVEL001
 370
13
  62
1
 100
AcDbMText
  10
 5642.0552780132
  20
 2549.7597298888
  30
0.0
  40
 51.428571428572
  41
0.0
  71
6
  72
1
   1
\T1.000000;３
   7
GMM001
  44
 0.79999984000003
   0
MTEXT
   5
15A
 100
AcDbEntity
   8
LEVEL001
 370
13
  62
1
 100
AcDbMText
  10
 5710.0552780132
  20
 2549.7597298888
  30
0.0
  40
 51.428571428572
  41
0.0
  71
4
  72
1
   1
\T1.000000;フード
   7
GMM001
  44
 0.79999984000003
   0
MTEXT
   5
15B
 100
AcDbEntity
   8
LEVEL001
 370
13
  62
1
 100
AcDbMText
  10
 5642.0552780132
  20
 2669.7597298888
  30
0.0
  40
 51.428571428572
  41
0.0
  71
6
  72
1
   1
\T1.000000;２
   7
GMM001
  44
 0.79999984000003
   0
MTEXT
   5
15C
 100
AcDbEntity
   8
LEVEL001
 370
13
  62
1
 100
AcDbMText
  10
 5642.0552780132
  20
 2789.7597298888
  30
0.0
  40
 51.428571428572
  41
0.0
  71
6
  72
1
   1
\T1.000000;１
   7
GMM001
  44
 0.79999984000003
   0
MTEXT
   5
15D
 100
AcDbEntity
   8
LEVEL001
 370
13
  62
1
 100
AcDbMText
  10
 5710.0552780132
  20
 2669.7597298888
  30
0.0
  40
 51.428571428572
  41
0.0
  71
4
  72
1
   1
\T1.000000;バックプレート
   7
GMM001
  44
 0.79999984000003
   0
MTEXT
   5
15E
 100
AcDbEntity
   8
LEVEL001
 370
13
  62
1
 100
AcDbMText
  10
 5710.0552780132
  20
 2789.7597298888
  30
0.0
  40
 51.428571428572
  41
0.0
  71
4
  72
1
   1
\T1.000000;鏡面　Ｒ＝２２００
   7
GMM001
  44
 0.79999984000003
   0
MTEXT
   5
15F
 100
AcDbEntity
   8
LEVEL001
 370
13
  62
1
 100
AcDbMText
  10
 6790.0552780132
  20
 2309.7597298888
  30
0.0
  40
 51.428571428572
  41
0.0
  71
4
  72
1
   1
\T1.000000;ＳＳ４００
   7
GMM001
  44
 0.79999984000003
   0
MTEXT
   5
160
 100
AcDbEntity
   8
LEVEL001
 370
13
  62
1
 100
AcDbMText
  10
 6790.0552780132
  20
 2429.7597298888
  30
0.0
  40
 51.428571428572
  41
0.0
  71
4
  72
1
   1
\T1.000000;軟質ＰＶＣ
   7
GMM001
  44
 0.79999984000003
   0
MTEXT
   5
161
 100
AcDbEntity
   8
LEVEL001
 370
13
  62
1
 100
AcDbMText
  10
 6790.0552780132
  20
 2549.7597298888
  30
0.0
  40
 51.428571428572
  41
0.0
  71
4
  72
1
   1
\T1.000000;ＰＣ
   7
GMM001
  44
 0.79999984000003
   0
MTEXT
   5
162
 100
AcDbEntity
   8
LEVEL001
 370
13
  62
1
 100
AcDbMText
  10
 6790.0552780132
  20
 2789.7597298888
  30
0.0
  40
 51.428571428572
  41
0.0
  71
4
  72
1
   1
\T1.000000;ＳＵＳ３０４
   7
GMM001
  44
 0.79999984000003
   0
MTEXT
   5
163
 100
AcDbEntity
   8
LEVEL001
 370
13
  62
1
 100
AcDbMText
  10
 7350.0552780132
  20
 2189.7597298888
  30
0.0
  40
 51.428571428572
  41
0.0
  71
4
  72
1
   1
\T1.000000;溶融亜鉛メッキ
   7
GMM001
  44
 0.79999984000003
   0
MTEXT
   5
164
 100
AcDbEntity
   8
LEVEL001
 370
13
  62
1
 100
AcDbMText
  10
 7350.0552780132
  20
 2309.7597298888
  30
0.0
  40
 51.428571428572
  41
0.0
  71
4
  72
1
   1
\T1.000000;溶融亜鉛メッキ
   7
GMM001
  44
 0.79999984000003
   0
MTEXT
   5
165
 100
AcDbEntity
   8
LEVEL001
 370
13
  62
1
 100
AcDbMText
  10
 7350.0552780132
  20
 2789.7597298888
  30
0.0
  40
 51.428571428572
  41
0.0
  71
4
  72
1
   1
\T1.000000;t=0.9mm\T1.000000;・表面研磨
   7
GMM001
  44
 0.79999984000003
   0
MTEXT
   5
166
 100
AcDbEntity
   8
LEVEL001
 370
13
  62
1
 100
AcDbMText
  10
 7350.0552780132
  20
 2549.7597298888
  30
0.0
  40
 51.428571428572
  41
0.0
  71
4
  72
1
   1
\T1.000000;ＵＶグレ－ド
   7
GMM001
  44
 0.79999984000003
   0
LINE
   5
167
 100
AcDbEntity
   8
LEVEL001
 370
13
 100
AcDbLine
   6
CONTINUOUS
  62
6
  10
 5470.0552780132
  20
 2129.7597298888
  30
0.0
  11
 8110.0552780132
  21
 2129.7597298888
  31
0.0
   0
LINE
   5
168
 100
AcDbEntity
   8
LEVEL001
 370
13
 100
AcDbLine
   6
CONTINUOUS
  62
6
  10
 5470.0552780132
  20
 2249.7597298888
  30
0.0
  11
 8110.0552780132
  21
 2249.7597298888
  31
0.0
   0
LINE
   5
169
 100
AcDbEntity
   8
LEVEL001
 370
13
 100
AcDbLine
   6
CONTINUOUS
  62
6
  10
 5470.0552780132
  20
 2609.7597298888
  30
0.0
  11
 8110.0552780132
  21
 2609.7597298888
  31
0.0
   0
LINE
   5
16A
 100
AcDbEntity
   8
LEVEL001
 370
13
 100
AcDbLine
   6
CONTINUOUS
  62
6
  10
 5470.0552780132
  20
 2369.7597298888
  30
0.0
  11
 8110.0552780132
  21
 2369.7597298888
  31
0.0
   0
LINE
   5
16B
 100
AcDbEntity
   8
LEVEL001
 370
13
 100
AcDbLine
   6
CONTINUOUS
  62
6
  10
 5470.0552780132
  20
 2729.7597298888
  30
0.0
  11
 8110.0552780132
  21
 2729.7597298888
  31
0.0
   0
MTEXT
   5
16C
 100
AcDbEntity
   8
LEVEL001
 370
13
  62
1
 100
AcDbMText
  10
 6110.0552780132
  20
 2929.7597298888
  30
0.0
  40
 51.428571428572
  41
0.0
  71
5
  72
1
   1
\T1.000000;名　　称
   7
GMM001
  44
 0.79999984000003
   0
MTEXT
   5
16D
 100
AcDbEntity
   8
LEVEL001
 370
13
  62
1
 100
AcDbMText
  10
 6650.0552780132
  20
 2929.7597298888
  30
0.0
  40
 51.428571428572
  41
0.0
  71
5
  72
1
   1
\T1.000000;個数
   7
GMM001
  44
 0.79999984000003
   0
MTEXT
   5
16E
 100
AcDbEntity
   8
LEVEL001
 370
13
  62
1
 100
AcDbMText
  10
 7030.0552780132
  20
 2929.7597298888
  30
0.0
  40
 51.428571428572
  41
0.0
  71
5
  72
1
   1
\T1.000000;材　　質
   7
GMM001
  44
 0.79999984000003
   0
MTEXT
   5
16F
 100
AcDbEntity
   8
LEVEL001
 370
13
  62
1
 100
AcDbMText
  10
 7710.0552780132
  20
 2929.7597298888
  30
0.0
  40
 51.428571428572
  41
0.0
  71
5
  72
1
   1
\T1.000000;規格仕様
   7
GMM001
  44
 0.79999984000003
   0
LINE
   5
170
 100
AcDbEntity
   8
LEVEL001
 370
13
 100
AcDbLine
   6
CONTINUOUS
  62
6
  10
 5670.0552780132
  20
 3009.7597298888
  30
0.0
  11
 5670.0552780132
  21
 929.75972988876
  31
0.0
   0
LINE
   5
171
 100
AcDbEntity
   8
LEVEL001
 370
13
 100
AcDbLine
   6
CONTINUOUS
  62
6
  10
 6550.0552780132
  20
 3009.7597298888
  30
0.0
  11
 6550.0552780132
  21
 929.75972988876
  31
0.0
   0
LINE
   5
172
 100
AcDbEntity
   8
LEVEL001
 370
13
 100
AcDbLine
   6
CONTINUOUS
  62
6
  10
 6750.0552780132
  20
 3009.7597298888
  30
0.0
  11
 6750.0552780132
  21
 929.75972988876
  31
0.0
   0
LINE
   5
173
 100
AcDbEntity
   8
LEVEL001
 370
13
 100
AcDbLine
   6
CONTINUOUS
  62
6
  10
 7310.0552780132
  20
 3009.7597298888
  30
0.0
  11
 7310.0552780132
  21
 929.75972988876
  31
0.0
   0
LINE
   5
174
 100
AcDbEntity
   8
LEVEL001
 370
13
 100
AcDbLine
   6
CONTINUOUS
  62
2
  10
 5470.0552780132
  20
 3009.7597298888
  30
0.0
  11
 8110.0552780132
  21
 3009.7597298888
  31
0.0
   0
LINE
   5
175
 100
AcDbEntity
   8
LEVEL001
 370
13
 100
AcDbLine
   6
CONTINUOUS
  62
2
  10
 5470.0552780132
  20
 2849.7597298888
  30
0.0
  11
 8110.0552780132
  21
 2849.7597298888
  31
0.0
   0
MTEXT
   5
176
 100
AcDbEntity
   8
LEVEL001
 370
13
  62
1
 100
AcDbMText
  10
 5570.0552780132
  20
 3089.7597298888
  30
0.0
  40
 57.142857142858
  41
0.0
  71
4
  72
1
   1
%%c\T1.000000;６００（シングル）
   7
GMM001
  44
 0.79999984000003
   0
MTEXT
   5
177
 100
AcDbEntity
   8
LEVEL001
 370
13
  62
1
 100
AcDbMText
  10
 7350.0552780132
  20
 1829.7597298888
  30
0.0
  40
 51.428571428572
  41
0.0
  71
4
  72
1
   1
\T1.000000;静電粉体塗装
   7
GMM001
  44
 0.79999984000003
   0
MTEXT
   5
178
 100
AcDbEntity
   8
LEVEL001
 370
13
  62
1
 100
AcDbMText
  10
 6790.0552780132
  20
 1829.7597298888
  30
0.0
  40
 51.428571428572
  41
0.0
  71
4
  72
1
   1
\T1.000000;ＳＴＫ４００
   7
GMM001
  44
 0.79999984000003
   0
MTEXT
   5
179
 100
AcDbEntity
   8
LEVEL001
 370
13
  62
1
 100
AcDbMText
  10
 6722.0552780132
  20
 1829.7597298888
  30
0.0
  40
 51.428571428572
  41
0.0
  71
6
  72
1
   1
\T1.000000;１
   7
GMM001
  44
 0.79999984000003
   0
MTEXT
   5
17A
 100
AcDbEntity
   8
LEVEL001
 370
13
  62
1
 100
AcDbMText
  10
 5710.0552780132
  20
 1829.7597298888
  30
0.0
  40
 51.428571428572
  41
0.0
  71
4
  72
1
   1
\T1.000000;支柱
   7
GMM001
  44
 0.79999984000003
   0
MTEXT
   5
17B
 100
AcDbEntity
   8
LEVEL001
 370
13
  62
1
 100
AcDbMText
  10
 6722.0552780132
  20
 2789.7597298888
  30
0.0
  40
 51.428571428572
  41
0.0
  71
6
  72
1
   1
\T1.000000;１
   7
GMM001
  44
 0.79999984000003
   0
MTEXT
   5
17C
 100
AcDbEntity
   8
LEVEL001
 370
13
  62
1
 100
AcDbMText
  10
 6722.0552780132
  20
 2069.7597298888
  30
0.0
  40
 51.428571428572
  41
0.0
  71
6
  72
1
   1
\T1.000000;４
   7
GMM001
  44
 0.79999984000003
   0
MTEXT
   5
17D
 100
AcDbEntity
   8
LEVEL001
 370
13
  62
1
 100
AcDbMText
  10
 6722.0552780132
  20
 1949.7597298888
  30
0.0
  40
 51.428571428572
  41
0.0
  71
6
  72
1
   1
\T1.000000;４
   7
GMM001
  44
 0.79999984000003
   0
MTEXT
   5
17E
 100
AcDbEntity
   8
LEVEL001
 370
13
  62
1
 100
AcDbMText
  10
 6722.0552780132
  20
 2669.7597298888
  30
0.0
  40
 51.428571428572
  41
0.0
  71
6
  72
1
   1
\T1.000000;１
   7
GMM001
  44
 0.79999984000003
   0
MTEXT
   5
17F
 100
AcDbEntity
   8
LEVEL001
 370
13
  62
1
 100
AcDbMText
  10
 6722.0552780132
  20
 2549.7597298888
  30
0.0
  40
 51.428571428572
  41
0.0
  71
6
  72
1
   1
\T1.000000;１
   7
GMM001
  44
 0.79999984000003
   0
MTEXT
   5
180
 100
AcDbEntity
   8
LEVEL001
 370
13
  62
1
 100
AcDbMText
  10
 6722.0552780132
  20
 2429.7597298888
  30
0.0
  40
 51.428571428572
  41
0.0
  71
6
  72
1
   1
\T1.000000;１
   7
GMM001
  44
 0.79999984000003
   0
MTEXT
   5
181
 100
AcDbEntity
   8
LEVEL001
 370
13
  62
1
 100
AcDbMText
  10
 6722.0552780132
  20
 2309.7597298888
  30
0.0
  40
 51.428571428572
  41
0.0
  71
6
  72
1
   1
\T1.000000;１
   7
GMM001
  44
 0.79999984000003
   0
MTEXT
   5
182
 100
AcDbEntity
   8
LEVEL001
 370
13
  62
1
 100
AcDbMText
  10
 6722.0552780132
  20
 2189.7597298888
  30
0.0
  40
 51.428571428572
  41
0.0
  71
6
  72
1
   1
\T1.000000;１
   7
GMM001
  44
 0.79999984000003
   0
MTEXT
   5
183
 100
AcDbEntity
   8
LEVEL001
 370
13
  62
1
 100
AcDbMText
  10
 5570.0552780132
  20
 3249.7597298888
  30
0.0
  40
 57.142857142858
  41
0.0
  71
4
  72
1
   1
\T1.000000;ステンレスミラー　＜Ｚタイプ＞
   7
GMM001
  44
 0.79999984000003
   0
MTEXT
   5
184
 100
AcDbEntity
   8
LEVEL001
 370
13
  62
1
 100
AcDbMText
  10
 6790.0552780132
  20
 2669.7597298888
  30
0.0
  40
 51.428571428572
  41
0.0
  71
4
  72
1
   1
\T1.000000;高耐食溶融めっき鋼板
   7
GMM002
  44
 0.79999984000003
   0
MTEXT
   5
185
 100
AcDbEntity
   8
LEVEL001
 370
13
  62
1
 100
AcDbMText
  10
 5642.0552780132
  20
 1109.7597298888
  30
0.0
  40
 51.428571428572
  41
0.0
  71
6
  72
1
   1
\T1.000000;１４
   7
GMM001
  44
 0.79999984000003
   0
MTEXT
   5
186
 100
AcDbEntity
   8
LEVEL001
 370
13
  62
1
 100
AcDbMText
  10
 5642.0552780132
  20
 1229.7597298888
  30
0.0
  40
 51.428571428572
  41
0.0
  71
6
  72
1
   1
\T1.000000;１３
   7
GMM001
  44
 0.79999984000003
   0
MTEXT
   5
187
 100
AcDbEntity
   8
LEVEL001
 370
13
  62
1
 100
AcDbMText
  10
 5642.0552780132
  20
 1349.7597298888
  30
0.0
  40
 51.428571428572
  41
0.0
  71
6
  72
1
   1
\T1.000000;１２
   7
GMM001
  44
 0.79999984000003
   0
MTEXT
   5
188
 100
AcDbEntity
   8
LEVEL001
 370
13
  62
1
 100
AcDbMText
  10
 5642.0552780132
  20
 1469.7597298888
  30
0.0
  40
 51.428571428572
  41
0.0
  71
6
  72
1
   1
\T1.000000;１１
   7
GMM001
  44
 0.79999984000003
   0
MTEXT
   5
189
 100
AcDbEntity
   8
LEVEL001
 370
13
  62
1
 100
AcDbMText
  10
 5642.0552780132
  20
 1589.7597298888
  30
0.0
  40
 51.428571428572
  41
0.0
  71
6
  72
1
   1
\T1.000000;１０
   7
GMM001
  44
 0.79999984000003
   0
MTEXT
   5
18A
 100
AcDbEntity
   8
LEVEL001
 370
13
  62
1
 100
AcDbMText
  10
 5710.0552780132
  20
 1109.7597298888
  30
0.0
  40
 51.428571428572
  41
0.0
  71
4
  72
1
   1
\T1.000000;同上ボルトナット
   7
GMM001
  44
 0.79999984000003
   0
MTEXT
   5
18B
 100
AcDbEntity
   8
LEVEL001
 370
13
  62
1
 100
AcDbMText
  10
 5710.0552780132
  20
 1229.7597298888
  30
0.0
  40
 51.428571428572
  41
0.0
  71
4
  72
1
   1
\T1.000000;注意板取付バンド
   7
GMM001
  44
 0.79999984000003
   0
MTEXT
   5
18C
 100
AcDbEntity
   8
LEVEL001
 370
13
  62
1
 100
AcDbMText
  10
 5710.0552780132
  20
 1469.7597298888
  30
0.0
  40
 51.428571428572
  41
0.0
  71
4
  72
1
   1
\T1.000000;キャップ
   7
GMM001
  44
 0.79999984000003
   0
MTEXT
   5
18D
 100
AcDbEntity
   8
LEVEL001
 370
13
  62
1
 100
AcDbMText
  10
 5710.0552780132
  20
 1589.7597298888
  30
0.0
  40
 51.428571428572
  41
0.0
  71
4
  72
1
   1
\T1.000000;根入れ鉄筋
   7
GMM001
  44
 0.79999984000003
   0
MTEXT
   5
18E
 100
AcDbEntity
   8
LEVEL001
 370
13
  62
1
 100
AcDbMText
  10
 6722.0552780132
  20
 1349.7597298888
  30
0.0
  40
 51.428571428572
  41
0.0
  71
6
  72
1
   1
\T1.000000;１
   7
GMM001
  44
 0.79999984000003
   0
MTEXT
   5
18F
 100
AcDbEntity
   8
LEVEL001
 370
13
  62
1
 100
AcDbMText
  10
 6722.0552780132
  20
 1469.7597298888
  30
0.0
  40
 51.428571428572
  41
0.0
  71
6
  72
1
   1
\T1.000000;１
   7
GMM001
  44
 0.79999984000003
   0
MTEXT
   5
190
 100
AcDbEntity
   8
LEVEL001
 370
13
  62
1
 100
AcDbMText
  10
 6722.0552780132
  20
 1589.7597298888
  30
0.0
  40
 51.428571428572
  41
0.0
  71
6
  72
1
   1
\T1.000000;１
   7
GMM001
  44
 0.79999984000003
   0
MTEXT
   5
191
 100
AcDbEntity
   8
LEVEL001
 370
13
  62
1
 100
AcDbMText
  10
 6790.0552780132
  20
 1589.7597298888
  30
0.0
  40
 51.428571428572
  41
0.0
  71
4
  72
1
   1
\T1.000000;ＳＤ２９５Ａ
   7
GMM001
  44
 0.79999984000003
   0
MTEXT
   5
192
 100
AcDbEntity
   8
LEVEL001
 370
13
  62
1
 100
AcDbMText
  10
 6800.0552780132
  20
 1466.9069452805
  30
0.0
  40
 51.428571428572
  41
0.0
  71
4
  72
1
   1
\T1.000000;ＰＥ
   7
GMM001
  44
 0.79999984000003
   0
LWPOLYLINE
   5
193
 100
AcDbEntity
   8
0
 370
13
   6
CONTINUOUS
  62
2
 100
AcDbPolyline
  90
4
  70
1
  10
 5470.0552780132
  20
 929.75972988876
  10
 8110.0552780132
  20
 929.75972988876
  10
 8110.0552780132
  20
 3329.7597298888
  10
 5470.0552780132
  20
 3329.7597298888
   0
MTEXT
   5
194
 100
AcDbEntity
   8
0
 370
13
  62
1
 100
AcDbMText
  10
 6789.6386691447
  20
 1676.0285796432
  30
0.0
  40
 51.428571428571
  41
0.0
  71
7
  72
1
   1
\T1.000000;ＳＴＫ４００
   7
GMM001
  44
 0.79999984000003
   0
MTEXT
   5
195
 100
AcDbEntity
   8
0
 370
13
  62
1
 100
AcDbMText
  10
 7351.4368072632
  20
 1715.6198008597
  30
0.0
  40
 34.285720000000
  41
0.0
  71
4
  72
1
   1
{\T1.000000;下地亜鉛メッキ}\P{\T1.000000;＋静電粉体塗装}
   7
GMM003
  44
 0.79999984000003
   0
MTEXT
   5
196
 100
AcDbEntity
   8
0
 370
13
  62
1
 100
AcDbMText
  10
 6721.0342517673
  20
 1676.0285796432
  30
0.0
  40
 51.428571428571
  41
0.0
  71
9
  72
1
   1
\T1.000000;１
   7
GMM001
  44
 0.79999984000003
   0
LINE
   5
197
 100
AcDbEntity
   8
0
 370
13
 100
AcDbLine
   6
CONTINUOUS
  62
6
  10
 6550.0552780132
  20
 1769.7597298888
  30
0.0
  11
 8110.0552780132
  21
 1769.7597298888
  31
0.0
   0
MTEXT
   5
198
 100
AcDbEntity
   8
LEVEL001
 370
13
  62
1
 100
AcDbMText
  10
 6722.0552780132
  20
 1229.7597298888
  30
0.0
  40
 51.428571428572
  41
0.0
  71
6
  72
1
   1
\T1.000000;１式
   7
GMM001
  44
 0.79999984000003
   0
MTEXT
   5
199
 100
AcDbEntity
   8
LEVEL001
 370
13
  62
1
 100
AcDbMText
  10
 6722.0552780132
  20
 1109.7597298888
  30
0.0
  40
 51.428571428572
  41
0.0
  71
6
  72
1
   1
\T1.000000;１式
   7
GMM001
  44
 0.79999984000003
   0
MTEXT
   5
19A
 100
AcDbEntity
   8
LEVEL001
 370
13
  62
1
 100
AcDbMText
  10
 6790.0552780132
  20
 1349.7597298888
  30
0.0
  40
 51.428571428572
  41
0.0
  71
4
  72
1
   1
\T1.000000;―
   7
GMM001
  44
 0.79999984000003
   0
MTEXT
   5
19B
 100
AcDbEntity
   8
LEVEL001
 370
13
  62
1
 100
AcDbMText
  10
 6790.0552780132
  20
 1109.7597298888
  30
0.0
  40
 51.428571428572
  41
0.0
  71
4
  72
1
   1
\T1.000000;―
   7
GMM001
  44
 0.79999984000003
   0
MTEXT
   5
19C
 100
AcDbEntity
   8
LEVEL001
 370
13
  62
1
 100
AcDbMText
  10
 6790.0552780132
  20
 1229.7597298888
  30
0.0
  40
 51.428571428572
  41
0.0
  71
4
  72
1
   1
\T1.000000;―
   7
GMM001
  44
 0.79999984000003
   0
MTEXT
   5
19D
 100
AcDbEntity
   8
LEVEL001
 370
13
  62
1
 100
AcDbMText
  10
 7350.0552780132
  20
 1229.7597298888
  30
0.0
  40
 51.428571428572
  41
0.0
  71
4
  72
1
   1
\T1.000000;―
   7
GMM001
  44
 0.79999984000003
   0
MTEXT
   5
19E
 100
AcDbEntity
   8
LEVEL001
 370
13
  62
1
 100
AcDbMText
  10
 7350.0552780132
  20
 1109.7597298888
  30
0.0
  40
 51.428571428572
  41
0.0
  71
4
  72
1
   1
\T1.000000;―
   7
GMM001
  44
 0.79999984000003
   0
MTEXT
   5
19F
 100
AcDbEntity
   8
LEVEL001
 370
13
  62
1
 100
AcDbMText
  10
 5710.0552780132
  20
 1349.7597298888
  30
0.0
  40
 51.428571428572
  41
0.0
  71
4
  72
1
   1
\T1.000000;注意板
   7
GMM001
  44
 0.79999984000003
   0
MTEXT
   5
1A0
 100
AcDbEntity
   8
LEVEL001
 370
13
  62
1
 100
AcDbMText
  10
 7350.0552780132
  20
 2723.3974879777
  30
0.0
  40
 34.285714285714
  41
0.0
  71
1
  72
1
   1
{\T1.000000;ＺＡＭ処理鋼板}\P{\T1.000000;プレス成型}
   7
GMM003
  44
 1.0099997980000
   0
MTEXT
   5
1A1
 100
AcDbEntity
   8
LEVEL001
 370
13
  62
1
 100
AcDbMText
  10
 5710.0552780132
  20
 3509.7597298888
  30
0.0
  40
 51.428580000000
  41
0.0
  71
1
  72
1
   1
{\T1.000000;※構成部材は改良のため、変更する場合があります。}\P{\T1.000000;※本図は道路反射鏡ハンドブックに基づいています。}
   7
GMM001
  44
 0.79999984000003
   0
MTEXT
   5
1A2
 100
AcDbEntity
   8
LEVEL001
 370
13
  62
2
 100
AcDbMText
  10
 5480.0552780132
  20
 899.75972988876
  30
0.0
  40
 38.571428571428
  41
0.0
  71
4
  72
1
   1
\T1.370378;図面番号
   7
GMM001
  44
 0.79999984000003
   0
CIRCLE
   5
1A3
 100
AcDbEntity
   8
LEVEL001
 370
13
 100
AcDbCircle
   6
CONTINUOUS
  62
7
  10
-2092.2548243039
  20
 5206.8656286687
  30
0.0
  40
 332.50000000000
   0
CIRCLE
   5
1A4
 100
AcDbEntity
   8
LEVEL001
 370
13
 100
AcDbCircle
   6
CONTINUOUS
  62
7
  10
-2233.6761805411
  20
 5348.2869849061
  30
0.0
  40
 35.000000000000
   0
CIRCLE
   5
1A5
 100
AcDbEntity
   8
LEVEL001
 370
13
 100
AcDbCircle
   6
CONTINUOUS
  62
6
  10
-2233.6761805411
  20
 5348.2869849061
  30
0.0
  40
 50.000000000000
   0
CIRCLE
   5
1A6
 100
AcDbEntity
   8
LEVEL001
 370
13
 100
AcDbCircle
   6
CONTINUOUS
  62
7
  10
-1950.8334680667
  20
 5348.2869849061
  30
0.0
  40
 35.000000000000
   0
CIRCLE
   5
1A7
 100
AcDbEntity
   8
LEVEL001
 370
13
 100
AcDbCircle
   6
CONTINUOUS
  62
6
  10
-1950.8334680667
  20
 5348.2869849061
  30
0.0
  40
 50.000000000000
   0
CIRCLE
   5
1A8
 100
AcDbEntity
   8
LEVEL001
 370
13
 100
AcDbCircle
   6
CONTINUOUS
  62
7
  10
-1950.8334680665
  20
 5065.4442724314
  30
0.0
  40
 35.000000000000
   0
CIRCLE
   5
1A9
 100
AcDbEntity
   8
LEVEL001
 370
13
 100
AcDbCircle
   6
CONTINUOUS
  62
6
  10
-1950.8334680665
  20
 5065.4442724314
  30
0.0
  40
 50.000000000000
   0
CIRCLE
   5
1AA
 100
AcDbEntity
   8
LEVEL001
 370
13
 100
AcDbCircle
   6
CONTINUOUS
  62
7
  10
-2233.6761805413
  20
 5065.4442724314
  30
0.0
  40
 35.000000000000
   0
CIRCLE
   5
1AB
 100
AcDbEntity
   8
LEVEL001
 370
13
 100
AcDbCircle
   6
CONTINUOUS
  62
6
  10
-2233.6761805413
  20
 5065.4442724314
  30
0.0
  40
 50.000000000000
   0
ARC
   5
1AC
 100
AcDbEntity
   8
LEVEL001
 370
13
   6
CONTINUOUS
  62
7
 100
AcDbCircle
  10
-1842.2548243039
  20
 5206.8656286687
  30
0.0
  40
 15.000000000000
 100
AcDbArc
  50
0.0
  51
 90.000000000000
   0
ARC
   5
1AD
 100
AcDbEntity
   8
LEVEL001
 370
13
   6
CONTINUOUS
  62
7
 100
AcDbCircle
  10
-1842.2548243039
  20
 5206.8656286687
  30
0.0
  40
 15.000000000000
 100
AcDbArc
  50
 270.00000000000
  51
0.0
   0
ARC
   5
1AE
 100
AcDbEntity
   8
LEVEL001
 370
13
   6
CONTINUOUS
  62
7
 100
AcDbCircle
  10
-2342.2548243039
  20
 5206.8656286689
  30
0.0
  40
 15.000000000000
 100
AcDbArc
  50
 180.00000000000
  51
 270.00000000000
   0
ARC
   5
1AF
 100
AcDbEntity
   8
LEVEL001
 370
13
   6
CONTINUOUS
  62
7
 100
AcDbCircle
  10
-2342.2548243039
  20
 5206.8656286689
  30
0.0
  40
 15.000000000000
 100
AcDbArc
  50
 90.000000000000
  51
 180.00000000000
   0
ARC
   5
1B0
 100
AcDbEntity
   8
LEVEL001
 370
13
   6
CONTINUOUS
  62
6
 100
AcDbCircle
  10
-1842.2548243039
  20
 5206.8656286687
  30
0.0
  40
 30.000000000000
 100
AcDbArc
  50
0.0
  51
 90.000000000000
   0
ARC
   5
1B1
 100
AcDbEntity
   8
LEVEL001
 370
13
   6
CONTINUOUS
  62
6
 100
AcDbCircle
  10
-1842.2548243039
  20
 5206.8656286687
  30
0.0
  40
 30.000000000000
 100
AcDbArc
  50
 270.00000000000
  51
0.0
   0
ARC
   5
1B2
 100
AcDbEntity
   8
LEVEL001
 370
13
   6
CONTINUOUS
  62
6
 100
AcDbCircle
  10
-2342.2548243039
  20
 5206.8656286689
  30
0.0
  40
 30.000000000000
 100
AcDbArc
  50
 180.00000000000
  51
 270.00000000000
   0
ARC
   5
1B3
 100
AcDbEntity
   8
LEVEL001
 370
13
   6
CONTINUOUS
  62
6
 100
AcDbCircle
  10
-2342.2548243039
  20
 5206.8656286689
  30
0.0
  40
 30.000000000000
 100
AcDbArc
  50
 90.000000000000
  51
 180.00000000000
   0
ARC
   5
1B4
 100
AcDbEntity
   8
LEVEL001
 370
13
   6
CONTINUOUS
  62
7
 100
AcDbCircle
  10
-2095.1427757833
  20
 5456.8656286687
  30
0.0
  40
 15.000000000000
 100
AcDbArc
  50
 90.000000000000
  51
 180.00000000000
   0
ARC
   5
1B5
 100
AcDbEntity
   8
LEVEL001
 370
13
   6
CONTINUOUS
  62
6
 100
AcDbCircle
  10
-2095.1427757833
  20
 5456.8656286687
  30
0.0
  40
 30.000000000000
 100
AcDbArc
  50
 90.000000000000
  51
 180.00000000000
   0
ARC
   5
1B6
 100
AcDbEntity
   8
LEVEL001
 370
13
   6
CONTINUOUS
  62
7
 100
AcDbCircle
  10
-2095.1427757833
  20
 5456.8656286687
  30
0.0
  40
 15.000000000000
 100
AcDbArc
  50
0.0
  51
 90.000000000000
   0
ARC
   5
1B7
 100
AcDbEntity
   8
LEVEL001
 370
13
   6
CONTINUOUS
  62
6
 100
AcDbCircle
  10
-2095.1427757833
  20
 5456.8656286687
  30
0.0
  40
 30.000000000000
 100
AcDbArc
  50
0.0
  51
 90.000000000000
   0
ARC
   5
1B8
 100
AcDbEntity
   8
LEVEL001
 370
13
   6
CONTINUOUS
  62
7
 100
AcDbCircle
  10
-2095.1427757835
  20
 4956.8656286689
  30
0.0
  40
 15.000000000000
 100
AcDbArc
  50
 180.00000000000
  51
 270.00000000000
   0
ARC
   5
1B9
 100
AcDbEntity
   8
LEVEL001
 370
13
   6
CONTINUOUS
  62
6
 100
AcDbCircle
  10
-2095.1427757835
  20
 4956.8656286689
  30
0.0
  40
 30.000000000000
 100
AcDbArc
  50
 180.00000000000
  51
 270.00000000000
   0
ARC
   5
1BA
 100
AcDbEntity
   8
LEVEL001
 370
13
   6
CONTINUOUS
  62
7
 100
AcDbCircle
  10
-2095.1427757835
  20
 4956.8656286689
  30
0.0
  40
 15.000000000000
 100
AcDbArc
  50
 270.00000000000
  51
0.0
   0
ARC
   5
1BB
 100
AcDbEntity
   8
LEVEL001
 370
13
   6
CONTINUOUS
  62
6
 100
AcDbCircle
  10
-2095.1427757835
  20
 4956.8656286689
  30
0.0
  40
 30.000000000000
 100
AcDbArc
  50
 270.00000000000
  51
0.0
   0
LINE
   5
1BC
 100
AcDbEntity
   8
LEVEL001
 370
13
 100
AcDbLine
   6
CONTINUOUS
  62
6
  10
-2342.2548243039
  20
 5236.8656286689
  30
0.0
  11
-2220.5421378233
  21
 5236.8656286689
  31
0.0
   0
ARC
   5
1BD
 100
AcDbEntity
   8
LEVEL001
 370
13
   6
CONTINUOUS
  62
6
 100
AcDbCircle
  10
-2220.5421378233
  20
 5256.8656286689
  30
0.0
  40
 20.000000000000
 100
AcDbArc
  50
 270.00000000002
  51
 338.26153920836
   0
LINE
   5
1BE
 100
AcDbEntity
   8
LEVEL001
 370
13
 100
AcDbLine
   6
CONTINUOUS
  62
6
  10
-2125.1427757833
  20
 5332.2649907087
  30
0.0
  11
-2125.1427757833
  21
 5456.8656286687
  31
0.0
   0
ARC
   5
1BF
 100
AcDbEntity
   8
LEVEL001
 370
13
   6
CONTINUOUS
  62
6
 100
AcDbCircle
  10
-2145.1427757833
  20
 5332.2649907086
  30
0.0
  40
 20.000000000000
 100
AcDbArc
  50
 291.73846079139
  51
 0.72954291061538E-10
   0
ARC
   5
1C0
 100
AcDbEntity
   8
LEVEL001
 370
13
   6
CONTINUOUS
  62
6
 100
AcDbCircle
  10
-2095.1427757835
  20
 5206.8656286687
  30
0.0
  40
 115.00000000000
 100
AcDbArc
  50
 111.73846079139
  51
 158.26153920835
   0
LINE
   5
1C1
 100
AcDbEntity
   8
LEVEL001
 370
13
 100
AcDbLine
   6
CONTINUOUS
  62
6
  10
-2065.1427757833
  20
 5456.8656286687
  30
0.0
  11
-2065.1427757833
  21
 5332.2649907085
  31
0.0
   0
ARC
   5
1C2
 100
AcDbEntity
   8
LEVEL001
 370
13
   6
CONTINUOUS
  62
6
 100
AcDbCircle
  10
-2045.1427757833
  20
 5332.2649907084
  30
0.0
  40
 20.000000000000
 100
AcDbArc
  50
 179.99999999996
  51
 248.26153920836
   0
LINE
   5
1C3
 100
AcDbEntity
   8
LEVEL001
 370
13
 100
AcDbLine
   6
CONTINUOUS
  62
6
  10
-1969.7434137437
  20
 5236.8656286687
  30
0.0
  11
-1842.2548243039
  21
 5236.8656286687
  31
0.0
   0
ARC
   5
1C4
 100
AcDbEntity
   8
LEVEL001
 370
13
   6
CONTINUOUS
  62
6
 100
AcDbCircle
  10
-1969.7434137437
  20
 5256.8656286687
  30
0.0
  40
 20.000000000000
 100
AcDbArc
  50
 201.73846079155
  51
 270.00000000001
   0
ARC
   5
1C5
 100
AcDbEntity
   8
LEVEL001
 370
13
   6
CONTINUOUS
  62
6
 100
AcDbCircle
  10
-2095.1427757835
  20
 5206.8656286687
  30
0.0
  40
 115.00000000000
 100
AcDbArc
  50
 21.738460791513
  51
 68.261539208351
   0
LINE
   5
1C6
 100
AcDbEntity
   8
LEVEL001
 370
13
 100
AcDbLine
   6
CONTINUOUS
  62
6
  10
-1842.2548243039
  20
 5176.8656286687
  30
0.0
  11
-1969.7434137437
  21
 5176.8656286687
  31
0.0
   0
ARC
   5
1C7
 100
AcDbEntity
   8
LEVEL001
 370
13
   6
CONTINUOUS
  62
6
 100
AcDbCircle
  10
-1969.7434137437
  20
 5156.8656286687
  30
0.0
  40
 20.000000000000
 100
AcDbArc
  50
 89.999999999995
  51
 158.26153920845
   0
LINE
   5
1C8
 100
AcDbEntity
   8
LEVEL001
 370
13
 100
AcDbLine
   6
CONTINUOUS
  62
6
  10
-2065.1427757835
  20
 5081.4662666288
  30
0.0
  11
-2065.1427757835
  21
 4956.8656286689
  31
0.0
   0
ARC
   5
1C9
 100
AcDbEntity
   8
LEVEL001
 370
13
   6
CONTINUOUS
  62
6
 100
AcDbCircle
  10
-2045.1427757835
  20
 5081.4662666289
  30
0.0
  40
 20.000000000000
 100
AcDbArc
  50
 111.73846079155
  51
 180.00000000005
   0
ARC
   5
1CA
 100
AcDbEntity
   8
LEVEL001
 370
13
   6
CONTINUOUS
  62
6
 100
AcDbCircle
  10
-2095.1427757835
  20
 5206.8656286686
  30
0.0
  40
 115.00000000000
 100
AcDbArc
  50
 291.73846079152
  51
 338.26153920849
   0
LINE
   5
1CB
 100
AcDbEntity
   8
LEVEL001
 370
13
 100
AcDbLine
   6
CONTINUOUS
  62
6
  10
-2125.1427757835
  20
 4956.8656286689
  30
0.0
  11
-2125.1427757835
  21
 5081.4662666288
  31
0.0
   0
ARC
   5
1CC
 100
AcDbEntity
   8
LEVEL001
 370
13
   6
CONTINUOUS
  62
6
 100
AcDbCircle
  10
-2145.1427757835
  20
 5081.4662666289
  30
0.0
  40
 20.000000000000
 100
AcDbArc
  50
 359.99999999997
  51
 68.261539208498
   0
LINE
   5
1CD
 100
AcDbEntity
   8
LEVEL001
 370
13
 100
AcDbLine
   6
CONTINUOUS
  62
6
  10
-2220.5421378235
  20
 5176.8656286689
  30
0.0
  11
-2342.2548243039
  21
 5176.8656286689
  31
0.0
   0
ARC
   5
1CE
 100
AcDbEntity
   8
LEVEL001
 370
13
   6
CONTINUOUS
  62
6
 100
AcDbCircle
  10
-2220.5421378235
  20
 5156.8656286689
  30
0.0
  40
 20.000000000000
 100
AcDbArc
  50
 21.738460791412
  51
 89.999999999997
   0
ARC
   5
1CF
 100
AcDbEntity
   8
LEVEL001
 370
13
   6
CONTINUOUS
  62
6
 100
AcDbCircle
  10
-2095.1427757835
  20
 5206.8656286686
  30
0.0
  40
 115.00000000000
 100
AcDbArc
  50
 201.73846079138
  51
 248.26153920847
   0
LINE
   5
1D0
 100
AcDbEntity
   8
LEVEL001
 370
13
 100
AcDbLine
   6
CONTINUOUS
  62
7
  10
-2342.2548243039
  20
 5221.8656286689
  30
0.0
  11
-2220.5421378233
  21
 5221.8656286689
  31
0.0
   0
ARC
   5
1D1
 100
AcDbEntity
   8
LEVEL001
 370
13
   6
CONTINUOUS
  62
7
 100
AcDbCircle
  10
-2220.5421378233
  20
 5256.8656286689
  30
0.0
  40
 35.000000000000
 100
AcDbArc
  50
 270.00000000000
  51
 338.26153920835
   0
LINE
   5
1D2
 100
AcDbEntity
   8
LEVEL001
 370
13
 100
AcDbLine
   6
CONTINUOUS
  62
7
  10
-2220.5421378235
  20
 5191.8656286689
  30
0.0
  11
-2342.2548243039
  21
 5191.8656286689
  31
0.0
   0
ARC
   5
1D3
 100
AcDbEntity
   8
LEVEL001
 370
13
   6
CONTINUOUS
  62
7
 100
AcDbCircle
  10
-2220.5421378235
  20
 5156.8656286689
  30
0.0
  40
 35.000000000000
 100
AcDbArc
  50
 21.738460791368
  51
 89.999999999982
   0
LINE
   5
1D4
 100
AcDbEntity
   8
LEVEL001
 370
13
 100
AcDbLine
   6
CONTINUOUS
  62
7
  10
-2110.1427757835
  20
 4956.8656286689
  30
0.0
  11
-2110.1427757835
  21
 5081.4662666288
  31
0.0
   0
ARC
   5
1D5
 100
AcDbEntity
   8
LEVEL001
 370
13
   6
CONTINUOUS
  62
7
 100
AcDbCircle
  10
-2145.1427757835
  20
 5081.4662666289
  30
0.0
  40
 35.000000000000
 100
AcDbArc
  50
 359.99999999997
  51
 68.261539208478
   0
ARC
   5
1D6
 100
AcDbEntity
   8
LEVEL001
 370
13
   6
CONTINUOUS
  62
7
 100
AcDbCircle
  10
-2095.1427757835
  20
 5206.8656286687
  30
0.0
  40
 100.00000000000
 100
AcDbArc
  50
 201.73846079139
  51
 248.26153920848
   0
LINE
   5
1D7
 100
AcDbEntity
   8
LEVEL001
 370
13
 100
AcDbLine
   6
CONTINUOUS
  62
7
  10
-2080.1427757835
  20
 5081.4662666288
  30
0.0
  11
-2080.1427757835
  21
 4956.8656286689
  31
0.0
   0
ARC
   5
1D8
 100
AcDbEntity
   8
LEVEL001
 370
13
   6
CONTINUOUS
  62
7
 100
AcDbCircle
  10
-2045.1427757835
  20
 5081.4662666289
  30
0.0
  40
 35.000000000000
 100
AcDbArc
  50
 111.73846079153
  51
 180.00000000003
   0
LINE
   5
1D9
 100
AcDbEntity
   8
LEVEL001
 370
13
 100
AcDbLine
   6
CONTINUOUS
  62
7
  10
-1842.2548243039
  20
 5191.8656286687
  30
0.0
  11
-1969.7434137437
  21
 5191.8656286687
  31
0.0
   0
ARC
   5
1DA
 100
AcDbEntity
   8
LEVEL001
 370
13
   6
CONTINUOUS
  62
7
 100
AcDbCircle
  10
-1969.7434137437
  20
 5156.8656286687
  30
0.0
  40
 35.000000000000
 100
AcDbArc
  50
 90.000000000007
  51
 158.26153920850
   0
ARC
   5
1DB
 100
AcDbEntity
   8
LEVEL001
 370
13
   6
CONTINUOUS
  62
7
 100
AcDbCircle
  10
-2095.1427757835
  20
 5206.8656286687
  30
0.0
  40
 100.00000000000
 100
AcDbArc
  50
 291.73846079151
  51
 338.26153920846
   0
LINE
   5
1DC
 100
AcDbEntity
   8
LEVEL001
 370
13
 100
AcDbLine
   6
CONTINUOUS
  62
7
  10
-1969.7434137437
  20
 5221.8656286687
  30
0.0
  11
-1842.2548243039
  21
 5221.8656286687
  31
0.0
   0
ARC
   5
1DD
 100
AcDbEntity
   8
LEVEL001
 370
13
   6
CONTINUOUS
  62
7
 100
AcDbCircle
  10
-1969.7434137437
  20
 5256.8656286687
  30
0.0
  40
 35.000000000000
 100
AcDbArc
  50
 201.73846079150
  51
 269.99999999999
   0
LINE
   5
1DE
 100
AcDbEntity
   8
LEVEL001
 370
13
 100
AcDbLine
   6
CONTINUOUS
  62
7
  10
-2080.1427757833
  20
 5456.8656286687
  30
0.0
  11
-2080.1427757833
  21
 5332.2649907085
  31
0.0
   0
ARC
   5
1DF
 100
AcDbEntity
   8
LEVEL001
 370
13
   6
CONTINUOUS
  62
7
 100
AcDbCircle
  10
-2045.1427757833
  20
 5332.2649907084
  30
0.0
  40
 35.000000000000
 100
AcDbArc
  50
 179.99999999997
  51
 248.26153920835
   0
ARC
   5
1E0
 100
AcDbEntity
   8
LEVEL001
 370
13
   6
CONTINUOUS
  62
7
 100
AcDbCircle
  10
-2095.1427757835
  20
 5206.8656286687
  30
0.0
  40
 100.00000000000
 100
AcDbArc
  50
 21.738460791527
  51
 68.261539208353
   0
LINE
   5
1E1
 100
AcDbEntity
   8
LEVEL001
 370
13
 100
AcDbLine
   6
CONTINUOUS
  62
7
  10
-2110.1427757833
  20
 5332.2649907087
  30
0.0
  11
-2110.1427757833
  21
 5456.8656286687
  31
0.0
   0
ARC
   5
1E2
 100
AcDbEntity
   8
LEVEL001
 370
13
   6
CONTINUOUS
  62
7
 100
AcDbCircle
  10
-2145.1427757833
  20
 5332.2649907086
  30
0.0
  40
 35.000000000000
 100
AcDbArc
  50
 291.73846079139
  51
 0.26799535491993E-10
   0
ARC
   5
1E3
 100
AcDbEntity
   8
LEVEL001
 370
13
   6
CONTINUOUS
  62
7
 100
AcDbCircle
  10
-2095.1427757835
  20
 5206.8656286686
  30
0.0
  40
 100.00000000000
 100
AcDbArc
  50
 111.73846079139
  51
 158.26153920835
   0
CIRCLE
   5
1E4
 100
AcDbEntity
   8
LEVEL001
 370
13
 100
AcDbCircle
   6
CONTINUOUS
  62
7
  10
-2092.2548243039
  20
 5206.8656286687
  30
0.0
  40
 307.50000000000
   0
CIRCLE
   5
1E5
 100
AcDbEntity
   8
LEVEL001
 370
13
 100
AcDbCircle
   6
CONTINUOUS
  62
7
  10
-2092.2548243039
  20
 5206.8656286687
  30
0.0
  40
 312.50000000000
   0
CIRCLE
   5
1E6
 100
AcDbEntity
   8
LEVEL001
 370
13
 100
AcDbCircle
   6
CONTINUOUS
  62
7
  10
-2092.2548243039
  20
 5206.8656286687
  30
0.0
  40
 305.00000000000
   0
LINE
   5
1E7
 100
AcDbEntity
   8
LEVEL001
 370
13
 100
AcDbLine
   6
DASHDOT
  62
6
  10
-2145.1427757835
  20
 5271.8656286687
  30
0.0
  11
-2145.1427757835
  21
 5241.8656286687
  31
0.0
   0
LINE
   5
1E8
 100
AcDbEntity
   8
LEVEL001
 370
13
 100
AcDbLine
   6
DASHDOT
  62
6
  10
-2160.1427757835
  20
 5256.8656286687
  30
0.0
  11
-2130.1427757835
  21
 5256.8656286687
  31
0.0
   0
LINE
   5
1E9
 100
AcDbEntity
   8
LEVEL001
 370
13
 100
AcDbLine
   6
DASHDOT
  62
6
  10
-2045.1427757835
  20
 5271.8656286687
  30
0.0
  11
-2045.1427757835
  21
 5241.8656286687
  31
0.0
   0
LINE
   5
1EA
 100
AcDbEntity
   8
LEVEL001
 370
13
 100
AcDbLine
   6
DASHDOT
  62
6
  10
-2060.1427757835
  20
 5256.8656286687
  30
0.0
  11
-2030.1427757835
  21
 5256.8656286687
  31
0.0
   0
LINE
   5
1EB
 100
AcDbEntity
   8
LEVEL001
 370
13
 100
AcDbLine
   6
DASHDOT
  62
6
  10
-2045.1427757835
  20
 5171.8656286687
  30
0.0
  11
-2045.1427757835
  21
 5141.8656286687
  31
0.0
   0
LINE
   5
1EC
 100
AcDbEntity
   8
LEVEL001
 370
13
 100
AcDbLine
   6
DASHDOT
  62
6
  10
-2060.1427757835
  20
 5156.8656286687
  30
0.0
  11
-2030.1427757835
  21
 5156.8656286687
  31
0.0
   0
LINE
   5
1ED
 100
AcDbEntity
   8
LEVEL001
 370
13
 100
AcDbLine
   6
DASHDOT
  62
6
  10
-2145.1427757835
  20
 5171.8656286687
  30
0.0
  11
-2145.1427757835
  21
 5141.8656286687
  31
0.0
   0
LINE
   5
1EE
 100
AcDbEntity
   8
LEVEL001
 370
13
 100
AcDbLine
   6
DASHDOT
  62
6
  10
-2160.1427757835
  20
 5156.8656286687
  30
0.0
  11
-2130.1427757835
  21
 5156.8656286687
  31
0.0
   0
LINE
   5
1EF
 100
AcDbEntity
   8
LEVEL001
 370
13
 100
AcDbLine
   6
DASHDOT
  62
6
  10
-2095.1427757835
  20
 5581.8545081521
  30
0.0
  11
-2095.1427757835
  21
 4831.8767491852
  31
0.0
   0
LINE
   5
1F0
 100
AcDbEntity
   8
LEVEL001
 370
13
 100
AcDbLine
   6
DASHDOT
  62
6
  10
-2467.2548243039
  20
 5206.8656286687
  30
0.0
  11
-1717.2548243039
  21
 5206.8656286687
  31
0.0
   0
CIRCLE
   5
1F1
 100
AcDbEntity
   8
LEVEL001
 370
13
 100
AcDbCircle
   6
CONTINUOUS
  62
3
  10
-2145.1427757835
  20
 5256.8656286687
  30
0.0
  40
 7.0000000000000
   0
CIRCLE
   5
1F2
 100
AcDbEntity
   8
LEVEL001
 370
13
 100
AcDbCircle
   6
CONTINUOUS
  62
3
  10
-2145.1427757835
  20
 5156.8656286687
  30
0.0
  40
 7.0000000000000
   0
CIRCLE
   5
1F3
 100
AcDbEntity
   8
LEVEL001
 370
13
 100
AcDbCircle
   6
CONTINUOUS
  62
3
  10
-2045.1427757835
  20
 5156.8656286687
  30
0.0
  40
 7.0000000000000
   0
CIRCLE
   5
1F4
 100
AcDbEntity
   8
LEVEL001
 370
13
 100
AcDbCircle
   6
CONTINUOUS
  62
3
  10
-2045.1427757835
  20
 5256.8656286687
  30
0.0
  40
 7.0000000000000
   0
CIRCLE
   5
1F5
 100
AcDbEntity
   8
LEVEL001
 370
13
 100
AcDbCircle
   6
CONTINUOUS
  62
1
  10
-3235.6489576559
  20
 5656.8656286687
  30
0.0
  40
 69.999997913838
   0
CIRCLE
   5
1F6
 100
AcDbEntity
   8
LEVEL001
 370
13
 100
AcDbCircle
   6
CONTINUOUS
  62
1
  10
-3095.6489618281
  20
 5656.8656286687
  30
0.0
  40
 69.999997913838
   0
CIRCLE
   5
1F7
 100
AcDbEntity
   8
LEVEL001
 370
13
 100
AcDbCircle
   6
CONTINUOUS
  62
1
  10
-3395.1427757835
  20
 5656.8656286687
  30
0.0
  40
 70.000000000000
   0
MTEXT
   5
1F8
 100
AcDbEntity
   8
LEVEL001
 370
13
  62
1
 100
AcDbMText
  10
-3235.6489576559
  20
 5656.8656286687
  30
0.0
  40
 57.142857142858
  41
0.0
  71
5
  72
1
   1
\T1.000000;6
   7
GMM001
  44
 0.79999984000003
   0
MTEXT
   5
1F9
 100
AcDbEntity
   8
LEVEL001
 370
13
  62
1
 100
AcDbMText
  10
-3095.6489618281
  20
 5656.8656286687
  30
0.0
  40
 57.142857142858
  41
0.0
  71
5
  72
1
   1
\T1.000000;8
   7
GMM001
  44
 0.79999984000003
   0
CIRCLE
   5
1FA
 100
AcDbEntity
   8
LEVEL001
 370
13
 100
AcDbCircle
   6
CONTINUOUS
  62
1
  10
-4295.1427757835
  20
 5656.8656286687
  30
0.0
  40
 69.999997913838
   0
MTEXT
   5
1FB
 100
AcDbEntity
   8
LEVEL001
 370
13
  62
1
 100
AcDbMText
  10
-4295.1427757835
  20
 5656.8656286687
  30
0.0
  40
 57.142857142858
  41
0.0
  71
5
  72
1
   1
\T1.000000;3
   7
GMM001
  44
 0.79999984000003
   0
CIRCLE
   5
1FC
 100
AcDbEntity
   8
LEVEL001
 370
13
 100
AcDbCircle
   6
CONTINUOUS
  62
1
  10
-4295.1427757835
  20
 4756.8656286687
  30
0.0
  40
 69.999997913838
   0
MTEXT
   5
1FD
 100
AcDbEntity
   8
LEVEL001
 370
13
  62
1
 100
AcDbMText
  10
-4295.1427757835
  20
 4756.8656286687
  30
0.0
  40
 57.142857142858
  41
0.0
  71
5
  72
1
   1
\T1.000000;1
   7
GMM001
  44
 0.79999984000003
   0
CIRCLE
   5
1FE
 100
AcDbEntity
   8
LEVEL001
 370
13
 100
AcDbCircle
   6
CONTINUOUS
  62
1
  10
-2495.1427757835
  20
 4906.8656286687
  30
0.0
  40
 69.999997913838
   0
MTEXT
   5
1FF
 100
AcDbEntity
   8
LEVEL001
 370
13
  62
1
 100
AcDbMText
  10
-2495.1427757835
  20
 4906.8656286687
  30
0.0
  40
 57.142857142858
  41
0.0
  71
5
  72
1
   1
\T1.000000;2
   7
GMM001
  44
 0.79999984000003
   0
LEADER
   5
200
 100
AcDbEntity
   8
LEVEL001
 370
13
   6
CONTINUOUS
  62
1
 100
AcDbLeader
   3
GMM001
  73
3
  74
1
  75
0
  40
 66.000000000000
  41
0.0
  76
2
  10
-2322.2427298607
  20
 5082.3407880497
  30
0.0
  10
-2445.1427757835
  20
 4955.8554205435
  30
0.0
  77
1
   0
MTEXT
   5
202
 100
AcDbEntity
   8
LEVEL001
 370
13
  62
1
 100
AcDbMText
  10
-5474.4941705740
  20
 2383.0955657090
  30
0.0
  40
 40.000000000000
  41
0.0
  71
7
  72
1
   1
\T1.000000;ＧＬ
   7
GMM005
  44
 0.79999984000003
   0
LINE
   5
203
 100
AcDbEntity
   8
LEVEL001
 370
13
 100
AcDbLine
   6
CONTINUOUS
  62
1
  10
-5502.6428410188
  20
 2374.3656286687
  30
0.0
  11
-5527.6428410188
  21
 2424.3656286687
  31
0.0
   0
LINE
   5
204
 100
AcDbEntity
   8
LEVEL001
 370
13
 100
AcDbLine
   6
CONTINUOUS
  62
1
  10
-5527.6428410188
  20
 2424.3656286687
  30
0.0
  11
-5477.6428410188
  21
 2424.3656286687
  31
0.0
   0
LINE
   5
205
 100
AcDbEntity
   8
LEVEL001
 370
13
 100
AcDbLine
   6
CONTINUOUS
  62
1
  10
-5477.6428410188
  20
 2424.3656286687
  30
0.0
  11
-5502.6428410188
  21
 2374.3656286687
  31
0.0
   0
CIRCLE
   5
206
 100
AcDbEntity
   8
LEVEL001
 370
13
 100
AcDbCircle
   6
CONTINUOUS
  62
7
  10
-5095.1427757835
  20
 5206.8656286687
  30
0.0
  40
 332.50000000000
   0
CIRCLE
   5
207
 100
AcDbEntity
   8
LEVEL001
 370
13
 100
AcDbCircle
   6
CONTINUOUS
  62
7
  10
-5095.1427757835
  20
 5206.8656286687
  30
0.0
  40
 312.50000000000
   0
CIRCLE
   5
208
 100
AcDbEntity
   8
LEVEL001
 370
13
 100
AcDbCircle
   6
CONTINUOUS
  62
6
  10
-5095.1427757835
  20
 5206.8656286687
  30
0.0
  40
 305.00000000000
   0
CIRCLE
   5
209
 100
AcDbEntity
   8
LEVEL001
 370
13
 100
AcDbCircle
   6
CONTINUOUS
  62
6
  10
-5095.1427757835
  20
 5206.8656286687
  30
0.0
  40
 310.00000000000
   0
ARC
   5
20A
 100
AcDbEntity
   8
LEVEL001
 370
13
   6
CONTINUOUS
  62
1
 100
AcDbCircle
  10
-5095.1427757835
  20
 5206.8656286686
  30
0.0
  40
 310.00000000000
 100
AcDbArc
  50
 6.7865214711376
  51
 173.21347852886
   0
ARC
   5
20B
 100
AcDbEntity
   8
LEVEL001
 370
13
   6
CONTINUOUS
  62
1
 100
AcDbCircle
  10
-5095.1427757835
  20
 5206.8656286687
  30
0.0
  40
 311.50000000000
 100
AcDbArc
  50
 6.7865214711157
  51
 173.21347852888
   0
LINE
   5
20C
 100
AcDbEntity
   8
LEVEL001
 370
13
 100
AcDbLine
   6
CONTINUOUS
  62
1
  10
-5402.9707094902
  20
 5243.4984449659
  30
0.0
  11
-5404.4601994920
  21
 5243.6757005287
  31
0.0
   0
LINE
   5
20D
 100
AcDbEntity
   8
LEVEL001
 370
13
 100
AcDbLine
   6
CONTINUOUS
  62
1
  10
-4787.3148420768
  20
 5243.4984449659
  30
0.0
  11
-4785.8253520750
  21
 5243.6757005287
  31
0.0
   0
LINE
   5
20E
 100
AcDbEntity
   8
LEVEL001
 370
13
 100
AcDbLine
   6
DASHDOT
  62
6
  10
-5470.1427757835
  20
 5206.8656286687
  30
0.0
  11
-4720.1427757835
  21
 5206.8656286687
  31
0.0
   0
MTEXT
   5
20F
 100
AcDbEntity
   8
LEVEL001
 370
13
  62
1
 100
AcDbMText
  10
-3395.1427757835
  20
 5656.8656286687
  30
0.0
  40
 57.142857142858
  41
0.0
  71
5
  72
1
   1
\T1.000000;11
   7
GMM001
  44
 0.79999984000003
   0
LINE
   5
210
 100
AcDbEntity
   8
LEVEL001
 370
13
 100
AcDbLine
   6
CONTINUOUS
  62
7
  10
-3786.1261385243
  20
 5536.8656286687
  30
0.0
  11
-3786.1261385243
  21
 4876.8656286687
  31
0.0
   0
ARC
   5
211
 100
AcDbEntity
   8
LEVEL001
 370
13
   6
CONTINUOUS
  62
7
 100
AcDbCircle
  10
-3783.6261385243
  20
 5536.8656286687
  30
0.0
  40
 2.5000000000000
 100
AcDbArc
  50
 90.000000000000
  51
 180.00000000000
   0
LINE
   5
212
 100
AcDbEntity
   8
LEVEL001
 370
13
 100
AcDbLine
   6
CONTINUOUS
  62
7
  10
-3781.1261385243
  20
 4876.8656286687
  30
0.0
  11
-3781.1261385243
  21
 5536.8656286687
  31
0.0
   0
ARC
   5
213
 100
AcDbEntity
   8
LEVEL001
 370
13
   6
CONTINUOUS
  62
7
 100
AcDbCircle
  10
-3783.6261385243
  20
 5536.8656286687
  30
0.0
  40
 2.5000000000000
 100
AcDbArc
  50
0.0
  51
 90.000000000000
   0
LINE
   5
214
 100
AcDbEntity
   8
LEVEL001
 370
13
 100
AcDbLine
   6
CONTINUOUS
  62
3
  10
-3786.1261385243
  20
 5243.4984449659
  30
0.0
  11
-3806.1261385243
  21
 5243.4984449659
  31
0.0
   0
LINE
   5
215
 100
AcDbEntity
   8
LEVEL001
 370
13
 100
AcDbLine
   6
CONTINUOUS
  62
3
  10
-3806.1261385243
  20
 5243.4984449659
  30
0.0
  11
-3861.1261385243
  21
 5338.7612393821
  31
0.0
   0
LINE
   5
216
 100
AcDbEntity
   8
LEVEL001
 370
13
 100
AcDbLine
   6
CONTINUOUS
  62
3
  10
-3861.1261385243
  20
 5338.7612393821
  30
0.0
  11
-3861.1261385243
  21
 5518.3656286687
  31
0.0
   0
LINE
   5
217
 100
AcDbEntity
   8
LEVEL001
 370
13
 100
AcDbLine
   6
CONTINUOUS
  62
3
  10
-3861.1261385243
  20
 5518.3656286687
  30
0.0
  11
-3786.1261385243
  21
 5518.3656286687
  31
0.0
   0
ARC
   5
218
 100
AcDbEntity
   8
LEVEL001
 370
13
   6
CONTINUOUS
  62
7
 100
AcDbCircle
  10
-1631.6766667539
  20
 5206.8656286686
  30
0.0
  40
 2200.0000000000
 100
AcDbArc
  50
 177.95610305487
  51
 187.83747976308
   0
LINE
   5
219
 100
AcDbEntity
   8
LEVEL001
 370
13
 100
AcDbLine
   6
CONTINUOUS
  62
7
  10
-3811.1261385243
  20
 4907.6042559877
  30
0.0
  11
-3811.1261385243
  21
 5252.1586990037
  31
0.0
   0
ARC
   5
21A
 100
AcDbEntity
   8
LEVEL001
 370
13
   6
HIDDEN
  62
6
 100
AcDbCircle
  10
-1631.6766667539
  20
 5206.8656286687
  30
0.0
  40
 2200.0000000000
 100
AcDbArc
  50
 172.16252023692
  51
 177.95610305487
   0
LINE
   5
21B
 100
AcDbEntity
   8
LEVEL001
 370
13
 100
AcDbLine
   6
HIDDEN
  62
6
  10
-3811.1261385243
  20
 5252.1586990037
  30
0.0
  11
-3811.1261385243
  21
 5506.1270013496
  31
0.0
   0
ARC
   5
21C
 100
AcDbEntity
   8
LEVEL001
 370
13
   6
HIDDEN
  62
6
 100
AcDbCircle
  10
-3804.1261385243
  20
 5506.1270013496
  30
0.0
  40
 7.0000000000000
 100
AcDbArc
  50
 101.30993247405
  51
 179.99999999996
   0
LINE
   5
21D
 100
AcDbEntity
   8
LEVEL001
 370
13
 100
AcDbLine
   6
HIDDEN
  62
6
  10
-3805.4989514703
  20
 5512.9910660794
  30
0.0
  11
-3786.1261385243
  21
 5516.8656286687
  31
0.0
   0
LINE
   5
21E
 100
AcDbEntity
   8
LEVEL001
 370
13
 100
AcDbLine
   6
CONTINUOUS
  62
7
  10
-3781.1261385243
  20
 5151.8656286687
  30
0.0
  11
-3687.9261385243
  21
 5151.8656286687
  31
0.0
   0
LINE
   5
21F
 100
AcDbEntity
   8
LEVEL001
 370
13
 100
AcDbLine
   6
CONTINUOUS
  62
7
  10
-3687.9261385243
  20
 5151.8656286687
  30
0.0
  11
-3687.9261385243
  21
 5261.8656286687
  31
0.0
   0
LINE
   5
220
 100
AcDbEntity
   8
LEVEL001
 370
13
 100
AcDbLine
   6
CONTINUOUS
  62
7
  10
-3687.9261385243
  20
 5261.8656286687
  30
0.0
  11
-3781.1261385243
  21
 5261.8656286687
  31
0.0
   0
LINE
   5
221
 100
AcDbEntity
   8
LEVEL001
 370
13
 100
AcDbLine
   6
DASHDOT
  62
6
  10
-3470.1427586809
  20
 5206.8656286687
  30
0.0
  11
-3895.6982066817
  21
 5206.8656286687
  31
0.0
   0
ARC
   5
222
 100
AcDbEntity
   8
LEVEL001
 370
13
   6
CONTINUOUS
  62
7
 100
AcDbCircle
  10
-3783.6261385243
  20
 4876.8656286687
  30
0.0
  40
 2.5000000000000
 100
AcDbArc
  50
 180.00000000000
  51
 270.00000000000
   0
ARC
   5
223
 100
AcDbEntity
   8
LEVEL001
 370
13
   6
CONTINUOUS
  62
7
 100
AcDbCircle
  10
-3783.6261385243
  20
 4876.8656286687
  30
0.0
  40
 2.5000000000000
 100
AcDbArc
  50
 270.00000000000
  51
0.0
   0
LINE
   5
224
 100
AcDbEntity
   8
LEVEL001
 370
13
 100
AcDbLine
   6
CONTINUOUS
  62
7
  10
-3786.1261385243
  20
 4896.8656286687
  30
0.0
  11
-3805.4989514703
  21
 4900.7401912579
  31
0.0
   0
ARC
   5
225
 100
AcDbEntity
   8
LEVEL001
 370
13
   6
CONTINUOUS
  62
7
 100
AcDbCircle
  10
-3804.1261385243
  20
 4907.6042559877
  30
0.0
  40
 7.0000000000000
 100
AcDbArc
  50
 180.00000000004
  51
 258.69006752595
   0
LINE
   5
226
 100
AcDbEntity
   8
LEVEL001
 370
13
 100
AcDbLine
   6
DASHDOT
  62
6
  10
-3712.9261385243
  20
 5251.8656286687
  30
0.0
  11
-3712.9261385243
  21
 5221.8656286687
  31
0.0
   0
LINE
   5
227
 100
AcDbEntity
   8
LEVEL001
 370
13
 100
AcDbLine
   6
DASHDOT
  62
6
  10
-3727.9261385243
  20
 5236.8656286687
  30
0.0
  11
-3697.9261385243
  21
 5236.8656286687
  31
0.0
   0
LINE
   5
228
 100
AcDbEntity
   8
LEVEL001
 370
13
 100
AcDbLine
   6
DASHDOT
  62
6
  10
-3712.9261385243
  20
 5191.8656286687
  30
0.0
  11
-3712.9261385243
  21
 5161.8656286687
  31
0.0
   0
LINE
   5
229
 100
AcDbEntity
   8
LEVEL001
 370
13
 100
AcDbLine
   6
DASHDOT
  62
6
  10
-3727.9261385243
  20
 5176.8656286687
  30
0.0
  11
-3697.9261385243
  21
 5176.8656286687
  31
0.0
   0
LINE
   5
22A
 100
AcDbEntity
   8
LEVEL001
 370
13
 100
AcDbLine
   6
CONTINUOUS
  62
7
  10
-3687.9261385243
  20
 5261.8656286687
  30
0.0
  11
-3632.9261385243
  21
 5261.8656286687
  31
0.0
   0
LINE
   5
22B
 100
AcDbEntity
   8
LEVEL001
 370
13
 100
AcDbLine
   6
CONTINUOUS
  62
7
  10
-3632.9261385243
  20
 5261.8656286687
  30
0.0
  11
-3632.9261385243
  21
 5151.8656286687
  31
0.0
   0
LINE
   5
22C
 100
AcDbEntity
   8
LEVEL001
 370
13
 100
AcDbLine
   6
CONTINUOUS
  62
7
  10
-3632.9261385243
  20
 5151.8656286687
  30
0.0
  11
-3687.9261385243
  21
 5151.8656286687
  31
0.0
   0
LINE
   5
22D
 100
AcDbEntity
   8
LEVEL001
 370
13
 100
AcDbLine
   6
DASHDOT
  62
6
  10
-3663.7770158669
  20
 5217.4510424875
  30
0.0
  11
-3663.7770158669
  21
 5187.4510424875
  31
0.0
   0
LINE
   5
22E
 100
AcDbEntity
   8
LEVEL001
 370
13
 100
AcDbLine
   6
DASHDOT
  62
6
  10
-3678.7770158669
  20
 5202.4510424875
  30
0.0
  11
-3648.7770158669
  21
 5202.4510424875
  31
0.0
   0
LINE
   5
22F
 100
AcDbEntity
   8
LEVEL001
 370
13
 100
AcDbLine
   6
CONTINUOUS
  62
3
  10
-3719.9261385243
  20
 5229.8656286687
  30
0.0
  11
-3705.9261385243
  21
 5229.8656286687
  31
0.0
   0
LINE
   5
230
 100
AcDbEntity
   8
LEVEL001
 370
13
 100
AcDbLine
   6
CONTINUOUS
  62
3
  10
-3705.9261385243
  20
 5229.8656286687
  30
0.0
  11
-3705.9261385243
  21
 5243.8656286687
  31
0.0
   0
LINE
   5
231
 100
AcDbEntity
   8
LEVEL001
 370
13
 100
AcDbLine
   6
CONTINUOUS
  62
3
  10
-3705.9261385243
  20
 5243.8656286687
  30
0.0
  11
-3719.9261385243
  21
 5243.8656286687
  31
0.0
   0
LINE
   5
232
 100
AcDbEntity
   8
LEVEL001
 370
13
 100
AcDbLine
   6
CONTINUOUS
  62
3
  10
-3719.9261385243
  20
 5243.8656286687
  30
0.0
  11
-3719.9261385243
  21
 5229.8656286687
  31
0.0
   0
LINE
   5
233
 100
AcDbEntity
   8
LEVEL001
 370
13
 100
AcDbLine
   6
CONTINUOUS
  62
3
  10
-3719.9261385243
  20
 5169.8656286687
  30
0.0
  11
-3705.9261385243
  21
 5169.8656286687
  31
0.0
   0
LINE
   5
234
 100
AcDbEntity
   8
LEVEL001
 370
13
 100
AcDbLine
   6
CONTINUOUS
  62
3
  10
-3705.9261385243
  20
 5169.8656286687
  30
0.0
  11
-3705.9261385243
  21
 5183.8656286687
  31
0.0
   0
LINE
   5
235
 100
AcDbEntity
   8
LEVEL001
 370
13
 100
AcDbLine
   6
CONTINUOUS
  62
3
  10
-3705.9261385243
  20
 5183.8656286687
  30
0.0
  11
-3719.9261385243
  21
 5183.8656286687
  31
0.0
   0
LINE
   5
236
 100
AcDbEntity
   8
LEVEL001
 370
13
 100
AcDbLine
   6
CONTINUOUS
  62
3
  10
-3719.9261385243
  20
 5183.8656286687
  30
0.0
  11
-3719.9261385243
  21
 5169.8656286687
  31
0.0
   0
ARC
   5
237
 100
AcDbEntity
   8
LEVEL001
 370
13
   6
CONTINUOUS
  62
3
 100
AcDbCircle
  10
-3712.9261385243
  20
 5236.8656286686
  30
0.0
  40
 52.000000000000
 100
AcDbArc
  50
 298.73565374494
  51
 324.99999999991
   0
ARC
   5
238
 100
AcDbEntity
   8
LEVEL001
 370
13
   6
CONTINUOUS
  62
3
 100
AcDbCircle
  10
-3663.7770158669
  20
 5202.4510424874
  30
0.0
  40
 8.0000000000000
 100
AcDbArc
  50
 325.00000000036
  51
 146.50781277399
   0
ARC
   5
239
 100
AcDbEntity
   8
LEVEL001
 370
13
   6
CONTINUOUS
  62
3
 100
AcDbCircle
  10
-3712.9261385243
  20
 5236.8656286687
  30
0.0
  40
 68.000000000000
 100
AcDbArc
  50
 291.57057830160
  51
 324.99999999989
   0
LINE
   5
23A
 100
AcDbEntity
   8
LEVEL001
 370
13
 100
AcDbLine
   6
DASHDOT
  62
6
  10
-3540.1427586809
  20
 5251.8656286687
  30
0.0
  11
-3540.1427586809
  21
 5221.8656286687
  31
0.0
   0
LINE
   5
23B
 100
AcDbEntity
   8
LEVEL001
 370
13
 100
AcDbLine
   6
DASHDOT
  62
6
  10
-3555.1427586809
  20
 5236.8656286687
  30
0.0
  11
-3525.1427586809
  21
 5236.8656286687
  31
0.0
   0
LINE
   5
23C
 100
AcDbEntity
   8
LEVEL001
 370
13
 100
AcDbLine
   6
DASHDOT
  62
6
  10
-3540.1427586809
  20
 5191.8656286687
  30
0.0
  11
-3540.1427586809
  21
 5161.8656286687
  31
0.0
   0
LINE
   5
23D
 100
AcDbEntity
   8
LEVEL001
 370
13
 100
AcDbLine
   6
DASHDOT
  62
6
  10
-3555.1427586809
  20
 5176.8656286687
  30
0.0
  11
-3525.1427586809
  21
 5176.8656286687
  31
0.0
   0
LINE
   5
23E
 100
AcDbEntity
   8
LEVEL001
 370
13
 100
AcDbLine
   6
CONTINUOUS
  62
7
  10
-3632.9261385243
  20
 5151.8656286687
  30
0.0
  11
-3520.1427586809
  21
 5151.8656286687
  31
0.0
   0
LINE
   5
23F
 100
AcDbEntity
   8
LEVEL001
 370
13
 100
AcDbLine
   6
CONTINUOUS
  62
7
  10
-3520.1427586809
  20
 5151.8656286687
  30
0.0
  11
-3520.1427586809
  21
 5261.8656286687
  31
0.0
   0
LINE
   5
240
 100
AcDbEntity
   8
LEVEL001
 370
13
 100
AcDbLine
   6
CONTINUOUS
  62
7
  10
-3520.1427586809
  20
 5261.8656286687
  30
0.0
  11
-3632.9261385243
  21
 5261.8656286687
  31
0.0
   0
LINE
   5
241
 100
AcDbEntity
   8
LEVEL001
 370
13
 100
AcDbLine
   6
CONTINUOUS
  62
3
  10
-3547.1427586809
  20
 5169.8656286687
  30
0.0
  11
-3533.1427586809
  21
 5169.8656286687
  31
0.0
   0
LINE
   5
242
 100
AcDbEntity
   8
LEVEL001
 370
13
 100
AcDbLine
   6
CONTINUOUS
  62
3
  10
-3533.1427586809
  20
 5169.8656286687
  30
0.0
  11
-3533.1427586809
  21
 5183.8656286687
  31
0.0
   0
LINE
   5
243
 100
AcDbEntity
   8
LEVEL001
 370
13
 100
AcDbLine
   6
CONTINUOUS
  62
3
  10
-3533.1427586809
  20
 5183.8656286687
  30
0.0
  11
-3547.1427586809
  21
 5183.8656286687
  31
0.0
   0
LINE
   5
244
 100
AcDbEntity
   8
LEVEL001
 370
13
 100
AcDbLine
   6
CONTINUOUS
  62
3
  10
-3547.1427586809
  20
 5183.8656286687
  30
0.0
  11
-3547.1427586809
  21
 5169.8656286687
  31
0.0
   0
LINE
   5
245
 100
AcDbEntity
   8
LEVEL001
 370
13
 100
AcDbLine
   6
CONTINUOUS
  62
3
  10
-3547.1427586809
  20
 5229.8656286687
  30
0.0
  11
-3533.1427586809
  21
 5229.8656286687
  31
0.0
   0
LINE
   5
246
 100
AcDbEntity
   8
LEVEL001
 370
13
 100
AcDbLine
   6
CONTINUOUS
  62
3
  10
-3533.1427586809
  20
 5229.8656286687
  30
0.0
  11
-3533.1427586809
  21
 5243.8656286687
  31
0.0
   0
LINE
   5
247
 100
AcDbEntity
   8
LEVEL001
 370
13
 100
AcDbLine
   6
CONTINUOUS
  62
3
  10
-3533.1427586809
  20
 5243.8656286687
  30
0.0
  11
-3547.1427586809
  21
 5243.8656286687
  31
0.0
   0
LINE
   5
248
 100
AcDbEntity
   8
LEVEL001
 370
13
 100
AcDbLine
   6
CONTINUOUS
  62
3
  10
-3547.1427586809
  20
 5243.8656286687
  30
0.0
  11
-3547.1427586809
  21
 5229.8656286687
  31
0.0
   0
LINE
   5
249
 100
AcDbEntity
   8
LEVEL001
 370
13
 100
AcDbLine
   6
CONTINUOUS
  62
6
  10
-3559.7147491269
  20
 5256.8656286687
  30
0.0
  11
-3559.7147491269
  21
 5156.8656286687
  31
0.0
   0
CIRCLE
   5
24A
 100
AcDbEntity
   8
LEVEL001
 370
13
 100
AcDbCircle
   6
CONTINUOUS
  62
1
  10
-3885.1427716111
  20
 5656.8656286687
  30
0.0
  40
 69.999997913838
   0
CIRCLE
   5
24B
 100
AcDbEntity
   8
LEVEL001
 370
13
 100
AcDbCircle
   6
CONTINUOUS
  62
1
  10
-3745.1427757835
  20
 5656.8656286687
  30
0.0
  40
 69.999997913838
   0
MTEXT
   5
24C
 100
AcDbEntity
   8
LEVEL001
 370
13
  62
1
 100
AcDbMText
  10
-3745.1427757835
  20
 5656.8656286687
  30
0.0
  40
 57.142857142858
  41
0.0
  71
5
  72
1
   1
\T1.000000;7
   7
GMM001
  44
 0.79999984000003
   0
MTEXT
   5
24D
 100
AcDbEntity
   8
LEVEL001
 370
13
  62
1
 100
AcDbMText
  10
-3885.1427716111
  20
 5656.8656286687
  30
0.0
  40
 57.142857142858
  41
0.0
  71
5
  72
1
   1
\T1.000000;5
   7
GMM001
  44
 0.79999984000003
   0
LEADER
   5
24E
 100
AcDbEntity
   8
LEVEL001
 370
13
   6
CONTINUOUS
  62
1
 100
AcDbLeader
   3
GMM002
  73
3
  74
1
  75
0
  40
 60.000000000000
  41
0.0
  76
2
  10
-3520.1427586809
  20
 5261.8656286687
  30
0.0
  10
-3276.1191818885
  20
 5599.7503009667
  30
0.0
  77
1
   0
LEADER
   5
24F
 100
AcDbEntity
   8
LEVEL001
 370
13
   6
CONTINUOUS
  62
1
 100
AcDbLeader
   3
GMM002
  73
3
  74
1
  75
0
  40
 60.000000000000
  41
0.0
  76
2
  10
-3703.5528701053
  20
 5261.8656286687
  30
0.0
  10
-3735.9896622415
  20
 5587.4666357335
  30
0.0
  77
1
   0
CIRCLE
   5
250
 100
AcDbEntity
   8
LEVEL001
 370
13
 100
AcDbCircle
   6
CONTINUOUS
  62
1
  10
-4845.1427757835
  20
 4756.8656286687
  30
0.0
  40
 69.999997913838
   0
MTEXT
   5
251
 100
AcDbEntity
   8
LEVEL001
 370
13
  62
1
 100
AcDbMText
  10
-4845.1427757835
  20
 4756.8656286687
  30
0.0
  40
 57.142857142858
  41
0.0
  71
5
  72
1
   1
\T1.000000;4
   7
GMM001
  44
 0.79999984000003
   0
LEADER
   5
252
 100
AcDbEntity
   8
LEVEL001
 370
13
   6
CONTINUOUS
  62
1
 100
AcDbLeader
   3
GMM002
  73
3
  74
1
  75
0
  40
 60.000000000000
  41
0.0
  76
2
  10
-4982.4979843627
  20
 4894.0279695453
  30
0.0
  10
-4894.6402489910
  20
 4806.3631018771
  30
0.0
  77
1
   0
LEADER
   5
253
 100
AcDbEntity
   8
LEVEL001
 370
13
   6
CONTINUOUS
  62
1
 100
AcDbLeader
   3
GMM002
  73
3
  74
1
  75
0
  40
 60.000000000000
  41
0.0
  76
2
  10
-4982.0121306465
  20
 5006.8656286687
  30
0.0
  10
-4360.8000388143
  20
 4781.1374954950
  30
0.0
  77
1
   0
LEADER
   5
254
 100
AcDbEntity
   8
LEVEL001
 370
13
   6
CONTINUOUS
  62
1
 100
AcDbLeader
   3
GMM002
  73
3
  74
1
  75
0
  40
 60.000000000000
  41
0.0
  76
2
  10
-3822.5668967745
  20
 5006.8656286687
  30
0.0
  10
-4232.4978880763
  20
 4788.1005090445
  30
0.0
  77
1
   0
LEADER
   5
255
 100
AcDbEntity
   8
LEVEL001
 370
13
   6
CONTINUOUS
  62
1
 100
AcDbLeader
   3
GMM002
  73
3
  74
1
  75
0
  40
 60.000000000000
  41
0.0
  76
2
  10
-4984.8185937842
  20
 5498.1744422432
  30
0.0
  10
-4363.4998288565
  20
 5641.7887257008
  30
0.0
  77
1
   0
LINE
   5
256
 100
AcDbEntity
   8
LEVEL001
 370
13
 100
AcDbLine
   6
DASHDOT
  62
6
  10
-5095.1427757835
  20
 5581.8656286687
  30
0.0
  11
-5095.1427757835
  21
 1474.3656286687
  31
0.0
   0
MTEXT
   5
258
 100
AcDbEntity
   8
LEVEL001
 370
13
  62
1
 100
AcDbMText
  10
-4324.4941705741
  20
 2383.0955657090
  30
0.0
  40
 40.000000000000
  41
0.0
  71
7
  72
1
   1
\T1.000000;ＧＬ
   7
GMM005
  44
 0.79999984000003
   0
LINE
   5
259
 100
AcDbEntity
   8
LEVEL001
 370
13
 100
AcDbLine
   6
CONTINUOUS
  62
1
  10
-4352.6428410189
  20
 2374.3656286687
  30
0.0
  11
-4377.6428410189
  21
 2424.3656286687
  31
0.0
   0
LINE
   5
25A
 100
AcDbEntity
   8
LEVEL001
 370
13
 100
AcDbLine
   6
CONTINUOUS
  62
1
  10
-4377.6428410189
  20
 2424.3656286687
  30
0.0
  11
-4327.6428410189
  21
 2424.3656286687
  31
0.0
   0
LINE
   5
25B
 100
AcDbEntity
   8
LEVEL001
 370
13
 100
AcDbLine
   6
CONTINUOUS
  62
1
  10
-4327.6428410189
  20
 2424.3656286687
  30
0.0
  11
-4352.6428410189
  21
 2374.3656286687
  31
0.0
   0
CIRCLE
   5
25C
 100
AcDbEntity
   8
LEVEL001
 370
13
 100
AcDbCircle
   6
CONTINUOUS
  62
1
  10
-4845.1427757835
  20
 3174.3656286687
  30
0.0
  40
 70.000000000000
   0
LEADER
   5
25D
 100
AcDbEntity
   8
LEVEL001
 370
13
   6
CONTINUOUS
  62
1
 100
AcDbLeader
   3
GMM002
  73
3
  74
1
  75
0
  40
 60.000000000000
  41
0.0
  76
2
  10
-5056.9927757835
  20
 3049.3656286687
  30
0.0
  10
-4905.4305651446
  20
 3138.7934140351
  30
0.0
  77
1
   0
MTEXT
   5
25E
 100
AcDbEntity
   8
LEVEL001
 370
13
  62
1
 100
AcDbMText
  10
-4845.1427757835
  20
 3174.3656286687
  30
0.0
  40
 57.142857142858
  41
0.0
  71
5
  72
1
   1
\T1.000000;9
   7
GMM001
  44
 0.79999984000003
   0
LINE
   5
25F
 100
AcDbEntity
   8
LEVEL001
 370
13
 100
AcDbLine
   6
CONTINUOUS
  62
7
  10
-3556.9927757835
  20
 5378.3656286687
  30
0.0
  11
-3633.2927757835
  21
 5378.3656286687
  31
0.0
   0
LINE
   5
260
 100
AcDbEntity
   8
LEVEL001
 370
13
 100
AcDbLine
   6
CONTINUOUS
  62
7
  10
-3633.2927757835
  20
 5378.3656286687
  30
0.0
  11
-3633.2927757835
  21
 5375.3656286687
  31
0.0
   0
LINE
   5
261
 100
AcDbEntity
   8
LEVEL001
 370
13
 100
AcDbLine
   6
CONTINUOUS
  62
7
  10
-3633.2927757835
  20
 5375.3656286687
  30
0.0
  11
-3556.9927757835
  21
 5375.3656286687
  31
0.0
   0
LINE
   5
262
 100
AcDbEntity
   8
LEVEL001
 370
13
 100
AcDbLine
   6
CONTINUOUS
  62
7
  10
-3556.9927757835
  20
 5375.3656286687
  30
0.0
  11
-3556.9927757835
  21
 5378.3656286687
  31
0.0
   0
LINE
   5
263
 100
AcDbEntity
   8
LEVEL001
 370
13
 100
AcDbLine
   6
DOT
  62
1
  10
-3561.9927757835
  20
 5375.3656286687
  30
0.0
  11
-3561.9927757835
  21
 5348.3656286687
  31
0.0
   0
LINE
   5
264
 100
AcDbEntity
   8
LEVEL001
 370
13
 100
AcDbLine
   6
DOT
  62
1
  10
-3561.9927757835
  20
 5348.3656286687
  30
0.0
  11
-3628.2927757835
  21
 5348.3656286687
  31
0.0
   0
LINE
   5
265
 100
AcDbEntity
   8
LEVEL001
 370
13
 100
AcDbLine
   6
DOT
  62
1
  10
-3628.2927757835
  20
 5348.3656286687
  30
0.0
  11
-3628.2927757835
  21
 5375.3656286687
  31
0.0
   0
LINE
   5
266
 100
AcDbEntity
   8
LEVEL001
 370
13
 100
AcDbLine
   6
CONTINUOUS
  62
7
  10
-3556.9927757835
  20
 5261.8656286687
  30
0.0
  11
-3556.9927757835
  21
 5374.3656286687
  31
0.0
   0
LINE
   5
267
 100
AcDbEntity
   8
LEVEL001
 370
13
 100
AcDbLine
   6
CONTINUOUS
  62
7
  10
-3556.9927757835
  20
 5374.3656286687
  30
0.0
  11
-3633.2927757835
  21
 5374.3656286687
  31
0.0
   0
LINE
   5
268
 100
AcDbEntity
   8
LEVEL001
 370
13
 100
AcDbLine
   6
CONTINUOUS
  62
7
  10
-3633.2927757835
  20
 5374.3656286687
  30
0.0
  11
-3633.2927757835
  21
 5261.8656286687
  31
0.0
   0
LINE
   5
269
 100
AcDbEntity
   8
LEVEL001
 370
13
 100
AcDbLine
   6
DASHDOT
  62
6
  10
-5155.1427938691
  20
 2174.3656286687
  30
0.0
  11
-5035.1427938691
  21
 2174.3656286687
  31
0.0
   0
CIRCLE
   5
26A
 100
AcDbEntity
   8
LEVEL001
 370
13
 100
AcDbCircle
   6
CONTINUOUS
  62
7
  10
-5095.1428095856
  20
 2074.3656286687
  30
0.0
  40
 7.5000000000000
   0
LINE
   5
26B
 100
AcDbEntity
   8
LEVEL001
 370
13
 100
AcDbLine
   6
DASHDOT
  62
6
  10
-5125.1428095856
  20
 2074.3656286687
  30
0.0
  11
-5065.1428095856
  21
 2074.3656286687
  31
0.0
   0
CIRCLE
   5
26C
 100
AcDbEntity
   8
LEVEL001
 370
13
 100
AcDbCircle
   6
CONTINUOUS
  62
7
  10
-3945.1428095855
  20
 2174.3656286687
  30
0.0
  40
 7.5000000000000
   0
LINE
   5
26D
 100
AcDbEntity
   8
LEVEL001
 370
13
 100
AcDbLine
   6
DASHDOT
  62
6
  10
-3975.1428095855
  20
 2174.3656286687
  30
0.0
  11
-3915.1428095855
  21
 2174.3656286687
  31
0.0
   0
LINE
   5
26E
 100
AcDbEntity
   8
LEVEL001
 370
13
 100
AcDbLine
   6
DASHDOT
  62
6
  10
-4005.1427938691
  20
 2074.3656286687
  30
0.0
  11
-3885.1427938691
  21
 2074.3656286687
  31
0.0
   0
LINE
   5
26F
 100
AcDbEntity
   8
LEVEL001
 370
13
 100
AcDbLine
   6
CONTINUOUS
  62
7
  10
-3983.2927757835
  20
 2081.8656286687
  30
0.0
  11
-4055.1427938691
  21
 2081.8656286687
  31
0.0
   0
LINE
   5
270
 100
AcDbEntity
   8
LEVEL001
 370
13
 100
AcDbLine
   6
CONTINUOUS
  62
7
  10
-4055.1427938691
  20
 2081.8656286687
  30
0.0
  11
-4055.1427938691
  21
 2066.8656286687
  31
0.0
   0
LINE
   5
271
 100
AcDbEntity
   8
LEVEL001
 370
13
 100
AcDbLine
   6
CONTINUOUS
  62
7
  10
-4055.1427938691
  20
 2066.8656286687
  30
0.0
  11
-3983.2927757835
  21
 2066.8656286687
  31
0.0
   0
LINE
   5
272
 100
AcDbEntity
   8
LEVEL001
 370
13
 100
AcDbLine
   6
CONTINUOUS
  62
7
  10
-3906.9927757835
  20
 2081.8656286687
  30
0.0
  11
-3835.1427938691
  21
 2081.8656286687
  31
0.0
   0
LINE
   5
273
 100
AcDbEntity
   8
LEVEL001
 370
13
 100
AcDbLine
   6
CONTINUOUS
  62
7
  10
-3835.1427938691
  20
 2081.8656286687
  30
0.0
  11
-3835.1427938691
  21
 2066.8656286687
  31
0.0
   0
LINE
   5
274
 100
AcDbEntity
   8
LEVEL001
 370
13
 100
AcDbLine
   6
CONTINUOUS
  62
7
  10
-3835.1427938691
  20
 2066.8656286687
  30
0.0
  11
-3906.9927757835
  21
 2066.8656286687
  31
0.0
   0
LINE
   5
275
 100
AcDbEntity
   8
LEVEL001
 370
13
 100
AcDbLine
   6
DOT
  62
1
  10
-3906.9927757835
  20
 2066.8656286687
  30
0.0
  11
-3983.2927757835
  21
 2066.8656286687
  31
0.0
   0
LINE
   5
276
 100
AcDbEntity
   8
LEVEL001
 370
13
 100
AcDbLine
   6
DOT
  62
1
  10
-3983.2927757835
  20
 2081.8656286687
  30
0.0
  11
-3906.9927757835
  21
 2081.8656286687
  31
0.0
   0
LEADER
   5
277
 100
AcDbEntity
   8
LEVEL001
 370
13
   6
CONTINUOUS
  62
1
 100
AcDbLeader
   3
GMM002
  73
3
  74
1
  75
0
  40
 60.000000000000
  41
0.0
  76
2
  10
-4055.1427938691
  20
 2066.8656286687
  30
0.0
  10
-4258.4911336435
  20
 1957.5179290631
  30
0.0
  77
1
   0
MTEXT
   5
278
 100
AcDbEntity
   8
LEVEL001
 370
13
  62
1
 100
AcDbMText
  10
-4320.1427757835
  20
 1924.3656286687
  30
0.0
  40
 57.142857142858
  41
0.0
  71
5
  72
1
   1
\T1.000000;10
   7
GMM001
  44
 0.79999984000003
   0
LEADER
   5
279
 100
AcDbEntity
   8
LEVEL001
 370
13
   6
CONTINUOUS
  62
1
 100
AcDbLeader
   3
GMM002
  73
3
  74
1
  75
0
  40
 60.000000000000
  41
0.0
  76
2
  10
-3595.1427757835
  20
 5378.3656286687
  30
0.0
  10
-3435.6931231393
  20
 5599.8071557719
  30
0.0
  77
1
   0
MTEXT
   5
27A
 100
AcDbEntity
   8
LEVEL001
 370
13
  62
1
 100
AcDbMText
  10
-2095.1427757835
  20
 6006.8656286687
  30
0.0
  40
 57.142857142858
  41
0.0
  71
5
  72
1
   1
\T1.000000;背　面　図
   7
GMM001
  44
 0.79999984000003
   0
MTEXT
   5
27B
 100
AcDbEntity
   8
LEVEL001
 370
13
  62
1
 100
AcDbMText
  10
-3595.1427757835
  20
 6006.8656286687
  30
0.0
  40
 57.142857142858
  41
0.0
  71
5
  72
1
   1
\T1.000000;側　面　図
   7
GMM001
  44
 0.79999984000003
   0
MTEXT
   5
27C
 100
AcDbEntity
   8
LEVEL001
 370
13
  62
1
 100
AcDbMText
  10
-5095.1427757835
  20
 6006.8656286687
  30
0.0
  40
 57.142857142858
  41
0.0
  71
5
  72
1
   1
\T1.000000;正　面　図
   7
GMM001
  44
 0.79999984000003
   0
LEADER
   5
27D
 100
AcDbEntity
   8
LEVEL001
 370
13
   6
CONTINUOUS
  62
1
 100
AcDbLeader
   3
GMM002
  73
3
  74
1
  75
0
  40
 60.000000000000
  41
0.0
  76
2
  10
-3861.1261385243
  20
 5518.3656286687
  30
0.0
  10
-4228.3686315319
  20
 5635.8605491069
  30
0.0
  77
1
   0
LINE
   5
27E
 100
AcDbEntity
   8
LEVEL001
 370
13
 100
AcDbLine
   6
CONTINUOUS
  62
7
  10
-3996.9941620427
  20
 4395.8437426780
  30
0.0
  11
-3999.7080688061
  21
 4389.0589757693
  31
0.0
   0
ARC
   5
27F
 100
AcDbEntity
   8
LEVEL001
 370
13
   6
CONTINUOUS
  62
7
 100
AcDbCircle
  10
-3995.0656853517
  20
 4387.2020223874
  30
0.0
  40
 5.0000000000000
 100
AcDbArc
  50
 158.19859051341
  51
 179.99999999954
   0
LINE
   5
280
 100
AcDbEntity
   8
LEVEL001
 370
13
 100
AcDbLine
   6
CONTINUOUS
  62
7
  10
-4000.0656853517
  20
 4387.2020223875
  30
0.0
  11
-4000.0656853517
  21
 3804.4854629670
  31
0.0
   0
LINE
   5
281
 100
AcDbEntity
   8
LEVEL001
 370
13
 100
AcDbLine
   6
CONTINUOUS
  62
6
  10
-3993.0656853517
  20
 4324.8438037164
  30
0.0
  11
-3993.0656853517
  21
 4325.8437426773
  31
0.0
   0
ARC
   5
282
 100
AcDbEntity
   8
LEVEL001
 370
13
   6
CONTINUOUS
  62
7
 100
AcDbCircle
  10
-4001.0656853517
  20
 4379.9960962190
  30
0.0
  40
 5.0000000000000
 100
AcDbArc
  50
 0.12506449896264E-9
  51
 21.801409486592
   0
LINE
   5
283
 100
AcDbEntity
   8
LEVEL001
 370
13
 100
AcDbLine
   6
CONTINUOUS
  62
7
  10
-3998.2255727521
  20
 4386.3587267376
  30
0.0
  11
-3996.4233018973
  21
 4381.8530496008
  31
0.0
   0
ARC
   5
284
 100
AcDbEntity
   8
LEVEL001
 370
13
   6
CONTINUOUS
  62
7
 100
AcDbCircle
  10
-3993.5831892977
  20
 4388.2156801193
  30
0.0
  40
 5.0000000000000
 100
AcDbArc
  50
 158.19859051372
  51
 201.80140948628
   0
LINE
   5
285
 100
AcDbEntity
   8
LEVEL001
 370
13
 100
AcDbLine
   6
CONTINUOUS
  62
7
  10
-3996.9941620427
  20
 4395.8437426780
  30
0.0
  11
-3996.0656853517
  21
 4395.4723520019
  31
0.0
   0
LINE
   5
286
 100
AcDbEntity
   8
LEVEL001
 370
13
 100
AcDbLine
   6
CONTINUOUS
  62
7
  10
-3996.0656853517
  20
 4395.4723520019
  30
0.0
  11
-3998.2255727521
  21
 4390.0726335010
  31
0.0
   0
LINE
   5
287
 100
AcDbEntity
   8
LEVEL001
 370
13
 100
AcDbLine
   6
CONTINUOUS
  62
7
  10
-3996.0656853517
  20
 4379.9960962190
  30
0.0
  11
-3996.0656853517
  21
 3811.6913891356
  31
0.0
   0
LINE
   5
288
 100
AcDbEntity
   8
LEVEL001
 370
13
 100
AcDbLine
   6
CONTINUOUS
  62
7
  10
-3993.0656853517
  20
 4325.8437426773
  30
0.0
  11
-3996.0656853517
  21
 4325.8437426773
  31
0.0
   0
LINE
   5
289
 100
AcDbEntity
   8
LEVEL001
 370
13
 100
AcDbLine
   6
CONTINUOUS
  62
6
  10
-3996.0656853517
  20
 4324.8438037164
  30
0.0
  11
-3993.0656853517
  21
 4324.8438037164
  31
0.0
   0
LINE
   5
28A
 100
AcDbEntity
   8
LEVEL001
 370
13
 100
AcDbLine
   6
CONTINUOUS
  62
7
  10
-3992.6102065727
  20
 4310.8433765249
  30
0.0
  11
-3992.6097488087
  21
 4268.8434682414
  31
0.0
   0
ELLIPSE
   5
28B
 100
AcDbEntity
   8
LEVEL001
 370
13
   6
CONTINUOUS
  62
7
 100
AcDbEllipse
  10
-3996.6102091225
  20
 4310.8434984761
  30
0.0
  11
-4.0000025516047
  21
0.0
  31
0.0
  40
 0.99999938800000
  41
 3.1415621657857
  42
-1.7073511820411
   0
LINE
   5
28C
 100
AcDbEntity
   8
LEVEL001
 370
13
 100
AcDbLine
   6
CONTINUOUS
  62
6
  10
-3993.0656853517
  20
 4253.8437429582
  30
0.0
  11
-3993.0656853517
  21
 4254.8437734719
  31
0.0
   0
LINE
   5
28D
 100
AcDbEntity
   8
LEVEL001
 370
13
 100
AcDbLine
   6
CONTINUOUS
  62
6
  10
-3993.0656853517
  20
 4254.8437734719
  30
0.0
  11
-3996.0656853517
  21
 4254.8437734719
  31
0.0
   0
ELLIPSE
   5
28E
 100
AcDbEntity
   8
LEVEL001
 370
13
   6
CONTINUOUS
  62
7
 100
AcDbEllipse
  10
-3996.6097513599
  20
 4268.8435293940
  30
0.0
  11
-4.0000025516047
  21
0.0
  31
0.0
  40
 0.99999938800000
  41
 1.7072356670360
  42
 3.1415773654681
   0
LINE
   5
28F
 100
AcDbEntity
   8
LEVEL001
 370
13
 100
AcDbLine
   6
CONTINUOUS
  62
7
  10
-3996.0656853517
  20
 4253.8437429582
  30
0.0
  11
-3993.0656853517
  21
 4253.8437429582
  31
0.0
   0
LINE
   5
290
 100
AcDbEntity
   8
LEVEL001
 370
13
 100
AcDbLine
   6
CONTINUOUS
  62
7
  10
-3992.6101793287
  20
 4308.3437429583
  30
0.0
  11
-3887.0656853517
  21
 4308.3437429583
  31
0.0
   0
LINE
   5
291
 100
AcDbEntity
   8
LEVEL001
 370
13
 100
AcDbLine
   6
CONTINUOUS
  62
7
  10
-3887.0656853517
  20
 4308.3437429583
  30
0.0
  11
-3887.0656853517
  21
 4271.3437429582
  31
0.0
   0
LINE
   5
292
 100
AcDbEntity
   8
LEVEL001
 370
13
 100
AcDbLine
   6
CONTINUOUS
  62
7
  10
-3887.0656853517
  20
 4271.3437429582
  30
0.0
  11
-3992.6097760597
  21
 4271.3437429582
  31
0.0
   0
LINE
   5
293
 100
AcDbEntity
   8
LEVEL001
 370
13
 100
AcDbLine
   6
CONTINUOUS
  62
7
  10
-3996.0656853517
  20
 4271.3437429582
  30
0.0
  11
-3996.0656853517
  21
 4308.3437429583
  31
0.0
   0
LINE
   5
294
 100
AcDbEntity
   8
LEVEL001
 370
13
 100
AcDbLine
   6
CONTINUOUS
  62
7
  10
-3996.0656853517
  20
 3937.8437423964
  30
0.0
  11
-3993.0656853517
  21
 3937.8437423964
  31
0.0
   0
LINE
   5
295
 100
AcDbEntity
   8
LEVEL001
 370
13
 100
AcDbLine
   6
CONTINUOUS
  62
6
  10
-3993.0656853517
  20
 3937.8437423964
  30
0.0
  11
-3993.0656853517
  21
 3936.8437118826
  31
0.0
   0
LINE
   5
296
 100
AcDbEntity
   8
LEVEL001
 370
13
 100
AcDbLine
   6
CONTINUOUS
  62
6
  10
-3993.0656853517
  20
 3936.8437118826
  30
0.0
  11
-3996.0656853517
  21
 3936.8437118826
  31
0.0
   0
LINE
   5
297
 100
AcDbEntity
   8
LEVEL001
 370
13
 100
AcDbLine
   6
CONTINUOUS
  62
7
  10
-3992.6102065727
  20
 3880.8441088297
  30
0.0
  11
-3992.6097488087
  21
 3922.8440171131
  31
0.0
   0
ELLIPSE
   5
298
 100
AcDbEntity
   8
LEVEL001
 370
13
   6
CONTINUOUS
  62
7
 100
AcDbEllipse
  10
-3996.6097513599
  20
 3922.8439559606
  30
0.0
  11
-4.0000025516047
  21
0.0
  31
0.0
  40
 0.99999938800000
  41
-3.1415773654608
  42
-1.7072356670355
   0
LINE
   5
299
 100
AcDbEntity
   8
LEVEL001
 370
13
 100
AcDbLine
   6
CONTINUOUS
  62
6
  10
-3993.0656853517
  20
 3866.8436816383
  30
0.0
  11
-3993.0656853517
  21
 3865.8437426773
  31
0.0
   0
LINE
   5
29A
 100
AcDbEntity
   8
LEVEL001
 370
13
 100
AcDbLine
   6
CONTINUOUS
  62
6
  10
-3996.0656853517
  20
 3866.8436816383
  30
0.0
  11
-3993.0656853517
  21
 3866.8436816383
  31
0.0
   0
ELLIPSE
   5
29B
 100
AcDbEntity
   8
LEVEL001
 370
13
   6
CONTINUOUS
  62
7
 100
AcDbEllipse
  10
-3996.6102091225
  20
 3880.8439868785
  30
0.0
  11
-4.0000025516047
  21
0.0
  31
0.0
  40
 0.99999938800000
  41
 1.7073511820411
  42
-3.1415621657857
   0
LINE
   5
29C
 100
AcDbEntity
   8
LEVEL001
 370
13
 100
AcDbLine
   6
CONTINUOUS
  62
7
  10
-3993.0656853517
  20
 3865.8437426773
  30
0.0
  11
-3996.0656853517
  21
 3865.8437426773
  31
0.0
   0
ARC
   5
29D
 100
AcDbEntity
   8
LEVEL001
 370
13
   6
CONTINUOUS
  62
7
 100
AcDbCircle
  10
-3995.0656853517
  20
 3804.4854629671
  30
0.0
  40
 5.0000000000000
 100
AcDbArc
  50
 180.00000000013
  51
 201.80140948659
   0
LINE
   5
29E
 100
AcDbEntity
   8
LEVEL001
 370
13
 100
AcDbLine
   6
CONTINUOUS
  62
7
  10
-3996.9941620427
  20
 3795.8437426764
  30
0.0
  11
-3999.7080688061
  21
 3802.6285095855
  31
0.0
   0
ARC
   5
29F
 100
AcDbEntity
   8
LEVEL001
 370
13
   6
CONTINUOUS
  62
7
 100
AcDbCircle
  10
-4001.0656853517
  20
 3811.6913891357
  30
0.0
  40
 5.0000000000000
 100
AcDbArc
  50
 338.19859051341
  51
 359.99999999954
   0
LINE
   5
2A0
 100
AcDbEntity
   8
LEVEL001
 370
13
 100
AcDbLine
   6
CONTINUOUS
  62
7
  10
-3998.2255727521
  20
 3805.3287586170
  30
0.0
  11
-3996.4233018973
  21
 3809.8344357538
  31
0.0
   0
ARC
   5
2A1
 100
AcDbEntity
   8
LEVEL001
 370
13
   6
CONTINUOUS
  62
7
 100
AcDbCircle
  10
-3993.5831892977
  20
 3803.4718052353
  30
0.0
  40
 5.0000000000000
 100
AcDbArc
  50
 158.19859051363
  51
 201.80140948637
   0
LINE
   5
2A2
 100
AcDbEntity
   8
LEVEL001
 370
13
 100
AcDbLine
   6
CONTINUOUS
  62
7
  10
-3996.9941620427
  20
 3795.8437426764
  30
0.0
  11
-3996.0656853517
  21
 3796.2151333529
  31
0.0
   0
LINE
   5
2A3
 100
AcDbEntity
   8
LEVEL001
 370
13
 100
AcDbLine
   6
CONTINUOUS
  62
7
  10
-3996.0656853517
  20
 3796.2151333529
  30
0.0
  11
-3998.2255727521
  21
 3801.6148518535
  31
0.0
   0
LINE
   5
2A4
 100
AcDbEntity
   8
LEVEL001
 370
13
 100
AcDbLine
   6
CONTINUOUS
  62
7
  10
-3992.6097760597
  20
 3920.3437426772
  30
0.0
  11
-3887.0656803795
  21
 3920.3437426772
  31
0.0
   0
LINE
   5
2A5
 100
AcDbEntity
   8
LEVEL001
 370
13
 100
AcDbLine
   6
CONTINUOUS
  62
7
  10
-3887.0656803795
  20
 3920.3437426772
  30
0.0
  11
-3887.0656803795
  21
 3883.3437426773
  31
0.0
   0
LINE
   5
2A6
 100
AcDbEntity
   8
LEVEL001
 370
13
 100
AcDbLine
   6
CONTINUOUS
  62
7
  10
-3887.0656803795
  20
 3883.3437426773
  30
0.0
  11
-3992.6101793287
  21
 3883.3437426773
  31
0.0
   0
LINE
   5
2A7
 100
AcDbEntity
   8
LEVEL001
 370
13
 100
AcDbLine
   6
CONTINUOUS
  62
6
  10
-3908.2376793799
  20
 3895.3437426772
  30
0.0
  11
-3980.3568512055
  21
 3895.3437426772
  31
0.0
   0
LINE
   5
2A8
 100
AcDbEntity
   8
LEVEL001
 370
13
 100
AcDbLine
   6
CONTINUOUS
  62
6
  10
-3980.3568512055
  20
 3908.3437426773
  30
0.0
  11
-3908.2376793799
  21
 3908.3437426773
  31
0.0
   0
LINE
   5
2A9
 100
AcDbEntity
   8
LEVEL001
 370
13
 100
AcDbLine
   6
CONTINUOUS
  62
6
  10
-3908.2376793799
  20
 3918.3437426773
  30
0.0
  11
-3908.2376793799
  21
 3909.3437426772
  31
0.0
   0
LINE
   5
2AA
 100
AcDbEntity
   8
LEVEL001
 370
13
 100
AcDbLine
   6
CONTINUOUS
  62
6
  10
-3908.2376793799
  20
 3894.3437426772
  30
0.0
  11
-3908.2376793799
  21
 3885.3437426772
  31
0.0
   0
LINE
   5
2AB
 100
AcDbEntity
   8
LEVEL001
 370
13
 100
AcDbLine
   6
CONTINUOUS
  62
7
  10
-3892.0656803795
  20
 3896.8437426773
  30
0.0
  11
-3902.0656803795
  21
 3896.8437426773
  31
0.0
   0
LINE
   5
2AC
 100
AcDbEntity
   8
LEVEL001
 370
13
 100
AcDbLine
   6
CONTINUOUS
  62
7
  10
-3902.0656803795
  20
 3896.8437426773
  30
0.0
  11
-3902.0656803795
  21
 3906.8437426773
  31
0.0
   0
LINE
   5
2AD
 100
AcDbEntity
   8
LEVEL001
 370
13
 100
AcDbLine
   6
CONTINUOUS
  62
7
  10
-3902.0656803795
  20
 3906.8437426773
  30
0.0
  11
-3892.0656803795
  21
 3906.8437426773
  31
0.0
   0
LINE
   5
2AE
 100
AcDbEntity
   8
LEVEL001
 370
13
 100
AcDbLine
   6
CONTINUOUS
  62
7
  10
-3892.0656803795
  20
 3906.8437426773
  30
0.0
  11
-3892.0656803795
  21
 3896.8437426773
  31
0.0
   0
LINE
   5
2AF
 100
AcDbEntity
   8
LEVEL001
 370
13
 100
AcDbLine
   6
CONTINUOUS
  62
6
  10
-3905.9191543385
  20
 3908.3437426773
  30
0.0
  11
-3905.9191543385
  21
 3895.3437426772
  31
0.0
   0
LINE
   5
2B0
 100
AcDbEntity
   8
LEVEL001
 370
13
 100
AcDbLine
   6
CONTINUOUS
  62
6
  10
-3981.6177457751
  20
 3907.3437426772
  30
0.0
  11
-3981.6177457751
  21
 3896.3437426772
  31
0.0
   0
LINE
   5
2B1
 100
AcDbEntity
   8
LEVEL001
 370
13
 100
AcDbLine
   6
CONTINUOUS
  62
6
  10
-3981.6177457751
  20
 3918.3437426773
  30
0.0
  11
-3981.6177457751
  21
 3909.3437426772
  31
0.0
   0
LINE
   5
2B2
 100
AcDbEntity
   8
LEVEL001
 370
13
 100
AcDbLine
   6
CONTINUOUS
  62
6
  10
-3981.6177457751
  20
 3894.3437426772
  30
0.0
  11
-3981.6177457751
  21
 3885.3437426772
  31
0.0
   0
LINE
   5
2B3
 100
AcDbEntity
   8
LEVEL001
 370
13
 100
AcDbLine
   6
CONTINUOUS
  62
6
  10
-3908.2376843521
  20
 4306.3437429582
  30
0.0
  11
-3908.2376843521
  21
 4297.3437429582
  31
0.0
   0
LINE
   5
2B4
 100
AcDbEntity
   8
LEVEL001
 370
13
 100
AcDbLine
   6
CONTINUOUS
  62
6
  10
-3908.2376843521
  20
 4282.3437429582
  30
0.0
  11
-3908.2376843521
  21
 4273.3437429583
  31
0.0
   0
LINE
   5
2B5
 100
AcDbEntity
   8
LEVEL001
 370
13
 100
AcDbLine
   6
CONTINUOUS
  62
7
  10
-3892.0656853517
  20
 4284.8437429582
  30
0.0
  11
-3902.0656853517
  21
 4284.8437429582
  31
0.0
   0
LINE
   5
2B6
 100
AcDbEntity
   8
LEVEL001
 370
13
 100
AcDbLine
   6
CONTINUOUS
  62
7
  10
-3902.0656853517
  20
 4284.8437429582
  30
0.0
  11
-3902.0656853517
  21
 4294.8437429582
  31
0.0
   0
LINE
   5
2B7
 100
AcDbEntity
   8
LEVEL001
 370
13
 100
AcDbLine
   6
CONTINUOUS
  62
7
  10
-3902.0656853517
  20
 4294.8437429582
  30
0.0
  11
-3892.0656853517
  21
 4294.8437429582
  31
0.0
   0
LINE
   5
2B8
 100
AcDbEntity
   8
LEVEL001
 370
13
 100
AcDbLine
   6
CONTINUOUS
  62
7
  10
-3892.0656853517
  20
 4294.8437429582
  30
0.0
  11
-3892.0656853517
  21
 4284.8437429582
  31
0.0
   0
LINE
   5
2B9
 100
AcDbEntity
   8
LEVEL001
 370
13
 100
AcDbLine
   6
CONTINUOUS
  62
6
  10
-3905.9191593109
  20
 4296.3437429582
  30
0.0
  11
-3905.9191593109
  21
 4283.3437429583
  31
0.0
   0
LINE
   5
2BA
 100
AcDbEntity
   8
LEVEL001
 370
13
 100
AcDbLine
   6
CONTINUOUS
  62
6
  10
-3981.6177507475
  20
 4295.3437429582
  30
0.0
  11
-3981.6177507475
  21
 4284.3437429583
  31
0.0
   0
LINE
   5
2BB
 100
AcDbEntity
   8
LEVEL001
 370
13
 100
AcDbLine
   6
CONTINUOUS
  62
6
  10
-3981.6177507475
  20
 4282.3437429582
  30
0.0
  11
-3981.6177507475
  21
 4273.3437429583
  31
0.0
   0
LINE
   5
2BC
 100
AcDbEntity
   8
LEVEL001
 370
13
 100
AcDbLine
   6
CONTINUOUS
  62
6
  10
-3981.6177507475
  20
 4306.3437429582
  30
0.0
  11
-3981.6177507475
  21
 4297.3437429582
  31
0.0
   0
LINE
   5
2BD
 100
AcDbEntity
   8
LEVEL001
 370
13
 100
AcDbLine
   6
CONTINUOUS
  62
6
  10
-3908.2376843521
  20
 4283.3437429583
  30
0.0
  11
-3980.3568561779
  21
 4283.3437429583
  31
0.0
   0
LINE
   5
2BE
 100
AcDbEntity
   8
LEVEL001
 370
13
 100
AcDbLine
   6
CONTINUOUS
  62
6
  10
-3980.3568561779
  20
 4296.3437429582
  30
0.0
  11
-3908.2376843521
  21
 4296.3437429582
  31
0.0
   0
LINE
   5
2BF
 100
AcDbEntity
   8
LEVEL001
 370
13
 100
AcDbLine
   6
CONTINUOUS
  62
7
  10
-3906.9927757835
  20
 3920.3437426772
  30
0.0
  11
-3906.9927757835
  21
 4271.3437429582
  31
0.0
   0
LINE
   5
2C0
 100
AcDbEntity
   8
LEVEL001
 370
13
 100
AcDbLine
   6
CONTINUOUS
  62
7
  10
-3983.2927757835
  20
 4271.3437429582
  30
0.0
  11
-3983.2927757835
  21
 3920.3437426772
  31
0.0
   0
ARC
   5
2C1
 100
AcDbEntity
   8
LEVEL001
 370
13
   6
CONTINUOUS
  62
7
 100
AcDbCircle
  10
-3933.2927757835
  20
 4990.3875143791
  30
0.0
  40
 300.00000000000
 100
AcDbArc
  50
 322.12501634890
  51
 360.00000000000
   0
ARC
   5
2C2
 100
AcDbEntity
   8
LEVEL001
 370
13
   6
DASHDOT
  62
6
 100
AcDbCircle
  10
-3933.2927757835
  20
 4990.3875143791
  30
0.0
  40
 338.15000000000
 100
AcDbArc
  50
 322.12501634890
  51
 360.00000000000
   0
ARC
   5
2C3
 100
AcDbEntity
   8
LEVEL001
 370
13
   6
CONTINUOUS
  62
7
 100
AcDbCircle
  10
-3933.2927757835
  20
 4990.3875143790
  30
0.0
  40
 376.30000000000
 100
AcDbArc
  50
 322.12501634890
  51
 360.00000000000
   0
POINT
   5
2C4
 100
AcDbEntity
   8
LEVEL001
 100
AcDbPoint
  62
2
  10
-3595.1427757835
  20
 4874.3656286687
  30
0.0
   0
ARC
   5
2C5
 100
AcDbEntity
   8
LEVEL001
 370
13
   6
CONTINUOUS
  62
7
 100
AcDbCircle
  10
-3606.9927757835
  20
 4308.3437429582
  30
0.0
  40
 300.00000000000
 100
AcDbArc
  50
 142.12501634890
  51
 180.00000000000
   0
ARC
   5
2C6
 100
AcDbEntity
   8
LEVEL001
 370
13
   6
DASHDOT
  62
6
 100
AcDbCircle
  10
-3606.9927757835
  20
 4308.3437429583
  30
0.0
  40
 338.15000000000
 100
AcDbArc
  50
 142.12501634890
  51
 180.00000000000
   0
ARC
   5
2C7
 100
AcDbEntity
   8
LEVEL001
 370
13
   6
CONTINUOUS
  62
7
 100
AcDbCircle
  10
-3606.9927757835
  20
 4308.3437429583
  30
0.0
  40
 376.30000000000
 100
AcDbArc
  50
 142.12501634890
  51
 180.00000000000
   0
LINE
   5
2C8
 100
AcDbEntity
   8
LEVEL001
 370
13
 100
AcDbLine
   6
CONTINUOUS
  62
7
  10
-3843.7984409963
  20
 4492.5259270126
  30
0.0
  11
-3636.2595363847
  21
 4759.3616615134
  31
0.0
   0
POINT
   5
2C9
 100
AcDbEntity
   8
LEVEL001
 100
AcDbPoint
  62
2
  10
-3945.1427757835
  20
 4424.3656286687
  30
0.0
   0
LINE
   5
2CA
 100
AcDbEntity
   8
LEVEL001
 370
13
 100
AcDbLine
   6
DASHDOT
  62
6
  10
-3873.9122280893
  20
 4515.9477614183
  30
0.0
  11
-3666.3733234777
  21
 4782.7834959190
  31
0.0
   0
LEADER
   5
2CB
 100
AcDbEntity
   8
LEVEL001
 370
13
   6
CONTINUOUS
  62
1
 100
AcDbLeader
   3
GMM002
  73
3
  74
1
  75
0
  40
 60.000000000000
  41
0.0
  76
2
  10
-3887.0656803795
  20
 3920.3437426772
  30
0.0
  10
-3464.1555023985
  20
 3984.1286428000
  30
0.0
  77
1
   0
CIRCLE
   5
2CC
 100
AcDbEntity
   8
LEVEL001
 370
13
 100
AcDbCircle
   6
CONTINUOUS
  62
1
  10
-3395.1427757835
  20
 3995.8437426780
  30
0.0
  40
 70.000000000000
   0
CIRCLE
   5
2CD
 100
AcDbEntity
   8
LEVEL001
 370
13
 100
AcDbCircle
   6
CONTINUOUS
  62
1
  10
-3255.1427757835
  20
 3995.8437426780
  30
0.0
  40
 70.000000000000
   0
LINE
   5
2CE
 100
AcDbEntity
   8
LEVEL001
 370
13
 100
AcDbLine
   6
CONTINUOUS
  62
7
  10
-3556.9927757835
  20
 4990.3875143790
  30
0.0
  11
-3556.9927757835
  21
 5151.8656286687
  31
0.0
   0
LINE
   5
2CF
 100
AcDbEntity
   8
LEVEL001
 370
13
 100
AcDbLine
   6
CONTINUOUS
  62
7
  10
-3633.2927757835
  20
 5151.8656286687
  30
0.0
  11
-3633.2927757835
  21
 4990.3875143790
  31
0.0
   0
LINE
   5
2D0
 100
AcDbEntity
   8
LEVEL001
 370
13
 100
AcDbLine
   6
CONTINUOUS
  62
7
  10
-3983.2927757835
  20
 3883.3437426773
  30
0.0
  11
-3983.2927757835
  21
 1774.3656286687
  31
0.0
   0
LINE
   5
2D1
 100
AcDbEntity
   8
LEVEL001
 370
13
 100
AcDbLine
   6
CONTINUOUS
  62
7
  10
-3983.2927757835
  20
 1774.3656286687
  30
0.0
  11
-3906.9927757835
  21
 1774.3656286687
  31
0.0
   0
LINE
   5
2D2
 100
AcDbEntity
   8
LEVEL001
 370
13
 100
AcDbLine
   6
CONTINUOUS
  62
7
  10
-3906.9927757835
  20
 1774.3656286687
  30
0.0
  11
-3906.9927757835
  21
 3883.3437426773
  31
0.0
   0
LINE
   5
2D3
 100
AcDbEntity
   8
LEVEL001
 370
13
 100
AcDbLine
   6
DASHDOT
  62
6
  10
-3945.1427757835
  20
 4308.3437429583
  30
0.0
  11
-3945.1427757835
  21
 1474.3656286687
  31
0.0
   0
LINE
   5
2D4
 100
AcDbEntity
   8
LEVEL001
 370
13
 100
AcDbLine
   6
DASHDOT
  62
6
  10
-3595.1427757835
  20
 5430.5616729711
  30
0.0
  11
-3595.1427757835
  21
 4990.7968102323
  31
0.0
   0
ARC
   5
2D5
 100
AcDbEntity
   8
LEVEL001
 370
13
   6
CONTINUOUS
  62
7
 100
AcDbCircle
  10
-5025.1430828946
  20
 4375.8445274222
  30
0.0
  40
 20.000000000000
 100
AcDbArc
  50
0.0
  51
 90.000000000000
   0
LINE
   5
2D6
 100
AcDbEntity
   8
LEVEL001
 370
13
 100
AcDbLine
   6
CONTINUOUS
  62
7
  10
-5025.1430828946
  20
 4395.8445274222
  30
0.0
  11
-5165.1404670549
  21
 4395.8445274222
  31
0.0
   0
ARC
   5
2D7
 100
AcDbEntity
   8
LEVEL001
 370
13
   6
CONTINUOUS
  62
7
 100
AcDbCircle
  10
-5165.1404670549
  20
 4375.8445274222
  30
0.0
  40
 20.000000000000
 100
AcDbArc
  50
 90.000000000000
  51
 180.00000000000
   0
LINE
   5
2D8
 100
AcDbEntity
   8
LEVEL001
 370
13
 100
AcDbLine
   6
CONTINUOUS
  62
7
  10
-5185.1404670549
  20
 4375.8445274222
  30
0.0
  11
-5185.1404670549
  21
 3815.8437426764
  31
0.0
   0
LINE
   5
2D9
 100
AcDbEntity
   8
LEVEL001
 370
13
 100
AcDbLine
   6
CONTINUOUS
  62
7
  10
-5005.1430828946
  20
 3815.8437426764
  30
0.0
  11
-5005.1430828946
  21
 4375.8445274222
  31
0.0
   0
ARC
   5
2DA
 100
AcDbEntity
   8
LEVEL001
 370
13
   6
CONTINUOUS
  62
7
 100
AcDbCircle
  10
-5165.1404670549
  20
 3815.8437426764
  30
0.0
  40
 20.000000000000
 100
AcDbArc
  50
 180.00000000000
  51
 270.00000000000
   0
LINE
   5
2DB
 100
AcDbEntity
   8
LEVEL001
 370
13
 100
AcDbLine
   6
CONTINUOUS
  62
7
  10
-5165.1404670549
  20
 3795.8437426764
  30
0.0
  11
-5025.1430828946
  21
 3795.8437426764
  31
0.0
   0
ARC
   5
2DC
 100
AcDbEntity
   8
LEVEL001
 370
13
   6
CONTINUOUS
  62
7
 100
AcDbCircle
  10
-5025.1430828946
  20
 3815.8437426764
  30
0.0
  40
 20.000000000000
 100
AcDbArc
  50
 270.00000000000
  51
0.0
   0
CIRCLE
   5
2DD
 100
AcDbEntity
   8
LEVEL001
 370
13
 100
AcDbCircle
   6
CONTINUOUS
  62
1
  10
-4845.1427757835
  20
 3995.8445274222
  30
0.0
  40
 70.000000000000
   0
LINE
   5
2DE
 100
AcDbEntity
   8
LEVEL001
 370
13
 100
AcDbLine
   6
CONTINUOUS
  62
7
  10
-5056.9927757835
  20
 4395.8445274222
  30
0.0
  11
-5056.9927757835
  21
 4876.7513651144
  31
0.0
   0
LINE
   5
2DF
 100
AcDbEntity
   8
LEVEL001
 370
13
 100
AcDbLine
   6
CONTINUOUS
  62
7
  10
-5133.2927757835
  20
 4876.5411803319
  30
0.0
  11
-5133.2927757835
  21
 4395.8445274222
  31
0.0
   0
MTEXT
   5
2E0
 100
AcDbEntity
   8
LEVEL001
 370
13
  62
1
 100
AcDbMText
  10
-4845.1427757835
  20
 3995.8445274222
  30
0.0
  40
 57.142857142858
  41
0.0
  71
5
  72
1
   1
\T1.000000;12
   7
GMM001
  44
 0.79999984000003
   0
LINE
   5
2E1
 100
AcDbEntity
   8
LEVEL001
 370
13
 100
AcDbLine
   6
CONTINUOUS
  62
7
  10
-5133.2927757835
  20
 3795.8437426764
  30
0.0
  11
-5133.2927757835
  21
 1774.3656286687
  31
0.0
   0
LINE
   5
2E2
 100
AcDbEntity
   8
LEVEL001
 370
13
 100
AcDbLine
   6
CONTINUOUS
  62
7
  10
-5133.2927757835
  20
 1774.3656286687
  30
0.0
  11
-5056.9927757835
  21
 1774.3656286687
  31
0.0
   0
LINE
   5
2E3
 100
AcDbEntity
   8
LEVEL001
 370
13
 100
AcDbLine
   6
CONTINUOUS
  62
7
  10
-5056.9927757835
  20
 1774.3656286687
  30
0.0
  11
-5056.9927757835
  21
 3795.8437426764
  31
0.0
   0
MTEXT
   5
2E4
 100
AcDbEntity
   8
LEVEL001
 370
13
  62
1
 100
AcDbMText
  10
-3395.1427757835
  20
 3995.8437426780
  30
0.0
  40
 57.142857142858
  41
0.0
  71
5
  72
1
   1
\T1.000000;13
   7
GMM001
  44
 0.79999984000003
   0
MTEXT
   5
2E5
 100
AcDbEntity
   8
LEVEL001
 370
13
  62
1
 100
AcDbMText
  10
-3255.1427757835
  20
 3995.8437426780
  30
0.0
  40
 57.142857142858
  41
0.0
  71
5
  72
1
   1
\T1.000000;14
   7
GMM001
  44
 0.79999984000003
   0
LINE
   5
2E6
 100
AcDbEntity
   8
LEVEL001
 370
13
 100
AcDbLine
   6
CONTINUOUS
  62
7
  10
-3696.4871105707
  20
 4806.2053303247
  30
0.0
  11
-3904.0260151823
  21
 4539.3695958239
  31
0.0
   0
LEADER
   5
2E7
 100
AcDbEntity
   8
LEVEL001
 370
13
   6
CONTINUOUS
  62
1
 100
AcDbLeader
   3
GMM002
  73
3
  74
1
  75
0
  40
 60.000000000000
  41
0.0
  76
2
  10
-5005.1430828946
  20
 4095.8437426764
  30
0.0
  10
-4904.5676025690
  20
 4032.8403374756
  30
0.0
  77
1
   0
DIMENSION
   5
2E8
 100
AcDbEntity
   8
0
 370
13
   6
CONTINUOUS
  62
1
 100
AcDbDimension
   2
*D14
  10
-5845.1427757835
  20
 2374.3656286687
  30
0.0
  11
-5845.1427757835
  21
 3624.3656286687
  31
0.0
  70
0
   1
\A1;2500(標準設置高さ)
   3
GMM003
 100
AcDbAlignedDimension
  13
-5133.2927757835
  23
 4874.3656286687
  33
0.0
  14
-5595.1427757835
  24
 2374.3656286687
  34
0.0
  50
 270.00000000000
 100
AcDbRotatedDimension
   0
DIMENSION
   5
2E9
 100
AcDbEntity
   8
0
 370
13
   6
CONTINUOUS
  62
1
 100
AcDbDimension
   2
*D15
  10
-5845.1427757835
  20
 2374.3656286687
  30
0.0
  11
-5845.1427757835
  21
 1974.3656286687
  31
0.0
  70
0
   3
GMM004
 100
AcDbAlignedDimension
  13
-5345.1427757835
  23
 1574.3656286687
  33
0.0
  14
-5595.1427757835
  24
 2374.3656286687
  34
0.0
  50
 90.000000000000
 100
AcDbRotatedDimension
   0
DIMENSION
   5
2EA
 100
AcDbEntity
   8
0
 370
13
   6
CONTINUOUS
  62
1
 100
AcDbDimension
   2
*D16
  10
-5845.1427757835
  20
 1574.3656286687
  30
0.0
  11
-5845.1427757835
  21
 1524.3656286687
  31
0.0
  70
0
   3
GMM004
 100
AcDbAlignedDimension
  13
-5345.1427757835
  23
 1474.3656286687
  33
0.0
  14
-5345.1427757835
  24
 1574.3656286687
  34
0.0
  50
 90.000000000000
 100
AcDbRotatedDimension
   0
DIMENSION
   5
2EB
 100
AcDbEntity
   8
0
 370
13
   6
CONTINUOUS
  62
1
 100
AcDbDimension
   2
*D17
  10
-5845.1427757835
  20
 2374.3656286687
  30
0.0
  11
-5845.1427757835
  21
 1974.3656286687
  31
0.0
  70
0
   3
GMM004
 100
AcDbAlignedDimension
  13
-5345.1427757835
  23
 1574.3656286687
  33
0.0
  14
-5595.1427757835
  24
 2374.3656286687
  34
0.0
  50
 90.000000000000
 100
AcDbRotatedDimension
   0
DIMENSION
   5
2EC
 100
AcDbEntity
   8
0
 370
13
   6
CONTINUOUS
  62
1
 100
AcDbDimension
   2
*D18
  10
-4845.1427757835
  20
 1274.3656286687
  30
0.0
  11
-5095.1427757835
  21
 1274.3656286687
  31
0.0
  70
0
   3
GMM005
 100
AcDbAlignedDimension
  13
-5345.1427757835
  23
 1474.3656286687
  33
0.0
  14
-4845.1427757835
  24
 1474.3656286687
  34
0.0
 100
AcDbRotatedDimension
   0
DIMENSION
   5
2ED
 100
AcDbEntity
   8
0
 370
13
   6
CONTINUOUS
  62
1
 100
AcDbDimension
   2
*D19
  10
-4195.1427757835
  20
 1274.3656286687
  30
0.0
  11
-3945.1427757835
  21
 1274.3656286687
  31
0.0
  70
0
   3
GMM005
 100
AcDbAlignedDimension
  13
-3695.1427757835
  23
 1474.3656286687
  33
0.0
  14
-4195.1427757835
  24
 1474.3656286687
  34
0.0
  50
 180.00000000000
 100
AcDbRotatedDimension
   0
DIMENSION
   5
2EE
 100
AcDbEntity
   8
0
 370
13
   6
CONTINUOUS
  62
1
 100
AcDbDimension
   2
*D20
  10
-3945.1427757835
  20
 3374.3656286687
  30
0.0
  11
-3770.1427757835
  21
 3374.3656286687
  31
0.0
  70
0
   3
GMM006
 100
AcDbAlignedDimension
  13
-3595.1427757835
  23
 4874.3656286687
  33
0.0
  14
-3945.1427757835
  24
 4424.3656286687
  34
0.0
  50
 180.00000000000
 100
AcDbRotatedDimension
   0
LINE
   5
2EF
 100
AcDbEntity
   8
LEVEL001
 370
13
 100
AcDbLine
   6
CONTINUOUS
  62
5
  10
-5095.1427757948
  20
 4345.8471247398
  30
0.0
  11
-5150.1427741557
  21
 4275.8471268260
  31
0.0
   0
LINE
   5
2F0
 100
AcDbEntity
   8
LEVEL001
 370
13
 100
AcDbLine
   6
CONTINUOUS
  62
5
  10
-5150.1427741557
  20
 4275.8471268260
  30
0.0
  11
-5120.1427750497
  21
 4275.8471268260
  31
0.0
   0
LINE
   5
2F1
 100
AcDbEntity
   8
LEVEL001
 370
13
 100
AcDbLine
   6
CONTINUOUS
  62
5
  10
-5120.1427750497
  20
 4275.8471268260
  30
0.0
  11
-5120.1427750497
  21
 4245.8471277201
  31
0.0
   0
LINE
   5
2F2
 100
AcDbEntity
   8
LEVEL001
 370
13
 100
AcDbLine
   6
CONTINUOUS
  62
5
  10
-5120.1427750497
  20
 4245.8471277201
  30
0.0
  11
-5070.1427765399
  21
 4245.8471277201
  31
0.0
   0
LINE
   5
2F3
 100
AcDbEntity
   8
LEVEL001
 370
13
 100
AcDbLine
   6
CONTINUOUS
  62
5
  10
-5070.1427765399
  20
 4245.8471277201
  30
0.0
  11
-5070.1427765399
  21
 4275.8471268260
  31
0.0
   0
LINE
   5
2F4
 100
AcDbEntity
   8
LEVEL001
 370
13
 100
AcDbLine
   6
CONTINUOUS
  62
5
  10
-5070.1427765399
  20
 4275.8471268260
  30
0.0
  11
-5040.1427774339
  21
 4275.8471268260
  31
0.0
   0
LINE
   5
2F5
 100
AcDbEntity
   8
LEVEL001
 370
13
 100
AcDbLine
   6
CONTINUOUS
  62
5
  10
-5040.1427774339
  20
 4275.8471268260
  30
0.0
  11
-5095.1427757948
  21
 4345.8471247398
  31
0.0
   0
LINE
   5
2F6
 100
AcDbEntity
   8
LEVEL001
 370
13
 100
AcDbLine
   6
CONTINUOUS
  62
5
  10
-5164.7857180552
  20
 4179.8382185544
  30
0.0
  11
-5149.5165534712
  21
 4177.5835799499
  31
0.0
   0
ARC
   5
2F7
 100
AcDbEntity
   8
LEVEL001
 370
13
   6
CONTINUOUS
  62
5
 100
AcDbCircle
  10
-5150.8992653074
  20
 4157.0503739970
  30
0.0
  40
 20.579709393390
 100
AcDbArc
  50
 10.432218603682
  51
 86.147502468977
   0
ARC
   5
2F8
 100
AcDbEntity
   8
LEVEL001
 370
13
   6
CONTINUOUS
  62
5
 100
AcDbCircle
  10
-5144.5436034028
  20
 4160.4747293111
  30
0.0
  40
 13.887146297480
 100
AcDbArc
  50
 284.73811645764
  51
 1.2463330419053
   0
LINE
   5
2F9
 100
AcDbEntity
   8
LEVEL001
 370
13
 100
AcDbLine
   6
CONTINUOUS
  62
5
  10
-5141.0106943497
  20
 4147.0444878422
  30
0.0
  11
-5164.7857180552
  21
 4179.8382185544
  31
0.0
   0
ARC
   5
2FA
 100
AcDbEntity
   8
LEVEL001
 370
13
   6
CONTINUOUS
  62
5
 100
AcDbCircle
  10
-5157.2385080685
  20
 4120.2332201107
  30
0.0
  40
 20.228108756896
 100
AcDbArc
  50
 1.0517504590226
  51
 78.795792274261
   0
ARC
   5
2FB
 100
AcDbEntity
   8
LEVEL001
 370
13
   6
CONTINUOUS
  62
5
 100
AcDbCircle
  10
-5151.9820775630
  20
 4122.3830060104
  30
0.0
  40
 15.073557642890
 100
AcDbArc
  50
 288.65956808367
  51
 353.22403827749
   0
LINE
   5
2FC
 100
AcDbEntity
   8
LEVEL001
 370
13
 100
AcDbLine
   6
CONTINUOUS
  62
5
  10
-5162.4288455669
  20
 4094.0620065113
  30
0.0
  11
-5155.4601568097
  21
 4055.2218282252
  31
0.0
   0
LINE
   5
2FD
 100
AcDbEntity
   8
LEVEL001
 370
13
 100
AcDbLine
   6
CONTINUOUS
  62
5
  10
-5134.8614025408
  20
 4059.2185627255
  30
0.0
  11
-5138.0385875047
  21
 4076.3328200279
  31
0.0
   0
LINE
   5
2FE
 100
AcDbEntity
   8
LEVEL001
 370
13
 100
AcDbLine
   6
CONTINUOUS
  62
5
  10
-5138.0385875047
  20
 4076.3328200279
  30
0.0
  11
-5125.7409194142
  21
 4135.7715999947
  31
0.0
   0
LINE
   5
2FF
 100
AcDbEntity
   8
LEVEL001
 370
13
 100
AcDbLine
   6
CONTINUOUS
  62
5
  10
-5125.7409194142
  20
 4135.7715999947
  30
0.0
  11
-5148.5940071120
  21
 4085.8636119801
  31
0.0
   0
LINE
   5
300
 100
AcDbEntity
   8
LEVEL001
 370
13
 100
AcDbLine
   6
CONTINUOUS
  62
5
  10
-5148.5940071120
  20
 4085.8636119801
  30
0.0
  11
-5162.4288455669
  21
 4094.0620065113
  31
0.0
   0
ARC
   5
301
 100
AcDbEntity
   8
LEVEL001
 370
13
   6
CONTINUOUS
  62
5
 100
AcDbCircle
  10
-5040.3817368292
  20
 4114.4801283249
  30
0.0
  40
 5.0631766002424
 100
AcDbArc
  50
 274.72626205429
  51
 43.105625042988
   0
ARC
   5
302
 100
AcDbEntity
   8
LEVEL001
 370
13
   6
CONTINUOUS
  62
5
 100
AcDbCircle
  10
-5036.7421031219
  20
 4157.6290847880
  30
0.0
  40
 5.5826340442110
 100
AcDbArc
  50
 274.79665758003
  51
 36.910963374585
   0
LINE
   5
303
 100
AcDbEntity
   8
LEVEL001
 370
13
 100
AcDbLine
   6
CONTINUOUS
  62
5
  10
-5036.6851359354
  20
 4117.9400270399
  30
0.0
  11
-5053.0822301733
  21
 4130.9550107828
  31
0.0
   0
LINE
   5
304
 100
AcDbEntity
   8
LEVEL001
 370
13
 100
AcDbLine
   6
CONTINUOUS
  62
5
  10
-5053.0822301733
  20
 4130.9550107828
  30
0.0
  11
-5060.6658481114
  21
 4121.5267578899
  31
0.0
   0
LINE
   5
305
 100
AcDbEntity
   8
LEVEL001
 370
13
 100
AcDbLine
   6
CONTINUOUS
  62
5
  10
-5060.6658481114
  20
 4121.5267578899
  30
0.0
  11
-5073.4759063233
  21
 4121.5267578899
  31
0.0
   0
LINE
   5
306
 100
AcDbEntity
   8
LEVEL001
 370
13
 100
AcDbLine
   6
CONTINUOUS
  62
5
  10
-5073.4759063233
  20
 4121.5267578899
  30
0.0
  11
-5073.4759063233
  21
 4152.0660025852
  31
0.0
   0
LINE
   5
307
 100
AcDbEntity
   8
LEVEL001
 370
13
 100
AcDbLine
   6
CONTINUOUS
  62
5
  10
-5073.4759063233
  20
 4152.0660025852
  30
0.0
  11
-5036.2752848734
  21
 4152.0660025852
  31
0.0
   0
LINE
   5
308
 100
AcDbEntity
   8
LEVEL001
 370
13
 100
AcDbLine
   6
CONTINUOUS
  62
5
  10
-5032.2783977855
  20
 4160.9818653567
  30
0.0
  11
-5046.1135414161
  21
 4173.0744553282
  31
0.0
   0
LINE
   5
309
 100
AcDbEntity
   8
LEVEL001
 370
13
 100
AcDbLine
   6
CONTINUOUS
  62
5
  10
-5046.1135414161
  20
 4173.0744553282
  30
0.0
  11
-5058.0010532689
  21
 4163.0314258425
  31
0.0
   0
LINE
   5
30A
 100
AcDbEntity
   8
LEVEL001
 370
13
 100
AcDbLine
   6
CONTINUOUS
  62
5
  10
-5058.0010532689
  20
 4163.0314258425
  30
0.0
  11
-5073.4759063233
  21
 4163.0314258425
  31
0.0
   0
LINE
   5
30B
 100
AcDbEntity
   8
LEVEL001
 370
13
 100
AcDbLine
   6
CONTINUOUS
  62
5
  10
-5073.4759063233
  20
 4163.0314258425
  30
0.0
  11
-5073.4759063233
  21
 4178.5059737211
  31
0.0
   0
LINE
   5
30C
 100
AcDbEntity
   8
LEVEL001
 370
13
 100
AcDbLine
   6
CONTINUOUS
  62
5
  10
-5073.4759063233
  20
 4178.5059737211
  30
0.0
  11
-5069.8888702974
  21
 4180.3506086758
  31
0.0
   0
LINE
   5
30D
 100
AcDbEntity
   8
LEVEL001
 370
13
 100
AcDbLine
   6
CONTINUOUS
  62
5
  10
-5069.8888702974
  20
 4180.3506086758
  30
0.0
  11
-5069.5815582949
  21
 4183.0150983426
  31
0.0
   0
LINE
   5
30E
 100
AcDbEntity
   8
LEVEL001
 370
13
 100
AcDbLine
   6
CONTINUOUS
  62
5
  10
-5069.5815582949
  20
 4183.0150983426
  30
0.0
  11
-5098.4810935664
  21
 4187.5242229640
  31
0.0
   0
LINE
   5
30F
 100
AcDbEntity
   8
LEVEL001
 370
13
 100
AcDbLine
   6
CONTINUOUS
  62
5
  10
-5098.4810935664
  20
 4187.5242229640
  30
0.0
  11
-5098.4810935664
  21
 4163.0314258425
  31
0.0
   0
LINE
   5
310
 100
AcDbEntity
   8
LEVEL001
 370
13
 100
AcDbLine
   6
CONTINUOUS
  62
5
  10
-5098.4810935664
  20
 4163.0314258425
  30
0.0
  11
-5127.8930189594
  21
 4163.0314258425
  31
0.0
   0
LINE
   5
311
 100
AcDbEntity
   8
LEVEL001
 370
13
 100
AcDbLine
   6
CONTINUOUS
  62
5
  10
-5127.8930189594
  20
 4163.0314258425
  30
0.0
  11
-5123.4862808095
  21
 4152.0660025852
  31
0.0
   0
LINE
   5
312
 100
AcDbEntity
   8
LEVEL001
 370
13
 100
AcDbLine
   6
CONTINUOUS
  62
5
  10
-5123.4862808095
  20
 4152.0660025852
  30
0.0
  11
-5098.4810935664
  21
 4152.0660025852
  31
0.0
   0
LINE
   5
313
 100
AcDbEntity
   8
LEVEL001
 370
13
 100
AcDbLine
   6
CONTINUOUS
  62
5
  10
-5098.4810935664
  20
 4152.0660025852
  30
0.0
  11
-5098.4810935664
  21
 4121.5267578899
  31
0.0
   0
LINE
   5
314
 100
AcDbEntity
   8
LEVEL001
 370
13
 100
AcDbLine
   6
CONTINUOUS
  62
5
  10
-5098.4810935664
  20
 4121.5267578899
  30
0.0
  11
-5126.2533095356
  21
 4121.5267578899
  31
0.0
   0
LINE
   5
315
 100
AcDbEntity
   8
LEVEL001
 370
13
 100
AcDbLine
   6
CONTINUOUS
  62
5
  10
-5126.2533095356
  20
 4121.5267578899
  30
0.0
  11
-5121.3341812642
  21
 4109.4341679183
  31
0.0
   0
LINE
   5
316
 100
AcDbEntity
   8
LEVEL001
 370
13
 100
AcDbLine
   6
CONTINUOUS
  62
5
  10
-5121.3341812642
  20
 4109.4341679183
  30
0.0
  11
-5098.4810935664
  21
 4109.4341679183
  31
0.0
   0
LINE
   5
317
 100
AcDbEntity
   8
LEVEL001
 370
13
 100
AcDbLine
   6
CONTINUOUS
  62
5
  10
-5098.4810935664
  20
 4109.4341679183
  30
0.0
  11
-5098.4810935664
  21
 4064.5476946467
  31
0.0
   0
LINE
   5
318
 100
AcDbEntity
   8
LEVEL001
 370
13
 100
AcDbLine
   6
CONTINUOUS
  62
5
  10
-5098.4810935664
  20
 4064.5476946467
  30
0.0
  11
-5130.9673596881
  21
 4064.5476946467
  31
0.0
   0
LINE
   5
319
 100
AcDbEntity
   8
LEVEL001
 370
13
 100
AcDbLine
   6
CONTINUOUS
  62
5
  10
-5130.9673596881
  20
 4064.5476946467
  30
0.0
  11
-5125.5358412953
  21
 4052.4547994993
  31
0.0
   0
LINE
   5
31A
 100
AcDbEntity
   8
LEVEL001
 370
13
 100
AcDbLine
   6
CONTINUOUS
  62
5
  10
-5125.5358412953
  20
 4052.4547994993
  30
0.0
  11
-5035.1580363716
  21
 4052.4547994993
  31
0.0
   0
LINE
   5
31B
 100
AcDbEntity
   8
LEVEL001
 370
13
 100
AcDbLine
   6
CONTINUOUS
  62
5
  10
-5031.7034466308
  20
 4063.9776263042
  30
0.0
  11
-5047.0357825996
  21
 4074.0783340111
  31
0.0
   0
LINE
   5
31C
 100
AcDbEntity
   8
LEVEL001
 370
13
 100
AcDbLine
   6
CONTINUOUS
  62
5
  10
-5047.0357825996
  20
 4074.0783340111
  30
0.0
  11
-5054.9267125402
  21
 4064.5476946467
  31
0.0
   0
LINE
   5
31D
 100
AcDbEntity
   8
LEVEL001
 370
13
 100
AcDbLine
   6
CONTINUOUS
  62
5
  10
-5054.9267125402
  20
 4064.5476946467
  30
0.0
  11
-5073.4759063233
  21
 4064.5476946467
  31
0.0
   0
LINE
   5
31E
 100
AcDbEntity
   8
LEVEL001
 370
13
 100
AcDbLine
   6
CONTINUOUS
  62
5
  10
-5073.4759063233
  20
 4064.5476946467
  30
0.0
  11
-5073.4759063233
  21
 4109.4341679183
  31
0.0
   0
LINE
   5
31F
 100
AcDbEntity
   8
LEVEL001
 370
13
 100
AcDbLine
   6
CONTINUOUS
  62
5
  10
-5073.4759063233
  20
 4109.4341679183
  30
0.0
  11
-5039.9645547830
  21
 4109.4341679183
  31
0.0
   0
LINE
   5
320
 100
AcDbEntity
   8
LEVEL001
 370
13
 100
AcDbLine
   6
CONTINUOUS
  62
5
  10
-5168.2151654827
  20
 4142.4049480429
  30
0.0
  11
-5153.3080572645
  21
 4140.0757990852
  31
0.0
   0
LINE
   5
321
 100
AcDbEntity
   8
LEVEL001
 370
13
 100
AcDbLine
   6
CONTINUOUS
  62
5
  10
-5147.1593758071
  20
 4108.1017704970
  30
0.0
  11
-5168.2151654827
  21
 4140.3553653171
  31
0.0
   0
ARC
   5
322
 100
AcDbEntity
   8
LEVEL001
 370
13
   6
CONTINUOUS
  62
5
 100
AcDbCircle
  10
-5145.4777394881
  20
 4058.8537734118
  30
0.0
  40
 10.622602384609
 100
AcDbArc
  50
 199.99311911322
  51
 1.9679733411903
   0
ARC
   5
323
 100
AcDbEntity
   8
LEVEL001
 370
13
   6
CONTINUOUS
  62
5
 100
AcDbCircle
  10
-5035.1575570716
  20
 4058.7339191431
  30
0.0
  40
 6.2791196620726
 100
AcDbArc
  50
 269.99562647879
  51
 56.626490037603
   0
ARC
   5
324
 100
AcDbEntity
   8
LEVEL001
 370
13
   6
CONTINUOUS
  62
5
 100
AcDbCircle
  10
-5031.3851107196
  20
 3952.2654015067
  30
0.0
  40
 4.7515310421130
 100
AcDbArc
  50
 274.70409570337
  51
 59.112293256343
   0
ARC
   5
325
 100
AcDbEntity
   8
LEVEL001
 370
13
   6
CONTINUOUS
  62
5
 100
AcDbCircle
  10
-5124.5444339172
  20
 3951.9083428557
  30
0.0
  40
 22.293228438698
 100
AcDbArc
  50
 35.161132790308
  51
 78.641284698017
   0
ARC
   5
326
 100
AcDbEntity
   8
LEVEL001
 370
13
   6
CONTINUOUS
  62
5
 100
AcDbCircle
  10
-5112.6643929219
  20
 3962.9650547909
  30
0.0
  40
 6.5907971086860
 100
AcDbArc
  50
 312.23536417688
  51
 15.681870099186
   0
LINE
   5
327
 100
AcDbEntity
   8
LEVEL001
 370
13
 100
AcDbLine
   6
CONTINUOUS
  62
5
  10
-5108.2342060687
  20
 3958.0852954756
  30
0.0
  11
-5089.3072046797
  21
 3958.0852954756
  31
0.0
   0
LINE
   5
328
 100
AcDbEntity
   8
LEVEL001
 370
13
 100
AcDbLine
   6
CONTINUOUS
  62
5
  10
-5089.3072046797
  20
 3958.0852954756
  30
0.0
  11
-5078.8540189560
  21
 3973.7649214732
  31
0.0
   0
LINE
   5
329
 100
AcDbEntity
   8
LEVEL001
 370
13
 100
AcDbLine
   6
CONTINUOUS
  62
5
  10
-5078.8540189560
  20
 3973.7649214732
  30
0.0
  11
-5120.1537613775
  21
 3973.7649214732
  31
0.0
   0
ARC
   5
32A
 100
AcDbEntity
   8
LEVEL001
 370
13
   6
CONTINUOUS
  62
5
 100
AcDbCircle
  10
-5040.8263080889
  20
 3978.9210950980
  30
0.0
  40
 5.1561789168066
 100
AcDbArc
  50
 269.91791191271
  51
 52.070025543564
   0
LINE
   5
32B
 100
AcDbEntity
   8
LEVEL001
 370
13
 100
AcDbLine
   6
CONTINUOUS
  62
5
  10
-5028.9458783536
  20
 3956.3430469925
  30
0.0
  11
-5046.8798377800
  21
 3966.7962327161
  31
0.0
   0
LINE
   5
32C
 100
AcDbEntity
   8
LEVEL001
 370
13
 100
AcDbLine
   6
CONTINUOUS
  62
5
  10
-5046.8798377800
  20
 3966.7962327161
  30
0.0
  11
-5053.4386754752
  21
 3958.0852954756
  31
0.0
   0
LINE
   5
32D
 100
AcDbEntity
   8
LEVEL001
 370
13
 100
AcDbLine
   6
CONTINUOUS
  62
5
  10
-5053.4386754752
  20
 3958.0852954756
  30
0.0
  11
-5069.1875763730
  21
 3958.0852954756
  31
0.0
   0
LINE
   5
32E
 100
AcDbEntity
   8
LEVEL001
 370
13
 100
AcDbLine
   6
CONTINUOUS
  62
5
  10
-5069.1875763730
  20
 3958.0852954756
  30
0.0
  11
-5060.1000522298
  21
 3966.2838425946
  31
0.0
   0
LINE
   5
32F
 100
AcDbEntity
   8
LEVEL001
 370
13
 100
AcDbLine
   6
CONTINUOUS
  62
5
  10
-5060.1000522298
  20
 3966.2838425946
  30
0.0
  11
-5056.3082432607
  21
 3966.7962327161
  31
0.0
   0
LINE
   5
330
 100
AcDbEntity
   8
LEVEL001
 370
13
 100
AcDbLine
   6
CONTINUOUS
  62
5
  10
-5056.3082432607
  20
 3966.7962327161
  30
0.0
  11
-5054.6685338370
  21
 3969.1531052045
  31
0.0
   0
LINE
   5
331
 100
AcDbEntity
   8
LEVEL001
 370
13
 100
AcDbLine
   6
CONTINUOUS
  62
5
  10
-5054.6685338370
  20
 3969.1531052045
  30
0.0
  11
-5057.3330235037
  21
 3973.7649214732
  31
0.0
   0
LINE
   5
332
 100
AcDbEntity
   8
LEVEL001
 370
13
 100
AcDbLine
   6
CONTINUOUS
  62
5
  10
-5057.3330235037
  20
 3973.7649214732
  30
0.0
  11
-5040.8336953821
  21
 3973.7649214732
  31
0.0
   0
LINE
   5
333
 100
AcDbEntity
   8
LEVEL001
 370
13
 100
AcDbLine
   6
CONTINUOUS
  62
5
  10
-5037.6568155940
  20
 3982.9880962473
  30
0.0
  11
-5056.3082432607
  21
 3993.2360512640
  31
0.0
   0
LINE
   5
334
 100
AcDbEntity
   8
LEVEL001
 370
13
 100
AcDbLine
   6
CONTINUOUS
  62
5
  10
-5056.3082432607
  20
 3993.2360512640
  30
0.0
  11
-5062.4572298939
  21
 3983.7054118997
  31
0.0
   0
LINE
   5
335
 100
AcDbEntity
   8
LEVEL001
 370
13
 100
AcDbLine
   6
CONTINUOUS
  62
5
  10
-5062.4572298939
  20
 3983.7054118997
  30
0.0
  11
-5083.8756862868
  21
 3983.7054118997
  31
0.0
   0
LINE
   5
336
 100
AcDbEntity
   8
LEVEL001
 370
13
 100
AcDbLine
   6
CONTINUOUS
  62
5
  10
-5083.8756862868
  20
 3983.7054118997
  30
0.0
  11
-5083.8756862868
  21
 3990.0591714759
  31
0.0
   0
LINE
   5
337
 100
AcDbEntity
   8
LEVEL001
 370
13
 100
AcDbLine
   6
CONTINUOUS
  62
5
  10
-5083.8756862868
  20
 3990.0591714759
  30
0.0
  11
-5081.7510525611
  21
 3993.7571388951
  31
0.0
   0
LINE
   5
338
 100
AcDbEntity
   8
LEVEL001
 370
13
 100
AcDbLine
   6
CONTINUOUS
  62
5
  10
-5081.7510525611
  20
 3993.7571388951
  30
0.0
  11
-5082.5710598609
  21
 3995.4992347905
  31
0.0
   0
LINE
   5
339
 100
AcDbEntity
   8
LEVEL001
 370
13
 100
AcDbLine
   6
CONTINUOUS
  62
5
  10
-5082.5710598609
  20
 3995.4992347905
  30
0.0
  11
-5107.3437031656
  21
 3996.1056190497
  31
0.0
   0
LINE
   5
33A
 100
AcDbEntity
   8
LEVEL001
 370
13
 100
AcDbLine
   6
CONTINUOUS
  62
5
  10
-5107.3437031656
  20
 3996.1056190497
  30
0.0
  11
-5107.3437031656
  21
 3983.7054118997
  31
0.0
   0
LINE
   5
33B
 100
AcDbEntity
   8
LEVEL001
 370
13
 100
AcDbLine
   6
CONTINUOUS
  62
5
  10
-5107.3437031656
  20
 3983.7054118997
  30
0.0
  11
-5156.8059819649
  21
 3983.7054118997
  31
0.0
   0
LINE
   5
33C
 100
AcDbEntity
   8
LEVEL001
 370
13
 100
AcDbLine
   6
CONTINUOUS
  62
5
  10
-5156.8059819649
  20
 3983.7054118997
  30
0.0
  11
-5152.3327154967
  21
 3973.7649214732
  31
0.0
   0
LINE
   5
33D
 100
AcDbEntity
   8
LEVEL001
 370
13
 100
AcDbLine
   6
CONTINUOUS
  62
5
  10
-5152.3327154967
  20
 3973.7649214732
  30
0.0
  11
-5134.7057628970
  21
 3973.7649214732
  31
0.0
   0
LINE
   5
33E
 100
AcDbEntity
   8
LEVEL001
 370
13
 100
AcDbLine
   6
CONTINUOUS
  62
5
  10
-5134.7057628970
  20
 3973.7649214732
  30
0.0
  11
-5124.7652724706
  21
 3958.0852954756
  31
0.0
   0
LINE
   5
33F
 100
AcDbEntity
   8
LEVEL001
 370
13
 100
AcDbLine
   6
CONTINUOUS
  62
5
  10
-5124.7652724706
  20
 3958.0852954756
  30
0.0
  11
-5159.4805424321
  21
 3958.0852954756
  31
0.0
   0
LINE
   5
340
 100
AcDbEntity
   8
LEVEL001
 370
13
 100
AcDbLine
   6
CONTINUOUS
  62
5
  10
-5159.4805424321
  20
 3958.0852954756
  30
0.0
  11
-5154.5800298828
  21
 3947.5298758685
  31
0.0
   0
LINE
   5
341
 100
AcDbEntity
   8
LEVEL001
 370
13
 100
AcDbLine
   6
CONTINUOUS
  62
5
  10
-5154.5800298828
  20
 3947.5298758685
  30
0.0
  11
-5030.9954388394
  21
 3947.5298758685
  31
0.0
   0
ARC
   5
342
 100
AcDbEntity
   8
LEVEL001
 370
13
   6
CONTINUOUS
  62
5
 100
AcDbCircle
  10
-5135.2060410292
  20
 3923.4993591476
  30
0.0
  40
 31.206602120202
 100
AcDbArc
  50
 246.86700487447
  51
 289.54634462669
   0
LINE
   5
343
 100
AcDbEntity
   8
LEVEL001
 370
13
 100
AcDbLine
   6
CONTINUOUS
  62
5
  10
-5124.7652724706
  20
 3923.4469298088
  30
0.0
  11
-5124.7652724706
  21
 3929.9030758566
  31
0.0
   0
LINE
   5
344
 100
AcDbEntity
   8
LEVEL001
 370
13
 100
AcDbLine
   6
CONTINUOUS
  62
5
  10
-5124.7652724706
  20
 3929.9030758566
  30
0.0
  11
-5068.1960602893
  21
 3929.9030758566
  31
0.0
   0
LINE
   5
345
 100
AcDbEntity
   8
LEVEL001
 370
13
 100
AcDbLine
   6
CONTINUOUS
  62
5
  10
-5068.1960602893
  20
 3929.9030758566
  30
0.0
  11
-5068.1960602893
  21
 3923.4469298088
  31
0.0
   0
LINE
   5
346
 100
AcDbEntity
   8
LEVEL001
 370
13
 100
AcDbLine
   6
CONTINUOUS
  62
5
  10
-5068.1960602893
  20
 3923.4469298088
  30
0.0
  11
-5124.7652724706
  21
 3923.4469298088
  31
0.0
   0
LINE
   5
347
 100
AcDbEntity
   8
LEVEL001
 370
13
 100
AcDbLine
   6
CONTINUOUS
  62
5
  10
-5041.6533975061
  20
 3936.8717646139
  30
0.0
  11
-5061.6372225941
  21
 3945.8901664447
  31
0.0
   0
LINE
   5
348
 100
AcDbEntity
   8
LEVEL001
 370
13
 100
AcDbLine
   6
CONTINUOUS
  62
5
  10
-5061.6372225941
  20
 3945.8901664447
  30
0.0
  11
-5068.1960602893
  21
 3938.2040094470
  31
0.0
   0
LINE
   5
349
 100
AcDbEntity
   8
LEVEL001
 370
13
 100
AcDbLine
   6
CONTINUOUS
  62
5
  10
-5068.1960602893
  20
 3938.2040094470
  30
0.0
  11
-5124.7652724706
  21
 3938.2040094470
  31
0.0
   0
LINE
   5
34A
 100
AcDbEntity
   8
LEVEL001
 370
13
 100
AcDbLine
   6
CONTINUOUS
  62
5
  10
-5124.7652724706
  20
 3938.2040094470
  30
0.0
  11
-5124.7652724706
  21
 3939.9462579303
  31
0.0
   0
LINE
   5
34B
 100
AcDbEntity
   8
LEVEL001
 370
13
 100
AcDbLine
   6
CONTINUOUS
  62
5
  10
-5124.7652724706
  20
 3939.9462579303
  30
0.0
  11
-5147.4132820495
  21
 3944.5577690234
  31
0.0
   0
LINE
   5
34C
 100
AcDbEntity
   8
LEVEL001
 370
13
 100
AcDbLine
   6
CONTINUOUS
  62
5
  10
-5147.4132820495
  20
 3944.5577690234
  30
0.0
  11
-5147.4660774581
  21
 3894.8019111313
  31
0.0
   0
LINE
   5
34D
 100
AcDbEntity
   8
LEVEL001
 370
13
 100
AcDbLine
   6
CONTINUOUS
  62
5
  10
-5124.7652724706
  20
 3907.4598392209
  30
0.0
  11
-5124.7652724706
  21
 3914.3224793970
  31
0.0
   0
LINE
   5
34E
 100
AcDbEntity
   8
LEVEL001
 370
13
 100
AcDbLine
   6
CONTINUOUS
  62
5
  10
-5124.7652724706
  20
 3914.3224793970
  30
0.0
  11
-5068.1960602893
  21
 3914.3224793970
  31
0.0
   0
LINE
   5
34F
 100
AcDbEntity
   8
LEVEL001
 370
13
 100
AcDbLine
   6
CONTINUOUS
  62
5
  10
-5068.1960602893
  20
 3914.3224793970
  30
0.0
  11
-5068.1960602893
  21
 3907.4598392209
  31
0.0
   0
LINE
   5
350
 100
AcDbEntity
   8
LEVEL001
 370
13
 100
AcDbLine
   6
CONTINUOUS
  62
5
  10
-5068.1960602893
  20
 3907.4598392209
  30
0.0
  11
-5124.7652724706
  21
 3907.4598392209
  31
0.0
   0
ARC
   5
351
 100
AcDbEntity
   8
LEVEL001
 370
13
   6
CONTINUOUS
  62
5
 100
AcDbCircle
  10
-5045.1523730307
  20
 3934.2596718088
  30
0.0
  40
 4.3664469013676
 100
AcDbArc
  50
 266.15058922040
  51
 36.742470507480
   0
LINE
   5
352
 100
AcDbEntity
   8
LEVEL001
 370
13
 100
AcDbLine
   6
CONTINUOUS
  62
5
  10
-5124.7652724706
  20
 3894.0911567578
  30
0.0
  11
-5124.7652724706
  21
 3898.8515936277
  31
0.0
   0
LINE
   5
353
 100
AcDbEntity
   8
LEVEL001
 370
13
 100
AcDbLine
   6
CONTINUOUS
  62
5
  10
-5124.7652724706
  20
 3898.8515936277
  30
0.0
  11
-5068.1960602893
  21
 3898.8515936277
  31
0.0
   0
LINE
   5
354
 100
AcDbEntity
   8
LEVEL001
 370
13
 100
AcDbLine
   6
CONTINUOUS
  62
5
  10
-5068.1960602893
  20
 3898.8515936277
  30
0.0
  11
-5068.1960602893
  21
 3893.9324653563
  31
0.0
   0
LINE
   5
355
 100
AcDbEntity
   8
LEVEL001
 370
13
 100
AcDbLine
   6
CONTINUOUS
  62
5
  10
-5068.1960602893
  20
 3893.9324653563
  30
0.0
  11
-5051.2865759299
  21
 3893.9324653563
  31
0.0
   0
LINE
   5
356
 100
AcDbEntity
   8
LEVEL001
 370
13
 100
AcDbLine
   6
CONTINUOUS
  62
5
  10
-5051.2865759299
  20
 3893.9324653563
  30
0.0
  11
-5047.5976111961
  21
 3895.9820258421
  31
0.0
   0
LINE
   5
357
 100
AcDbEntity
   8
LEVEL001
 370
13
 100
AcDbLine
   6
CONTINUOUS
  62
5
  10
-5047.5976111961
  20
 3895.9820258421
  30
0.0
  11
-5045.4455116509
  21
 3900.3887639920
  31
0.0
   0
LINE
   5
358
 100
AcDbEntity
   8
LEVEL001
 370
13
 100
AcDbLine
   6
CONTINUOUS
  62
5
  10
-5045.4455116509
  20
 3900.3887639920
  30
0.0
  11
-5045.4522255179
  21
 3929.9032284444
  31
0.0
   0
LINE
   5
359
 100
AcDbEntity
   8
LEVEL001
 370
13
 100
AcDbLine
   6
CONTINUOUS
  62
5
  10
-5141.2328623118
  20
 3888.5009469634
  30
0.0
  11
-5141.7452524333
  21
 3883.3770457491
  31
0.0
   0
LINE
   5
35A
 100
AcDbEntity
   8
LEVEL001
 370
13
 100
AcDbLine
   6
CONTINUOUS
  62
5
  10
-5141.7452524333
  20
 3883.3770457491
  30
0.0
  11
-5143.6925790354
  21
 3879.7901623110
  31
0.0
   0
LINE
   5
35B
 100
AcDbEntity
   8
LEVEL001
 370
13
 100
AcDbLine
   6
CONTINUOUS
  62
5
  10
-5143.6925790354
  20
 3879.7901623110
  30
0.0
  11
-5154.7603887642
  21
 3866.0577103277
  31
0.0
   0
ARC
   5
35C
 100
AcDbEntity
   8
LEVEL001
 370
13
   6
CONTINUOUS
  62
5
 100
AcDbCircle
  10
-5146.2281262495
  20
 3860.4459568594
  30
0.0
  40
 10.212310248246
 100
AcDbArc
  50
 146.66668479778
  51
 331.70163256461
   0
ARC
   5
35D
 100
AcDbEntity
   8
LEVEL001
 370
13
   6
CONTINUOUS
  62
5
 100
AcDbCircle
  10
-5160.2162104297
  20
 3869.5037437550
  30
0.0
  40
 26.856307183018
 100
AcDbArc
  50
 328.83298190808
  51
 45.020901175843
   0
LINE
   5
35E
 100
AcDbEntity
   8
LEVEL001
 370
13
 100
AcDbLine
   6
CONTINUOUS
  62
5
  10
-5057.6085972259
  20
 3891.2679756897
  30
0.0
  11
-5044.1839150088
  21
 3868.9272781133
  31
0.0
   0
ARC
   5
35F
 100
AcDbEntity
   8
LEVEL001
 370
13
   6
CONTINUOUS
  62
5
 100
AcDbCircle
  10
-5051.8772778715
  20
 3858.7516073922
  30
0.0
  40
 8.7884995702356
 100
AcDbArc
  50
 268.04310640462
  51
 95.976315923730
   0
ARC
   5
360
 100
AcDbEntity
   8
LEVEL001
 370
13
   6
CONTINUOUS
  62
5
 100
AcDbCircle
  10
-5119.0782188407
  20
 3856.5778244597
  30
0.0
  40
 6.6095999893666
 100
AcDbArc
  50
 179.99949488495
  51
 269.90651577933
   0
LINE
   5
361
 100
AcDbEntity
   8
LEVEL001
 370
13
 100
AcDbLine
   6
CONTINUOUS
  62
5
  10
-5119.0890031085
  20
 3849.9682332681
  30
0.0
  11
-5052.1773840089
  21
 3849.9682332681
  31
0.0
   0
LINE
   5
362
 100
AcDbEntity
   8
LEVEL001
 370
13
 100
AcDbLine
   6
CONTINUOUS
  62
5
  10
-5052.7923131898
  20
 3867.4923416327
  30
0.0
  11
-5060.1708530089
  21
 3885.9389963562
  31
0.0
   0
LINE
   5
363
 100
AcDbEntity
   8
LEVEL001
 370
13
 100
AcDbLine
   6
CONTINUOUS
  62
5
  10
-5060.1708530089
  20
 3885.9389963562
  30
0.0
  11
-5060.3759311278
  21
 3875.6908887516
  31
0.0
   0
LINE
   5
364
 100
AcDbEntity
   8
LEVEL001
 370
13
 100
AcDbLine
   6
CONTINUOUS
  62
5
  10
-5060.3759311278
  20
 3875.6908887516
  30
0.0
  11
-5063.0773470629
  21
 3867.4923416327
  31
0.0
   0
LINE
   5
365
 100
AcDbEntity
   8
LEVEL001
 370
13
 100
AcDbLine
   6
CONTINUOUS
  62
5
  10
-5063.0773470629
  20
 3867.4923416327
  30
0.0
  11
-5102.9369650156
  21
 3867.4923416327
  31
0.0
   0
LINE
   5
366
 100
AcDbEntity
   8
LEVEL001
 370
13
 100
AcDbLine
   6
CONTINUOUS
  62
5
  10
-5102.9369650156
  20
 3867.4923416327
  30
0.0
  11
-5102.9369650156
  21
 3883.3770457491
  31
0.0
   0
LINE
   5
367
 100
AcDbEntity
   8
LEVEL001
 370
13
 100
AcDbLine
   6
CONTINUOUS
  62
5
  10
-5102.9369650156
  20
 3883.3770457491
  30
0.0
  11
-5100.8874045298
  21
 3886.3488474182
  31
0.0
   0
LINE
   5
368
 100
AcDbEntity
   8
LEVEL001
 370
13
 100
AcDbLine
   6
CONTINUOUS
  62
5
  10
-5100.8874045298
  20
 3886.3488474182
  30
0.0
  11
-5102.7318868968
  21
 3888.5009469634
  31
0.0
   0
LINE
   5
369
 100
AcDbEntity
   8
LEVEL001
 370
13
 100
AcDbLine
   6
CONTINUOUS
  62
5
  10
-5102.7318868968
  20
 3888.5009469634
  30
0.0
  11
-5125.6878188298
  21
 3891.5752876922
  31
0.0
   0
LINE
   5
36A
 100
AcDbEntity
   8
LEVEL001
 370
13
 100
AcDbLine
   6
CONTINUOUS
  62
5
  10
-5125.6878188298
  20
 3891.5752876922
  30
0.0
  11
-5125.6878188298
  21
 3856.5778827294
  31
0.0
   0
LINE
   5
36B
 100
AcDbEntity
   8
LEVEL001
 370
13
 100
AcDbLine
   6
CONTINUOUS
  62
5
  10
-5082.8316799703
  20
 3871.7965407231
  30
0.0
  11
-5096.9738304277
  21
 3893.1126106444
  31
0.0
   0
ARC
   5
36C
 100
AcDbEntity
   8
LEVEL001
 370
13
   6
CONTINUOUS
  62
5
 100
AcDbCircle
  10
-5077.9513290135
  20
 3879.5160256017
  30
0.0
  40
 9.1328129430768
 100
AcDbArc
  50
 237.69843463469
  51
 18.768732377667
   0
ARC
   5
36D
 100
AcDbEntity
   8
LEVEL001
 370
13
   6
CONTINUOUS
  62
5
 100
AcDbCircle
  10
-5095.4866042780
  20
 3855.2127726365
  30
0.0
  40
 37.929006876678
 100
AcDbArc
  50
 46.131549416314
  51
 92.247188603508
   0
ARC
   5
36E
 100
AcDbEntity
   8
LEVEL001
 370
13
   6
CONTINUOUS
  62
5
 100
AcDbCircle
  10
-5038.3912949715
  20
 3875.7354857711
  30
0.0
  40
 8.9390233475260
 100
AcDbArc
  50
 229.60790187561
  51
 6.7933956220586
   0
ARC
   5
36F
 100
AcDbEntity
   8
LEVEL001
 370
13
   6
CONTINUOUS
  62
5
 100
AcDbCircle
  10
-5053.7000364774
  20
 3864.7041501817
  30
0.0
  40
 27.037970213950
 100
AcDbArc
  50
 26.557897354828
  51
 98.092162593090
   0
MTEXT
   5
370
 100
AcDbEntity
   8
LEVEL001
 370
13
  62
1
 100
AcDbMText
  10
-4745.1427757835
  20
 3195.7942000973
  30
0.0
  40
 42.857142857142
  41
0.0
  71
1
  72
1
   1
{\T1.000000;支柱}\P%%c{\T1.000000;７６}{\T1.000000;.}{\T1.000000;３×３}{\T1.000000;.}{\T1.000000;２ｔ}\P{\T1.000000;×３６００Ｌ}
   7
GMM001
  44
 0.79999984000003
   0
DIMENSION
   5
371
 100
AcDbEntity
   8
LEVEL001
 370
13
   6
CONTINUOUS
  62
1
 100
AcDbDimension
   2
*D21
  10
-4831.0050276294
  20
 5359.3656286689
  30
0.0
  11
-5095.1427757835
  21
 5206.8656286687
  31
0.0
  70
131
   1
\A1;%%c600
   3
GMM007
 100
AcDbDiametricDimension
  15
-5359.2805239376
  25
 5054.3656286684
  35
0.0
   0
LINE
   5
372
 100
AcDbEntity
   8
LEVEL001
 370
13
 100
AcDbLine
   6
CONTINUOUS
  62
5
  10
-4784.4625809368
  20
 2374.3656286687
  30
0.0
  11
-4836.9625809368
  21
 2321.8656286687
  31
0.0
   0
LINE
   5
373
 100
AcDbEntity
   8
LEVEL001
 370
13
 100
AcDbLine
   6
CONTINUOUS
  62
5
  10
-4821.0526783608
  20
 2321.8656286687
  30
0.0
  11
-4768.5526783608
  21
 2374.3656286687
  31
0.0
   0
LINE
   5
374
 100
AcDbEntity
   8
LEVEL001
 370
13
 100
AcDbLine
   6
CONTINUOUS
  62
5
  10
-4752.6427757831
  20
 2374.3656286687
  30
0.0
  11
-4805.1427757831
  21
 2321.8656286687
  31
0.0
   0
LINE
   5
375
 100
AcDbEntity
   8
LEVEL001
 370
13
 100
AcDbLine
   6
CONTINUOUS
  62
5
  10
-4789.2328732071
  20
 2321.8656286687
  30
0.0
  11
-4736.7328732071
  21
 2374.3656286687
  31
0.0
   0
LINE
   5
376
 100
AcDbEntity
   8
LEVEL001
 370
13
 100
AcDbLine
   6
CONTINUOUS
  62
5
  10
-4731.9625809365
  20
 2321.8656286687
  30
0.0
  11
-4760.5977270718
  21
 2350.5007748039
  31
0.0
   0
LINE
   5
377
 100
AcDbEntity
   8
LEVEL001
 370
13
 100
AcDbLine
   6
CONTINUOUS
  62
5
  10
-4752.6427757836
  20
 2358.4557260922
  30
0.0
  11
-4716.0526783601
  21
 2321.8656286687
  31
0.0
   0
LINE
   5
378
 100
AcDbEntity
   8
LEVEL001
 370
13
 100
AcDbLine
   6
CONTINUOUS
  62
5
  10
-4700.1427757837
  20
 2321.8656286687
  30
0.0
  11
-4744.6878244954
  21
 2366.4106773804
  31
0.0
   0
LINE
   5
379
 100
AcDbEntity
   8
LEVEL001
 370
13
 100
AcDbLine
   6
CONTINUOUS
  62
5
  10
-4736.7328732071
  20
 2374.3656286687
  30
0.0
  11
-4684.2328732069
  21
 2321.8656286687
  31
0.0
   0
LINE
   5
37A
 100
AcDbEntity
   8
LEVEL001
 370
13
 100
AcDbLine
   6
CONTINUOUS
  62
5
  10
-4684.2328732069
  20
 2321.8656286687
  30
0.0
  11
-4631.7328732069
  21
 2374.3656286687
  31
0.0
   0
LINE
   5
37B
 100
AcDbEntity
   8
LEVEL001
 370
13
 100
AcDbLine
   6
CONTINUOUS
  62
5
  10
-4679.4625809366
  20
 2374.3656286687
  30
0.0
  11
-4708.0977270718
  21
 2345.7304825335
  31
0.0
   0
LINE
   5
37C
 100
AcDbEntity
   8
LEVEL001
 370
13
 100
AcDbLine
   6
CONTINUOUS
  62
5
  10
-4700.1427757838
  20
 2337.7755312455
  30
0.0
  11
-4663.5526783605
  21
 2374.3656286687
  31
0.0
   0
LINE
   5
37D
 100
AcDbEntity
   8
LEVEL001
 370
13
 100
AcDbLine
   6
CONTINUOUS
  62
5
  10
-4647.6427757829
  20
 2374.3656286687
  30
0.0
  11
-4692.1878244950
  21
 2329.8205799567
  31
0.0
   0
LINE
   5
37E
 100
AcDbEntity
   8
LEVEL001
 370
13
 100
AcDbLine
   6
CONTINUOUS
  62
5
  10
-4626.9625809363
  20
 2321.8656286687
  30
0.0
  11
-4655.5977270717
  21
 2350.5007748039
  31
0.0
   0
LINE
   5
37F
 100
AcDbEntity
   8
LEVEL001
 370
13
 100
AcDbLine
   6
CONTINUOUS
  62
5
  10
-4647.6427757835
  20
 2358.4557260922
  30
0.0
  11
-4611.0526783599
  21
 2321.8656286687
  31
0.0
   0
LINE
   5
380
 100
AcDbEntity
   8
LEVEL001
 370
13
 100
AcDbLine
   6
CONTINUOUS
  62
5
  10
-4595.1427757835
  20
 2321.8656286687
  30
0.0
  11
-4639.6878244953
  21
 2366.4106773804
  31
0.0
   0
LINE
   5
381
 100
AcDbEntity
   8
LEVEL001
 370
13
 100
AcDbLine
   6
CONTINUOUS
  62
5
  10
-4631.7328732069
  20
 2374.3656286687
  30
0.0
  11
-4595.1427757835
  21
 2337.7755312453
  31
0.0
   0
LINE
   5
382
 100
AcDbEntity
   8
LEVEL001
 370
13
 100
AcDbLine
   6
CONTINUOUS
  62
5
  10
-5056.9927757835
  20
 2374.3656286687
  30
0.0
  11
-4595.1427757835
  21
 2374.3656286687
  31
0.0
   0
LINE
   5
383
 100
AcDbEntity
   8
LEVEL001
 370
13
 100
AcDbLine
   6
CONTINUOUS
  62
5
  10
-4845.1427757835
  20
 1574.3656286687
  30
0.0
  11
-4895.1427757835
  21
 1474.3656286687
  31
0.0
   0
LINE
   5
384
 100
AcDbEntity
   8
LEVEL001
 370
13
 100
AcDbLine
   6
CONTINUOUS
  62
5
  10
-4895.1427757835
  20
 1574.3656286687
  30
0.0
  11
-4855.1427757835
  21
 1554.3656286687
  31
0.0
   0
LINE
   5
385
 100
AcDbEntity
   8
LEVEL001
 370
13
 100
AcDbLine
   6
CONTINUOUS
  62
5
  10
-4895.1427757835
  20
 1574.3656286687
  30
0.0
  11
-4945.1427757835
  21
 1474.3656286687
  31
0.0
   0
LINE
   5
386
 100
AcDbEntity
   8
LEVEL001
 370
13
 100
AcDbLine
   6
CONTINUOUS
  62
5
  10
-4945.1427757835
  20
 1574.3656286687
  30
0.0
  11
-4905.1427757835
  21
 1554.3656286687
  31
0.0
   0
LINE
   5
387
 100
AcDbEntity
   8
LEVEL001
 370
13
 100
AcDbLine
   6
CONTINUOUS
  62
5
  10
-4945.1427757835
  20
 1574.3656286687
  30
0.0
  11
-4995.1427757835
  21
 1474.3656286687
  31
0.0
   0
LINE
   5
388
 100
AcDbEntity
   8
LEVEL001
 370
13
 100
AcDbLine
   6
CONTINUOUS
  62
5
  10
-4995.1427757835
  20
 1574.3656286687
  30
0.0
  11
-4955.1427757835
  21
 1554.3656286687
  31
0.0
   0
LINE
   5
389
 100
AcDbEntity
   8
LEVEL001
 370
13
 100
AcDbLine
   6
CONTINUOUS
  62
5
  10
-4845.1427757835
  20
 1474.3656286687
  30
0.0
  11
-4885.1427757835
  21
 1494.3656286687
  31
0.0
   0
LINE
   5
38A
 100
AcDbEntity
   8
LEVEL001
 370
13
 100
AcDbLine
   6
CONTINUOUS
  62
5
  10
-4895.1427757835
  20
 1474.3656286687
  30
0.0
  11
-4935.1427757835
  21
 1494.3656286687
  31
0.0
   0
LINE
   5
38B
 100
AcDbEntity
   8
LEVEL001
 370
13
 100
AcDbLine
   6
CONTINUOUS
  62
5
  10
-4945.1427757835
  20
 1474.3656286687
  30
0.0
  11
-4985.1427757835
  21
 1494.3656286687
  31
0.0
   0
LINE
   5
38C
 100
AcDbEntity
   8
LEVEL001
 370
13
 100
AcDbLine
   6
CONTINUOUS
  62
5
  10
-4845.1427757835
  20
 1574.3656286687
  30
0.0
  11
-5345.1427757835
  21
 1574.3656286687
  31
0.0
   0
LINE
   5
38D
 100
AcDbEntity
   8
LEVEL001
 370
13
 100
AcDbLine
   6
CONTINUOUS
  62
5
  10
-5345.1427757835
  20
 1474.3656286687
  30
0.0
  11
-4845.1427757835
  21
 1474.3656286687
  31
0.0
   0
LINE
   5
38E
 100
AcDbEntity
   8
LEVEL001
 370
13
 100
AcDbLine
   6
CONTINUOUS
  62
5
  10
-4845.1427757835
  20
 1474.3656286687
  30
0.0
  11
-4845.1427757835
  21
 1574.3656286687
  31
0.0
   0
LINE
   5
38F
 100
AcDbEntity
   8
LEVEL001
 370
13
 100
AcDbLine
   6
CONTINUOUS
  62
5
  10
-5345.1427757835
  20
 1574.3656286687
  30
0.0
  11
-4845.1427757835
  21
 1574.3656286687
  31
0.0
   0
LINE
   5
390
 100
AcDbEntity
   8
LEVEL001
 370
13
 100
AcDbLine
   6
CONTINUOUS
  62
5
  10
-4845.1427757835
  20
 1574.3656286687
  30
0.0
  11
-4845.1427757835
  21
 2374.3656286687
  31
0.0
   0
LINE
   5
391
 100
AcDbEntity
   8
LEVEL001
 370
13
 100
AcDbLine
   6
CONTINUOUS
  62
5
  10
-4845.1427757835
  20
 2221.5709677280
  30
0.0
  11
-5056.9927757835
  21
 2009.7209677280
  31
0.0
   0
LINE
   5
392
 100
AcDbEntity
   8
LEVEL001
 370
13
 100
AcDbLine
   6
CONTINUOUS
  62
5
  10
-5056.9927757835
  20
 1974.3656286687
  30
0.0
  11
-4845.1427757835
  21
 2186.2156286687
  31
0.0
   0
LINE
   5
393
 100
AcDbEntity
   8
LEVEL001
 370
13
 100
AcDbLine
   6
CONTINUOUS
  62
5
  10
-4845.1427757835
  20
 2150.8602896093
  30
0.0
  11
-5056.9927757835
  21
 1939.0102896093
  31
0.0
   0
LINE
   5
394
 100
AcDbEntity
   8
LEVEL001
 370
13
 100
AcDbLine
   6
CONTINUOUS
  62
5
  10
-5434.2328732069
  20
 2321.8656286687
  30
0.0
  11
-5381.7328732069
  21
 2374.3656286687
  31
0.0
   0
LINE
   5
395
 100
AcDbEntity
   8
LEVEL001
 370
13
 100
AcDbLine
   6
CONTINUOUS
  62
5
  10
-5450.1427757838
  20
 2337.7755312455
  30
0.0
  11
-5413.5526783606
  21
 2374.3656286687
  31
0.0
   0
LINE
   5
396
 100
AcDbEntity
   8
LEVEL001
 370
13
 100
AcDbLine
   6
CONTINUOUS
  62
5
  10
-5397.6427757830
  20
 2374.3656286687
  30
0.0
  11
-5442.1878244950
  21
 2329.8205799567
  31
0.0
   0
LINE
   5
397
 100
AcDbEntity
   8
LEVEL001
 370
13
 100
AcDbLine
   6
CONTINUOUS
  62
5
  10
-5376.9625809364
  20
 2321.8656286687
  30
0.0
  11
-5405.5977270716
  21
 2350.5007748039
  31
0.0
   0
LINE
   5
398
 100
AcDbEntity
   8
LEVEL001
 370
13
 100
AcDbLine
   6
CONTINUOUS
  62
5
  10
-5397.6427757834
  20
 2358.4557260922
  30
0.0
  11
-5361.0526783599
  21
 2321.8656286687
  31
0.0
   0
LINE
   5
399
 100
AcDbEntity
   8
LEVEL001
 370
13
 100
AcDbLine
   6
CONTINUOUS
  62
5
  10
-5345.1427757835
  20
 2321.8656286687
  30
0.0
  11
-5389.6878244952
  21
 2366.4106773804
  31
0.0
   0
LINE
   5
39A
 100
AcDbEntity
   8
LEVEL001
 370
13
 100
AcDbLine
   6
CONTINUOUS
  62
5
  10
-5534.4625809368
  20
 2374.3656286687
  30
0.0
  11
-5586.9625809368
  21
 2321.8656286687
  31
0.0
   0
LINE
   5
39B
 100
AcDbEntity
   8
LEVEL001
 370
13
 100
AcDbLine
   6
CONTINUOUS
  62
5
  10
-5571.0526783608
  20
 2321.8656286687
  30
0.0
  11
-5518.5526783608
  21
 2374.3656286687
  31
0.0
   0
LINE
   5
39C
 100
AcDbEntity
   8
LEVEL001
 370
13
 100
AcDbLine
   6
CONTINUOUS
  62
5
  10
-5502.6427757831
  20
 2374.3656286687
  30
0.0
  11
-5555.1427757831
  21
 2321.8656286687
  31
0.0
   0
LINE
   5
39D
 100
AcDbEntity
   8
LEVEL001
 370
13
 100
AcDbLine
   6
CONTINUOUS
  62
5
  10
-5539.2328732071
  20
 2321.8656286687
  30
0.0
  11
-5486.7328732071
  21
 2374.3656286687
  31
0.0
   0
LINE
   5
39E
 100
AcDbEntity
   8
LEVEL001
 370
13
 100
AcDbLine
   6
CONTINUOUS
  62
5
  10
-5481.9625809365
  20
 2321.8656286687
  30
0.0
  11
-5510.5977270718
  21
 2350.5007748039
  31
0.0
   0
LINE
   5
39F
 100
AcDbEntity
   8
LEVEL001
 370
13
 100
AcDbLine
   6
CONTINUOUS
  62
5
  10
-5502.6427757836
  20
 2358.4557260922
  30
0.0
  11
-5466.0526783601
  21
 2321.8656286687
  31
0.0
   0
LINE
   5
3A0
 100
AcDbEntity
   8
LEVEL001
 370
13
 100
AcDbLine
   6
CONTINUOUS
  62
5
  10
-5450.1427757837
  20
 2321.8656286687
  30
0.0
  11
-5494.6878244954
  21
 2366.4106773804
  31
0.0
   0
LINE
   5
3A1
 100
AcDbEntity
   8
LEVEL001
 370
13
 100
AcDbLine
   6
CONTINUOUS
  62
5
  10
-5486.7328732071
  20
 2374.3656286687
  30
0.0
  11
-5434.2328732069
  21
 2321.8656286687
  31
0.0
   0
LINE
   5
3A2
 100
AcDbEntity
   8
LEVEL001
 370
13
 100
AcDbLine
   6
CONTINUOUS
  62
5
  10
-5429.4625809366
  20
 2374.3656286687
  30
0.0
  11
-5458.0977270718
  21
 2345.7304825335
  31
0.0
   0
LINE
   5
3A3
 100
AcDbEntity
   8
LEVEL001
 370
13
 100
AcDbLine
   6
CONTINUOUS
  62
5
  10
-5381.7328732069
  20
 2374.3656286687
  30
0.0
  11
-5345.1427757835
  21
 2337.7755312453
  31
0.0
   0
LINE
   5
3A4
 100
AcDbEntity
   8
LEVEL001
 370
13
 100
AcDbLine
   6
CONTINUOUS
  62
5
  10
-5345.1427757835
  20
 2374.3656286687
  30
0.0
  11
-5345.1427757835
  21
 1574.3656286687
  31
0.0
   0
LINE
   5
3A5
 100
AcDbEntity
   8
LEVEL001
 370
13
 100
AcDbLine
   6
CONTINUOUS
  62
5
  10
-5133.2927757835
  20
 2374.3656286687
  30
0.0
  11
-5595.1427757835
  21
 2374.3656286687
  31
0.0
   0
LINE
   5
3A6
 100
AcDbEntity
   8
LEVEL001
 370
13
 100
AcDbLine
   6
CONTINUOUS
  62
5
  10
-5245.1427757835
  20
 1574.3656286687
  30
0.0
  11
-5295.1427757835
  21
 1474.3656286687
  31
0.0
   0
LINE
   5
3A7
 100
AcDbEntity
   8
LEVEL001
 370
13
 100
AcDbLine
   6
CONTINUOUS
  62
5
  10
-5295.1427757835
  20
 1574.3656286687
  30
0.0
  11
-5255.1427757835
  21
 1554.3656286687
  31
0.0
   0
LINE
   5
3A8
 100
AcDbEntity
   8
LEVEL001
 370
13
 100
AcDbLine
   6
CONTINUOUS
  62
5
  10
-5295.1427757835
  20
 1574.3656286687
  30
0.0
  11
-5345.1427757835
  21
 1474.3656286687
  31
0.0
   0
LINE
   5
3A9
 100
AcDbEntity
   8
LEVEL001
 370
13
 100
AcDbLine
   6
CONTINUOUS
  62
5
  10
-5345.1427757835
  20
 1574.3656286687
  30
0.0
  11
-5305.1427757835
  21
 1554.3656286687
  31
0.0
   0
LINE
   5
3AA
 100
AcDbEntity
   8
LEVEL001
 370
13
 100
AcDbLine
   6
CONTINUOUS
  62
5
  10
-5245.1427757835
  20
 1474.3656286687
  30
0.0
  11
-5285.1427757835
  21
 1494.3656286687
  31
0.0
   0
LINE
   5
3AB
 100
AcDbEntity
   8
LEVEL001
 370
13
 100
AcDbLine
   6
CONTINUOUS
  62
5
  10
-5295.1427757835
  20
 1474.3656286687
  30
0.0
  11
-5335.1427757835
  21
 1494.3656286687
  31
0.0
   0
LINE
   5
3AC
 100
AcDbEntity
   8
LEVEL001
 370
13
 100
AcDbLine
   6
CONTINUOUS
  62
5
  10
-5345.1427757835
  20
 1574.3656286687
  30
0.0
  11
-5345.1427757835
  21
 1474.3656286687
  31
0.0
   0
LINE
   5
3AD
 100
AcDbEntity
   8
LEVEL001
 370
13
 100
AcDbLine
   6
CONTINUOUS
  62
5
  10
-5345.1427757835
  20
 1686.2156286687
  30
0.0
  11
-5133.2927757835
  21
 1898.0656286687
  31
0.0
   0
LINE
   5
3AE
 100
AcDbEntity
   8
LEVEL001
 370
13
 100
AcDbLine
   6
CONTINUOUS
  62
5
  10
-5133.2927757835
  20
 1862.7102896093
  30
0.0
  11
-5345.1427757835
  21
 1650.8602896093
  31
0.0
   0
LINE
   5
3AF
 100
AcDbEntity
   8
LEVEL001
 370
13
 100
AcDbLine
   6
CONTINUOUS
  62
5
  10
-5133.2927757835
  20
 1933.4209677280
  30
0.0
  11
-5345.1427757835
  21
 1721.5709677280
  31
0.0
   0
LINE
   5
3B0
 100
AcDbEntity
   8
LEVEL001
 370
13
 100
AcDbLine
   6
CONTINUOUS
  62
5
  10
-5195.1427757835
  20
 1574.3656286687
  30
0.0
  11
-5245.1427757835
  21
 1474.3656286687
  31
0.0
   0
LINE
   5
3B1
 100
AcDbEntity
   8
LEVEL001
 370
13
 100
AcDbLine
   6
CONTINUOUS
  62
5
  10
-5245.1427757835
  20
 1574.3656286687
  30
0.0
  11
-5205.1427757835
  21
 1554.3656286687
  31
0.0
   0
LINE
   5
3B2
 100
AcDbEntity
   8
LEVEL001
 370
13
 100
AcDbLine
   6
CONTINUOUS
  62
5
  10
-5195.1427757835
  20
 1474.3656286687
  30
0.0
  11
-5235.1427757835
  21
 1494.3656286687
  31
0.0
   0
LINE
   5
3B3
 100
AcDbEntity
   8
LEVEL001
 370
13
 100
AcDbLine
   6
CONTINUOUS
  62
5
  10
-4284.2328732069
  20
 2321.8656286687
  30
0.0
  11
-4231.7328732069
  21
 2374.3656286687
  31
0.0
   0
LINE
   5
3B4
 100
AcDbEntity
   8
LEVEL001
 370
13
 100
AcDbLine
   6
CONTINUOUS
  62
5
  10
-4300.1427757837
  20
 2337.7755312455
  30
0.0
  11
-4263.5526783605
  21
 2374.3656286687
  31
0.0
   0
LINE
   5
3B5
 100
AcDbEntity
   8
LEVEL001
 370
13
 100
AcDbLine
   6
CONTINUOUS
  62
5
  10
-4247.6427757829
  20
 2374.3656286687
  30
0.0
  11
-4292.1878244949
  21
 2329.8205799567
  31
0.0
   0
LINE
   5
3B6
 100
AcDbEntity
   8
LEVEL001
 370
13
 100
AcDbLine
   6
CONTINUOUS
  62
5
  10
-4226.9625809363
  20
 2321.8656286687
  30
0.0
  11
-4255.5977270717
  21
 2350.5007748039
  31
0.0
   0
LINE
   5
3B7
 100
AcDbEntity
   8
LEVEL001
 370
13
 100
AcDbLine
   6
CONTINUOUS
  62
5
  10
-4247.6427757835
  20
 2358.4557260922
  30
0.0
  11
-4211.0526783599
  21
 2321.8656286687
  31
0.0
   0
LINE
   5
3B8
 100
AcDbEntity
   8
LEVEL001
 370
13
 100
AcDbLine
   6
CONTINUOUS
  62
5
  10
-4195.1427757835
  20
 2321.8656286687
  30
0.0
  11
-4239.6878244953
  21
 2366.4106773804
  31
0.0
   0
LINE
   5
3B9
 100
AcDbEntity
   8
LEVEL001
 370
13
 100
AcDbLine
   6
CONTINUOUS
  62
5
  10
-4384.4625809369
  20
 2374.3656286687
  30
0.0
  11
-4436.9625809369
  21
 2321.8656286687
  31
0.0
   0
LINE
   5
3BA
 100
AcDbEntity
   8
LEVEL001
 370
13
 100
AcDbLine
   6
CONTINUOUS
  62
5
  10
-4421.0526783607
  20
 2321.8656286687
  30
0.0
  11
-4368.5526783607
  21
 2374.3656286687
  31
0.0
   0
LINE
   5
3BB
 100
AcDbEntity
   8
LEVEL001
 370
13
 100
AcDbLine
   6
CONTINUOUS
  62
5
  10
-4352.6427757831
  20
 2374.3656286687
  30
0.0
  11
-4405.1427757831
  21
 2321.8656286687
  31
0.0
   0
LINE
   5
3BC
 100
AcDbEntity
   8
LEVEL001
 370
13
 100
AcDbLine
   6
CONTINUOUS
  62
5
  10
-4389.2328732071
  20
 2321.8656286687
  30
0.0
  11
-4336.7328732071
  21
 2374.3656286687
  31
0.0
   0
LINE
   5
3BD
 100
AcDbEntity
   8
LEVEL001
 370
13
 100
AcDbLine
   6
CONTINUOUS
  62
5
  10
-4331.9625809365
  20
 2321.8656286687
  30
0.0
  11
-4360.5977270719
  21
 2350.5007748039
  31
0.0
   0
LINE
   5
3BE
 100
AcDbEntity
   8
LEVEL001
 370
13
 100
AcDbLine
   6
CONTINUOUS
  62
5
  10
-4352.6427757837
  20
 2358.4557260922
  30
0.0
  11
-4316.0526783601
  21
 2321.8656286687
  31
0.0
   0
LINE
   5
3BF
 100
AcDbEntity
   8
LEVEL001
 370
13
 100
AcDbLine
   6
CONTINUOUS
  62
5
  10
-4300.1427757837
  20
 2321.8656286687
  30
0.0
  11
-4344.6878244955
  21
 2366.4106773804
  31
0.0
   0
LINE
   5
3C0
 100
AcDbEntity
   8
LEVEL001
 370
13
 100
AcDbLine
   6
CONTINUOUS
  62
5
  10
-4336.7328732071
  20
 2374.3656286687
  30
0.0
  11
-4284.2328732069
  21
 2321.8656286687
  31
0.0
   0
LINE
   5
3C1
 100
AcDbEntity
   8
LEVEL001
 370
13
 100
AcDbLine
   6
CONTINUOUS
  62
5
  10
-4279.4625809367
  20
 2374.3656286687
  30
0.0
  11
-4308.0977270719
  21
 2345.7304825335
  31
0.0
   0
LINE
   5
3C2
 100
AcDbEntity
   8
LEVEL001
 370
13
 100
AcDbLine
   6
CONTINUOUS
  62
5
  10
-4231.7328732069
  20
 2374.3656286687
  30
0.0
  11
-4195.1427757835
  21
 2337.7755312453
  31
0.0
   0
LINE
   5
3C3
 100
AcDbEntity
   8
LEVEL001
 370
13
 100
AcDbLine
   6
CONTINUOUS
  62
5
  10
-4195.1427757835
  20
 2374.3656286687
  30
0.0
  11
-4195.1427757835
  21
 1574.3656286687
  31
0.0
   0
LINE
   5
3C4
 100
AcDbEntity
   8
LEVEL001
 370
13
 100
AcDbLine
   6
CONTINUOUS
  62
5
  10
-3983.2927757835
  20
 2374.3656286687
  30
0.0
  11
-4445.1427757835
  21
 2374.3656286687
  31
0.0
   0
LINE
   5
3C5
 100
AcDbEntity
   8
LEVEL001
 370
13
 100
AcDbLine
   6
CONTINUOUS
  62
5
  10
-4045.1427757835
  20
 1574.3656286687
  30
0.0
  11
-4095.1427757835
  21
 1474.3656286687
  31
0.0
   0
LINE
   5
3C6
 100
AcDbEntity
   8
LEVEL001
 370
13
 100
AcDbLine
   6
CONTINUOUS
  62
5
  10
-4095.1427757835
  20
 1574.3656286687
  30
0.0
  11
-4055.1427757835
  21
 1554.3656286687
  31
0.0
   0
LINE
   5
3C7
 100
AcDbEntity
   8
LEVEL001
 370
13
 100
AcDbLine
   6
CONTINUOUS
  62
5
  10
-4095.1427757835
  20
 1574.3656286687
  30
0.0
  11
-4145.1427757835
  21
 1474.3656286687
  31
0.0
   0
LINE
   5
3C8
 100
AcDbEntity
   8
LEVEL001
 370
13
 100
AcDbLine
   6
CONTINUOUS
  62
5
  10
-4145.1427757835
  20
 1574.3656286687
  30
0.0
  11
-4105.1427757835
  21
 1554.3656286687
  31
0.0
   0
LINE
   5
3C9
 100
AcDbEntity
   8
LEVEL001
 370
13
 100
AcDbLine
   6
CONTINUOUS
  62
5
  10
-4145.1427757835
  20
 1574.3656286687
  30
0.0
  11
-4195.1427757835
  21
 1474.3656286687
  31
0.0
   0
LINE
   5
3CA
 100
AcDbEntity
   8
LEVEL001
 370
13
 100
AcDbLine
   6
CONTINUOUS
  62
5
  10
-4195.1427757835
  20
 1574.3656286687
  30
0.0
  11
-4155.1427757835
  21
 1554.3656286687
  31
0.0
   0
LINE
   5
3CB
 100
AcDbEntity
   8
LEVEL001
 370
13
 100
AcDbLine
   6
CONTINUOUS
  62
5
  10
-4045.1427757835
  20
 1474.3656286687
  30
0.0
  11
-4085.1427757835
  21
 1494.3656286687
  31
0.0
   0
LINE
   5
3CC
 100
AcDbEntity
   8
LEVEL001
 370
13
 100
AcDbLine
   6
CONTINUOUS
  62
5
  10
-4095.1427757835
  20
 1474.3656286687
  30
0.0
  11
-4135.1427757835
  21
 1494.3656286687
  31
0.0
   0
LINE
   5
3CD
 100
AcDbEntity
   8
LEVEL001
 370
13
 100
AcDbLine
   6
CONTINUOUS
  62
5
  10
-4145.1427757835
  20
 1474.3656286687
  30
0.0
  11
-4185.1427757835
  21
 1494.3656286687
  31
0.0
   0
LINE
   5
3CE
 100
AcDbEntity
   8
LEVEL001
 370
13
 100
AcDbLine
   6
CONTINUOUS
  62
5
  10
-3695.1427757835
  20
 1574.3656286687
  30
0.0
  11
-4195.1427757835
  21
 1574.3656286687
  31
0.0
   0
LINE
   5
3CF
 100
AcDbEntity
   8
LEVEL001
 370
13
 100
AcDbLine
   6
CONTINUOUS
  62
5
  10
-4195.1427757835
  20
 1574.3656286687
  30
0.0
  11
-4195.1427757835
  21
 1474.3656286687
  31
0.0
   0
LINE
   5
3D0
 100
AcDbEntity
   8
LEVEL001
 370
13
 100
AcDbLine
   6
CONTINUOUS
  62
5
  10
-4195.1427757835
  20
 1474.3656286687
  30
0.0
  11
-3695.1427757835
  21
 1474.3656286687
  31
0.0
   0
LINE
   5
3D1
 100
AcDbEntity
   8
LEVEL001
 370
13
 100
AcDbLine
   6
CONTINUOUS
  62
5
  10
-4195.1427757835
  20
 1574.3656286687
  30
0.0
  11
-3695.1427757835
  21
 1574.3656286687
  31
0.0
   0
LINE
   5
3D2
 100
AcDbEntity
   8
LEVEL001
 370
13
 100
AcDbLine
   6
CONTINUOUS
  62
5
  10
-4195.1427757835
  20
 1686.2156286687
  30
0.0
  11
-3983.2927757835
  21
 1898.0656286687
  31
0.0
   0
LINE
   5
3D3
 100
AcDbEntity
   8
LEVEL001
 370
13
 100
AcDbLine
   6
CONTINUOUS
  62
5
  10
-3983.2927757835
  20
 1862.7102896093
  30
0.0
  11
-4195.1427757835
  21
 1650.8602896093
  31
0.0
   0
LINE
   5
3D4
 100
AcDbEntity
   8
LEVEL001
 370
13
 100
AcDbLine
   6
CONTINUOUS
  62
5
  10
-3983.2927757835
  20
 1933.4209677280
  30
0.0
  11
-4195.1427757835
  21
 1721.5709677280
  31
0.0
   0
LINE
   5
3D5
 100
AcDbEntity
   8
LEVEL001
 370
13
 100
AcDbLine
   6
CONTINUOUS
  62
5
  10
-3695.1427757835
  20
 1574.3656286687
  30
0.0
  11
-3745.1427757835
  21
 1474.3656286687
  31
0.0
   0
LINE
   5
3D6
 100
AcDbEntity
   8
LEVEL001
 370
13
 100
AcDbLine
   6
CONTINUOUS
  62
5
  10
-3745.1427757835
  20
 1574.3656286687
  30
0.0
  11
-3705.1427757835
  21
 1554.3656286687
  31
0.0
   0
LINE
   5
3D7
 100
AcDbEntity
   8
LEVEL001
 370
13
 100
AcDbLine
   6
CONTINUOUS
  62
5
  10
-3745.1427757835
  20
 1574.3656286687
  30
0.0
  11
-3795.1427757835
  21
 1474.3656286687
  31
0.0
   0
LINE
   5
3D8
 100
AcDbEntity
   8
LEVEL001
 370
13
 100
AcDbLine
   6
CONTINUOUS
  62
5
  10
-3795.1427757835
  20
 1574.3656286687
  30
0.0
  11
-3755.1427757835
  21
 1554.3656286687
  31
0.0
   0
LINE
   5
3D9
 100
AcDbEntity
   8
LEVEL001
 370
13
 100
AcDbLine
   6
CONTINUOUS
  62
5
  10
-3795.1427757835
  20
 1574.3656286687
  30
0.0
  11
-3845.1427757835
  21
 1474.3656286687
  31
0.0
   0
LINE
   5
3DA
 100
AcDbEntity
   8
LEVEL001
 370
13
 100
AcDbLine
   6
CONTINUOUS
  62
5
  10
-3845.1427757835
  20
 1574.3656286687
  30
0.0
  11
-3805.1427757835
  21
 1554.3656286687
  31
0.0
   0
LINE
   5
3DB
 100
AcDbEntity
   8
LEVEL001
 370
13
 100
AcDbLine
   6
CONTINUOUS
  62
5
  10
-3695.1427757835
  20
 1474.3656286687
  30
0.0
  11
-3735.1427757835
  21
 1494.3656286687
  31
0.0
   0
LINE
   5
3DC
 100
AcDbEntity
   8
LEVEL001
 370
13
 100
AcDbLine
   6
CONTINUOUS
  62
5
  10
-3745.1427757835
  20
 1474.3656286687
  30
0.0
  11
-3785.1427757835
  21
 1494.3656286687
  31
0.0
   0
LINE
   5
3DD
 100
AcDbEntity
   8
LEVEL001
 370
13
 100
AcDbLine
   6
CONTINUOUS
  62
5
  10
-3795.1427757835
  20
 1474.3656286687
  30
0.0
  11
-3835.1427757835
  21
 1494.3656286687
  31
0.0
   0
LINE
   5
3DE
 100
AcDbEntity
   8
LEVEL001
 370
13
 100
AcDbLine
   6
CONTINUOUS
  62
5
  10
-3695.1427757835
  20
 1474.3656286687
  30
0.0
  11
-3695.1427757835
  21
 1574.3656286687
  31
0.0
   0
LINE
   5
3DF
 100
AcDbEntity
   8
LEVEL001
 370
13
 100
AcDbLine
   6
CONTINUOUS
  62
5
  10
-3695.1427757835
  20
 1574.3656286687
  30
0.0
  11
-3695.1427757835
  21
 2374.3656286687
  31
0.0
   0
LINE
   5
3E0
 100
AcDbEntity
   8
LEVEL001
 370
13
 100
AcDbLine
   6
CONTINUOUS
  62
5
  10
-3906.9927757835
  20
 1974.3656286687
  30
0.0
  11
-3695.1427757835
  21
 2186.2156286687
  31
0.0
   0
LINE
   5
3E1
 100
AcDbEntity
   8
LEVEL001
 370
13
 100
AcDbLine
   6
CONTINUOUS
  62
5
  10
-3695.1427757835
  20
 2150.8602896093
  30
0.0
  11
-3906.9927757835
  21
 1939.0102896093
  31
0.0
   0
LINE
   5
3E2
 100
AcDbEntity
   8
LEVEL001
 370
13
 100
AcDbLine
   6
CONTINUOUS
  62
5
  10
-3634.4625809369
  20
 2374.3656286687
  30
0.0
  11
-3686.9625809369
  21
 2321.8656286687
  31
0.0
   0
LINE
   5
3E3
 100
AcDbEntity
   8
LEVEL001
 370
13
 100
AcDbLine
   6
CONTINUOUS
  62
5
  10
-3671.0526783607
  20
 2321.8656286687
  30
0.0
  11
-3618.5526783607
  21
 2374.3656286687
  31
0.0
   0
LINE
   5
3E4
 100
AcDbEntity
   8
LEVEL001
 370
13
 100
AcDbLine
   6
CONTINUOUS
  62
5
  10
-3602.6427757831
  20
 2374.3656286687
  30
0.0
  11
-3655.1427757831
  21
 2321.8656286687
  31
0.0
   0
LINE
   5
3E5
 100
AcDbEntity
   8
LEVEL001
 370
13
 100
AcDbLine
   6
CONTINUOUS
  62
5
  10
-3639.2328732071
  20
 2321.8656286687
  30
0.0
  11
-3586.7328732071
  21
 2374.3656286687
  31
0.0
   0
LINE
   5
3E6
 100
AcDbEntity
   8
LEVEL001
 370
13
 100
AcDbLine
   6
CONTINUOUS
  62
5
  10
-3581.9625809365
  20
 2321.8656286687
  30
0.0
  11
-3610.5977270719
  21
 2350.5007748039
  31
0.0
   0
LINE
   5
3E7
 100
AcDbEntity
   8
LEVEL001
 370
13
 100
AcDbLine
   6
CONTINUOUS
  62
5
  10
-3602.6427757837
  20
 2358.4557260922
  30
0.0
  11
-3566.0526783601
  21
 2321.8656286687
  31
0.0
   0
LINE
   5
3E8
 100
AcDbEntity
   8
LEVEL001
 370
13
 100
AcDbLine
   6
CONTINUOUS
  62
5
  10
-3550.1427757837
  20
 2321.8656286687
  30
0.0
  11
-3594.6878244955
  21
 2366.4106773804
  31
0.0
   0
LINE
   5
3E9
 100
AcDbEntity
   8
LEVEL001
 370
13
 100
AcDbLine
   6
CONTINUOUS
  62
5
  10
-3586.7328732071
  20
 2374.3656286687
  30
0.0
  11
-3534.2328732069
  21
 2321.8656286687
  31
0.0
   0
LINE
   5
3EA
 100
AcDbEntity
   8
LEVEL001
 370
13
 100
AcDbLine
   6
CONTINUOUS
  62
5
  10
-3534.2328732069
  20
 2321.8656286687
  30
0.0
  11
-3481.7328732069
  21
 2374.3656286687
  31
0.0
   0
LINE
   5
3EB
 100
AcDbEntity
   8
LEVEL001
 370
13
 100
AcDbLine
   6
CONTINUOUS
  62
5
  10
-3529.4625809367
  20
 2374.3656286687
  30
0.0
  11
-3558.0977270719
  21
 2345.7304825335
  31
0.0
   0
LINE
   5
3EC
 100
AcDbEntity
   8
LEVEL001
 370
13
 100
AcDbLine
   6
CONTINUOUS
  62
5
  10
-3550.1427757837
  20
 2337.7755312455
  30
0.0
  11
-3513.5526783605
  21
 2374.3656286687
  31
0.0
   0
LINE
   5
3ED
 100
AcDbEntity
   8
LEVEL001
 370
13
 100
AcDbLine
   6
CONTINUOUS
  62
5
  10
-3497.6427757829
  20
 2374.3656286687
  30
0.0
  11
-3542.1878244949
  21
 2329.8205799567
  31
0.0
   0
LINE
   5
3EE
 100
AcDbEntity
   8
LEVEL001
 370
13
 100
AcDbLine
   6
CONTINUOUS
  62
5
  10
-3476.9625809363
  20
 2321.8656286687
  30
0.0
  11
-3505.5977270717
  21
 2350.5007748039
  31
0.0
   0
LINE
   5
3EF
 100
AcDbEntity
   8
LEVEL001
 370
13
 100
AcDbLine
   6
CONTINUOUS
  62
5
  10
-3497.6427757835
  20
 2358.4557260922
  30
0.0
  11
-3461.0526783599
  21
 2321.8656286687
  31
0.0
   0
LINE
   5
3F0
 100
AcDbEntity
   8
LEVEL001
 370
13
 100
AcDbLine
   6
CONTINUOUS
  62
5
  10
-3445.1427757835
  20
 2321.8656286687
  30
0.0
  11
-3489.6878244953
  21
 2366.4106773804
  31
0.0
   0
LINE
   5
3F1
 100
AcDbEntity
   8
LEVEL001
 370
13
 100
AcDbLine
   6
CONTINUOUS
  62
5
  10
-3481.7328732069
  20
 2374.3656286687
  30
0.0
  11
-3445.1427757835
  21
 2337.7755312453
  31
0.0
   0
LINE
   5
3F2
 100
AcDbEntity
   8
LEVEL001
 370
13
 100
AcDbLine
   6
CONTINUOUS
  62
5
  10
-3906.9927757835
  20
 2374.3656286687
  30
0.0
  11
-3445.1427757835
  21
 2374.3656286687
  31
0.0
   0
LINE
   5
3F3
 100
AcDbEntity
   8
LEVEL001
 370
13
 100
AcDbLine
   6
CONTINUOUS
  62
5
  10
-3695.1427757835
  20
 2221.5709677280
  30
0.0
  11
-3906.9927757835
  21
 2009.7209677280
  31
0.0
   0
CIRCLE
   5
3F4
 100
AcDbEntity
   8
LEVEL001
 370
13
 100
AcDbCircle
   6
CONTINUOUS
  62
1
  10
-4320.1427757835
  20
 1924.3656286687
  30
0.0
  40
 70.000000000000
   0
ARC
   5
3F5
 100
AcDbEntity
   8
LEVEL001
 370
13
   6
CONTINUOUS
  62
7
 100
AcDbCircle
  10
 1580.0549709021
  20
 4277.2597298888
  30
0.0
  40
 20.000000000000
 100
AcDbArc
  50
0.0
  51
 90.000000000000
   0
LINE
   5
3F6
 100
AcDbEntity
   8
LEVEL001
 370
13
 100
AcDbLine
   6
CONTINUOUS
  62
7
  10
 1580.0549709021
  20
 4297.2597298888
  30
0.0
  11
 1440.0575867419
  21
 4297.2597298888
  31
0.0
   0
ARC
   5
3F7
 100
AcDbEntity
   8
LEVEL001
 370
13
   6
CONTINUOUS
  62
7
 100
AcDbCircle
  10
 1440.0575867419
  20
 4277.2597298888
  30
0.0
  40
 20.000000000000
 100
AcDbArc
  50
 90.000000000000
  51
 180.00000000000
   0
LINE
   5
3F8
 100
AcDbEntity
   8
LEVEL001
 370
13
 100
AcDbLine
   6
CONTINUOUS
  62
7
  10
 1420.0575867419
  20
 4277.2597298888
  30
0.0
  11
 1420.0575867419
  21
 3717.2589451432
  31
0.0
   0
LINE
   5
3F9
 100
AcDbEntity
   8
LEVEL001
 370
13
 100
AcDbLine
   6
CONTINUOUS
  62
7
  10
 1600.0549709021
  20
 3717.2589451432
  30
0.0
  11
 1600.0549709021
  21
 4277.2597298888
  31
0.0
   0
LINE
   5
3FA
 100
AcDbEntity
   8
LEVEL001
 370
13
 100
AcDbLine
   6
CONTINUOUS
  62
6
  10
 3046.9603694446
  20
 4207.7597301690
  30
0.0
  11
 3046.9603694446
  21
 4198.7597301690
  31
0.0
   0
LINE
   5
3FB
 100
AcDbEntity
   8
LEVEL001
 370
13
 100
AcDbLine
   6
CONTINUOUS
  62
6
  10
 3046.9603694446
  20
 4183.7597301690
  30
0.0
  11
 3046.9603694446
  21
 4174.7597301690
  31
0.0
   0
LINE
   5
3FC
 100
AcDbEntity
   8
LEVEL001
 370
13
 100
AcDbLine
   6
CONTINUOUS
  62
7
  10
 3063.1323684451
  20
 4186.2597301690
  30
0.0
  11
 3053.1323684451
  21
 4186.2597301690
  31
0.0
   0
LINE
   5
3FD
 100
AcDbEntity
   8
LEVEL001
 370
13
 100
AcDbLine
   6
CONTINUOUS
  62
7
  10
 3053.1323684451
  20
 4186.2597301690
  30
0.0
  11
 3053.1323684451
  21
 4196.2597301690
  31
0.0
   0
LINE
   5
3FE
 100
AcDbEntity
   8
LEVEL001
 370
13
 100
AcDbLine
   6
CONTINUOUS
  62
7
  10
 3053.1323684451
  20
 4196.2597301690
  30
0.0
  11
 3063.1323684451
  21
 4196.2597301690
  31
0.0
   0
LINE
   5
3FF
 100
AcDbEntity
   8
LEVEL001
 370
13
 100
AcDbLine
   6
CONTINUOUS
  62
7
  10
 3063.1323684451
  20
 4196.2597301690
  30
0.0
  11
 3063.1323684451
  21
 4186.2597301690
  31
0.0
   0
LINE
   5
400
 100
AcDbEntity
   8
LEVEL001
 370
13
 100
AcDbLine
   6
CONTINUOUS
  62
6
  10
 3049.2788944859
  20
 4197.7597301690
  30
0.0
  11
 3049.2788944859
  21
 4184.7597301690
  31
0.0
   0
LINE
   5
401
 100
AcDbEntity
   8
LEVEL001
 370
13
 100
AcDbLine
   6
CONTINUOUS
  62
6
  10
 2973.5803030493
  20
 4196.7597301690
  30
0.0
  11
 2973.5803030493
  21
 4185.7597301690
  31
0.0
   0
LINE
   5
402
 100
AcDbEntity
   8
LEVEL001
 370
13
 100
AcDbLine
   6
CONTINUOUS
  62
6
  10
 2973.5803030493
  20
 4183.7597301690
  30
0.0
  11
 2973.5803030493
  21
 4174.7597301690
  31
0.0
   0
LINE
   5
403
 100
AcDbEntity
   8
LEVEL001
 370
13
 100
AcDbLine
   6
CONTINUOUS
  62
6
  10
 2973.5803030493
  20
 4207.7597301690
  30
0.0
  11
 2973.5803030493
  21
 4198.7597301690
  31
0.0
   0
LINE
   5
404
 100
AcDbEntity
   8
LEVEL001
 370
13
 100
AcDbLine
   6
CONTINUOUS
  62
6
  10
 3046.9603694446
  20
 4184.7597301690
  30
0.0
  11
 2974.8411976188
  21
 4184.7597301690
  31
0.0
   0
LINE
   5
405
 100
AcDbEntity
   8
LEVEL001
 370
13
 100
AcDbLine
   6
CONTINUOUS
  62
6
  10
 2974.8411976188
  20
 4197.7597301690
  30
0.0
  11
 3046.9603694446
  21
 4197.7597301690
  31
0.0
   0
LINE
   5
406
 100
AcDbEntity
   8
LEVEL001
 370
13
 100
AcDbLine
   6
CONTINUOUS
  62
7
  10
 2958.2038917541
  20
 4297.2597298888
  30
0.0
  11
 2955.4899849906
  21
 4290.4749629799
  31
0.0
   0
ARC
   5
407
 100
AcDbEntity
   8
LEVEL001
 370
13
   6
CONTINUOUS
  62
7
 100
AcDbCircle
  10
 2960.1323684451
  20
 4288.6180095982
  30
0.0
  40
 5.0000000000000
 100
AcDbArc
  50
 158.19859051371
  51
 180.00000000000
   0
LINE
   5
408
 100
AcDbEntity
   8
LEVEL001
 370
13
 100
AcDbLine
   6
CONTINUOUS
  62
7
  10
 2955.1323684451
  20
 4288.6180095982
  30
0.0
  11
 2955.1323684451
  21
 3705.9014501778
  31
0.0
   0
LINE
   5
409
 100
AcDbEntity
   8
LEVEL001
 370
13
 100
AcDbLine
   6
CONTINUOUS
  62
6
  10
 2962.1323684451
  20
 4226.2597909270
  30
0.0
  11
 2962.1323684451
  21
 4227.2597298880
  31
0.0
   0
ARC
   5
40A
 100
AcDbEntity
   8
LEVEL001
 370
13
   6
CONTINUOUS
  62
7
 100
AcDbCircle
  10
 2954.1323684450
  20
 4281.4120834298
  30
0.0
  40
 5.0000000000000
 100
AcDbArc
  50
0.0
  51
 21.801409486042
   0
LINE
   5
40B
 100
AcDbEntity
   8
LEVEL001
 370
13
 100
AcDbLine
   6
CONTINUOUS
  62
7
  10
 2956.9724810447
  20
 4287.7747139482
  30
0.0
  11
 2958.7747518994
  21
 4283.2690368113
  31
0.0
   0
ARC
   5
40C
 100
AcDbEntity
   8
LEVEL001
 370
13
   6
CONTINUOUS
  62
7
 100
AcDbCircle
  10
 2961.6148644990
  20
 4289.6316673300
  30
0.0
  40
 5.0000000000000
 100
AcDbArc
  50
 158.19859051371
  51
 201.80140948644
   0
LINE
   5
40D
 100
AcDbEntity
   8
LEVEL001
 370
13
 100
AcDbLine
   6
CONTINUOUS
  62
7
  10
 2958.2038917541
  20
 4297.2597298888
  30
0.0
  11
 2959.1323684450
  21
 4296.8883392124
  31
0.0
   0
LINE
   5
40E
 100
AcDbEntity
   8
LEVEL001
 370
13
 100
AcDbLine
   6
CONTINUOUS
  62
7
  10
 2959.1323684450
  20
 4296.8883392124
  30
0.0
  11
 2956.9724810447
  21
 4291.4886207118
  31
0.0
   0
LINE
   5
40F
 100
AcDbEntity
   8
LEVEL001
 370
13
 100
AcDbLine
   6
CONTINUOUS
  62
7
  10
 2959.1323684450
  20
 4281.4120834298
  30
0.0
  11
 2959.1323684450
  21
 3713.1073763461
  31
0.0
   0
LINE
   5
410
 100
AcDbEntity
   8
LEVEL001
 370
13
 100
AcDbLine
   6
CONTINUOUS
  62
7
  10
 2962.1323684451
  20
 4227.2597298880
  30
0.0
  11
 2959.1323684450
  21
 4227.2597298880
  31
0.0
   0
LINE
   5
411
 100
AcDbEntity
   8
LEVEL001
 370
13
 100
AcDbLine
   6
CONTINUOUS
  62
6
  10
 2959.1323684450
  20
 4226.2597909270
  30
0.0
  11
 2962.1323684451
  21
 4226.2597909270
  31
0.0
   0
LINE
   5
412
 100
AcDbEntity
   8
LEVEL001
 370
13
 100
AcDbLine
   6
CONTINUOUS
  62
7
  10
 2962.5878472241
  20
 4212.2593637356
  30
0.0
  11
 2962.5883049881
  21
 4170.2594554522
  31
0.0
   0
ELLIPSE
   5
413
 100
AcDbEntity
   8
LEVEL001
 370
13
   6
CONTINUOUS
  62
7
 100
AcDbEllipse
  10
 2958.5878446743
  20
 4212.2594856868
  30
0.0
  11
-4.0000025516047
  21
0.0
  31
0.0
  40
 0.99999938800000
  41
 3.1415621657857
  42
-1.7073511820465
   0
LINE
   5
414
 100
AcDbEntity
   8
LEVEL001
 370
13
 100
AcDbLine
   6
CONTINUOUS
  62
7
  10
 2962.5878744680
  20
 4209.7597301690
  30
0.0
  11
 3068.1323684451
  21
 4209.7597301690
  31
0.0
   0
LINE
   5
415
 100
AcDbEntity
   8
LEVEL001
 370
13
 100
AcDbLine
   6
CONTINUOUS
  62
7
  10
 3068.1323684451
  20
 4209.7597301690
  30
0.0
  11
 3068.1323684451
  21
 4172.7597301690
  31
0.0
   0
LINE
   5
416
 100
AcDbEntity
   8
LEVEL001
 370
13
 100
AcDbLine
   6
CONTINUOUS
  62
7
  10
 3068.1323684451
  20
 4172.7597301690
  30
0.0
  11
 2962.5882777370
  21
 4172.7597301690
  31
0.0
   0
LINE
   5
417
 100
AcDbEntity
   8
LEVEL001
 370
13
 100
AcDbLine
   6
CONTINUOUS
  62
7
  10
 2959.1323684450
  20
 4172.7597301690
  30
0.0
  11
 2959.1323684450
  21
 4209.7597301690
  31
0.0
   0
LINE
   5
418
 100
AcDbEntity
   8
LEVEL001
 370
13
 100
AcDbLine
   6
CONTINUOUS
  62
7
  10
 2971.9052780133
  20
 4172.7597301690
  30
0.0
  11
 2971.9052780133
  21
 3821.7597298880
  31
0.0
   0
LINE
   5
419
 100
AcDbEntity
   8
LEVEL001
 370
13
 100
AcDbLine
   6
CONTINUOUS
  62
7
  10
 3048.2052780132
  20
 3821.7597298880
  30
0.0
  11
 3048.2052780132
  21
 4172.7597301690
  31
0.0
   0
LINE
   5
41A
 100
AcDbEntity
   8
LEVEL001
 370
13
 100
AcDbLine
   6
CONTINUOUS
  62
6
  10
 2962.1323684451
  20
 4155.2597301690
  30
0.0
  11
 2962.1323684451
  21
 4156.2597606826
  31
0.0
   0
LINE
   5
41B
 100
AcDbEntity
   8
LEVEL001
 370
13
 100
AcDbLine
   6
CONTINUOUS
  62
6
  10
 2962.1323684451
  20
 4156.2597606826
  30
0.0
  11
 2959.1323684450
  21
 4156.2597606826
  31
0.0
   0
ELLIPSE
   5
41C
 100
AcDbEntity
   8
LEVEL001
 370
13
   6
CONTINUOUS
  62
7
 100
AcDbEllipse
  10
 2958.5883024368
  20
 4170.2595166046
  30
0.0
  11
-4.0000025516047
  21
0.0
  31
0.0
  40
 0.99999938800000
  41
 1.7072356670411
  42
 3.1415773654645
   0
LINE
   5
41D
 100
AcDbEntity
   8
LEVEL001
 370
13
 100
AcDbLine
   6
CONTINUOUS
  62
7
  10
 2959.1323684450
  20
 4155.2597301690
  30
0.0
  11
 2962.1323684451
  21
 4155.2597301690
  31
0.0
   0
ARC
   5
41E
 100
AcDbEntity
   8
LEVEL001
 370
13
   6
CONTINUOUS
  62
7
 100
AcDbCircle
  10
 1440.0575867419
  20
 3717.2589451432
  30
0.0
  40
 20.000000000000
 100
AcDbArc
  50
 180.00000000000
  51
 270.00000000000
   0
LINE
   5
41F
 100
AcDbEntity
   8
LEVEL001
 370
13
 100
AcDbLine
   6
CONTINUOUS
  62
7
  10
 1440.0575867419
  20
 3697.2589451432
  30
0.0
  11
 1580.0549709021
  21
 3697.2589451432
  31
0.0
   0
ARC
   5
420
 100
AcDbEntity
   8
LEVEL001
 370
13
   6
CONTINUOUS
  62
7
 100
AcDbCircle
  10
 1580.0549709021
  20
 3717.2589451432
  30
0.0
  40
 20.000000000000
 100
AcDbArc
  50
 270.00000000000
  51
0.0
   0
LINE
   5
421
 100
AcDbEntity
   8
LEVEL001
 370
13
 100
AcDbLine
   6
CONTINUOUS
  62
7
  10
 2959.1323684450
  20
 3839.2597296070
  30
0.0
  11
 2962.1323684451
  21
 3839.2597296070
  31
0.0
   0
LINE
   5
422
 100
AcDbEntity
   8
LEVEL001
 370
13
 100
AcDbLine
   6
CONTINUOUS
  62
6
  10
 2962.1323684451
  20
 3839.2597296070
  30
0.0
  11
 2962.1323684451
  21
 3838.2596990934
  31
0.0
   0
LINE
   5
423
 100
AcDbEntity
   8
LEVEL001
 370
13
 100
AcDbLine
   6
CONTINUOUS
  62
6
  10
 2962.1323684451
  20
 3838.2596990934
  30
0.0
  11
 2959.1323684450
  21
 3838.2596990934
  31
0.0
   0
LINE
   5
424
 100
AcDbEntity
   8
LEVEL001
 370
13
 100
AcDbLine
   6
CONTINUOUS
  62
7
  10
 2962.5878472241
  20
 3782.2600960404
  30
0.0
  11
 2962.5883049881
  21
 3824.2600043237
  31
0.0
   0
ELLIPSE
   5
425
 100
AcDbEntity
   8
LEVEL001
 370
13
   6
CONTINUOUS
  62
7
 100
AcDbEllipse
  10
 2958.5883024368
  20
 3824.2599431714
  30
0.0
  11
-4.0000025516047
  21
0.0
  31
0.0
  40
 0.99999938800000
  41
-3.1415773654645
  42
-1.7072356670411
   0
LINE
   5
426
 100
AcDbEntity
   8
LEVEL001
 370
13
 100
AcDbLine
   6
CONTINUOUS
  62
6
  10
 2962.1323684451
  20
 3768.2596688490
  30
0.0
  11
 2962.1323684451
  21
 3767.2597298880
  31
0.0
   0
LINE
   5
427
 100
AcDbEntity
   8
LEVEL001
 370
13
 100
AcDbLine
   6
CONTINUOUS
  62
6
  10
 2959.1323684450
  20
 3768.2596688490
  30
0.0
  11
 2962.1323684451
  21
 3768.2596688490
  31
0.0
   0
ELLIPSE
   5
428
 100
AcDbEntity
   8
LEVEL001
 370
13
   6
CONTINUOUS
  62
7
 100
AcDbEllipse
  10
 2958.5878446743
  20
 3782.2599740892
  30
0.0
  11
-4.0000025516047
  21
0.0
  31
0.0
  40
 0.99999938800000
  41
 1.7073511820462
  42
-3.1415621657875
   0
LINE
   5
429
 100
AcDbEntity
   8
LEVEL001
 370
13
 100
AcDbLine
   6
CONTINUOUS
  62
7
  10
 2962.1323684451
  20
 3767.2597298880
  30
0.0
  11
 2959.1323684450
  21
 3767.2597298880
  31
0.0
   0
ARC
   5
42A
 100
AcDbEntity
   8
LEVEL001
 370
13
   6
CONTINUOUS
  62
7
 100
AcDbCircle
  10
 2960.1323684451
  20
 3705.9014501778
  30
0.0
  40
 5.0000000000000
 100
AcDbArc
  50
 180.00000000000
  51
 201.80140948629
   0
LINE
   5
42B
 100
AcDbEntity
   8
LEVEL001
 370
13
 100
AcDbLine
   6
CONTINUOUS
  62
7
  10
 2958.2038917541
  20
 3697.2597298872
  30
0.0
  11
 2955.4899849906
  21
 3704.0444967960
  31
0.0
   0
ARC
   5
42C
 100
AcDbEntity
   8
LEVEL001
 370
13
   6
CONTINUOUS
  62
7
 100
AcDbCircle
  10
 2954.1323684450
  20
 3713.1073763461
  30
0.0
  40
 5.0000000000000
 100
AcDbArc
  50
 338.19859051396
  51
0.0
   0
LINE
   5
42D
 100
AcDbEntity
   8
LEVEL001
 370
13
 100
AcDbLine
   6
CONTINUOUS
  62
7
  10
 2956.9724810447
  20
 3706.7447458278
  30
0.0
  11
 2958.7747518994
  21
 3711.2504229646
  31
0.0
   0
ARC
   5
42E
 100
AcDbEntity
   8
LEVEL001
 370
13
   6
CONTINUOUS
  62
7
 100
AcDbCircle
  10
 2961.6148644990
  20
 3704.8877924460
  30
0.0
  40
 5.0000000000000
 100
AcDbArc
  50
 158.19859051363
  51
 201.80140948637
   0
LINE
   5
42F
 100
AcDbEntity
   8
LEVEL001
 370
13
 100
AcDbLine
   6
CONTINUOUS
  62
7
  10
 2958.2038917541
  20
 3697.2597298872
  30
0.0
  11
 2959.1323684450
  21
 3697.6311205636
  31
0.0
   0
LINE
   5
430
 100
AcDbEntity
   8
LEVEL001
 370
13
 100
AcDbLine
   6
CONTINUOUS
  62
7
  10
 2959.1323684450
  20
 3697.6311205636
  30
0.0
  11
 2956.9724810447
  21
 3703.0308390642
  31
0.0
   0
LINE
   5
431
 100
AcDbEntity
   8
LEVEL001
 370
13
 100
AcDbLine
   6
CONTINUOUS
  62
6
  10
 3046.9603744169
  20
 3796.7597298880
  30
0.0
  11
 2974.8412025913
  21
 3796.7597298880
  31
0.0
   0
LINE
   5
432
 100
AcDbEntity
   8
LEVEL001
 370
13
 100
AcDbLine
   6
CONTINUOUS
  62
6
  10
 2974.8412025913
  20
 3809.7597298880
  30
0.0
  11
 3046.9603744169
  21
 3809.7597298880
  31
0.0
   0
LINE
   5
433
 100
AcDbEntity
   8
LEVEL001
 370
13
 100
AcDbLine
   6
CONTINUOUS
  62
6
  10
 3046.9603744169
  20
 3819.7597298880
  30
0.0
  11
 3046.9603744169
  21
 3810.7597298880
  31
0.0
   0
LINE
   5
434
 100
AcDbEntity
   8
LEVEL001
 370
13
 100
AcDbLine
   6
CONTINUOUS
  62
6
  10
 3046.9603744169
  20
 3795.7597298880
  30
0.0
  11
 3046.9603744169
  21
 3786.7597298880
  31
0.0
   0
LINE
   5
435
 100
AcDbEntity
   8
LEVEL001
 370
13
 100
AcDbLine
   6
CONTINUOUS
  62
7
  10
 3063.1323734173
  20
 3798.2597298880
  30
0.0
  11
 3053.1323734173
  21
 3798.2597298880
  31
0.0
   0
LINE
   5
436
 100
AcDbEntity
   8
LEVEL001
 370
13
 100
AcDbLine
   6
CONTINUOUS
  62
7
  10
 3053.1323734173
  20
 3798.2597298880
  30
0.0
  11
 3053.1323734173
  21
 3808.2597298880
  31
0.0
   0
LINE
   5
437
 100
AcDbEntity
   8
LEVEL001
 370
13
 100
AcDbLine
   6
CONTINUOUS
  62
7
  10
 3053.1323734173
  20
 3808.2597298880
  30
0.0
  11
 3063.1323734173
  21
 3808.2597298880
  31
0.0
   0
LINE
   5
438
 100
AcDbEntity
   8
LEVEL001
 370
13
 100
AcDbLine
   6
CONTINUOUS
  62
7
  10
 3063.1323734173
  20
 3808.2597298880
  30
0.0
  11
 3063.1323734173
  21
 3798.2597298880
  31
0.0
   0
LINE
   5
439
 100
AcDbEntity
   8
LEVEL001
 370
13
 100
AcDbLine
   6
CONTINUOUS
  62
6
  10
 3049.2788994583
  20
 3809.7597298880
  30
0.0
  11
 3049.2788994583
  21
 3796.7597298880
  31
0.0
   0
LINE
   5
43A
 100
AcDbEntity
   8
LEVEL001
 370
13
 100
AcDbLine
   6
CONTINUOUS
  62
6
  10
 2973.5803080217
  20
 3808.7597298880
  30
0.0
  11
 2973.5803080217
  21
 3797.7597298880
  31
0.0
   0
LINE
   5
43B
 100
AcDbEntity
   8
LEVEL001
 370
13
 100
AcDbLine
   6
CONTINUOUS
  62
6
  10
 2973.5803080217
  20
 3819.7597298880
  30
0.0
  11
 2973.5803080217
  21
 3810.7597298880
  31
0.0
   0
LINE
   5
43C
 100
AcDbEntity
   8
LEVEL001
 370
13
 100
AcDbLine
   6
CONTINUOUS
  62
6
  10
 2973.5803080217
  20
 3795.7597298880
  30
0.0
  11
 2973.5803080217
  21
 3786.7597298880
  31
0.0
   0
LINE
   5
43D
 100
AcDbEntity
   8
LEVEL001
 370
13
 100
AcDbLine
   6
CONTINUOUS
  62
7
  10
 2962.5882777370
  20
 3821.7597298880
  30
0.0
  11
 3068.1323734173
  21
 3821.7597298880
  31
0.0
   0
LINE
   5
43E
 100
AcDbEntity
   8
LEVEL001
 370
13
 100
AcDbLine
   6
CONTINUOUS
  62
7
  10
 3068.1323734173
  20
 3821.7597298880
  30
0.0
  11
 3068.1323734173
  21
 3784.7597298880
  31
0.0
   0
LINE
   5
43F
 100
AcDbEntity
   8
LEVEL001
 370
13
 100
AcDbLine
   6
CONTINUOUS
  62
7
  10
 3068.1323734173
  20
 3784.7597298880
  30
0.0
  11
 2962.5878744680
  21
 3784.7597298880
  31
0.0
   0
CIRCLE
   5
440
 100
AcDbEntity
   8
LEVEL001
 370
13
 100
AcDbCircle
   6
CONTINUOUS
  62
1
  10
 3369.5490961409
  20
 5179.7597298888
  30
0.0
  40
 69.999997913838
   0
CIRCLE
   5
441
 100
AcDbEntity
   8
LEVEL001
 370
13
 100
AcDbCircle
   6
CONTINUOUS
  62
1
  10
 3509.5490919686
  20
 5179.7597298888
  30
0.0
  40
 69.999997913838
   0
CIRCLE
   5
442
 100
AcDbEntity
   8
LEVEL001
 370
13
 100
AcDbCircle
   6
CONTINUOUS
  62
1
  10
 3210.0552780132
  20
 5179.7597298888
  30
0.0
  40
 70.000000000000
   0
MTEXT
   5
443
 100
AcDbEntity
   8
LEVEL001
 370
13
  62
1
 100
AcDbMText
  10
 3369.5490961409
  20
 5179.7597298888
  30
0.0
  40
 57.142857142858
  41
0.0
  71
5
  72
1
   1
\T1.000000;6
   7
GMM001
  44
 0.79999984000003
   0
MTEXT
   5
444
 100
AcDbEntity
   8
LEVEL001
 370
13
  62
1
 100
AcDbMText
  10
 3509.5490919686
  20
 5179.7597298888
  30
0.0
  40
 57.142857142858
  41
0.0
  71
5
  72
1
   1
\T1.000000;8
   7
GMM001
  44
 0.79999984000003
   0
CIRCLE
   5
445
 100
AcDbEntity
   8
LEVEL001
 370
13
 100
AcDbCircle
   6
CONTINUOUS
  62
1
  10
 2310.0552780132
  20
 5179.7597298888
  30
0.0
  40
 69.999997913838
   0
MTEXT
   5
446
 100
AcDbEntity
   8
LEVEL001
 370
13
  62
1
 100
AcDbMText
  10
 2310.0552780132
  20
 5179.7597298888
  30
0.0
  40
 57.142857142858
  41
0.0
  71
5
  72
1
   1
\T1.000000;3
   7
GMM001
  44
 0.79999984000003
   0
CIRCLE
   5
447
 100
AcDbEntity
   8
LEVEL001
 370
13
 100
AcDbCircle
   6
CONTINUOUS
  62
1
  10
 2310.0552780132
  20
 4279.7597298888
  30
0.0
  40
 69.999997913838
   0
MTEXT
   5
448
 100
AcDbEntity
   8
LEVEL001
 370
13
  62
1
 100
AcDbMText
  10
 2310.0552780132
  20
 4279.7597298888
  30
0.0
  40
 57.142857142858
  41
0.0
  71
5
  72
1
   1
\T1.000000;1
   7
GMM001
  44
 0.79999984000003
   0
CIRCLE
   5
449
 100
AcDbEntity
   8
LEVEL001
 370
13
 100
AcDbCircle
   6
CONTINUOUS
  62
1
  10
 1760.0552780132
  20
 3897.2597298888
  30
0.0
  40
 70.000000000000
   0
CIRCLE
   5
44A
 100
AcDbEntity
   8
LEVEL001
 370
13
 100
AcDbCircle
   6
CONTINUOUS
  62
1
  10
 3210.0552780132
  20
 3897.2597298888
  30
0.0
  40
 70.000000000000
   0
CIRCLE
   5
44B
 100
AcDbEntity
   8
LEVEL001
 370
13
 100
AcDbCircle
   6
CONTINUOUS
  62
1
  10
 3350.0552780132
  20
 3897.2597298888
  30
0.0
  40
 70.000000000000
   0
LEADER
   5
44C
 100
AcDbEntity
   8
LEVEL001
 370
13
   6
CONTINUOUS
  62
1
 100
AcDbLeader
   3
GMM002
  73
3
  74
1
  75
0
  40
 60.000000000000
  41
0.0
  76
2
  10
 1600.0549709021
  20
 4057.2600370004
  30
0.0
  10
 1710.5578033304
  20
 3946.7572045722
  30
0.0
  77
1
   0
LEADER
   5
44D
 100
AcDbEntity
   8
LEVEL001
 370
13
   6
CONTINUOUS
  62
1
 100
AcDbLeader
   3
GMM002
  73
3
  74
1
  75
0
  40
 60.000000000000
  41
0.0
  76
2
  10
 3068.1323734173
  20
 3821.7597298880
  30
0.0
  10
 3148.6978877013
  20
 3863.5659522124
  30
0.0
  77
1
   0
MTEXT
   5
44F
 100
AcDbEntity
   8
LEVEL001
 370
13
  62
1
 100
AcDbMText
  10
 1130.7038832227
  20
 1905.9896669291
  30
0.0
  40
 40.000000000000
  41
0.0
  71
7
  72
1
   1
\T1.000000;ＧＬ
   7
GMM005
  44
 0.79999984000003
   0
LINE
   5
450
 100
AcDbEntity
   8
LEVEL001
 370
13
 100
AcDbLine
   6
CONTINUOUS
  62
1
  10
 1102.5552127779
  20
 1897.2597298888
  30
0.0
  11
 1077.5552127779
  21
 1947.2597298888
  31
0.0
   0
LINE
   5
451
 100
AcDbEntity
   8
LEVEL001
 370
13
 100
AcDbLine
   6
CONTINUOUS
  62
1
  10
 1077.5552127779
  20
 1947.2597298888
  30
0.0
  11
 1127.5552127779
  21
 1947.2597298888
  31
0.0
   0
LINE
   5
452
 100
AcDbEntity
   8
LEVEL001
 370
13
 100
AcDbLine
   6
CONTINUOUS
  62
1
  10
 1127.5552127779
  20
 1947.2597298888
  30
0.0
  11
 1102.5552127779
  21
 1897.2597298888
  31
0.0
   0
MTEXT
   5
454
 100
AcDbEntity
   8
LEVEL001
 370
13
  62
1
 100
AcDbMText
  10
 2630.7038832226
  20
 1905.9896669291
  30
0.0
  40
 40.000000000000
  41
0.0
  71
7
  72
1
   1
\T1.000000;ＧＬ
   7
GMM005
  44
 0.79999984000003
   0
LINE
   5
455
 100
AcDbEntity
   8
LEVEL001
 370
13
 100
AcDbLine
   6
CONTINUOUS
  62
1
  10
 2602.5552127779
  20
 1897.2597298888
  30
0.0
  11
 2577.5552127779
  21
 1947.2597298888
  31
0.0
   0
LINE
   5
456
 100
AcDbEntity
   8
LEVEL001
 370
13
 100
AcDbLine
   6
CONTINUOUS
  62
1
  10
 2577.5552127779
  20
 1947.2597298888
  30
0.0
  11
 2627.5552127779
  21
 1947.2597298888
  31
0.0
   0
LINE
   5
457
 100
AcDbEntity
   8
LEVEL001
 370
13
 100
AcDbLine
   6
CONTINUOUS
  62
1
  10
 2627.5552127779
  20
 1947.2597298888
  30
0.0
  11
 2602.5552127779
  21
 1897.2597298888
  31
0.0
   0
CIRCLE
   5
458
 100
AcDbEntity
   8
LEVEL001
 370
13
 100
AcDbCircle
   6
CONTINUOUS
  62
7
  10
 1510.0552780132
  20
 4729.7597298888
  30
0.0
  40
 332.50000000000
   0
CIRCLE
   5
459
 100
AcDbEntity
   8
LEVEL001
 370
13
 100
AcDbCircle
   6
CONTINUOUS
  62
7
  10
 1510.0552780132
  20
 4729.7597298888
  30
0.0
  40
 312.50000000000
   0
CIRCLE
   5
45A
 100
AcDbEntity
   8
LEVEL001
 370
13
 100
AcDbCircle
   6
CONTINUOUS
  62
6
  10
 1510.0552780132
  20
 4729.7597298888
  30
0.0
  40
 305.00000000000
   0
CIRCLE
   5
45B
 100
AcDbEntity
   8
LEVEL001
 370
13
 100
AcDbCircle
   6
CONTINUOUS
  62
6
  10
 1510.0552780132
  20
 4729.7597298888
  30
0.0
  40
 310.00000000000
   0
ARC
   5
45C
 100
AcDbEntity
   8
LEVEL001
 370
13
   6
CONTINUOUS
  62
1
 100
AcDbCircle
  10
 1510.0552780132
  20
 4729.7597298888
  30
0.0
  40
 310.00000000000
 100
AcDbArc
  50
 6.7865214711293
  51
 173.21347852887
   0
ARC
   5
45D
 100
AcDbEntity
   8
LEVEL001
 370
13
   6
CONTINUOUS
  62
1
 100
AcDbCircle
  10
 1510.0552780132
  20
 4729.7597298888
  30
0.0
  40
 311.50000000000
 100
AcDbArc
  50
 6.7865214711258
  51
 173.21347852887
   0
LINE
   5
45E
 100
AcDbEntity
   8
LEVEL001
 370
13
 100
AcDbLine
   6
CONTINUOUS
  62
1
  10
 1202.2273443066
  20
 4766.3925461859
  30
0.0
  11
 1200.7378543047
  21
 4766.5698017488
  31
0.0
   0
LINE
   5
45F
 100
AcDbEntity
   8
LEVEL001
 370
13
 100
AcDbLine
   6
CONTINUOUS
  62
1
  10
 1817.8832117199
  20
 4766.3925461859
  30
0.0
  11
 1819.3727017218
  21
 4766.5698017488
  31
0.0
   0
LINE
   5
460
 100
AcDbEntity
   8
LEVEL001
 370
13
 100
AcDbLine
   6
DASHDOT
  62
6
  10
 1135.0552780132
  20
 4729.7597298888
  30
0.0
  11
 1885.0552780132
  21
 4729.7597298888
  31
0.0
   0
LINE
   5
461
 100
AcDbEntity
   8
LEVEL001
 370
13
 100
AcDbLine
   6
CONTINUOUS
  62
7
  10
 1548.2052780132
  20
 4297.2597298888
  30
0.0
  11
 1548.2052780132
  21
 4399.6454663346
  31
0.0
   0
LINE
   5
462
 100
AcDbEntity
   8
LEVEL001
 370
13
 100
AcDbLine
   6
CONTINUOUS
  62
7
  10
 1471.9052780133
  20
 4399.4352815520
  30
0.0
  11
 1471.9052780133
  21
 4297.2597298888
  31
0.0
   0
MTEXT
   5
463
 100
AcDbEntity
   8
LEVEL001
 370
13
  62
1
 100
AcDbMText
  10
 1760.0552780132
  20
 3897.2597298888
  30
0.0
  40
 57.142857142858
  41
0.0
  71
5
  72
1
   1
\T1.000000;12
   7
GMM001
  44
 0.79999984000003
   0
MTEXT
   5
464
 100
AcDbEntity
   8
LEVEL001
 370
13
  62
1
 100
AcDbMText
  10
 3210.0552780132
  20
 3897.2597298888
  30
0.0
  40
 57.142857142858
  41
0.0
  71
5
  72
1
   1
\T1.000000;13
   7
GMM001
  44
 0.79999984000003
   0
MTEXT
   5
465
 100
AcDbEntity
   8
LEVEL001
 370
13
  62
1
 100
AcDbMText
  10
 3350.0552780132
  20
 3897.2597298888
  30
0.0
  40
 57.142857142858
  41
0.0
  71
5
  72
1
   1
\T1.000000;14
   7
GMM001
  44
 0.79999984000003
   0
MTEXT
   5
466
 100
AcDbEntity
   8
LEVEL001
 370
13
  62
1
 100
AcDbMText
  10
 3210.0552780132
  20
 5179.7597298888
  30
0.0
  40
 57.142857142858
  41
0.0
  71
5
  72
1
   1
\T1.000000;11
   7
GMM001
  44
 0.79999984000003
   0
LINE
   5
467
 100
AcDbEntity
   8
LEVEL001
 370
13
 100
AcDbLine
   6
CONTINUOUS
  62
7
  10
 2819.0719152725
  20
 5059.7597298888
  30
0.0
  11
 2819.0719152725
  21
 4399.7597298888
  31
0.0
   0
ARC
   5
468
 100
AcDbEntity
   8
LEVEL001
 370
13
   6
CONTINUOUS
  62
7
 100
AcDbCircle
  10
 2821.5719152725
  20
 5059.7597298888
  30
0.0
  40
 2.5000000000000
 100
AcDbArc
  50
 90.000000000000
  51
 180.00000000000
   0
LINE
   5
469
 100
AcDbEntity
   8
LEVEL001
 370
13
 100
AcDbLine
   6
CONTINUOUS
  62
7
  10
 2824.0719152725
  20
 4399.7597298888
  30
0.0
  11
 2824.0719152725
  21
 5059.7597298888
  31
0.0
   0
ARC
   5
46A
 100
AcDbEntity
   8
LEVEL001
 370
13
   6
CONTINUOUS
  62
7
 100
AcDbCircle
  10
 2821.5719152725
  20
 5059.7597298888
  30
0.0
  40
 2.5000000000000
 100
AcDbArc
  50
0.0
  51
 90.000000000000
   0
LINE
   5
46B
 100
AcDbEntity
   8
LEVEL001
 370
13
 100
AcDbLine
   6
CONTINUOUS
  62
3
  10
 2819.0719152725
  20
 4766.3925461859
  30
0.0
  11
 2799.0719152725
  21
 4766.3925461859
  31
0.0
   0
LINE
   5
46C
 100
AcDbEntity
   8
LEVEL001
 370
13
 100
AcDbLine
   6
CONTINUOUS
  62
3
  10
 2799.0719152725
  20
 4766.3925461859
  30
0.0
  11
 2744.0719152725
  21
 4861.6553406022
  31
0.0
   0
LINE
   5
46D
 100
AcDbEntity
   8
LEVEL001
 370
13
 100
AcDbLine
   6
CONTINUOUS
  62
3
  10
 2744.0719152725
  20
 4861.6553406022
  30
0.0
  11
 2744.0719152725
  21
 5041.2597298888
  31
0.0
   0
LINE
   5
46E
 100
AcDbEntity
   8
LEVEL001
 370
13
 100
AcDbLine
   6
CONTINUOUS
  62
3
  10
 2744.0719152725
  20
 5041.2597298888
  30
0.0
  11
 2819.0719152725
  21
 5041.2597298888
  31
0.0
   0
ARC
   5
46F
 100
AcDbEntity
   8
LEVEL001
 370
13
   6
CONTINUOUS
  62
7
 100
AcDbCircle
  10
 4973.5213870428
  20
 4729.7597298888
  30
0.0
  40
 2200.0000000000
 100
AcDbArc
  50
 177.95610305487
  51
 187.83747976308
   0
LINE
   5
470
 100
AcDbEntity
   8
LEVEL001
 370
13
 100
AcDbLine
   6
CONTINUOUS
  62
7
  10
 2794.0719152725
  20
 4430.4983572077
  30
0.0
  11
 2794.0719152725
  21
 4775.0528002238
  31
0.0
   0
ARC
   5
471
 100
AcDbEntity
   8
LEVEL001
 370
13
   6
HIDDEN
  62
6
 100
AcDbCircle
  10
 4973.5213870428
  20
 4729.7597298888
  30
0.0
  40
 2200.0000000000
 100
AcDbArc
  50
 172.16252023692
  51
 177.95610305487
   0
LINE
   5
472
 100
AcDbEntity
   8
LEVEL001
 370
13
 100
AcDbLine
   6
HIDDEN
  62
6
  10
 2794.0719152725
  20
 4775.0528002238
  30
0.0
  11
 2794.0719152725
  21
 5029.0211025698
  31
0.0
   0
ARC
   5
473
 100
AcDbEntity
   8
LEVEL001
 370
13
   6
HIDDEN
  62
6
 100
AcDbCircle
  10
 2801.0719152725
  20
 5029.0211025698
  30
0.0
  40
 7.0000000000000
 100
AcDbArc
  50
 101.30993247411
  51
 180.00000000000
   0
LINE
   5
474
 100
AcDbEntity
   8
LEVEL001
 370
13
 100
AcDbLine
   6
HIDDEN
  62
6
  10
 2799.6991023265
  20
 5035.8851672996
  30
0.0
  11
 2819.0719152725
  21
 5039.7597298888
  31
0.0
   0
LINE
   5
475
 100
AcDbEntity
   8
LEVEL001
 370
13
 100
AcDbLine
   6
CONTINUOUS
  62
7
  10
 2824.0719152725
  20
 4674.7597298888
  30
0.0
  11
 2917.2719152724
  21
 4674.7597298888
  31
0.0
   0
LINE
   5
476
 100
AcDbEntity
   8
LEVEL001
 370
13
 100
AcDbLine
   6
CONTINUOUS
  62
7
  10
 2917.2719152724
  20
 4674.7597298888
  30
0.0
  11
 2917.2719152724
  21
 4784.7597298888
  31
0.0
   0
LINE
   5
477
 100
AcDbEntity
   8
LEVEL001
 370
13
 100
AcDbLine
   6
CONTINUOUS
  62
7
  10
 2917.2719152724
  20
 4784.7597298888
  30
0.0
  11
 2824.0719152725
  21
 4784.7597298888
  31
0.0
   0
LINE
   5
478
 100
AcDbEntity
   8
LEVEL001
 370
13
 100
AcDbLine
   6
DASHDOT
  62
6
  10
 3135.0552951159
  20
 4729.7597298888
  30
0.0
  11
 2709.4998471150
  21
 4729.7597298888
  31
0.0
   0
ARC
   5
479
 100
AcDbEntity
   8
LEVEL001
 370
13
   6
CONTINUOUS
  62
7
 100
AcDbCircle
  10
 2821.5719152725
  20
 4399.7597298888
  30
0.0
  40
 2.5000000000000
 100
AcDbArc
  50
 180.00000000000
  51
 270.00000000000
   0
ARC
   5
47A
 100
AcDbEntity
   8
LEVEL001
 370
13
   6
CONTINUOUS
  62
7
 100
AcDbCircle
  10
 2821.5719152725
  20
 4399.7597298888
  30
0.0
  40
 2.5000000000000
 100
AcDbArc
  50
 270.00000000000
  51
0.0
   0
LINE
   5
47B
 100
AcDbEntity
   8
LEVEL001
 370
13
 100
AcDbLine
   6
CONTINUOUS
  62
7
  10
 2819.0719152725
  20
 4419.7597298888
  30
0.0
  11
 2799.6991023265
  21
 4423.6342924780
  31
0.0
   0
ARC
   5
47C
 100
AcDbEntity
   8
LEVEL001
 370
13
   6
CONTINUOUS
  62
7
 100
AcDbCircle
  10
 2801.0719152725
  20
 4430.4983572077
  30
0.0
  40
 7.0000000000000
 100
AcDbArc
  50
 180.00000000000
  51
 258.69006752589
   0
LINE
   5
47D
 100
AcDbEntity
   8
LEVEL001
 370
13
 100
AcDbLine
   6
DASHDOT
  62
6
  10
 2892.2719152724
  20
 4774.7597298888
  30
0.0
  11
 2892.2719152724
  21
 4744.7597298888
  31
0.0
   0
LINE
   5
47E
 100
AcDbEntity
   8
LEVEL001
 370
13
 100
AcDbLine
   6
DASHDOT
  62
6
  10
 2877.2719152724
  20
 4759.7597298888
  30
0.0
  11
 2907.2719152724
  21
 4759.7597298888
  31
0.0
   0
LINE
   5
47F
 100
AcDbEntity
   8
LEVEL001
 370
13
 100
AcDbLine
   6
DASHDOT
  62
6
  10
 2892.2719152724
  20
 4714.7597298888
  30
0.0
  11
 2892.2719152724
  21
 4684.7597298888
  31
0.0
   0
LINE
   5
480
 100
AcDbEntity
   8
LEVEL001
 370
13
 100
AcDbLine
   6
DASHDOT
  62
6
  10
 2877.2719152724
  20
 4699.7597298888
  30
0.0
  11
 2907.2719152724
  21
 4699.7597298888
  31
0.0
   0
LINE
   5
481
 100
AcDbEntity
   8
LEVEL001
 370
13
 100
AcDbLine
   6
CONTINUOUS
  62
7
  10
 2917.2719152724
  20
 4784.7597298888
  30
0.0
  11
 2972.2719152724
  21
 4784.7597298888
  31
0.0
   0
LINE
   5
482
 100
AcDbEntity
   8
LEVEL001
 370
13
 100
AcDbLine
   6
CONTINUOUS
  62
7
  10
 2972.2719152724
  20
 4784.7597298888
  30
0.0
  11
 2972.2719152724
  21
 4674.7597298888
  31
0.0
   0
LINE
   5
483
 100
AcDbEntity
   8
LEVEL001
 370
13
 100
AcDbLine
   6
CONTINUOUS
  62
7
  10
 2972.2719152724
  20
 4674.7597298888
  30
0.0
  11
 2917.2719152724
  21
 4674.7597298888
  31
0.0
   0
LINE
   5
484
 100
AcDbEntity
   8
LEVEL001
 370
13
 100
AcDbLine
   6
DASHDOT
  62
6
  10
 2941.4210379299
  20
 4740.3451437076
  30
0.0
  11
 2941.4210379299
  21
 4710.3451437076
  31
0.0
   0
LINE
   5
485
 100
AcDbEntity
   8
LEVEL001
 370
13
 100
AcDbLine
   6
DASHDOT
  62
6
  10
 2926.4210379299
  20
 4725.3451437076
  30
0.0
  11
 2956.4210379299
  21
 4725.3451437076
  31
0.0
   0
LINE
   5
486
 100
AcDbEntity
   8
LEVEL001
 370
13
 100
AcDbLine
   6
CONTINUOUS
  62
3
  10
 2885.2719152724
  20
 4752.7597298888
  30
0.0
  11
 2899.2719152724
  21
 4752.7597298888
  31
0.0
   0
LINE
   5
487
 100
AcDbEntity
   8
LEVEL001
 370
13
 100
AcDbLine
   6
CONTINUOUS
  62
3
  10
 2899.2719152724
  20
 4752.7597298888
  30
0.0
  11
 2899.2719152724
  21
 4766.7597298888
  31
0.0
   0
LINE
   5
488
 100
AcDbEntity
   8
LEVEL001
 370
13
 100
AcDbLine
   6
CONTINUOUS
  62
3
  10
 2899.2719152724
  20
 4766.7597298888
  30
0.0
  11
 2885.2719152724
  21
 4766.7597298888
  31
0.0
   0
LINE
   5
489
 100
AcDbEntity
   8
LEVEL001
 370
13
 100
AcDbLine
   6
CONTINUOUS
  62
3
  10
 2885.2719152724
  20
 4766.7597298888
  30
0.0
  11
 2885.2719152724
  21
 4752.7597298888
  31
0.0
   0
LINE
   5
48A
 100
AcDbEntity
   8
LEVEL001
 370
13
 100
AcDbLine
   6
CONTINUOUS
  62
3
  10
 2885.2719152724
  20
 4692.7597298888
  30
0.0
  11
 2899.2719152724
  21
 4692.7597298888
  31
0.0
   0
LINE
   5
48B
 100
AcDbEntity
   8
LEVEL001
 370
13
 100
AcDbLine
   6
CONTINUOUS
  62
3
  10
 2899.2719152724
  20
 4692.7597298888
  30
0.0
  11
 2899.2719152724
  21
 4706.7597298888
  31
0.0
   0
LINE
   5
48C
 100
AcDbEntity
   8
LEVEL001
 370
13
 100
AcDbLine
   6
CONTINUOUS
  62
3
  10
 2899.2719152724
  20
 4706.7597298888
  30
0.0
  11
 2885.2719152724
  21
 4706.7597298888
  31
0.0
   0
LINE
   5
48D
 100
AcDbEntity
   8
LEVEL001
 370
13
 100
AcDbLine
   6
CONTINUOUS
  62
3
  10
 2885.2719152724
  20
 4706.7597298888
  30
0.0
  11
 2885.2719152724
  21
 4692.7597298888
  31
0.0
   0
ARC
   5
48E
 100
AcDbEntity
   8
LEVEL001
 370
13
   6
CONTINUOUS
  62
3
 100
AcDbCircle
  10
 2892.2719152724
  20
 4759.7597298888
  30
0.0
  40
 52.000000000000
 100
AcDbArc
  50
 298.73565374490
  51
 324.99999999987
   0
ARC
   5
48F
 100
AcDbEntity
   8
LEVEL001
 370
13
   6
CONTINUOUS
  62
3
 100
AcDbCircle
  10
 2941.4210379299
  20
 4725.3451437076
  30
0.0
  40
 8.0000000000000
 100
AcDbArc
  50
 324.99999999948
  51
 146.50781277476
   0
ARC
   5
490
 100
AcDbEntity
   8
LEVEL001
 370
13
   6
CONTINUOUS
  62
3
 100
AcDbCircle
  10
 2892.2719152724
  20
 4759.7597298888
  30
0.0
  40
 68.000000000000
 100
AcDbArc
  50
 291.57057830161
  51
 324.99999999990
   0
LINE
   5
491
 100
AcDbEntity
   8
LEVEL001
 370
13
 100
AcDbLine
   6
DASHDOT
  62
6
  10
 3065.0552951159
  20
 4774.7597298888
  30
0.0
  11
 3065.0552951159
  21
 4744.7597298888
  31
0.0
   0
LINE
   5
492
 100
AcDbEntity
   8
LEVEL001
 370
13
 100
AcDbLine
   6
DASHDOT
  62
6
  10
 3050.0552951159
  20
 4759.7597298888
  30
0.0
  11
 3080.0552951159
  21
 4759.7597298888
  31
0.0
   0
LINE
   5
493
 100
AcDbEntity
   8
LEVEL001
 370
13
 100
AcDbLine
   6
DASHDOT
  62
6
  10
 3065.0552951159
  20
 4714.7597298888
  30
0.0
  11
 3065.0552951159
  21
 4684.7597298888
  31
0.0
   0
LINE
   5
494
 100
AcDbEntity
   8
LEVEL001
 370
13
 100
AcDbLine
   6
DASHDOT
  62
6
  10
 3050.0552951159
  20
 4699.7597298888
  30
0.0
  11
 3080.0552951159
  21
 4699.7597298888
  31
0.0
   0
LINE
   5
495
 100
AcDbEntity
   8
LEVEL001
 370
13
 100
AcDbLine
   6
CONTINUOUS
  62
7
  10
 2972.2719152724
  20
 4674.7597298888
  30
0.0
  11
 3085.0552951159
  21
 4674.7597298888
  31
0.0
   0
LINE
   5
496
 100
AcDbEntity
   8
LEVEL001
 370
13
 100
AcDbLine
   6
CONTINUOUS
  62
7
  10
 3085.0552951159
  20
 4674.7597298888
  30
0.0
  11
 3085.0552951159
  21
 4784.7597298888
  31
0.0
   0
LINE
   5
497
 100
AcDbEntity
   8
LEVEL001
 370
13
 100
AcDbLine
   6
CONTINUOUS
  62
7
  10
 3085.0552951159
  20
 4784.7597298888
  30
0.0
  11
 2972.2719152724
  21
 4784.7597298888
  31
0.0
   0
LINE
   5
498
 100
AcDbEntity
   8
LEVEL001
 370
13
 100
AcDbLine
   6
CONTINUOUS
  62
3
  10
 3058.0552951159
  20
 4692.7597298888
  30
0.0
  11
 3072.0552951158
  21
 4692.7597298888
  31
0.0
   0
LINE
   5
499
 100
AcDbEntity
   8
LEVEL001
 370
13
 100
AcDbLine
   6
CONTINUOUS
  62
3
  10
 3072.0552951158
  20
 4692.7597298888
  30
0.0
  11
 3072.0552951158
  21
 4706.7597298888
  31
0.0
   0
LINE
   5
49A
 100
AcDbEntity
   8
LEVEL001
 370
13
 100
AcDbLine
   6
CONTINUOUS
  62
3
  10
 3072.0552951158
  20
 4706.7597298888
  30
0.0
  11
 3058.0552951159
  21
 4706.7597298888
  31
0.0
   0
LINE
   5
49B
 100
AcDbEntity
   8
LEVEL001
 370
13
 100
AcDbLine
   6
CONTINUOUS
  62
3
  10
 3058.0552951159
  20
 4706.7597298888
  30
0.0
  11
 3058.0552951159
  21
 4692.7597298888
  31
0.0
   0
LINE
   5
49C
 100
AcDbEntity
   8
LEVEL001
 370
13
 100
AcDbLine
   6
CONTINUOUS
  62
3
  10
 3058.0552951159
  20
 4752.7597298888
  30
0.0
  11
 3072.0552951158
  21
 4752.7597298888
  31
0.0
   0
LINE
   5
49D
 100
AcDbEntity
   8
LEVEL001
 370
13
 100
AcDbLine
   6
CONTINUOUS
  62
3
  10
 3072.0552951158
  20
 4752.7597298888
  30
0.0
  11
 3072.0552951158
  21
 4766.7597298888
  31
0.0
   0
LINE
   5
49E
 100
AcDbEntity
   8
LEVEL001
 370
13
 100
AcDbLine
   6
CONTINUOUS
  62
3
  10
 3072.0552951158
  20
 4766.7597298888
  30
0.0
  11
 3058.0552951159
  21
 4766.7597298888
  31
0.0
   0
LINE
   5
49F
 100
AcDbEntity
   8
LEVEL001
 370
13
 100
AcDbLine
   6
CONTINUOUS
  62
3
  10
 3058.0552951159
  20
 4766.7597298888
  30
0.0
  11
 3058.0552951159
  21
 4752.7597298888
  31
0.0
   0
LINE
   5
4A0
 100
AcDbEntity
   8
LEVEL001
 370
13
 100
AcDbLine
   6
CONTINUOUS
  62
6
  10
 3045.4833046699
  20
 4779.7597298888
  30
0.0
  11
 3045.4833046699
  21
 4679.7597298888
  31
0.0
   0
CIRCLE
   5
4A1
 100
AcDbEntity
   8
LEVEL001
 370
13
 100
AcDbCircle
   6
CONTINUOUS
  62
1
  10
 2720.0552821856
  20
 5179.7597298888
  30
0.0
  40
 69.999997913838
   0
CIRCLE
   5
4A2
 100
AcDbEntity
   8
LEVEL001
 370
13
 100
AcDbCircle
   6
CONTINUOUS
  62
1
  10
 2860.0552780132
  20
 5179.7597298888
  30
0.0
  40
 69.999997913838
   0
MTEXT
   5
4A3
 100
AcDbEntity
   8
LEVEL001
 370
13
  62
1
 100
AcDbMText
  10
 2860.0552780132
  20
 5179.7597298888
  30
0.0
  40
 57.142857142858
  41
0.0
  71
5
  72
1
   1
\T1.000000;7
   7
GMM001
  44
 0.79999984000003
   0
MTEXT
   5
4A4
 100
AcDbEntity
   8
LEVEL001
 370
13
  62
1
 100
AcDbMText
  10
 2720.0552821856
  20
 5179.7597298888
  30
0.0
  40
 57.142857142858
  41
0.0
  71
5
  72
1
   1
\T1.000000;5
   7
GMM001
  44
 0.79999984000003
   0
LEADER
   5
4A5
 100
AcDbEntity
   8
LEVEL001
 370
13
   6
CONTINUOUS
  62
1
 100
AcDbLeader
   3
GMM002
  73
3
  74
1
  75
0
  40
 60.000000000000
  41
0.0
  76
2
  10
 3085.0552951159
  20
 4784.7597298888
  30
0.0
  10
 3329.0788719083
  20
 5122.6444021868
  30
0.0
  77
1
   0
LEADER
   5
4A6
 100
AcDbEntity
   8
LEVEL001
 370
13
   6
CONTINUOUS
  62
1
 100
AcDbLeader
   3
GMM002
  73
3
  74
1
  75
0
  40
 60.000000000000
  41
0.0
  76
2
  10
 2901.6451836914
  20
 4784.7597298888
  30
0.0
  10
 2869.2083915552
  20
 5110.3607369536
  30
0.0
  77
1
   0
LINE
   5
4A7
 100
AcDbEntity
   8
LEVEL001
 370
13
 100
AcDbLine
   6
CONTINUOUS
  62
7
  10
 3048.2052780132
  20
 4209.7597301690
  30
0.0
  11
 3048.2052780132
  21
 4674.7597298888
  31
0.0
   0
LINE
   5
4A8
 100
AcDbEntity
   8
LEVEL001
 370
13
 100
AcDbLine
   6
CONTINUOUS
  62
7
  10
 2971.9052780133
  20
 4674.7597298888
  30
0.0
  11
 2971.9052780133
  21
 4209.7597301690
  31
0.0
   0
CIRCLE
   5
4A9
 100
AcDbEntity
   8
LEVEL001
 370
13
 100
AcDbCircle
   6
CONTINUOUS
  62
1
  10
 1760.0552780132
  20
 4279.7597298888
  30
0.0
  40
 69.999997913838
   0
MTEXT
   5
4AA
 100
AcDbEntity
   8
LEVEL001
 370
13
  62
1
 100
AcDbMText
  10
 1760.0552780132
  20
 4279.7597298888
  30
0.0
  40
 57.142857142858
  41
0.0
  71
5
  72
1
   1
\T1.000000;4
   7
GMM001
  44
 0.79999984000003
   0
LEADER
   5
4AB
 100
AcDbEntity
   8
LEVEL001
 370
13
   6
CONTINUOUS
  62
1
 100
AcDbLeader
   3
GMM002
  73
3
  74
1
  75
0
  40
 60.000000000000
  41
0.0
  76
2
  10
 1622.7000694340
  20
 4416.9220707654
  30
0.0
  10
 1710.5578048057
  20
 4329.2572030972
  30
0.0
  77
1
   0
LEADER
   5
4AC
 100
AcDbEntity
   8
LEVEL001
 370
13
   6
CONTINUOUS
  62
1
 100
AcDbLeader
   3
GMM002
  73
3
  74
1
  75
0
  40
 60.000000000000
  41
0.0
  76
2
  10
 1623.1859231503
  20
 4529.7597298888
  30
0.0
  10
 2244.3980149825
  20
 4304.0315967152
  30
0.0
  77
1
   0
LEADER
   5
4AD
 100
AcDbEntity
   8
LEVEL001
 370
13
   6
CONTINUOUS
  62
1
 100
AcDbLeader
   3
GMM002
  73
3
  74
1
  75
0
  40
 60.000000000000
  41
0.0
  76
2
  10
 2782.6311570222
  20
 4529.7597298888
  30
0.0
  10
 2372.7001657204
  20
 4310.9946102646
  30
0.0
  77
1
   0
LEADER
   5
4AE
 100
AcDbEntity
   8
LEVEL001
 370
13
   6
CONTINUOUS
  62
1
 100
AcDbLeader
   3
GMM002
  73
3
  74
1
  75
0
  40
 60.000000000000
  41
0.0
  76
2
  10
 1620.3794600125
  20
 5021.0685434634
  30
0.0
  10
 2241.6982249402
  20
 5164.6828269209
  30
0.0
  77
1
   0
LINE
   5
4AF
 100
AcDbEntity
   8
LEVEL001
 370
13
 100
AcDbLine
   6
DASHDOT
  62
6
  10
 1510.0552780132
  20
 5104.7597298888
  30
0.0
  11
 1510.0552780132
  21
 997.25972988877
  31
0.0
   0
CIRCLE
   5
4B0
 100
AcDbEntity
   8
LEVEL001
 370
13
 100
AcDbCircle
   6
CONTINUOUS
  62
1
  10
 1760.0552780132
  20
 2697.2597298888
  30
0.0
  40
 70.000000000000
   0
LEADER
   5
4B1
 100
AcDbEntity
   8
LEVEL001
 370
13
   6
CONTINUOUS
  62
1
 100
AcDbLeader
   3
GMM002
  73
3
  74
1
  75
0
  40
 60.000000000000
  41
0.0
  76
2
  10
 1548.2052780132
  20
 2572.2597298888
  30
0.0
  10
 1699.7674886521
  20
 2661.6875152552
  30
0.0
  77
1
   0
MTEXT
   5
4B2
 100
AcDbEntity
   8
LEVEL001
 370
13
  62
1
 100
AcDbMText
  10
 1760.0552780132
  20
 2697.2597298888
  30
0.0
  40
 57.142857142858
  41
0.0
  71
5
  72
1
   1
\T1.000000;9
   7
GMM001
  44
 0.79999984000003
   0
LINE
   5
4B3
 100
AcDbEntity
   8
LEVEL001
 370
13
 100
AcDbLine
   6
CONTINUOUS
  62
7
  10
 3048.2052780132
  20
 4901.2597298888
  30
0.0
  11
 2971.9052780133
  21
 4901.2597298888
  31
0.0
   0
LINE
   5
4B4
 100
AcDbEntity
   8
LEVEL001
 370
13
 100
AcDbLine
   6
CONTINUOUS
  62
7
  10
 2971.9052780133
  20
 4901.2597298888
  30
0.0
  11
 2971.9052780133
  21
 4898.2597298888
  31
0.0
   0
LINE
   5
4B5
 100
AcDbEntity
   8
LEVEL001
 370
13
 100
AcDbLine
   6
CONTINUOUS
  62
7
  10
 2971.9052780133
  20
 4898.2597298888
  30
0.0
  11
 3048.2052780132
  21
 4898.2597298888
  31
0.0
   0
LINE
   5
4B6
 100
AcDbEntity
   8
LEVEL001
 370
13
 100
AcDbLine
   6
CONTINUOUS
  62
7
  10
 3048.2052780132
  20
 4898.2597298888
  30
0.0
  11
 3048.2052780132
  21
 4901.2597298888
  31
0.0
   0
LINE
   5
4B7
 100
AcDbEntity
   8
LEVEL001
 370
13
 100
AcDbLine
   6
DOT
  62
1
  10
 3043.2052780132
  20
 4898.2597298888
  30
0.0
  11
 3043.2052780132
  21
 4871.2597298888
  31
0.0
   0
LINE
   5
4B8
 100
AcDbEntity
   8
LEVEL001
 370
13
 100
AcDbLine
   6
DOT
  62
1
  10
 3043.2052780132
  20
 4871.2597298888
  30
0.0
  11
 2976.9052780133
  21
 4871.2597298888
  31
0.0
   0
LINE
   5
4B9
 100
AcDbEntity
   8
LEVEL001
 370
13
 100
AcDbLine
   6
DOT
  62
1
  10
 2976.9052780133
  20
 4871.2597298888
  30
0.0
  11
 2976.9052780133
  21
 4898.2597298888
  31
0.0
   0
LINE
   5
4BA
 100
AcDbEntity
   8
LEVEL001
 370
13
 100
AcDbLine
   6
CONTINUOUS
  62
7
  10
 3048.2052780132
  20
 4784.7597298888
  30
0.0
  11
 3048.2052780132
  21
 4897.2597298888
  31
0.0
   0
LINE
   5
4BB
 100
AcDbEntity
   8
LEVEL001
 370
13
 100
AcDbLine
   6
CONTINUOUS
  62
7
  10
 3048.2052780132
  20
 4897.2597298888
  30
0.0
  11
 2971.9052780133
  21
 4897.2597298888
  31
0.0
   0
LINE
   5
4BC
 100
AcDbEntity
   8
LEVEL001
 370
13
 100
AcDbLine
   6
CONTINUOUS
  62
7
  10
 2971.9052780133
  20
 4897.2597298888
  30
0.0
  11
 2971.9052780133
  21
 4784.7597298888
  31
0.0
   0
LINE
   5
4BD
 100
AcDbEntity
   8
LEVEL001
 370
13
 100
AcDbLine
   6
DASHDOT
  62
6
  10
 3010.0552780132
  20
 4953.4557741912
  30
0.0
  11
 3010.0552780132
  21
 997.25972988877
  31
0.0
   0
LINE
   5
4BE
 100
AcDbEntity
   8
LEVEL001
 370
13
 100
AcDbLine
   6
DASHDOT
  62
6
  10
 1450.0552599276
  20
 1697.2597298888
  30
0.0
  11
 1570.0552599276
  21
 1697.2597298888
  31
0.0
   0
CIRCLE
   5
4BF
 100
AcDbEntity
   8
LEVEL001
 370
13
 100
AcDbCircle
   6
CONTINUOUS
  62
7
  10
 1510.0552442112
  20
 1597.2597298888
  30
0.0
  40
 7.5000000000000
   0
LINE
   5
4C0
 100
AcDbEntity
   8
LEVEL001
 370
13
 100
AcDbLine
   6
DASHDOT
  62
6
  10
 1480.0552442112
  20
 1597.2597298888
  30
0.0
  11
 1540.0552442112
  21
 1597.2597298888
  31
0.0
   0
LINE
   5
4C1
 100
AcDbEntity
   8
LEVEL001
 370
13
 100
AcDbLine
   6
CONTINUOUS
  62
7
  10
 3048.2052780132
  20
 3784.7597298880
  30
0.0
  11
 3048.2052780132
  21
 1297.2597298888
  31
0.0
   0
LINE
   5
4C2
 100
AcDbEntity
   8
LEVEL001
 370
13
 100
AcDbLine
   6
CONTINUOUS
  62
7
  10
 3048.2052780132
  20
 1297.2597298888
  30
0.0
  11
 2971.9052780133
  21
 1297.2597298888
  31
0.0
   0
LINE
   5
4C3
 100
AcDbEntity
   8
LEVEL001
 370
13
 100
AcDbLine
   6
CONTINUOUS
  62
7
  10
 2971.9052780133
  20
 1297.2597298888
  30
0.0
  11
 2971.9052780133
  21
 3784.7597298880
  31
0.0
   0
LINE
   5
4C4
 100
AcDbEntity
   8
LEVEL001
 370
13
 100
AcDbLine
   6
CONTINUOUS
  62
7
  10
 1471.9052780133
  20
 3697.2589451432
  30
0.0
  11
 1471.9052780133
  21
 1297.2597298888
  31
0.0
   0
LINE
   5
4C5
 100
AcDbEntity
   8
LEVEL001
 370
13
 100
AcDbLine
   6
CONTINUOUS
  62
7
  10
 1471.9052780133
  20
 1297.2597298888
  30
0.0
  11
 1548.2052780132
  21
 1297.2597298888
  31
0.0
   0
LINE
   5
4C6
 100
AcDbEntity
   8
LEVEL001
 370
13
 100
AcDbLine
   6
CONTINUOUS
  62
7
  10
 1548.2052780132
  20
 1297.2597298888
  30
0.0
  11
 1548.2052780132
  21
 3697.2589451432
  31
0.0
   0
CIRCLE
   5
4C7
 100
AcDbEntity
   8
LEVEL001
 370
13
 100
AcDbCircle
   6
CONTINUOUS
  62
7
  10
 3010.0552442112
  20
 1697.2597298888
  30
0.0
  40
 7.5000000000000
   0
LINE
   5
4C8
 100
AcDbEntity
   8
LEVEL001
 370
13
 100
AcDbLine
   6
DASHDOT
  62
6
  10
 2980.0552442112
  20
 1697.2597298888
  30
0.0
  11
 3040.0552442112
  21
 1697.2597298888
  31
0.0
   0
LINE
   5
4C9
 100
AcDbEntity
   8
LEVEL001
 370
13
 100
AcDbLine
   6
DASHDOT
  62
6
  10
 2950.0552599277
  20
 1597.2597298888
  30
0.0
  11
 3070.0552599277
  21
 1597.2597298888
  31
0.0
   0
LINE
   5
4CA
 100
AcDbEntity
   8
LEVEL001
 370
13
 100
AcDbLine
   6
CONTINUOUS
  62
7
  10
 2971.9052780133
  20
 1604.7597298888
  30
0.0
  11
 2900.0552599277
  21
 1604.7597298888
  31
0.0
   0
LINE
   5
4CB
 100
AcDbEntity
   8
LEVEL001
 370
13
 100
AcDbLine
   6
CONTINUOUS
  62
7
  10
 2900.0552599277
  20
 1604.7597298888
  30
0.0
  11
 2900.0552599277
  21
 1589.7597298888
  31
0.0
   0
LINE
   5
4CC
 100
AcDbEntity
   8
LEVEL001
 370
13
 100
AcDbLine
   6
CONTINUOUS
  62
7
  10
 2900.0552599277
  20
 1589.7597298888
  30
0.0
  11
 2971.9052780133
  21
 1589.7597298888
  31
0.0
   0
LINE
   5
4CD
 100
AcDbEntity
   8
LEVEL001
 370
13
 100
AcDbLine
   6
CONTINUOUS
  62
7
  10
 3048.2052780132
  20
 1604.7597298888
  30
0.0
  11
 3120.0552599277
  21
 1604.7597298888
  31
0.0
   0
LINE
   5
4CE
 100
AcDbEntity
   8
LEVEL001
 370
13
 100
AcDbLine
   6
CONTINUOUS
  62
7
  10
 3120.0552599277
  20
 1604.7597298888
  30
0.0
  11
 3120.0552599277
  21
 1589.7597298888
  31
0.0
   0
LINE
   5
4CF
 100
AcDbEntity
   8
LEVEL001
 370
13
 100
AcDbLine
   6
CONTINUOUS
  62
7
  10
 3120.0552599277
  20
 1589.7597298888
  30
0.0
  11
 3048.2052780132
  21
 1589.7597298888
  31
0.0
   0
CIRCLE
   5
4D0
 100
AcDbEntity
   8
LEVEL001
 370
13
 100
AcDbCircle
   6
CONTINUOUS
  62
1
  10
 2635.0552780132
  20
 1447.2597298888
  30
0.0
  40
 70.000000000000
   0
LINE
   5
4D1
 100
AcDbEntity
   8
LEVEL001
 370
13
 100
AcDbLine
   6
DOT
  62
1
  10
 3048.2052780132
  20
 1589.7597298888
  30
0.0
  11
 2971.9052780133
  21
 1589.7597298888
  31
0.0
   0
LINE
   5
4D2
 100
AcDbEntity
   8
LEVEL001
 370
13
 100
AcDbLine
   6
DOT
  62
1
  10
 2971.9052780133
  20
 1604.7597298888
  30
0.0
  11
 3048.2052780132
  21
 1604.7597298888
  31
0.0
   0
LEADER
   5
4D3
 100
AcDbEntity
   8
LEVEL001
 370
13
   6
CONTINUOUS
  62
1
 100
AcDbLeader
   3
GMM002
  73
3
  74
1
  75
0
  40
 60.000000000000
  41
0.0
  76
2
  10
 2900.0552599277
  20
 1589.7597298888
  30
0.0
  10
 2696.7069201533
  20
 1480.4120302832
  30
0.0
  77
1
   0
MTEXT
   5
4D4
 100
AcDbEntity
   8
LEVEL001
 370
13
  62
1
 100
AcDbMText
  10
 2635.0552780132
  20
 1447.2597298888
  30
0.0
  40
 57.142857142858
  41
0.0
  71
5
  72
1
   1
\T1.000000;10
   7
GMM001
  44
 0.79999984000003
   0
LEADER
   5
4D5
 100
AcDbEntity
   8
LEVEL001
 370
13
   6
CONTINUOUS
  62
1
 100
AcDbLeader
   3
GMM002
  73
3
  74
1
  75
0
  40
 60.000000000000
  41
0.0
  76
2
  10
 3010.0552780132
  20
 4901.2597298888
  30
0.0
  10
 3169.5345203704
  20
 5122.6802397014
  30
0.0
  77
1
   0
MTEXT
   5
4D6
 100
AcDbEntity
   8
LEVEL001
 370
13
  62
1
 100
AcDbMText
  10
 3010.0552780132
  20
 5529.7597298888
  30
0.0
  40
 57.142857142858
  41
0.0
  71
5
  72
1
   1
\T1.000000;側　面　図
   7
GMM001
  44
 0.79999984000003
   0
MTEXT
   5
4D7
 100
AcDbEntity
   8
LEVEL001
 370
13
  62
1
 100
AcDbMText
  10
 1510.0552780132
  20
 5529.7597298888
  30
0.0
  40
 57.142857142858
  41
0.0
  71
5
  72
1
   1
\T1.000000;正　面　図
   7
GMM001
  44
 0.79999984000003
   0
LEADER
   5
4D8
 100
AcDbEntity
   8
LEVEL001
 370
13
   6
CONTINUOUS
  62
1
 100
AcDbLeader
   3
GMM002
  73
3
  74
1
  75
0
  40
 60.000000000000
  41
0.0
  76
2
  10
 2744.0719152725
  20
 5041.2597298888
  30
0.0
  10
 2376.8294222649
  20
 5158.7546503270
  30
0.0
  77
1
   0
CIRCLE
   5
4D9
 100
AcDbEntity
   8
LEVEL001
 370
13
 100
AcDbCircle
   6
CONTINUOUS
  62
7
  10
 4512.9432294928
  20
 4729.7597298888
  30
0.0
  40
 332.50000000000
   0
CIRCLE
   5
4DA
 100
AcDbEntity
   8
LEVEL001
 370
13
 100
AcDbCircle
   6
CONTINUOUS
  62
7
  10
 4371.5218732556
  20
 4871.1810861261
  30
0.0
  40
 35.000000000000
   0
CIRCLE
   5
4DB
 100
AcDbEntity
   8
LEVEL001
 370
13
 100
AcDbCircle
   6
CONTINUOUS
  62
6
  10
 4371.5218732556
  20
 4871.1810861261
  30
0.0
  40
 50.000000000000
   0
CIRCLE
   5
4DC
 100
AcDbEntity
   8
LEVEL001
 370
13
 100
AcDbCircle
   6
CONTINUOUS
  62
7
  10
 4654.3645857300
  20
 4871.1810861261
  30
0.0
  40
 35.000000000000
   0
CIRCLE
   5
4DD
 100
AcDbEntity
   8
LEVEL001
 370
13
 100
AcDbCircle
   6
CONTINUOUS
  62
6
  10
 4654.3645857300
  20
 4871.1810861261
  30
0.0
  40
 50.000000000000
   0
CIRCLE
   5
4DE
 100
AcDbEntity
   8
LEVEL001
 370
13
 100
AcDbCircle
   6
CONTINUOUS
  62
7
  10
 4654.3645857303
  20
 4588.3383736516
  30
0.0
  40
 35.000000000000
   0
CIRCLE
   5
4DF
 100
AcDbEntity
   8
LEVEL001
 370
13
 100
AcDbCircle
   6
CONTINUOUS
  62
6
  10
 4654.3645857303
  20
 4588.3383736516
  30
0.0
  40
 50.000000000000
   0
CIRCLE
   5
4E0
 100
AcDbEntity
   8
LEVEL001
 370
13
 100
AcDbCircle
   6
CONTINUOUS
  62
7
  10
 4371.5218732555
  20
 4588.3383736516
  30
0.0
  40
 35.000000000000
   0
CIRCLE
   5
4E1
 100
AcDbEntity
   8
LEVEL001
 370
13
 100
AcDbCircle
   6
CONTINUOUS
  62
6
  10
 4371.5218732555
  20
 4588.3383736516
  30
0.0
  40
 50.000000000000
   0
ARC
   5
4E2
 100
AcDbEntity
   8
LEVEL001
 370
13
   6
CONTINUOUS
  62
7
 100
AcDbCircle
  10
 4762.9432294928
  20
 4729.7597298888
  30
0.0
  40
 15.000000000000
 100
AcDbArc
  50
0.0
  51
 90.000000000000
   0
ARC
   5
4E3
 100
AcDbEntity
   8
LEVEL001
 370
13
   6
CONTINUOUS
  62
7
 100
AcDbCircle
  10
 4762.9432294928
  20
 4729.7597298888
  30
0.0
  40
 15.000000000000
 100
AcDbArc
  50
 270.00000000000
  51
0.0
   0
ARC
   5
4E4
 100
AcDbEntity
   8
LEVEL001
 370
13
   6
CONTINUOUS
  62
7
 100
AcDbCircle
  10
 4262.9432294928
  20
 4729.7597298890
  30
0.0
  40
 15.000000000000
 100
AcDbArc
  50
 180.00000000000
  51
 270.00000000000
   0
ARC
   5
4E5
 100
AcDbEntity
   8
LEVEL001
 370
13
   6
CONTINUOUS
  62
7
 100
AcDbCircle
  10
 4262.9432294928
  20
 4729.7597298890
  30
0.0
  40
 15.000000000000
 100
AcDbArc
  50
 90.000000000000
  51
 180.00000000000
   0
ARC
   5
4E6
 100
AcDbEntity
   8
LEVEL001
 370
13
   6
CONTINUOUS
  62
6
 100
AcDbCircle
  10
 4762.9432294928
  20
 4729.7597298888
  30
0.0
  40
 30.000000000000
 100
AcDbArc
  50
0.0
  51
 90.000000000000
   0
ARC
   5
4E7
 100
AcDbEntity
   8
LEVEL001
 370
13
   6
CONTINUOUS
  62
6
 100
AcDbCircle
  10
 4762.9432294928
  20
 4729.7597298888
  30
0.0
  40
 30.000000000000
 100
AcDbArc
  50
 270.00000000000
  51
0.0
   0
ARC
   5
4E8
 100
AcDbEntity
   8
LEVEL001
 370
13
   6
CONTINUOUS
  62
6
 100
AcDbCircle
  10
 4262.9432294928
  20
 4729.7597298890
  30
0.0
  40
 30.000000000000
 100
AcDbArc
  50
 180.00000000000
  51
 270.00000000000
   0
ARC
   5
4E9
 100
AcDbEntity
   8
LEVEL001
 370
13
   6
CONTINUOUS
  62
6
 100
AcDbCircle
  10
 4262.9432294928
  20
 4729.7597298890
  30
0.0
  40
 30.000000000000
 100
AcDbArc
  50
 90.000000000000
  51
 180.00000000000
   0
ARC
   5
4EA
 100
AcDbEntity
   8
LEVEL001
 370
13
   6
CONTINUOUS
  62
7
 100
AcDbCircle
  10
 4510.0552780134
  20
 4979.7597298888
  30
0.0
  40
 15.000000000000
 100
AcDbArc
  50
 90.000000000000
  51
 180.00000000000
   0
ARC
   5
4EB
 100
AcDbEntity
   8
LEVEL001
 370
13
   6
CONTINUOUS
  62
6
 100
AcDbCircle
  10
 4510.0552780134
  20
 4979.7597298888
  30
0.0
  40
 30.000000000000
 100
AcDbArc
  50
 90.000000000000
  51
 180.00000000000
   0
ARC
   5
4EC
 100
AcDbEntity
   8
LEVEL001
 370
13
   6
CONTINUOUS
  62
7
 100
AcDbCircle
  10
 4510.0552780134
  20
 4979.7597298888
  30
0.0
  40
 15.000000000000
 100
AcDbArc
  50
0.0
  51
 90.000000000000
   0
ARC
   5
4ED
 100
AcDbEntity
   8
LEVEL001
 370
13
   6
CONTINUOUS
  62
6
 100
AcDbCircle
  10
 4510.0552780134
  20
 4979.7597298888
  30
0.0
  40
 30.000000000000
 100
AcDbArc
  50
0.0
  51
 90.000000000000
   0
ARC
   5
4EE
 100
AcDbEntity
   8
LEVEL001
 370
13
   6
CONTINUOUS
  62
7
 100
AcDbCircle
  10
 4510.0552780132
  20
 4479.7597298890
  30
0.0
  40
 15.000000000000
 100
AcDbArc
  50
 180.00000000000
  51
 270.00000000000
   0
ARC
   5
4EF
 100
AcDbEntity
   8
LEVEL001
 370
13
   6
CONTINUOUS
  62
6
 100
AcDbCircle
  10
 4510.0552780132
  20
 4479.7597298890
  30
0.0
  40
 30.000000000000
 100
AcDbArc
  50
 180.00000000000
  51
 270.00000000000
   0
ARC
   5
4F0
 100
AcDbEntity
   8
LEVEL001
 370
13
   6
CONTINUOUS
  62
7
 100
AcDbCircle
  10
 4510.0552780132
  20
 4479.7597298890
  30
0.0
  40
 15.000000000000
 100
AcDbArc
  50
 270.00000000000
  51
0.0
   0
ARC
   5
4F1
 100
AcDbEntity
   8
LEVEL001
 370
13
   6
CONTINUOUS
  62
6
 100
AcDbCircle
  10
 4510.0552780132
  20
 4479.7597298890
  30
0.0
  40
 30.000000000000
 100
AcDbArc
  50
 270.00000000000
  51
0.0
   0
LINE
   5
4F2
 100
AcDbEntity
   8
LEVEL001
 370
13
 100
AcDbLine
   6
CONTINUOUS
  62
6
  10
 4262.9432294928
  20
 4759.7597298890
  30
0.0
  11
 4384.6559159734
  21
 4759.7597298890
  31
0.0
   0
ARC
   5
4F3
 100
AcDbEntity
   8
LEVEL001
 370
13
   6
CONTINUOUS
  62
6
 100
AcDbCircle
  10
 4384.6559159734
  20
 4779.7597298890
  30
0.0
  40
 20.000000000000
 100
AcDbArc
  50
 270.00000000000
  51
 338.26153920836
   0
LINE
   5
4F4
 100
AcDbEntity
   8
LEVEL001
 370
13
 100
AcDbLine
   6
CONTINUOUS
  62
6
  10
 4480.0552780134
  20
 4855.1590919288
  30
0.0
  11
 4480.0552780134
  21
 4979.7597298888
  31
0.0
   0
ARC
   5
4F5
 100
AcDbEntity
   8
LEVEL001
 370
13
   6
CONTINUOUS
  62
6
 100
AcDbCircle
  10
 4460.0552780134
  20
 4855.1590919288
  30
0.0
  40
 20.000000000000
 100
AcDbArc
  50
 291.73846079153
  51
0.0
   0
ARC
   5
4F6
 100
AcDbEntity
   8
LEVEL001
 370
13
   6
CONTINUOUS
  62
6
 100
AcDbCircle
  10
 4510.0552780132
  20
 4729.7597298888
  30
0.0
  40
 115.00000000000
 100
AcDbArc
  50
 111.73846079139
  51
 158.26153920834
   0
LINE
   5
4F7
 100
AcDbEntity
   8
LEVEL001
 370
13
 100
AcDbLine
   6
CONTINUOUS
  62
6
  10
 4540.0552780134
  20
 4979.7597298888
  30
0.0
  11
 4540.0552780134
  21
 4855.1590919286
  31
0.0
   0
ARC
   5
4F8
 100
AcDbEntity
   8
LEVEL001
 370
13
   6
CONTINUOUS
  62
6
 100
AcDbCircle
  10
 4560.0552780134
  20
 4855.1590919286
  30
0.0
  40
 20.000000000000
 100
AcDbArc
  50
 179.99999999998
  51
 248.26153920844
   0
LINE
   5
4F9
 100
AcDbEntity
   8
LEVEL001
 370
13
 100
AcDbLine
   6
CONTINUOUS
  62
6
  10
 4635.4546400531
  20
 4759.7597298888
  30
0.0
  11
 4762.9432294928
  21
 4759.7597298888
  31
0.0
   0
ARC
   5
4FA
 100
AcDbEntity
   8
LEVEL001
 370
13
   6
CONTINUOUS
  62
6
 100
AcDbCircle
  10
 4635.4546400531
  20
 4779.7597298888
  30
0.0
  40
 20.000000000000
 100
AcDbArc
  50
 201.73846079156
  51
 270.00000000000
   0
ARC
   5
4FB
 100
AcDbEntity
   8
LEVEL001
 370
13
   6
CONTINUOUS
  62
6
 100
AcDbCircle
  10
 4510.0552780132
  20
 4729.7597298888
  30
0.0
  40
 115.00000000000
 100
AcDbArc
  50
 21.738460791509
  51
 68.261539208331
   0
LINE
   5
4FC
 100
AcDbEntity
   8
LEVEL001
 370
13
 100
AcDbLine
   6
CONTINUOUS
  62
6
  10
 4762.9432294928
  20
 4699.7597298888
  30
0.0
  11
 4635.4546400531
  21
 4699.7597298888
  31
0.0
   0
ARC
   5
4FD
 100
AcDbEntity
   8
LEVEL001
 370
13
   6
CONTINUOUS
  62
6
 100
AcDbCircle
  10
 4635.4546400531
  20
 4679.7597298888
  30
0.0
  40
 20.000000000000
 100
AcDbArc
  50
 90.000000000000
  51
 158.26153920848
   0
LINE
   5
4FE
 100
AcDbEntity
   8
LEVEL001
 370
13
 100
AcDbLine
   6
CONTINUOUS
  62
6
  10
 4540.0552780132
  20
 4604.3603678490
  30
0.0
  11
 4540.0552780132
  21
 4479.7597298890
  31
0.0
   0
ARC
   5
4FF
 100
AcDbEntity
   8
LEVEL001
 370
13
   6
CONTINUOUS
  62
6
 100
AcDbCircle
  10
 4560.0552780132
  20
 4604.3603678490
  30
0.0
  40
 20.000000000000
 100
AcDbArc
  50
 111.73846079154
  51
 180.00000000000
   0
ARC
   5
500
 100
AcDbEntity
   8
LEVEL001
 370
13
   6
CONTINUOUS
  62
6
 100
AcDbCircle
  10
 4510.0552780132
  20
 4729.7597298888
  30
0.0
  40
 115.00000000000
 100
AcDbArc
  50
 291.73846079151
  51
 338.26153920848
   0
LINE
   5
501
 100
AcDbEntity
   8
LEVEL001
 370
13
 100
AcDbLine
   6
CONTINUOUS
  62
6
  10
 4480.0552780132
  20
 4479.7597298890
  30
0.0
  11
 4480.0552780132
  21
 4604.3603678490
  31
0.0
   0
ARC
   5
502
 100
AcDbEntity
   8
LEVEL001
 370
13
   6
CONTINUOUS
  62
6
 100
AcDbCircle
  10
 4460.0552780132
  20
 4604.3603678490
  30
0.0
  40
 20.000000000000
 100
AcDbArc
  50
0.0
  51
 68.261539208455
   0
LINE
   5
503
 100
AcDbEntity
   8
LEVEL001
 370
13
 100
AcDbLine
   6
CONTINUOUS
  62
6
  10
 4384.6559159733
  20
 4699.7597298890
  30
0.0
  11
 4262.9432294928
  21
 4699.7597298890
  31
0.0
   0
ARC
   5
504
 100
AcDbEntity
   8
LEVEL001
 370
13
   6
CONTINUOUS
  62
6
 100
AcDbCircle
  10
 4384.6559159733
  20
 4679.7597298890
  30
0.0
  40
 20.000000000000
 100
AcDbArc
  50
 21.738460791425
  51
 90.000000000000
   0
ARC
   5
505
 100
AcDbEntity
   8
LEVEL001
 370
13
   6
CONTINUOUS
  62
6
 100
AcDbCircle
  10
 4510.0552780132
  20
 4729.7597298888
  30
0.0
  40
 115.00000000000
 100
AcDbArc
  50
 201.73846079139
  51
 248.26153920849
   0
LINE
   5
506
 100
AcDbEntity
   8
LEVEL001
 370
13
 100
AcDbLine
   6
CONTINUOUS
  62
7
  10
 4262.9432294928
  20
 4744.7597298890
  30
0.0
  11
 4384.6559159734
  21
 4744.7597298890
  31
0.0
   0
ARC
   5
507
 100
AcDbEntity
   8
LEVEL001
 370
13
   6
CONTINUOUS
  62
7
 100
AcDbCircle
  10
 4384.6559159734
  20
 4779.7597298890
  30
0.0
  40
 35.000000000000
 100
AcDbArc
  50
 270.00000000000
  51
 338.26153920836
   0
LINE
   5
508
 100
AcDbEntity
   8
LEVEL001
 370
13
 100
AcDbLine
   6
CONTINUOUS
  62
7
  10
 4384.6559159733
  20
 4714.7597298890
  30
0.0
  11
 4262.9432294928
  21
 4714.7597298890
  31
0.0
   0
ARC
   5
509
 100
AcDbEntity
   8
LEVEL001
 370
13
   6
CONTINUOUS
  62
7
 100
AcDbCircle
  10
 4384.6559159733
  20
 4679.7597298890
  30
0.0
  40
 35.000000000000
 100
AcDbArc
  50
 21.738460791419
  51
 90.000000000000
   0
LINE
   5
50A
 100
AcDbEntity
   8
LEVEL001
 370
13
 100
AcDbLine
   6
CONTINUOUS
  62
7
  10
 4495.0552780132
  20
 4479.7597298890
  30
0.0
  11
 4495.0552780132
  21
 4604.3603678490
  31
0.0
   0
ARC
   5
50B
 100
AcDbEntity
   8
LEVEL001
 370
13
   6
CONTINUOUS
  62
7
 100
AcDbCircle
  10
 4460.0552780132
  20
 4604.3603678490
  30
0.0
  40
 35.000000000000
 100
AcDbArc
  50
0.0
  51
 68.261539208453
   0
ARC
   5
50C
 100
AcDbEntity
   8
LEVEL001
 370
13
   6
CONTINUOUS
  62
7
 100
AcDbCircle
  10
 4510.0552780132
  20
 4729.7597298888
  30
0.0
  40
 100.00000000000
 100
AcDbArc
  50
 201.73846079139
  51
 248.26153920849
   0
LINE
   5
50D
 100
AcDbEntity
   8
LEVEL001
 370
13
 100
AcDbLine
   6
CONTINUOUS
  62
7
  10
 4525.0552780132
  20
 4604.3603678490
  30
0.0
  11
 4525.0552780132
  21
 4479.7597298890
  31
0.0
   0
ARC
   5
50E
 100
AcDbEntity
   8
LEVEL001
 370
13
   6
CONTINUOUS
  62
7
 100
AcDbCircle
  10
 4560.0552780132
  20
 4604.3603678490
  30
0.0
  40
 35.000000000000
 100
AcDbArc
  50
 111.73846079155
  51
 180.00000000000
   0
LINE
   5
50F
 100
AcDbEntity
   8
LEVEL001
 370
13
 100
AcDbLine
   6
CONTINUOUS
  62
7
  10
 4762.9432294928
  20
 4714.7597298888
  30
0.0
  11
 4635.4546400531
  21
 4714.7597298888
  31
0.0
   0
ARC
   5
510
 100
AcDbEntity
   8
LEVEL001
 370
13
   6
CONTINUOUS
  62
7
 100
AcDbCircle
  10
 4635.4546400531
  20
 4679.7597298888
  30
0.0
  40
 35.000000000000
 100
AcDbArc
  50
 90.000000000000
  51
 158.26153920847
   0
ARC
   5
511
 100
AcDbEntity
   8
LEVEL001
 370
13
   6
CONTINUOUS
  62
7
 100
AcDbCircle
  10
 4510.0552780132
  20
 4729.7597298888
  30
0.0
  40
 100.00000000000
 100
AcDbArc
  50
 291.73846079151
  51
 338.26153920848
   0
LINE
   5
512
 100
AcDbEntity
   8
LEVEL001
 370
13
 100
AcDbLine
   6
CONTINUOUS
  62
7
  10
 4635.4546400531
  20
 4744.7597298888
  30
0.0
  11
 4762.9432294928
  21
 4744.7597298888
  31
0.0
   0
ARC
   5
513
 100
AcDbEntity
   8
LEVEL001
 370
13
   6
CONTINUOUS
  62
7
 100
AcDbCircle
  10
 4635.4546400531
  20
 4779.7597298888
  30
0.0
  40
 35.000000000000
 100
AcDbArc
  50
 201.73846079154
  51
 270.00000000000
   0
LINE
   5
514
 100
AcDbEntity
   8
LEVEL001
 370
13
 100
AcDbLine
   6
CONTINUOUS
  62
7
  10
 4525.0552780134
  20
 4979.7597298888
  30
0.0
  11
 4525.0552780134
  21
 4855.1590919286
  31
0.0
   0
ARC
   5
515
 100
AcDbEntity
   8
LEVEL001
 370
13
   6
CONTINUOUS
  62
7
 100
AcDbCircle
  10
 4560.0552780134
  20
 4855.1590919286
  30
0.0
  40
 35.000000000000
 100
AcDbArc
  50
 180.00000000000
  51
 248.26153920835
   0
ARC
   5
516
 100
AcDbEntity
   8
LEVEL001
 370
13
   6
CONTINUOUS
  62
7
 100
AcDbCircle
  10
 4510.0552780132
  20
 4729.7597298888
  30
0.0
  40
 100.00000000000
 100
AcDbArc
  50
 21.738460791525
  51
 68.261539208347
   0
LINE
   5
517
 100
AcDbEntity
   8
LEVEL001
 370
13
 100
AcDbLine
   6
CONTINUOUS
  62
7
  10
 4495.0552780134
  20
 4855.1590919288
  30
0.0
  11
 4495.0552780134
  21
 4979.7597298888
  31
0.0
   0
ARC
   5
518
 100
AcDbEntity
   8
LEVEL001
 370
13
   6
CONTINUOUS
  62
7
 100
AcDbCircle
  10
 4460.0552780134
  20
 4855.1590919288
  30
0.0
  40
 35.000000000000
 100
AcDbArc
  50
 291.73846079144
  51
 0.11910904663108E-10
   0
ARC
   5
519
 100
AcDbEntity
   8
LEVEL001
 370
13
   6
CONTINUOUS
  62
7
 100
AcDbCircle
  10
 4510.0552780132
  20
 4729.7597298888
  30
0.0
  40
 100.00000000000
 100
AcDbArc
  50
 111.73846079137
  51
 158.26153920835
   0
CIRCLE
   5
51A
 100
AcDbEntity
   8
LEVEL001
 370
13
 100
AcDbCircle
   6
CONTINUOUS
  62
7
  10
 4512.9432294928
  20
 4729.7597298888
  30
0.0
  40
 307.50000000000
   0
CIRCLE
   5
51B
 100
AcDbEntity
   8
LEVEL001
 370
13
 100
AcDbCircle
   6
CONTINUOUS
  62
7
  10
 4512.9432294928
  20
 4729.7597298888
  30
0.0
  40
 312.50000000000
   0
CIRCLE
   5
51C
 100
AcDbEntity
   8
LEVEL001
 370
13
 100
AcDbCircle
   6
CONTINUOUS
  62
7
  10
 4512.9432294928
  20
 4729.7597298888
  30
0.0
  40
 305.00000000000
   0
LINE
   5
51D
 100
AcDbEntity
   8
LEVEL001
 370
13
 100
AcDbLine
   6
DASHDOT
  62
6
  10
 4460.0552780132
  20
 4794.7597298888
  30
0.0
  11
 4460.0552780132
  21
 4764.7597298888
  31
0.0
   0
LINE
   5
51E
 100
AcDbEntity
   8
LEVEL001
 370
13
 100
AcDbLine
   6
DASHDOT
  62
6
  10
 4445.0552780132
  20
 4779.7597298888
  30
0.0
  11
 4475.0552780132
  21
 4779.7597298888
  31
0.0
   0
LINE
   5
51F
 100
AcDbEntity
   8
LEVEL001
 370
13
 100
AcDbLine
   6
DASHDOT
  62
6
  10
 4560.0552780132
  20
 4794.7597298888
  30
0.0
  11
 4560.0552780132
  21
 4764.7597298888
  31
0.0
   0
LINE
   5
520
 100
AcDbEntity
   8
LEVEL001
 370
13
 100
AcDbLine
   6
DASHDOT
  62
6
  10
 4545.0552780132
  20
 4779.7597298888
  30
0.0
  11
 4575.0552780132
  21
 4779.7597298888
  31
0.0
   0
LINE
   5
521
 100
AcDbEntity
   8
LEVEL001
 370
13
 100
AcDbLine
   6
DASHDOT
  62
6
  10
 4560.0552780132
  20
 4694.7597298888
  30
0.0
  11
 4560.0552780132
  21
 4664.7597298888
  31
0.0
   0
LINE
   5
522
 100
AcDbEntity
   8
LEVEL001
 370
13
 100
AcDbLine
   6
DASHDOT
  62
6
  10
 4545.0552780132
  20
 4679.7597298888
  30
0.0
  11
 4575.0552780132
  21
 4679.7597298888
  31
0.0
   0
LINE
   5
523
 100
AcDbEntity
   8
LEVEL001
 370
13
 100
AcDbLine
   6
DASHDOT
  62
6
  10
 4460.0552780132
  20
 4694.7597298888
  30
0.0
  11
 4460.0552780132
  21
 4664.7597298888
  31
0.0
   0
LINE
   5
524
 100
AcDbEntity
   8
LEVEL001
 370
13
 100
AcDbLine
   6
DASHDOT
  62
6
  10
 4445.0552780132
  20
 4679.7597298888
  30
0.0
  11
 4475.0552780132
  21
 4679.7597298888
  31
0.0
   0
LINE
   5
525
 100
AcDbEntity
   8
LEVEL001
 370
13
 100
AcDbLine
   6
DASHDOT
  62
6
  10
 4510.0552780132
  20
 5104.7486093722
  30
0.0
  11
 4510.0552780132
  21
 4354.7708504054
  31
0.0
   0
LINE
   5
526
 100
AcDbEntity
   8
LEVEL001
 370
13
 100
AcDbLine
   6
DASHDOT
  62
6
  10
 4137.9432294928
  20
 4729.7597298888
  30
0.0
  11
 4887.9432294928
  21
 4729.7597298888
  31
0.0
   0
CIRCLE
   5
527
 100
AcDbEntity
   8
LEVEL001
 370
13
 100
AcDbCircle
   6
CONTINUOUS
  62
3
  10
 4460.0552780132
  20
 4779.7597298888
  30
0.0
  40
 7.0000000000000
   0
CIRCLE
   5
528
 100
AcDbEntity
   8
LEVEL001
 370
13
 100
AcDbCircle
   6
CONTINUOUS
  62
3
  10
 4460.0552780132
  20
 4679.7597298888
  30
0.0
  40
 7.0000000000000
   0
CIRCLE
   5
529
 100
AcDbEntity
   8
LEVEL001
 370
13
 100
AcDbCircle
   6
CONTINUOUS
  62
3
  10
 4560.0552780132
  20
 4679.7597298888
  30
0.0
  40
 7.0000000000000
   0
CIRCLE
   5
52A
 100
AcDbEntity
   8
LEVEL001
 370
13
 100
AcDbCircle
   6
CONTINUOUS
  62
3
  10
 4560.0552780132
  20
 4779.7597298888
  30
0.0
  40
 7.0000000000000
   0
CIRCLE
   5
52B
 100
AcDbEntity
   8
LEVEL001
 370
13
 100
AcDbCircle
   6
CONTINUOUS
  62
1
  10
 4110.0552780132
  20
 4429.7597298888
  30
0.0
  40
 69.999997913838
   0
MTEXT
   5
52C
 100
AcDbEntity
   8
LEVEL001
 370
13
  62
1
 100
AcDbMText
  10
 4110.0552780132
  20
 4429.7597298888
  30
0.0
  40
 57.142857142858
  41
0.0
  71
5
  72
1
   1
\T1.000000;2
   7
GMM001
  44
 0.79999984000003
   0
LEADER
   5
52D
 100
AcDbEntity
   8
LEVEL001
 370
13
   6
CONTINUOUS
  62
1
 100
AcDbLeader
   3
GMM001
  73
3
  74
1
  75
0
  40
 66.000000000000
  41
0.0
  76
2
  10
 4282.9553239360
  20
 4605.2348892698
  30
0.0
  10
 4160.0552780132
  20
 4478.7495217636
  30
0.0
  77
1
   0
MTEXT
   5
52E
 100
AcDbEntity
   8
LEVEL001
 370
13
  62
1
 100
AcDbMText
  10
 4510.0552780132
  20
 5529.7597298888
  30
0.0
  40
 57.142857142858
  41
0.0
  71
5
  72
1
   1
\T1.000000;背　面　図
   7
GMM001
  44
 0.79999984000003
   0
MTEXT
   5
52F
 100
AcDbEntity
   8
LEVEL001
 370
13
  62
1
 100
AcDbMText
  10
 1860.0552780132
  20
 2718.6883013174
  30
0.0
  40
 42.857142857142
  41
0.0
  71
1
  72
1
   1
{\T1.000000;支柱}\P%%c{\T1.000000;７６}{\T1.000000;.}{\T1.000000;３×３}{\T1.000000;.}{\T1.000000;２ｔ}\P{\T1.000000;×３６００Ｌ}
   7
GMM001
  44
 0.79999984000003
   0
DIMENSION
   5
530
 100
AcDbEntity
   8
0
 370
13
   6
CONTINUOUS
  62
1
 100
AcDbDimension
   2
*D35
  10
 760.05527801325
  20
 1897.2597298888
  30
0.0
  11
 760.05527801325
  21
 3147.2597298888
  31
0.0
  70
0
   1
\A1;2500(標準設置高さ)
   3
GMM003
 100
AcDbAlignedDimension
  13
 1471.9052780132
  23
 4397.2597298888
  33
0.0
  14
 1010.0552780132
  24
 1897.2597298888
  34
0.0
  50
 270.00000000000
 100
AcDbRotatedDimension
   0
DIMENSION
   5
531
 100
AcDbEntity
   8
0
 370
13
   6
CONTINUOUS
  62
1
 100
AcDbDimension
   2
*D36
  10
 760.05527801325
  20
 1897.2597298888
  30
0.0
  11
 760.05527801325
  21
 1497.2597298888
  31
0.0
  70
0
   3
GMM004
 100
AcDbAlignedDimension
  13
 1260.0552780132
  23
 1097.2597298888
  33
0.0
  14
 1010.0552780132
  24
 1897.2597298888
  34
0.0
  50
 90.000000000000
 100
AcDbRotatedDimension
   0
DIMENSION
   5
532
 100
AcDbEntity
   8
0
 370
13
   6
CONTINUOUS
  62
1
 100
AcDbDimension
   2
*D37
  10
 760.05527801325
  20
 1097.2597298888
  30
0.0
  11
 760.05527801325
  21
 1047.2597298888
  31
0.0
  70
0
   3
GMM004
 100
AcDbAlignedDimension
  13
 1260.0552780132
  23
 997.25972988877
  33
0.0
  14
 1260.0552780132
  24
 1097.2597298888
  34
0.0
  50
 90.000000000000
 100
AcDbRotatedDimension
   0
DIMENSION
   5
533
 100
AcDbEntity
   8
0
 370
13
   6
CONTINUOUS
  62
1
 100
AcDbDimension
   2
*D38
  10
 760.05527801325
  20
 1897.2597298888
  30
0.0
  11
 760.05527801325
  21
 1497.2597298888
  31
0.0
  70
0
   3
GMM004
 100
AcDbAlignedDimension
  13
 1260.0552780132
  23
 1097.2597298888
  33
0.0
  14
 1010.0552780132
  24
 1897.2597298888
  34
0.0
  50
 90.000000000000
 100
AcDbRotatedDimension
   0
DIMENSION
   5
534
 100
AcDbEntity
   8
0
 370
13
   6
CONTINUOUS
  62
1
 100
AcDbDimension
   2
*D39
  10
 1760.0552780132
  20
 797.25972988877
  30
0.0
  11
 1510.0552780132
  21
 797.25972988877
  31
0.0
  70
0
   3
GMM005
 100
AcDbAlignedDimension
  13
 1260.0552780132
  23
 997.25972988877
  33
0.0
  14
 1760.0552780132
  24
 997.25972988877
  34
0.0
 100
AcDbRotatedDimension
   0
DIMENSION
   5
535
 100
AcDbEntity
   8
0
 370
13
   6
CONTINUOUS
  62
1
 100
AcDbDimension
   2
*D40
  10
 2760.0552780132
  20
 797.25972988877
  30
0.0
  11
 3010.0552780132
  21
 797.25972988877
  31
0.0
  70
0
   3
GMM005
 100
AcDbAlignedDimension
  13
 3260.0552780132
  23
 997.25972988877
  33
0.0
  14
 2760.0552780132
  24
 997.25972988877
  34
0.0
  50
 180.00000000000
 100
AcDbRotatedDimension
   0
LINE
   5
536
 100
AcDbEntity
   8
LEVEL001
 370
13
 100
AcDbLine
   6
CONTINUOUS
  62
5
  10
 1820.7354728600
  20
 1897.2597298888
  30
0.0
  11
 1768.2354728600
  21
 1844.7597298888
  31
0.0
   0
LINE
   5
537
 100
AcDbEntity
   8
LEVEL001
 370
13
 100
AcDbLine
   6
CONTINUOUS
  62
5
  10
 1784.1453754360
  20
 1844.7597298888
  30
0.0
  11
 1836.6453754360
  21
 1897.2597298888
  31
0.0
   0
LINE
   5
538
 100
AcDbEntity
   8
LEVEL001
 370
13
 100
AcDbLine
   6
CONTINUOUS
  62
5
  10
 1852.5552780136
  20
 1897.2597298888
  30
0.0
  11
 1800.0552780136
  21
 1844.7597298888
  31
0.0
   0
LINE
   5
539
 100
AcDbEntity
   8
LEVEL001
 370
13
 100
AcDbLine
   6
CONTINUOUS
  62
5
  10
 1815.9651805896
  20
 1844.7597298888
  30
0.0
  11
 1868.4651805896
  21
 1897.2597298888
  31
0.0
   0
LINE
   5
53A
 100
AcDbEntity
   8
LEVEL001
 370
13
 100
AcDbLine
   6
CONTINUOUS
  62
5
  10
 1873.2354728602
  20
 1844.7597298888
  30
0.0
  11
 1844.6003267249
  21
 1873.3948760241
  31
0.0
   0
LINE
   5
53B
 100
AcDbEntity
   8
LEVEL001
 370
13
 100
AcDbLine
   6
CONTINUOUS
  62
5
  10
 1852.5552780131
  20
 1881.3498273123
  30
0.0
  11
 1889.1453754367
  21
 1844.7597298888
  31
0.0
   0
LINE
   5
53C
 100
AcDbEntity
   8
LEVEL001
 370
13
 100
AcDbLine
   6
CONTINUOUS
  62
5
  10
 1905.0552780131
  20
 1844.7597298888
  30
0.0
  11
 1860.5102293014
  21
 1889.3047786005
  31
0.0
   0
LINE
   5
53D
 100
AcDbEntity
   8
LEVEL001
 370
13
 100
AcDbLine
   6
CONTINUOUS
  62
5
  10
 1868.4651805896
  20
 1897.2597298888
  30
0.0
  11
 1920.9651805898
  21
 1844.7597298888
  31
0.0
   0
LINE
   5
53E
 100
AcDbEntity
   8
LEVEL001
 370
13
 100
AcDbLine
   6
CONTINUOUS
  62
5
  10
 1920.9651805898
  20
 1844.7597298888
  30
0.0
  11
 1973.4651805898
  21
 1897.2597298888
  31
0.0
   0
LINE
   5
53F
 100
AcDbEntity
   8
LEVEL001
 370
13
 100
AcDbLine
   6
CONTINUOUS
  62
5
  10
 1925.7354728601
  20
 1897.2597298888
  30
0.0
  11
 1897.1003267249
  21
 1868.6245837536
  31
0.0
   0
LINE
   5
540
 100
AcDbEntity
   8
LEVEL001
 370
13
 100
AcDbLine
   6
CONTINUOUS
  62
5
  10
 1905.0552780130
  20
 1860.6696324656
  30
0.0
  11
 1941.6453754363
  21
 1897.2597298888
  31
0.0
   0
LINE
   5
541
 100
AcDbEntity
   8
LEVEL001
 370
13
 100
AcDbLine
   6
CONTINUOUS
  62
5
  10
 1957.5552780138
  20
 1897.2597298888
  30
0.0
  11
 1913.0102293018
  21
 1852.7146811768
  31
0.0
   0
LINE
   5
542
 100
AcDbEntity
   8
LEVEL001
 370
13
 100
AcDbLine
   6
CONTINUOUS
  62
5
  10
 1978.2354728605
  20
 1844.7597298888
  30
0.0
  11
 1949.6003267251
  21
 1873.3948760241
  31
0.0
   0
LINE
   5
543
 100
AcDbEntity
   8
LEVEL001
 370
13
 100
AcDbLine
   6
CONTINUOUS
  62
5
  10
 1957.5552780132
  20
 1881.3498273123
  30
0.0
  11
 1994.1453754369
  21
 1844.7597298888
  31
0.0
   0
LINE
   5
544
 100
AcDbEntity
   8
LEVEL001
 370
13
 100
AcDbLine
   6
CONTINUOUS
  62
5
  10
 2010.0552780132
  20
 1844.7597298888
  30
0.0
  11
 1965.5102293014
  21
 1889.3047786005
  31
0.0
   0
LINE
   5
545
 100
AcDbEntity
   8
LEVEL001
 370
13
 100
AcDbLine
   6
CONTINUOUS
  62
5
  10
 1973.4651805898
  20
 1897.2597298888
  30
0.0
  11
 2010.0552780132
  21
 1860.6696324654
  31
0.0
   0
LINE
   5
546
 100
AcDbEntity
   8
LEVEL001
 370
13
 100
AcDbLine
   6
CONTINUOUS
  62
5
  10
 1548.2052780132
  20
 1897.2597298888
  30
0.0
  11
 2010.0552780132
  21
 1897.2597298888
  31
0.0
   0
LINE
   5
547
 100
AcDbEntity
   8
LEVEL001
 370
13
 100
AcDbLine
   6
CONTINUOUS
  62
5
  10
 1760.0552780132
  20
 1097.2597298888
  30
0.0
  11
 1710.0552780132
  21
 997.25972988877
  31
0.0
   0
LINE
   5
548
 100
AcDbEntity
   8
LEVEL001
 370
13
 100
AcDbLine
   6
CONTINUOUS
  62
5
  10
 1710.0552780132
  20
 1097.2597298888
  30
0.0
  11
 1750.0552780132
  21
 1077.2597298888
  31
0.0
   0
LINE
   5
549
 100
AcDbEntity
   8
LEVEL001
 370
13
 100
AcDbLine
   6
CONTINUOUS
  62
5
  10
 1710.0552780132
  20
 1097.2597298888
  30
0.0
  11
 1660.0552780132
  21
 997.25972988877
  31
0.0
   0
LINE
   5
54A
 100
AcDbEntity
   8
LEVEL001
 370
13
 100
AcDbLine
   6
CONTINUOUS
  62
5
  10
 1660.0552780132
  20
 1097.2597298888
  30
0.0
  11
 1700.0552780132
  21
 1077.2597298888
  31
0.0
   0
LINE
   5
54B
 100
AcDbEntity
   8
LEVEL001
 370
13
 100
AcDbLine
   6
CONTINUOUS
  62
5
  10
 1660.0552780132
  20
 1097.2597298888
  30
0.0
  11
 1610.0552780132
  21
 997.25972988877
  31
0.0
   0
LINE
   5
54C
 100
AcDbEntity
   8
LEVEL001
 370
13
 100
AcDbLine
   6
CONTINUOUS
  62
5
  10
 1610.0552780132
  20
 1097.2597298888
  30
0.0
  11
 1650.0552780132
  21
 1077.2597298888
  31
0.0
   0
LINE
   5
54D
 100
AcDbEntity
   8
LEVEL001
 370
13
 100
AcDbLine
   6
CONTINUOUS
  62
5
  10
 1760.0552780132
  20
 997.25972988877
  30
0.0
  11
 1720.0552780132
  21
 1017.2597298888
  31
0.0
   0
LINE
   5
54E
 100
AcDbEntity
   8
LEVEL001
 370
13
 100
AcDbLine
   6
CONTINUOUS
  62
5
  10
 1710.0552780132
  20
 997.25972988877
  30
0.0
  11
 1670.0552780132
  21
 1017.2597298888
  31
0.0
   0
LINE
   5
54F
 100
AcDbEntity
   8
LEVEL001
 370
13
 100
AcDbLine
   6
CONTINUOUS
  62
5
  10
 1660.0552780132
  20
 997.25972988877
  30
0.0
  11
 1620.0552780132
  21
 1017.2597298888
  31
0.0
   0
LINE
   5
550
 100
AcDbEntity
   8
LEVEL001
 370
13
 100
AcDbLine
   6
CONTINUOUS
  62
5
  10
 1760.0552780132
  20
 1097.2597298888
  30
0.0
  11
 1260.0552780132
  21
 1097.2597298888
  31
0.0
   0
LINE
   5
551
 100
AcDbEntity
   8
LEVEL001
 370
13
 100
AcDbLine
   6
CONTINUOUS
  62
5
  10
 1260.0552780132
  20
 997.25972988877
  30
0.0
  11
 1760.0552780132
  21
 997.25972988877
  31
0.0
   0
LINE
   5
552
 100
AcDbEntity
   8
LEVEL001
 370
13
 100
AcDbLine
   6
CONTINUOUS
  62
5
  10
 1760.0552780132
  20
 997.25972988877
  30
0.0
  11
 1760.0552780132
  21
 1097.2597298888
  31
0.0
   0
LINE
   5
553
 100
AcDbEntity
   8
LEVEL001
 370
13
 100
AcDbLine
   6
CONTINUOUS
  62
5
  10
 1260.0552780132
  20
 1097.2597298888
  30
0.0
  11
 1760.0552780132
  21
 1097.2597298888
  31
0.0
   0
LINE
   5
554
 100
AcDbEntity
   8
LEVEL001
 370
13
 100
AcDbLine
   6
CONTINUOUS
  62
5
  10
 1760.0552780132
  20
 1097.2597298888
  30
0.0
  11
 1760.0552780132
  21
 1897.2597298888
  31
0.0
   0
LINE
   5
555
 100
AcDbEntity
   8
LEVEL001
 370
13
 100
AcDbLine
   6
CONTINUOUS
  62
5
  10
 1760.0552780132
  20
 1744.4650689481
  30
0.0
  11
 1548.2052780132
  21
 1532.6150689481
  31
0.0
   0
LINE
   5
556
 100
AcDbEntity
   8
LEVEL001
 370
13
 100
AcDbLine
   6
CONTINUOUS
  62
5
  10
 1548.2052780132
  20
 1497.2597298888
  30
0.0
  11
 1760.0552780132
  21
 1709.1097298888
  31
0.0
   0
LINE
   5
557
 100
AcDbEntity
   8
LEVEL001
 370
13
 100
AcDbLine
   6
CONTINUOUS
  62
5
  10
 1760.0552780132
  20
 1673.7543908294
  30
0.0
  11
 1548.2052780132
  21
 1461.9043908294
  31
0.0
   0
LINE
   5
558
 100
AcDbEntity
   8
LEVEL001
 370
13
 100
AcDbLine
   6
CONTINUOUS
  62
5
  10
 1410.0552780132
  20
 1097.2597298888
  30
0.0
  11
 1360.0552780132
  21
 997.25972988877
  31
0.0
   0
LINE
   5
559
 100
AcDbEntity
   8
LEVEL001
 370
13
 100
AcDbLine
   6
CONTINUOUS
  62
5
  10
 1360.0552780132
  20
 1097.2597298888
  30
0.0
  11
 1400.0552780132
  21
 1077.2597298888
  31
0.0
   0
LINE
   5
55A
 100
AcDbEntity
   8
LEVEL001
 370
13
 100
AcDbLine
   6
CONTINUOUS
  62
5
  10
 1360.0552780132
  20
 1097.2597298888
  30
0.0
  11
 1310.0552780132
  21
 997.25972988877
  31
0.0
   0
LINE
   5
55B
 100
AcDbEntity
   8
LEVEL001
 370
13
 100
AcDbLine
   6
CONTINUOUS
  62
5
  10
 1310.0552780132
  20
 1097.2597298888
  30
0.0
  11
 1350.0552780132
  21
 1077.2597298888
  31
0.0
   0
LINE
   5
55C
 100
AcDbEntity
   8
LEVEL001
 370
13
 100
AcDbLine
   6
CONTINUOUS
  62
5
  10
 1310.0552780132
  20
 1097.2597298888
  30
0.0
  11
 1260.0552780132
  21
 997.25972988877
  31
0.0
   0
LINE
   5
55D
 100
AcDbEntity
   8
LEVEL001
 370
13
 100
AcDbLine
   6
CONTINUOUS
  62
5
  10
 1260.0552780132
  20
 1097.2597298888
  30
0.0
  11
 1300.0552780132
  21
 1077.2597298888
  31
0.0
   0
LINE
   5
55E
 100
AcDbEntity
   8
LEVEL001
 370
13
 100
AcDbLine
   6
CONTINUOUS
  62
5
  10
 1410.0552780132
  20
 997.25972988877
  30
0.0
  11
 1370.0552780132
  21
 1017.2597298888
  31
0.0
   0
LINE
   5
55F
 100
AcDbEntity
   8
LEVEL001
 370
13
 100
AcDbLine
   6
CONTINUOUS
  62
5
  10
 1360.0552780132
  20
 997.25972988877
  30
0.0
  11
 1320.0552780132
  21
 1017.2597298888
  31
0.0
   0
LINE
   5
560
 100
AcDbEntity
   8
LEVEL001
 370
13
 100
AcDbLine
   6
CONTINUOUS
  62
5
  10
 1310.0552780132
  20
 997.25972988877
  30
0.0
  11
 1270.0552780132
  21
 1017.2597298888
  31
0.0
   0
LINE
   5
561
 100
AcDbEntity
   8
LEVEL001
 370
13
 100
AcDbLine
   6
CONTINUOUS
  62
5
  10
 1260.0552780132
  20
 1209.1097298888
  30
0.0
  11
 1471.9052780133
  21
 1420.9597298888
  31
0.0
   0
LINE
   5
562
 100
AcDbEntity
   8
LEVEL001
 370
13
 100
AcDbLine
   6
CONTINUOUS
  62
5
  10
 1471.9052780133
  20
 1385.6043908294
  30
0.0
  11
 1260.0552780132
  21
 1173.7543908294
  31
0.0
   0
LINE
   5
563
 100
AcDbEntity
   8
LEVEL001
 370
13
 100
AcDbLine
   6
CONTINUOUS
  62
5
  10
 1471.9052780133
  20
 1456.3150689481
  30
0.0
  11
 1260.0552780132
  21
 1244.4650689481
  31
0.0
   0
LINE
   5
564
 100
AcDbEntity
   8
LEVEL001
 370
13
 100
AcDbLine
   6
CONTINUOUS
  62
5
  10
 1170.9651805898
  20
 1844.7597298888
  30
0.0
  11
 1223.4651805898
  21
 1897.2597298888
  31
0.0
   0
LINE
   5
565
 100
AcDbEntity
   8
LEVEL001
 370
13
 100
AcDbLine
   6
CONTINUOUS
  62
5
  10
 1155.0552780130
  20
 1860.6696324656
  30
0.0
  11
 1191.6453754361
  21
 1897.2597298888
  31
0.0
   0
LINE
   5
566
 100
AcDbEntity
   8
LEVEL001
 370
13
 100
AcDbLine
   6
CONTINUOUS
  62
5
  10
 1207.5552780138
  20
 1897.2597298888
  30
0.0
  11
 1163.0102293018
  21
 1852.7146811768
  31
0.0
   0
LINE
   5
567
 100
AcDbEntity
   8
LEVEL001
 370
13
 100
AcDbLine
   6
CONTINUOUS
  62
5
  10
 1228.2354728604
  20
 1844.7597298888
  30
0.0
  11
 1199.6003267251
  21
 1873.3948760241
  31
0.0
   0
LINE
   5
568
 100
AcDbEntity
   8
LEVEL001
 370
13
 100
AcDbLine
   6
CONTINUOUS
  62
5
  10
 1207.5552780133
  20
 1881.3498273123
  30
0.0
  11
 1244.1453754368
  21
 1844.7597298888
  31
0.0
   0
LINE
   5
569
 100
AcDbEntity
   8
LEVEL001
 370
13
 100
AcDbLine
   6
CONTINUOUS
  62
5
  10
 1260.0552780132
  20
 1844.7597298888
  30
0.0
  11
 1215.5102293015
  21
 1889.3047786005
  31
0.0
   0
LINE
   5
56A
 100
AcDbEntity
   8
LEVEL001
 370
13
 100
AcDbLine
   6
CONTINUOUS
  62
5
  10
 1070.7354728600
  20
 1897.2597298888
  30
0.0
  11
 1018.2354728600
  21
 1844.7597298888
  31
0.0
   0
LINE
   5
56B
 100
AcDbEntity
   8
LEVEL001
 370
13
 100
AcDbLine
   6
CONTINUOUS
  62
5
  10
 1034.1453754360
  20
 1844.7597298888
  30
0.0
  11
 1086.6453754360
  21
 1897.2597298888
  31
0.0
   0
LINE
   5
56C
 100
AcDbEntity
   8
LEVEL001
 370
13
 100
AcDbLine
   6
CONTINUOUS
  62
5
  10
 1102.5552780136
  20
 1897.2597298888
  30
0.0
  11
 1050.0552780136
  21
 1844.7597298888
  31
0.0
   0
LINE
   5
56D
 100
AcDbEntity
   8
LEVEL001
 370
13
 100
AcDbLine
   6
CONTINUOUS
  62
5
  10
 1065.9651805896
  20
 1844.7597298888
  30
0.0
  11
 1118.4651805896
  21
 1897.2597298888
  31
0.0
   0
LINE
   5
56E
 100
AcDbEntity
   8
LEVEL001
 370
13
 100
AcDbLine
   6
CONTINUOUS
  62
5
  10
 1123.2354728602
  20
 1844.7597298888
  30
0.0
  11
 1094.6003267249
  21
 1873.3948760241
  31
0.0
   0
LINE
   5
56F
 100
AcDbEntity
   8
LEVEL001
 370
13
 100
AcDbLine
   6
CONTINUOUS
  62
5
  10
 1102.5552780131
  20
 1881.3498273123
  30
0.0
  11
 1139.1453754367
  21
 1844.7597298888
  31
0.0
   0
LINE
   5
570
 100
AcDbEntity
   8
LEVEL001
 370
13
 100
AcDbLine
   6
CONTINUOUS
  62
5
  10
 1155.0552780131
  20
 1844.7597298888
  30
0.0
  11
 1110.5102293014
  21
 1889.3047786005
  31
0.0
   0
LINE
   5
571
 100
AcDbEntity
   8
LEVEL001
 370
13
 100
AcDbLine
   6
CONTINUOUS
  62
5
  10
 1118.4651805896
  20
 1897.2597298888
  30
0.0
  11
 1170.9651805898
  21
 1844.7597298888
  31
0.0
   0
LINE
   5
572
 100
AcDbEntity
   8
LEVEL001
 370
13
 100
AcDbLine
   6
CONTINUOUS
  62
5
  10
 1175.7354728601
  20
 1897.2597298888
  30
0.0
  11
 1147.1003267249
  21
 1868.6245837536
  31
0.0
   0
LINE
   5
573
 100
AcDbEntity
   8
LEVEL001
 370
13
 100
AcDbLine
   6
CONTINUOUS
  62
5
  10
 1223.4651805898
  20
 1897.2597298888
  30
0.0
  11
 1260.0552780132
  21
 1860.6696324654
  31
0.0
   0
LINE
   5
574
 100
AcDbEntity
   8
LEVEL001
 370
13
 100
AcDbLine
   6
CONTINUOUS
  62
5
  10
 1260.0552780132
  20
 1897.2597298888
  30
0.0
  11
 1260.0552780132
  21
 1097.2597298888
  31
0.0
   0
LINE
   5
575
 100
AcDbEntity
   8
LEVEL001
 370
13
 100
AcDbLine
   6
CONTINUOUS
  62
5
  10
 1471.9052780133
  20
 1897.2597298888
  30
0.0
  11
 1010.0552780132
  21
 1897.2597298888
  31
0.0
   0
LINE
   5
576
 100
AcDbEntity
   8
LEVEL001
 370
13
 100
AcDbLine
   6
CONTINUOUS
  62
5
  10
 1260.0552780132
  20
 1097.2597298888
  30
0.0
  11
 1260.0552780132
  21
 997.25972988877
  31
0.0
   0
LINE
   5
577
 100
AcDbEntity
   8
LEVEL001
 370
13
 100
AcDbLine
   6
CONTINUOUS
  62
5
  10
 2670.9651805898
  20
 1844.7597298888
  30
0.0
  11
 2723.4651805898
  21
 1897.2597298888
  31
0.0
   0
LINE
   5
578
 100
AcDbEntity
   8
LEVEL001
 370
13
 100
AcDbLine
   6
CONTINUOUS
  62
5
  10
 2655.0552780130
  20
 1860.6696324656
  30
0.0
  11
 2691.6453754363
  21
 1897.2597298888
  31
0.0
   0
LINE
   5
579
 100
AcDbEntity
   8
LEVEL001
 370
13
 100
AcDbLine
   6
CONTINUOUS
  62
5
  10
 2707.5552780139
  20
 1897.2597298888
  30
0.0
  11
 2663.0102293018
  21
 1852.7146811768
  31
0.0
   0
LINE
   5
57A
 100
AcDbEntity
   8
LEVEL001
 370
13
 100
AcDbLine
   6
CONTINUOUS
  62
5
  10
 2728.2354728605
  20
 1844.7597298888
  30
0.0
  11
 2699.6003267251
  21
 1873.3948760241
  31
0.0
   0
LINE
   5
57B
 100
AcDbEntity
   8
LEVEL001
 370
13
 100
AcDbLine
   6
CONTINUOUS
  62
5
  10
 2707.5552780132
  20
 1881.3498273123
  30
0.0
  11
 2744.1453754369
  21
 1844.7597298888
  31
0.0
   0
LINE
   5
57C
 100
AcDbEntity
   8
LEVEL001
 370
13
 100
AcDbLine
   6
CONTINUOUS
  62
5
  10
 2760.0552780132
  20
 1844.7597298888
  30
0.0
  11
 2715.5102293014
  21
 1889.3047786005
  31
0.0
   0
LINE
   5
57D
 100
AcDbEntity
   8
LEVEL001
 370
13
 100
AcDbLine
   6
CONTINUOUS
  62
5
  10
 2570.7354728599
  20
 1897.2597298888
  30
0.0
  11
 2518.2354728599
  21
 1844.7597298888
  31
0.0
   0
LINE
   5
57E
 100
AcDbEntity
   8
LEVEL001
 370
13
 100
AcDbLine
   6
CONTINUOUS
  62
5
  10
 2534.1453754361
  20
 1844.7597298888
  30
0.0
  11
 2586.6453754361
  21
 1897.2597298888
  31
0.0
   0
LINE
   5
57F
 100
AcDbEntity
   8
LEVEL001
 370
13
 100
AcDbLine
   6
CONTINUOUS
  62
5
  10
 2602.5552780137
  20
 1897.2597298888
  30
0.0
  11
 2550.0552780137
  21
 1844.7597298888
  31
0.0
   0
LINE
   5
580
 100
AcDbEntity
   8
LEVEL001
 370
13
 100
AcDbLine
   6
CONTINUOUS
  62
5
  10
 2565.9651805897
  20
 1844.7597298888
  30
0.0
  11
 2618.4651805897
  21
 1897.2597298888
  31
0.0
   0
LINE
   5
581
 100
AcDbEntity
   8
LEVEL001
 370
13
 100
AcDbLine
   6
CONTINUOUS
  62
5
  10
 2623.2354728602
  20
 1844.7597298888
  30
0.0
  11
 2594.6003267248
  21
 1873.3948760241
  31
0.0
   0
LINE
   5
582
 100
AcDbEntity
   8
LEVEL001
 370
13
 100
AcDbLine
   6
CONTINUOUS
  62
5
  10
 2602.5552780131
  20
 1881.3498273123
  30
0.0
  11
 2639.1453754367
  21
 1844.7597298888
  31
0.0
   0
LINE
   5
583
 100
AcDbEntity
   8
LEVEL001
 370
13
 100
AcDbLine
   6
CONTINUOUS
  62
5
  10
 2655.0552780130
  20
 1844.7597298888
  30
0.0
  11
 2610.5102293013
  21
 1889.3047786005
  31
0.0
   0
LINE
   5
584
 100
AcDbEntity
   8
LEVEL001
 370
13
 100
AcDbLine
   6
CONTINUOUS
  62
5
  10
 2618.4651805897
  20
 1897.2597298888
  30
0.0
  11
 2670.9651805898
  21
 1844.7597298888
  31
0.0
   0
LINE
   5
585
 100
AcDbEntity
   8
LEVEL001
 370
13
 100
AcDbLine
   6
CONTINUOUS
  62
5
  10
 2675.7354728601
  20
 1897.2597298888
  30
0.0
  11
 2647.1003267248
  21
 1868.6245837536
  31
0.0
   0
LINE
   5
586
 100
AcDbEntity
   8
LEVEL001
 370
13
 100
AcDbLine
   6
CONTINUOUS
  62
5
  10
 2723.4651805898
  20
 1897.2597298888
  30
0.0
  11
 2760.0552780132
  21
 1860.6696324654
  31
0.0
   0
LINE
   5
587
 100
AcDbEntity
   8
LEVEL001
 370
13
 100
AcDbLine
   6
CONTINUOUS
  62
5
  10
 2760.0552780132
  20
 1897.2597298888
  30
0.0
  11
 2760.0552780132
  21
 1097.2597298888
  31
0.0
   0
LINE
   5
588
 100
AcDbEntity
   8
LEVEL001
 370
13
 100
AcDbLine
   6
CONTINUOUS
  62
5
  10
 2971.9052780133
  20
 1897.2597298888
  30
0.0
  11
 2510.0552780132
  21
 1897.2597298888
  31
0.0
   0
LINE
   5
589
 100
AcDbEntity
   8
LEVEL001
 370
13
 100
AcDbLine
   6
CONTINUOUS
  62
5
  10
 2910.0552780132
  20
 1097.2597298888
  30
0.0
  11
 2860.0552780132
  21
 997.25972988877
  31
0.0
   0
LINE
   5
58A
 100
AcDbEntity
   8
LEVEL001
 370
13
 100
AcDbLine
   6
CONTINUOUS
  62
5
  10
 2860.0552780132
  20
 1097.2597298888
  30
0.0
  11
 2900.0552780132
  21
 1077.2597298888
  31
0.0
   0
LINE
   5
58B
 100
AcDbEntity
   8
LEVEL001
 370
13
 100
AcDbLine
   6
CONTINUOUS
  62
5
  10
 2860.0552780132
  20
 1097.2597298888
  30
0.0
  11
 2810.0552780132
  21
 997.25972988877
  31
0.0
   0
LINE
   5
58C
 100
AcDbEntity
   8
LEVEL001
 370
13
 100
AcDbLine
   6
CONTINUOUS
  62
5
  10
 2810.0552780132
  20
 1097.2597298888
  30
0.0
  11
 2850.0552780132
  21
 1077.2597298888
  31
0.0
   0
LINE
   5
58D
 100
AcDbEntity
   8
LEVEL001
 370
13
 100
AcDbLine
   6
CONTINUOUS
  62
5
  10
 2810.0552780132
  20
 1097.2597298888
  30
0.0
  11
 2760.0552780132
  21
 997.25972988877
  31
0.0
   0
LINE
   5
58E
 100
AcDbEntity
   8
LEVEL001
 370
13
 100
AcDbLine
   6
CONTINUOUS
  62
5
  10
 2760.0552780132
  20
 1097.2597298888
  30
0.0
  11
 2800.0552780132
  21
 1077.2597298888
  31
0.0
   0
LINE
   5
58F
 100
AcDbEntity
   8
LEVEL001
 370
13
 100
AcDbLine
   6
CONTINUOUS
  62
5
  10
 2910.0552780132
  20
 997.25972988877
  30
0.0
  11
 2870.0552780132
  21
 1017.2597298888
  31
0.0
   0
LINE
   5
590
 100
AcDbEntity
   8
LEVEL001
 370
13
 100
AcDbLine
   6
CONTINUOUS
  62
5
  10
 2860.0552780132
  20
 997.25972988877
  30
0.0
  11
 2820.0552780132
  21
 1017.2597298888
  31
0.0
   0
LINE
   5
591
 100
AcDbEntity
   8
LEVEL001
 370
13
 100
AcDbLine
   6
CONTINUOUS
  62
5
  10
 2810.0552780132
  20
 997.25972988877
  30
0.0
  11
 2770.0552780132
  21
 1017.2597298888
  31
0.0
   0
LINE
   5
592
 100
AcDbEntity
   8
LEVEL001
 370
13
 100
AcDbLine
   6
CONTINUOUS
  62
5
  10
 3260.0552780132
  20
 1097.2597298888
  30
0.0
  11
 2760.0552780132
  21
 1097.2597298888
  31
0.0
   0
LINE
   5
593
 100
AcDbEntity
   8
LEVEL001
 370
13
 100
AcDbLine
   6
CONTINUOUS
  62
5
  10
 2760.0552780132
  20
 1097.2597298888
  30
0.0
  11
 2760.0552780132
  21
 997.25972988877
  31
0.0
   0
LINE
   5
594
 100
AcDbEntity
   8
LEVEL001
 370
13
 100
AcDbLine
   6
CONTINUOUS
  62
5
  10
 2760.0552780132
  20
 997.25972988877
  30
0.0
  11
 3260.0552780132
  21
 997.25972988877
  31
0.0
   0
LINE
   5
595
 100
AcDbEntity
   8
LEVEL001
 370
13
 100
AcDbLine
   6
CONTINUOUS
  62
5
  10
 2760.0552780132
  20
 1097.2597298888
  30
0.0
  11
 3260.0552780132
  21
 1097.2597298888
  31
0.0
   0
LINE
   5
596
 100
AcDbEntity
   8
LEVEL001
 370
13
 100
AcDbLine
   6
CONTINUOUS
  62
5
  10
 2760.0552780132
  20
 1209.1097298888
  30
0.0
  11
 2971.9052780133
  21
 1420.9597298888
  31
0.0
   0
LINE
   5
597
 100
AcDbEntity
   8
LEVEL001
 370
13
 100
AcDbLine
   6
CONTINUOUS
  62
5
  10
 2971.9052780133
  20
 1385.6043908294
  30
0.0
  11
 2760.0552780132
  21
 1173.7543908294
  31
0.0
   0
LINE
   5
598
 100
AcDbEntity
   8
LEVEL001
 370
13
 100
AcDbLine
   6
CONTINUOUS
  62
5
  10
 2971.9052780133
  20
 1456.3150689481
  30
0.0
  11
 2760.0552780132
  21
 1244.4650689481
  31
0.0
   0
LINE
   5
599
 100
AcDbEntity
   8
LEVEL001
 370
13
 100
AcDbLine
   6
CONTINUOUS
  62
5
  10
 3260.0552780132
  20
 1097.2597298888
  30
0.0
  11
 3210.0552780132
  21
 997.25972988877
  31
0.0
   0
LINE
   5
59A
 100
AcDbEntity
   8
LEVEL001
 370
13
 100
AcDbLine
   6
CONTINUOUS
  62
5
  10
 3210.0552780132
  20
 1097.2597298888
  30
0.0
  11
 3250.0552780132
  21
 1077.2597298888
  31
0.0
   0
LINE
   5
59B
 100
AcDbEntity
   8
LEVEL001
 370
13
 100
AcDbLine
   6
CONTINUOUS
  62
5
  10
 3210.0552780132
  20
 1097.2597298888
  30
0.0
  11
 3160.0552780132
  21
 997.25972988877
  31
0.0
   0
LINE
   5
59C
 100
AcDbEntity
   8
LEVEL001
 370
13
 100
AcDbLine
   6
CONTINUOUS
  62
5
  10
 3160.0552780132
  20
 1097.2597298888
  30
0.0
  11
 3200.0552780132
  21
 1077.2597298888
  31
0.0
   0
LINE
   5
59D
 100
AcDbEntity
   8
LEVEL001
 370
13
 100
AcDbLine
   6
CONTINUOUS
  62
5
  10
 3160.0552780132
  20
 1097.2597298888
  30
0.0
  11
 3110.0552780132
  21
 997.25972988877
  31
0.0
   0
LINE
   5
59E
 100
AcDbEntity
   8
LEVEL001
 370
13
 100
AcDbLine
   6
CONTINUOUS
  62
5
  10
 3110.0552780132
  20
 1097.2597298888
  30
0.0
  11
 3150.0552780132
  21
 1077.2597298888
  31
0.0
   0
LINE
   5
59F
 100
AcDbEntity
   8
LEVEL001
 370
13
 100
AcDbLine
   6
CONTINUOUS
  62
5
  10
 3260.0552780132
  20
 997.25972988877
  30
0.0
  11
 3220.0552780132
  21
 1017.2597298888
  31
0.0
   0
LINE
   5
5A0
 100
AcDbEntity
   8
LEVEL001
 370
13
 100
AcDbLine
   6
CONTINUOUS
  62
5
  10
 3210.0552780132
  20
 997.25972988877
  30
0.0
  11
 3170.0552780132
  21
 1017.2597298888
  31
0.0
   0
LINE
   5
5A1
 100
AcDbEntity
   8
LEVEL001
 370
13
 100
AcDbLine
   6
CONTINUOUS
  62
5
  10
 3160.0552780132
  20
 997.25972988877
  30
0.0
  11
 3120.0552780132
  21
 1017.2597298888
  31
0.0
   0
LINE
   5
5A2
 100
AcDbEntity
   8
LEVEL001
 370
13
 100
AcDbLine
   6
CONTINUOUS
  62
5
  10
 3260.0552780132
  20
 997.25972988877
  30
0.0
  11
 3260.0552780132
  21
 1097.2597298888
  31
0.0
   0
LINE
   5
5A3
 100
AcDbEntity
   8
LEVEL001
 370
13
 100
AcDbLine
   6
CONTINUOUS
  62
5
  10
 3260.0552780132
  20
 1097.2597298888
  30
0.0
  11
 3260.0552780132
  21
 1897.2597298888
  31
0.0
   0
LINE
   5
5A4
 100
AcDbEntity
   8
LEVEL001
 370
13
 100
AcDbLine
   6
CONTINUOUS
  62
5
  10
 3320.7354728599
  20
 1897.2597298888
  30
0.0
  11
 3268.2354728599
  21
 1844.7597298888
  31
0.0
   0
LINE
   5
5A5
 100
AcDbEntity
   8
LEVEL001
 370
13
 100
AcDbLine
   6
CONTINUOUS
  62
5
  10
 3284.1453754361
  20
 1844.7597298888
  30
0.0
  11
 3336.6453754361
  21
 1897.2597298888
  31
0.0
   0
LINE
   5
5A6
 100
AcDbEntity
   8
LEVEL001
 370
13
 100
AcDbLine
   6
CONTINUOUS
  62
5
  10
 3352.5552780137
  20
 1897.2597298888
  30
0.0
  11
 3300.0552780137
  21
 1844.7597298888
  31
0.0
   0
LINE
   5
5A7
 100
AcDbEntity
   8
LEVEL001
 370
13
 100
AcDbLine
   6
CONTINUOUS
  62
5
  10
 3315.9651805897
  20
 1844.7597298888
  30
0.0
  11
 3368.4651805897
  21
 1897.2597298888
  31
0.0
   0
LINE
   5
5A8
 100
AcDbEntity
   8
LEVEL001
 370
13
 100
AcDbLine
   6
CONTINUOUS
  62
5
  10
 3373.2354728602
  20
 1844.7597298888
  30
0.0
  11
 3344.6003267248
  21
 1873.3948760241
  31
0.0
   0
LINE
   5
5A9
 100
AcDbEntity
   8
LEVEL001
 370
13
 100
AcDbLine
   6
CONTINUOUS
  62
5
  10
 3352.5552780131
  20
 1881.3498273123
  30
0.0
  11
 3389.1453754367
  21
 1844.7597298888
  31
0.0
   0
LINE
   5
5AA
 100
AcDbEntity
   8
LEVEL001
 370
13
 100
AcDbLine
   6
CONTINUOUS
  62
5
  10
 3405.0552780130
  20
 1844.7597298888
  30
0.0
  11
 3360.5102293013
  21
 1889.3047786005
  31
0.0
   0
LINE
   5
5AB
 100
AcDbEntity
   8
LEVEL001
 370
13
 100
AcDbLine
   6
CONTINUOUS
  62
5
  10
 3368.4651805897
  20
 1897.2597298888
  30
0.0
  11
 3420.9651805898
  21
 1844.7597298888
  31
0.0
   0
LINE
   5
5AC
 100
AcDbEntity
   8
LEVEL001
 370
13
 100
AcDbLine
   6
CONTINUOUS
  62
5
  10
 3420.9651805898
  20
 1844.7597298888
  30
0.0
  11
 3473.4651805898
  21
 1897.2597298888
  31
0.0
   0
LINE
   5
5AD
 100
AcDbEntity
   8
LEVEL001
 370
13
 100
AcDbLine
   6
CONTINUOUS
  62
5
  10
 3425.7354728601
  20
 1897.2597298888
  30
0.0
  11
 3397.1003267248
  21
 1868.6245837536
  31
0.0
   0
LINE
   5
5AE
 100
AcDbEntity
   8
LEVEL001
 370
13
 100
AcDbLine
   6
CONTINUOUS
  62
5
  10
 3405.0552780130
  20
 1860.6696324656
  30
0.0
  11
 3441.6453754363
  21
 1897.2597298888
  31
0.0
   0
LINE
   5
5AF
 100
AcDbEntity
   8
LEVEL001
 370
13
 100
AcDbLine
   6
CONTINUOUS
  62
5
  10
 3457.5552780139
  20
 1897.2597298888
  30
0.0
  11
 3413.0102293018
  21
 1852.7146811768
  31
0.0
   0
LINE
   5
5B0
 100
AcDbEntity
   8
LEVEL001
 370
13
 100
AcDbLine
   6
CONTINUOUS
  62
5
  10
 3478.2354728605
  20
 1844.7597298888
  30
0.0
  11
 3449.6003267251
  21
 1873.3948760241
  31
0.0
   0
LINE
   5
5B1
 100
AcDbEntity
   8
LEVEL001
 370
13
 100
AcDbLine
   6
CONTINUOUS
  62
5
  10
 3457.5552780132
  20
 1881.3498273123
  30
0.0
  11
 3494.1453754369
  21
 1844.7597298888
  31
0.0
   0
LINE
   5
5B2
 100
AcDbEntity
   8
LEVEL001
 370
13
 100
AcDbLine
   6
CONTINUOUS
  62
5
  10
 3510.0552780132
  20
 1844.7597298888
  30
0.0
  11
 3465.5102293014
  21
 1889.3047786005
  31
0.0
   0
LINE
   5
5B3
 100
AcDbEntity
   8
LEVEL001
 370
13
 100
AcDbLine
   6
CONTINUOUS
  62
5
  10
 3473.4651805898
  20
 1897.2597298888
  30
0.0
  11
 3510.0552780132
  21
 1860.6696324654
  31
0.0
   0
LINE
   5
5B4
 100
AcDbEntity
   8
LEVEL001
 370
13
 100
AcDbLine
   6
CONTINUOUS
  62
5
  10
 3048.2052780132
  20
 1897.2597298888
  30
0.0
  11
 3510.0552780132
  21
 1897.2597298888
  31
0.0
   0
LINE
   5
5B5
 100
AcDbEntity
   8
LEVEL001
 370
13
 100
AcDbLine
   6
CONTINUOUS
  62
5
  10
 3260.0552780132
  20
 1744.4650689481
  30
0.0
  11
 3048.2052780132
  21
 1532.6150689481
  31
0.0
   0
LINE
   5
5B6
 100
AcDbEntity
   8
LEVEL001
 370
13
 100
AcDbLine
   6
CONTINUOUS
  62
5
  10
 3048.2052780132
  20
 1497.2597298888
  30
0.0
  11
 3260.0552780132
  21
 1709.1097298888
  31
0.0
   0
LINE
   5
5B7
 100
AcDbEntity
   8
LEVEL001
 370
13
 100
AcDbLine
   6
CONTINUOUS
  62
5
  10
 3260.0552780132
  20
 1673.7543908294
  30
0.0
  11
 3048.2052780132
  21
 1461.9043908294
  31
0.0
   0
LINE
   5
5B8
 100
AcDbEntity
   8
LEVEL001
 370
13
 100
AcDbLine
   6
CONTINUOUS
  62
5
  10
 1510.0552780020
  20
 4247.2623272064
  30
0.0
  11
 1455.0552796411
  21
 4177.2623292926
  31
0.0
   0
LINE
   5
5B9
 100
AcDbEntity
   8
LEVEL001
 370
13
 100
AcDbLine
   6
CONTINUOUS
  62
5
  10
 1455.0552796411
  20
 4177.2623292926
  30
0.0
  11
 1485.0552787470
  21
 4177.2623292926
  31
0.0
   0
LINE
   5
5BA
 100
AcDbEntity
   8
LEVEL001
 370
13
 100
AcDbLine
   6
CONTINUOUS
  62
5
  10
 1485.0552787470
  20
 4177.2623292926
  30
0.0
  11
 1485.0552787470
  21
 4147.2623301866
  31
0.0
   0
LINE
   5
5BB
 100
AcDbEntity
   8
LEVEL001
 370
13
 100
AcDbLine
   6
CONTINUOUS
  62
5
  10
 1485.0552787470
  20
 4147.2623301866
  30
0.0
  11
 1535.0552772569
  21
 4147.2623301866
  31
0.0
   0
LINE
   5
5BC
 100
AcDbEntity
   8
LEVEL001
 370
13
 100
AcDbLine
   6
CONTINUOUS
  62
5
  10
 1535.0552772569
  20
 4147.2623301866
  30
0.0
  11
 1535.0552772569
  21
 4177.2623292926
  31
0.0
   0
LINE
   5
5BD
 100
AcDbEntity
   8
LEVEL001
 370
13
 100
AcDbLine
   6
CONTINUOUS
  62
5
  10
 1535.0552772569
  20
 4177.2623292926
  30
0.0
  11
 1565.0552763628
  21
 4177.2623292926
  31
0.0
   0
LINE
   5
5BE
 100
AcDbEntity
   8
LEVEL001
 370
13
 100
AcDbLine
   6
CONTINUOUS
  62
5
  10
 1565.0552763628
  20
 4177.2623292926
  30
0.0
  11
 1510.0552780020
  21
 4247.2623272064
  31
0.0
   0
LINE
   5
5BF
 100
AcDbEntity
   8
LEVEL001
 370
13
 100
AcDbLine
   6
CONTINUOUS
  62
5
  10
 1440.4123357415
  20
 4081.2534210210
  30
0.0
  11
 1455.6815003255
  21
 4078.9987824164
  31
0.0
   0
ARC
   5
5C0
 100
AcDbEntity
   8
LEVEL001
 370
13
   6
CONTINUOUS
  62
5
 100
AcDbCircle
  10
 1454.2987884893
  20
 4058.4655764636
  30
0.0
  40
 20.579709393390
 100
AcDbArc
  50
 10.432218603602
  51
 86.147502468937
   0
ARC
   5
5C1
 100
AcDbEntity
   8
LEVEL001
 370
13
   6
CONTINUOUS
  62
5
 100
AcDbCircle
  10
 1460.6544503939
  20
 4061.8899317777
  30
0.0
  40
 13.887146297480
 100
AcDbArc
  50
 284.73811645773
  51
 1.2463330419270
   0
LINE
   5
5C2
 100
AcDbEntity
   8
LEVEL001
 370
13
 100
AcDbLine
   6
CONTINUOUS
  62
5
  10
 1464.1873594470
  20
 4048.4596903090
  30
0.0
  11
 1440.4123357415
  21
 4081.2534210210
  31
0.0
   0
ARC
   5
5C3
 100
AcDbEntity
   8
LEVEL001
 370
13
   6
CONTINUOUS
  62
5
 100
AcDbCircle
  10
 1447.9595457282
  20
 4021.6484225772
  30
0.0
  40
 20.228108756896
 100
AcDbArc
  50
 1.0517504590507
  51
 78.795792274167
   0
ARC
   5
5C4
 100
AcDbEntity
   8
LEVEL001
 370
13
   6
CONTINUOUS
  62
5
 100
AcDbCircle
  10
 1453.2159762337
  20
 4023.7982084770
  30
0.0
  40
 15.073557642890
 100
AcDbArc
  50
 288.65956808367
  51
 353.22403827742
   0
LINE
   5
5C5
 100
AcDbEntity
   8
LEVEL001
 370
13
 100
AcDbLine
   6
CONTINUOUS
  62
5
  10
 1442.7692082299
  20
 3995.4772089778
  30
0.0
  11
 1449.7378969870
  21
 3956.6370306920
  31
0.0
   0
LINE
   5
5C6
 100
AcDbEntity
   8
LEVEL001
 370
13
 100
AcDbLine
   6
CONTINUOUS
  62
5
  10
 1470.3366512559
  20
 3960.6337651919
  30
0.0
  11
 1467.1594662920
  21
 3977.7480224944
  31
0.0
   0
LINE
   5
5C7
 100
AcDbEntity
   8
LEVEL001
 370
13
 100
AcDbLine
   6
CONTINUOUS
  62
5
  10
 1467.1594662920
  20
 3977.7480224944
  30
0.0
  11
 1479.4571343826
  21
 4037.1868024612
  31
0.0
   0
LINE
   5
5C8
 100
AcDbEntity
   8
LEVEL001
 370
13
 100
AcDbLine
   6
CONTINUOUS
  62
5
  10
 1479.4571343826
  20
 4037.1868024612
  30
0.0
  11
 1456.6040466848
  21
 3987.2788144466
  31
0.0
   0
LINE
   5
5C9
 100
AcDbEntity
   8
LEVEL001
 370
13
 100
AcDbLine
   6
CONTINUOUS
  62
5
  10
 1456.6040466848
  20
 3987.2788144466
  30
0.0
  11
 1442.7692082299
  21
 3995.4772089778
  31
0.0
   0
ARC
   5
5CA
 100
AcDbEntity
   8
LEVEL001
 370
13
   6
CONTINUOUS
  62
5
 100
AcDbCircle
  10
 1564.8163169675
  20
 4015.8953307916
  30
0.0
  40
 5.0631766002424
 100
AcDbArc
  50
 274.72626205456
  51
 43.105625043188
   0
ARC
   5
5CB
 100
AcDbEntity
   8
LEVEL001
 370
13
   6
CONTINUOUS
  62
5
 100
AcDbCircle
  10
 1568.4559506749
  20
 4059.0442872546
  30
0.0
  40
 5.5826340442110
 100
AcDbArc
  50
 274.79665757983
  51
 36.910963374454
   0
LINE
   5
5CC
 100
AcDbEntity
   8
LEVEL001
 370
13
 100
AcDbLine
   6
CONTINUOUS
  62
5
  10
 1568.5129178613
  20
 4019.3552295064
  30
0.0
  11
 1552.1158236235
  21
 4032.3702132494
  31
0.0
   0
LINE
   5
5CD
 100
AcDbEntity
   8
LEVEL001
 370
13
 100
AcDbLine
   6
CONTINUOUS
  62
5
  10
 1552.1158236235
  20
 4032.3702132494
  30
0.0
  11
 1544.5322056854
  21
 4022.9419603566
  31
0.0
   0
LINE
   5
5CE
 100
AcDbEntity
   8
LEVEL001
 370
13
 100
AcDbLine
   6
CONTINUOUS
  62
5
  10
 1544.5322056854
  20
 4022.9419603566
  30
0.0
  11
 1531.7221474734
  21
 4022.9419603566
  31
0.0
   0
LINE
   5
5CF
 100
AcDbEntity
   8
LEVEL001
 370
13
 100
AcDbLine
   6
CONTINUOUS
  62
5
  10
 1531.7221474734
  20
 4022.9419603566
  30
0.0
  11
 1531.7221474734
  21
 4053.4812050518
  31
0.0
   0
LINE
   5
5D0
 100
AcDbEntity
   8
LEVEL001
 370
13
 100
AcDbLine
   6
CONTINUOUS
  62
5
  10
 1531.7221474734
  20
 4053.4812050518
  30
0.0
  11
 1568.9227689234
  21
 4053.4812050518
  31
0.0
   0
LINE
   5
5D1
 100
AcDbEntity
   8
LEVEL001
 370
13
 100
AcDbLine
   6
CONTINUOUS
  62
5
  10
 1572.9196560112
  20
 4062.3970678232
  30
0.0
  11
 1559.0845123806
  21
 4074.4896577948
  31
0.0
   0
LINE
   5
5D2
 100
AcDbEntity
   8
LEVEL001
 370
13
 100
AcDbLine
   6
CONTINUOUS
  62
5
  10
 1559.0845123806
  20
 4074.4896577948
  30
0.0
  11
 1547.1970005278
  21
 4064.4466283090
  31
0.0
   0
LINE
   5
5D3
 100
AcDbEntity
   8
LEVEL001
 370
13
 100
AcDbLine
   6
CONTINUOUS
  62
5
  10
 1547.1970005278
  20
 4064.4466283090
  30
0.0
  11
 1531.7221474734
  21
 4064.4466283090
  31
0.0
   0
LINE
   5
5D4
 100
AcDbEntity
   8
LEVEL001
 370
13
 100
AcDbLine
   6
CONTINUOUS
  62
5
  10
 1531.7221474734
  20
 4064.4466283090
  30
0.0
  11
 1531.7221474734
  21
 4079.9211761876
  31
0.0
   0
LINE
   5
5D5
 100
AcDbEntity
   8
LEVEL001
 370
13
 100
AcDbLine
   6
CONTINUOUS
  62
5
  10
 1531.7221474734
  20
 4079.9211761876
  30
0.0
  11
 1535.3091834993
  21
 4081.7658111424
  31
0.0
   0
LINE
   5
5D6
 100
AcDbEntity
   8
LEVEL001
 370
13
 100
AcDbLine
   6
CONTINUOUS
  62
5
  10
 1535.3091834993
  20
 4081.7658111424
  30
0.0
  11
 1535.6164955019
  21
 4084.4303008092
  31
0.0
   0
LINE
   5
5D7
 100
AcDbEntity
   8
LEVEL001
 370
13
 100
AcDbLine
   6
CONTINUOUS
  62
5
  10
 1535.6164955019
  20
 4084.4303008092
  30
0.0
  11
 1506.7169602303
  21
 4088.9394254306
  31
0.0
   0
LINE
   5
5D8
 100
AcDbEntity
   8
LEVEL001
 370
13
 100
AcDbLine
   6
CONTINUOUS
  62
5
  10
 1506.7169602303
  20
 4088.9394254306
  30
0.0
  11
 1506.7169602303
  21
 4064.4466283090
  31
0.0
   0
LINE
   5
5D9
 100
AcDbEntity
   8
LEVEL001
 370
13
 100
AcDbLine
   6
CONTINUOUS
  62
5
  10
 1506.7169602303
  20
 4064.4466283090
  30
0.0
  11
 1477.3050348374
  21
 4064.4466283090
  31
0.0
   0
LINE
   5
5DA
 100
AcDbEntity
   8
LEVEL001
 370
13
 100
AcDbLine
   6
CONTINUOUS
  62
5
  10
 1477.3050348374
  20
 4064.4466283090
  30
0.0
  11
 1481.7117729873
  21
 4053.4812050518
  31
0.0
   0
LINE
   5
5DB
 100
AcDbEntity
   8
LEVEL001
 370
13
 100
AcDbLine
   6
CONTINUOUS
  62
5
  10
 1481.7117729873
  20
 4053.4812050518
  30
0.0
  11
 1506.7169602303
  21
 4053.4812050518
  31
0.0
   0
LINE
   5
5DC
 100
AcDbEntity
   8
LEVEL001
 370
13
 100
AcDbLine
   6
CONTINUOUS
  62
5
  10
 1506.7169602303
  20
 4053.4812050518
  30
0.0
  11
 1506.7169602303
  21
 4022.9419603566
  31
0.0
   0
LINE
   5
5DD
 100
AcDbEntity
   8
LEVEL001
 370
13
 100
AcDbLine
   6
CONTINUOUS
  62
5
  10
 1506.7169602303
  20
 4022.9419603566
  30
0.0
  11
 1478.9447442612
  21
 4022.9419603566
  31
0.0
   0
LINE
   5
5DE
 100
AcDbEntity
   8
LEVEL001
 370
13
 100
AcDbLine
   6
CONTINUOUS
  62
5
  10
 1478.9447442612
  20
 4022.9419603566
  30
0.0
  11
 1483.8638725325
  21
 4010.8493703848
  31
0.0
   0
LINE
   5
5DF
 100
AcDbEntity
   8
LEVEL001
 370
13
 100
AcDbLine
   6
CONTINUOUS
  62
5
  10
 1483.8638725325
  20
 4010.8493703848
  30
0.0
  11
 1506.7169602303
  21
 4010.8493703848
  31
0.0
   0
LINE
   5
5E0
 100
AcDbEntity
   8
LEVEL001
 370
13
 100
AcDbLine
   6
CONTINUOUS
  62
5
  10
 1506.7169602303
  20
 4010.8493703848
  30
0.0
  11
 1506.7169602303
  21
 3965.9628971132
  31
0.0
   0
LINE
   5
5E1
 100
AcDbEntity
   8
LEVEL001
 370
13
 100
AcDbLine
   6
CONTINUOUS
  62
5
  10
 1506.7169602303
  20
 3965.9628971132
  30
0.0
  11
 1474.2306941087
  21
 3965.9628971132
  31
0.0
   0
LINE
   5
5E2
 100
AcDbEntity
   8
LEVEL001
 370
13
 100
AcDbLine
   6
CONTINUOUS
  62
5
  10
 1474.2306941087
  20
 3965.9628971132
  30
0.0
  11
 1479.6622125015
  21
 3953.8700019657
  31
0.0
   0
LINE
   5
5E3
 100
AcDbEntity
   8
LEVEL001
 370
13
 100
AcDbLine
   6
CONTINUOUS
  62
5
  10
 1479.6622125015
  20
 3953.8700019657
  30
0.0
  11
 1570.0400174252
  21
 3953.8700019657
  31
0.0
   0
LINE
   5
5E4
 100
AcDbEntity
   8
LEVEL001
 370
13
 100
AcDbLine
   6
CONTINUOUS
  62
5
  10
 1573.4946071660
  20
 3965.3928287708
  30
0.0
  11
 1558.1622711972
  21
 3975.4935364775
  31
0.0
   0
LINE
   5
5E5
 100
AcDbEntity
   8
LEVEL001
 370
13
 100
AcDbLine
   6
CONTINUOUS
  62
5
  10
 1558.1622711972
  20
 3975.4935364775
  30
0.0
  11
 1550.2713412565
  21
 3965.9628971132
  31
0.0
   0
LINE
   5
5E6
 100
AcDbEntity
   8
LEVEL001
 370
13
 100
AcDbLine
   6
CONTINUOUS
  62
5
  10
 1550.2713412565
  20
 3965.9628971132
  30
0.0
  11
 1531.7221474734
  21
 3965.9628971132
  31
0.0
   0
LINE
   5
5E7
 100
AcDbEntity
   8
LEVEL001
 370
13
 100
AcDbLine
   6
CONTINUOUS
  62
5
  10
 1531.7221474734
  20
 3965.9628971132
  30
0.0
  11
 1531.7221474734
  21
 4010.8493703848
  31
0.0
   0
LINE
   5
5E8
 100
AcDbEntity
   8
LEVEL001
 370
13
 100
AcDbLine
   6
CONTINUOUS
  62
5
  10
 1531.7221474734
  20
 4010.8493703848
  30
0.0
  11
 1565.2334990138
  21
 4010.8493703848
  31
0.0
   0
LINE
   5
5E9
 100
AcDbEntity
   8
LEVEL001
 370
13
 100
AcDbLine
   6
CONTINUOUS
  62
5
  10
 1436.9828883140
  20
 4043.8201505094
  30
0.0
  11
 1451.8899965323
  21
 4041.4910015518
  31
0.0
   0
LINE
   5
5EA
 100
AcDbEntity
   8
LEVEL001
 370
13
 100
AcDbLine
   6
CONTINUOUS
  62
5
  10
 1458.0386779896
  20
 4009.5169729636
  30
0.0
  11
 1436.9828883140
  21
 4041.7705677835
  31
0.0
   0
ARC
   5
5EB
 100
AcDbEntity
   8
LEVEL001
 370
13
   6
CONTINUOUS
  62
5
 100
AcDbCircle
  10
 1459.7203143087
  20
 3960.2689758784
  30
0.0
  40
 10.622602384609
 100
AcDbArc
  50
 199.99311911325
  51
 1.9679733411159
   0
ARC
   5
5EC
 100
AcDbEntity
   8
LEVEL001
 370
13
   6
CONTINUOUS
  62
5
 100
AcDbCircle
  10
 1570.0404967251
  20
 3960.1491216096
  30
0.0
  40
 6.2791196620726
 100
AcDbArc
  50
 269.99562647882
  51
 56.626490037263
   0
ARC
   5
5ED
 100
AcDbEntity
   8
LEVEL001
 370
13
   6
CONTINUOUS
  62
5
 100
AcDbCircle
  10
 1573.8129430771
  20
 3853.6806039731
  30
0.0
  40
 4.7515310421130
 100
AcDbArc
  50
 274.70409570269
  51
 59.112293256705
   0
ARC
   5
5EE
 100
AcDbEntity
   8
LEVEL001
 370
13
   6
CONTINUOUS
  62
5
 100
AcDbCircle
  10
 1480.6536198796
  20
 3853.3235453222
  30
0.0
  40
 22.293228438698
 100
AcDbArc
  50
 35.161132790347
  51
 78.641284698104
   0
ARC
   5
5EF
 100
AcDbEntity
   8
LEVEL001
 370
13
   6
CONTINUOUS
  62
5
 100
AcDbCircle
  10
 1492.5336608749
  20
 3864.3802572573
  30
0.0
  40
 6.5907971086860
 100
AcDbArc
  50
 312.23536417672
  51
 15.681870099182
   0
LINE
   5
5F0
 100
AcDbEntity
   8
LEVEL001
 370
13
 100
AcDbLine
   6
CONTINUOUS
  62
5
  10
 1496.9638477280
  20
 3859.5004979422
  30
0.0
  11
 1515.8908491171
  21
 3859.5004979422
  31
0.0
   0
LINE
   5
5F1
 100
AcDbEntity
   8
LEVEL001
 370
13
 100
AcDbLine
   6
CONTINUOUS
  62
5
  10
 1515.8908491171
  20
 3859.5004979422
  30
0.0
  11
 1526.3440348407
  21
 3875.1801239397
  31
0.0
   0
LINE
   5
5F2
 100
AcDbEntity
   8
LEVEL001
 370
13
 100
AcDbLine
   6
CONTINUOUS
  62
5
  10
 1526.3440348407
  20
 3875.1801239397
  30
0.0
  11
 1485.0442924192
  21
 3875.1801239397
  31
0.0
   0
ARC
   5
5F3
 100
AcDbEntity
   8
LEVEL001
 370
13
   6
CONTINUOUS
  62
5
 100
AcDbCircle
  10
 1564.3717457078
  20
 3880.3362975647
  30
0.0
  40
 5.1561789168066
 100
AcDbArc
  50
 269.91791191280
  51
 52.070025543157
   0
LINE
   5
5F4
 100
AcDbEntity
   8
LEVEL001
 370
13
 100
AcDbLine
   6
CONTINUOUS
  62
5
  10
 1576.2521754432
  20
 3857.7582494590
  30
0.0
  11
 1558.3182160167
  21
 3868.2114351826
  31
0.0
   0
LINE
   5
5F5
 100
AcDbEntity
   8
LEVEL001
 370
13
 100
AcDbLine
   6
CONTINUOUS
  62
5
  10
 1558.3182160167
  20
 3868.2114351826
  30
0.0
  11
 1551.7593783215
  21
 3859.5004979422
  31
0.0
   0
LINE
   5
5F6
 100
AcDbEntity
   8
LEVEL001
 370
13
 100
AcDbLine
   6
CONTINUOUS
  62
5
  10
 1551.7593783215
  20
 3859.5004979422
  30
0.0
  11
 1536.0104774237
  21
 3859.5004979422
  31
0.0
   0
LINE
   5
5F7
 100
AcDbEntity
   8
LEVEL001
 370
13
 100
AcDbLine
   6
CONTINUOUS
  62
5
  10
 1536.0104774237
  20
 3859.5004979422
  30
0.0
  11
 1545.0980015670
  21
 3867.6990450612
  31
0.0
   0
LINE
   5
5F8
 100
AcDbEntity
   8
LEVEL001
 370
13
 100
AcDbLine
   6
CONTINUOUS
  62
5
  10
 1545.0980015670
  20
 3867.6990450612
  30
0.0
  11
 1548.8898105360
  21
 3868.2114351826
  31
0.0
   0
LINE
   5
5F9
 100
AcDbEntity
   8
LEVEL001
 370
13
 100
AcDbLine
   6
CONTINUOUS
  62
5
  10
 1548.8898105360
  20
 3868.2114351826
  30
0.0
  11
 1550.5295199598
  21
 3870.5683076710
  31
0.0
   0
LINE
   5
5FA
 100
AcDbEntity
   8
LEVEL001
 370
13
 100
AcDbLine
   6
CONTINUOUS
  62
5
  10
 1550.5295199598
  20
 3870.5683076710
  30
0.0
  11
 1547.8650302931
  21
 3875.1801239397
  31
0.0
   0
LINE
   5
5FB
 100
AcDbEntity
   8
LEVEL001
 370
13
 100
AcDbLine
   6
CONTINUOUS
  62
5
  10
 1547.8650302931
  20
 3875.1801239397
  30
0.0
  11
 1564.3643584146
  21
 3875.1801239397
  31
0.0
   0
LINE
   5
5FC
 100
AcDbEntity
   8
LEVEL001
 370
13
 100
AcDbLine
   6
CONTINUOUS
  62
5
  10
 1567.5412382028
  20
 3884.4032987138
  30
0.0
  11
 1548.8898105360
  21
 3894.6512537306
  31
0.0
   0
LINE
   5
5FD
 100
AcDbEntity
   8
LEVEL001
 370
13
 100
AcDbLine
   6
CONTINUOUS
  62
5
  10
 1548.8898105360
  20
 3894.6512537306
  30
0.0
  11
 1542.7408239029
  21
 3885.1206143661
  31
0.0
   0
LINE
   5
5FE
 100
AcDbEntity
   8
LEVEL001
 370
13
 100
AcDbLine
   6
CONTINUOUS
  62
5
  10
 1542.7408239029
  20
 3885.1206143661
  30
0.0
  11
 1521.3223675099
  21
 3885.1206143661
  31
0.0
   0
LINE
   5
5FF
 100
AcDbEntity
   8
LEVEL001
 370
13
 100
AcDbLine
   6
CONTINUOUS
  62
5
  10
 1521.3223675099
  20
 3885.1206143661
  30
0.0
  11
 1521.3223675099
  21
 3891.4743739426
  31
0.0
   0
LINE
   5
600
 100
AcDbEntity
   8
LEVEL001
 370
13
 100
AcDbLine
   6
CONTINUOUS
  62
5
  10
 1521.3223675099
  20
 3891.4743739426
  30
0.0
  11
 1523.4470012356
  21
 3895.1723413616
  31
0.0
   0
LINE
   5
601
 100
AcDbEntity
   8
LEVEL001
 370
13
 100
AcDbLine
   6
CONTINUOUS
  62
5
  10
 1523.4470012356
  20
 3895.1723413616
  30
0.0
  11
 1522.6269939359
  21
 3896.9144372570
  31
0.0
   0
LINE
   5
602
 100
AcDbEntity
   8
LEVEL001
 370
13
 100
AcDbLine
   6
CONTINUOUS
  62
5
  10
 1522.6269939359
  20
 3896.9144372570
  30
0.0
  11
 1497.8543506312
  21
 3897.5208215162
  31
0.0
   0
LINE
   5
603
 100
AcDbEntity
   8
LEVEL001
 370
13
 100
AcDbLine
   6
CONTINUOUS
  62
5
  10
 1497.8543506312
  20
 3897.5208215162
  30
0.0
  11
 1497.8543506312
  21
 3885.1206143661
  31
0.0
   0
LINE
   5
604
 100
AcDbEntity
   8
LEVEL001
 370
13
 100
AcDbLine
   6
CONTINUOUS
  62
5
  10
 1497.8543506312
  20
 3885.1206143661
  30
0.0
  11
 1448.3920718318
  21
 3885.1206143661
  31
0.0
   0
LINE
   5
605
 100
AcDbEntity
   8
LEVEL001
 370
13
 100
AcDbLine
   6
CONTINUOUS
  62
5
  10
 1448.3920718318
  20
 3885.1206143661
  30
0.0
  11
 1452.8653383001
  21
 3875.1801239397
  31
0.0
   0
LINE
   5
606
 100
AcDbEntity
   8
LEVEL001
 370
13
 100
AcDbLine
   6
CONTINUOUS
  62
5
  10
 1452.8653383001
  20
 3875.1801239397
  30
0.0
  11
 1470.4922908998
  21
 3875.1801239397
  31
0.0
   0
LINE
   5
607
 100
AcDbEntity
   8
LEVEL001
 370
13
 100
AcDbLine
   6
CONTINUOUS
  62
5
  10
 1470.4922908998
  20
 3875.1801239397
  30
0.0
  11
 1480.4327813261
  21
 3859.5004979422
  31
0.0
   0
LINE
   5
608
 100
AcDbEntity
   8
LEVEL001
 370
13
 100
AcDbLine
   6
CONTINUOUS
  62
5
  10
 1480.4327813261
  20
 3859.5004979422
  30
0.0
  11
 1445.7175113646
  21
 3859.5004979422
  31
0.0
   0
LINE
   5
609
 100
AcDbEntity
   8
LEVEL001
 370
13
 100
AcDbLine
   6
CONTINUOUS
  62
5
  10
 1445.7175113646
  20
 3859.5004979422
  30
0.0
  11
 1450.6180239140
  21
 3848.9450783350
  31
0.0
   0
LINE
   5
60A
 100
AcDbEntity
   8
LEVEL001
 370
13
 100
AcDbLine
   6
CONTINUOUS
  62
5
  10
 1450.6180239140
  20
 3848.9450783350
  30
0.0
  11
 1574.2026149574
  21
 3848.9450783350
  31
0.0
   0
ARC
   5
60B
 100
AcDbEntity
   8
LEVEL001
 370
13
   6
CONTINUOUS
  62
5
 100
AcDbCircle
  10
 1469.9920127676
  20
 3824.9145616142
  30
0.0
  40
 31.206602120202
 100
AcDbArc
  50
 246.86700487440
  51
 289.54634462668
   0
LINE
   5
60C
 100
AcDbEntity
   8
LEVEL001
 370
13
 100
AcDbLine
   6
CONTINUOUS
  62
5
  10
 1480.4327813261
  20
 3824.8621322754
  30
0.0
  11
 1480.4327813261
  21
 3831.3182783232
  31
0.0
   0
LINE
   5
60D
 100
AcDbEntity
   8
LEVEL001
 370
13
 100
AcDbLine
   6
CONTINUOUS
  62
5
  10
 1480.4327813261
  20
 3831.3182783232
  30
0.0
  11
 1537.0019935075
  21
 3831.3182783232
  31
0.0
   0
LINE
   5
60E
 100
AcDbEntity
   8
LEVEL001
 370
13
 100
AcDbLine
   6
CONTINUOUS
  62
5
  10
 1537.0019935075
  20
 3831.3182783232
  30
0.0
  11
 1537.0019935075
  21
 3824.8621322754
  31
0.0
   0
LINE
   5
60F
 100
AcDbEntity
   8
LEVEL001
 370
13
 100
AcDbLine
   6
CONTINUOUS
  62
5
  10
 1537.0019935075
  20
 3824.8621322754
  30
0.0
  11
 1480.4327813261
  21
 3824.8621322754
  31
0.0
   0
LINE
   5
610
 100
AcDbEntity
   8
LEVEL001
 370
13
 100
AcDbLine
   6
CONTINUOUS
  62
5
  10
 1563.5446562906
  20
 3838.2869670804
  30
0.0
  11
 1543.5608312026
  21
 3847.3053689112
  31
0.0
   0
LINE
   5
611
 100
AcDbEntity
   8
LEVEL001
 370
13
 100
AcDbLine
   6
CONTINUOUS
  62
5
  10
 1543.5608312026
  20
 3847.3053689112
  30
0.0
  11
 1537.0019935075
  21
 3839.6192119138
  31
0.0
   0
LINE
   5
612
 100
AcDbEntity
   8
LEVEL001
 370
13
 100
AcDbLine
   6
CONTINUOUS
  62
5
  10
 1537.0019935075
  20
 3839.6192119138
  30
0.0
  11
 1480.4327813261
  21
 3839.6192119138
  31
0.0
   0
LINE
   5
613
 100
AcDbEntity
   8
LEVEL001
 370
13
 100
AcDbLine
   6
CONTINUOUS
  62
5
  10
 1480.4327813261
  20
 3839.6192119138
  30
0.0
  11
 1480.4327813261
  21
 3841.3614603970
  31
0.0
   0
LINE
   5
614
 100
AcDbEntity
   8
LEVEL001
 370
13
 100
AcDbLine
   6
CONTINUOUS
  62
5
  10
 1480.4327813261
  20
 3841.3614603970
  30
0.0
  11
 1457.7847717472
  21
 3845.9729714900
  31
0.0
   0
LINE
   5
615
 100
AcDbEntity
   8
LEVEL001
 370
13
 100
AcDbLine
   6
CONTINUOUS
  62
5
  10
 1457.7847717472
  20
 3845.9729714900
  30
0.0
  11
 1457.7319763386
  21
 3796.2171135978
  31
0.0
   0
LINE
   5
616
 100
AcDbEntity
   8
LEVEL001
 370
13
 100
AcDbLine
   6
CONTINUOUS
  62
5
  10
 1480.4327813261
  20
 3808.8750416874
  30
0.0
  11
 1480.4327813261
  21
 3815.7376818638
  31
0.0
   0
LINE
   5
617
 100
AcDbEntity
   8
LEVEL001
 370
13
 100
AcDbLine
   6
CONTINUOUS
  62
5
  10
 1480.4327813261
  20
 3815.7376818638
  30
0.0
  11
 1537.0019935075
  21
 3815.7376818638
  31
0.0
   0
LINE
   5
618
 100
AcDbEntity
   8
LEVEL001
 370
13
 100
AcDbLine
   6
CONTINUOUS
  62
5
  10
 1537.0019935075
  20
 3815.7376818638
  30
0.0
  11
 1537.0019935075
  21
 3808.8750416874
  31
0.0
   0
LINE
   5
619
 100
AcDbEntity
   8
LEVEL001
 370
13
 100
AcDbLine
   6
CONTINUOUS
  62
5
  10
 1537.0019935075
  20
 3808.8750416874
  30
0.0
  11
 1480.4327813261
  21
 3808.8750416874
  31
0.0
   0
ARC
   5
61A
 100
AcDbEntity
   8
LEVEL001
 370
13
   6
CONTINUOUS
  62
5
 100
AcDbCircle
  10
 1560.0456807661
  20
 3835.6748742756
  30
0.0
  40
 4.3664469013676
 100
AcDbArc
  50
 266.15058922078
  51
 36.742470507399
   0
LINE
   5
61B
 100
AcDbEntity
   8
LEVEL001
 370
13
 100
AcDbLine
   6
CONTINUOUS
  62
5
  10
 1480.4327813261
  20
 3795.5063592244
  30
0.0
  11
 1480.4327813261
  21
 3800.2667960944
  31
0.0
   0
LINE
   5
61C
 100
AcDbEntity
   8
LEVEL001
 370
13
 100
AcDbLine
   6
CONTINUOUS
  62
5
  10
 1480.4327813261
  20
 3800.2667960944
  30
0.0
  11
 1537.0019935075
  21
 3800.2667960944
  31
0.0
   0
LINE
   5
61D
 100
AcDbEntity
   8
LEVEL001
 370
13
 100
AcDbLine
   6
CONTINUOUS
  62
5
  10
 1537.0019935075
  20
 3800.2667960944
  30
0.0
  11
 1537.0019935075
  21
 3795.3476678230
  31
0.0
   0
LINE
   5
61E
 100
AcDbEntity
   8
LEVEL001
 370
13
 100
AcDbLine
   6
CONTINUOUS
  62
5
  10
 1537.0019935075
  20
 3795.3476678230
  30
0.0
  11
 1553.9114778668
  21
 3795.3476678230
  31
0.0
   0
LINE
   5
61F
 100
AcDbEntity
   8
LEVEL001
 370
13
 100
AcDbLine
   6
CONTINUOUS
  62
5
  10
 1553.9114778668
  20
 3795.3476678230
  30
0.0
  11
 1557.6004426006
  21
 3797.3972283088
  31
0.0
   0
LINE
   5
620
 100
AcDbEntity
   8
LEVEL001
 370
13
 100
AcDbLine
   6
CONTINUOUS
  62
5
  10
 1557.6004426006
  20
 3797.3972283088
  30
0.0
  11
 1559.7525421459
  21
 3801.8039664586
  31
0.0
   0
LINE
   5
621
 100
AcDbEntity
   8
LEVEL001
 370
13
 100
AcDbLine
   6
CONTINUOUS
  62
5
  10
 1559.7525421459
  20
 3801.8039664586
  30
0.0
  11
 1559.7458282789
  21
 3831.3184309110
  31
0.0
   0
LINE
   5
622
 100
AcDbEntity
   8
LEVEL001
 370
13
 100
AcDbLine
   6
CONTINUOUS
  62
5
  10
 1463.9651914849
  20
 3789.9161494302
  30
0.0
  11
 1463.4528013634
  21
 3784.7922482156
  31
0.0
   0
LINE
   5
623
 100
AcDbEntity
   8
LEVEL001
 370
13
 100
AcDbLine
   6
CONTINUOUS
  62
5
  10
 1463.4528013634
  20
 3784.7922482156
  30
0.0
  11
 1461.5054747613
  21
 3781.2053647775
  31
0.0
   0
LINE
   5
624
 100
AcDbEntity
   8
LEVEL001
 370
13
 100
AcDbLine
   6
CONTINUOUS
  62
5
  10
 1461.5054747613
  20
 3781.2053647775
  30
0.0
  11
 1450.4376650325
  21
 3767.4729127944
  31
0.0
   0
ARC
   5
625
 100
AcDbEntity
   8
LEVEL001
 370
13
   6
CONTINUOUS
  62
5
 100
AcDbCircle
  10
 1458.9699275472
  20
 3761.8611593260
  30
0.0
  40
 10.212310248246
 100
AcDbArc
  50
 146.66668479802
  51
 331.70163256435
   0
ARC
   5
626
 100
AcDbEntity
   8
LEVEL001
 370
13
   6
CONTINUOUS
  62
5
 100
AcDbCircle
  10
 1444.9818433671
  20
 3770.9189462216
  30
0.0
  40
 26.856307183018
 100
AcDbArc
  50
 328.83298190806
  51
 45.020901175880
   0
LINE
   5
627
 100
AcDbEntity
   8
LEVEL001
 370
13
 100
AcDbLine
   6
CONTINUOUS
  62
5
  10
 1547.5894565708
  20
 3792.6831781562
  30
0.0
  11
 1561.0141387879
  21
 3770.3424805798
  31
0.0
   0
ARC
   5
628
 100
AcDbEntity
   8
LEVEL001
 370
13
   6
CONTINUOUS
  62
5
 100
AcDbCircle
  10
 1553.3207759253
  20
 3760.1668098588
  30
0.0
  40
 8.7884995702356
 100
AcDbArc
  50
 268.04310640403
  51
 95.976315924693
   0
ARC
   5
629
 100
AcDbEntity
   8
LEVEL001
 370
13
   6
CONTINUOUS
  62
5
 100
AcDbCircle
  10
 1486.1198349560
  20
 3757.9930269261
  30
0.0
  40
 6.6095999893666
 100
AcDbArc
  50
 179.99949488494
  51
 269.90651577931
   0
LINE
   5
62A
 100
AcDbEntity
   8
LEVEL001
 370
13
 100
AcDbLine
   6
CONTINUOUS
  62
5
  10
 1486.1090506882
  20
 3751.3834357348
  30
0.0
  11
 1553.0206697879
  21
 3751.3834357348
  31
0.0
   0
LINE
   5
62B
 100
AcDbEntity
   8
LEVEL001
 370
13
 100
AcDbLine
   6
CONTINUOUS
  62
5
  10
 1552.4057406070
  20
 3768.9075440992
  30
0.0
  11
 1545.0272007878
  21
 3787.3541988228
  31
0.0
   0
LINE
   5
62C
 100
AcDbEntity
   8
LEVEL001
 370
13
 100
AcDbLine
   6
CONTINUOUS
  62
5
  10
 1545.0272007878
  20
 3787.3541988228
  30
0.0
  11
 1544.8221226689
  21
 3777.1060912182
  31
0.0
   0
LINE
   5
62D
 100
AcDbEntity
   8
LEVEL001
 370
13
 100
AcDbLine
   6
CONTINUOUS
  62
5
  10
 1544.8221226689
  20
 3777.1060912182
  30
0.0
  11
 1542.1207067338
  21
 3768.9075440992
  31
0.0
   0
LINE
   5
62E
 100
AcDbEntity
   8
LEVEL001
 370
13
 100
AcDbLine
   6
CONTINUOUS
  62
5
  10
 1542.1207067338
  20
 3768.9075440992
  30
0.0
  11
 1502.2610887811
  21
 3768.9075440992
  31
0.0
   0
LINE
   5
62F
 100
AcDbEntity
   8
LEVEL001
 370
13
 100
AcDbLine
   6
CONTINUOUS
  62
5
  10
 1502.2610887811
  20
 3768.9075440992
  30
0.0
  11
 1502.2610887811
  21
 3784.7922482156
  31
0.0
   0
LINE
   5
630
 100
AcDbEntity
   8
LEVEL001
 370
13
 100
AcDbLine
   6
CONTINUOUS
  62
5
  10
 1502.2610887811
  20
 3784.7922482156
  30
0.0
  11
 1504.3106492669
  21
 3787.7640498847
  31
0.0
   0
LINE
   5
631
 100
AcDbEntity
   8
LEVEL001
 370
13
 100
AcDbLine
   6
CONTINUOUS
  62
5
  10
 1504.3106492669
  20
 3787.7640498847
  30
0.0
  11
 1502.4661669000
  21
 3789.9161494302
  31
0.0
   0
LINE
   5
632
 100
AcDbEntity
   8
LEVEL001
 370
13
 100
AcDbLine
   6
CONTINUOUS
  62
5
  10
 1502.4661669000
  20
 3789.9161494302
  30
0.0
  11
 1479.5102349670
  21
 3792.9904901588
  31
0.0
   0
LINE
   5
633
 100
AcDbEntity
   8
LEVEL001
 370
13
 100
AcDbLine
   6
CONTINUOUS
  62
5
  10
 1479.5102349670
  20
 3792.9904901588
  30
0.0
  11
 1479.5102349670
  21
 3757.9930851960
  31
0.0
   0
LINE
   5
634
 100
AcDbEntity
   8
LEVEL001
 370
13
 100
AcDbLine
   6
CONTINUOUS
  62
5
  10
 1522.3663738264
  20
 3773.2117431896
  30
0.0
  11
 1508.2242233690
  21
 3794.5278131110
  31
0.0
   0
ARC
   5
635
 100
AcDbEntity
   8
LEVEL001
 370
13
   6
CONTINUOUS
  62
5
 100
AcDbCircle
  10
 1527.2467247833
  20
 3780.9312280684
  30
0.0
  40
 9.1328129430768
 100
AcDbArc
  50
 237.69843463480
  51
 18.768732377782
   0
ARC
   5
636
 100
AcDbEntity
   8
LEVEL001
 370
13
   6
CONTINUOUS
  62
5
 100
AcDbCircle
  10
 1509.7114495187
  20
 3756.6279751030
  30
0.0
  40
 37.929006876678
 100
AcDbArc
  50
 46.131549416312
  51
 92.247188603533
   0
ARC
   5
637
 100
AcDbEntity
   8
LEVEL001
 370
13
   6
CONTINUOUS
  62
5
 100
AcDbCircle
  10
 1566.8067588252
  20
 3777.1506882375
  30
0.0
  40
 8.9390233475260
 100
AcDbArc
  50
 229.60790187555
  51
 6.7933956221187
   0
ARC
   5
638
 100
AcDbEntity
   8
LEVEL001
 370
13
   6
CONTINUOUS
  62
5
 100
AcDbCircle
  10
 1551.4980173193
  20
 3766.1193526482
  30
0.0
  40
 27.037970213950
 100
AcDbArc
  50
 26.557897354802
  51
 98.092162593002
   0
DIMENSION
   5
639
 100
AcDbEntity
   8
LEVEL001
 370
13
   6
CONTINUOUS
  62
1
 100
AcDbDimension
   2
*D41
  10
 1774.1930261674
  20
 4882.2597298890
  30
0.0
  11
 1510.0552780133
  21
 4729.7597298888
  31
0.0
  70
131
   1
\A1;%%c600
   3
GMM007
 100
AcDbDiametricDimension
  15
 1245.9175298591
  25
 4577.2597298885
  35
0.0
   0
MTEXT
   5
63A
 100
AcDbEntity
   8
LEVEL001
 370
13
  62
1
 100
AcDbMText
  10
 6310.0552780132
  20
 773.97847988876
  30
0.0
  40
 42.857142857142
  41
0.0
  71
5
  72
1
   1
\T1.000000;ＭＺＨ０６０Ｓ
   7
GMM001
  44
 0.79999984000003
   0
ENDSEC
  0
SECTION
  2
OBJECTS
  0
DICTIONARY
  5
C
100
AcDbDictionary
  3
ACAD_GROUP
350
D
  3
ACAD_MLINESTYLE
350
1B
  3
DWGPROPS
350
1C
  0
DICTIONARY
  5
D
102
{ACAD_REACTORS
330
C
102
}
100
AcDbDictionary
  0
DICTIONARY
  5
1B
102
{ACAD_REACTORS
330
C
102
}
100
AcDbDictionary
  3
STANDARD
350
1D
  0
MLINESTYLE
  5
1D
102
{ACAD_REACTORS
330
1B
102
}
100
AcDbMlineStyle
  2
STANDARD
 70
     0
  3

 62
   256
 51
90.0
 52
90.0
 71
     2
 49
0.5
 62
   256
  6
BYLAYER
 49
-0.5
 62
   256
  6
BYLAYER
   0
XRECORD
   5
1C
 102
{ACAD_REACTORS
 330
C
 102
}
 330
C
 100
AcDbXrecord
 280
1
   1
DWGPROPS COOKIE
   2
 
   3
 
   4
 
   6
 
   7
MZH060S
   8
 
   9

 300
 = 
 301
 = 
 302
 = 
 303
 = 
 304
 = 
 305
 = 
 306
 = 
 307
 = 
 308
 = 
 309
 = 
  40
0.0
  41
 2460340.5000000
  42
 2460340.5000000
   1

  90
10
   0
ENDSEC
   0
EOF
