   0
SECTION
   2
HEADER
   9
$ACADVER
   1
AC1015
   9
$DWGCODEPAGE
   3
ANSI_932
   9
$LIMMIN
  10
0.0
  20
0.0
   9
$LIMMAX
  10
 8400.0000000000
  20
 5940.0000000000
   9
$EXTMIN
  10
0.0
  20
0.0
  30
0.0
   9
$EXTMAX
  10
 8400.0000000000
  20
 5940.0000000000
  30
0.0
   9
$LTSCALE
  40
 168.00000000000
   9
$HANDSEED
   5
3B5
   0
ENDSEC
   0
SECTION
   2
TABLES
  0
TABLE
  2
VPORT
  5
8
100
AcDbSymbolTable
 70
     1
  0
VPORT
  5
3B4
100
AcDbSymbolTableRecord
100
AcDbViewportTableRecord
  2
*ACTIVE
 70
     0
 10
0.0
 20
0.0
 11
1.0
 21
1.0
  12
 4200.0000000000
  22
 2970.0000000000
 13
0.0
 23
0.0
 14
1.0
 24
1.0
 15
0.0
 25
0.0
 16
0.0
 26
0.0
 36
1.0
 17
0.0
 27
0.0
 37
0.0
  40
 8400.0000000000
  41
 1.4787878787879
 42
50.0
 43
0.0
 44
0.0
 50
0.0
 51
0.0
 71
     0
 72
   100
 73
     1
 74
     1
 75
     0
 76
     0
 77
     0
 78
     0
  0
ENDTAB
  0
TABLE
  2
LTYPE
  5
5
100
AcDbSymbolTable
 70
    25
  0
LTYPE
  5
12
100
AcDbSymbolTableRecord
100
AcDbLinetypeTableRecord
  2
BYBLOCK
 70
     0
  3

 72
    65
 73
     0
 40
0.0
  0
LTYPE
  5
13
100
AcDbSymbolTableRecord
100
AcDbLinetypeTableRecord
  2
BYLAYER
 70
     0
  3

 72
    65
 73
     0
 40
0.0
  0
LTYPE
  5
14
100
AcDbSymbolTableRecord
100
AcDbLinetypeTableRecord
  2
CONTINUOUS
 70
     0
  3
Solid line
 72
    65
 73
     0
 40
0.0
  0
LTYPE
  5
20
100
AcDbSymbolTableRecord
100
AcDbLinetypeTableRecord
  2
BORDER
 70
     0
  3
__ __ . __ __ . __ __ . __ __ . __ __ . __ __ .
 72
    65
 73
     6
 40
1.75
 49
0.5
 74
     0
 49
-0.25
 74
     0
 49
0.5
 74
     0
 49
-0.25
 74
     0
 49
0.0
 74
     0
 49
-0.25
 74
     0
  0
LTYPE
  5
21
100
AcDbSymbolTableRecord
100
AcDbLinetypeTableRecord
  2
BORDER2
 70
     0
  3
__.__.__.__.__.__.__.__.__.__.__.__.__.__.__.__
 72
    65
 73
     6
 40
0.875
 49
0.25
 74
     0
 49
-0.125
 74
     0
 49
0.25
 74
     0
 49
-0.125
 74
     0
 49
0.0
 74
     0
 49
-0.125
 74
     0
  0
LTYPE
  5
22
100
AcDbSymbolTableRecord
100
AcDbLinetypeTableRecord
  2
BORDERX2
 70
     0
  3
____  ____  .  ____  ____  .  ____  ____  .  __
 72
    65
 73
     6
 40
3.5
 49
1.0
 74
     0
 49
-0.5
 74
     0
 49
1.0
 74
     0
 49
-0.5
 74
     0
 49
0.0
 74
     0
 49
-0.5
 74
     0
  0
LTYPE
  5
23
100
AcDbSymbolTableRecord
100
AcDbLinetypeTableRecord
  2
CENTER
 70
     0
  3
____ _ ____ _ ____ _ ____ _ ____ _ ____ _ ____ 
 72
    65
 73
     4
 40
2.0
 49
1.25
 74
     0
 49
-0.25
 74
     0
 49
0.25
 74
     0
 49
-0.25
 74
     0
  0
LTYPE
  5
24
100
AcDbSymbolTableRecord
100
AcDbLinetypeTableRecord
  2
CENTER2
 70
     0
  3
___ _ ___ _ ___ _ ___ _ ___ _ ___ _ ___ _ ___ _
 72
    65
 73
     4
 40
1.125
 49
0.75
 74
     0
 49
-0.125
 74
     0
 49
0.125
 74
     0
 49
-0.125
 74
     0
  0
LTYPE
  5
25
100
AcDbSymbolTableRecord
100
AcDbLinetypeTableRecord
  2
CENTERX2
 70
     0
  3
________  __  ________  __  ________  __  _____
 72
    65
 73
     4
 40
4.0
 49
2.5
 74
     0
 49
-0.5
 74
     0
 49
0.5
 74
     0
 49
-0.5
 74
     0
  0
LTYPE
  5
26
100
AcDbSymbolTableRecord
100
AcDbLinetypeTableRecord
  2
DASHDOT
 70
     0
  3
__ . __ . __ . __ . __ . __ . __ . __ . __ . __
 72
    65
 73
     4
 40
1.0
 49
0.5
 74
     0
 49
-0.25
 74
     0
 49
0.0
 74
     0
 49
-0.25
 74
     0
  0
LTYPE
  5
27
100
AcDbSymbolTableRecord
100
AcDbLinetypeTableRecord
  2
DASHDOT2
 70
     0
  3
_._._._._._._._._._._._._._._._._._._._._._._._
 72
    65
 73
     4
 40
0.5
 49
0.25
 74
     0
 49
-0.125
 74
     0
 49
0.0
 74
     0
 49
-0.125
 74
     0
  0
LTYPE
  5
28
100
AcDbSymbolTableRecord
100
AcDbLinetypeTableRecord
  2
DASHDOTX2
 70
     0
  3
____  .  ____  .  ____  .  ____  .  ____  .  __
 72
    65
 73
     4
 40
2.0
 49
1.0
 74
     0
 49
-0.5
 74
     0
 49
0.0
 74
     0
 49
-0.5
 74
     0
  0
LTYPE
  5
29
100
AcDbSymbolTableRecord
100
AcDbLinetypeTableRecord
  2
DASHED
 70
     0
  3
__ __ __ __ __ __ __ __ __ __ __ __ __ __ __ __
 72
    65
 73
     2
 40
0.75
 49
0.5
 74
     0
 49
-0.25
 74
     0
  0
LTYPE
  5
2A
100
AcDbSymbolTableRecord
100
AcDbLinetypeTableRecord
  2
DASHED2
 70
     0
  3
_ _ _ _ _ _ _ _ _ _ _ _ _ _ _ _ _ _ _ _ _ _ _ _
 72
    65
 73
     2
 40
0.375
 49
0.25
 74
     0
 49
-0.125
 74
     0
  0
LTYPE
  5
2B
100
AcDbSymbolTableRecord
100
AcDbLinetypeTableRecord
  2
DASHEDX2
 70
     0
  3
____  ____  ____  ____  ____  ____  ____  ____ 
 72
    65
 73
     2
 40
1.5
 49
1.0
 74
     0
 49
-0.5
 74
     0
  0
LTYPE
  5
2C
100
AcDbSymbolTableRecord
100
AcDbLinetypeTableRecord
  2
DIVIDE
 70
     0
  3
____ . . ____ . . ____ . . ____ . . ____ . . __
 72
    65
 73
     6
 40
1.25
 49
0.5
 74
     0
 49
-0.25
 74
     0
 49
0.0
 74
     0
 49
-0.25
 74
     0
 49
0.0
 74
     0
 49
-0.25
 74
     0
  0
LTYPE
  5
2D
100
AcDbSymbolTableRecord
100
AcDbLinetypeTableRecord
  2
DIVIDE2
 70
     0
  3
__..__..__..__..__..__..__..__..__..__..__..__.
 72
    65
 73
     6
 40
0.625
 49
0.25
 74
     0
 49
-0.125
 74
     0
 49
0.0
 74
     0
 49
-0.125
 74
     0
 49
0.0
 74
     0
 49
-0.125
 74
     0
  0
LTYPE
  5
2E
100
AcDbSymbolTableRecord
100
AcDbLinetypeTableRecord
  2
DIVIDEX2
 70
     0
  3
________  .  .  ________  .  .  ________  .  . 
 72
    65
 73
     6
 40
2.5
 49
1.0
 74
     0
 49
-0.5
 74
     0
 49
0.0
 74
     0
 49
-0.5
 74
     0
 49
0.0
 74
     0
 49
-0.5
 74
     0
  0
LTYPE
  5
2F
100
AcDbSymbolTableRecord
100
AcDbLinetypeTableRecord
  2
DOT
 70
     0
  3
. . . . . . . . . . . . . . . . . . . . . . . .
 72
    65
 73
     2
 40
0.25
 49
0.0
 74
     0
 49
-0.25
 74
     0
  0
LTYPE
  5
30
100
AcDbSymbolTableRecord
100
AcDbLinetypeTableRecord
  2
DOT2
 70
     0
  3
...............................................
 72
    65
 73
     2
 40
0.125
 49
0.0
 74
     0
 49
-0.125
 74
     0
  0
LTYPE
  5
31
100
AcDbSymbolTableRecord
100
AcDbLinetypeTableRecord
  2
DOTX2
 70
     0
  3
.  .  .  .  .  .  .  .  .  .  .  .  .  .  .  . 
 72
    65
 73
     2
 40
0.5
 49
0.0
 74
     0
 49
-0.5
 74
     0
  0
LTYPE
  5
32
100
AcDbSymbolTableRecord
100
AcDbLinetypeTableRecord
  2
HIDDEN
 70
     0
  3
__ __ __ __ __ __ __ __ __ __ __ __ __ __ __ __
 72
    65
 73
     2
 40
0.375
 49
0.25
 74
     0
 49
-0.125
 74
     0
  0
LTYPE
  5
33
100
AcDbSymbolTableRecord
100
AcDbLinetypeTableRecord
  2
HIDDEN2
 70
     0
  3
_ _ _ _ _ _ _ _ _ _ _ _ _ _ _ _ _ _ _ _ _ _ _ _
 72
    65
 73
     2
 40
0.1875
 49
0.125
 74
     0
 49
-0.0625
 74
     0
  0
LTYPE
  5
34
100
AcDbSymbolTableRecord
100
AcDbLinetypeTableRecord
  2
HIDDENX2
 70
     0
  3
____ ____ ____ ____ ____ ____ ____ ____ ____ __
 72
    65
 73
     2
 40
0.75
 49
0.5
 74
     0
 49
-0.25
 74
     0
  0
LTYPE
  5
35
100
AcDbSymbolTableRecord
100
AcDbLinetypeTableRecord
  2
PHANTOM
 70
     0
  3
______  __  __  ______  __  __  ______  __  __ 
 72
    65
 73
     6
 40
2.5
 49
1.25
 74
     0
 49
-0.25
 74
     0
 49
0.25
 74
     0
 49
-0.25
 74
     0
 49
0.25
 74
     0
 49
-0.25
 74
     0
  0
LTYPE
  5
36
100
AcDbSymbolTableRecord
100
AcDbLinetypeTableRecord
  2
PHANTOM2
 70
     0
  3
___ _ _ ___ _ _ ___ _ _ ___ _ _ ___ _ _ ___ _ _
 72
    65
 73
     6
 40
1.25
 49
0.625
 74
     0
 49
-0.125
 74
     0
 49
0.125
 74
     0
 49
-0.125
 74
     0
 49
0.125
 74
     0
 49
-0.125
 74
     0
  0
LTYPE
  5
37
100
AcDbSymbolTableRecord
100
AcDbLinetypeTableRecord
  2
PHANTOMX2
 70
     0
  3
____________    ____    ____    ____________   
 72
    65
 73
     6
 40
5.0
 49
2.5
 74
     0
 49
-0.5
 74
     0
 49
0.5
 74
     0
 49
-0.5
 74
     0
 49
0.5
 74
     0
 49
-0.5
 74
     0
  0
ENDTAB
   0
TABLE
   2
LAYER
   5
2
 100
AcDbSymbolTable
  70
3
   0
LAYER
   5
E
 100
AcDbSymbolTableRecord
 100
AcDbLayerTableRecord
   2
0
  70
0
  62
7
   6
CONTINUOUS
 390
30
   0
LAYER
   5
39
 100
AcDbSymbolTableRecord
 100
AcDbLayerTableRecord
   2
LEVEL001
  70
0
  62
7
   6
CONTINUOUS
 390
30
   0
LAYER
   5
3A
 100
AcDbSymbolTableRecord
 100
AcDbLayerTableRecord
   2
LEVEL002
  70
0
  62
7
   6
CONTINUOUS
 390
30
   0
ENDTAB
  0
TABLE
  2
STYLE
  5
3
100
AcDbSymbolTable
  70
11
  0
STYLE
  5
F
100
AcDbSymbolTableRecord
100
AcDbTextStyleTableRecord
  2
STANDARD
 70
     0
 40
0.0
 41
1.0
 50
0.0
 71
     0
 42
0.2
  3
TXT
  4
BIGFONT
  0
STYLE
  5
38
100
AcDbSymbolTableRecord
100
AcDbTextStyleTableRecord
  2
STANDARD1
 70
     4
 40
0.0
 41
1.0
 50
0.0
 71
     0
 42
0.2
  3
TXT
  4
BIGFONT
   0
STYLE
   5
3B
 100
AcDbSymbolTableRecord
 100
AcDbTextStyleTableRecord
   2
GMM001
  70
0
  40
0.0
  41
 0.78787878787879
  50
0.0
  71
     0
  42
1.0
   3
txt.shx
   4
bigfont.shx
   0
STYLE
   5
3C
 100
AcDbSymbolTableRecord
 100
AcDbTextStyleTableRecord
   2
GMM002
  70
0
  40
0.0
  41
 0.75000000000000
  50
0.0
  71
     0
  42
1.0
   3
txt.shx
   4
bigfont.shx
   0
STYLE
   5
3D
 100
AcDbSymbolTableRecord
 100
AcDbTextStyleTableRecord
   2
GMM003
  70
0
  40
0.0
  41
 1.0000000000000
  50
0.0
  71
     0
  42
1.0
   3
txt.shx
   4
bigfont.shx
   0
STYLE
   5
3E
 100
AcDbSymbolTableRecord
 100
AcDbTextStyleTableRecord
   2
GMM004
  70
0
  40
0.0
  41
 0.90000000000000
  50
0.0
  71
     0
  42
1.0
   3

   4

1001
ACAD
1000
ＭＳ 明朝
1071
33587217
   0
STYLE
   5
3F
 100
AcDbSymbolTableRecord
 100
AcDbTextStyleTableRecord
   2
GMM005
  70
0
  40
0.0
  41
 0.87500000000000
  50
0.0
  71
     0
  42
1.0
   3
txt.shx
   4
bigfont.shx
   0
STYLE
   5
40
 100
AcDbSymbolTableRecord
 100
AcDbTextStyleTableRecord
   2
GMM006
  70
0
  40
0.0
  41
 0.90000000000000
  50
0.0
  71
     0
  42
1.0
   3
txt.shx
   4
bigfont.shx
   0
STYLE
   5
41
 100
AcDbSymbolTableRecord
 100
AcDbTextStyleTableRecord
   2
GMM007
  70
0
  40
0.0
  41
 1.0000000000000
  50
0.0
  71
     0
  42
1.0
   3

   4

1001
ACAD
1000
ＭＳ 明朝
1071
32785
   0
STYLE
   5
42
 100
AcDbSymbolTableRecord
 100
AcDbTextStyleTableRecord
   2
GMM008
  70
0
  40
0.0
  41
 0.65000000000000
  50
0.0
  71
     0
  42
1.0
   3
txt.shx
   4
bigfont.shx
   0
STYLE
   5
43
 100
AcDbSymbolTableRecord
 100
AcDbTextStyleTableRecord
   2
GMM009
  70
0
  40
0.0
  41
 1.6363636363636
  50
0.0
  71
     0
  42
1.0
   3
txt.shx
   4
bigfont.shx
   0
ENDTAB
  0
TABLE
  2
VIEW
  5
6
100
AcDbSymbolTable
 70
     0
  0
ENDTAB
  0
TABLE
  2
UCS
  5
7
100
AcDbSymbolTable
 70
     0
  0
ENDTAB
  0
TABLE
  2
APPID
  5
9
100
AcDbSymbolTable
 70
     1
  0
APPID
  5
10
100
AcDbSymbolTableRecord
100
AcDbRegAppTableRecord
  2
ACAD
 70
     0
  0
ENDTAB
   0
TABLE
   2
DIMSTYLE
   5
A
 100
AcDbSymbolTable
  70
10
 100
AcDbDimStyleTable
  0
DIMSTYLE
105
1D
100
AcDbSymbolTableRecord
100
AcDbDimStyleTableRecord
  2
STANDARD
 70
     0
  3

  4

  5

  6

  7

 40
1.0
 41
0.18
 42
0.0625
 43
0.38
 44
0.18
 45
0.0
 46
0.0
 47
0.0
 48
0.0
140
0.18
141
0.09
142
0.0
143
25.4
144
1.0
145
0.0
146
1.0
147
0.09
 71
     0
 72
     0
 73
     1
 74
     1
 75
     0
 76
     0
 77
     0
 78
     0
170
     0
171
     2
172
     0
173
     0
174
     0
175
     0
176
     0
177
     0
178
     0
270
     2
271
     4
272
     4
273
     2
274
     2
340
F
275
     0
280
     0
281
     0
282
     0
283
     1
284
     0
285
     0
286
     0
287
     3
288
     0
   0
DIMSTYLE
 105
44
 100
AcDbSymbolTableRecord
 100
AcDbDimStyleTableRecord
   2
GMM001
  70
0
   3

   4

   5

   6
_OPEN
   7
_OPEN
  40
 1.0000000000000
  41
 30.000000000000
  42
 30.000000000000
  43
 160.00000000000
  44
 30.000000000000
  45
0.0
  46
 37.500000000000
  47
0.0
  48
0.0
 140
 66.000000000000
 141
 20.000000000000
 142
0.0
 143
 0.39400000000000E-1
 144
 1.0000000000000
 145
0.0
 146
 0.62500000000000
 147
0.0
  71
0
  72
0
  73
0
  74
0
  75
1
  76
1
  77
0
  78
8
 170
0
 171
2
 172
1
 173
1
 174
0
 175
0
 176
1
 177
1
 178
1
 270
2
 271
1
 272
0
 273
2
 274
2
 340
F
 275
0
 280
0
 281
0
 282
0
 283
1
 284
0
 285
0
 286
0
 287
3
 288
0
   0
DIMSTYLE
 105
45
 100
AcDbSymbolTableRecord
 100
AcDbDimStyleTableRecord
   2
GMM002
  70
0
   3
□<>
   4

   5

   6
_OPEN
   7
_OPEN
  40
 1.0000000000000
  41
 30.000000000000
  42
 30.000000000000
  43
 160.00000000000
  44
 30.000000000000
  45
0.0
  46
 37.500000000000
  47
0.0
  48
0.0
 140
 66.000000000000
 141
 20.000000000000
 142
0.0
 143
 0.39400000000000E-1
 144
 1.0000000000000
 145
0.0
 146
 0.62500000000000
 147
 28.285714285714
  71
0
  72
0
  73
0
  74
0
  75
0
  76
0
  77
1
  78
8
 170
0
 171
2
 172
1
 173
1
 174
0
 175
0
 176
6
 177
6
 178
1
 270
2
 271
1
 272
0
 273
2
 274
2
 340
3B
 275
0
 280
0
 281
0
 282
0
 283
1
 284
0
 285
0
 286
0
 287
3
 288
0
   0
DIMSTYLE
 105
46
 100
AcDbSymbolTableRecord
 100
AcDbDimStyleTableRecord
   2
GMM003
  70
0
   3

   4

   5

   6
_OPEN
   7
_OPEN
  40
 1.0000000000000
  41
 30.000000000000
  42
 30.000000000000
  43
 160.00000000000
  44
 30.000000000000
  45
0.0
  46
 37.500000000000
  47
0.0
  48
0.0
 140
 66.000000000000
 141
 20.000000000000
 142
0.0
 143
 0.39400000000000E-1
 144
 1.0000000000000
 145
0.0
 146
 0.62500000000000
 147
 28.285714285714
  71
0
  72
0
  73
0
  74
0
  75
0
  76
1
  77
1
  78
8
 170
0
 171
2
 172
1
 173
1
 174
0
 175
0
 176
6
 177
6
 178
1
 270
2
 271
1
 272
0
 273
2
 274
2
 340
3B
 275
0
 280
0
 281
0
 282
0
 283
1
 284
0
 285
0
 286
0
 287
3
 288
0
   0
DIMSTYLE
 105
47
 100
AcDbSymbolTableRecord
 100
AcDbDimStyleTableRecord
   2
GMM004
  70
0
   3
<>(標準設置高さ
   4

   5

   6
_OPEN
   7
_OPEN
  40
 1.0000000000000
  41
 30.000000000000
  42
 30.000000000000
  43
 160.00000000000
  44
 30.000000000000
  45
0.0
  46
 37.500000000000
  47
0.0
  48
0.0
 140
 66.000000000000
 141
 20.000000000000
 142
0.0
 143
 0.39400000000000E-1
 144
 1.0000000000000
 145
0.0
 146
 0.62500000000000
 147
 28.285714285714
  71
0
  72
0
  73
0
  74
0
  75
0
  76
1
  77
1
  78
8
 170
0
 171
2
 172
1
 173
1
 174
0
 175
0
 176
6
 177
6
 178
1
 270
2
 271
1
 272
0
 273
2
 274
2
 340
3B
 275
0
 280
0
 281
0
 282
0
 283
1
 284
0
 285
0
 286
0
 287
3
 288
0
   0
DIMSTYLE
 105
48
 100
AcDbSymbolTableRecord
 100
AcDbDimStyleTableRecord
   2
GMM005
  70
0
   3

   4

   5

   6
_OPEN
   7
_OPEN
  40
 1.0000000000000
  41
 30.000000000000
  42
 30.000000000000
  43
 160.00000000000
  44
 30.000000000000
  45
0.0
  46
 37.500000000000
  47
0.0
  48
0.0
 140
 66.000000000000
 141
 20.000000000000
 142
0.0
 143
 0.39400000000000E-1
 144
 1.0000000000000
 145
0.0
 146
 0.62500000000000
 147
0.0
  71
0
  72
0
  73
0
  74
0
  75
1
  76
1
  77
0
  78
8
 170
0
 171
2
 172
1
 173
1
 174
0
 175
0
 176
1
 177
1
 178
1
 270
2
 271
1
 272
0
 273
2
 274
2
 340
F
 275
0
 280
0
 281
0
 282
0
 283
1
 284
0
 285
0
 286
0
 287
3
 288
0
   0
DIMSTYLE
 105
49
 100
AcDbSymbolTableRecord
 100
AcDbDimStyleTableRecord
   2
GMM006
  70
0
   3

   4

   5

   6
_OPEN
   7
_OPEN
  40
 1.0000000000000
  41
 30.000000000000
  42
 40.000000000000
  43
 160.00000000000
  44
 40.000000000000
  45
0.0
  46
 37.500000000000
  47
0.0
  48
0.0
 140
 66.000000000000
 141
 20.000000000000
 142
0.0
 143
 0.39400000000000E-1
 144
 1.0000000000000
 145
0.0
 146
 0.62500000000000
 147
 28.285714285714
  71
0
  72
0
  73
0
  74
0
  75
1
  76
1
  77
1
  78
8
 170
0
 171
2
 172
1
 173
1
 174
0
 175
0
 176
6
 177
6
 178
1
 270
2
 271
6
 272
0
 273
2
 274
2
 340
3B
 275
1
 280
0
 281
0
 282
0
 283
1
 284
0
 285
0
 286
0
 287
3
 288
1
   0
DIMSTYLE
 105
4A
 100
AcDbSymbolTableRecord
 100
AcDbDimStyleTableRecord
   2
GMM007
  70
0
   3

   4

   5

   6
_OPEN
   7
_OPEN
  40
 1.0000000000000
  41
 30.000000000000
  42
 30.000000000000
  43
 160.00000000000
  44
 30.000000000000
  45
0.0
  46
 37.500000000000
  47
0.0
  48
0.0
 140
 66.000000000000
 141
 20.000000000000
 142
0.0
 143
 0.39400000000000E-1
 144
 1.0000000000000
 145
0.0
 146
 0.62500000000000
 147
0.0
  71
0
  72
0
  73
0
  74
0
  75
1
  76
1
  77
0
  78
8
 170
0
 171
2
 172
1
 173
1
 174
0
 175
0
 176
1
 177
1
 178
1
 270
2
 271
1
 272
0
 273
2
 274
2
 340
F
 275
0
 280
0
 281
0
 282
0
 283
1
 284
0
 285
0
 286
0
 287
3
 288
0
   0
DIMSTYLE
 105
4B
 100
AcDbSymbolTableRecord
 100
AcDbDimStyleTableRecord
   2
GMM008
  70
0
   3

   4

   5

   6
_OPEN
   7
_OPEN
  40
 1.0000000000000
  41
 40.000000000000
  42
 40.000000000000
  43
 160.00000000000
  44
 40.000000000000
  45
0.0
  46
 50.000000000000
  47
0.0
  48
0.0
 140
 66.000000000000
 141
 20.000000000000
 142
0.0
 143
 0.39400000000000E-1
 144
 1.0000000000000
 145
0.0
 146
 0.62500000000000
 147
0.0
  71
0
  72
0
  73
0
  74
0
  75
1
  76
1
  77
1
  78
0
 170
0
 171
2
 172
1
 173
1
 174
0
 175
0
 176
6
 177
6
 178
1
 270
2
 271
0
 272
0
 273
2
 274
2
 340
3B
 275
1
 280
0
 281
0
 282
0
 283
1
 284
0
 285
0
 286
0
 287
3
 288
0
   0
ENDTAB
  0
TABLE
  2
BLOCK_RECORD
  5
1
100
AcDbSymbolTable
 70
     0
  0
BLOCK_RECORD
  5
18
100
AcDbSymbolTableRecord
100
AcDbBlockTableRecord
  2
*MODEL_SPACE
  0
BLOCK_RECORD
  5
15
100
AcDbSymbolTableRecord
100
AcDbBlockTableRecord
  2
*PAPER_SPACE
   0
BLOCK_RECORD
   5
4C
 100
AcDbSymbolTableRecord
 100
AcDbBlockTableRecord
   2
*D12
   0
BLOCK_RECORD
   5
4D
 100
AcDbSymbolTableRecord
 100
AcDbBlockTableRecord
   2
*D13
   0
BLOCK_RECORD
   5
4E
 100
AcDbSymbolTableRecord
 100
AcDbBlockTableRecord
   2
*D14
   0
BLOCK_RECORD
   5
4F
 100
AcDbSymbolTableRecord
 100
AcDbBlockTableRecord
   2
*D15
   0
BLOCK_RECORD
   5
50
 100
AcDbSymbolTableRecord
 100
AcDbBlockTableRecord
   2
*D16
   0
BLOCK_RECORD
   5
51
 100
AcDbSymbolTableRecord
 100
AcDbBlockTableRecord
   2
*D19
   0
BLOCK_RECORD
   5
52
 100
AcDbSymbolTableRecord
 100
AcDbBlockTableRecord
   2
*D20
   0
BLOCK_RECORD
   5
53
 100
AcDbSymbolTableRecord
 100
AcDbBlockTableRecord
   2
_ARCHTICK
   0
BLOCK_RECORD
   5
54
 100
AcDbSymbolTableRecord
 100
AcDbBlockTableRecord
   2
_BOXBLANK
   0
BLOCK_RECORD
   5
55
 100
AcDbSymbolTableRecord
 100
AcDbBlockTableRecord
   2
_BOXFILLED
   0
BLOCK_RECORD
   5
56
 100
AcDbSymbolTableRecord
 100
AcDbBlockTableRecord
   2
_CLOSED
   0
BLOCK_RECORD
   5
57
 100
AcDbSymbolTableRecord
 100
AcDbBlockTableRecord
   2
_CLOSEDBLANK
   0
BLOCK_RECORD
   5
58
 100
AcDbSymbolTableRecord
 100
AcDbBlockTableRecord
   2
_DATUMBLANK
   0
BLOCK_RECORD
   5
59
 100
AcDbSymbolTableRecord
 100
AcDbBlockTableRecord
   2
_DATUMFILLED
   0
BLOCK_RECORD
   5
5A
 100
AcDbSymbolTableRecord
 100
AcDbBlockTableRecord
   2
_DOT
   0
BLOCK_RECORD
   5
5B
 100
AcDbSymbolTableRecord
 100
AcDbBlockTableRecord
   2
_DOTBLANK
   0
BLOCK_RECORD
   5
5C
 100
AcDbSymbolTableRecord
 100
AcDbBlockTableRecord
   2
_DOTSMALL
   0
BLOCK_RECORD
   5
5D
 100
AcDbSymbolTableRecord
 100
AcDbBlockTableRecord
   2
_INTEGRAL
   0
BLOCK_RECORD
   5
5E
 100
AcDbSymbolTableRecord
 100
AcDbBlockTableRecord
   2
_NONE
   0
BLOCK_RECORD
   5
5F
 100
AcDbSymbolTableRecord
 100
AcDbBlockTableRecord
   2
_OBLIQUE
   0
BLOCK_RECORD
   5
60
 100
AcDbSymbolTableRecord
 100
AcDbBlockTableRecord
   2
_OPEN
   0
BLOCK_RECORD
   5
61
 100
AcDbSymbolTableRecord
 100
AcDbBlockTableRecord
   2
_OPEN30
   0
BLOCK_RECORD
   5
62
 100
AcDbSymbolTableRecord
 100
AcDbBlockTableRecord
   2
_OPEN90
   0
BLOCK_RECORD
   5
63
 100
AcDbSymbolTableRecord
 100
AcDbBlockTableRecord
   2
_ORIGIN
   0
ENDTAB
   0
ENDSEC
  0
SECTION
  2
BLOCKS
  0
BLOCK
  5
19
100
AcDbEntity
  8
0
100
AcDbBlockBegin
  2
*MODEL_SPACE
 70
     0
 10
0.0
 20
0.0
 30
0.0
  3
*MODEL_SPACE
  1

  0
ENDBLK
  5
1A
100
AcDbEntity
  8
0
100
AcDbBlockEnd
  0
BLOCK
  5
16
100
AcDbEntity
 67
     1
  8
0
100
AcDbBlockBegin
  2
*PAPER_SPACE
 70
     0
 10
0.0
 20
0.0
 30
0.0
  3
*PAPER_SPACE
  1

  0
ENDBLK
  5
17
100
AcDbEntity
 67
     1
  8
0
100
AcDbBlockEnd
   0
BLOCK
   5
64
 100
AcDbEntity
   8
0
 100
AcDbBlockBegin
   2
_ARCHTICK
  70
0
  10
0.0
  20
0.0
  30
0.0
   3
_ARCHTICK
   0
POLYLINE
   5
65
 100
AcDbEntity
   8
0
 370
-2
   6
BYBLOCK
  62
0
 100
AcDb2dPolyline
  66
1
  10
0.0
  20
0.0
  30
0.0
  70
1
  40
 0.15000000000000
  41
 0.15000000000000
   0
VERTEX
   5
66
 100
AcDbEntity
   8
0
   6
BYBLOCK
  62
0
 100
AcDbVertex
 100
AcDb2dVertex
  10
-0.50000000000000
  20
-0.50000000000000
  30
0.0
  40
 0.15000000000000
  41
 0.15000000000000
   0
VERTEX
   5
67
 100
AcDbEntity
   8
0
   6
BYBLOCK
  62
0
 100
AcDbVertex
 100
AcDb2dVertex
  10
 0.50000000000000
  20
 0.50000000000000
  30
0.0
  40
 0.15000000000000
  41
 0.15000000000000
   0
SEQEND
   5
68
 100
AcDbEntity
   8
0
   6
BYBLOCK
  62
0
   0
ENDBLK
   5
69
 100
AcDbEntity
   8
0
 100
AcDbBlockEnd
   0
BLOCK
   5
6A
 100
AcDbEntity
   8
0
 100
AcDbBlockBegin
   2
_OBLIQUE
  70
0
  10
0.0
  20
0.0
  30
0.0
   3
_OBLIQUE
   0
LINE
   5
6B
 100
AcDbEntity
   8
0
 370
-2
 100
AcDbLine
   6
BYBLOCK
  62
0
  10
-0.50000000000000
  20
-0.50000000000000
  30
0.0
  11
 0.50000000000000
  21
 0.50000000000000
  31
0.0
   0
ENDBLK
   5
6C
 100
AcDbEntity
   8
0
 100
AcDbBlockEnd
   0
BLOCK
   5
6D
 100
AcDbEntity
   8
0
 100
AcDbBlockBegin
   2
_BOXBLANK
  70
0
  10
0.0
  20
0.0
  30
0.0
   3
_BOXBLANK
   0
LINE
   5
6E
 100
AcDbEntity
   8
0
 370
-2
 100
AcDbLine
   6
BYBLOCK
  62
0
  10
-0.50000000000000
  20
-0.50000000000000
  30
0.0
  11
 0.50000000000000
  21
-0.50000000000000
  31
0.0
   0
LINE
   5
6F
 100
AcDbEntity
   8
0
 370
-2
 100
AcDbLine
   6
BYBLOCK
  62
0
  10
 0.50000000000000
  20
-0.50000000000000
  30
0.0
  11
 0.50000000000000
  21
 0.50000000000000
  31
0.0
   0
LINE
   5
70
 100
AcDbEntity
   8
0
 370
-2
 100
AcDbLine
   6
BYBLOCK
  62
0
  10
 0.50000000000000
  20
 0.50000000000000
  30
0.0
  11
-0.50000000000000
  21
 0.50000000000000
  31
0.0
   0
LINE
   5
71
 100
AcDbEntity
   8
0
 370
-2
 100
AcDbLine
   6
BYBLOCK
  62
0
  10
-0.50000000000000
  20
 0.50000000000000
  30
0.0
  11
-0.50000000000000
  21
-0.50000000000000
  31
0.0
   0
LINE
   5
72
 100
AcDbEntity
   8
0
 370
-2
 100
AcDbLine
   6
BYBLOCK
  62
0
  10
-0.50000000000000
  20
0.0
  30
0.0
  11
-1.0000000000000
  21
0.0
  31
0.0
   0
ENDBLK
   5
73
 100
AcDbEntity
   8
0
 100
AcDbBlockEnd
   0
BLOCK
   5
74
 100
AcDbEntity
   8
0
 100
AcDbBlockBegin
   2
_BOXFILLED
  70
0
  10
0.0
  20
0.0
  30
0.0
   3
_BOXFILLED
   0
SOLID
   5
75
 100
AcDbEntity
   8
0
 100
AcDbTrace
   6
BYBLOCK
  62
0
  10
-0.50000000000000
  20
 0.50000000000000
  30
0.0
  11
 0.50000000000000
  21
 0.50000000000000
  31
0.0
  12
-0.50000000000000
  22
-0.50000000000000
  32
0.0
  13
 0.50000000000000
  23
-0.50000000000000
  33
0.0
   0
LINE
   5
76
 100
AcDbEntity
   8
0
 370
-2
 100
AcDbLine
   6
BYBLOCK
  62
0
  10
-0.50000000000000
  20
0.0
  30
0.0
  11
-1.0000000000000
  21
0.0
  31
0.0
   0
ENDBLK
   5
77
 100
AcDbEntity
   8
0
 100
AcDbBlockEnd
   0
BLOCK
   5
78
 100
AcDbEntity
   8
0
 100
AcDbBlockBegin
   2
_CLOSED
  70
0
  10
0.0
  20
0.0
  30
0.0
   3
_CLOSED
   0
LINE
   5
79
 100
AcDbEntity
   8
0
 370
-2
 100
AcDbLine
   6
BYBLOCK
  62
0
  10
-1.0000000000000
  20
 0.16666666666667
  30
0.0
  11
0.0
  21
0.0
  31
0.0
   0
LINE
   5
7A
 100
AcDbEntity
   8
0
 370
-2
 100
AcDbLine
   6
BYBLOCK
  62
0
  10
0.0
  20
0.0
  30
0.0
  11
-1.0000000000000
  21
-0.16666666666667
  31
0.0
   0
LINE
   5
7B
 100
AcDbEntity
   8
0
 370
-2
 100
AcDbLine
   6
BYBLOCK
  62
0
  10
-1.0000000000000
  20
 0.16666666666667
  30
0.0
  11
-1.0000000000000
  21
-0.16666666666667
  31
0.0
   0
LINE
   5
7C
 100
AcDbEntity
   8
0
 370
-2
 100
AcDbLine
   6
BYBLOCK
  62
0
  10
0.0
  20
0.0
  30
0.0
  11
-1.0000000000000
  21
0.0
  31
0.0
   0
ENDBLK
   5
7D
 100
AcDbEntity
   8
0
 100
AcDbBlockEnd
   0
BLOCK
   5
7E
 100
AcDbEntity
   8
0
 100
AcDbBlockBegin
   2
_OPEN
  70
0
  10
0.0
  20
0.0
  30
0.0
   3
_OPEN
   0
LINE
   5
7F
 100
AcDbEntity
   8
0
 370
-2
 100
AcDbLine
   6
BYBLOCK
  62
0
  10
-1.0000000000000
  20
 0.16666666666667
  30
0.0
  11
0.0
  21
0.0
  31
0.0
   0
LINE
   5
80
 100
AcDbEntity
   8
0
 370
-2
 100
AcDbLine
   6
BYBLOCK
  62
0
  10
0.0
  20
0.0
  30
0.0
  11
-1.0000000000000
  21
-0.16666666666667
  31
0.0
   0
LINE
   5
81
 100
AcDbEntity
   8
0
 370
-2
 100
AcDbLine
   6
BYBLOCK
  62
0
  10
0.0
  20
0.0
  30
0.0
  11
-1.0000000000000
  21
0.0
  31
0.0
   0
ENDBLK
   5
82
 100
AcDbEntity
   8
0
 100
AcDbBlockEnd
   0
BLOCK
   5
83
 100
AcDbEntity
   8
0
 100
AcDbBlockBegin
   2
_OPEN30
  70
0
  10
0.0
  20
0.0
  30
0.0
   3
_OPEN30
   0
LINE
   5
84
 100
AcDbEntity
   8
0
 370
-2
 100
AcDbLine
   6
BYBLOCK
  62
0
  10
-1.0000000000000
  20
 0.26794919243110
  30
0.0
  11
0.0
  21
0.0
  31
0.0
   0
LINE
   5
85
 100
AcDbEntity
   8
0
 370
-2
 100
AcDbLine
   6
BYBLOCK
  62
0
  10
0.0
  20
0.0
  30
0.0
  11
-1.0000000000000
  21
-0.26794919243110
  31
0.0
   0
LINE
   5
86
 100
AcDbEntity
   8
0
 370
-2
 100
AcDbLine
   6
BYBLOCK
  62
0
  10
0.0
  20
0.0
  30
0.0
  11
-1.0000000000000
  21
0.0
  31
0.0
   0
ENDBLK
   5
87
 100
AcDbEntity
   8
0
 100
AcDbBlockEnd
   0
BLOCK
   5
88
 100
AcDbEntity
   8
0
 100
AcDbBlockBegin
   2
_OPEN90
  70
0
  10
0.0
  20
0.0
  30
0.0
   3
_OPEN90
   0
LINE
   5
89
 100
AcDbEntity
   8
0
 370
-2
 100
AcDbLine
   6
BYBLOCK
  62
0
  10
-0.50000000000000
  20
 0.50000000000000
  30
0.0
  11
0.0
  21
0.0
  31
0.0
   0
LINE
   5
8A
 100
AcDbEntity
   8
0
 370
-2
 100
AcDbLine
   6
BYBLOCK
  62
0
  10
0.0
  20
0.0
  30
0.0
  11
-0.50000000000000
  21
-0.50000000000000
  31
0.0
   0
LINE
   5
8B
 100
AcDbEntity
   8
0
 370
-2
 100
AcDbLine
   6
BYBLOCK
  62
0
  10
0.0
  20
0.0
  30
0.0
  11
-1.0000000000000
  21
0.0
  31
0.0
   0
ENDBLK
   5
8C
 100
AcDbEntity
   8
0
 100
AcDbBlockEnd
   0
BLOCK
   5
8D
 100
AcDbEntity
   8
0
 100
AcDbBlockBegin
   2
_CLOSEDBLANK
  70
0
  10
0.0
  20
0.0
  30
0.0
   3
_CLOSEDBLANK
   0
LINE
   5
8E
 100
AcDbEntity
   8
0
 370
-2
 100
AcDbLine
   6
BYBLOCK
  62
0
  10
-1.0000000000000
  20
 0.16666666666667
  30
0.0
  11
0.0
  21
0.0
  31
0.0
   0
LINE
   5
8F
 100
AcDbEntity
   8
0
 370
-2
 100
AcDbLine
   6
BYBLOCK
  62
0
  10
0.0
  20
0.0
  30
0.0
  11
-1.0000000000000
  21
-0.16666666666667
  31
0.0
   0
LINE
   5
90
 100
AcDbEntity
   8
0
 370
-2
 100
AcDbLine
   6
BYBLOCK
  62
0
  10
-1.0000000000000
  20
 0.16666666666667
  30
0.0
  11
-1.0000000000000
  21
-0.16666666666667
  31
0.0
   0
ENDBLK
   5
91
 100
AcDbEntity
   8
0
 100
AcDbBlockEnd
   0
BLOCK
   5
92
 100
AcDbEntity
   8
0
 100
AcDbBlockBegin
   2
_DOT
  70
0
  10
0.0
  20
0.0
  30
0.0
   3
_DOT
   0
POLYLINE
   5
93
 100
AcDbEntity
   8
0
 370
-2
   6
BYBLOCK
  62
0
 100
AcDb2dPolyline
  66
1
  10
0.0
  20
0.0
  30
0.0
  70
1
  40
 0.50000000000000
  41
 0.50000000000000
   0
VERTEX
   5
94
 100
AcDbEntity
   8
0
   6
BYBLOCK
  62
0
 100
AcDbVertex
 100
AcDb2dVertex
  10
-0.25000000000000
  20
0.0
  30
0.0
  42
 1.0000000000000
  40
 0.50000000000000
  41
 0.50000000000000
   0
VERTEX
   5
95
 100
AcDbEntity
   8
0
   6
BYBLOCK
  62
0
 100
AcDbVertex
 100
AcDb2dVertex
  10
 0.25000000000000
  20
0.0
  30
0.0
  42
 1.0000000000000
  40
 0.50000000000000
  41
 0.50000000000000
   0
SEQEND
   5
96
 100
AcDbEntity
   8
0
   6
BYBLOCK
  62
0
   0
LINE
   5
97
 100
AcDbEntity
   8
0
 370
-2
 100
AcDbLine
   6
BYBLOCK
  62
0
  10
-0.50000000000000
  20
0.0
  30
0.0
  11
-1.0000000000000
  21
0.0
  31
0.0
   0
ENDBLK
   5
98
 100
AcDbEntity
   8
0
 100
AcDbBlockEnd
   0
BLOCK
   5
99
 100
AcDbEntity
   8
0
 100
AcDbBlockBegin
   2
_DOTSMALL
  70
0
  10
0.0
  20
0.0
  30
0.0
   3
_DOTSMALL
   0
POLYLINE
   5
9A
 100
AcDbEntity
   8
0
 370
-2
   6
BYBLOCK
  62
0
 100
AcDb2dPolyline
  66
1
  10
0.0
  20
0.0
  30
0.0
  70
1
  40
 0.50000000000000
  41
 0.50000000000000
   0
VERTEX
   5
9B
 100
AcDbEntity
   8
0
   6
BYBLOCK
  62
0
 100
AcDbVertex
 100
AcDb2dVertex
  10
-0.62500000000000E-1
  20
0.0
  30
0.0
  42
 1.0000000000000
  40
 0.50000000000000
  41
 0.50000000000000
   0
VERTEX
   5
9C
 100
AcDbEntity
   8
0
   6
BYBLOCK
  62
0
 100
AcDbVertex
 100
AcDb2dVertex
  10
 0.62500000000000E-1
  20
0.0
  30
0.0
  42
 1.0000000000000
  40
 0.50000000000000
  41
 0.50000000000000
   0
SEQEND
   5
9D
 100
AcDbEntity
   8
0
   6
BYBLOCK
  62
0
   0
ENDBLK
   5
9E
 100
AcDbEntity
   8
0
 100
AcDbBlockEnd
   0
BLOCK
   5
9F
 100
AcDbEntity
   8
0
 100
AcDbBlockBegin
   2
_DATUMBLANK
  70
0
  10
0.0
  20
0.0
  30
0.0
   3
_DATUMBLANK
   0
LINE
   5
A0
 100
AcDbEntity
   8
0
 370
-2
 100
AcDbLine
   6
BYBLOCK
  62
0
  10
0.0
  20
 0.57735027000000
  30
0.0
  11
-1.0000000000000
  21
0.0
  31
0.0
   0
LINE
   5
A1
 100
AcDbEntity
   8
0
 370
-2
 100
AcDbLine
   6
BYBLOCK
  62
0
  10
-1.0000000000000
  20
0.0
  30
0.0
  11
0.0
  21
-0.57735027000000
  31
0.0
   0
LINE
   5
A2
 100
AcDbEntity
   8
0
 370
-2
 100
AcDbLine
   6
BYBLOCK
  62
0
  10
0.0
  20
-0.57735027000000
  30
0.0
  11
0.0
  21
 0.57735027000000
  31
0.0
   0
ENDBLK
   5
A3
 100
AcDbEntity
   8
0
 100
AcDbBlockEnd
   0
BLOCK
   5
A4
 100
AcDbEntity
   8
0
 100
AcDbBlockBegin
   2
_DATUMFILLED
  70
0
  10
0.0
  20
0.0
  30
0.0
   3
_DATUMFILLED
   0
SOLID
   5
A5
 100
AcDbEntity
   8
0
 100
AcDbTrace
   6
BYBLOCK
  62
0
  10
0.0
  20
 0.57735027000000
  30
0.0
  11
-1.0000000000000
  21
0.0
  31
0.0
  12
0.0
  22
-0.57735027000000
  32
0.0
  13
0.0
  23
-0.57735027000000
  33
0.0
   0
ENDBLK
   5
A6
 100
AcDbEntity
   8
0
 100
AcDbBlockEnd
   0
BLOCK
   5
A7
 100
AcDbEntity
   8
0
 100
AcDbBlockBegin
   2
_ORIGIN
  70
0
  10
0.0
  20
0.0
  30
0.0
   3
_ORIGIN
   0
CIRCLE
   5
A8
 100
AcDbEntity
   8
0
 370
-2
 100
AcDbCircle
   6
BYBLOCK
  62
0
  10
0.0
  20
0.0
  30
0.0
  40
 0.50000000000000
   0
LINE
   5
A9
 100
AcDbEntity
   8
0
 370
-2
 100
AcDbLine
   6
BYBLOCK
  62
0
  10
0.0
  20
0.0
  30
0.0
  11
-1.0000000000000
  21
0.0
  31
0.0
   0
ENDBLK
   5
AA
 100
AcDbEntity
   8
0
 100
AcDbBlockEnd
   0
BLOCK
   5
AB
 100
AcDbEntity
   8
0
 100
AcDbBlockBegin
   2
_NONE
  70
0
  10
0.0
  20
0.0
  30
0.0
   3
_NONE
   0
CIRCLE
   5
AC
 100
AcDbEntity
   8
0
 370
-2
 100
AcDbCircle
   6
BYBLOCK
  62
0
  10
0.0
  20
0.0
  30
0.0
  40
 0.25000000000000
   0
ENDBLK
   5
AD
 100
AcDbEntity
   8
0
 100
AcDbBlockEnd
   0
BLOCK
   5
AE
 100
AcDbEntity
   8
0
 100
AcDbBlockBegin
   2
_DOTBLANK
  70
0
  10
0.0
  20
0.0
  30
0.0
   3
_DOTBLANK
   0
CIRCLE
   5
AF
 100
AcDbEntity
   8
0
 370
-2
 100
AcDbCircle
   6
BYBLOCK
  62
0
  10
0.0
  20
0.0
  30
0.0
  40
 0.50000000000000
   0
LINE
   5
B0
 100
AcDbEntity
   8
0
 370
-2
 100
AcDbLine
   6
BYBLOCK
  62
0
  10
-0.50000000000000
  20
0.0
  30
0.0
  11
-1.0000000000000
  21
0.0
  31
0.0
   0
ENDBLK
   5
B1
 100
AcDbEntity
   8
0
 100
AcDbBlockEnd
   0
BLOCK
   5
B2
 100
AcDbEntity
   8
0
 100
AcDbBlockBegin
   2
_INTEGRAL
  70
0
  10
0.0
  20
0.0
  30
0.0
   3
_INTEGRAL
   0
ARC
   5
B3
 100
AcDbEntity
   8
0
 370
-2
   6
BYBLOCK
  62
0
 100
AcDbCircle
  10
 0.44488800000000
  20
-0.91335000000000E-1
  30
0.0
  40
 0.45416700000000
 100
AcDbArc
  50
 102.00000000000
  51
 168.00000000000
   0
ARC
   5
B4
 100
AcDbEntity
   8
0
 370
-2
   6
BYBLOCK
  62
0
 100
AcDbCircle
  10
-0.44488800000000
  20
 0.91335000000000E-1
  30
0.0
  40
 0.45416700000000
 100
AcDbArc
  50
 282.00000000000
  51
 348.00000000000
   0
ENDBLK
   5
B5
 100
AcDbEntity
   8
0
 100
AcDbBlockEnd
   0
BLOCK
   5
B6
 100
AcDbEntity
   8
0
 100
AcDbBlockBegin
   2
*D12
  70
65
  10
0.0
  20
0.0
  30
0.0
   3
*D12
   0
LINE
   5
B7
 100
AcDbEntity
   8
LEVEL001
 370
13
 100
AcDbLine
   6
CONTINUOUS
  62
6
  10
 1250.0000000000
  20
 420.00000000000
  30
0.0
  11
 1250.0000000000
  21
 220.00000000000
  31
0.0
   0
LINE
   5
B8
 100
AcDbEntity
   8
LEVEL001
 370
13
 100
AcDbLine
   6
CONTINUOUS
  62
6
  10
 1750.0000000000
  20
 420.00000000000
  30
0.0
  11
 1750.0000000000
  21
 220.00000000000
  31
0.0
   0
LINE
   5
B9
 100
AcDbEntity
   8
LEVEL001
 370
13
 100
AcDbLine
   6
CONTINUOUS
  62
6
  10
 1250.0000000000
  20
 250.00000000000
  30
0.0
  11
 1750.0000000000
  21
 250.00000000000
  31
0.0
   0
INSERT
   5
BA
 100
AcDbEntity
   8
LEVEL001
   6
CONTINUOUS
  62
6
 100
AcDbBlockReference
   2
_OPEN
  10
 1250.0000000000
  20
 250.00000000000
  30
0.0
  41
 30.000000000000
  42
 30.000000000000
  43
 30.000000000000
  50
 180.00000000000
   0
INSERT
   5
BB
 100
AcDbEntity
   8
LEVEL001
   6
CONTINUOUS
  62
6
 100
AcDbBlockReference
   2
_OPEN
  10
 1750.0000000000
  20
 250.00000000000
  30
0.0
  41
 30.000000000000
  42
 30.000000000000
  43
 30.000000000000
  50
0.0
   0
MTEXT
   5
BC
 100
AcDbEntity
   8
LEVEL001
 370
13
  62
1
 100
AcDbMText
  10
 1500.0000000000
  20
 278.28571428571
  30
0.0
  40
 66.000000000000
  41
0.0
  71
8
  72
1
   1
\A1;□500
   7
GMM001
   0
ENDBLK
   5
BD
 100
AcDbEntity
   8
0
 100
AcDbBlockEnd
   0
BLOCK
   5
BE
 100
AcDbEntity
   8
0
 100
AcDbBlockBegin
   2
*D13
  70
65
  10
0.0
  20
0.0
  30
0.0
   3
*D13
   0
LINE
   5
BF
 100
AcDbEntity
   8
LEVEL001
 370
13
 100
AcDbLine
   6
CONTINUOUS
  62
6
  10
 3000.0000000000
  20
 420.00000000000
  30
0.0
  11
 3000.0000000000
  21
 220.00000000000
  31
0.0
   0
LINE
   5
C0
 100
AcDbEntity
   8
LEVEL001
 370
13
 100
AcDbLine
   6
CONTINUOUS
  62
6
  10
 3500.0000000000
  20
 420.00000000000
  30
0.0
  11
 3500.0000000000
  21
 220.00000000000
  31
0.0
   0
LINE
   5
C1
 100
AcDbEntity
   8
LEVEL001
 370
13
 100
AcDbLine
   6
CONTINUOUS
  62
6
  10
 3000.0000000000
  20
 250.00000000000
  30
0.0
  11
 3500.0000000000
  21
 250.00000000000
  31
0.0
   0
INSERT
   5
C2
 100
AcDbEntity
   8
LEVEL001
   6
CONTINUOUS
  62
6
 100
AcDbBlockReference
   2
_OPEN
  10
 3000.0000000000
  20
 250.00000000000
  30
0.0
  41
 30.000000000000
  42
 30.000000000000
  43
 30.000000000000
  50
 180.00000000000
   0
INSERT
   5
C3
 100
AcDbEntity
   8
LEVEL001
   6
CONTINUOUS
  62
6
 100
AcDbBlockReference
   2
_OPEN
  10
 3500.0000000000
  20
 250.00000000000
  30
0.0
  41
 30.000000000000
  42
 30.000000000000
  43
 30.000000000000
  50
0.0
   0
MTEXT
   5
C4
 100
AcDbEntity
   8
LEVEL001
 370
13
  62
1
 100
AcDbMText
  10
 3250.0000000000
  20
 278.28571428571
  30
0.0
  40
 66.000000000000
  41
0.0
  71
8
  72
1
   1
\A1;□500
   7
GMM001
   0
ENDBLK
   5
C5
 100
AcDbEntity
   8
0
 100
AcDbBlockEnd
   0
BLOCK
   5
C6
 100
AcDbEntity
   8
0
 100
AcDbBlockBegin
   2
*D14
  70
65
  10
0.0
  20
0.0
  30
0.0
   3
*D14
   0
LINE
   5
C7
 100
AcDbEntity
   8
LEVEL001
 370
13
 100
AcDbLine
   6
CONTINUOUS
  62
6
  10
 1220.0000000000
  20
 450.00000000000
  30
0.0
  11
 720.00000000000
  21
 450.00000000000
  31
0.0
   0
LINE
   5
C8
 100
AcDbEntity
   8
LEVEL001
 370
13
 100
AcDbLine
   6
CONTINUOUS
  62
6
  10
 1220.0000000000
  20
 550.00000000000
  30
0.0
  11
 720.00000000000
  21
 550.00000000000
  31
0.0
   0
LINE
   5
C9
 100
AcDbEntity
   8
LEVEL001
 370
13
 100
AcDbLine
   6
CONTINUOUS
  62
6
  10
 750.00000000000
  20
 450.00000000000
  30
0.0
  11
 750.00000000000
  21
 550.00000000000
  31
0.0
   0
INSERT
   5
CA
 100
AcDbEntity
   8
LEVEL001
   6
CONTINUOUS
  62
6
 100
AcDbBlockReference
   2
_OPEN
  10
 750.00000000000
  20
 450.00000000000
  30
0.0
  41
 30.000000000000
  42
 30.000000000000
  43
 30.000000000000
  50
 270.00000000000
   0
INSERT
   5
CB
 100
AcDbEntity
   8
LEVEL001
   6
CONTINUOUS
  62
6
 100
AcDbBlockReference
   2
_OPEN
  10
 750.00000000000
  20
 550.00000000000
  30
0.0
  41
 30.000000000000
  42
 30.000000000000
  43
 30.000000000000
  50
 90.000000000000
   0
MTEXT
   5
CC
 100
AcDbEntity
   8
LEVEL001
 370
13
  62
1
 100
AcDbMText
  10
 721.71428571429
  20
 500.00000000000
  30
0.0
  40
 66.000000000000
  41
0.0
  71
8
  72
1
   1
\A1;100
   7
GMM001
  11
0.0
  21
 1.0000000000000
  31
0.0
   0
ENDBLK
   5
CD
 100
AcDbEntity
   8
0
 100
AcDbBlockEnd
   0
BLOCK
   5
CE
 100
AcDbEntity
   8
0
 100
AcDbBlockBegin
   2
*D15
  70
65
  10
0.0
  20
0.0
  30
0.0
   3
*D15
   0
LINE
   5
CF
 100
AcDbEntity
   8
LEVEL001
 370
13
 100
AcDbLine
   6
CONTINUOUS
  62
6
  10
 1220.0000000000
  20
 550.00000000000
  30
0.0
  11
 720.00000000000
  21
 550.00000000000
  31
0.0
   0
LINE
   5
D0
 100
AcDbEntity
   8
LEVEL001
 370
13
 100
AcDbLine
   6
CONTINUOUS
  62
6
  10
 920.00006523496
  20
 1750.0000000000
  30
0.0
  11
 720.00000000000
  21
 1750.0000000000
  31
0.0
   0
LINE
   5
D1
 100
AcDbEntity
   8
LEVEL001
 370
13
 100
AcDbLine
   6
CONTINUOUS
  62
6
  10
 750.00000000000
  20
 550.00000000000
  30
0.0
  11
 750.00000000000
  21
 1750.0000000000
  31
0.0
   0
INSERT
   5
D2
 100
AcDbEntity
   8
LEVEL001
   6
CONTINUOUS
  62
6
 100
AcDbBlockReference
   2
_OPEN
  10
 750.00000000000
  20
 550.00000000000
  30
0.0
  41
 30.000000000000
  42
 30.000000000000
  43
 30.000000000000
  50
 270.00000000000
   0
INSERT
   5
D3
 100
AcDbEntity
   8
LEVEL001
   6
CONTINUOUS
  62
6
 100
AcDbBlockReference
   2
_OPEN
  10
 750.00000000000
  20
 1750.0000000000
  30
0.0
  41
 30.000000000000
  42
 30.000000000000
  43
 30.000000000000
  50
 90.000000000000
   0
MTEXT
   5
D4
 100
AcDbEntity
   8
LEVEL001
 370
13
  62
1
 100
AcDbMText
  10
 721.71428571429
  20
 1150.0000000000
  30
0.0
  40
 66.000000000000
  41
0.0
  71
8
  72
1
   1
\A1;1200
   7
GMM001
  11
0.0
  21
 1.0000000000000
  31
0.0
   0
ENDBLK
   5
D5
 100
AcDbEntity
   8
0
 100
AcDbBlockEnd
   0
BLOCK
   5
D6
 100
AcDbEntity
   8
0
 100
AcDbBlockBegin
   2
*D16
  70
65
  10
0.0
  20
0.0
  30
0.0
   3
*D16
   0
LINE
   5
D7
 100
AcDbEntity
   8
LEVEL001
 370
13
 100
AcDbLine
   6
CONTINUOUS
  62
6
  10
 920.00006523496
  20
 1750.0000000000
  30
0.0
  11
 720.00000000000
  21
 1750.0000000000
  31
0.0
   0
LINE
   5
D8
 100
AcDbEntity
   8
LEVEL001
 370
13
 100
AcDbLine
   6
CONTINUOUS
  62
6
  10
 750.00000000000
  20
 4250.0000000000
  30
0.0
  11
 750.00000000000
  21
 4250.0000000000
  31
0.0
   0
LINE
   5
D9
 100
AcDbEntity
   8
LEVEL001
 370
13
 100
AcDbLine
   6
CONTINUOUS
  62
6
  10
 750.00000000000
  20
 1750.0000000000
  30
0.0
  11
 750.00000000000
  21
 4250.0000000000
  31
0.0
   0
INSERT
   5
DA
 100
AcDbEntity
   8
LEVEL001
   6
CONTINUOUS
  62
6
 100
AcDbBlockReference
   2
_OPEN
  10
 750.00000000000
  20
 1750.0000000000
  30
0.0
  41
 30.000000000000
  42
 30.000000000000
  43
 30.000000000000
  50
 270.00000000000
   0
INSERT
   5
DB
 100
AcDbEntity
   8
LEVEL001
   6
CONTINUOUS
  62
6
 100
AcDbBlockReference
   2
_OPEN
  10
 750.00000000000
  20
 4250.0000000000
  30
0.0
  41
 30.000000000000
  42
 30.000000000000
  43
 30.000000000000
  50
 90.000000000000
   0
MTEXT
   5
DC
 100
AcDbEntity
   8
LEVEL001
 370
13
  62
1
 100
AcDbMText
  10
 721.71428571429
  20
 3000.0000000000
  30
0.0
  40
 66.000000000000
  41
0.0
  71
8
  72
1
   1
\A1;2500(標準設置高さ)
   7
GMM001
  11
0.0
  21
 1.0000000000000
  31
0.0
   0
ENDBLK
   5
DD
 100
AcDbEntity
   8
0
 100
AcDbBlockEnd
   0
BLOCK
   5
DE
 100
AcDbEntity
   8
0
 100
AcDbBlockBegin
   2
*D19
  70
65
  10
0.0
  20
0.0
  30
0.0
   3
*D19
   0
LINE
   5
DF
 100
AcDbEntity
   8
LEVEL001
 370
13
 100
AcDbLine
   6
CONTINUOUS
  62
6
  10
 1312.5000000000
  20
 4250.0000000000
  30
0.0
  11
 1312.5000000000
  21
 4250.0000000000
  31
0.0
   0
LINE
   5
E0
 100
AcDbEntity
   8
LEVEL001
 370
13
 100
AcDbLine
   6
CONTINUOUS
  62
6
  10
 1312.5000000000
  20
 4850.0000000000
  30
0.0
  11
 1312.5000000000
  21
 4850.0000000000
  31
0.0
   0
LINE
   5
E1
 100
AcDbEntity
   8
LEVEL001
 370
13
 100
AcDbLine
   6
CONTINUOUS
  62
6
  10
 1312.5000000000
  20
 4250.0000000000
  30
0.0
  11
 1312.5000000000
  21
 4850.0000000000
  31
0.0
   0
INSERT
   5
E2
 100
AcDbEntity
   8
LEVEL001
   6
CONTINUOUS
  62
6
 100
AcDbBlockReference
   2
_OPEN
  10
 1312.5000000000
  20
 4250.0000000000
  30
0.0
  41
 30.000000000000
  42
 30.000000000000
  43
 30.000000000000
  50
 270.00000000000
   0
INSERT
   5
E3
 100
AcDbEntity
   8
LEVEL001
   6
CONTINUOUS
  62
6
 100
AcDbBlockReference
   2
_OPEN
  10
 1312.5000000000
  20
 4850.0000000000
  30
0.0
  41
 30.000000000000
  42
 30.000000000000
  43
 30.000000000000
  50
 90.000000000000
   0
MTEXT
   5
E4
 100
AcDbEntity
   8
LEVEL001
 370
13
  62
1
 100
AcDbMText
  10
 1284.2142857143
  20
 4687.5000000000
  30
0.0
  40
 66.000000000000
  41
0.0
  71
8
  72
1
   1
\A1;600
   7
GMM001
  11
0.0
  21
 1.0000000000000
  31
0.0
   0
ENDBLK
   5
E5
 100
AcDbEntity
   8
0
 100
AcDbBlockEnd
   0
BLOCK
   5
E6
 100
AcDbEntity
   8
0
 100
AcDbBlockBegin
   2
*D20
  70
65
  10
0.0
  20
0.0
  30
0.0
   3
*D20
   0
LINE
   5
E7
 100
AcDbEntity
   8
LEVEL001
 370
13
 100
AcDbLine
   6
CONTINUOUS
  62
6
  10
 625.00000000000
  20
 4375.0000000000
  30
0.0
  11
 625.00000000000
  21
 4375.0000000000
  31
0.0
   0
LINE
   5
E8
 100
AcDbEntity
   8
LEVEL001
 370
13
 100
AcDbLine
   6
CONTINUOUS
  62
6
  10
 1425.0000000000
  20
 4375.0000000000
  30
0.0
  11
 1425.0000000000
  21
 4375.0000000000
  31
0.0
   0
LINE
   5
E9
 100
AcDbEntity
   8
LEVEL001
 370
13
 100
AcDbLine
   6
CONTINUOUS
  62
6
  10
 625.00000000000
  20
 4375.0000000000
  30
0.0
  11
 1425.0000000000
  21
 4375.0000000000
  31
0.0
   0
INSERT
   5
EA
 100
AcDbEntity
   8
LEVEL001
   6
CONTINUOUS
  62
6
 100
AcDbBlockReference
   2
_OPEN
  10
 625.00000000000
  20
 4375.0000000000
  30
0.0
  41
 30.000000000000
  42
 30.000000000000
  43
 30.000000000000
  50
 180.00000000000
   0
INSERT
   5
EB
 100
AcDbEntity
   8
LEVEL001
   6
CONTINUOUS
  62
6
 100
AcDbBlockReference
   2
_OPEN
  10
 1425.0000000000
  20
 4375.0000000000
  30
0.0
  41
 30.000000000000
  42
 30.000000000000
  43
 30.000000000000
  50
0.0
   0
MTEXT
   5
EC
 100
AcDbEntity
   8
LEVEL001
 370
13
  62
1
 100
AcDbMText
  10
 875.00000000000
  20
 4403.2857142857
  30
0.0
  40
 66.000000000000
  41
0.0
  71
8
  72
1
   1
\A1;800
   7
GMM001
   0
ENDBLK
   5
ED
 100
AcDbEntity
   8
0
 100
AcDbBlockEnd
   0
ENDSEC
   0
SECTION
   2
ENTITIES
   0
LWPOLYLINE
   5
EE
 100
AcDbEntity
   8
LEVEL001
 370
13
   6
CONTINUOUS
  62
7
 100
AcDbPolyline
  90
4
  70
1
  10
 1544.5500000000
  20
 4953.9999997960
  10
 1455.4500000000
  20
 4953.9999997960
  10
 1455.4500000000
  20
 4950.9999997960
  10
 1544.5500000000
  20
 4950.9999997960
   0
LWPOLYLINE
   5
EF
 100
AcDbEntity
   8
LEVEL001
 370
13
   6
DOT
  62
1
 100
AcDbPolyline
  90
4
  70
0
  10
 1539.5500000000
  20
 4950.9999997960
  10
 1539.5500000000
  20
 4923.9999997960
  10
 1460.4500000000
  20
 4923.9999997960
  10
 1460.4500000000
  20
 4950.9999997960
   0
CIRCLE
   5
F0
 100
AcDbEntity
   8
LEVEL001
 370
13
 100
AcDbCircle
   6
CONTINUOUS
  62
1
  10
 1789.7826555665
  20
 3717.6620723165
  30
0.0
  40
 70.000000000000
   0
MTEXT
   5
F2
 100
AcDbEntity
   8
LEVEL001
 370
13
  62
7
 100
AcDbMText
  10
 1789.7826555665
  20
 3717.6620723165
  30
0.0
  40
 66.000000000000
  41
0.0
  71
5
  72
1
   1
\T1.000000;１５
   7
GMM001
  44
 0.79999984000003
   0
LWPOLYLINE
   5
F3
 100
AcDbEntity
   8
LEVEL001
 370
13
   6
CONTINUOUS
  62
7
 100
AcDbPolyline
  90
4
  70
0
  10
 1455.4500000000
  20
 957.50000000000
  10
 1383.5999819144
  20
 957.50000000000
  10
 1383.5999819144
  20
 942.50000000000
  10
 1455.4500000000
  20
 942.50000000000
   0
LWPOLYLINE
   5
F4
 100
AcDbEntity
   8
LEVEL001
 370
13
   6
CONTINUOUS
  62
7
 100
AcDbPolyline
  90
4
  70
0
  10
 1544.5500000000
  20
 957.50000000000
  10
 1616.3999819144
  20
 957.50000000000
  10
 1616.3999819144
  20
 942.50000000000
  10
 1544.5500000000
  20
 942.50000000000
   0
LINE
   5
F5
 100
AcDbEntity
   8
LEVEL001
 370
13
 100
AcDbLine
   6
DASHDOT
  62
6
  10
 1433.5999819144
  20
 950.00000000000
  30
0.0
  11
 1566.3999819144
  21
 950.00000000000
  31
0.0
   0
LINE
   5
F6
 100
AcDbEntity
   8
LEVEL001
 370
13
 100
AcDbLine
   6
CONTINUOUS
  62
5
  10
 1400.0000000000
  20
 550.00000000000
  30
0.0
  11
 1350.0000000000
  21
 450.00000000000
  31
0.0
   0
LINE
   5
F7
 100
AcDbEntity
   8
LEVEL001
 370
13
 100
AcDbLine
   6
CONTINUOUS
  62
5
  10
 1350.0000000000
  20
 550.00000000000
  30
0.0
  11
 1390.0000000000
  21
 530.00000000000
  31
0.0
   0
LINE
   5
F8
 100
AcDbEntity
   8
LEVEL001
 370
13
 100
AcDbLine
   6
CONTINUOUS
  62
5
  10
 1350.0000000000
  20
 550.00000000000
  30
0.0
  11
 1300.0000000000
  21
 450.00000000000
  31
0.0
   0
LINE
   5
F9
 100
AcDbEntity
   8
LEVEL001
 370
13
 100
AcDbLine
   6
CONTINUOUS
  62
5
  10
 1300.0000000000
  20
 550.00000000000
  30
0.0
  11
 1340.0000000000
  21
 530.00000000000
  31
0.0
   0
LINE
   5
FA
 100
AcDbEntity
   8
LEVEL001
 370
13
 100
AcDbLine
   6
CONTINUOUS
  62
5
  10
 1300.0000000000
  20
 550.00000000000
  30
0.0
  11
 1250.0000000000
  21
 450.00000000000
  31
0.0
   0
LINE
   5
FB
 100
AcDbEntity
   8
LEVEL001
 370
13
 100
AcDbLine
   6
CONTINUOUS
  62
5
  10
 1250.0000000000
  20
 550.00000000000
  30
0.0
  11
 1290.0000000000
  21
 530.00000000000
  31
0.0
   0
LINE
   5
FC
 100
AcDbEntity
   8
LEVEL001
 370
13
 100
AcDbLine
   6
CONTINUOUS
  62
5
  10
 1400.0000000000
  20
 450.00000000000
  30
0.0
  11
 1360.0000000000
  21
 470.00000000000
  31
0.0
   0
LINE
   5
FD
 100
AcDbEntity
   8
LEVEL001
 370
13
 100
AcDbLine
   6
CONTINUOUS
  62
5
  10
 1350.0000000000
  20
 450.00000000000
  30
0.0
  11
 1310.0000000000
  21
 470.00000000000
  31
0.0
   0
LINE
   5
FE
 100
AcDbEntity
   8
LEVEL001
 370
13
 100
AcDbLine
   6
CONTINUOUS
  62
5
  10
 1300.0000000000
  20
 450.00000000000
  30
0.0
  11
 1260.0000000000
  21
 470.00000000000
  31
0.0
   0
LINE
   5
FF
 100
AcDbEntity
   8
LEVEL001
 370
13
 100
AcDbLine
   6
CONTINUOUS
  62
5
  10
 1094.9999999998
  20
 1697.5000000000
  30
0.0
  11
 1147.4999999998
  21
 1750.0000000000
  31
0.0
   0
LINE
   5
100
 100
AcDbEntity
   8
LEVEL001
 370
13
 100
AcDbLine
   6
CONTINUOUS
  62
5
  10
 1079.0900974230
  20
 1713.4099025768
  30
0.0
  11
 1115.6801948462
  21
 1750.0000000000
  31
0.0
   0
LINE
   5
101
 100
AcDbEntity
   8
LEVEL001
 370
13
 100
AcDbLine
   6
CONTINUOUS
  62
5
  10
 1131.5900974238
  20
 1750.0000000000
  30
0.0
  11
 1087.0450487118
  21
 1705.4549512880
  31
0.0
   0
LINE
   5
102
 100
AcDbEntity
   8
LEVEL001
 370
13
 100
AcDbLine
   6
CONTINUOUS
  62
5
  10
 1152.2702922704
  20
 1697.5000000000
  30
0.0
  11
 1123.6351461351
  21
 1726.1351461353
  31
0.0
   0
LINE
   5
103
 100
AcDbEntity
   8
LEVEL001
 370
13
 100
AcDbLine
   6
CONTINUOUS
  62
5
  10
 1131.5900974233
  20
 1734.0900974235
  30
0.0
  11
 1168.1801948468
  21
 1697.5000000000
  31
0.0
   0
LINE
   5
104
 100
AcDbEntity
   8
LEVEL001
 370
13
 100
AcDbLine
   6
CONTINUOUS
  62
5
  10
 1184.0900974233
  20
 1697.5000000000
  30
0.0
  11
 1139.5450487115
  21
 1742.0450487117
  31
0.0
   0
LINE
   5
105
 100
AcDbEntity
   8
LEVEL001
 370
13
 100
AcDbLine
   6
CONTINUOUS
  62
5
  10
 1147.4999999998
  20
 1750.0000000000
  30
0.0
  11
 1200.0000000000
  21
 1697.5000000000
  31
0.0
   0
LINE
   5
106
 100
AcDbEntity
   8
LEVEL001
 370
13
 100
AcDbLine
   6
CONTINUOUS
  62
5
  10
 994.77029226995
  20
 1750.0000000000
  30
0.0
  11
 942.27029226995
  21
 1697.5000000000
  31
0.0
   0
LINE
   5
107
 100
AcDbEntity
   8
LEVEL001
 370
13
 100
AcDbLine
   6
CONTINUOUS
  62
5
  10
 958.18019484599
  20
 1697.5000000000
  30
0.0
  11
 1010.6801948460
  21
 1750.0000000000
  31
0.0
   0
LINE
   5
108
 100
AcDbEntity
   8
LEVEL001
 370
13
 100
AcDbLine
   6
CONTINUOUS
  62
5
  10
 1026.5900974236
  20
 1750.0000000000
  30
0.0
  11
 974.09009742359
  21
 1697.5000000000
  31
0.0
   0
LINE
   5
109
 100
AcDbEntity
   8
LEVEL001
 370
13
 100
AcDbLine
   6
CONTINUOUS
  62
5
  10
 989.99999999963
  20
 1697.5000000000
  30
0.0
  11
 1042.4999999996
  21
 1750.0000000000
  31
0.0
   0
LINE
   5
10A
 100
AcDbEntity
   8
LEVEL001
 370
13
 100
AcDbLine
   6
CONTINUOUS
  62
5
  10
 1047.2702922702
  20
 1697.5000000000
  30
0.0
  11
 1018.6351461349
  21
 1726.1351461353
  31
0.0
   0
LINE
   5
10B
 100
AcDbEntity
   8
LEVEL001
 370
13
 100
AcDbLine
   6
CONTINUOUS
  62
5
  10
 1026.5900974231
  20
 1734.0900974235
  30
0.0
  11
 1063.1801948467
  21
 1697.5000000000
  31
0.0
   0
LINE
   5
10C
 100
AcDbEntity
   8
LEVEL001
 370
13
 100
AcDbLine
   6
CONTINUOUS
  62
5
  10
 1079.0900974231
  20
 1697.5000000000
  30
0.0
  11
 1034.5450487114
  21
 1742.0450487117
  31
0.0
   0
LINE
   5
10D
 100
AcDbEntity
   8
LEVEL001
 370
13
 100
AcDbLine
   6
CONTINUOUS
  62
5
  10
 1042.4999999996
  20
 1750.0000000000
  30
0.0
  11
 1094.9999999998
  21
 1697.5000000000
  31
0.0
   0
LINE
   5
10E
 100
AcDbEntity
   8
LEVEL001
 370
13
 100
AcDbLine
   6
CONTINUOUS
  62
5
  10
 1099.7702922701
  20
 1750.0000000000
  30
0.0
  11
 1071.1351461349
  21
 1721.3648538648
  31
0.0
   0
MTEXT
   5
110
 100
AcDbEntity
   8
LEVEL001
 370
13
  62
1
 100
AcDbMText
  10
 1070.6486704444
  20
 1758.7299370403
  30
0.0
  40
 40.000000000000
  41
0.0
  71
7
  72
1
   1
\T1.000000;ＧＬ
   7
GMM002
  44
 0.79999984000003
   0
LWPOLYLINE
   5
111
 100
AcDbEntity
   8
LEVEL001
 370
13
   6
CONTINUOUS
  62
1
 100
AcDbPolyline
  90
3
  70
1
  10
 1042.4999999996
  20
 1750.0000000000
  10
 1017.4999999996
  20
 1800.0000000000
  10
 1067.4999999996
  20
 1800.0000000000
   0
LINE
   5
112
 100
AcDbEntity
   8
LEVEL001
 370
13
 100
AcDbLine
   6
CONTINUOUS
  62
5
  10
 1750.0000000000
  20
 550.00000000000
  30
0.0
  11
 1700.0000000000
  21
 450.00000000000
  31
0.0
   0
LINE
   5
113
 100
AcDbEntity
   8
LEVEL001
 370
13
 100
AcDbLine
   6
CONTINUOUS
  62
5
  10
 1700.0000000000
  20
 550.00000000000
  30
0.0
  11
 1740.0000000000
  21
 530.00000000000
  31
0.0
   0
LINE
   5
114
 100
AcDbEntity
   8
LEVEL001
 370
13
 100
AcDbLine
   6
CONTINUOUS
  62
5
  10
 1700.0000000000
  20
 550.00000000000
  30
0.0
  11
 1650.0000000000
  21
 450.00000000000
  31
0.0
   0
LINE
   5
115
 100
AcDbEntity
   8
LEVEL001
 370
13
 100
AcDbLine
   6
CONTINUOUS
  62
5
  10
 1650.0000000000
  20
 550.00000000000
  30
0.0
  11
 1690.0000000000
  21
 530.00000000000
  31
0.0
   0
LINE
   5
116
 100
AcDbEntity
   8
LEVEL001
 370
13
 100
AcDbLine
   6
CONTINUOUS
  62
5
  10
 1650.0000000000
  20
 550.00000000000
  30
0.0
  11
 1600.0000000000
  21
 450.00000000000
  31
0.0
   0
LINE
   5
117
 100
AcDbEntity
   8
LEVEL001
 370
13
 100
AcDbLine
   6
CONTINUOUS
  62
5
  10
 1600.0000000000
  20
 550.00000000000
  30
0.0
  11
 1640.0000000000
  21
 530.00000000000
  31
0.0
   0
LINE
   5
118
 100
AcDbEntity
   8
LEVEL001
 370
13
 100
AcDbLine
   6
CONTINUOUS
  62
5
  10
 1750.0000000000
  20
 450.00000000000
  30
0.0
  11
 1710.0000000000
  21
 470.00000000000
  31
0.0
   0
LINE
   5
119
 100
AcDbEntity
   8
LEVEL001
 370
13
 100
AcDbLine
   6
CONTINUOUS
  62
5
  10
 1700.0000000000
  20
 450.00000000000
  30
0.0
  11
 1660.0000000000
  21
 470.00000000000
  31
0.0
   0
LINE
   5
11A
 100
AcDbEntity
   8
LEVEL001
 370
13
 100
AcDbLine
   6
CONTINUOUS
  62
5
  10
 1650.0000000000
  20
 450.00000000000
  30
0.0
  11
 1610.0000000000
  21
 470.00000000000
  31
0.0
   0
LINE
   5
11B
 100
AcDbEntity
   8
LEVEL001
 370
13
 100
AcDbLine
   6
CONTINUOUS
  62
5
  10
 1852.5000000000
  20
 1750.0000000000
  30
0.0
  11
 1800.0000000000
  21
 1697.5000000000
  31
0.0
   0
LINE
   5
11C
 100
AcDbEntity
   8
LEVEL001
 370
13
 100
AcDbLine
   6
CONTINUOUS
  62
5
  10
 1815.9099025760
  20
 1697.5000000000
  30
0.0
  11
 1868.4099025760
  21
 1750.0000000000
  31
0.0
   0
LINE
   5
11D
 100
AcDbEntity
   8
LEVEL001
 370
13
 100
AcDbLine
   6
CONTINUOUS
  62
5
  10
 1884.3198051536
  20
 1750.0000000000
  30
0.0
  11
 1831.8198051536
  21
 1697.5000000000
  31
0.0
   0
LINE
   5
11E
 100
AcDbEntity
   8
LEVEL001
 370
13
 100
AcDbLine
   6
CONTINUOUS
  62
5
  10
 1847.7297077297
  20
 1697.5000000000
  30
0.0
  11
 1900.2297077297
  21
 1750.0000000000
  31
0.0
   0
LINE
   5
11F
 100
AcDbEntity
   8
LEVEL001
 370
13
 100
AcDbLine
   6
CONTINUOUS
  62
5
  10
 1905.0000000003
  20
 1697.5000000000
  30
0.0
  11
 1876.3648538650
  21
 1726.1351461353
  31
0.0
   0
LINE
   5
120
 100
AcDbEntity
   8
LEVEL001
 370
13
 100
AcDbLine
   6
CONTINUOUS
  62
5
  10
 1884.3198051532
  20
 1734.0900974235
  30
0.0
  11
 1920.9099025767
  21
 1697.5000000000
  31
0.0
   0
LINE
   5
121
 100
AcDbEntity
   8
LEVEL001
 370
13
 100
AcDbLine
   6
CONTINUOUS
  62
5
  10
 1936.8198051531
  20
 1697.5000000000
  30
0.0
  11
 1892.2747564414
  21
 1742.0450487117
  31
0.0
   0
LINE
   5
122
 100
AcDbEntity
   8
LEVEL001
 370
13
 100
AcDbLine
   6
CONTINUOUS
  62
5
  10
 1900.2297077297
  20
 1750.0000000000
  30
0.0
  11
 1952.7297077299
  21
 1697.5000000000
  31
0.0
   0
LINE
   5
123
 100
AcDbEntity
   8
LEVEL001
 370
13
 100
AcDbLine
   6
CONTINUOUS
  62
5
  10
 1952.7297077299
  20
 1697.5000000000
  30
0.0
  11
 2005.2297077299
  21
 1750.0000000000
  31
0.0
   0
LINE
   5
124
 100
AcDbEntity
   8
LEVEL001
 370
13
 100
AcDbLine
   6
CONTINUOUS
  62
5
  10
 1957.5000000002
  20
 1750.0000000000
  30
0.0
  11
 1928.8648538650
  21
 1721.3648538648
  31
0.0
   0
LINE
   5
125
 100
AcDbEntity
   8
LEVEL001
 370
13
 100
AcDbLine
   6
CONTINUOUS
  62
5
  10
 1936.8198051530
  20
 1713.4099025768
  30
0.0
  11
 1973.4099025762
  21
 1750.0000000000
  31
0.0
   0
LINE
   5
126
 100
AcDbEntity
   8
LEVEL001
 370
13
 100
AcDbLine
   6
CONTINUOUS
  62
5
  10
 1989.3198051538
  20
 1750.0000000000
  30
0.0
  11
 1944.7747564418
  21
 1705.4549512880
  31
0.0
   0
LINE
   5
127
 100
AcDbEntity
   8
LEVEL001
 370
13
 100
AcDbLine
   6
CONTINUOUS
  62
5
  10
 2010.0000000005
  20
 1697.5000000000
  30
0.0
  11
 1981.3648538652
  21
 1726.1351461353
  31
0.0
   0
LINE
   5
128
 100
AcDbEntity
   8
LEVEL001
 370
13
 100
AcDbLine
   6
CONTINUOUS
  62
5
  10
 1989.3198051534
  20
 1734.0900974235
  30
0.0
  11
 2025.9099025769
  21
 1697.5000000000
  31
0.0
   0
LINE
   5
129
 100
AcDbEntity
   8
LEVEL001
 370
13
 100
AcDbLine
   6
CONTINUOUS
  62
5
  10
 2041.8198051533
  20
 1697.5000000000
  30
0.0
  11
 1997.2747564416
  21
 1742.0450487117
  31
0.0
   0
LINE
   5
12A
 100
AcDbEntity
   8
LEVEL001
 370
13
 100
AcDbLine
   6
CONTINUOUS
  62
5
  10
 2005.2297077299
  20
 1750.0000000000
  30
0.0
  11
 2057.7297077301
  21
 1697.5000000000
  31
0.0
   0
LWPOLYLINE
   5
12B
 100
AcDbEntity
   8
LEVEL001
 370
13
   6
CONTINUOUS
  62
5
 100
AcDbPolyline
  90
4
  70
1
  10
 1250.0000000000
  20
 550.00000000000
  10
 1250.0000000000
  20
 450.00000000000
  10
 1750.0000000000
  20
 450.00000000000
  10
 1750.0000000000
  20
 550.00000000000
   0
LINE
   5
12C
 100
AcDbEntity
   8
LEVEL001
 370
13
 100
AcDbLine
   6
CONTINUOUS
  62
5
  10
 1250.0000000000
  20
 1750.0000000000
  30
0.0
  11
 950.00006523496
  21
 1750.0000000000
  31
0.0
   0
LINE
   5
12D
 100
AcDbEntity
   8
LEVEL001
 370
13
 100
AcDbLine
   6
CONTINUOUS
  62
5
  10
 1750.0000000000
  20
 1750.0000000000
  30
0.0
  11
 2050.0000652350
  21
 1750.0000000000
  31
0.0
   0
LWPOLYLINE
   5
12E
 100
AcDbEntity
   8
LEVEL001
 370
13
   6
CONTINUOUS
  62
5
 100
AcDbPolyline
  90
6
  70
0
  10
 1455.4500000000
  20
 1750.0000000000
  10
 1250.0000000000
  20
 1750.0000000000
  10
 1250.0000000000
  20
 550.00000000000
  10
 1750.0000000000
  20
 550.00000000000
  10
 1750.0000000000
  20
 1750.0000000000
  10
 1544.5500000000
  20
 1750.0000000000
   0
CIRCLE
   5
12F
 100
AcDbEntity
   8
LEVEL001
 370
13
 100
AcDbCircle
   6
CONTINUOUS
  62
7
  10
 1499.9999661979
  20
 850.00000000000
  30
0.0
  40
 7.5000000000000
   0
LINE
   5
130
 100
AcDbEntity
   8
LEVEL001
 370
13
 100
AcDbLine
   6
DASHDOT
  62
6
  10
 1469.9999661979
  20
 850.00000000000
  30
0.0
  11
 1529.9999661979
  21
 850.00000000000
  31
0.0
   0
LWPOLYLINE
   5
131
 100
AcDbEntity
   8
LEVEL001
 370
13
   6
CONTINUOUS
  62
7
 100
AcDbPolyline
  90
4
  70
1
  10
 1556.0000085199
  20
 4607.9999584717
  10
 1570.0000085199
  20
 4607.9999584717
  10
 1570.0000085199
  20
 4621.9999584717
  10
 1556.0000085199
  20
 4621.9999584717
   0
LWPOLYLINE
   5
132
 100
AcDbEntity
   8
LEVEL001
 370
13
   6
CONTINUOUS
  62
7
 100
AcDbPolyline
  90
4
  70
1
  10
 1443.9999914801
  20
 4437.9999584717
  10
 1429.9999914801
  20
 4437.9999584717
  10
 1429.9999914801
  20
 4451.9999584717
  10
 1443.9999914801
  20
 4451.9999584717
   0
LWPOLYLINE
   5
133
 100
AcDbEntity
   8
LEVEL001
 370
13
   6
CONTINUOUS
  62
7
 100
AcDbPolyline
  90
4
  70
1
  10
 1556.0000085199
  20
 4561.9999584717
  10
 1570.0000085199
  20
 4561.9999584717
  10
 1570.0000085199
  20
 4547.9999584717
  10
 1556.0000085199
  20
 4547.9999584717
   0
ARC
   5
134
 100
AcDbEntity
   8
LEVEL001
 370
13
   6
CONTINUOUS
  62
1
 100
AcDbCircle
  10
 1437.5000000000
  20
 4705.0000000000
  30
0.0
  40
 7.5000000000000
 100
AcDbArc
  50
 270.00000000000
  51
 90.000000000000
   0
ARC
   5
135
 100
AcDbEntity
   8
LEVEL001
 370
13
   6
CONTINUOUS
  62
7
 100
AcDbCircle
  10
 1420.0000000000
  20
 4845.0000000000
  30
0.0
  40
 5.0000000000000
 100
AcDbArc
  50
0.0
  51
 90.000000000000
   0
ARC
   5
136
 100
AcDbEntity
   8
LEVEL001
 370
13
   6
CONTINUOUS
  62
2
 100
AcDbCircle
  10
 1395.0000000000
  20
 4820.0000000000
  30
0.0
  40
 5.0000000000000
 100
AcDbArc
  50
0.0
  51
 90.000000000000
   0
LINE
   5
137
 100
AcDbEntity
   8
LEVEL001
 370
13
 100
AcDbLine
   6
CONTINUOUS
  62
2
  10
 1400.0000000000
  20
 4280.0000000000
  30
0.0
  11
 1400.0000000000
  21
 4820.0000000000
  31
0.0
   0
LINE
   5
138
 100
AcDbEntity
   8
LEVEL001
 370
13
 100
AcDbLine
   6
CONTINUOUS
  62
7
  10
 1425.0000000000
  20
 4255.0000000000
  30
0.0
  11
 1425.0000000000
  21
 4845.0000000000
  31
0.0
   0
LINE
   5
139
 100
AcDbEntity
   8
LEVEL001
 370
13
 100
AcDbLine
   6
CONTINUOUS
  62
2
  10
 1395.0000000000
  20
 4825.0000000000
  30
0.0
  11
 655.00000000000
  21
 4825.0000000000
  31
0.0
   0
LINE
   5
13A
 100
AcDbEntity
   8
LEVEL001
 370
13
 100
AcDbLine
   6
CONTINUOUS
  62
7
  10
 1420.0000000000
  20
 4850.0000000000
  30
0.0
  11
 630.00000000000
  21
 4850.0000000000
  31
0.0
   0
ARC
   5
13B
 100
AcDbEntity
   8
LEVEL001
 370
13
   6
CONTINUOUS
  62
7
 100
AcDbCircle
  10
 1422.5000000000
  20
 4845.0000000000
  30
0.0
  40
 15.000000000000
 100
AcDbArc
  50
0.0
  51
 90.000000000000
   0
LINE
   5
13C
 100
AcDbEntity
   8
LEVEL001
 370
13
 100
AcDbLine
   6
CONTINUOUS
  62
7
  10
 627.50000000000
  20
 4860.0000000000
  30
0.0
  11
 1422.5000000000
  21
 4860.0000000000
  31
0.0
   0
ARC
   5
13D
 100
AcDbEntity
   8
LEVEL001
 370
13
   6
CONTINUOUS
  62
1
 100
AcDbCircle
  10
 612.50000000000
  20
 4705.0000000000
  30
0.0
  40
 7.5000000000000
 100
AcDbArc
  50
 90.000000000000
  51
 270.00000000000
   0
LINE
   5
13E
 100
AcDbEntity
   8
LEVEL001
 370
13
 100
AcDbLine
   6
CONTINUOUS
  62
2
  10
 650.00000000000
  20
 4820.0000000000
  30
0.0
  11
 650.00000000000
  21
 4280.0000000000
  31
0.0
   0
ARC
   5
13F
 100
AcDbEntity
   8
LEVEL001
 370
13
   6
CONTINUOUS
  62
2
 100
AcDbCircle
  10
 655.00000000000
  20
 4820.0000000000
  30
0.0
  40
 5.0000000000000
 100
AcDbArc
  50
 90.000000000000
  51
 180.00000000000
   0
LINE
   5
140
 100
AcDbEntity
   8
LEVEL001
 370
13
 100
AcDbLine
   6
CONTINUOUS
  62
7
  10
 625.00000000000
  20
 4845.0000000000
  30
0.0
  11
 625.00000000000
  21
 4255.0000000000
  31
0.0
   0
ARC
   5
141
 100
AcDbEntity
   8
LEVEL001
 370
13
   6
CONTINUOUS
  62
7
 100
AcDbCircle
  10
 630.00000000000
  20
 4845.0000000000
  30
0.0
  40
 5.0000000000000
 100
AcDbArc
  50
 90.000000000000
  51
 180.00000000000
   0
ARC
   5
142
 100
AcDbEntity
   8
LEVEL001
 370
13
   6
CONTINUOUS
  62
7
 100
AcDbCircle
  10
 627.50000000000
  20
 4845.0000000000
  30
0.0
  40
 15.000000000000
 100
AcDbArc
  50
 90.000000000000
  51
 180.00000000000
   0
ARC
   5
143
 100
AcDbEntity
   8
LEVEL001
 370
13
   6
CONTINUOUS
  62
1
 100
AcDbCircle
  10
 625.00000000000
  20
 4380.0000000000
  30
0.0
  40
 7.5000000000000
 100
AcDbArc
  50
 90.000000000000
  51
 270.00000000000
   0
LINE
   5
144
 100
AcDbEntity
   8
LEVEL001
 370
13
 100
AcDbLine
   6
CONTINUOUS
  62
2
  10
 655.00000000000
  20
 4275.0000000000
  30
0.0
  11
 1395.0000000000
  21
 4275.0000000000
  31
0.0
   0
ARC
   5
145
 100
AcDbEntity
   8
LEVEL001
 370
13
   6
CONTINUOUS
  62
2
 100
AcDbCircle
  10
 655.00000000000
  20
 4280.0000000000
  30
0.0
  40
 5.0000000000000
 100
AcDbArc
  50
 180.00000000000
  51
 270.00000000000
   0
ARC
   5
146
 100
AcDbEntity
   8
LEVEL001
 370
13
   6
CONTINUOUS
  62
1
 100
AcDbCircle
  10
 762.50000000000
  20
 4250.0000000000
  30
0.0
  40
 7.5000000000000
 100
AcDbArc
  50
 180.00000000000
  51
0.0
   0
LINE
   5
147
 100
AcDbEntity
   8
LEVEL001
 370
13
 100
AcDbLine
   6
CONTINUOUS
  62
7
  10
 630.00000000000
  20
 4250.0000000000
  30
0.0
  11
 1420.0000000000
  21
 4250.0000000000
  31
0.0
   0
ARC
   5
148
 100
AcDbEntity
   8
LEVEL001
 370
13
   6
CONTINUOUS
  62
7
 100
AcDbCircle
  10
 630.00000000000
  20
 4255.0000000000
  30
0.0
  40
 5.0000000000000
 100
AcDbArc
  50
 180.00000000000
  51
 270.00000000000
   0
ARC
   5
149
 100
AcDbEntity
   8
LEVEL001
 370
13
   6
CONTINUOUS
  62
1
 100
AcDbCircle
  10
 1025.0000000000
  20
 4250.0000000000
  30
0.0
  40
 7.5000000000000
 100
AcDbArc
  50
 180.00000000000
  51
0.0
   0
ARC
   5
14A
 100
AcDbEntity
   8
LEVEL001
 370
13
   6
CONTINUOUS
  62
1
 100
AcDbCircle
  10
 1287.5000000000
  20
 4250.0000000000
  30
0.0
  40
 7.5000000000000
 100
AcDbArc
  50
 180.00000000000
  51
0.0
   0
ARC
   5
14B
 100
AcDbEntity
   8
LEVEL001
 370
13
   6
CONTINUOUS
  62
7
 100
AcDbCircle
  10
 1420.0000000000
  20
 4255.0000000000
  30
0.0
  40
 5.0000000000000
 100
AcDbArc
  50
 270.00000000000
  51
0.0
   0
ARC
   5
14C
 100
AcDbEntity
   8
LEVEL001
 370
13
   6
CONTINUOUS
  62
1
 100
AcDbCircle
  10
 1425.0000000000
  20
 4380.0000000000
  30
0.0
  40
 7.5000000000000
 100
AcDbArc
  50
 270.00000000000
  51
 90.000000000000
   0
ARC
   5
14D
 100
AcDbEntity
   8
LEVEL001
 370
13
   6
CONTINUOUS
  62
1
 100
AcDbCircle
  10
 1425.0000000000
  20
 4380.0000000000
  30
0.0
  40
 7.5000000000000
 100
AcDbArc
  50
 270.00000000000
  51
 90.000000000000
   0
ARC
   5
14E
 100
AcDbEntity
   8
LEVEL001
 370
13
   6
CONTINUOUS
  62
2
 100
AcDbCircle
  10
 1395.0000000000
  20
 4280.0000000000
  30
0.0
  40
 5.0000000000000
 100
AcDbArc
  50
 270.00000000000
  51
0.0
   0
LINE
   5
14F
 100
AcDbEntity
   8
LEVEL001
 370
13
 100
AcDbLine
   6
DASHDOT
  62
6
  10
 1475.0000000000
  20
 4550.0000000000
  30
0.0
  11
 575.00000000000
  21
 4550.0000000000
  31
0.0
   0
LWPOLYLINE
   5
150
 100
AcDbEntity
   8
LEVEL001
 370
13
   6
CONTINUOUS
  62
7
 100
AcDbPolyline
  90
4
  70
1
  10
 1443.9999914801
  20
 4511.9999584717
  10
 1429.9999914801
  20
 4511.9999584717
  10
 1429.9999914801
  20
 4497.9999584717
  10
 1443.9999914801
  20
 4497.9999584717
   0
LWPOLYLINE
   5
151
 100
AcDbEntity
   8
LEVEL001
 370
13
   6
CONTINUOUS
  62
7
 100
AcDbPolyline
  90
3
  70
0
  10
 1547.7500000000
  20
 4434.9999584717
  10
 1547.7500000000
  20
 4419.9999584717
  10
 1425.0000000000
  20
 4419.9999584717
   0
LWPOLYLINE
   5
152
 100
AcDbEntity
   8
LEVEL001
 370
13
   6
CONTINUOUS
  62
7
 100
AcDbPolyline
  90
3
  70
0
  10
 1425.0000000000
  20
 4529.9999584717
  10
 1547.7500000000
  20
 4529.9999584717
  10
 1547.7500000000
  20
 4494.9999584717
   0
LWPOLYLINE
   5
153
 100
AcDbEntity
   8
LEVEL001
 370
13
   6
CONTINUOUS
  62
7
 100
AcDbPolyline
  90
4
  70
0
  10
 1425.0000000000
  20
 4604.9600070340
  10
 1453.9698739954
  20
 4619.7208951033
  10
 1453.9698739954
  20
 4552.3813208453
  10
 1425.0000000000
  20
 4537.6204327760
   0
ARC
   5
154
 100
AcDbEntity
   8
LEVEL001
 370
13
   6
CONTINUOUS
  62
1
 100
AcDbCircle
  10
 1562.5000000000
  20
 4705.0000000000
  30
0.0
  40
 7.5000000000000
 100
AcDbArc
  50
 90.000000000000
  51
 270.00000000000
   0
ARC
   5
155
 100
AcDbEntity
   8
LEVEL001
 370
13
   6
CONTINUOUS
  62
7
 100
AcDbCircle
  10
 1580.0000000000
  20
 4845.0000000000
  30
0.0
  40
 5.0000000000000
 100
AcDbArc
  50
 90.000000000000
  51
 180.00000000000
   0
ARC
   5
156
 100
AcDbEntity
   8
LEVEL001
 370
13
   6
CONTINUOUS
  62
2
 100
AcDbCircle
  10
 1605.0000000000
  20
 4820.0000000000
  30
0.0
  40
 5.0000000000000
 100
AcDbArc
  50
 90.000000000000
  51
 180.00000000000
   0
LINE
   5
157
 100
AcDbEntity
   8
LEVEL001
 370
13
 100
AcDbLine
   6
CONTINUOUS
  62
2
  10
 1600.0000000000
  20
 4280.0000000000
  30
0.0
  11
 1600.0000000000
  21
 4820.0000000000
  31
0.0
   0
LINE
   5
158
 100
AcDbEntity
   8
LEVEL001
 370
13
 100
AcDbLine
   6
CONTINUOUS
  62
7
  10
 1575.0000000000
  20
 4255.0000000000
  30
0.0
  11
 1575.0000000000
  21
 4845.0000000000
  31
0.0
   0
LINE
   5
159
 100
AcDbEntity
   8
LEVEL001
 370
13
 100
AcDbLine
   6
CONTINUOUS
  62
2
  10
 1605.0000000000
  20
 4825.0000000000
  30
0.0
  11
 2345.0000000000
  21
 4825.0000000000
  31
0.0
   0
LINE
   5
15A
 100
AcDbEntity
   8
LEVEL001
 370
13
 100
AcDbLine
   6
CONTINUOUS
  62
7
  10
 1580.0000000000
  20
 4850.0000000000
  30
0.0
  11
 2370.0000000000
  21
 4850.0000000000
  31
0.0
   0
ARC
   5
15B
 100
AcDbEntity
   8
LEVEL001
 370
13
   6
CONTINUOUS
  62
7
 100
AcDbCircle
  10
 1577.5000000000
  20
 4845.0000000000
  30
0.0
  40
 15.000000000000
 100
AcDbArc
  50
 90.000000000000
  51
 180.00000000000
   0
LINE
   5
15C
 100
AcDbEntity
   8
LEVEL001
 370
13
 100
AcDbLine
   6
CONTINUOUS
  62
7
  10
 2372.5000000000
  20
 4860.0000000000
  30
0.0
  11
 1577.5000000000
  21
 4860.0000000000
  31
0.0
   0
ARC
   5
15D
 100
AcDbEntity
   8
LEVEL001
 370
13
   6
CONTINUOUS
  62
1
 100
AcDbCircle
  10
 2387.5000000000
  20
 4705.0000000000
  30
0.0
  40
 7.5000000000000
 100
AcDbArc
  50
 270.00000000000
  51
 90.000000000000
   0
LINE
   5
15E
 100
AcDbEntity
   8
LEVEL001
 370
13
 100
AcDbLine
   6
CONTINUOUS
  62
2
  10
 2350.0000000000
  20
 4820.0000000000
  30
0.0
  11
 2350.0000000000
  21
 4280.0000000000
  31
0.0
   0
ARC
   5
15F
 100
AcDbEntity
   8
LEVEL001
 370
13
   6
CONTINUOUS
  62
2
 100
AcDbCircle
  10
 2345.0000000000
  20
 4820.0000000000
  30
0.0
  40
 5.0000000000000
 100
AcDbArc
  50
0.0
  51
 90.000000000000
   0
LINE
   5
160
 100
AcDbEntity
   8
LEVEL001
 370
13
 100
AcDbLine
   6
CONTINUOUS
  62
7
  10
 2375.0000000000
  20
 4845.0000000000
  30
0.0
  11
 2375.0000000000
  21
 4255.0000000000
  31
0.0
   0
ARC
   5
161
 100
AcDbEntity
   8
LEVEL001
 370
13
   6
CONTINUOUS
  62
7
 100
AcDbCircle
  10
 2370.0000000000
  20
 4845.0000000000
  30
0.0
  40
 5.0000000000000
 100
AcDbArc
  50
0.0
  51
 90.000000000000
   0
ARC
   5
162
 100
AcDbEntity
   8
LEVEL001
 370
13
   6
CONTINUOUS
  62
7
 100
AcDbCircle
  10
 2372.5000000000
  20
 4845.0000000000
  30
0.0
  40
 15.000000000000
 100
AcDbArc
  50
0.0
  51
 90.000000000000
   0
ARC
   5
163
 100
AcDbEntity
   8
LEVEL001
 370
13
   6
CONTINUOUS
  62
1
 100
AcDbCircle
  10
 2375.0000000000
  20
 4380.0000000000
  30
0.0
  40
 7.5000000000000
 100
AcDbArc
  50
 270.00000000000
  51
 90.000000000000
   0
LINE
   5
164
 100
AcDbEntity
   8
LEVEL001
 370
13
 100
AcDbLine
   6
CONTINUOUS
  62
2
  10
 2345.0000000000
  20
 4275.0000000000
  30
0.0
  11
 1605.0000000000
  21
 4275.0000000000
  31
0.0
   0
ARC
   5
165
 100
AcDbEntity
   8
LEVEL001
 370
13
   6
CONTINUOUS
  62
2
 100
AcDbCircle
  10
 2345.0000000000
  20
 4280.0000000000
  30
0.0
  40
 5.0000000000000
 100
AcDbArc
  50
 270.00000000000
  51
0.0
   0
ARC
   5
166
 100
AcDbEntity
   8
LEVEL001
 370
13
   6
CONTINUOUS
  62
1
 100
AcDbCircle
  10
 2237.5000000000
  20
 4250.0000000000
  30
0.0
  40
 7.5000000000000
 100
AcDbArc
  50
 180.00000000000
  51
0.0
   0
LINE
   5
167
 100
AcDbEntity
   8
LEVEL001
 370
13
 100
AcDbLine
   6
CONTINUOUS
  62
7
  10
 2370.0000000000
  20
 4250.0000000000
  30
0.0
  11
 1580.0000000000
  21
 4250.0000000000
  31
0.0
   0
ARC
   5
168
 100
AcDbEntity
   8
LEVEL001
 370
13
   6
CONTINUOUS
  62
7
 100
AcDbCircle
  10
 2370.0000000000
  20
 4255.0000000000
  30
0.0
  40
 5.0000000000000
 100
AcDbArc
  50
 270.00000000000
  51
0.0
   0
ARC
   5
169
 100
AcDbEntity
   8
LEVEL001
 370
13
   6
CONTINUOUS
  62
1
 100
AcDbCircle
  10
 1975.0000000000
  20
 4250.0000000000
  30
0.0
  40
 7.5000000000000
 100
AcDbArc
  50
 180.00000000000
  51
0.0
   0
ARC
   5
16A
 100
AcDbEntity
   8
LEVEL001
 370
13
   6
CONTINUOUS
  62
1
 100
AcDbCircle
  10
 1712.5000000000
  20
 4250.0000000000
  30
0.0
  40
 7.5000000000000
 100
AcDbArc
  50
 180.00000000000
  51
0.0
   0
ARC
   5
16B
 100
AcDbEntity
   8
LEVEL001
 370
13
   6
CONTINUOUS
  62
7
 100
AcDbCircle
  10
 1580.0000000000
  20
 4255.0000000000
  30
0.0
  40
 5.0000000000000
 100
AcDbArc
  50
 180.00000000000
  51
 270.00000000000
   0
ARC
   5
16C
 100
AcDbEntity
   8
LEVEL001
 370
13
   6
CONTINUOUS
  62
1
 100
AcDbCircle
  10
 1575.0000000000
  20
 4380.0000000000
  30
0.0
  40
 7.5000000000000
 100
AcDbArc
  50
 90.000000000000
  51
 270.00000000000
   0
ARC
   5
16D
 100
AcDbEntity
   8
LEVEL001
 370
13
   6
CONTINUOUS
  62
1
 100
AcDbCircle
  10
 1575.0000000000
  20
 4380.0000000000
  30
0.0
  40
 7.5000000000000
 100
AcDbArc
  50
 90.000000000000
  51
 270.00000000000
   0
ARC
   5
16E
 100
AcDbEntity
   8
LEVEL001
 370
13
   6
CONTINUOUS
  62
2
 100
AcDbCircle
  10
 1605.0000000000
  20
 4280.0000000000
  30
0.0
  40
 5.0000000000000
 100
AcDbArc
  50
 180.00000000000
  51
 270.00000000000
   0
LINE
   5
16F
 100
AcDbEntity
   8
LEVEL001
 370
13
 100
AcDbLine
   6
DASHDOT
  62
6
  10
 1525.0000000000
  20
 4550.0000000000
  30
0.0
  11
 2425.0000000000
  21
 4550.0000000000
  31
0.0
   0
LWPOLYLINE
   5
170
 100
AcDbEntity
   8
LEVEL001
 370
13
   6
CONTINUOUS
  62
7
 100
AcDbPolyline
  90
3
  70
0
  10
 1452.2500000000
  20
 4618.8445755327
  10
 1452.2500000000
  20
 4639.9999584717
  10
 1575.0000000000
  20
 4639.9999584717
   0
LWPOLYLINE
   5
171
 100
AcDbEntity
   8
LEVEL001
 370
13
   6
CONTINUOUS
  62
7
 100
AcDbPolyline
  90
4
  70
0
  10
 1575.0000000000
  20
 4494.9999584717
  10
 1546.0301260046
  20
 4494.9999584717
  10
 1546.0301260046
  20
 4434.9999584717
  10
 1575.0000000000
  20
 4434.9999584717
   0
LWPOLYLINE
   5
172
 100
AcDbEntity
   8
LEVEL001
 370
13
   6
CONTINUOUS
  62
7
 100
AcDbPolyline
  90
3
  70
0
  10
 1575.0000000000
  20
 4529.9999584717
  10
 1452.2500000000
  20
 4529.9999584717
  10
 1452.2500000000
  20
 4551.5050012747
   0
LEADER
   5
173
 100
AcDbEntity
   8
LEVEL001
 370
13
   6
CONTINUOUS
  62
1
 100
AcDbLeader
   3
GMM001
  73
3
  74
1
  75
0
  40
 66.000000000000
  41
0.0
  76
2
  10
 2137.9363897204
  20
 4250.0000000000
  30
0.0
  10
 2230.4541136731
  20
 4089.7546015135
  30
0.0
  77
1
   0
LEADER
   5
174
 100
AcDbEntity
   8
LEVEL001
 370
13
   6
CONTINUOUS
  62
1
 100
AcDbLeader
   3
GMM001
  73
3
  74
1
  75
0
  40
 66.000000000000
  41
0.0
  76
2
  10
 1283.7500000001
  20
 4243.5048094716
  30
0.0
  10
 1194.9822760474
  20
 4089.7546015135
  30
0.0
  77
1
   0
CIRCLE
   5
175
 100
AcDbEntity
   8
LEVEL001
 370
13
 100
AcDbCircle
   6
CONTINUOUS
  62
1
  10
 2265.4541126299
  20
 4029.1328250552
  30
0.0
  40
 69.999997913838
   0
MTEXT
   5
177
 100
AcDbEntity
   8
LEVEL001
 370
13
  62
7
 100
AcDbMText
  10
 2265.4541126299
  20
 4029.1328250552
  30
0.0
  40
 66.000000000000
  41
0.0
  71
5
  72
1
   1
\T1.000000;４
   7
GMM001
  44
 0.79999984000003
   0
CIRCLE
   5
178
 100
AcDbEntity
   8
LEVEL001
 370
13
 100
AcDbCircle
   6
CONTINUOUS
  62
1
  10
 1159.9822770906
  20
 4029.1328250552
  30
0.0
  40
 69.999997913838
   0
MTEXT
   5
17A
 100
AcDbEntity
   8
LEVEL001
 370
13
  62
7
 100
AcDbMText
  10
 1159.9822770906
  20
 4029.1328250552
  30
0.0
  40
 66.000000000000
  41
0.0
  71
5
  72
1
   1
\T1.000000;５
   7
GMM001
  44
 0.79999984000003
   0
LWPOLYLINE
   5
17B
 100
AcDbEntity
   8
LEVEL001
 370
13
   6
CONTINUOUS
  62
7
 100
AcDbPolyline
  90
4
  70
0
  10
 1544.5500000000
  20
 4639.9999584717
  10
 1544.5500000000
  20
 4949.9999997960
  10
 1455.4500000000
  20
 4949.9999997960
  10
 1455.4500000000
  20
 4639.9999584717
   0
LINE
   5
17C
 100
AcDbEntity
   8
LEVEL001
 370
13
 100
AcDbLine
   6
DOT
  62
7
  10
 1455.4500000000
  20
 957.50000000000
  30
0.0
  11
 1544.5500000000
  21
 957.50000000000
  31
0.0
   0
LINE
   5
17D
 100
AcDbEntity
   8
LEVEL001
 370
13
 100
AcDbLine
   6
DOT
  62
7
  10
 1544.5500000000
  20
 942.50000000000
  30
0.0
  11
 1455.4500000000
  21
 942.50000000000
  31
0.0
   0
LINE
   5
17E
 100
AcDbEntity
   8
LEVEL001
 370
13
 100
AcDbLine
   6
DASHDOT
  62
6
  10
 1500.0000000000
  20
 5003.9999997960
  30
0.0
  11
 1500.0000000000
  21
 400.00000000000
  31
0.0
   0
LWPOLYLINE
   5
17F
 100
AcDbEntity
   8
LEVEL001
 370
13
   6
CONTINUOUS
  62
7
 100
AcDbPolyline
  90
4
  70
1
  10
 3294.5500000000
  20
 4953.9999997960
  10
 3205.4500000000
  20
 4953.9999997960
  10
 3205.4500000000
  20
 4950.9999997960
  10
 3294.5500000000
  20
 4950.9999997960
   0
LWPOLYLINE
   5
180
 100
AcDbEntity
   8
LEVEL001
 370
13
   6
DOT
  62
1
 100
AcDbPolyline
  90
4
  70
0
  10
 3289.5500000000
  20
 4950.9999997960
  10
 3289.5500000000
  20
 4923.9999997960
  10
 3210.4500000000
  20
 4923.9999997960
  10
 3210.4500000000
  20
 4950.9999997960
   0
CIRCLE
   5
181
 100
AcDbEntity
   8
LEVEL001
 370
13
 100
AcDbCircle
   6
CONTINUOUS
  62
1
  10
 3508.3322525532
  20
 4146.4794776342
  30
0.0
  40
 69.999997913838
   0
CIRCLE
   5
182
 100
AcDbEntity
   8
LEVEL001
 370
13
 100
AcDbCircle
   6
CONTINUOUS
  62
1
  10
 3538.0108847418
  20
 5120.2831616315
  30
0.0
  40
 70.000000000000
   0
LEADER
   5
183
 100
AcDbEntity
   8
LEVEL001
 370
13
   6
CONTINUOUS
  62
1
 100
AcDbLeader
   3
GMM001
  73
3
  74
1
  75
0
  40
 66.000000000000
  41
0.0
  76
2
  10
 3250.0000000000
  20
 4953.9999997960
  30
0.0
  10
 3477.3891064769
  20
 5085.2831616314
  30
0.0
  77
1
   0
CIRCLE
   5
184
 100
AcDbEntity
   8
LEVEL001
 370
13
 100
AcDbCircle
   6
CONTINUOUS
  62
1
  10
 3648.3322504670
  20
 4146.4794776342
  30
0.0
  40
 70.000000000000
   0
ARC
   5
185
 100
AcDbEntity
   8
LEVEL001
 370
13
   6
CONTINUOUS
  62
1
 100
AcDbCircle
  10
 2732.8114553161
  20
 4249.9999998656
  30
0.0
  40
 7.5000000000000
 100
AcDbArc
  50
 180.00000000000
  51
0.0
   0
MTEXT
   5
187
 100
AcDbEntity
   8
LEVEL001
 370
13
  62
7
 100
AcDbMText
  10
 3508.3322525532
  20
 4146.4794776342
  30
0.0
  40
 66.000000000000
  41
0.0
  71
5
  72
1
   1
\T1.000000;１０
   7
GMM001
  44
 0.79999984000003
   0
MTEXT
   5
189
 100
AcDbEntity
   8
LEVEL001
 370
13
  62
7
 100
AcDbMText
  10
 3648.3322504670
  20
 4146.4794776342
  30
0.0
  40
 66.000000000000
  41
0.0
  71
5
  72
1
   1
\T1.000000;１１
   7
GMM001
  44
 0.79999984000003
   0
MTEXT
   5
18B
 100
AcDbEntity
   8
LEVEL001
 370
13
  62
7
 100
AcDbMText
  10
 3538.0108847418
  20
 5120.2831616315
  30
0.0
  40
 66.000000000000
  41
0.0
  71
5
  72
1
   1
\T1.000000;１４
   7
GMM001
  44
 0.79999984000003
   0
LINE
   5
18C
 100
AcDbEntity
   8
LEVEL001
 370
13
 100
AcDbLine
   6
DASHDOT
  62
6
  10
 3010.1998266576
  20
 4550.0000000000
  30
0.0
  11
 2645.2523277682
  21
 4550.0000000000
  31
0.0
   0
LWPOLYLINE
   5
18D
 100
AcDbEntity
   8
LEVEL001
 370
13
   6
CONTINUOUS
  62
7
 100
AcDbPolyline
  90
4
  70
0
  10
 2744.8114553161
  20
 4495.0000000000
  10
 2831.4202165110
  20
 4495.0000000000
  10
 2831.4202165110
  20
 4605.0000000000
  10
 2744.8114553161
  20
 4605.0000000000
   0
LWPOLYLINE
   5
18E
 100
AcDbEntity
   8
LEVEL001
 370
13
   6
CONTINUOUS
  62
7
 100
AcDbPolyline
  90
3
  70
0
  10
 2744.8114553161
  20
 4665.0000000000
  10
 2744.8114553161
  20
 4250.0000000000
  10
 2717.3332323857
  20
 4250.0000000000
   0
ARC
   5
18F
 100
AcDbEntity
   8
LEVEL001
 370
13
   6
CONTINUOUS
  62
7
 100
AcDbCircle
  10
 6304.8114553161
  20
 4550.0000000000
  30
0.0
  40
 3590.0000000000
 100
AcDbArc
  50
 178.16430583834
  51
 184.79353825525
   0
ARC
   5
190
 100
AcDbEntity
   8
LEVEL001
 370
13
   6
HIDDEN
  62
2
 100
AcDbCircle
  10
 6304.8114553161
  20
 4550.0000000000
  30
0.0
  40
 3590.0000000000
 100
AcDbArc
  50
 175.20646174475
  51
 178.16430583834
   0
LINE
   5
191
 100
AcDbEntity
   8
LEVEL001
 370
13
 100
AcDbLine
   6
HIDDEN
  62
2
  10
 2717.3332323857
  20
 4850.0000000000
  30
0.0
  11
 2744.8114553161
  21
 4850.0000000000
  31
0.0
   0
CIRCLE
   5
192
 100
AcDbEntity
   8
LEVEL001
 370
13
 100
AcDbCircle
   6
CONTINUOUS
  62
1
  10
 2732.8114553161
  20
 4705.0000000000
  30
0.0
  40
 7.5000000000000
   0
CIRCLE
   5
193
 100
AcDbEntity
   8
LEVEL001
 370
13
 100
AcDbCircle
   6
CONTINUOUS
  62
1
  10
 2732.8114553161
  20
 4380.0000000000
  30
0.0
  40
 7.5000000000000
   0
ARC
   5
194
 100
AcDbEntity
   8
LEVEL001
 370
13
   6
CONTINUOUS
  62
1
 100
AcDbCircle
  10
 2732.8114553161
  20
 4250.0000000000
  30
0.0
  40
 7.5000000000000
 100
AcDbArc
  50
 180.00000000000
  51
0.0
   0
LINE
   5
195
 100
AcDbEntity
   8
LEVEL001
 370
13
 100
AcDbLine
   6
CONTINUOUS
  62
1
  10
 2748.2201697235
  20
 4544.9999984394
  30
0.0
  11
 2748.2201738850
  21
 4545.0000000000
  31
0.0
   0
ARC
   5
196
 100
AcDbEntity
   8
LEVEL001
 370
13
   6
CONTINUOUS
  62
1
 100
AcDbCircle
  10
 2743.4212999755
  20
 4550.0000000000
  30
0.0
  40
 4.7988739094943
 100
AcDbArc
  50
 303.26696871547
  51
 56.733031284531
   0
LINE
   5
197
 100
AcDbEntity
   8
LEVEL001
 370
13
 100
AcDbLine
   6
CONTINUOUS
  62
1
  10
 2746.0536784925
  20
 4554.0124523850
  30
0.0
  11
 2744.8116349596
  21
 4554.2553484154
  31
0.0
   0
LINE
   5
198
 100
AcDbEntity
   8
LEVEL001
 370
13
 100
AcDbLine
   6
CONTINUOUS
  62
1
  10
 2746.0536784925
  20
 4545.9875476150
  30
0.0
  11
 2744.8116349596
  21
 4545.7446517546
  31
0.0
   0
LINE
   5
199
 100
AcDbEntity
   8
LEVEL001
 370
13
 100
AcDbLine
   6
CONTINUOUS
  62
1
  10
 2744.8116349596
  20
 4550.0000000000
  30
0.0
  11
 2746.0536784925
  21
 4550.0000000000
  31
0.0
   0
LWPOLYLINE
   5
19A
 100
AcDbEntity
   8
LEVEL001
 370
13
   6
CONTINUOUS
  62
7
 100
AcDbPolyline
  90
4
  70
0
  10
 2831.4202165110
  20
 4495.0000000000
  10
 2992.9958379485
  20
 4495.0000000000
  10
 2992.9958379485
  20
 4605.0000000000
  10
 2831.4202165110
  20
 4605.0000000000
   0
LWPOLYLINE
   5
19B
 100
AcDbEntity
   8
LEVEL001
 370
13
   6
CONTINUOUS
  62
7
 100
AcDbPolyline
  90
4
  70
1
  10
 2965.9958379485
  20
 4573.0000000000
  10
 2979.9958379485
  20
 4573.0000000000
  10
 2979.9958379485
  20
 4587.0000000000
  10
 2965.9958379485
  20
 4587.0000000000
   0
LINE
   5
19C
 100
AcDbEntity
   8
LEVEL001
 370
13
 100
AcDbLine
   6
CONTINUOUS
  62
6
  10
 2953.4238475024
  20
 4600.0000000000
  30
0.0
  11
 2953.4238475024
  21
 4500.0000000000
  31
0.0
   0
LWPOLYLINE
   5
19D
 100
AcDbEntity
   8
LEVEL001
 370
13
   6
CONTINUOUS
  62
7
 100
AcDbPolyline
  90
4
  70
1
  10
 2965.9958379485
  20
 4513.0000000000
  10
 2979.9958379485
  20
 4513.0000000000
  10
 2979.9958379485
  20
 4527.0000000000
  10
 2965.9958379485
  20
 4527.0000000000
   0
LINE
   5
19E
 100
AcDbEntity
   8
LEVEL001
 370
13
 100
AcDbLine
   6
CONTINUOUS
  62
6
  10
 2880.2124829817
  20
 4500.0000000000
  30
0.0
  11
 2880.2124829817
  21
 4600.0000000000
  31
0.0
   0
LWPOLYLINE
   5
19F
 100
AcDbEntity
   8
LEVEL001
 370
13
   6
CONTINUOUS
  62
7
 100
AcDbPolyline
  90
4
  70
1
  10
 3203.9698739954
  20
 4619.7209366316
  10
 3203.9698739954
  20
 4552.3813623736
  10
 2953.9698739954
  20
 4425.0000000000
  10
 2953.9698739954
  20
 4492.3395742580
   0
LINE
   5
1A0
 100
AcDbEntity
   8
LEVEL001
 370
13
 100
AcDbLine
   6
DASHDOT
  62
6
  10
 2917.9958208459
  20
 4640.0000000000
  30
0.0
  11
 2917.9958208459
  21
 4400.0000000000
  31
0.0
   0
LWPOLYLINE
   5
1A1
 100
AcDbEntity
   8
LEVEL001
 370
13
   6
CONTINUOUS
  62
7
 100
AcDbPolyline
  90
4
  70
0
  10
 2879.8458208459
  20
 4495.0000000000
  10
 2879.8458208459
  20
 4420.0000000000
  10
 2956.1458208459
  20
 4420.0000000000
  10
 2956.1458208459
  20
 4426.1087002971
   0
LINE
   5
1A2
 100
AcDbEntity
   8
LEVEL001
 370
13
 100
AcDbLine
   6
CONTINUOUS
  62
7
  10
 2956.1458208459
  20
 4493.4482745551
  30
0.0
  11
 2956.1458208459
  21
 4495.0000000000
  31
0.0
   0
LWPOLYLINE
   5
1A3
 100
AcDbEntity
   8
LEVEL001
 370
13
   6
CONTINUOUS
  62
7
 100
AcDbPolyline
  90
4
  70
0
  10
 2956.1458208459
  20
 4605.0000000000
  10
 2956.1458208459
  20
 4620.0000000000
  10
 2879.8458208459
  20
 4620.0000000000
  10
 2879.8458208459
  20
 4605.0000000000
   0
LWPOLYLINE
   5
1A4
 100
AcDbEntity
   8
LEVEL001
 370
13
   6
CONTINUOUS
  62
7
 100
AcDbPolyline
  90
4
  70
1
  10
 2799.4202165110
  20
 4573.0000000000
  10
 2813.4202165110
  20
 4573.0000000000
  10
 2813.4202165110
  20
 4587.0000000000
  10
 2799.4202165110
  20
 4587.0000000000
   0
LWPOLYLINE
   5
1A5
 100
AcDbEntity
   8
LEVEL001
 370
13
   6
CONTINUOUS
  62
7
 100
AcDbPolyline
  90
4
  70
1
  10
 2799.4202165110
  20
 4513.0000000000
  10
 2813.4202165110
  20
 4513.0000000000
  10
 2813.4202165110
  20
 4527.0000000000
  10
 2799.4202165110
  20
 4527.0000000000
   0
ARC
   5
1A6
 100
AcDbEntity
   8
LEVEL001
 370
13
   6
CONTINUOUS
  62
7
 100
AcDbCircle
  10
 2849.3616056390
  20
 4545.5854138189
  30
0.0
  40
 8.0000000000000
 100
AcDbArc
  50
 324.99999999999
  51
 145.00000000000
   0
ARC
   5
1A7
 100
AcDbEntity
   8
LEVEL001
 370
13
   6
CONTINUOUS
  62
7
 100
AcDbCircle
  10
 2800.2124829817
  20
 4580.0000000000
  30
0.0
  40
 52.000000000000
 100
AcDbArc
  50
 306.88054979700
  51
 325.00000000000
   0
ARC
   5
1A8
 100
AcDbEntity
   8
LEVEL001
 370
13
   6
CONTINUOUS
  62
7
 100
AcDbCircle
  10
 2800.2124829817
  20
 4580.0000000000
  30
0.0
  40
 68.000000000000
 100
AcDbArc
  50
 297.31855192773
  51
 325.00000000000
   0
LWPOLYLINE
   5
1A9
 100
AcDbEntity
   8
LEVEL001
 370
13
   6
CONTINUOUS
  62
7
 100
AcDbPolyline
  90
4
  70
1
  10
 3306.0000085199
  20
 4548.0000000000
  10
 3320.0000085199
  20
 4548.0000000000
  10
 3320.0000085199
  20
 4562.0000000000
  10
 3306.0000085199
  20
 4562.0000000000
   0
LWPOLYLINE
   5
1AA
 100
AcDbEntity
   8
LEVEL001
 370
13
   6
CONTINUOUS
  62
7
 100
AcDbPolyline
  90
4
  70
1
  10
 3193.9999914801
  20
 4498.0000000000
  10
 3179.9999914801
  20
 4498.0000000000
  10
 3179.9999914801
  20
 4512.0000000000
  10
 3193.9999914801
  20
 4512.0000000000
   0
LWPOLYLINE
   5
1AB
 100
AcDbEntity
   8
LEVEL001
 370
13
   6
CONTINUOUS
  62
7
 100
AcDbPolyline
  90
4
  70
1
  10
 3546.0301260046
  20
 4495.0000000000
  10
 3296.0301260046
  20
 4495.0000000000
  10
 3296.0301260046
  20
 4435.0000000000
  10
 3546.0301260046
  20
 4435.0000000000
   0
LWPOLYLINE
   5
1AC
 100
AcDbEntity
   8
LEVEL001
 370
13
   6
CONTINUOUS
  62
7
 100
AcDbPolyline
  90
6
  70
0
  10
 3297.7500000000
  20
 4435.0000000000
  10
 3297.7500000000
  20
 4420.0000000000
  10
 3166.9999914801
  20
 4420.0000000000
  10
 3166.9999914801
  20
 4530.0000000000
  10
 3297.7500000000
  20
 4530.0000000000
  10
 3297.7500000000
  20
 4495.0000000000
   0
LWPOLYLINE
   5
1AD
 100
AcDbEntity
   8
LEVEL001
 370
13
   6
CONTINUOUS
  62
7
 100
AcDbPolyline
  90
6
  70
0
  10
 3202.2500000000
  20
 4551.5050428030
  10
 3202.2500000000
  20
 4530.0000000000
  10
 3333.0000085199
  20
 4530.0000000000
  10
 3333.0000085199
  20
 4640.0000000000
  10
 3202.2500000000
  20
 4640.0000000000
  10
 3202.2500000000
  20
 4618.8446170610
   0
LWPOLYLINE
   5
1AE
 100
AcDbEntity
   8
LEVEL001
 370
13
   6
CONTINUOUS
  62
7
 100
AcDbPolyline
  90
4
  70
1
  10
 3193.9999914801
  20
 4438.0000000000
  10
 3179.9999914801
  20
 4438.0000000000
  10
 3179.9999914801
  20
 4452.0000000000
  10
 3193.9999914801
  20
 4452.0000000000
   0
LWPOLYLINE
   5
1AF
 100
AcDbEntity
   8
LEVEL001
 370
13
   6
CONTINUOUS
  62
7
 100
AcDbPolyline
  90
4
  70
1
  10
 3306.0000085199
  20
 4608.0000000000
  10
 3320.0000085199
  20
 4608.0000000000
  10
 3320.0000085199
  20
 4622.0000000000
  10
 3306.0000085199
  20
 4622.0000000000
   0
LWPOLYLINE
   5
1B0
 100
AcDbEntity
   8
LEVEL001
 370
13
   6
CONTINUOUS
  62
7
 100
AcDbPolyline
  90
4
  70
0
  10
 3668.5797834890
  20
 4495.0000000000
  10
 3507.0041620515
  20
 4495.0000000000
  10
 3507.0041620515
  20
 4605.0000000000
  10
 3668.5797834890
  20
 4605.0000000000
   0
LWPOLYLINE
   5
1B1
 100
AcDbEntity
   8
LEVEL001
 370
13
   6
CONTINUOUS
  62
7
 100
AcDbPolyline
  90
4
  70
1
  10
 3700.5797834890
  20
 4573.0000000000
  10
 3686.5797834890
  20
 4573.0000000000
  10
 3686.5797834890
  20
 4587.0000000000
  10
 3700.5797834890
  20
 4587.0000000000
   0
LWPOLYLINE
   5
1B2
 100
AcDbEntity
   8
LEVEL001
 370
13
   6
CONTINUOUS
  62
7
 100
AcDbPolyline
  90
4
  70
1
  10
 3700.5797834890
  20
 4513.0000000000
  10
 3686.5797834890
  20
 4513.0000000000
  10
 3686.5797834890
  20
 4527.0000000000
  10
 3700.5797834890
  20
 4527.0000000000
   0
ARC
   5
1B3
 100
AcDbEntity
   8
LEVEL001
 370
13
   6
CONTINUOUS
  62
7
 100
AcDbCircle
  10
 3699.7875170183
  20
 4580.0000000000
  30
0.0
  40
 52.000000000000
 100
AcDbArc
  50
 215.00000000000
  51
 233.11945020300
   0
ARC
   5
1B4
 100
AcDbEntity
   8
LEVEL001
 370
13
   6
CONTINUOUS
  62
7
 100
AcDbCircle
  10
 3699.7875170183
  20
 4580.0000000000
  30
0.0
  40
 68.000000000000
 100
AcDbArc
  50
 215.00000000000
  51
 242.68144807227
   0
LWPOLYLINE
   5
1B5
 100
AcDbEntity
   8
LEVEL001
 370
13
   6
CONTINUOUS
  62
7
 100
AcDbPolyline
  90
4
  70
1
  10
 3534.0041620515
  20
 4573.0000000000
  10
 3520.0041620515
  20
 4573.0000000000
  10
 3520.0041620515
  20
 4587.0000000000
  10
 3534.0041620515
  20
 4587.0000000000
   0
LINE
   5
1B6
 100
AcDbEntity
   8
LEVEL001
 370
13
 100
AcDbLine
   6
CONTINUOUS
  62
6
  10
 3546.5761524976
  20
 4600.0000000000
  30
0.0
  11
 3546.5761524976
  21
 4500.0000000000
  31
0.0
   0
LWPOLYLINE
   5
1B7
 100
AcDbEntity
   8
LEVEL001
 370
13
   6
CONTINUOUS
  62
7
 100
AcDbPolyline
  90
4
  70
1
  10
 3534.0041620515
  20
 4513.0000000000
  10
 3520.0041620515
  20
 4513.0000000000
  10
 3520.0041620515
  20
 4527.0000000000
  10
 3534.0041620515
  20
 4527.0000000000
   0
ARC
   5
1B8
 100
AcDbEntity
   8
LEVEL001
 370
13
   6
CONTINUOUS
  62
7
 100
AcDbCircle
  10
 3650.6383943610
  20
 4545.5854138189
  30
0.0
  40
 8.0000000000000
 100
AcDbArc
  50
 35.000000000005
  51
 215.00000000001
   0
LINE
   5
1B9
 100
AcDbEntity
   8
LEVEL001
 370
13
 100
AcDbLine
   6
CONTINUOUS
  62
6
  10
 3619.7875170183
  20
 4500.0000000000
  30
0.0
  11
 3619.7875170183
  21
 4600.0000000000
  31
0.0
   0
LINE
   5
1BA
 100
AcDbEntity
   8
LEVEL001
 370
13
 100
AcDbLine
   6
DASHDOT
  62
6
  10
 3582.0041791541
  20
 4640.0000000000
  30
0.0
  11
 3582.0041791541
  21
 4400.0000000000
  31
0.0
   0
LWPOLYLINE
   5
1BB
 100
AcDbEntity
   8
LEVEL001
 370
13
   6
CONTINUOUS
  62
7
 100
AcDbPolyline
  90
4
  70
0
  10
 3543.8541791541
  20
 4605.0000000000
  10
 3543.8541791541
  20
 4620.0000000000
  10
 3620.1541791541
  20
 4620.0000000000
  10
 3620.1541791541
  20
 4605.0000000000
   0
LWPOLYLINE
   5
1BC
 100
AcDbEntity
   8
LEVEL001
 370
13
   6
CONTINUOUS
  62
7
 100
AcDbPolyline
  90
4
  70
0
  10
 3620.1541791541
  20
 4495.0000000000
  10
 3620.1541791541
  20
 4420.0000000000
  10
 3543.8541791541
  20
 4420.0000000000
  10
 3543.8541791541
  20
 4435.0000000000
   0
LINE
   5
1BD
 100
AcDbEntity
   8
LEVEL001
 370
13
 100
AcDbLine
   6
DASHDOT
  62
6
  10
 3489.8001733424
  20
 4550.0000000000
  30
0.0
  11
 3854.7476722318
  21
 4550.0000000000
  31
0.0
   0
LWPOLYLINE
   5
1BE
 100
AcDbEntity
   8
LEVEL001
 370
13
   6
CONTINUOUS
  62
7
 100
AcDbPolyline
  90
4
  70
0
  10
 3755.1885446839
  20
 4495.0000000000
  10
 3668.5797834890
  20
 4495.0000000000
  10
 3668.5797834890
  20
 4605.0000000000
  10
 3755.1885446839
  20
 4605.0000000000
   0
LWPOLYLINE
   5
1BF
 100
AcDbEntity
   8
LEVEL001
 370
13
   6
CONTINUOUS
  62
7
 100
AcDbPolyline
  90
3
  70
0
  10
 3755.1885446839
  20
 4665.0000000000
  10
 3755.1885446839
  20
 4250.0000000000
  10
 3782.6667676143
  20
 4250.0000000000
   0
ARC
   5
1C0
 100
AcDbEntity
   8
LEVEL001
 370
13
   6
CONTINUOUS
  62
7
 100
AcDbCircle
  10
 195.18854468392
  20
 4550.0000000000
  30
0.0
  40
 3590.0000000000
 100
AcDbArc
  50
 355.20646174474
  51
 1.8356941616577
   0
LINE
   5
1C1
 100
AcDbEntity
   8
LEVEL001
 370
13
 100
AcDbLine
   6
CONTINUOUS
  62
1
  10
 3751.7798302765
  20
 4544.9999984394
  30
0.0
  11
 3751.7798261150
  21
 4545.0000000000
  31
0.0
   0
ARC
   5
1C2
 100
AcDbEntity
   8
LEVEL001
 370
13
   6
CONTINUOUS
  62
1
 100
AcDbCircle
  10
 3756.5787000245
  20
 4550.0000000000
  30
0.0
  40
 4.7988739094943
 100
AcDbArc
  50
 123.26696871547
  51
 236.73303128453
   0
LINE
   5
1C3
 100
AcDbEntity
   8
LEVEL001
 370
13
 100
AcDbLine
   6
CONTINUOUS
  62
1
  10
 3753.9463215075
  20
 4554.0124523850
  30
0.0
  11
 3755.1883650404
  21
 4554.2553484154
  31
0.0
   0
LINE
   5
1C4
 100
AcDbEntity
   8
LEVEL001
 370
13
 100
AcDbLine
   6
CONTINUOUS
  62
1
  10
 3753.9463215075
  20
 4545.9875476150
  30
0.0
  11
 3755.1883650404
  21
 4545.7446517546
  31
0.0
   0
LINE
   5
1C5
 100
AcDbEntity
   8
LEVEL001
 370
13
 100
AcDbLine
   6
CONTINUOUS
  62
1
  10
 3755.1883650404
  20
 4550.0000000000
  30
0.0
  11
 3753.9463215075
  21
 4550.0000000000
  31
0.0
   0
CIRCLE
   5
1C6
 100
AcDbEntity
   8
LEVEL001
 370
13
 100
AcDbCircle
   6
CONTINUOUS
  62
1
  10
 3767.1885446839
  20
 4380.0000000000
  30
0.0
  40
 7.5000000000000
   0
ARC
   5
1C7
 100
AcDbEntity
   8
LEVEL001
 370
13
   6
HIDDEN
  62
2
 100
AcDbCircle
  10
 195.18854468392
  20
 4550.0000000000
  30
0.0
  40
 3590.0000000000
 100
AcDbArc
  50
 1.8356941616583
  51
 4.7935382552554
   0
LINE
   5
1C8
 100
AcDbEntity
   8
LEVEL001
 370
13
 100
AcDbLine
   6
HIDDEN
  62
2
  10
 3782.6667676143
  20
 4850.0000000000
  30
0.0
  11
 3755.1885446839
  21
 4850.0000000000
  31
0.0
   0
CIRCLE
   5
1C9
 100
AcDbEntity
   8
LEVEL001
 370
13
 100
AcDbCircle
   6
CONTINUOUS
  62
1
  10
 3767.1885446839
  20
 4705.0000000000
  30
0.0
  40
 7.5000000000000
   0
ARC
   5
1CA
 100
AcDbEntity
   8
LEVEL001
 370
13
   6
CONTINUOUS
  62
1
 100
AcDbCircle
  10
 3767.1885446839
  20
 4250.0000000000
  30
0.0
  40
 7.5000000000000
 100
AcDbArc
  50
 180.00000000000
  51
0.0
   0
LWPOLYLINE
   5
1CB
 100
AcDbEntity
   8
LEVEL001
 370
13
   6
CONTINUOUS
  62
7
 100
AcDbPolyline
  90
4
  70
0
  10
 3294.5500000000
  20
 4640.0000000000
  10
 3294.5500000000
  20
 4949.9999997960
  10
 3205.4500000000
  20
 4949.9999997960
  10
 3205.4500000000
  20
 4640.0000000000
   0
LEADER
   5
1CC
 100
AcDbEntity
   8
LEVEL001
 370
13
   6
CONTINUOUS
  62
1
 100
AcDbLeader
   3
GMM001
  73
3
  74
1
  75
0
  40
 66.000000000000
  41
0.0
  76
2
  10
 3398.0630858060
  20
 4435.0000000000
  30
0.0
  10
 3484.3908432339
  20
 4212.2579591288
  30
0.0
  77
1
   0
LINE
   5
1CD
 100
AcDbEntity
   8
LEVEL001
 370
13
 100
AcDbLine
   6
DASHDOT
  62
6
  10
 3250.0000000000
  20
 5006.1960440984
  30
0.0
  11
 3250.0000000000
  21
 400.00000000000
  31
0.0
   0
LWPOLYLINE
   5
1CE
 100
AcDbEntity
   8
LEVEL001
 370
13
   6
CONTINUOUS
  62
7
 100
AcDbPolyline
  90
4
  70
0
  10
 3205.4500000000
  20
 857.50000000000
  10
 3133.5999819144
  20
 857.50000000000
  10
 3133.5999819144
  20
 842.50000000000
  10
 3205.4500000000
  20
 842.50000000000
   0
LWPOLYLINE
   5
1CF
 100
AcDbEntity
   8
LEVEL001
 370
13
   6
CONTINUOUS
  62
7
 100
AcDbPolyline
  90
4
  70
0
  10
 3294.5500000000
  20
 857.50000000000
  10
 3366.3999819144
  20
 857.50000000000
  10
 3366.3999819144
  20
 842.50000000000
  10
 3294.5500000000
  20
 842.50000000000
   0
CIRCLE
   5
1D0
 100
AcDbEntity
   8
LEVEL001
 370
13
 100
AcDbCircle
   6
CONTINUOUS
  62
7
  10
 3250.0000000000
  20
 950.00000000000
  30
0.0
  40
 7.5000000000000
   0
LINE
   5
1D1
 100
AcDbEntity
   8
LEVEL001
 370
13
 100
AcDbLine
   6
DASHDOT
  62
6
  10
 3220.0000000000
  20
 950.00000000000
  30
0.0
  11
 3280.0000000000
  21
 950.00000000000
  31
0.0
   0
LINE
   5
1D2
 100
AcDbEntity
   8
LEVEL001
 370
13
 100
AcDbLine
   6
DASHDOT
  62
6
  10
 3183.6000000000
  20
 850.00000000000
  30
0.0
  11
 3316.4000000000
  21
 850.00000000000
  31
0.0
   0
LINE
   5
1D3
 100
AcDbEntity
   8
LEVEL001
 370
13
 100
AcDbLine
   6
DOT
  62
7
  10
 3205.4500000000
  20
 857.50000000000
  30
0.0
  11
 3294.5500000000
  21
 857.50000000000
  31
0.0
   0
LINE
   5
1D4
 100
AcDbEntity
   8
LEVEL001
 370
13
 100
AcDbLine
   6
DOT
  62
7
  10
 3294.5500000000
  20
 842.50000000000
  30
0.0
  11
 3205.4500000000
  21
 842.50000000000
  31
0.0
   0
LINE
   5
1D5
 100
AcDbEntity
   8
LEVEL002
 370
13
 100
AcDbLine
   6
CONTINUOUS
  62
5
  10
 3150.0000000000
  20
 550.00000000000
  30
0.0
  11
 3100.0000000000
  21
 450.00000000000
  31
0.0
   0
LINE
   5
1D6
 100
AcDbEntity
   8
LEVEL002
 370
13
 100
AcDbLine
   6
CONTINUOUS
  62
5
  10
 3100.0000000000
  20
 550.00000000000
  30
0.0
  11
 3140.0000000000
  21
 530.00000000000
  31
0.0
   0
LINE
   5
1D7
 100
AcDbEntity
   8
LEVEL002
 370
13
 100
AcDbLine
   6
CONTINUOUS
  62
5
  10
 3100.0000000000
  20
 550.00000000000
  30
0.0
  11
 3050.0000000000
  21
 450.00000000000
  31
0.0
   0
LINE
   5
1D8
 100
AcDbEntity
   8
LEVEL002
 370
13
 100
AcDbLine
   6
CONTINUOUS
  62
5
  10
 3050.0000000000
  20
 550.00000000000
  30
0.0
  11
 3090.0000000000
  21
 530.00000000000
  31
0.0
   0
LINE
   5
1D9
 100
AcDbEntity
   8
LEVEL002
 370
13
 100
AcDbLine
   6
CONTINUOUS
  62
5
  10
 3050.0000000000
  20
 550.00000000000
  30
0.0
  11
 3000.0000000000
  21
 450.00000000000
  31
0.0
   0
LINE
   5
1DA
 100
AcDbEntity
   8
LEVEL002
 370
13
 100
AcDbLine
   6
CONTINUOUS
  62
5
  10
 3000.0000000000
  20
 550.00000000000
  30
0.0
  11
 3040.0000000000
  21
 530.00000000000
  31
0.0
   0
LINE
   5
1DB
 100
AcDbEntity
   8
LEVEL002
 370
13
 100
AcDbLine
   6
CONTINUOUS
  62
5
  10
 3150.0000000000
  20
 450.00000000000
  30
0.0
  11
 3110.0000000000
  21
 470.00000000000
  31
0.0
   0
LINE
   5
1DC
 100
AcDbEntity
   8
LEVEL002
 370
13
 100
AcDbLine
   6
CONTINUOUS
  62
5
  10
 3100.0000000000
  20
 450.00000000000
  30
0.0
  11
 3060.0000000000
  21
 470.00000000000
  31
0.0
   0
LINE
   5
1DD
 100
AcDbEntity
   8
LEVEL002
 370
13
 100
AcDbLine
   6
CONTINUOUS
  62
5
  10
 3050.0000000000
  20
 450.00000000000
  30
0.0
  11
 3010.0000000000
  21
 470.00000000000
  31
0.0
   0
LINE
   5
1DE
 100
AcDbEntity
   8
LEVEL002
 370
13
 100
AcDbLine
   6
CONTINUOUS
  62
5
  10
 2844.9999999998
  20
 1697.5000000000
  30
0.0
  11
 2897.4999999998
  21
 1750.0000000000
  31
0.0
   0
LINE
   5
1DF
 100
AcDbEntity
   8
LEVEL002
 370
13
 100
AcDbLine
   6
CONTINUOUS
  62
5
  10
 2829.0900974230
  20
 1713.4099025768
  30
0.0
  11
 2865.6801948462
  21
 1750.0000000000
  31
0.0
   0
LINE
   5
1E0
 100
AcDbEntity
   8
LEVEL002
 370
13
 100
AcDbLine
   6
CONTINUOUS
  62
5
  10
 2881.5900974238
  20
 1750.0000000000
  30
0.0
  11
 2837.0450487118
  21
 1705.4549512880
  31
0.0
   0
LINE
   5
1E1
 100
AcDbEntity
   8
LEVEL002
 370
13
 100
AcDbLine
   6
CONTINUOUS
  62
5
  10
 2902.2702922704
  20
 1697.5000000000
  30
0.0
  11
 2873.6351461351
  21
 1726.1351461353
  31
0.0
   0
LINE
   5
1E2
 100
AcDbEntity
   8
LEVEL002
 370
13
 100
AcDbLine
   6
CONTINUOUS
  62
5
  10
 2881.5900974233
  20
 1734.0900974235
  30
0.0
  11
 2918.1801948468
  21
 1697.5000000000
  31
0.0
   0
LINE
   5
1E3
 100
AcDbEntity
   8
LEVEL002
 370
13
 100
AcDbLine
   6
CONTINUOUS
  62
5
  10
 2934.0900974233
  20
 1697.5000000000
  30
0.0
  11
 2889.5450487115
  21
 1742.0450487117
  31
0.0
   0
LINE
   5
1E4
 100
AcDbEntity
   8
LEVEL002
 370
13
 100
AcDbLine
   6
CONTINUOUS
  62
5
  10
 2897.4999999998
  20
 1750.0000000000
  30
0.0
  11
 2950.0000000000
  21
 1697.5000000000
  31
0.0
   0
LINE
   5
1E5
 100
AcDbEntity
   8
LEVEL002
 370
13
 100
AcDbLine
   6
CONTINUOUS
  62
5
  10
 2744.7702922699
  20
 1750.0000000000
  30
0.0
  11
 2692.2702922699
  21
 1697.5000000000
  31
0.0
   0
LINE
   5
1E6
 100
AcDbEntity
   8
LEVEL002
 370
13
 100
AcDbLine
   6
CONTINUOUS
  62
5
  10
 2708.1801948460
  20
 1697.5000000000
  30
0.0
  11
 2760.6801948460
  21
 1750.0000000000
  31
0.0
   0
LINE
   5
1E7
 100
AcDbEntity
   8
LEVEL002
 370
13
 100
AcDbLine
   6
CONTINUOUS
  62
5
  10
 2776.5900974236
  20
 1750.0000000000
  30
0.0
  11
 2724.0900974236
  21
 1697.5000000000
  31
0.0
   0
LINE
   5
1E8
 100
AcDbEntity
   8
LEVEL002
 370
13
 100
AcDbLine
   6
CONTINUOUS
  62
5
  10
 2739.9999999996
  20
 1697.5000000000
  30
0.0
  11
 2792.4999999996
  21
 1750.0000000000
  31
0.0
   0
LINE
   5
1E9
 100
AcDbEntity
   8
LEVEL002
 370
13
 100
AcDbLine
   6
CONTINUOUS
  62
5
  10
 2797.2702922702
  20
 1697.5000000000
  30
0.0
  11
 2768.6351461349
  21
 1726.1351461353
  31
0.0
   0
LINE
   5
1EA
 100
AcDbEntity
   8
LEVEL002
 370
13
 100
AcDbLine
   6
CONTINUOUS
  62
5
  10
 2776.5900974231
  20
 1734.0900974235
  30
0.0
  11
 2813.1801948467
  21
 1697.5000000000
  31
0.0
   0
LINE
   5
1EB
 100
AcDbEntity
   8
LEVEL002
 370
13
 100
AcDbLine
   6
CONTINUOUS
  62
5
  10
 2829.0900974231
  20
 1697.5000000000
  30
0.0
  11
 2784.5450487114
  21
 1742.0450487117
  31
0.0
   0
LINE
   5
1EC
 100
AcDbEntity
   8
LEVEL002
 370
13
 100
AcDbLine
   6
CONTINUOUS
  62
5
  10
 2792.4999999996
  20
 1750.0000000000
  30
0.0
  11
 2844.9999999998
  21
 1697.5000000000
  31
0.0
   0
LINE
   5
1ED
 100
AcDbEntity
   8
LEVEL002
 370
13
 100
AcDbLine
   6
CONTINUOUS
  62
5
  10
 2849.7702922701
  20
 1750.0000000000
  30
0.0
  11
 2821.1351461349
  21
 1721.3648538648
  31
0.0
   0
LINE
   5
1EE
 100
AcDbEntity
   8
LEVEL002
 370
13
 100
AcDbLine
   6
CONTINUOUS
  62
5
  10
 3500.0000000000
  20
 550.00000000000
  30
0.0
  11
 3450.0000000000
  21
 450.00000000000
  31
0.0
   0
LINE
   5
1EF
 100
AcDbEntity
   8
LEVEL002
 370
13
 100
AcDbLine
   6
CONTINUOUS
  62
5
  10
 3450.0000000000
  20
 550.00000000000
  30
0.0
  11
 3490.0000000000
  21
 530.00000000000
  31
0.0
   0
LINE
   5
1F0
 100
AcDbEntity
   8
LEVEL002
 370
13
 100
AcDbLine
   6
CONTINUOUS
  62
5
  10
 3450.0000000000
  20
 550.00000000000
  30
0.0
  11
 3400.0000000000
  21
 450.00000000000
  31
0.0
   0
LINE
   5
1F1
 100
AcDbEntity
   8
LEVEL002
 370
13
 100
AcDbLine
   6
CONTINUOUS
  62
5
  10
 3400.0000000000
  20
 550.00000000000
  30
0.0
  11
 3440.0000000000
  21
 530.00000000000
  31
0.0
   0
LINE
   5
1F2
 100
AcDbEntity
   8
LEVEL002
 370
13
 100
AcDbLine
   6
CONTINUOUS
  62
5
  10
 3400.0000000000
  20
 550.00000000000
  30
0.0
  11
 3350.0000000000
  21
 450.00000000000
  31
0.0
   0
LINE
   5
1F3
 100
AcDbEntity
   8
LEVEL002
 370
13
 100
AcDbLine
   6
CONTINUOUS
  62
5
  10
 3350.0000000000
  20
 550.00000000000
  30
0.0
  11
 3390.0000000000
  21
 530.00000000000
  31
0.0
   0
LINE
   5
1F4
 100
AcDbEntity
   8
LEVEL002
 370
13
 100
AcDbLine
   6
CONTINUOUS
  62
5
  10
 3500.0000000000
  20
 450.00000000000
  30
0.0
  11
 3460.0000000000
  21
 470.00000000000
  31
0.0
   0
LINE
   5
1F5
 100
AcDbEntity
   8
LEVEL002
 370
13
 100
AcDbLine
   6
CONTINUOUS
  62
5
  10
 3450.0000000000
  20
 450.00000000000
  30
0.0
  11
 3410.0000000000
  21
 470.00000000000
  31
0.0
   0
LINE
   5
1F6
 100
AcDbEntity
   8
LEVEL002
 370
13
 100
AcDbLine
   6
CONTINUOUS
  62
5
  10
 3400.0000000000
  20
 450.00000000000
  30
0.0
  11
 3360.0000000000
  21
 470.00000000000
  31
0.0
   0
LINE
   5
1F7
 100
AcDbEntity
   8
LEVEL002
 370
13
 100
AcDbLine
   6
CONTINUOUS
  62
5
  10
 3602.5000000000
  20
 1750.0000000000
  30
0.0
  11
 3550.0000000000
  21
 1697.5000000000
  31
0.0
   0
LINE
   5
1F8
 100
AcDbEntity
   8
LEVEL002
 370
13
 100
AcDbLine
   6
CONTINUOUS
  62
5
  10
 3565.9099025760
  20
 1697.5000000000
  30
0.0
  11
 3618.4099025760
  21
 1750.0000000000
  31
0.0
   0
LINE
   5
1F9
 100
AcDbEntity
   8
LEVEL002
 370
13
 100
AcDbLine
   6
CONTINUOUS
  62
5
  10
 3634.3198051536
  20
 1750.0000000000
  30
0.0
  11
 3581.8198051536
  21
 1697.5000000000
  31
0.0
   0
LINE
   5
1FA
 100
AcDbEntity
   8
LEVEL002
 370
13
 100
AcDbLine
   6
CONTINUOUS
  62
5
  10
 3597.7297077297
  20
 1697.5000000000
  30
0.0
  11
 3650.2297077297
  21
 1750.0000000000
  31
0.0
   0
LINE
   5
1FB
 100
AcDbEntity
   8
LEVEL002
 370
13
 100
AcDbLine
   6
CONTINUOUS
  62
5
  10
 3655.0000000003
  20
 1697.5000000000
  30
0.0
  11
 3626.3648538650
  21
 1726.1351461353
  31
0.0
   0
LINE
   5
1FC
 100
AcDbEntity
   8
LEVEL002
 370
13
 100
AcDbLine
   6
CONTINUOUS
  62
5
  10
 3634.3198051532
  20
 1734.0900974235
  30
0.0
  11
 3670.9099025767
  21
 1697.5000000000
  31
0.0
   0
LINE
   5
1FD
 100
AcDbEntity
   8
LEVEL002
 370
13
 100
AcDbLine
   6
CONTINUOUS
  62
5
  10
 3686.8198051531
  20
 1697.5000000000
  30
0.0
  11
 3642.2747564414
  21
 1742.0450487117
  31
0.0
   0
LINE
   5
1FE
 100
AcDbEntity
   8
LEVEL002
 370
13
 100
AcDbLine
   6
CONTINUOUS
  62
5
  10
 3650.2297077297
  20
 1750.0000000000
  30
0.0
  11
 3702.7297077299
  21
 1697.5000000000
  31
0.0
   0
LINE
   5
1FF
 100
AcDbEntity
   8
LEVEL002
 370
13
 100
AcDbLine
   6
CONTINUOUS
  62
5
  10
 3702.7297077299
  20
 1697.5000000000
  30
0.0
  11
 3755.2297077299
  21
 1750.0000000000
  31
0.0
   0
LINE
   5
200
 100
AcDbEntity
   8
LEVEL002
 370
13
 100
AcDbLine
   6
CONTINUOUS
  62
5
  10
 3707.5000000002
  20
 1750.0000000000
  30
0.0
  11
 3678.8648538650
  21
 1721.3648538648
  31
0.0
   0
LINE
   5
201
 100
AcDbEntity
   8
LEVEL002
 370
13
 100
AcDbLine
   6
CONTINUOUS
  62
5
  10
 3686.8198051530
  20
 1713.4099025768
  30
0.0
  11
 3723.4099025762
  21
 1750.0000000000
  31
0.0
   0
LINE
   5
202
 100
AcDbEntity
   8
LEVEL002
 370
13
 100
AcDbLine
   6
CONTINUOUS
  62
5
  10
 3739.3198051538
  20
 1750.0000000000
  30
0.0
  11
 3694.7747564418
  21
 1705.4549512880
  31
0.0
   0
LINE
   5
203
 100
AcDbEntity
   8
LEVEL002
 370
13
 100
AcDbLine
   6
CONTINUOUS
  62
5
  10
 3760.0000000005
  20
 1697.5000000000
  30
0.0
  11
 3731.3648538652
  21
 1726.1351461353
  31
0.0
   0
LINE
   5
204
 100
AcDbEntity
   8
LEVEL002
 370
13
 100
AcDbLine
   6
CONTINUOUS
  62
5
  10
 3739.3198051534
  20
 1734.0900974235
  30
0.0
  11
 3775.9099025769
  21
 1697.5000000000
  31
0.0
   0
LINE
   5
205
 100
AcDbEntity
   8
LEVEL002
 370
13
 100
AcDbLine
   6
CONTINUOUS
  62
5
  10
 3791.8198051533
  20
 1697.5000000000
  30
0.0
  11
 3747.2747564416
  21
 1742.0450487117
  31
0.0
   0
LINE
   5
206
 100
AcDbEntity
   8
LEVEL002
 370
13
 100
AcDbLine
   6
CONTINUOUS
  62
5
  10
 3755.2297077299
  20
 1750.0000000000
  30
0.0
  11
 3807.7297077301
  21
 1697.5000000000
  31
0.0
   0
LWPOLYLINE
   5
207
 100
AcDbEntity
   8
LEVEL002
 370
13
   6
CONTINUOUS
  62
5
 100
AcDbPolyline
  90
4
  70
1
  10
 3000.0000000000
  20
 550.00000000000
  10
 3000.0000000000
  20
 450.00000000000
  10
 3500.0000000000
  20
 450.00000000000
  10
 3500.0000000000
  20
 550.00000000000
   0
LINE
   5
208
 100
AcDbEntity
   8
LEVEL002
 370
13
 100
AcDbLine
   6
CONTINUOUS
  62
5
  10
 3000.0000000000
  20
 1750.0000000000
  30
0.0
  11
 2700.0000652350
  21
 1750.0000000000
  31
0.0
   0
LINE
   5
209
 100
AcDbEntity
   8
LEVEL002
 370
13
 100
AcDbLine
   6
CONTINUOUS
  62
5
  10
 3500.0000000000
  20
 1750.0000000000
  30
0.0
  11
 3800.0000652350
  21
 1750.0000000000
  31
0.0
   0
LWPOLYLINE
   5
20A
 100
AcDbEntity
   8
LEVEL002
 370
13
   6
CONTINUOUS
  62
5
 100
AcDbPolyline
  90
6
  70
0
  10
 3205.4500000000
  20
 1750.0000000000
  10
 3000.0000000000
  20
 1750.0000000000
  10
 3000.0000000000
  20
 550.00000000000
  10
 3500.0000000000
  20
 550.00000000000
  10
 3500.0000000000
  20
 1750.0000000000
  10
 3294.5500000000
  20
 1750.0000000000
   0
MTEXT
   5
20C
 100
AcDbEntity
   8
LEVEL001
 370
13
  62
1
 100
AcDbMText
  10
 2820.6486704444
  20
 1758.7299370403
  30
0.0
  40
 40.000000000000
  41
0.0
  71
7
  72
1
   1
\T1.000000;ＧＬ
   7
GMM002
  44
 0.79999984000003
   0
LWPOLYLINE
   5
20D
 100
AcDbEntity
   8
LEVEL001
 370
13
   6
CONTINUOUS
  62
1
 100
AcDbPolyline
  90
3
  70
1
  10
 2792.4999999996
  20
 1750.0000000000
  10
 2767.4999999996
  20
 1800.0000000000
  10
 2817.4999999996
  20
 1800.0000000000
   0
LINE
   5
20E
 100
AcDbEntity
   8
LEVEL001
 370
13
 100
AcDbLine
   6
DASHDOT
  62
6
  10
 4950.0000000000
  20
 4549.9999932771
  30
0.0
  11
 4050.0000000000
  21
 4549.9999932771
  31
0.0
   0
ARC
   5
20F
 100
AcDbEntity
   8
LEVEL001
 370
13
   6
CONTINUOUS
  62
1
 100
AcDbCircle
  10
 4087.5000000000
  20
 4704.9999932771
  30
0.0
  40
 7.5000000000000
 100
AcDbArc
  50
 90.000000000000
  51
 270.00000000000
   0
ARC
   5
210
 100
AcDbEntity
   8
LEVEL001
 370
13
   6
CONTINUOUS
  62
1
 100
AcDbCircle
  10
 4912.5000000000
  20
 4704.9999932771
  30
0.0
  40
 7.5000000000000
 100
AcDbArc
  50
 270.00000000000
  51
 90.000000000000
   0
ARC
   5
211
 100
AcDbEntity
   8
LEVEL001
 370
13
   6
CONTINUOUS
  62
1
 100
AcDbCircle
  10
 4100.0000000000
  20
 4379.9999932771
  30
0.0
  40
 7.5000000000000
 100
AcDbArc
  50
 90.000000000000
  51
 270.00000000000
   0
ARC
   5
212
 100
AcDbEntity
   8
LEVEL001
 370
13
   6
CONTINUOUS
  62
1
 100
AcDbCircle
  10
 4900.0000000000
  20
 4379.9999932771
  30
0.0
  40
 7.5000000000000
 100
AcDbArc
  50
 270.00000000000
  51
 90.000000000000
   0
ARC
   5
213
 100
AcDbEntity
   8
LEVEL001
 370
13
   6
CONTINUOUS
  62
1
 100
AcDbCircle
  10
 4237.5000000000
  20
 4249.9999932771
  30
0.0
  40
 7.5000000000000
 100
AcDbArc
  50
 180.00000000000
  51
0.0
   0
ARC
   5
214
 100
AcDbEntity
   8
LEVEL001
 370
13
   6
CONTINUOUS
  62
1
 100
AcDbCircle
  10
 4900.0000000000
  20
 4379.9999932771
  30
0.0
  40
 7.5000000000000
 100
AcDbArc
  50
 270.00000000000
  51
 90.000000000000
   0
ARC
   5
215
 100
AcDbEntity
   8
LEVEL001
 370
13
   6
CONTINUOUS
  62
1
 100
AcDbCircle
  10
 4762.5000000000
  20
 4249.9999932771
  30
0.0
  40
 7.5000000000000
 100
AcDbArc
  50
 180.00000000000
  51
0.0
   0
ARC
   5
216
 100
AcDbEntity
   8
LEVEL001
 370
13
   6
CONTINUOUS
  62
1
 100
AcDbCircle
  10
 4500.0000000000
  20
 4249.9999932771
  30
0.0
  40
 7.5000000000000
 100
AcDbArc
  50
 180.00000000000
  51
0.0
   0
ARC
   5
217
 100
AcDbEntity
   8
LEVEL001
 370
13
   6
CONTINUOUS
  62
7
 100
AcDbCircle
  10
 4895.0000000000
  20
 4844.9999932771
  30
0.0
  40
 5.0000000000000
 100
AcDbArc
  50
0.0
  51
 90.000000000000
   0
ARC
   5
218
 100
AcDbEntity
   8
LEVEL001
 370
13
   6
CONTINUOUS
  62
2
 100
AcDbCircle
  10
 4870.0000000000
  20
 4819.9999932771
  30
0.0
  40
 5.0000000000000
 100
AcDbArc
  50
0.0
  51
 90.000000000000
   0
LINE
   5
219
 100
AcDbEntity
   8
LEVEL001
 370
13
 100
AcDbLine
   6
CONTINUOUS
  62
2
  10
 4875.0000000000
  20
 4279.9999932771
  30
0.0
  11
 4875.0000000000
  21
 4819.9999932771
  31
0.0
   0
ARC
   5
21A
 100
AcDbEntity
   8
LEVEL001
 370
13
   6
CONTINUOUS
  62
2
 100
AcDbCircle
  10
 4870.0000000000
  20
 4279.9999932771
  30
0.0
  40
 5.0000000000000
 100
AcDbArc
  50
 270.00000000000
  51
0.0
   0
LINE
   5
21B
 100
AcDbEntity
   8
LEVEL001
 370
13
 100
AcDbLine
   6
CONTINUOUS
  62
7
  10
 4900.0000000000
  20
 4254.9999932771
  30
0.0
  11
 4900.0000000000
  21
 4844.9999932771
  31
0.0
   0
ARC
   5
21C
 100
AcDbEntity
   8
LEVEL001
 370
13
   6
CONTINUOUS
  62
7
 100
AcDbCircle
  10
 4895.0000000000
  20
 4254.9999932771
  30
0.0
  40
 5.0000000000000
 100
AcDbArc
  50
 270.00000000000
  51
0.0
   0
LINE
   5
21D
 100
AcDbEntity
   8
LEVEL001
 370
13
 100
AcDbLine
   6
CONTINUOUS
  62
7
  10
 4105.0000000000
  20
 4249.9999932771
  30
0.0
  11
 4895.0000000000
  21
 4249.9999932771
  31
0.0
   0
ARC
   5
21E
 100
AcDbEntity
   8
LEVEL001
 370
13
   6
CONTINUOUS
  62
7
 100
AcDbCircle
  10
 4105.0000000000
  20
 4254.9999932771
  30
0.0
  40
 5.0000000000000
 100
AcDbArc
  50
 180.00000000000
  51
 270.00000000000
   0
LINE
   5
21F
 100
AcDbEntity
   8
LEVEL001
 370
13
 100
AcDbLine
   6
CONTINUOUS
  62
2
  10
 4130.0000000000
  20
 4274.9999932771
  30
0.0
  11
 4870.0000000000
  21
 4274.9999932771
  31
0.0
   0
ARC
   5
220
 100
AcDbEntity
   8
LEVEL001
 370
13
   6
CONTINUOUS
  62
2
 100
AcDbCircle
  10
 4130.0000000000
  20
 4279.9999932771
  30
0.0
  40
 5.0000000000000
 100
AcDbArc
  50
 180.00000000000
  51
 270.00000000000
   0
LINE
   5
221
 100
AcDbEntity
   8
LEVEL001
 370
13
 100
AcDbLine
   6
CONTINUOUS
  62
2
  10
 4870.0000000000
  20
 4824.9999932771
  30
0.0
  11
 4130.0000000000
  21
 4824.9999932771
  31
0.0
   0
LINE
   5
222
 100
AcDbEntity
   8
LEVEL001
 370
13
 100
AcDbLine
   6
CONTINUOUS
  62
2
  10
 4125.0000000000
  20
 4819.9999932771
  30
0.0
  11
 4125.0000000000
  21
 4279.9999932771
  31
0.0
   0
ARC
   5
223
 100
AcDbEntity
   8
LEVEL001
 370
13
   6
CONTINUOUS
  62
2
 100
AcDbCircle
  10
 4130.0000000000
  20
 4819.9999932771
  30
0.0
  40
 5.0000000000000
 100
AcDbArc
  50
 90.000000000000
  51
 180.00000000000
   0
LINE
   5
224
 100
AcDbEntity
   8
LEVEL001
 370
13
 100
AcDbLine
   6
CONTINUOUS
  62
7
  10
 4895.0000000000
  20
 4849.9999932771
  30
0.0
  11
 4105.0000000000
  21
 4849.9999932771
  31
0.0
   0
LINE
   5
225
 100
AcDbEntity
   8
LEVEL001
 370
13
 100
AcDbLine
   6
CONTINUOUS
  62
7
  10
 4100.0000000000
  20
 4844.9999932771
  30
0.0
  11
 4100.0000000000
  21
 4254.9999932771
  31
0.0
   0
ARC
   5
226
 100
AcDbEntity
   8
LEVEL001
 370
13
   6
CONTINUOUS
  62
7
 100
AcDbCircle
  10
 4105.0000000000
  20
 4844.9999932771
  30
0.0
  40
 5.0000000000000
 100
AcDbArc
  50
 90.000000000000
  51
 180.00000000000
   0
ARC
   5
227
 100
AcDbEntity
   8
LEVEL001
 370
13
   6
CONTINUOUS
  62
7
 100
AcDbCircle
  10
 4897.5000000000
  20
 4844.9999932771
  30
0.0
  40
 15.000000000000
 100
AcDbArc
  50
0.0
  51
 90.000000000000
   0
LINE
   5
228
 100
AcDbEntity
   8
LEVEL001
 370
13
 100
AcDbLine
   6
CONTINUOUS
  62
7
  10
 4102.5000000000
  20
 4859.9999932771
  30
0.0
  11
 4897.5000000000
  21
 4859.9999932771
  31
0.0
   0
ARC
   5
229
 100
AcDbEntity
   8
LEVEL001
 370
13
   6
CONTINUOUS
  62
7
 100
AcDbCircle
  10
 4102.5000000000
  20
 4844.9999932771
  30
0.0
  40
 15.000000000000
 100
AcDbArc
  50
 90.000000000003
  51
 180.00000000000
   0
CIRCLE
   5
22A
 100
AcDbEntity
   8
LEVEL001
 370
13
 100
AcDbCircle
   6
CONTINUOUS
  62
2
  10
 4499.9996948242
  20
 4550.0000000000
  30
0.0
  40
 99.999997009768
   0
CIRCLE
   5
22B
 100
AcDbEntity
   8
LEVEL001
 370
13
 100
AcDbCircle
   6
CONTINUOUS
  62
7
  10
 4459.9997015471
  20
 4585.0000000000
  30
0.0
  40
 7.0000000000000
   0
LINE
   5
22C
 100
AcDbEntity
   8
LEVEL001
 370
13
 100
AcDbLine
   6
DASHDOT
  62
6
  10
 4459.9997015471
  20
 4565.0000000000
  30
0.0
  11
 4459.9997015471
  21
 4605.0000000000
  31
0.0
   0
LINE
   5
22D
 100
AcDbEntity
   8
LEVEL001
 370
13
 100
AcDbLine
   6
DASHDOT
  62
6
  10
 4479.9997015471
  20
 4585.0000000000
  30
0.0
  11
 4439.9997015471
  21
 4585.0000000000
  31
0.0
   0
CIRCLE
   5
22E
 100
AcDbEntity
   8
LEVEL001
 370
13
 100
AcDbCircle
   6
CONTINUOUS
  62
7
  10
 4539.9997015471
  20
 4585.0000000000
  30
0.0
  40
 7.0000000000000
   0
LINE
   5
22F
 100
AcDbEntity
   8
LEVEL001
 370
13
 100
AcDbLine
   6
DASHDOT
  62
6
  10
 4519.9997015471
  20
 4585.0000000000
  30
0.0
  11
 4559.9997015471
  21
 4585.0000000000
  31
0.0
   0
LINE
   5
230
 100
AcDbEntity
   8
LEVEL001
 370
13
 100
AcDbLine
   6
DASHDOT
  62
6
  10
 4539.9997015471
  20
 4565.0000000000
  30
0.0
  11
 4539.9997015471
  21
 4605.0000000000
  31
0.0
   0
CIRCLE
   5
231
 100
AcDbEntity
   8
LEVEL001
 370
13
 100
AcDbCircle
   6
CONTINUOUS
  62
7
  10
 4539.9997015471
  20
 4515.0000000000
  30
0.0
  40
 7.0000000000000
   0
LINE
   5
232
 100
AcDbEntity
   8
LEVEL001
 370
13
 100
AcDbLine
   6
DASHDOT
  62
6
  10
 4539.9997015471
  20
 4535.0000000000
  30
0.0
  11
 4539.9997015471
  21
 4495.0000000000
  31
0.0
   0
LINE
   5
233
 100
AcDbEntity
   8
LEVEL001
 370
13
 100
AcDbLine
   6
DASHDOT
  62
6
  10
 4519.9997015471
  20
 4515.0000000000
  30
0.0
  11
 4559.9997015471
  21
 4515.0000000000
  31
0.0
   0
CIRCLE
   5
234
 100
AcDbEntity
   8
LEVEL001
 370
13
 100
AcDbCircle
   6
CONTINUOUS
  62
7
  10
 4459.9997015471
  20
 4515.0000000000
  30
0.0
  40
 7.0000000000000
   0
LINE
   5
235
 100
AcDbEntity
   8
LEVEL001
 370
13
 100
AcDbLine
   6
DASHDOT
  62
6
  10
 4479.9997015471
  20
 4515.0000000000
  30
0.0
  11
 4439.9997015471
  21
 4515.0000000000
  31
0.0
   0
LINE
   5
236
 100
AcDbEntity
   8
LEVEL001
 370
13
 100
AcDbLine
   6
DASHDOT
  62
6
  10
 4459.9997015471
  20
 4535.0000000000
  30
0.0
  11
 4459.9997015471
  21
 4495.0000000000
  31
0.0
   0
ARC
   5
237
 100
AcDbEntity
   8
LEVEL001
 370
13
   6
CONTINUOUS
  62
2
 100
AcDbCircle
  10
 4798.8824547740
  20
 4768.1034062203
  30
0.0
  40
 13.049657887988
 100
AcDbArc
  50
 316.11934084565
  51
 116.11934084949
   0
LINE
   5
238
 100
AcDbEntity
   8
LEVEL001
 370
13
 100
AcDbLine
   6
CONTINUOUS
  62
2
  10
 4793.1374435758
  20
 4779.8204202310
  30
0.0
  11
 4577.1619563650
  21
 4649.4362217099
  31
0.0
   0
ARC
   5
239
 100
AcDbEntity
   8
LEVEL001
 370
13
   6
CONTINUOUS
  62
2
 100
AcDbCircle
  10
 4569.4096212314
  20
 4662.2776118206
  30
0.0
  40
 15.000000000000
 100
AcDbArc
  50
 238.27567775435
  51
 301.11934084949
   0
LINE
   5
23A
 100
AcDbEntity
   8
LEVEL001
 370
13
 100
AcDbLine
   6
CONTINUOUS
  62
2
  10
 4808.2884542140
  20
 4759.0579241697
  30
0.0
  11
 4618.2349800672
  21
 4593.1507015066
  31
0.0
   0
ARC
   5
23B
 100
AcDbEntity
   8
LEVEL001
 370
13
   6
CONTINUOUS
  62
2
 100
AcDbCircle
  10
 4628.0994238021
  20
 4581.8505798346
  30
0.0
  40
 15.000000000000
 100
AcDbArc
  50
 131.11934084949
  51
 193.96282381872
   0
LINE
   5
23C
 100
AcDbEntity
   8
LEVEL001
 370
13
 100
AcDbLine
   6
CONTINUOUS
  62
6
  10
 4770.6377257715
  20
 4751.0520898835
  30
0.0
  11
 4579.6167244115
  21
 4635.7328910028
  31
0.0
   0
LINE
   5
23D
 100
AcDbEntity
   8
LEVEL001
 370
13
 100
AcDbLine
   6
CONTINUOUS
  62
6
  10
 4774.0277566793
  20
 4746.4064919727
  30
0.0
  11
 4605.9337622875
  21
 4599.6688020616
  31
0.0
   0
ARC
   5
23E
 100
AcDbEntity
   8
LEVEL001
 370
13
   6
CONTINUOUS
  62
2
 100
AcDbCircle
  10
 4798.8824547740
  20
 4331.8965937797
  30
0.0
  40
 13.049657887988
 100
AcDbArc
  50
 243.88065915052
  51
 43.880659154340
   0
LINE
   5
23F
 100
AcDbEntity
   8
LEVEL001
 370
13
 100
AcDbLine
   6
CONTINUOUS
  62
6
  10
 4770.6377257715
  20
 4348.9479101166
  30
0.0
  11
 4579.6167244115
  21
 4464.2671089972
  31
0.0
   0
LINE
   5
240
 100
AcDbEntity
   8
LEVEL001
 370
13
 100
AcDbLine
   6
CONTINUOUS
  62
6
  10
 4774.0277566793
  20
 4353.5935080273
  30
0.0
  11
 4605.9337622875
  21
 4500.3311979384
  31
0.0
   0
ARC
   5
241
 100
AcDbEntity
   8
LEVEL001
 370
13
   6
CONTINUOUS
  62
2
 100
AcDbCircle
  10
 4201.1175452260
  20
 4331.8965937797
  30
0.0
  40
 13.049657887988
 100
AcDbArc
  50
 136.11934084566
  51
 296.11934084948
   0
LINE
   5
242
 100
AcDbEntity
   8
LEVEL001
 370
13
 100
AcDbLine
   6
CONTINUOUS
  62
6
  10
 4229.3622742285
  20
 4348.9479101166
  30
0.0
  11
 4420.3832755885
  21
 4464.2671089972
  31
0.0
   0
LINE
   5
243
 100
AcDbEntity
   8
LEVEL001
 370
13
 100
AcDbLine
   6
CONTINUOUS
  62
6
  10
 4225.9722433207
  20
 4353.5935080273
  30
0.0
  11
 4394.0662377125
  21
 4500.3311979384
  31
0.0
   0
ARC
   5
244
 100
AcDbEntity
   8
LEVEL001
 370
13
   6
CONTINUOUS
  62
2
 100
AcDbCircle
  10
 4201.1175452260
  20
 4768.1033927746
  30
0.0
  40
 13.049657887988
 100
AcDbArc
  50
 63.880659150514
  51
 223.88065915435
   0
LINE
   5
245
 100
AcDbEntity
   8
LEVEL001
 370
13
 100
AcDbLine
   6
CONTINUOUS
  62
6
  10
 4229.3622742285
  20
 4751.0520764377
  30
0.0
  11
 4420.3832755885
  21
 4635.7328775570
  31
0.0
   0
LINE
   5
246
 100
AcDbEntity
   8
LEVEL001
 370
13
 100
AcDbLine
   6
CONTINUOUS
  62
6
  10
 4225.9722433207
  20
 4746.4064785270
  30
0.0
  11
 4394.0662377125
  21
 4599.6687886158
  31
0.0
   0
LINE
   5
247
 100
AcDbEntity
   8
LEVEL001
 370
13
 100
AcDbLine
   6
CONTINUOUS
  62
2
  10
 4808.2884542140
  20
 4340.9420758303
  30
0.0
  11
 4618.2349800672
  21
 4506.8492984934
  31
0.0
   0
ARC
   5
248
 100
AcDbEntity
   8
LEVEL001
 370
13
   6
CONTINUOUS
  62
2
 100
AcDbCircle
  10
 4628.0994238021
  20
 4518.1494201654
  30
0.0
  40
 15.000000000000
 100
AcDbArc
  50
 166.03717618128
  51
 228.88065915052
   0
ARC
   5
249
 100
AcDbEntity
   8
LEVEL001
 370
13
   6
CONTINUOUS
  62
2
 100
AcDbCircle
  10
 4499.9996948242
  20
 4550.0000000000
  30
0.0
  40
 117.00000000000
 100
AcDbArc
  50
 346.03717618128
  51
 13.962823818722
   0
LINE
   5
24A
 100
AcDbEntity
   8
LEVEL001
 370
13
 100
AcDbLine
   6
CONTINUOUS
  62
2
  10
 4793.1374435758
  20
 4320.1795797690
  30
0.0
  11
 4577.1619563650
  21
 4450.5637782901
  31
0.0
   0
ARC
   5
24B
 100
AcDbEntity
   8
LEVEL001
 370
13
   6
CONTINUOUS
  62
2
 100
AcDbCircle
  10
 4569.4096212314
  20
 4437.7223881794
  30
0.0
  40
 15.000000000000
 100
AcDbArc
  50
 58.880659150517
  51
 121.72432224565
   0
LINE
   5
24C
 100
AcDbEntity
   8
LEVEL001
 370
13
 100
AcDbLine
   6
CONTINUOUS
  62
2
  10
 4206.8625564242
  20
 4320.1795797690
  30
0.0
  11
 4422.8377348382
  21
 4450.5635918698
  31
0.0
   0
ARC
   5
24D
 100
AcDbEntity
   8
LEVEL001
 370
13
   6
CONTINUOUS
  62
2
 100
AcDbCircle
  10
 4430.5900699718
  20
 4437.7222017590
  30
0.0
  40
 15.000000000000
 100
AcDbArc
  50
 58.275831638986
  51
 121.11934084948
   0
ARC
   5
24E
 100
AcDbEntity
   8
LEVEL001
 370
13
   6
CONTINUOUS
  62
2
 100
AcDbCircle
  10
 4499.9996948242
  20
 4550.0000000000
  30
0.0
  40
 117.00000000000
 100
AcDbArc
  50
 238.27583163899
  51
 301.72432224565
   0
LINE
   5
24F
 100
AcDbEntity
   8
LEVEL001
 370
13
 100
AcDbLine
   6
CONTINUOUS
  62
2
  10
 4191.7115457860
  20
 4340.9420758303
  30
0.0
  11
 4381.7645184325
  21
 4506.8488607086
  31
0.0
   0
ARC
   5
250
 100
AcDbEntity
   8
LEVEL001
 370
13
   6
CONTINUOUS
  62
2
 100
AcDbCircle
  10
 4371.9000746975
  20
 4518.1489823805
  30
0.0
  40
 15.000000000000
 100
AcDbArc
  50
 311.11934084948
  51
 13.963019628937
   0
LINE
   5
251
 100
AcDbEntity
   8
LEVEL001
 370
13
 100
AcDbLine
   6
CONTINUOUS
  62
2
  10
 4191.7115457860
  20
 4759.0579107239
  30
0.0
  11
 4381.7645156855
  21
 4593.1511282436
  31
0.0
   0
ARC
   5
252
 100
AcDbEntity
   8
LEVEL001
 370
13
   6
CONTINUOUS
  62
2
 100
AcDbCircle
  10
 4371.9000719506
  20
 4581.8510065717
  30
0.0
  40
 15.000000000000
 100
AcDbArc
  50
 346.03698531248
  51
 48.880659150519
   0
ARC
   5
253
 100
AcDbEntity
   8
LEVEL001
 370
13
   6
CONTINUOUS
  62
2
 100
AcDbCircle
  10
 4499.9996948242
  20
 4550.0000000000
  30
0.0
  40
 117.00000000000
 100
AcDbArc
  50
 166.03698531248
  51
 193.96301962894
   0
LINE
   5
254
 100
AcDbEntity
   8
LEVEL001
 370
13
 100
AcDbLine
   6
CONTINUOUS
  62
2
  10
 4206.8625564242
  20
 4779.8204067852
  30
0.0
  11
 4422.8377238342
  21
 4649.4364013275
  31
0.0
   0
ARC
   5
255
 100
AcDbEntity
   8
LEVEL001
 370
13
   6
CONTINUOUS
  62
2
 100
AcDbCircle
  10
 4430.5900589677
  20
 4662.2777914383
  30
0.0
  40
 15.000000000000
 100
AcDbArc
  50
 238.88065915052
  51
 301.72417397642
   0
ARC
   5
256
 100
AcDbEntity
   8
LEVEL001
 370
13
   6
CONTINUOUS
  62
2
 100
AcDbCircle
  10
 4499.9996948242
  20
 4550.0000000000
  30
0.0
  40
 117.00000000000
 100
AcDbArc
  50
 58.275677754348
  51
 121.72417397642
   0
CIRCLE
   5
257
 100
AcDbEntity
   8
LEVEL001
 370
13
 100
AcDbCircle
   6
CONTINUOUS
  62
1
  10
 4106.4345913494
  20
 4124.6067140736
  30
0.0
  40
 69.999997913838
   0
MTEXT
   5
259
 100
AcDbEntity
   8
LEVEL001
 370
13
  62
7
 100
AcDbMText
  10
 4106.4345913494
  20
 4124.6067140736
  30
0.0
  40
 66.000000000000
  41
0.0
  71
5
  72
1
   1
\T1.000000;２
   7
GMM001
  44
 0.79999984000003
   0
LEADER
   5
25A
 100
AcDbEntity
   8
LEVEL001
 370
13
   6
CONTINUOUS
  62
1
 100
AcDbLeader
   3
GMM001
  73
3
  74
1
  75
0
  40
 66.000000000000
  41
0.0
  76
2
  10
 4300.0060763957
  20
 4318.1781991199
  30
0.0
  10
 4155.9320645573
  20
 4174.1041872815
  30
0.0
  77
1
   0
CIRCLE
   5
25B
 100
AcDbEntity
   8
LEVEL001
 370
13
 100
AcDbCircle
   6
CONTINUOUS
  62
1
  10
 1789.7826555665
  20
 2641.5851397056
  30
0.0
  40
 70.000000000000
   0
MTEXT
   5
25D
 100
AcDbEntity
   8
LEVEL001
 370
13
  62
7
 100
AcDbMText
  10
 1789.7826555665
  20
 2641.5851397056
  30
0.0
  40
 66.000000000000
  41
0.0
  71
5
  72
1
   1
\T1.000000;１２
   7
GMM001
  44
 0.79999984000003
   0
LEADER
   5
25E
 100
AcDbEntity
   8
LEVEL001
 370
13
   6
CONTINUOUS
  62
1
 100
AcDbLeader
   3
GMM001
  73
3
  74
1
  75
0
  40
 66.000000000000
  41
0.0
  76
2
  10
 1544.5500000000
  20
 2500.0000000000
  30
0.0
  10
 1729.1608773016
  20
 2606.5851397055
  30
0.0
  77
1
   0
CIRCLE
   5
25F
 100
AcDbEntity
   8
LEVEL001
 370
13
 100
AcDbCircle
   6
CONTINUOUS
  62
1
  10
 2500.0000000000
  20
 5000.0000000000
  30
0.0
  40
 69.999997913838
   0
MTEXT
   5
261
 100
AcDbEntity
   8
LEVEL001
 370
13
  62
7
 100
AcDbMText
  10
 2500.0000000000
  20
 5000.0000000000
  30
0.0
  40
 66.000000000000
  41
0.0
  71
5
  72
1
   1
\T1.000000;３
   7
GMM001
  44
 0.79999984000003
   0
CIRCLE
   5
262
 100
AcDbEntity
   8
LEVEL001
 370
13
 100
AcDbCircle
   6
CONTINUOUS
  62
1
  10
 2500.0000000000
  20
 4250.0000000000
  30
0.0
  40
 69.999997913838
   0
MTEXT
   5
264
 100
AcDbEntity
   8
LEVEL001
 370
13
  62
7
 100
AcDbMText
  10
 2500.0000000000
  20
 4250.0000000000
  30
0.0
  40
 66.000000000000
  41
0.0
  71
5
  72
1
   1
\T1.000000;１
   7
GMM001
  44
 0.79999984000003
   0
LEADER
   5
265
 100
AcDbEntity
   8
LEVEL001
 370
13
   6
CONTINUOUS
  62
1
 100
AcDbLeader
   3
GMM001
  73
3
  74
1
  75
0
  40
 66.000000000000
  41
0.0
  76
2
  10
 2250.0000000000
  20
 4375.0000000000
  30
0.0
  10
 2437.3900984959
  20
 4281.3049507520
  30
0.0
  77
1
   0
LEADER
   5
266
 100
AcDbEntity
   8
LEVEL001
 370
13
   6
CONTINUOUS
  62
1
 100
AcDbLeader
   3
GMM001
  73
3
  74
1
  75
0
  40
 66.000000000000
  41
0.0
  76
2
  10
 2709.0674432931
  20
 4375.0000000000
  30
0.0
  10
 2560.0802740421
  20
 4285.9215865319
  30
0.0
  77
1
   0
CIRCLE
   5
267
 100
AcDbEntity
   8
LEVEL001
 370
13
 100
AcDbCircle
   6
CONTINUOUS
  62
1
  10
 2875.0000000000
  20
 750.00000000000
  30
0.0
  40
 70.000000000000
   0
MTEXT
   5
269
 100
AcDbEntity
   8
LEVEL001
 370
13
  62
7
 100
AcDbMText
  10
 2875.0000000000
  20
 750.00000000000
  30
0.0
  40
 66.000000000000
  41
0.0
  71
5
  72
1
   1
\T1.000000;１３
   7
GMM001
  44
 0.79999984000003
   0
LEADER
   5
26A
 100
AcDbEntity
   8
LEVEL001
 370
13
   6
CONTINUOUS
  62
1
 100
AcDbLeader
   3
GMM001
  73
3
  74
1
  75
0
  40
 66.000000000000
  41
0.0
  76
2
  10
 3133.5999819144
  20
 842.50000000000
  30
0.0
  10
 2940.9103926236
  20
 773.57583814411
  30
0.0
  77
1
   0
LWPOLYLINE
   5
26B
 100
AcDbEntity
   8
LEVEL001
 370
13
   6
CONTINUOUS
  62
5
 100
AcDbPolyline
  90
7
  70
1
  10
 1500.0000000002
  20
 4010.0000000000
  10
 1463.7000010820
  20
 3963.8000013769
  10
 1483.5000004919
  20
 3963.8000013769
  10
 1483.5000004919
  20
 3944.0000019670
  10
 1516.4999995084
  20
 3944.0000019670
  10
 1516.4999995084
  20
 3963.8000013769
  10
 1536.2999989183
  20
 3963.8000013769
   0
ARC
   5
26C
 100
AcDbEntity
   8
LEVEL001
 370
13
   6
CONTINUOUS
  62
7
 100
AcDbCircle
  10
 1555.0000000002
  20
 4030.0000000000
  30
0.0
  40
 20.000000000000
 100
AcDbArc
  50
0.0
  51
 90.000000000000
   0
ARC
   5
26D
 100
AcDbEntity
   8
LEVEL001
 370
13
   6
CONTINUOUS
  62
7
 100
AcDbCircle
  10
 1445.0000000002
  20
 4030.0000000000
  30
0.0
  40
 20.000000000000
 100
AcDbArc
  50
 90.000000000000
  51
 180.00000000000
   0
LINE
   5
26E
 100
AcDbEntity
   8
LEVEL001
 370
13
 100
AcDbLine
   6
CONTINUOUS
  62
7
  10
 1425.0000000002
  20
 4030.0000000000
  30
0.0
  11
 1425.0000000002
  21
 3670.0000000000
  31
0.0
   0
LINE
   5
26F
 100
AcDbEntity
   8
LEVEL001
 370
13
 100
AcDbLine
   6
CONTINUOUS
  62
7
  10
 1575.0000000002
  20
 3670.0000000000
  30
0.0
  11
 1575.0000000002
  21
 4030.0000000000
  31
0.0
   0
LINE
   5
270
 100
AcDbEntity
   8
LEVEL001
 370
13
 100
AcDbLine
   6
CONTINUOUS
  62
7
  10
 1555.0000000002
  20
 4050.0000000000
  30
0.0
  11
 1445.0000000002
  21
 4050.0000000000
  31
0.0
   0
LINE
   5
271
 100
AcDbEntity
   8
LEVEL001
 370
13
 100
AcDbLine
   6
CONTINUOUS
  62
7
  10
 1445.0000000002
  20
 3650.0000000000
  30
0.0
  11
 1555.0000000002
  21
 3650.0000000000
  31
0.0
   0
ARC
   5
272
 100
AcDbEntity
   8
LEVEL001
 370
13
   6
CONTINUOUS
  62
7
 100
AcDbCircle
  10
 1445.0000000002
  20
 3670.0000000000
  30
0.0
  40
 20.000000000000
 100
AcDbArc
  50
 180.00000000000
  51
 270.00000000000
   0
ARC
   5
273
 100
AcDbEntity
   8
LEVEL001
 370
13
   6
CONTINUOUS
  62
7
 100
AcDbCircle
  10
 1555.0000000002
  20
 3670.0000000000
  30
0.0
  40
 20.000000000000
 100
AcDbArc
  50
 270.00000000000
  51
 360.00000000000
   0
LWPOLYLINE
   5
274
 100
AcDbEntity
   8
LEVEL001
 370
13
   6
CONTINUOUS
  62
7
 100
AcDbPolyline
  90
4
  70
0
  10
 1455.4500000000
  20
 3650.0000000000
  10
 1455.4500000000
  20
 550.00000000000
  10
 1544.5500000000
  20
 550.00000000000
  10
 1544.5500000000
  20
 3650.0000000000
   0
LINE
   5
275
 100
AcDbEntity
   8
LEVEL001
 370
13
 100
AcDbLine
   6
CONTINUOUS
  62
7
  10
 1455.4500000000
  20
 4419.9999584717
  30
0.0
  11
 1455.4500000000
  21
 4050.0000000000
  31
0.0
   0
LINE
   5
276
 100
AcDbEntity
   8
LEVEL001
 370
13
 100
AcDbLine
   6
CONTINUOUS
  62
7
  10
 1544.5500000000
  20
 4050.0000000000
  30
0.0
  11
 1544.5500000000
  21
 4419.9999584717
  31
0.0
   0
LEADER
   5
277
 100
AcDbEntity
   8
LEVEL001
 370
13
   6
CONTINUOUS
  62
1
 100
AcDbLeader
   3
GMM001
  73
3
  74
1
  75
0
  40
 66.000000000000
  41
0.0
  76
2
  10
 1575.0000000002
  20
 3850.0000000000
  30
0.0
  10
 1730.1868920603
  20
 3754.3818894746
  30
0.0
  77
1
   0
LINE
   5
278
 100
AcDbEntity
   8
LEVEL001
 370
13
 100
AcDbLine
   6
CONTINUOUS
  62
6
  10
 3293.7768090875
  20
 3856.4999999992
  30
0.0
  11
 3207.6960152123
  21
 3856.4999999992
  31
0.0
   0
LINE
   5
279
 100
AcDbEntity
   8
LEVEL001
 370
13
 100
AcDbLine
   6
CONTINUOUS
  62
6
  10
 3207.6960152123
  20
 3843.4999999992
  30
0.0
  11
 3293.7768090875
  21
 3843.4999999992
  31
0.0
   0
LWPOLYLINE
   5
27A
 100
AcDbEntity
   8
LEVEL001
 370
13
   6
CONTINUOUS
  62
7
 100
AcDbPolyline
  90
4
  70
0
  10
 3197.4047173801
  20
 3831.4999999992
  10
 3314.9488080880
  20
 3831.4999999992
  10
 3314.9488080880
  20
 3868.4999999992
  10
 3197.4043141110
  20
 3868.4999999992
   0
LINE
   5
27B
 100
AcDbEntity
   8
LEVEL001
 370
13
 100
AcDbLine
   6
CONTINUOUS
  62
6
  10
 3293.7768090875
  20
 3833.4999999992
  30
0.0
  11
 3293.7768090875
  21
 3842.4999999992
  31
0.0
   0
LINE
   5
27C
 100
AcDbEntity
   8
LEVEL001
 370
13
 100
AcDbLine
   6
CONTINUOUS
  62
6
  10
 3293.7768090875
  20
 3857.4999999992
  30
0.0
  11
 3293.7768090875
  21
 3866.4999999992
  31
0.0
   0
LINE
   5
27D
 100
AcDbEntity
   8
LEVEL001
 370
13
 100
AcDbLine
   6
CONTINUOUS
  62
6
  10
 3296.0953341289
  20
 3843.4999999992
  30
0.0
  11
 3296.0953341289
  21
 3856.4999999992
  31
0.0
   0
LWPOLYLINE
   5
27E
 100
AcDbEntity
   8
LEVEL001
 370
13
   6
CONTINUOUS
  62
7
 100
AcDbPolyline
  90
4
  70
1
  10
 3299.9488080880
  20
 3844.9999999992
  10
 3309.9488080880
  20
 3844.9999999992
  10
 3309.9488080880
  20
 3854.9999999992
  10
 3299.9488080880
  20
 3854.9999999992
   0
LINE
   5
27F
 100
AcDbEntity
   8
LEVEL001
 370
13
 100
AcDbLine
   6
CONTINUOUS
  62
6
  10
 3206.4351206427
  20
 3844.4999999992
  30
0.0
  11
 3206.4351206427
  21
 3855.4999999992
  31
0.0
   0
LINE
   5
280
 100
AcDbEntity
   8
LEVEL001
 370
13
 100
AcDbLine
   6
CONTINUOUS
  62
6
  10
 3206.4351206427
  20
 3857.4999999992
  30
0.0
  11
 3206.4351206427
  21
 3866.4999999992
  31
0.0
   0
LINE
   5
281
 100
AcDbEntity
   8
LEVEL001
 370
13
 100
AcDbLine
   6
CONTINUOUS
  62
6
  10
 3206.4351206427
  20
 3833.4999999992
  30
0.0
  11
 3206.4351206427
  21
 3842.4999999992
  31
0.0
   0
LINE
   5
282
 100
AcDbEntity
   8
LEVEL001
 370
13
 100
AcDbLine
   6
CONTINUOUS
  62
7
  10
 3193.0203313971
  20
 4050.0000000000
  30
0.0
  11
 3190.3064246335
  21
 4043.2152330912
  31
0.0
   0
ARC
   5
283
 100
AcDbEntity
   8
LEVEL001
 370
13
   6
CONTINUOUS
  62
7
 100
AcDbCircle
  10
 3194.9488080880
  20
 4041.3582797094
  30
0.0
  40
 5.0000000000000
 100
AcDbArc
  50
 158.19859051364
  51
 180.00000000000
   0
ARC
   5
284
 100
AcDbEntity
   8
LEVEL001
 370
13
   6
CONTINUOUS
  62
7
 100
AcDbCircle
  10
 3188.9488080880
  20
 4034.1523535409
  30
0.0
  40
 5.0000000000000
 100
AcDbArc
  50
 0.26055103950549E-10
  51
 21.801409486384
   0
LINE
   5
285
 100
AcDbEntity
   8
LEVEL001
 370
13
 100
AcDbLine
   6
CONTINUOUS
  62
7
  10
 3191.7889206877
  20
 4040.5149840594
  30
0.0
  11
 3193.5911915424
  21
 4036.0093069227
  31
0.0
   0
ARC
   5
286
 100
AcDbEntity
   8
LEVEL001
 370
13
   6
CONTINUOUS
  62
7
 100
AcDbCircle
  10
 3196.4313041421
  20
 4042.3719374412
  30
0.0
  40
 5.0000000000000
 100
AcDbArc
  50
 158.19859051366
  51
 201.80140948634
   0
LWPOLYLINE
   5
287
 100
AcDbEntity
   8
LEVEL001
 370
13
   6
CONTINUOUS
  62
7
 100
AcDbPolyline
  90
3
  70
0
  10
 3193.0203313971
  20
 4050.0000000000
  10
 3193.9488080880
  20
 4049.6286093236
  10
 3191.7889206877
  20
 4044.2288908230
   0
LINE
   5
288
 100
AcDbEntity
   8
LEVEL001
 370
13
 100
AcDbLine
   6
CONTINUOUS
  62
7
  10
 3189.9488080880
  20
 4041.3582797094
  30
0.0
  11
 3189.9488080880
  21
 3658.6417202890
  31
0.0
   0
LINE
   5
289
 100
AcDbEntity
   8
LEVEL001
 370
13
 100
AcDbLine
   6
CONTINUOUS
  62
7
  10
 3193.9488080880
  20
 4034.1523535409
  30
0.0
  11
 3193.9488080880
  21
 3665.8476464575
  31
0.0
   0
LINE
   5
28A
 100
AcDbEntity
   8
LEVEL001
 370
13
 100
AcDbLine
   6
CONTINUOUS
  62
6
  10
 3196.9488080880
  20
 3885.0000607573
  30
0.0
  11
 3196.9488080880
  21
 3885.9999997183
  31
0.0
   0
LINE
   5
28B
 100
AcDbEntity
   8
LEVEL001
 370
13
 100
AcDbLine
   6
CONTINUOUS
  62
7
  10
 3196.9488080880
  20
 3885.9999997183
  30
0.0
  11
 3193.9488080880
  21
 3885.9999997183
  31
0.0
   0
LINE
   5
28C
 100
AcDbEntity
   8
LEVEL001
 370
13
 100
AcDbLine
   6
CONTINUOUS
  62
6
  10
 3193.9488080880
  20
 3885.0000607573
  30
0.0
  11
 3196.9488080880
  21
 3885.0000607573
  31
0.0
   0
LINE
   5
28D
 100
AcDbEntity
   8
LEVEL001
 370
13
 100
AcDbLine
   6
CONTINUOUS
  62
7
  10
 3197.4042868670
  20
 3870.9996335659
  30
0.0
  11
 3197.4047446310
  21
 3828.9997252825
  31
0.0
   0
ELLIPSE
   5
28E
 100
AcDbEntity
   8
LEVEL001
 370
13
   6
CONTINUOUS
  62
7
 100
AcDbEllipse
  10
 3193.4042843173
  20
 3870.9997555171
  30
0.0
  11
 4.0000025516047
  21
0.0
  31
0.0
  40
 0.99999938800000
  41
-0.30487804007851E-4
  42
 1.4342414715497
   0
LWPOLYLINE
   5
28F
 100
AcDbEntity
   8
LEVEL001
 370
13
   6
CONTINUOUS
  62
6
 100
AcDbPolyline
  90
3
  70
0
  10
 3196.9488080880
  20
 3813.9999999992
  10
 3196.9488080880
  20
 3815.0000305129
  10
 3193.9488080880
  20
 3815.0000305129
   0
ELLIPSE
   5
290
 100
AcDbEntity
   8
LEVEL001
 370
13
   6
CONTINUOUS
  62
7
 100
AcDbEllipse
  10
 3193.4047420798
  20
 3828.9997864350
  30
0.0
  11
 4.0000025516047
  21
0.0
  31
0.0
  40
 0.99999938800000
  41
-1.4343569865529
  42
-0.15288126692848E-4
   0
LINE
   5
291
 100
AcDbEntity
   8
LEVEL001
 370
13
 100
AcDbLine
   6
CONTINUOUS
  62
7
  10
 3193.9488080880
  20
 3813.9999999992
  30
0.0
  11
 3196.9488080880
  21
 3813.9999999992
  31
0.0
   0
ARC
   5
292
 100
AcDbEntity
   8
LEVEL001
 370
13
   6
CONTINUOUS
  62
7
 100
AcDbCircle
  10
 3194.9488080880
  20
 3658.6417202890
  30
0.0
  40
 5.0000000000000
 100
AcDbArc
  50
 180.00000000002
  51
 201.80140948636
   0
LINE
   5
293
 100
AcDbEntity
   8
LEVEL001
 370
13
 100
AcDbLine
   6
CONTINUOUS
  62
7
  10
 3193.0203313971
  20
 3649.9999999984
  30
0.0
  11
 3190.3064246335
  21
 3656.7847669072
  31
0.0
   0
ARC
   5
294
 100
AcDbEntity
   8
LEVEL001
 370
13
   6
CONTINUOUS
  62
7
 100
AcDbCircle
  10
 3188.9488080880
  20
 3665.8476464575
  30
0.0
  40
 5.0000000000000
 100
AcDbArc
  50
 338.19859051362
  51
 359.99999999996
   0
LINE
   5
295
 100
AcDbEntity
   8
LEVEL001
 370
13
 100
AcDbLine
   6
CONTINUOUS
  62
7
  10
 3191.7889206877
  20
 3659.4850159390
  30
0.0
  11
 3193.5911915424
  21
 3663.9906930757
  31
0.0
   0
ARC
   5
296
 100
AcDbEntity
   8
LEVEL001
 370
13
   6
CONTINUOUS
  62
7
 100
AcDbCircle
  10
 3196.4313041421
  20
 3657.6280625572
  30
0.0
  40
 5.0000000000000
 100
AcDbArc
  50
 158.19859051366
  51
 201.80140948635
   0
LWPOLYLINE
   5
297
 100
AcDbEntity
   8
LEVEL001
 370
13
   6
CONTINUOUS
  62
7
 100
AcDbPolyline
  90
3
  70
0
  10
 3193.0203313971
  20
 3649.9999999984
  10
 3193.9488080880
  20
 3650.3713906747
  10
 3191.7889206877
  20
 3655.7711091754
   0
LEADER
   5
298
 100
AcDbEntity
   8
LEVEL001
 370
13
   6
CONTINUOUS
  62
1
 100
AcDbLeader
   3
GMM001
  73
3
  74
1
  75
0
  40
 66.000000000000
  41
0.0
  76
2
  10
 3314.9488080880
  20
 3831.4999999992
  30
0.0
  10
 3447.7104742883
  20
 3754.8500162803
  30
0.0
  77
1
   0
LWPOLYLINE
   5
299
 100
AcDbEntity
   8
LEVEL001
 370
13
   6
CONTINUOUS
  62
7
 100
AcDbPolyline
  90
4
  70
0
  10
 3294.5500000000
  20
 3831.4999999992
  10
 3294.5500000000
  20
 550.00000000000
  10
 3205.4500000000
  20
 550.00000000000
  10
 3205.4500000000
  20
 3831.4999999992
   0
LINE
   5
29A
 100
AcDbEntity
   8
LEVEL001
 370
13
 100
AcDbLine
   6
CONTINUOUS
  62
7
  10
 3205.4500000000
  20
 4420.0000000000
  30
0.0
  11
 3205.4500000000
  21
 3868.4999999992
  31
0.0
   0
LINE
   5
29B
 100
AcDbEntity
   8
LEVEL001
 370
13
 100
AcDbLine
   6
CONTINUOUS
  62
7
  10
 3294.5500000000
  20
 3868.4999999992
  30
0.0
  11
 3294.5500000000
  21
 4420.0000000000
  31
0.0
   0
CIRCLE
   5
29C
 100
AcDbEntity
   8
LEVEL001
 370
13
 100
AcDbCircle
   6
CONTINUOUS
  62
1
  10
 3508.3322525532
  20
 3717.6620723165
  30
0.0
  40
 70.000000000000
   0
CIRCLE
   5
29D
 100
AcDbEntity
   8
LEVEL001
 370
13
 100
AcDbCircle
   6
CONTINUOUS
  62
1
  10
 3648.3322525532
  20
 3717.6620723165
  30
0.0
  40
 70.000000000000
   0
MTEXT
   5
29F
 100
AcDbEntity
   8
LEVEL001
 370
13
  62
7
 100
AcDbMText
  10
 3648.3322525532
  20
 3717.6620723165
  30
0.0
  40
 66.000000000000
  41
0.0
  71
5
  72
1
   1
\T1.000000;１７
   7
GMM001
  44
 0.79999984000003
   0
MTEXT
   5
2A1
 100
AcDbEntity
   8
LEVEL001
 370
13
  62
7
 100
AcDbMText
  10
 3508.3322525532
  20
 3717.6620723165
  30
0.0
  40
 66.000000000000
  41
0.0
  71
5
  72
1
   1
\T1.000000;１６
   7
GMM001
  44
 0.79999984000003
   0
MTEXT
   5
2A3
 100
AcDbEntity
   8
LEVEL001
 370
13
  62
1
 100
AcDbMText
  10
 1500.0000000000
  20
 5500.0000000000
  30
0.0
  40
 80.000000000000
  41
0.0
  71
5
  72
1
   1
\T1.000000;正　面　図
   7
GMM003
  44
 0.79999984000003
   0
MTEXT
   5
2A5
 100
AcDbEntity
   8
LEVEL001
 370
13
  62
1
 100
AcDbMText
  10
 3250.0000000000
  20
 5500.0000000000
  30
0.0
  40
 80.000000000000
  41
0.0
  71
5
  72
1
   1
\T1.000000;側　面　図
   7
GMM003
  44
 0.79999984000003
   0
MTEXT
   5
2A7
 100
AcDbEntity
   8
LEVEL001
 370
13
  62
1
 100
AcDbMText
  10
 4500.0000000000
  20
 5500.0000000000
  30
0.0
  40
 80.000000000000
  41
0.0
  71
5
  72
1
   1
\T1.000000;背　面　図
   7
GMM003
  44
 0.79999984000003
   0
DIMENSION
   5
2A8
 100
AcDbEntity
   8
LEVEL001
 370
13
   6
CONTINUOUS
  62
6
 100
AcDbDimension
   2
*D12
  10
 1750.0000000000
  20
 250.00000000000
  30
0.0
  11
 1500.0000000000
  21
 250.00000000000
  31
0.0
  70
0
   3
GMM002
 100
AcDbAlignedDimension
  13
 1250.0000000000
  23
 450.00000000000
  33
0.0
  14
 1750.0000000000
  24
 450.00000000000
  34
0.0
 100
AcDbRotatedDimension
   0
DIMENSION
   5
2A9
 100
AcDbEntity
   8
LEVEL001
 370
13
   6
CONTINUOUS
  62
6
 100
AcDbDimension
   2
*D13
  10
 3500.0000000000
  20
 250.00000000000
  30
0.0
  11
 3250.0000000000
  21
 250.00000000000
  31
0.0
  70
0
   3
GMM002
 100
AcDbAlignedDimension
  13
 3000.0000000000
  23
 450.00000000000
  33
0.0
  14
 3500.0000000000
  24
 450.00000000000
  34
0.0
 100
AcDbRotatedDimension
   0
DIMENSION
   5
2AA
 100
AcDbEntity
   8
LEVEL001
 370
13
   6
CONTINUOUS
  62
6
 100
AcDbDimension
   2
*D14
  10
 750.00000000000
  20
 550.00000000000
  30
0.0
  11
 750.00000000000
  21
 500.00000000000
  31
0.0
  70
0
   3
GMM003
 100
AcDbAlignedDimension
  13
 1250.0000000000
  23
 450.00000000000
  33
0.0
  14
 1250.0000000000
  24
 550.00000000000
  34
0.0
  50
 90.000000000000
 100
AcDbRotatedDimension
   0
DIMENSION
   5
2AB
 100
AcDbEntity
   8
LEVEL001
 370
13
   6
CONTINUOUS
  62
6
 100
AcDbDimension
   2
*D15
  10
 750.00000000000
  20
 1750.0000000000
  30
0.0
  11
 750.00000000000
  21
 1150.0000000000
  31
0.0
  70
0
   3
GMM003
 100
AcDbAlignedDimension
  13
 1250.0000000000
  23
 550.00000000000
  33
0.0
  14
 950.00006523496
  24
 1750.0000000000
  34
0.0
  50
 90.000000000000
 100
AcDbRotatedDimension
   0
DIMENSION
   5
2AC
 100
AcDbEntity
   8
LEVEL001
 370
13
   6
CONTINUOUS
  62
6
 100
AcDbDimension
   2
*D16
  10
 750.00000000000
  20
 4250.0000000000
  30
0.0
  11
 750.00000000000
  21
 3000.0000000000
  31
0.0
  70
0
   1
\A1;2500(標準設置高さ)
   3
GMM004
 100
AcDbAlignedDimension
  13
 950.00006523496
  23
 1750.0000000000
  33
0.0
  14
 750.00000000000
  24
 4250.0000000000
  34
0.0
  50
 90.000000000000
 100
AcDbRotatedDimension
   0
CIRCLE
   5
2AD
 100
AcDbEntity
   8
LEVEL001
 370
13
 100
AcDbCircle
   6
CONTINUOUS
  62
1
  10
 3375.0000000000
  20
 4875.0000000000
  30
0.0
  40
 69.999997913838
   0
CIRCLE
   5
2AE
 100
AcDbEntity
   8
LEVEL001
 370
13
 100
AcDbCircle
   6
CONTINUOUS
  62
1
  10
 3514.9999958277
  20
 4875.0000000000
  30
0.0
  40
 69.999997913838
   0
MTEXT
   5
2B0
 100
AcDbEntity
   8
LEVEL001
 370
13
  62
7
 100
AcDbMText
  10
 3375.0000000000
  20
 4875.0000000000
  30
0.0
  40
 66.000000000000
  41
0.0
  71
5
  72
1
   1
\T1.000000;７
   7
GMM001
  44
 0.79999984000003
   0
MTEXT
   5
2B2
 100
AcDbEntity
   8
LEVEL001
 370
13
  62
7
 100
AcDbMText
  10
 3514.9999958277
  20
 4875.0000000000
  30
0.0
  40
 66.000000000000
  41
0.0
  71
5
  72
1
   1
\T1.000000;９
   7
GMM001
  44
 0.79999984000003
   0
CIRCLE
   5
2B3
 100
AcDbEntity
   8
LEVEL001
 370
13
 100
AcDbCircle
   6
CONTINUOUS
  62
1
  10
 3000.0000000000
  20
 5125.0000000000
  30
0.0
  40
 69.999997913838
   0
CIRCLE
   5
2B4
 100
AcDbEntity
   8
LEVEL001
 370
13
 100
AcDbCircle
   6
CONTINUOUS
  62
1
  10
 3139.9999958277
  20
 5125.0000000000
  30
0.0
  40
 69.999997913838
   0
MTEXT
   5
2B6
 100
AcDbEntity
   8
LEVEL001
 370
13
  62
7
 100
AcDbMText
  10
 3000.0000000000
  20
 5125.0000000000
  30
0.0
  40
 66.000000000000
  41
0.0
  71
5
  72
1
   1
\T1.000000;６
   7
GMM001
  44
 0.79999984000003
   0
MTEXT
   5
2B8
 100
AcDbEntity
   8
LEVEL001
 370
13
  62
7
 100
AcDbMText
  10
 3139.9999958277
  20
 5125.0000000000
  30
0.0
  40
 66.000000000000
  41
0.0
  71
5
  72
1
   1
\T1.000000;８
   7
GMM001
  44
 0.79999984000003
   0
LEADER
   5
2B9
 100
AcDbEntity
   8
LEVEL001
 370
13
   6
CONTINUOUS
  62
1
 100
AcDbLeader
   3
GMM005
  73
3
  74
1
  75
0
  40
 66.000000000000
  41
0.0
  76
2
  10
 2992.9958379485
  20
 4605.0000000000
  30
0.0
  10
 3318.5438387704
  20
 4833.6152012551
  30
0.0
  77
1
   0
LEADER
   5
2BA
 100
AcDbEntity
   8
LEVEL001
 370
13
   6
CONTINUOUS
  62
1
 100
AcDbLeader
   3
GMM001
  73
3
  74
1
  75
0
  40
 66.000000000000
  41
0.0
  76
2
  10
 2812.5000000000
  20
 4605.0000000000
  30
0.0
  10
 2976.9865993428
  20
 5058.8911269334
  30
0.0
  77
1
   0
LINE
   5
2BB
 100
AcDbEntity
   8
LEVEL001
 370
13
 100
AcDbLine
   6
CONTINUOUS
  62
5
  10
 3500.0000000000
  20
 1435.3553390594
  30
0.0
  11
 3294.5500000000
  21
 1229.9053390594
  31
0.0
   0
LINE
   5
2BC
 100
AcDbEntity
   8
LEVEL001
 370
13
 100
AcDbLine
   6
CONTINUOUS
  62
5
  10
 3294.5500000000
  20
 1194.5500000000
  30
0.0
  11
 3500.0000000000
  21
 1400.0000000000
  31
0.0
   0
LINE
   5
2BD
 100
AcDbEntity
   8
LEVEL001
 370
13
 100
AcDbLine
   6
CONTINUOUS
  62
5
  10
 3500.0000000000
  20
 1364.6446609407
  30
0.0
  11
 3294.5500000000
  21
 1159.1946609407
  31
0.0
   0
LINE
   5
2BE
 100
AcDbEntity
   8
LEVEL001
 370
13
 100
AcDbLine
   6
CONTINUOUS
  62
5
  10
 3205.4500000000
  20
 1140.8053390594
  30
0.0
  11
 3000.0000000000
  21
 935.35533905937
  31
0.0
   0
LINE
   5
2BF
 100
AcDbEntity
   8
LEVEL001
 370
13
 100
AcDbLine
   6
CONTINUOUS
  62
5
  10
 3000.0000000000
  20
 900.00000000004
  30
0.0
  11
 3205.4500000000
  21
 1105.4500000000
  31
0.0
   0
LINE
   5
2C0
 100
AcDbEntity
   8
LEVEL001
 370
13
 100
AcDbLine
   6
CONTINUOUS
  62
5
  10
 3205.4500000000
  20
 1070.0946609407
  30
0.0
  11
 3000.0000000000
  21
 864.64466094071
  31
0.0
   0
LINE
   5
2C1
 100
AcDbEntity
   8
LEVEL001
 370
13
 100
AcDbLine
   6
CONTINUOUS
  62
5
  10
 1750.0000000000
  20
 1435.3553390594
  30
0.0
  11
 1544.5500000000
  21
 1229.9053390594
  31
0.0
   0
LINE
   5
2C2
 100
AcDbEntity
   8
LEVEL001
 370
13
 100
AcDbLine
   6
CONTINUOUS
  62
5
  10
 1544.5500000000
  20
 1194.5500000000
  30
0.0
  11
 1750.0000000000
  21
 1400.0000000000
  31
0.0
   0
LINE
   5
2C3
 100
AcDbEntity
   8
LEVEL001
 370
13
 100
AcDbLine
   6
CONTINUOUS
  62
5
  10
 1750.0000000000
  20
 1364.6446609407
  30
0.0
  11
 1544.5500000000
  21
 1159.1946609407
  31
0.0
   0
LINE
   5
2C4
 100
AcDbEntity
   8
LEVEL001
 370
13
 100
AcDbLine
   6
CONTINUOUS
  62
5
  10
 1455.4500000000
  20
 1140.8053390594
  30
0.0
  11
 1250.0000000000
  21
 935.35533905937
  31
0.0
   0
LINE
   5
2C5
 100
AcDbEntity
   8
LEVEL001
 370
13
 100
AcDbLine
   6
CONTINUOUS
  62
5
  10
 1250.0000000000
  20
 900.00000000004
  30
0.0
  11
 1455.4500000000
  21
 1105.4500000000
  31
0.0
   0
LINE
   5
2C6
 100
AcDbEntity
   8
LEVEL001
 370
13
 100
AcDbLine
   6
CONTINUOUS
  62
5
  10
 1455.4500000000
  20
 1070.0946609407
  30
0.0
  11
 1250.0000000000
  21
 864.64466094071
  31
0.0
   0
DIMENSION
   5
2C7
 100
AcDbEntity
   8
LEVEL001
 370
13
   6
CONTINUOUS
  62
6
 100
AcDbDimension
   2
*D19
  10
 1312.5000000000
  20
 4850.0000000000
  30
0.0
  11
 1312.5000000000
  21
 4687.5000000000
  31
0.0
  70
128
   3
GMM006
 100
AcDbAlignedDimension
  13
 1312.5000000000
  23
 4250.0000000000
  33
0.0
  14
 1312.5000000000
  24
 4850.0000000000
  34
0.0
  50
 90.000000000000
 100
AcDbRotatedDimension
   0
DIMENSION
   5
2C8
 100
AcDbEntity
   8
LEVEL001
 370
13
   6
CONTINUOUS
  62
6
 100
AcDbDimension
   2
*D20
  10
 1425.0000000000
  20
 4375.0000000000
  30
0.0
  11
 875.00000000000
  21
 4375.0000000000
  31
0.0
  70
128
   3
GMM006
 100
AcDbAlignedDimension
  13
 625.00000000000
  23
 4375.0000000000
  33
0.0
  14
 1425.0000000000
  24
 4375.0000000000
  34
0.0
 100
AcDbRotatedDimension
   0
LINE
   5
2C9
 100
AcDbEntity
   8
LEVEL001
 370
13
 100
AcDbLine
   6
CONTINUOUS
  62
6
  10
 1542.5647253449
  20
 4634.9999584717
  30
0.0
  11
 1542.5647253449
  21
 4534.9999584717
  31
0.0
   0
LINE
   5
2CA
 100
AcDbEntity
   8
LEVEL001
 370
13
 100
AcDbLine
   6
CONTINUOUS
  62
6
  10
 1457.4352746551
  20
 4524.9999584717
  30
0.0
  11
 1457.4352746551
  21
 4424.9999584717
  31
0.0
   0
LINE
   5
2CB
 100
AcDbEntity
   8
LEVEL001
 370
13
 100
AcDbLine
   6
CONTINUOUS
  62
6
  10
 3292.5647253449
  20
 4634.9999584717
  30
0.0
  11
 3292.5647253449
  21
 4535.0000000000
  31
0.0
   0
LINE
   5
2CC
 100
AcDbEntity
   8
LEVEL001
 370
13
 100
AcDbLine
   6
CONTINUOUS
  62
6
  10
 3207.4352746551
  20
 4524.9999584717
  30
0.0
  11
 3207.4352746551
  21
 4425.0000000000
  31
0.0
   0
LWPOLYLINE
   5
2CD
 100
AcDbEntity
   8
LEVEL001
 370
13
   6
CONTINUOUS
  62
7
 100
AcDbPolyline
  90
4
  70
0
  10
 1437.5000000000
  20
 4665.0000000000
  10
 1437.5000000000
  20
 4880.0000067229
  10
 612.50000000000
  20
 4880.0000067229
  10
 612.50000000000
  20
 4665.0000000000
   0
LWPOLYLINE
   5
2CE
 100
AcDbEntity
   8
LEVEL001
 370
13
   6
CONTINUOUS
  62
7
 100
AcDbPolyline
  90
4
  70
0
  10
 1562.5000000000
  20
 4665.0000000000
  10
 1562.5000000000
  20
 4880.0000067229
  10
 2387.5000000000
  20
 4880.0000067229
  10
 2387.5000000000
  20
 4665.0000000000
   0
LINE
   5
2CF
 100
AcDbEntity
   8
LEVEL001
 370
13
 100
AcDbLine
   6
DASHDOT
  62
6
  10
 1025.0000000000
  20
 4930.0000067229
  30
0.0
  11
 1025.0000000000
  21
 4200.0000000000
  31
0.0
   0
LINE
   5
2D0
 100
AcDbEntity
   8
LEVEL001
 370
13
 100
AcDbLine
   6
DASHDOT
  62
6
  10
 1975.0000000000
  20
 4930.0000067229
  30
0.0
  11
 1975.0000000000
  21
 4200.0000000000
  31
0.0
   0
LWPOLYLINE
   5
2D1
 100
AcDbEntity
   8
LEVEL001
 370
13
   6
CONTINUOUS
  62
7
 100
AcDbPolyline
  90
4
  70
0
  10
 4912.5000000000
  20
 4664.9999932771
  10
 4912.5000000000
  20
 4880.0000000000
  10
 4087.5000000000
  20
 4880.0000000000
  10
 4087.5000000000
  20
 4664.9999932771
   0
LINE
   5
2D2
 100
AcDbEntity
   8
LEVEL001
 370
13
 100
AcDbLine
   6
DASHDOT
  62
6
  10
 4500.0000000000
  20
 4930.0000067229
  30
0.0
  11
 4500.0000000000
  21
 4200.0000000000
  31
0.0
   0
LWPOLYLINE
   5
2D3
 100
AcDbEntity
   8
LEVEL001
 370
13
   6
CONTINUOUS
  62
7
 100
AcDbPolyline
  90
6
  70
0
  10
 3825.1885446839
  20
 4880.0000067229
  10
 3825.1885446839
  20
 4860.0000000000
  10
 3783.3461499181
  20
 4665.0000000000
  10
 3755.1885446839
  20
 4665.0000000000
  10
 3755.1885446839
  20
 4860.0000000000
  10
 3825.1885446839
  20
 4860.0000000000
   0
LWPOLYLINE
   5
2D4
 100
AcDbEntity
   8
LEVEL001
 370
13
   6
CONTINUOUS
  62
7
 100
AcDbPolyline
  90
6
  70
0
  10
 2674.8114553161
  20
 4880.0000067229
  10
 2674.8114553161
  20
 4860.0000000000
  10
 2716.6538500819
  20
 4665.0000000000
  10
 2744.8114553161
  20
 4665.0000000000
  10
 2744.8114553161
  20
 4860.0000000000
  10
 2674.8114553161
  20
 4860.0000000000
   0
LEADER
   5
2D5
 100
AcDbEntity
   8
LEVEL001
 370
13
   6
CONTINUOUS
  62
1
 100
AcDbLeader
   3
GMM007
  73
3
  74
1
  75
0
  40
 66.000000000000
  41
0.0
  76
2
  10
 2250.0000000000
  20
 4880.0000067229
  30
0.0
  10
 2437.2998752797
  20
 4968.8761495313
  30
0.0
  77
1
   0
LEADER
   5
2D6
 100
AcDbEntity
   8
LEVEL001
 370
13
   6
CONTINUOUS
  62
1
 100
AcDbLeader
   3
GMM001
  73
3
  74
1
  75
0
  40
 66.000000000000
  41
0.0
  76
2
  10
 2674.8114553161
  20
 4880.0000067229
  30
0.0
  10
 2558.2477897562
  20
 4961.1773945175
  30
0.0
  77
1
   0
ARC
   5
2D7
 100
AcDbEntity
   8
LEVEL001
 370
13
   6
HIDDEN
  62
2
 100
AcDbCircle
  10
 6304.8114553161
  20
 4550.0000000000
  30
0.0
  40
 3600.0000000000
 100
AcDbArc
  50
 175.21980815280
  51
 177.53722131226
   0
ARC
   5
2D8
 100
AcDbEntity
   8
LEVEL001
 370
13
   6
HIDDEN
  62
2
 100
AcDbCircle
  10
 195.18854468392
  20
 4550.0000000000
  30
0.0
  40
 3600.0000000000
 100
AcDbArc
  50
 2.4627786877396
  51
 4.7801918471988
   0
ARC
   5
2D9
 100
AcDbEntity
   8
LEVEL001
 370
13
   6
CONTINUOUS
  62
7
 100
AcDbCircle
  10
 195.18854468392
  20
 4550.0000000000
  30
0.0
  40
 3600.0000000000
 100
AcDbArc
  50
 355.21980815280
  51
 2.4627786877400
   0
ARC
   5
2DA
 100
AcDbEntity
   8
LEVEL001
 370
13
   6
CONTINUOUS
  62
7
 100
AcDbCircle
  10
 6304.8114553161
  20
 4550.0000000000
  30
0.0
  40
 3600.0000000000
 100
AcDbArc
  50
 177.53722131226
  51
 184.78019184720
   0
MTEXT
   5
2DB
 100
AcDbEntity
   8
LEVEL001
 370
13
  62
1
 100
AcDbMText
  10
 1448.8125000002
  20
 3803.2500000000
  30
0.0
  40
 80.000000000000
  41
0.0
  71
4
  72
1
   1
{\T1.000000;注}\P{\T1.000000;意}
   7
GMM004
  44
 0.79999984000003
   0
LEADER
   5
2DC
 100
AcDbEntity
   8
LEVEL001
 370
13
   6
CONTINUOUS
  62
6
 100
AcDbLeader
   3
GMM008
  73
0
  74
0
  75
0
  40
 66.000000000000
  41
 676.00000000000
  76
2
  10
 2260.5123674912
  20
 4350.1923831959
  30
0.0
  10
 2412.4871434629
  20
 4042.6730321555
  30
0.0
  77
6
 340
2DD
 213
0.0
 223
-28.285714285714
 233
0.0
   0
MTEXT
   5
2DD
 102
{ACAD_REACTORS
 330
2DC
 102
}
 100
AcDbEntity
   8
LEVEL001
 370
13
  62
1
 100
AcDbMText
  10
 2412.4871434629
  20
 4070.9587464412
  30
0.0
  40
 66.000000000000
  41
0.0
  71
7
  72
1
   1
\A1;表面：超親水性コーティング
   7
GMM001
   0
LINE
   5
2DE
 100
AcDbEntity
   8
LEVEL001
 370
13
 100
AcDbLine
   6
CONTINUOUS
  62
6
  10
 8149.1103549670
  20
 811.70925552326
  30
0.0
  11
 8149.1103549670
  21
 3591.7092555233
  31
0.0
   0
LWPOLYLINE
   5
2DF
 100
AcDbEntity
   8
LEVEL001
 370
13
   6
CONTINUOUS
  62
7
 100
AcDbPolyline
  90
4
  70
1
  10
 362.44348484976
  20
 111.70925552326
  10
 362.44348484976
  20
 5711.7092555233
  10
 8149.1103549670
  20
 5711.7092555233
  10
 8149.1103549670
  20
 111.70925552326
   0
LINE
   5
2E0
 100
AcDbEntity
   8
LEVEL001
 370
13
 100
AcDbLine
   6
CONTINUOUS
  62
6
  10
 5633.3525757589
  20
 811.70925552326
  30
0.0
  11
 8149.1103549669
  21
 811.70925552326
  31
0.0
   0
MTEXT
   5
2E2
 100
AcDbEntity
   8
LEVEL001
 370
13
  62
1
 100
AcDbMText
  10
 5804.3315495129
  20
 1355.2828632192
  30
0.0
  40
 80.000000000000
  41
0.0
  71
9
  72
1
   1
\T1.000000;１３
   7
GMM005
  44
 0.79999984000003
   0
LINE
   5
2E3
 100
AcDbEntity
   8
LEVEL001
 370
13
 100
AcDbLine
   6
CONTINUOUS
  62
6
  10
 5633.3525757589
  20
 1071.7092555233
  30
0.0
  11
 8149.1103549669
  21
 1071.7092555233
  31
0.0
   0
LINE
   5
2E4
 100
AcDbEntity
   8
LEVEL001
 370
13
 100
AcDbLine
   6
CONTINUOUS
  62
6
  10
 5633.3525757589
  20
 1201.7092555233
  30
0.0
  11
 8149.1103549669
  21
 1201.7092555233
  31
0.0
   0
LINE
   5
2E5
 100
AcDbEntity
   8
LEVEL001
 370
13
 100
AcDbLine
   6
CONTINUOUS
  62
6
  10
 5633.3525757589
  20
 1331.7092555233
  30
0.0
  11
 8149.1103549669
  21
 1331.7092555233
  31
0.0
   0
LINE
   5
2E6
 100
AcDbEntity
   8
LEVEL001
 370
13
 100
AcDbLine
   6
CONTINUOUS
  62
6
  10
 5633.3525757589
  20
 1461.7092555233
  30
0.0
  11
 8149.1103549669
  21
 1461.7092555233
  31
0.0
   0
MTEXT
   5
2E8
 100
AcDbEntity
   8
LEVEL001
 370
13
  62
1
 100
AcDbMText
  10
 5804.3315495129
  20
 1225.2828632192
  30
0.0
  40
 80.000000000000
  41
0.0
  71
9
  72
1
   1
\T1.000000;１４
   7
GMM005
  44
 0.79999984000003
   0
MTEXT
   5
2EA
 100
AcDbEntity
   8
LEVEL001
 370
13
  62
1
 100
AcDbMText
  10
 5804.3315495129
  20
 1095.2828632192
  30
0.0
  40
 80.000000000000
  41
0.0
  71
9
  72
1
   1
\T1.000000;１５
   7
GMM005
  44
 0.79999984000003
   0
LINE
   5
2EB
 100
AcDbEntity
   8
LEVEL001
 370
13
 100
AcDbLine
   6
CONTINUOUS
  62
6
  10
 5633.3525757589
  20
 941.70925552326
  30
0.0
  11
 8149.1103549669
  21
 941.70925552326
  31
0.0
   0
MTEXT
   5
2ED
 100
AcDbEntity
   8
LEVEL001
 370
13
  62
1
 100
AcDbMText
  10
 5883.3525757589
  20
 835.28286321915
  30
0.0
  40
 80.000000000000
  41
0.0
  71
7
  72
1
   1
\T1.000000;同上ボルトナット
   7
GMM006
  44
 0.79999984000003
   0
MTEXT
   5
2EF
 100
AcDbEntity
   8
LEVEL001
 370
13
  62
1
 100
AcDbMText
  10
 5883.3525757589
  20
 965.28286321915
  30
0.0
  40
 80.000000000000
  41
0.0
  71
7
  72
1
   1
\T1.000000;注意板取付バンド
   7
GMM006
  44
 0.79999984000003
   0
MTEXT
   5
2F1
 100
AcDbEntity
   8
LEVEL001
 370
13
  62
1
 100
AcDbMText
  10
 6854.3315495129
  20
 1095.2828632192
  30
0.0
  40
 80.000000000000
  41
0.0
  71
9
  72
1
   1
\T1.000000;１
   7
GMM006
  44
 0.79999984000003
   0
MTEXT
   5
2F3
 100
AcDbEntity
   8
LEVEL001
 370
13
  62
1
 100
AcDbMText
  10
 5883.3525757589
  20
 1225.2828632192
  30
0.0
  40
 80.000000000000
  41
0.0
  71
7
  72
1
   1
\T1.000000;キャップ
   7
GMM006
  44
 0.79999984000003
   0
MTEXT
   5
2F5
 100
AcDbEntity
   8
LEVEL001
 370
13
  62
1
 100
AcDbMText
  10
 6854.3315495129
  20
 1225.2828632192
  30
0.0
  40
 80.000000000000
  41
0.0
  71
9
  72
1
   1
\T1.000000;１
   7
GMM006
  44
 0.79999984000003
   0
MTEXT
   5
2F7
 100
AcDbEntity
   8
LEVEL001
 370
13
  62
1
 100
AcDbMText
  10
 6933.3525757589
  20
 1225.2828632192
  30
0.0
  40
 80.000000000000
  41
0.0
  71
7
  72
1
   1
\T1.000000;ＰＥ
   7
GMM006
  44
 0.79999984000003
   0
MTEXT
   5
2F9
 100
AcDbEntity
   8
LEVEL001
 370
13
  62
1
 100
AcDbMText
  10
 5883.3525757589
  20
 1355.2828632192
  30
0.0
  40
 80.000000000000
  41
0.0
  71
7
  72
1
   1
\T1.000000;根入れ鉄筋
   7
GMM006
  44
 0.79999984000003
   0
MTEXT
   5
2FB
 100
AcDbEntity
   8
LEVEL001
 370
13
  62
1
 100
AcDbMText
  10
 6854.3315495129
  20
 1355.2828632192
  30
0.0
  40
 80.000000000000
  41
0.0
  71
9
  72
1
   1
\T1.000000;２
   7
GMM006
  44
 0.79999984000003
   0
MTEXT
   5
2FD
 100
AcDbEntity
   8
LEVEL001
 370
13
  62
1
 100
AcDbMText
  10
 5804.3315495129
  20
 965.28286321915
  30
0.0
  40
 80.000000000000
  41
0.0
  71
9
  72
1
   1
\T1.000000;１６
   7
GMM005
  44
 0.79999984000003
   0
MTEXT
   5
2FF
 100
AcDbEntity
   8
LEVEL001
 370
13
  62
1
 100
AcDbMText
  10
 5804.3315495129
  20
 835.28286321915
  30
0.0
  40
 80.000000000000
  41
0.0
  71
9
  72
1
   1
\T1.000000;１７
   7
GMM005
  44
 0.79999984000003
   0
MTEXT
   5
301
 100
AcDbEntity
   8
LEVEL001
 370
13
  62
1
 100
AcDbMText
  10
 6933.3525757589
  20
 1355.2828632192
  30
0.0
  40
 80.000000000000
  41
0.0
  71
7
  72
1
   1
\T1.000000;ＳＤ２９５Ａ
   7
GMM006
  44
 0.79999984000003
   0
LINE
   5
302
 100
AcDbEntity
   8
LEVEL001
 370
13
 100
AcDbLine
   6
CONTINUOUS
  62
1
  10
 5633.3525757589
  20
 591.70925552326
  30
0.0
  11
 7273.3525757589
  21
 591.70925552326
  31
0.0
   0
MTEXT
   5
303
 100
AcDbEntity
   8
LEVEL001
 370
13
  62
1
 100
AcDbMText
  10
 5656.2789826853
  20
 755.49422576136
  30
0.0
  40
 37.142860000000
  41
0.0
  71
7
  72
1
   1
\T1.269231;図面番号
   7
GMM007
  44
 0.79999984000003
   0
MTEXT
   5
305
 100
AcDbEntity
   8
LEVEL001
 370
13
  62
1
 100
AcDbMText
  10
 6445.8771429015
  20
 656.68622017212
  30
0.0
  40
 66.000000000000
  41
0.0
  71
5
  72
1
   1
\T1.000000;ＭＦ６０８Ｗ
   7
GMM001
  44
 0.79999984000003
   0
MTEXT
   5
307
 100
AcDbEntity
   8
LEVEL001
 370
13
  62
1
 100
AcDbMText
  10
 5804.3315495129
  20
 1615.2828632192
  30
0.0
  40
 80.000000000000
  41
0.0
  71
9
  72
1
   1
\T1.000000;１２
   7
GMM005
  44
 0.79999984000003
   0
MTEXT
   5
309
 100
AcDbEntity
   8
LEVEL001
 370
13
  62
1
 100
AcDbMText
  10
 5804.3315495129
  20
 1745.2828632192
  30
0.0
  40
 80.000000000000
  41
0.0
  71
9
  72
1
   1
\T1.000000;１１
   7
GMM005
  44
 0.79999984000003
   0
MTEXT
   5
30B
 100
AcDbEntity
   8
LEVEL001
 370
13
  62
1
 100
AcDbMText
  10
 5804.3315495129
  20
 1875.2828632192
  30
0.0
  40
 80.000000000000
  41
0.0
  71
9
  72
1
   1
\T1.000000;１０
   7
GMM005
  44
 0.79999984000003
   0
MTEXT
   5
30D
 100
AcDbEntity
   8
LEVEL001
 370
13
  62
1
 100
AcDbMText
  10
 5804.3315495129
  20
 2005.2828632192
  30
0.0
  40
 80.000000000000
  41
0.0
  71
9
  72
1
   1
\T1.000000;９
   7
GMM005
  44
 0.79999984000003
   0
MTEXT
   5
30F
 100
AcDbEntity
   8
LEVEL001
 370
13
  62
1
 100
AcDbMText
  10
 5804.3315495129
  20
 2135.2828632192
  30
0.0
  40
 80.000000000000
  41
0.0
  71
9
  72
1
   1
\T1.000000;８
   7
GMM005
  44
 0.79999984000003
   0
MTEXT
   5
311
 100
AcDbEntity
   8
LEVEL001
 370
13
  62
1
 100
AcDbMText
  10
 5804.3315495129
  20
 2265.2828632192
  30
0.0
  40
 80.000000000000
  41
0.0
  71
9
  72
1
   1
\T1.000000;７
   7
GMM005
  44
 0.79999984000003
   0
MTEXT
   5
313
 100
AcDbEntity
   8
LEVEL001
 370
13
  62
1
 100
AcDbMText
  10
 5804.3315495129
  20
 2395.2828632192
  30
0.0
  40
 80.000000000000
  41
0.0
  71
9
  72
1
   1
\T1.000000;６
   7
GMM005
  44
 0.79999984000003
   0
MTEXT
   5
315
 100
AcDbEntity
   8
LEVEL001
 370
13
  62
1
 100
AcDbMText
  10
 5804.3315495129
  20
 2525.2828632192
  30
0.0
  40
 80.000000000000
  41
0.0
  71
9
  72
1
   1
\T1.000000;５
   7
GMM005
  44
 0.79999984000003
   0
MTEXT
   5
317
 100
AcDbEntity
   8
LEVEL001
 370
13
  62
1
 100
AcDbMText
  10
 5804.3315495129
  20
 2655.2828632192
  30
0.0
  40
 80.000000000000
  41
0.0
  71
9
  72
1
   1
\T1.000000;４
   7
GMM005
  44
 0.79999984000003
   0
MTEXT
   5
319
 100
AcDbEntity
   8
LEVEL001
 370
13
  62
1
 100
AcDbMText
  10
 5804.3315495129
  20
 2785.2828632192
  30
0.0
  40
 80.000000000000
  41
0.0
  71
9
  72
1
   1
\T1.000000;３
   7
GMM005
  44
 0.79999984000003
   0
MTEXT
   5
31B
 100
AcDbEntity
   8
LEVEL001
 370
13
  62
1
 100
AcDbMText
  10
 5883.3525757589
  20
 2785.2828632192
  30
0.0
  40
 80.000000000000
  41
0.0
  71
7
  72
1
   1
\T1.000000;フード
   7
GMM006
  44
 0.79999984000003
   0
MTEXT
   5
31D
 100
AcDbEntity
   8
LEVEL001
 370
13
  62
1
 100
AcDbMText
  10
 5804.3315495129
  20
 2915.2828632192
  30
0.0
  40
 80.000000000000
  41
0.0
  71
9
  72
1
   1
\T1.000000;２
   7
GMM005
  44
 0.79999984000003
   0
MTEXT
   5
31F
 100
AcDbEntity
   8
LEVEL001
 370
13
  62
1
 100
AcDbMText
  10
 5883.3525757589
  20
 2915.2828632192
  30
0.0
  40
 80.000000000000
  41
0.0
  71
7
  72
1
   1
\T1.000000;バックプレート
   7
GMM006
  44
 0.79999984000003
   0
LINE
   5
320
 100
AcDbEntity
   8
LEVEL001
 370
13
 100
AcDbLine
   6
CONTINUOUS
  62
6
  10
 5633.3525757589
  20
 1721.7092555233
  30
0.0
  11
 8149.1103549669
  21
 1721.7092555233
  31
0.0
   0
LINE
   5
321
 100
AcDbEntity
   8
LEVEL001
 370
13
 100
AcDbLine
   6
CONTINUOUS
  62
6
  10
 5633.3525757589
  20
 1851.7092555233
  30
0.0
  11
 8149.1103549669
  21
 1851.7092555233
  31
0.0
   0
LINE
   5
322
 100
AcDbEntity
   8
LEVEL001
 370
13
 100
AcDbLine
   6
CONTINUOUS
  62
6
  10
 5633.3525757589
  20
 1981.7092555233
  30
0.0
  11
 8149.1103549669
  21
 1981.7092555233
  31
0.0
   0
LINE
   5
323
 100
AcDbEntity
   8
LEVEL001
 370
13
 100
AcDbLine
   6
CONTINUOUS
  62
6
  10
 5633.3525757589
  20
 2111.7092555233
  30
0.0
  11
 8149.1103549669
  21
 2111.7092555233
  31
0.0
   0
LINE
   5
324
 100
AcDbEntity
   8
LEVEL001
 370
13
 100
AcDbLine
   6
CONTINUOUS
  62
6
  10
 5633.3525757589
  20
 2241.7092555233
  30
0.0
  11
 8149.1103549669
  21
 2241.7092555233
  31
0.0
   0
LINE
   5
325
 100
AcDbEntity
   8
LEVEL001
 370
13
 100
AcDbLine
   6
CONTINUOUS
  62
6
  10
 5633.3525757589
  20
 2371.7092555233
  30
0.0
  11
 8149.1103549669
  21
 2371.7092555233
  31
0.0
   0
LINE
   5
326
 100
AcDbEntity
   8
LEVEL001
 370
13
 100
AcDbLine
   6
CONTINUOUS
  62
6
  10
 5633.3525757589
  20
 2501.7092555233
  30
0.0
  11
 8149.1103549669
  21
 2501.7092555233
  31
0.0
   0
LINE
   5
327
 100
AcDbEntity
   8
LEVEL001
 370
13
 100
AcDbLine
   6
CONTINUOUS
  62
6
  10
 5633.3525757589
  20
 2631.7092555233
  30
0.0
  11
 8149.1103549669
  21
 2631.7092555233
  31
0.0
   0
LINE
   5
328
 100
AcDbEntity
   8
LEVEL001
 370
13
 100
AcDbLine
   6
CONTINUOUS
  62
6
  10
 5633.3525757589
  20
 2761.7092555233
  30
0.0
  11
 8149.1103549669
  21
 2761.7092555233
  31
0.0
   0
LINE
   5
329
 100
AcDbEntity
   8
LEVEL001
 370
13
 100
AcDbLine
   6
CONTINUOUS
  62
6
  10
 5633.3525757589
  20
 2891.7092555233
  30
0.0
  11
 8149.1103549669
  21
 2891.7092555233
  31
0.0
   0
LINE
   5
32A
 100
AcDbEntity
   8
LEVEL001
 370
13
 100
AcDbLine
   6
CONTINUOUS
  62
6
  10
 5633.3525757589
  20
 3021.7092555233
  30
0.0
  11
 8149.1103549669
  21
 3021.7092555233
  31
0.0
   0
MTEXT
   5
32C
 100
AcDbEntity
   8
LEVEL001
 370
13
  62
1
 100
AcDbMText
  10
 6854.3315495129
  20
 2915.2828632192
  30
0.0
  40
 80.000000000000
  41
0.0
  71
9
  72
1
   1
\T1.000000;２
   7
GMM006
  44
 0.79999984000003
   0
MTEXT
   5
32E
 100
AcDbEntity
   8
LEVEL001
 370
13
  62
1
 100
AcDbMText
  10
 6854.3315495129
  20
 2785.2828632192
  30
0.0
  40
 80.000000000000
  41
0.0
  71
9
  72
1
   1
\T1.000000;２
   7
GMM006
  44
 0.79999984000003
   0
MTEXT
   5
330
 100
AcDbEntity
   8
LEVEL001
 370
13
  62
1
 100
AcDbMText
  10
 6933.3525757589
  20
 2915.2828632192
  30
0.0
  40
 80.000000000000
  41
0.0
  71
7
  72
1
   1
\T1.000000;ＦＲＰ
   7
GMM006
  44
 0.79999984000003
   0
MTEXT
   5
332
 100
AcDbEntity
   8
LEVEL001
 370
13
  62
1
 100
AcDbMText
  10
 6933.3525757589
  20
 2785.2828632192
  30
0.0
  40
 80.000000000000
  41
0.0
  71
7
  72
1
   1
\T1.000000;ＰＣ
   7
GMM006
  44
 0.79999984000003
   0
MTEXT
   5
334
 100
AcDbEntity
   8
LEVEL001
 370
13
  62
1
 100
AcDbMText
  10
 6933.3525757589
  20
 2005.2828632192
  30
0.0
  40
 80.000000000000
  41
0.0
  71
7
  72
1
   1
\T1.000000;ＳＳ４００
   7
GMM006
  44
 0.79999984000003
   0
MTEXT
   5
336
 100
AcDbEntity
   8
LEVEL001
 370
13
  62
1
 100
AcDbMText
  10
 5883.3525757589
  20
 2005.2828632192
  30
0.0
  40
 80.000000000000
  41
0.0
  71
7
  72
1
   1
\T1.000000;金具締付ボルトナット
   7
GMM006
  44
 0.79999984000003
   0
MTEXT
   5
338
 100
AcDbEntity
   8
LEVEL001
 370
13
  62
1
 100
AcDbMText
  10
 6933.3525757589
  20
 2135.2828632192
  30
0.0
  40
 80.000000000000
  41
0.0
  71
7
  72
1
   1
\T1.000000;ＳＳ４００
   7
GMM006
  44
 0.79999984000003
   0
MTEXT
   5
33A
 100
AcDbEntity
   8
LEVEL001
 370
13
  62
1
 100
AcDbMText
  10
 5883.3525757589
  20
 2135.2828632192
  30
0.0
  40
 80.000000000000
  41
0.0
  71
7
  72
1
   1
\T1.000000;裏板金具取付ボルト
   7
GMM006
  44
 0.79999984000003
   0
MTEXT
   5
33C
 100
AcDbEntity
   8
LEVEL001
 370
13
  62
1
 100
AcDbMText
  10
 6933.3525757589
  20
 2265.2828632192
  30
0.0
  40
 80.000000000000
  41
0.0
  71
7
  72
1
   1
\T1.000000;ＳＳ４００
   7
GMM006
  44
 0.79999984000003
   0
MTEXT
   5
33E
 100
AcDbEntity
   8
LEVEL001
 370
13
  62
1
 100
AcDbMText
  10
 5883.3525757589
  20
 2265.2828632192
  30
0.0
  40
 80.000000000000
  41
0.0
  71
7
  72
1
   1
\T1.000000;支柱取付金具
   7
GMM006
  44
 0.79999984000003
   0
MTEXT
   5
340
 100
AcDbEntity
   8
LEVEL001
 370
13
  62
1
 100
AcDbMText
  10
 5883.3525757589
  20
 2395.2828632192
  30
0.0
  40
 80.000000000000
  41
0.0
  71
7
  72
1
   1
\T1.000000;裏板取付金具
   7
GMM006
  44
 0.79999984000003
   0
MTEXT
   5
342
 100
AcDbEntity
   8
LEVEL001
 370
13
  62
1
 100
AcDbMText
  10
 6933.3525757589
  20
 2395.2828632192
  30
0.0
  40
 80.000000000000
  41
0.0
  71
7
  72
1
   1
\T1.000000;ＳＳ４００
   7
GMM006
  44
 0.79999984000003
   0
MTEXT
   5
344
 100
AcDbEntity
   8
LEVEL001
 370
13
  62
1
 100
AcDbMText
  10
 6854.3315495129
  20
 2135.2828632192
  30
0.0
  40
 80.000000000000
  41
0.0
  71
9
  72
1
   1
\T1.000000;８
   7
GMM006
  44
 0.79999984000003
   0
MTEXT
   5
346
 100
AcDbEntity
   8
LEVEL001
 370
13
  62
1
 100
AcDbMText
  10
 5883.3525757589
  20
 1615.2828632192
  30
0.0
  40
 80.000000000000
  41
0.0
  71
7
  72
1
   1
\T1.000000;支柱
   7
GMM006
  44
 0.79999984000003
   0
MTEXT
   5
348
 100
AcDbEntity
   8
LEVEL001
 370
13
  62
1
 100
AcDbMText
  10
 6854.3315495129
  20
 1615.2828632192
  30
0.0
  40
 80.000000000000
  41
0.0
  71
9
  72
1
   1
\T1.000000;１
   7
GMM006
  44
 0.79999984000003
   0
MTEXT
   5
34A
 100
AcDbEntity
   8
LEVEL001
 370
13
  62
1
 100
AcDbMText
  10
 6933.3525757589
  20
 1615.2828632192
  30
0.0
  40
 80.000000000000
  41
0.0
  71
7
  72
1
   1
\T1.000000;ＳＴＫ４００
   7
GMM006
  44
 0.79999984000003
   0
MTEXT
   5
34C
 100
AcDbEntity
   8
LEVEL001
 370
13
  62
1
 100
AcDbMText
  10
 5883.3525757589
  20
 1745.2828632192
  30
0.0
  40
 80.000000000000
  41
0.0
  71
7
  72
1
   1
\T1.000000;同上ボルトナット
   7
GMM006
  44
 0.79999984000003
   0
MTEXT
   5
34E
 100
AcDbEntity
   8
LEVEL001
 370
13
  62
1
 100
AcDbMText
  10
 6933.3525757589
  20
 1875.2828632192
  30
0.0
  40
 80.000000000000
  41
0.0
  71
7
  72
1
   1
\T1.000000;ＳＳ４００
   7
GMM006
  44
 0.79999984000003
   0
MTEXT
   5
350
 100
AcDbEntity
   8
LEVEL001
 370
13
  62
1
 100
AcDbMText
  10
 6933.3525757589
  20
 1745.2828632192
  30
0.0
  40
 80.000000000000
  41
0.0
  71
7
  72
1
   1
\T1.000000;ＳＳ４００
   7
GMM006
  44
 0.79999984000003
   0
MTEXT
   5
352
 100
AcDbEntity
   8
LEVEL001
 370
13
  62
1
 100
AcDbMText
  10
 5883.3525757589
  20
 1875.2828632192
  30
0.0
  40
 80.000000000000
  41
0.0
  71
7
  72
1
   1
\T1.000000;二面鏡用取付腕木
   7
GMM006
  44
 0.79999984000003
   0
MTEXT
   5
354
 100
AcDbEntity
   8
LEVEL001
 370
13
  62
1
 100
AcDbMText
  10
 6854.3315495129
  20
 2005.2828632192
  30
0.0
  40
 80.000000000000
  41
0.0
  71
9
  72
1
   1
\T1.000000;８
   7
GMM006
  44
 0.79999984000003
   0
MTEXT
   5
356
 100
AcDbEntity
   8
LEVEL001
 370
13
  62
1
 100
AcDbMText
  10
 6854.3315495129
  20
 2655.2828632192
  30
0.0
  40
 80.000000000000
  41
0.0
  71
9
  72
1
   1
\T1.000000;２
   7
GMM006
  44
 0.79999984000003
   0
MTEXT
   5
358
 100
AcDbEntity
   8
LEVEL001
 370
13
  62
1
 100
AcDbMText
  10
 5883.3525757589
  20
 2655.2828632192
  30
0.0
  40
 80.000000000000
  41
0.0
  71
7
  72
1
   1
\T1.000000;取付枠
   7
GMM006
  44
 0.79999984000003
   0
MTEXT
   5
35A
 100
AcDbEntity
   8
LEVEL001
 370
13
  62
1
 100
AcDbMText
  10
 5883.3525757589
  20
 2525.2828632192
  30
0.0
  40
 80.000000000000
  41
0.0
  71
7
  72
1
   1
\T1.000000;取付枠取付リベット
   7
GMM006
  44
 0.79999984000003
   0
MTEXT
   5
35C
 100
AcDbEntity
   8
LEVEL001
 370
13
  62
1
 100
AcDbMText
  10
 6933.3525757589
  20
 2525.2828632192
  30
0.0
  40
 80.000000000000
  41
0.0
  71
7
  72
1
   1
\T1.000000;アルミニウム
   7
GMM006
  44
 0.79999984000003
   0
MTEXT
   5
35E
 100
AcDbEntity
   8
LEVEL001
 370
13
  62
1
 100
AcDbMText
  10
 6933.3525757589
  20
 2655.2828632192
  30
0.0
  40
 80.000000000000
  41
0.0
  71
7
  72
1
   1
\T1.000000;ＦＲＰ
   7
GMM006
  44
 0.79999984000003
   0
MTEXT
   5
360
 100
AcDbEntity
   8
LEVEL001
 370
13
  62
1
 100
AcDbMText
  10
 6854.3315495129
  20
 2525.2828632192
  30
0.0
  40
 80.000000000000
  41
0.0
  71
9
  72
1
   1
\T1.000000;２０
   7
GMM006
  44
 0.79999984000003
   0
MTEXT
   5
362
 100
AcDbEntity
   8
LEVEL001
 370
13
  62
1
 100
AcDbMText
  10
 6854.3315495129
  20
 2395.2828632192
  30
0.0
  40
 80.000000000000
  41
0.0
  71
9
  72
1
   1
\T1.000000;２
   7
GMM006
  44
 0.79999984000003
   0
MTEXT
   5
364
 100
AcDbEntity
   8
LEVEL001
 370
13
  62
1
 100
AcDbMText
  10
 6854.3315495129
  20
 2265.2828632192
  30
0.0
  40
 80.000000000000
  41
0.0
  71
9
  72
1
   1
\T1.000000;２
   7
GMM006
  44
 0.79999984000003
   0
MTEXT
   5
366
 100
AcDbEntity
   8
LEVEL001
 370
13
  62
1
 100
AcDbMText
  10
 6854.3315495129
  20
 1875.2828632192
  30
0.0
  40
 80.000000000000
  41
0.0
  71
9
  72
1
   1
\T1.000000;１
   7
GMM006
  44
 0.79999984000003
   0
MTEXT
   5
368
 100
AcDbEntity
   8
LEVEL001
 370
13
  62
1
 100
AcDbMText
  10
 6854.3315495129
  20
 1745.2828632192
  30
0.0
  40
 80.000000000000
  41
0.0
  71
9
  72
1
   1
\T1.000000;４
   7
GMM006
  44
 0.79999984000003
   0
MTEXT
   5
36A
 100
AcDbEntity
   8
LEVEL001
 370
13
  62
1
 100
AcDbMText
  10
 7453.3525757589
  20
 2005.2828632192
  30
0.0
  40
 80.000000000000
  41
0.0
  71
7
  72
1
   1
\T1.000000;溶融亜鉛メッキ
   7
GMM006
  44
 0.79999984000003
   0
MTEXT
   5
36C
 100
AcDbEntity
   8
LEVEL001
 370
13
  62
1
 100
AcDbMText
  10
 7453.3525757589
  20
 2135.2828632192
  30
0.0
  40
 80.000000000000
  41
0.0
  71
7
  72
1
   1
\T1.000000;溶融亜鉛メッキ
   7
GMM006
  44
 0.79999984000003
   0
MTEXT
   5
36E
 100
AcDbEntity
   8
LEVEL001
 370
13
  62
1
 100
AcDbMText
  10
 7453.3525757589
  20
 2265.2828632192
  30
0.0
  40
 80.000000000000
  41
0.0
  71
7
  72
1
   1
\T1.000000;溶融亜鉛メッキ
   7
GMM006
  44
 0.79999984000003
   0
MTEXT
   5
370
 100
AcDbEntity
   8
LEVEL001
 370
13
  62
1
 100
AcDbMText
  10
 7453.3525757589
  20
 1615.2828632192
  30
0.0
  40
 80.000000000000
  41
0.0
  71
7
  72
1
   1
\T1.000000;静電粉体塗装
   7
GMM006
  44
 0.79999984000003
   0
MTEXT
   5
372
 100
AcDbEntity
   8
LEVEL001
 370
13
  62
1
 100
AcDbMText
  10
 7453.3525757589
  20
 1875.2828632192
  30
0.0
  40
 80.000000000000
  41
0.0
  71
7
  72
1
   1
\T1.000000;溶融亜鉛メッキ
   7
GMM006
  44
 0.79999984000003
   0
MTEXT
   5
374
 100
AcDbEntity
   8
LEVEL001
 370
13
  62
1
 100
AcDbMText
  10
 7453.3525757589
  20
 1745.2828632192
  30
0.0
  40
 80.000000000000
  41
0.0
  71
7
  72
1
   1
\T1.000000;溶融亜鉛メッキ
   7
GMM006
  44
 0.79999984000003
   0
MTEXT
   5
376
 100
AcDbEntity
   8
LEVEL001
 370
13
  62
1
 100
AcDbMText
  10
 7453.3525757589
  20
 2395.2828632192
  30
0.0
  40
 80.000000000000
  41
0.0
  71
7
  72
1
   1
\T1.000000;溶融亜鉛メッキ
   7
GMM006
  44
 0.79999984000003
   0
MTEXT
   5
378
 100
AcDbEntity
   8
LEVEL001
 370
13
  62
1
 100
AcDbMText
  10
 7453.3525757589
  20
 2915.2828632192
  30
0.0
  40
 80.000000000000
  41
0.0
  71
7
  72
1
   1
\T1.000000;ＳＭＣ成型
   7
GMM006
  44
 0.79999984000003
   0
MTEXT
   5
37A
 100
AcDbEntity
   8
LEVEL001
 370
13
  62
1
 100
AcDbMText
  10
 5804.3315495129
  20
 3305.2828632192
  30
0.0
  40
 80.000000000000
  41
0.0
  71
9
  72
1
   1
\T1.000000;１
   7
GMM005
  44
 0.79999984000003
   0
MTEXT
   5
37C
 100
AcDbEntity
   8
LEVEL001
 370
13
  62
1
 100
AcDbMText
  10
 6783.3525757589
  20
 3481.7092555233
  30
0.0
  40
 80.000000000000
  41
0.0
  71
5
  72
1
   1
\T1.000000;個数
   7
GMM006
  44
 0.79999984000003
   0
MTEXT
   5
37E
 100
AcDbEntity
   8
LEVEL001
 370
13
  62
1
 100
AcDbMText
  10
 6258.3525757589
  20
 3481.7092555233
  30
0.0
  40
 80.000000000000
  41
0.0
  71
5
  72
1
   1
\T1.000000;名　　称
   7
GMM006
  44
 0.79999984000003
   0
LINE
   5
37F
 100
AcDbEntity
   8
LEVEL001
 370
13
 100
AcDbLine
   6
CONTINUOUS
  62
6
  10
 5633.3525757589
  20
 3411.7092555233
  30
0.0
  11
 8149.1103549669
  21
 3411.7092555233
  31
0.0
   0
LINE
   5
380
 100
AcDbEntity
   8
LEVEL001
 370
13
 100
AcDbLine
   6
CONTINUOUS
  62
6
  10
 5633.3525757589
  20
 3551.7092555233
  30
0.0
  11
 8149.1103549669
  21
 3551.7092555233
  31
0.0
   0
LINE
   5
381
 100
AcDbEntity
   8
LEVEL001
 370
13
 100
AcDbLine
   6
CONTINUOUS
  62
6
  10
 5633.3525757589
  20
 3851.7092555233
  30
0.0
  11
 8149.1103549669
  21
 3851.7092555233
  31
0.0
   0
MTEXT
   5
383
 100
AcDbEntity
   8
LEVEL001
 370
13
  62
1
 100
AcDbMText
  10
 6854.3315495129
  20
 3305.2828632192
  30
0.0
  40
 80.000000000000
  41
0.0
  71
9
  72
1
   1
\T1.000000;２
   7
GMM006
  44
 0.79999984000003
   0
MTEXT
   5
385
 100
AcDbEntity
   8
LEVEL001
 370
13
  62
1
 100
AcDbMText
  10
 5798.7804332345
  20
 3593.8637952826
  30
0.0
  40
 80.000000000000
  41
0.0
  71
7
  72
1
   1
\T1.000000;□６００×８００（ダブル）
   7
GMM003
  44
 0.79999984000003
   0
MTEXT
   5
387
 100
AcDbEntity
   8
LEVEL001
 370
13
  62
1
 100
AcDbMText
  10
 5883.3525757589
  20
 3305.2828632192
  30
0.0
  40
 80.000000000000
  41
0.0
  71
7
  72
1
   1
\T1.000000;鏡面　Ｒ＝３６００
   7
GMM006
  44
 0.79999984000003
   0
MTEXT
   5
389
 100
AcDbEntity
   8
LEVEL001
 370
13
  62
1
 100
AcDbMText
  10
 6933.3525757589
  20
 3305.2828632192
  30
0.0
  40
 80.000000000000
  41
0.0
  71
4
  72
1
   1
{\W0.900000;\T1.000000;ＰＭＭＡ}\P{\W0.450000;\T1.000000;(\W0.900000;\T1.000000;アクリル\W0.450000;\T1.000000;)}
   7
GMM006
  44
 0.79999984000003
   0
MTEXT
   5
38B
 100
AcDbEntity
   8
LEVEL001
 370
13
  62
1
 100
AcDbMText
  10
 5798.7804332345
  20
 3731.2160861110
  30
0.0
  40
 80.000000000000
  41
0.0
  71
7
  72
1
   1
\T1.000000;アクリーン＜Ｆタイプ＞
   7
GMM003
  44
 0.79999984000003
   0
MTEXT
   5
38D
 100
AcDbEntity
   8
LEVEL001
 370
13
  62
1
 100
AcDbMText
  10
 7453.3525757589
  20
 3385.2828632192
  30
0.0
  40
 80.000000000000
  41
0.0
  71
1
  72
1
   1
{\W0.325000;\T1.000000;t=3.0mm}\P{\W0.650000;\T1.000000;裏面：真空蒸着}\P{\W0.650000;\T1.000000;表面：超親水性コーティング}
   7
GMM008
  44
 0.79999984000003
   0
MTEXT
   5
38F
 100
AcDbEntity
   8
LEVEL001
 370
13
  62
1
 100
AcDbMText
  10
 7143.3525757589
  20
 3481.7092555233
  30
0.0
  40
 80.000000000000
  41
0.0
  71
5
  72
1
   1
\T1.000000;材　　質
   7
GMM006
  44
 0.79999984000003
   0
MTEXT
   5
391
 100
AcDbEntity
   8
LEVEL001
 370
13
  62
1
 100
AcDbMText
  10
 7776.2314653629
  20
 3481.7092555233
  30
0.0
  40
 80.000000000000
  41
0.0
  71
5
  72
1
   1
\T1.000000;規格仕様
   7
GMM006
  44
 0.79999984000003
   0
MTEXT
   5
393
 100
AcDbEntity
   8
LEVEL001
 370
13
  62
1
 100
AcDbMText
  10
 5689.7588084151
  20
 4096.0206108346
  30
0.0
  40
 80.000000000000
  41
0.0
  71
4
  72
1
   1
{\T1.000000;※構成部材は改良のため、変更する場合があります。}\P{\T1.000000;※本図は道路反射鏡ハンドブックに基づいています。}
   7
GMM006
  44
 0.94999981000004
   0
LWPOLYLINE
   5
394
 100
AcDbEntity
   8
LEVEL001
 370
13
   6
CONTINUOUS
  62
6
 100
AcDbPolyline
  90
4
  70
1
  10
 5633.3525757589
  20
 3851.7092555233
  10
 5633.3525757589
  20
 811.70925552326
  10
 8149.1103549669
  20
 811.70925552326
  10
 8149.1103549669
  20
 3851.7092555233
   0
LINE
   5
395
 100
AcDbEntity
   8
LEVEL001
 370
13
 100
AcDbLine
   6
CONTINUOUS
  62
6
  10
 7403.3525757589
  20
 3551.7092555233
  30
0.0
  11
 7403.3525757589
  21
 811.70925552326
  31
0.0
   0
LINE
   5
396
 100
AcDbEntity
   8
LEVEL001
 370
13
 100
AcDbLine
   6
CONTINUOUS
  62
6
  10
 6883.3525757589
  20
 3551.7092555233
  30
0.0
  11
 6883.3525757589
  21
 811.70925552326
  31
0.0
   0
LINE
   5
397
 100
AcDbEntity
   8
LEVEL001
 370
13
 100
AcDbLine
   6
CONTINUOUS
  62
6
  10
 6683.3525757589
  20
 3551.7092555233
  30
0.0
  11
 6683.3525757589
  21
 811.70925552326
  31
0.0
   0
LINE
   5
398
 100
AcDbEntity
   8
LEVEL001
 370
13
 100
AcDbLine
   6
CONTINUOUS
  62
6
  10
 5833.3525757589
  20
 3551.7092555233
  30
0.0
  11
 5833.3525757589
  21
 811.70925552326
  31
0.0
   0
MTEXT
   5
39A
 100
AcDbEntity
   8
LEVEL001
 370
13
  62
1
 100
AcDbMText
  10
 6854.3315495129
  20
 965.28286321915
  30
0.0
  40
 80.000000000000
  41
0.0
  71
9
  72
1
   1
\T1.000000;１式
   7
GMM006
  44
 0.79999984000003
   0
MTEXT
   5
39C
 100
AcDbEntity
   8
LEVEL001
 370
13
  62
1
 100
AcDbMText
  10
 6854.3315495129
  20
 835.28286321915
  30
0.0
  40
 80.000000000000
  41
0.0
  71
9
  72
1
   1
\T1.000000;１式
   7
GMM006
  44
 0.79999984000003
   0
MTEXT
   5
39E
 100
AcDbEntity
   8
LEVEL001
 370
13
  62
1
 100
AcDbMText
  10
 6933.3525757589
  20
 1095.2828632192
  30
0.0
  40
 80.000000000000
  41
0.0
  71
7
  72
1
   1
\T1.000000;―
   7
GMM006
  44
 0.79999984000003
   0
MTEXT
   5
3A0
 100
AcDbEntity
   8
LEVEL001
 370
13
  62
1
 100
AcDbMText
  10
 6933.3525757589
  20
 965.28286321915
  30
0.0
  40
 80.000000000000
  41
0.0
  71
7
  72
1
   1
\T1.000000;―
   7
GMM006
  44
 0.79999984000003
   0
MTEXT
   5
3A2
 100
AcDbEntity
   8
LEVEL001
 370
13
  62
1
 100
AcDbMText
  10
 6933.3525757589
  20
 835.28286321915
  30
0.0
  40
 80.000000000000
  41
0.0
  71
7
  72
1
   1
\T1.000000;―
   7
GMM006
  44
 0.79999984000003
   0
MTEXT
   5
3A4
 100
AcDbEntity
   8
LEVEL001
 370
13
  62
1
 100
AcDbMText
  10
 7453.3525757589
  20
 965.28286321915
  30
0.0
  40
 80.000000000000
  41
0.0
  71
7
  72
1
   1
\T1.000000;―
   7
GMM006
  44
 0.79999984000003
   0
MTEXT
   5
3A6
 100
AcDbEntity
   8
LEVEL001
 370
13
  62
1
 100
AcDbMText
  10
 7453.3525757589
  20
 835.28286321915
  30
0.0
  40
 80.000000000000
  41
0.0
  71
7
  72
1
   1
\T1.000000;―
   7
GMM006
  44
 0.79999984000003
   0
MTEXT
   5
3A8
 100
AcDbEntity
   8
LEVEL001
 370
13
  62
1
 100
AcDbMText
  10
 7453.3525757589
  20
 1095.2828632192
  30
0.0
  40
 80.000000000000
  41
0.0
  71
7
  72
1
   1
\T1.000000;―
   7
GMM006
  44
 0.79999984000003
   0
LINE
   5
3A9
 100
AcDbEntity
   8
LEVEL001
 370
13
 100
AcDbLine
   6
CONTINUOUS
  62
6
  10
 6683.3525757588
  20
 1591.7092555233
  30
0.0
  11
 8149.1103549669
  21
 1591.7092555233
  31
0.0
   0
MTEXT
   5
3AB
 100
AcDbEntity
   8
LEVEL001
 370
13
  62
1
 100
AcDbMText
  10
 6854.3315495129
  20
 1485.2828632192
  30
0.0
  40
 80.000000000000
  41
0.0
  71
9
  72
1
   1
\T1.000000;１
   7
GMM006
  44
 0.79999984000003
   0
MTEXT
   5
3AD
 100
AcDbEntity
   8
LEVEL001
 370
13
  62
1
 100
AcDbMText
  10
 6933.3525757589
  20
 1485.2828632192
  30
0.0
  40
 80.000000000000
  41
0.0
  71
7
  72
1
   1
\T1.000000;ＳＴＫ４００
   7
GMM006
  44
 0.79999984000003
   0
MTEXT
   5
3AF
 100
AcDbEntity
   8
LEVEL001
 370
13
  62
1
 100
AcDbMText
  10
 7453.3525757589
  20
 1526.7092555233
  30
0.0
  40
 44.000000000000
  41
0.0
  71
4
  72
1
   1
{\T1.000000;下地亜鉛メッキ}\P{\T1.000000;＋静電粉体塗装}
   7
GMM009
  44
 0.79999984000003
   0
MTEXT
   5
3B1
 100
AcDbEntity
   8
LEVEL001
 370
13
  62
1
 100
AcDbMText
  10
 5883.3525757589
  20
 1095.2828632192
  30
0.0
  40
 80.000000000000
  41
0.0
  71
7
  72
1
   1
\T1.000000;注意板
   7
GMM006
  44
 0.79999984000003
   0
MTEXT
   5
3B3
 100
AcDbEntity
   8
LEVEL001
 370
13
  62
1
 100
AcDbMText
  10
 1884.4419835580
  20
 2678.0725927053
  30
0.0
  40
 66.000000000000
  41
0.0
  71
1
  72
1
   1
{\W0.787879;\T1.000000;支柱}\P%%c{\W0.787879;\T1.000000;８９\W0.393939;\T1.000000;.\W0.787879;\T1.000000;１ｘ３\W0.393939;\T1.000000;.\W0.787879;\T1.000000;２ｔ}\P{\W0.787879;\T1.000000;ｘ４４００Ｌ}
   7
GMM001
  44
 0.79999984000003
   0
ENDSEC
  0
SECTION
  2
OBJECTS
  0
DICTIONARY
  5
C
100
AcDbDictionary
  3
ACAD_GROUP
350
D
  3
ACAD_MLINESTYLE
350
1B
  3
DWGPROPS
350
1C
  0
DICTIONARY
  5
D
102
{ACAD_REACTORS
330
C
102
}
100
AcDbDictionary
  0
DICTIONARY
  5
1B
102
{ACAD_REACTORS
330
C
102
}
100
AcDbDictionary
  3
STANDARD
350
1D
  0
MLINESTYLE
  5
1D
102
{ACAD_REACTORS
330
1B
102
}
100
AcDbMlineStyle
  2
STANDARD
 70
     0
  3

 62
   256
 51
90.0
 52
90.0
 71
     2
 49
0.5
 62
   256
  6
BYLAYER
 49
-0.5
 62
   256
  6
BYLAYER
   0
XRECORD
   5
1C
 102
{ACAD_REACTORS
 330
C
 102
}
 330
C
 100
AcDbXrecord
 280
1
   1
DWGPROPS COOKIE
   2
 
   3
 
   4
 
   6
 
   7
MF608W
   8
 
   9

 300
 = 
 301
 = 
 302
 = 
 303
 = 
 304
 = 
 305
 = 
 306
 = 
 307
 = 
 308
 = 
 309
 = 
  40
0.0
  41
 2460334.5000000
  42
 2460338.5000000
   1

  90
10
   0
ENDSEC
   0
EOF
