   0
SECTION
   2
HEADER
   9
$ACADVER
   1
AC1015
   9
$DWGCODEPAGE
   3
ANSI_932
   9
$LIMMIN
  10
0.0
  20
0.0
   9
$LIMMAX
  10
 8400.0000000000
  20
 5940.0000000000
   9
$EXTMIN
  10
0.0
  20
0.0
  30
0.0
   9
$EXTMAX
  10
 8400.0000000000
  20
 5940.0000000000
  30
0.0
   9
$LTSCALE
  40
 168.00000000000
   9
$HANDSEED
   5
3CC
   0
ENDSEC
   0
SECTION
   2
TABLES
  0
TABLE
  2
VPORT
  5
8
100
AcDbSymbolTable
 70
     1
  0
VPORT
  5
3CB
100
AcDbSymbolTableRecord
100
AcDbViewportTableRecord
  2
*ACTIVE
 70
     0
 10
0.0
 20
0.0
 11
1.0
 21
1.0
  12
 4200.0000000000
  22
 2970.0000000000
 13
0.0
 23
0.0
 14
1.0
 24
1.0
 15
0.0
 25
0.0
 16
0.0
 26
0.0
 36
1.0
 17
0.0
 27
0.0
 37
0.0
  40
 8400.0000000000
  41
 1.4787878787879
 42
50.0
 43
0.0
 44
0.0
 50
0.0
 51
0.0
 71
     0
 72
   100
 73
     1
 74
     1
 75
     0
 76
     0
 77
     0
 78
     0
  0
ENDTAB
  0
TABLE
  2
LTYPE
  5
5
100
AcDbSymbolTable
 70
    25
  0
LTYPE
  5
12
100
AcDbSymbolTableRecord
100
AcDbLinetypeTableRecord
  2
BYBLOCK
 70
     0
  3

 72
    65
 73
     0
 40
0.0
  0
LTYPE
  5
13
100
AcDbSymbolTableRecord
100
AcDbLinetypeTableRecord
  2
BYLAYER
 70
     0
  3

 72
    65
 73
     0
 40
0.0
  0
LTYPE
  5
14
100
AcDbSymbolTableRecord
100
AcDbLinetypeTableRecord
  2
CONTINUOUS
 70
     0
  3
Solid line
 72
    65
 73
     0
 40
0.0
  0
LTYPE
  5
20
100
AcDbSymbolTableRecord
100
AcDbLinetypeTableRecord
  2
BORDER
 70
     0
  3
__ __ . __ __ . __ __ . __ __ . __ __ . __ __ .
 72
    65
 73
     6
 40
1.75
 49
0.5
 74
     0
 49
-0.25
 74
     0
 49
0.5
 74
     0
 49
-0.25
 74
     0
 49
0.0
 74
     0
 49
-0.25
 74
     0
  0
LTYPE
  5
21
100
AcDbSymbolTableRecord
100
AcDbLinetypeTableRecord
  2
BORDER2
 70
     0
  3
__.__.__.__.__.__.__.__.__.__.__.__.__.__.__.__
 72
    65
 73
     6
 40
0.875
 49
0.25
 74
     0
 49
-0.125
 74
     0
 49
0.25
 74
     0
 49
-0.125
 74
     0
 49
0.0
 74
     0
 49
-0.125
 74
     0
  0
LTYPE
  5
22
100
AcDbSymbolTableRecord
100
AcDbLinetypeTableRecord
  2
BORDERX2
 70
     0
  3
____  ____  .  ____  ____  .  ____  ____  .  __
 72
    65
 73
     6
 40
3.5
 49
1.0
 74
     0
 49
-0.5
 74
     0
 49
1.0
 74
     0
 49
-0.5
 74
     0
 49
0.0
 74
     0
 49
-0.5
 74
     0
  0
LTYPE
  5
23
100
AcDbSymbolTableRecord
100
AcDbLinetypeTableRecord
  2
CENTER
 70
     0
  3
____ _ ____ _ ____ _ ____ _ ____ _ ____ _ ____ 
 72
    65
 73
     4
 40
2.0
 49
1.25
 74
     0
 49
-0.25
 74
     0
 49
0.25
 74
     0
 49
-0.25
 74
     0
  0
LTYPE
  5
24
100
AcDbSymbolTableRecord
100
AcDbLinetypeTableRecord
  2
CENTER2
 70
     0
  3
___ _ ___ _ ___ _ ___ _ ___ _ ___ _ ___ _ ___ _
 72
    65
 73
     4
 40
1.125
 49
0.75
 74
     0
 49
-0.125
 74
     0
 49
0.125
 74
     0
 49
-0.125
 74
     0
  0
LTYPE
  5
25
100
AcDbSymbolTableRecord
100
AcDbLinetypeTableRecord
  2
CENTERX2
 70
     0
  3
________  __  ________  __  ________  __  _____
 72
    65
 73
     4
 40
4.0
 49
2.5
 74
     0
 49
-0.5
 74
     0
 49
0.5
 74
     0
 49
-0.5
 74
     0
  0
LTYPE
  5
26
100
AcDbSymbolTableRecord
100
AcDbLinetypeTableRecord
  2
DASHDOT
 70
     0
  3
__ . __ . __ . __ . __ . __ . __ . __ . __ . __
 72
    65
 73
     4
 40
1.0
 49
0.5
 74
     0
 49
-0.25
 74
     0
 49
0.0
 74
     0
 49
-0.25
 74
     0
  0
LTYPE
  5
27
100
AcDbSymbolTableRecord
100
AcDbLinetypeTableRecord
  2
DASHDOT2
 70
     0
  3
_._._._._._._._._._._._._._._._._._._._._._._._
 72
    65
 73
     4
 40
0.5
 49
0.25
 74
     0
 49
-0.125
 74
     0
 49
0.0
 74
     0
 49
-0.125
 74
     0
  0
LTYPE
  5
28
100
AcDbSymbolTableRecord
100
AcDbLinetypeTableRecord
  2
DASHDOTX2
 70
     0
  3
____  .  ____  .  ____  .  ____  .  ____  .  __
 72
    65
 73
     4
 40
2.0
 49
1.0
 74
     0
 49
-0.5
 74
     0
 49
0.0
 74
     0
 49
-0.5
 74
     0
  0
LTYPE
  5
29
100
AcDbSymbolTableRecord
100
AcDbLinetypeTableRecord
  2
DASHED
 70
     0
  3
__ __ __ __ __ __ __ __ __ __ __ __ __ __ __ __
 72
    65
 73
     2
 40
0.75
 49
0.5
 74
     0
 49
-0.25
 74
     0
  0
LTYPE
  5
2A
100
AcDbSymbolTableRecord
100
AcDbLinetypeTableRecord
  2
DASHED2
 70
     0
  3
_ _ _ _ _ _ _ _ _ _ _ _ _ _ _ _ _ _ _ _ _ _ _ _
 72
    65
 73
     2
 40
0.375
 49
0.25
 74
     0
 49
-0.125
 74
     0
  0
LTYPE
  5
2B
100
AcDbSymbolTableRecord
100
AcDbLinetypeTableRecord
  2
DASHEDX2
 70
     0
  3
____  ____  ____  ____  ____  ____  ____  ____ 
 72
    65
 73
     2
 40
1.5
 49
1.0
 74
     0
 49
-0.5
 74
     0
  0
LTYPE
  5
2C
100
AcDbSymbolTableRecord
100
AcDbLinetypeTableRecord
  2
DIVIDE
 70
     0
  3
____ . . ____ . . ____ . . ____ . . ____ . . __
 72
    65
 73
     6
 40
1.25
 49
0.5
 74
     0
 49
-0.25
 74
     0
 49
0.0
 74
     0
 49
-0.25
 74
     0
 49
0.0
 74
     0
 49
-0.25
 74
     0
  0
LTYPE
  5
2D
100
AcDbSymbolTableRecord
100
AcDbLinetypeTableRecord
  2
DIVIDE2
 70
     0
  3
__..__..__..__..__..__..__..__..__..__..__..__.
 72
    65
 73
     6
 40
0.625
 49
0.25
 74
     0
 49
-0.125
 74
     0
 49
0.0
 74
     0
 49
-0.125
 74
     0
 49
0.0
 74
     0
 49
-0.125
 74
     0
  0
LTYPE
  5
2E
100
AcDbSymbolTableRecord
100
AcDbLinetypeTableRecord
  2
DIVIDEX2
 70
     0
  3
________  .  .  ________  .  .  ________  .  . 
 72
    65
 73
     6
 40
2.5
 49
1.0
 74
     0
 49
-0.5
 74
     0
 49
0.0
 74
     0
 49
-0.5
 74
     0
 49
0.0
 74
     0
 49
-0.5
 74
     0
  0
LTYPE
  5
2F
100
AcDbSymbolTableRecord
100
AcDbLinetypeTableRecord
  2
DOT
 70
     0
  3
. . . . . . . . . . . . . . . . . . . . . . . .
 72
    65
 73
     2
 40
0.25
 49
0.0
 74
     0
 49
-0.25
 74
     0
  0
LTYPE
  5
30
100
AcDbSymbolTableRecord
100
AcDbLinetypeTableRecord
  2
DOT2
 70
     0
  3
...............................................
 72
    65
 73
     2
 40
0.125
 49
0.0
 74
     0
 49
-0.125
 74
     0
  0
LTYPE
  5
31
100
AcDbSymbolTableRecord
100
AcDbLinetypeTableRecord
  2
DOTX2
 70
     0
  3
.  .  .  .  .  .  .  .  .  .  .  .  .  .  .  . 
 72
    65
 73
     2
 40
0.5
 49
0.0
 74
     0
 49
-0.5
 74
     0
  0
LTYPE
  5
32
100
AcDbSymbolTableRecord
100
AcDbLinetypeTableRecord
  2
HIDDEN
 70
     0
  3
__ __ __ __ __ __ __ __ __ __ __ __ __ __ __ __
 72
    65
 73
     2
 40
0.375
 49
0.25
 74
     0
 49
-0.125
 74
     0
  0
LTYPE
  5
33
100
AcDbSymbolTableRecord
100
AcDbLinetypeTableRecord
  2
HIDDEN2
 70
     0
  3
_ _ _ _ _ _ _ _ _ _ _ _ _ _ _ _ _ _ _ _ _ _ _ _
 72
    65
 73
     2
 40
0.1875
 49
0.125
 74
     0
 49
-0.0625
 74
     0
  0
LTYPE
  5
34
100
AcDbSymbolTableRecord
100
AcDbLinetypeTableRecord
  2
HIDDENX2
 70
     0
  3
____ ____ ____ ____ ____ ____ ____ ____ ____ __
 72
    65
 73
     2
 40
0.75
 49
0.5
 74
     0
 49
-0.25
 74
     0
  0
LTYPE
  5
35
100
AcDbSymbolTableRecord
100
AcDbLinetypeTableRecord
  2
PHANTOM
 70
     0
  3
______  __  __  ______  __  __  ______  __  __ 
 72
    65
 73
     6
 40
2.5
 49
1.25
 74
     0
 49
-0.25
 74
     0
 49
0.25
 74
     0
 49
-0.25
 74
     0
 49
0.25
 74
     0
 49
-0.25
 74
     0
  0
LTYPE
  5
36
100
AcDbSymbolTableRecord
100
AcDbLinetypeTableRecord
  2
PHANTOM2
 70
     0
  3
___ _ _ ___ _ _ ___ _ _ ___ _ _ ___ _ _ ___ _ _
 72
    65
 73
     6
 40
1.25
 49
0.625
 74
     0
 49
-0.125
 74
     0
 49
0.125
 74
     0
 49
-0.125
 74
     0
 49
0.125
 74
     0
 49
-0.125
 74
     0
  0
LTYPE
  5
37
100
AcDbSymbolTableRecord
100
AcDbLinetypeTableRecord
  2
PHANTOMX2
 70
     0
  3
____________    ____    ____    ____________   
 72
    65
 73
     6
 40
5.0
 49
2.5
 74
     0
 49
-0.5
 74
     0
 49
0.5
 74
     0
 49
-0.5
 74
     0
 49
0.5
 74
     0
 49
-0.5
 74
     0
  0
ENDTAB
   0
TABLE
   2
LAYER
   5
2
 100
AcDbSymbolTable
  70
3
   0
LAYER
   5
E
 100
AcDbSymbolTableRecord
 100
AcDbLayerTableRecord
   2
0
  70
0
  62
7
   6
CONTINUOUS
 390
30
   0
LAYER
   5
39
 100
AcDbSymbolTableRecord
 100
AcDbLayerTableRecord
   2
LEVEL001
  70
0
  62
7
   6
CONTINUOUS
 390
30
   0
LAYER
   5
3A
 100
AcDbSymbolTableRecord
 100
AcDbLayerTableRecord
   2
LEVEL002
  70
0
  62
7
   6
CONTINUOUS
 390
30
   0
ENDTAB
  0
TABLE
  2
STYLE
  5
3
100
AcDbSymbolTable
  70
11
  0
STYLE
  5
F
100
AcDbSymbolTableRecord
100
AcDbTextStyleTableRecord
  2
STANDARD
 70
     0
 40
0.0
 41
1.0
 50
0.0
 71
     0
 42
0.2
  3
TXT
  4
BIGFONT
  0
STYLE
  5
38
100
AcDbSymbolTableRecord
100
AcDbTextStyleTableRecord
  2
STANDARD1
 70
     4
 40
0.0
 41
1.0
 50
0.0
 71
     0
 42
0.2
  3
TXT
  4
BIGFONT
   0
STYLE
   5
3B
 100
AcDbSymbolTableRecord
 100
AcDbTextStyleTableRecord
   2
GMM001
  70
0
  40
0.0
  41
 1.0000000000000
  50
0.0
  71
     0
  42
1.0
   3
txt.shx
   4
bigfont.shx
   0
STYLE
   5
3C
 100
AcDbSymbolTableRecord
 100
AcDbTextStyleTableRecord
   2
GMM002
  70
0
  40
0.0
  41
 0.87500000000000
  50
0.0
  71
     0
  42
1.0
   3
txt.shx
   4
bigfont.shx
   0
STYLE
   5
3D
 100
AcDbSymbolTableRecord
 100
AcDbTextStyleTableRecord
   2
GMM003
  70
0
  40
0.0
  41
 0.90000000000000
  50
0.0
  71
     0
  42
1.0
   3
txt.shx
   4
bigfont.shx
   0
STYLE
   5
3E
 100
AcDbSymbolTableRecord
 100
AcDbTextStyleTableRecord
   2
GMM004
  70
0
  40
0.0
  41
 0.65000000000000
  50
0.0
  71
     0
  42
1.0
   3
txt.shx
   4
bigfont.shx
   0
STYLE
   5
3F
 100
AcDbSymbolTableRecord
 100
AcDbTextStyleTableRecord
   2
GMM005
  70
0
  40
0.0
  41
 1.6363636363636
  50
0.0
  71
     0
  42
1.0
   3
txt.shx
   4
bigfont.shx
   0
STYLE
   5
40
 100
AcDbSymbolTableRecord
 100
AcDbTextStyleTableRecord
   2
GMM006
  70
0
  40
0.0
  41
 1.0000000000000
  50
0.0
  71
     0
  42
1.0
   3

   4

1001
ACAD
1000
ＭＳ 明朝
1071
32785
   0
STYLE
   5
41
 100
AcDbSymbolTableRecord
 100
AcDbTextStyleTableRecord
   2
GMM007
  70
0
  40
0.0
  41
 0.78787878787879
  50
0.0
  71
     0
  42
1.0
   3
txt.shx
   4
bigfont.shx
   0
STYLE
   5
42
 100
AcDbSymbolTableRecord
 100
AcDbTextStyleTableRecord
   2
GMM008
  70
0
  40
0.0
  41
 0.75000000000000
  50
0.0
  71
     0
  42
1.0
   3
txt.shx
   4
bigfont.shx
   0
STYLE
   5
43
 100
AcDbSymbolTableRecord
 100
AcDbTextStyleTableRecord
   2
GMM009
  70
0
  40
0.0
  41
 0.90000000000000
  50
0.0
  71
     0
  42
1.0
   3

   4

1001
ACAD
1000
ＭＳ 明朝
1071
33587217
   0
ENDTAB
  0
TABLE
  2
VIEW
  5
6
100
AcDbSymbolTable
 70
     0
  0
ENDTAB
  0
TABLE
  2
UCS
  5
7
100
AcDbSymbolTable
 70
     0
  0
ENDTAB
  0
TABLE
  2
APPID
  5
9
100
AcDbSymbolTable
 70
     1
  0
APPID
  5
10
100
AcDbSymbolTableRecord
100
AcDbRegAppTableRecord
  2
ACAD
 70
     0
  0
ENDTAB
   0
TABLE
   2
DIMSTYLE
   5
A
 100
AcDbSymbolTable
  70
13
 100
AcDbDimStyleTable
  0
DIMSTYLE
105
1D
100
AcDbSymbolTableRecord
100
AcDbDimStyleTableRecord
  2
STANDARD
 70
     0
  3

  4

  5

  6

  7

 40
1.0
 41
0.18
 42
0.0625
 43
0.38
 44
0.18
 45
0.0
 46
0.0
 47
0.0
 48
0.0
140
0.18
141
0.09
142
0.0
143
25.4
144
1.0
145
0.0
146
1.0
147
0.09
 71
     0
 72
     0
 73
     1
 74
     1
 75
     0
 76
     0
 77
     0
 78
     0
170
     0
171
     2
172
     0
173
     0
174
     0
175
     0
176
     0
177
     0
178
     0
270
     2
271
     4
272
     4
273
     2
274
     2
340
F
275
     0
280
     0
281
     0
282
     0
283
     1
284
     0
285
     0
286
     0
287
     3
288
     0
   0
DIMSTYLE
 105
44
 100
AcDbSymbolTableRecord
 100
AcDbDimStyleTableRecord
   2
GMM001
  70
0
   3

   4

   5

   6
_OPEN
   7
_OPEN
  40
 1.0000000000000
  41
 30.000000000000
  42
 30.000000000000
  43
 160.00000000000
  44
 30.000000000000
  45
0.0
  46
 37.500000000000
  47
0.0
  48
0.0
 140
 66.000000000000
 141
 20.000000000000
 142
0.0
 143
 0.39400000000000E-1
 144
 1.0000000000000
 145
0.0
 146
 0.62500000000000
 147
0.0
  71
0
  72
0
  73
0
  74
0
  75
1
  76
1
  77
0
  78
8
 170
0
 171
2
 172
1
 173
1
 174
0
 175
0
 176
1
 177
1
 178
1
 270
2
 271
1
 272
0
 273
2
 274
2
 340
F
 275
0
 280
0
 281
0
 282
0
 283
1
 284
0
 285
0
 286
0
 287
3
 288
0
   0
DIMSTYLE
 105
45
 100
AcDbSymbolTableRecord
 100
AcDbDimStyleTableRecord
   2
GMM002
  70
0
   3
□<>
   4

   5

   6
_OPEN
   7
_OPEN
  40
 1.0000000000000
  41
 30.000000000000
  42
 30.000000000000
  43
 160.00000000000
  44
 30.000000000000
  45
0.0
  46
 37.500000000000
  47
0.0
  48
0.0
 140
 66.000000000000
 141
 20.000000000000
 142
0.0
 143
 0.39400000000000E-1
 144
 1.0000000000000
 145
0.0
 146
 0.62500000000000
 147
 28.285714285714
  71
0
  72
0
  73
0
  74
0
  75
0
  76
0
  77
1
  78
8
 170
0
 171
2
 172
1
 173
1
 174
0
 175
0
 176
6
 177
6
 178
1
 270
2
 271
1
 272
0
 273
2
 274
2
 340
41
 275
0
 280
0
 281
0
 282
0
 283
1
 284
0
 285
0
 286
0
 287
3
 288
0
   0
DIMSTYLE
 105
46
 100
AcDbSymbolTableRecord
 100
AcDbDimStyleTableRecord
   2
GMM003
  70
0
   3

   4

   5

   6
_OPEN
   7
_OPEN
  40
 1.0000000000000
  41
 30.000000000000
  42
 30.000000000000
  43
 160.00000000000
  44
 30.000000000000
  45
0.0
  46
 37.500000000000
  47
0.0
  48
0.0
 140
 66.000000000000
 141
 20.000000000000
 142
0.0
 143
 0.39400000000000E-1
 144
 1.0000000000000
 145
0.0
 146
 0.62500000000000
 147
 28.285714285714
  71
0
  72
0
  73
0
  74
0
  75
0
  76
1
  77
1
  78
8
 170
0
 171
2
 172
1
 173
1
 174
0
 175
0
 176
6
 177
6
 178
1
 270
2
 271
1
 272
0
 273
2
 274
2
 340
41
 275
0
 280
0
 281
0
 282
0
 283
1
 284
0
 285
0
 286
0
 287
3
 288
0
   0
DIMSTYLE
 105
47
 100
AcDbSymbolTableRecord
 100
AcDbDimStyleTableRecord
   2
GMM004
  70
0
   3
<>(標準設置高さ
   4

   5

   6
_OPEN
   7
_OPEN
  40
 1.0000000000000
  41
 30.000000000000
  42
 30.000000000000
  43
 160.00000000000
  44
 30.000000000000
  45
0.0
  46
 37.500000000000
  47
0.0
  48
0.0
 140
 66.000000000000
 141
 20.000000000000
 142
0.0
 143
 0.39400000000000E-1
 144
 1.0000000000000
 145
0.0
 146
 0.62500000000000
 147
 28.285714285714
  71
0
  72
0
  73
0
  74
0
  75
0
  76
1
  77
1
  78
8
 170
0
 171
2
 172
1
 173
1
 174
0
 175
0
 176
6
 177
6
 178
1
 270
2
 271
1
 272
0
 273
2
 274
2
 340
41
 275
0
 280
0
 281
0
 282
0
 283
1
 284
0
 285
0
 286
0
 287
3
 288
0
   0
DIMSTYLE
 105
48
 100
AcDbSymbolTableRecord
 100
AcDbDimStyleTableRecord
   2
GMM005
  70
0
   3

   4

   5

   6
_OPEN
   7
_OPEN
  40
 1.0000000000000
  41
 30.000000000000
  42
 30.000000000000
  43
 160.00000000000
  44
 30.000000000000
  45
0.0
  46
 37.500000000000
  47
0.0
  48
0.0
 140
 66.000000000000
 141
 20.000000000000
 142
0.0
 143
 0.39400000000000E-1
 144
 1.0000000000000
 145
0.0
 146
 0.62500000000000
 147
0.0
  71
0
  72
0
  73
0
  74
0
  75
1
  76
1
  77
0
  78
8
 170
0
 171
2
 172
1
 173
1
 174
0
 175
0
 176
1
 177
1
 178
1
 270
2
 271
1
 272
0
 273
2
 274
2
 340
F
 275
0
 280
0
 281
0
 282
0
 283
1
 284
0
 285
0
 286
0
 287
3
 288
0
   0
DIMSTYLE
 105
49
 100
AcDbSymbolTableRecord
 100
AcDbDimStyleTableRecord
   2
GMM006
  70
0
   3
□<>
   4

   5

   6
_OPEN
   7
_OPEN
  40
 1.0000000000000
  41
 30.000000000000
  42
 30.000000000000
  43
 160.00000000000
  44
 30.000000000000
  45
0.0
  46
 37.500000000000
  47
0.0
  48
0.0
 140
 66.000000000000
 141
 20.000000000000
 142
0.0
 143
 0.39400000000000E-1
 144
 1.0000000000000
 145
0.0
 146
 0.62500000000000
 147
 28.285714285714
  71
0
  72
0
  73
0
  74
0
  75
0
  76
0
  77
1
  78
8
 170
0
 171
2
 172
1
 173
1
 174
0
 175
0
 176
6
 177
6
 178
1
 270
2
 271
1
 272
0
 273
2
 274
2
 340
41
 275
0
 280
0
 281
0
 282
0
 283
1
 284
0
 285
0
 286
0
 287
3
 288
0
   0
DIMSTYLE
 105
4A
 100
AcDbSymbolTableRecord
 100
AcDbDimStyleTableRecord
   2
GMM007
  70
0
   3

   4

   5

   6
_OPEN
   7
_OPEN
  40
 1.0000000000000
  41
 30.000000000000
  42
 30.000000000000
  43
 160.00000000000
  44
 30.000000000000
  45
0.0
  46
 37.500000000000
  47
0.0
  48
0.0
 140
 66.000000000000
 141
 20.000000000000
 142
0.0
 143
 0.39400000000000E-1
 144
 1.0000000000000
 145
0.0
 146
 0.62500000000000
 147
0.0
  71
0
  72
0
  73
0
  74
0
  75
1
  76
1
  77
0
  78
8
 170
0
 171
2
 172
1
 173
1
 174
0
 175
0
 176
1
 177
1
 178
1
 270
2
 271
1
 272
0
 273
2
 274
2
 340
F
 275
0
 280
0
 281
0
 282
0
 283
1
 284
0
 285
0
 286
0
 287
3
 288
0
   0
DIMSTYLE
 105
4B
 100
AcDbSymbolTableRecord
 100
AcDbDimStyleTableRecord
   2
GMM008
  70
0
   3

   4

   5

   6
_OPEN
   7
_OPEN
  40
 1.0000000000000
  41
 30.000000000000
  42
 30.000000000000
  43
 160.00000000000
  44
 30.000000000000
  45
0.0
  46
 37.500000000000
  47
0.0
  48
0.0
 140
 66.000000000000
 141
 20.000000000000
 142
0.0
 143
 0.39400000000000E-1
 144
 1.0000000000000
 145
0.0
 146
 0.62500000000000
 147
 28.285714285714
  71
0
  72
0
  73
0
  74
0
  75
1
  76
0
  77
1
  78
8
 170
0
 171
2
 172
1
 173
1
 174
0
 175
0
 176
6
 177
6
 178
1
 270
2
 271
1
 272
0
 273
2
 274
2
 340
41
 275
0
 280
0
 281
0
 282
0
 283
1
 284
0
 285
0
 286
0
 287
3
 288
0
   0
DIMSTYLE
 105
4C
 100
AcDbSymbolTableRecord
 100
AcDbDimStyleTableRecord
   2
GMM009
  70
0
   3

   4

   5

   6
_OPEN
   7
_OPEN
  40
 1.0000000000000
  41
 30.000000000000
  42
 40.000000000000
  43
 160.00000000000
  44
 40.000000000000
  45
0.0
  46
 37.500000000000
  47
0.0
  48
0.0
 140
 66.000000000000
 141
 20.000000000000
 142
0.0
 143
 0.39400000000000E-1
 144
 1.0000000000000
 145
0.0
 146
 0.62500000000000
 147
 28.285714285714
  71
0
  72
0
  73
0
  74
0
  75
1
  76
1
  77
1
  78
8
 170
0
 171
2
 172
1
 173
1
 174
0
 175
0
 176
6
 177
6
 178
1
 270
2
 271
6
 272
0
 273
2
 274
2
 340
41
 275
1
 280
0
 281
0
 282
0
 283
1
 284
0
 285
0
 286
0
 287
3
 288
1
   0
DIMSTYLE
 105
4D
 100
AcDbSymbolTableRecord
 100
AcDbDimStyleTableRecord
   2
GMM010
  70
0
   3

   4

   5

   6
_OPEN
   7
_OPEN
  40
 1.0000000000000
  41
 30.000000000000
  42
 30.000000000000
  43
 160.00000000000
  44
 30.000000000000
  45
0.0
  46
 37.500000000000
  47
0.0
  48
0.0
 140
 66.000000000000
 141
 20.000000000000
 142
0.0
 143
 0.39400000000000E-1
 144
 1.0000000000000
 145
0.0
 146
 0.62500000000000
 147
0.0
  71
0
  72
0
  73
0
  74
0
  75
1
  76
1
  77
0
  78
8
 170
0
 171
2
 172
1
 173
1
 174
0
 175
0
 176
1
 177
1
 178
1
 270
2
 271
1
 272
0
 273
2
 274
2
 340
F
 275
0
 280
0
 281
0
 282
0
 283
1
 284
0
 285
0
 286
0
 287
3
 288
0
   0
DIMSTYLE
 105
4E
 100
AcDbSymbolTableRecord
 100
AcDbDimStyleTableRecord
   2
GMM011
  70
0
   3

   4

   5

   6
_OPEN
   7
_OPEN
  40
 1.0000000000000
  41
 40.000000000000
  42
 40.000000000000
  43
 160.00000000000
  44
 40.000000000000
  45
0.0
  46
 50.000000000000
  47
0.0
  48
0.0
 140
 66.000000000000
 141
 20.000000000000
 142
0.0
 143
 0.39400000000000E-1
 144
 1.0000000000000
 145
0.0
 146
 0.62500000000000
 147
0.0
  71
0
  72
0
  73
0
  74
0
  75
1
  76
1
  77
1
  78
0
 170
0
 171
2
 172
1
 173
1
 174
0
 175
0
 176
6
 177
6
 178
1
 270
2
 271
0
 272
0
 273
2
 274
2
 340
41
 275
1
 280
0
 281
0
 282
0
 283
1
 284
0
 285
0
 286
0
 287
3
 288
0
   0
ENDTAB
  0
TABLE
  2
BLOCK_RECORD
  5
1
100
AcDbSymbolTable
 70
     0
  0
BLOCK_RECORD
  5
18
100
AcDbSymbolTableRecord
100
AcDbBlockTableRecord
  2
*MODEL_SPACE
  0
BLOCK_RECORD
  5
15
100
AcDbSymbolTableRecord
100
AcDbBlockTableRecord
  2
*PAPER_SPACE
   0
BLOCK_RECORD
   5
4F
 100
AcDbSymbolTableRecord
 100
AcDbBlockTableRecord
   2
*D9
   0
BLOCK_RECORD
   5
50
 100
AcDbSymbolTableRecord
 100
AcDbBlockTableRecord
   2
*D10
   0
BLOCK_RECORD
   5
51
 100
AcDbSymbolTableRecord
 100
AcDbBlockTableRecord
   2
*D11
   0
BLOCK_RECORD
   5
52
 100
AcDbSymbolTableRecord
 100
AcDbBlockTableRecord
   2
*D12
   0
BLOCK_RECORD
   5
53
 100
AcDbSymbolTableRecord
 100
AcDbBlockTableRecord
   2
*D16
   0
BLOCK_RECORD
   5
54
 100
AcDbSymbolTableRecord
 100
AcDbBlockTableRecord
   2
*D19
   0
BLOCK_RECORD
   5
55
 100
AcDbSymbolTableRecord
 100
AcDbBlockTableRecord
   2
*D20
   0
BLOCK_RECORD
   5
56
 100
AcDbSymbolTableRecord
 100
AcDbBlockTableRecord
   2
*D21
   0
BLOCK_RECORD
   5
57
 100
AcDbSymbolTableRecord
 100
AcDbBlockTableRecord
   2
_ARCHTICK
   0
BLOCK_RECORD
   5
58
 100
AcDbSymbolTableRecord
 100
AcDbBlockTableRecord
   2
_BOXBLANK
   0
BLOCK_RECORD
   5
59
 100
AcDbSymbolTableRecord
 100
AcDbBlockTableRecord
   2
_BOXFILLED
   0
BLOCK_RECORD
   5
5A
 100
AcDbSymbolTableRecord
 100
AcDbBlockTableRecord
   2
_CLOSED
   0
BLOCK_RECORD
   5
5B
 100
AcDbSymbolTableRecord
 100
AcDbBlockTableRecord
   2
_CLOSEDBLANK
   0
BLOCK_RECORD
   5
5C
 100
AcDbSymbolTableRecord
 100
AcDbBlockTableRecord
   2
_DATUMBLANK
   0
BLOCK_RECORD
   5
5D
 100
AcDbSymbolTableRecord
 100
AcDbBlockTableRecord
   2
_DATUMFILLED
   0
BLOCK_RECORD
   5
5E
 100
AcDbSymbolTableRecord
 100
AcDbBlockTableRecord
   2
_DOT
   0
BLOCK_RECORD
   5
5F
 100
AcDbSymbolTableRecord
 100
AcDbBlockTableRecord
   2
_DOTBLANK
   0
BLOCK_RECORD
   5
60
 100
AcDbSymbolTableRecord
 100
AcDbBlockTableRecord
   2
_DOTSMALL
   0
BLOCK_RECORD
   5
61
 100
AcDbSymbolTableRecord
 100
AcDbBlockTableRecord
   2
_INTEGRAL
   0
BLOCK_RECORD
   5
62
 100
AcDbSymbolTableRecord
 100
AcDbBlockTableRecord
   2
_NONE
   0
BLOCK_RECORD
   5
63
 100
AcDbSymbolTableRecord
 100
AcDbBlockTableRecord
   2
_OBLIQUE
   0
BLOCK_RECORD
   5
64
 100
AcDbSymbolTableRecord
 100
AcDbBlockTableRecord
   2
_OPEN
   0
BLOCK_RECORD
   5
65
 100
AcDbSymbolTableRecord
 100
AcDbBlockTableRecord
   2
_OPEN30
   0
BLOCK_RECORD
   5
66
 100
AcDbSymbolTableRecord
 100
AcDbBlockTableRecord
   2
_OPEN90
   0
BLOCK_RECORD
   5
67
 100
AcDbSymbolTableRecord
 100
AcDbBlockTableRecord
   2
_ORIGIN
   0
ENDTAB
   0
ENDSEC
  0
SECTION
  2
BLOCKS
  0
BLOCK
  5
19
100
AcDbEntity
  8
0
100
AcDbBlockBegin
  2
*MODEL_SPACE
 70
     0
 10
0.0
 20
0.0
 30
0.0
  3
*MODEL_SPACE
  1

  0
ENDBLK
  5
1A
100
AcDbEntity
  8
0
100
AcDbBlockEnd
  0
BLOCK
  5
16
100
AcDbEntity
 67
     1
  8
0
100
AcDbBlockBegin
  2
*PAPER_SPACE
 70
     0
 10
0.0
 20
0.0
 30
0.0
  3
*PAPER_SPACE
  1

  0
ENDBLK
  5
17
100
AcDbEntity
 67
     1
  8
0
100
AcDbBlockEnd
   0
BLOCK
   5
68
 100
AcDbEntity
   8
0
 100
AcDbBlockBegin
   2
_ARCHTICK
  70
0
  10
0.0
  20
0.0
  30
0.0
   3
_ARCHTICK
   0
POLYLINE
   5
69
 100
AcDbEntity
   8
0
 370
-2
   6
BYBLOCK
  62
0
 100
AcDb2dPolyline
  66
1
  10
0.0
  20
0.0
  30
0.0
  70
1
  40
 0.15000000000000
  41
 0.15000000000000
   0
VERTEX
   5
6A
 100
AcDbEntity
   8
0
   6
BYBLOCK
  62
0
 100
AcDbVertex
 100
AcDb2dVertex
  10
-0.50000000000000
  20
-0.50000000000000
  30
0.0
  40
 0.15000000000000
  41
 0.15000000000000
   0
VERTEX
   5
6B
 100
AcDbEntity
   8
0
   6
BYBLOCK
  62
0
 100
AcDbVertex
 100
AcDb2dVertex
  10
 0.50000000000000
  20
 0.50000000000000
  30
0.0
  40
 0.15000000000000
  41
 0.15000000000000
   0
SEQEND
   5
6C
 100
AcDbEntity
   8
0
   6
BYBLOCK
  62
0
   0
ENDBLK
   5
6D
 100
AcDbEntity
   8
0
 100
AcDbBlockEnd
   0
BLOCK
   5
6E
 100
AcDbEntity
   8
0
 100
AcDbBlockBegin
   2
_OBLIQUE
  70
0
  10
0.0
  20
0.0
  30
0.0
   3
_OBLIQUE
   0
LINE
   5
6F
 100
AcDbEntity
   8
0
 370
-2
 100
AcDbLine
   6
BYBLOCK
  62
0
  10
-0.50000000000000
  20
-0.50000000000000
  30
0.0
  11
 0.50000000000000
  21
 0.50000000000000
  31
0.0
   0
ENDBLK
   5
70
 100
AcDbEntity
   8
0
 100
AcDbBlockEnd
   0
BLOCK
   5
71
 100
AcDbEntity
   8
0
 100
AcDbBlockBegin
   2
_BOXBLANK
  70
0
  10
0.0
  20
0.0
  30
0.0
   3
_BOXBLANK
   0
LINE
   5
72
 100
AcDbEntity
   8
0
 370
-2
 100
AcDbLine
   6
BYBLOCK
  62
0
  10
-0.50000000000000
  20
-0.50000000000000
  30
0.0
  11
 0.50000000000000
  21
-0.50000000000000
  31
0.0
   0
LINE
   5
73
 100
AcDbEntity
   8
0
 370
-2
 100
AcDbLine
   6
BYBLOCK
  62
0
  10
 0.50000000000000
  20
-0.50000000000000
  30
0.0
  11
 0.50000000000000
  21
 0.50000000000000
  31
0.0
   0
LINE
   5
74
 100
AcDbEntity
   8
0
 370
-2
 100
AcDbLine
   6
BYBLOCK
  62
0
  10
 0.50000000000000
  20
 0.50000000000000
  30
0.0
  11
-0.50000000000000
  21
 0.50000000000000
  31
0.0
   0
LINE
   5
75
 100
AcDbEntity
   8
0
 370
-2
 100
AcDbLine
   6
BYBLOCK
  62
0
  10
-0.50000000000000
  20
 0.50000000000000
  30
0.0
  11
-0.50000000000000
  21
-0.50000000000000
  31
0.0
   0
LINE
   5
76
 100
AcDbEntity
   8
0
 370
-2
 100
AcDbLine
   6
BYBLOCK
  62
0
  10
-0.50000000000000
  20
0.0
  30
0.0
  11
-1.0000000000000
  21
0.0
  31
0.0
   0
ENDBLK
   5
77
 100
AcDbEntity
   8
0
 100
AcDbBlockEnd
   0
BLOCK
   5
78
 100
AcDbEntity
   8
0
 100
AcDbBlockBegin
   2
_BOXFILLED
  70
0
  10
0.0
  20
0.0
  30
0.0
   3
_BOXFILLED
   0
SOLID
   5
79
 100
AcDbEntity
   8
0
 100
AcDbTrace
   6
BYBLOCK
  62
0
  10
-0.50000000000000
  20
 0.50000000000000
  30
0.0
  11
 0.50000000000000
  21
 0.50000000000000
  31
0.0
  12
-0.50000000000000
  22
-0.50000000000000
  32
0.0
  13
 0.50000000000000
  23
-0.50000000000000
  33
0.0
   0
LINE
   5
7A
 100
AcDbEntity
   8
0
 370
-2
 100
AcDbLine
   6
BYBLOCK
  62
0
  10
-0.50000000000000
  20
0.0
  30
0.0
  11
-1.0000000000000
  21
0.0
  31
0.0
   0
ENDBLK
   5
7B
 100
AcDbEntity
   8
0
 100
AcDbBlockEnd
   0
BLOCK
   5
7C
 100
AcDbEntity
   8
0
 100
AcDbBlockBegin
   2
_CLOSED
  70
0
  10
0.0
  20
0.0
  30
0.0
   3
_CLOSED
   0
LINE
   5
7D
 100
AcDbEntity
   8
0
 370
-2
 100
AcDbLine
   6
BYBLOCK
  62
0
  10
-1.0000000000000
  20
 0.16666666666667
  30
0.0
  11
0.0
  21
0.0
  31
0.0
   0
LINE
   5
7E
 100
AcDbEntity
   8
0
 370
-2
 100
AcDbLine
   6
BYBLOCK
  62
0
  10
0.0
  20
0.0
  30
0.0
  11
-1.0000000000000
  21
-0.16666666666667
  31
0.0
   0
LINE
   5
7F
 100
AcDbEntity
   8
0
 370
-2
 100
AcDbLine
   6
BYBLOCK
  62
0
  10
-1.0000000000000
  20
 0.16666666666667
  30
0.0
  11
-1.0000000000000
  21
-0.16666666666667
  31
0.0
   0
LINE
   5
80
 100
AcDbEntity
   8
0
 370
-2
 100
AcDbLine
   6
BYBLOCK
  62
0
  10
0.0
  20
0.0
  30
0.0
  11
-1.0000000000000
  21
0.0
  31
0.0
   0
ENDBLK
   5
81
 100
AcDbEntity
   8
0
 100
AcDbBlockEnd
   0
BLOCK
   5
82
 100
AcDbEntity
   8
0
 100
AcDbBlockBegin
   2
_OPEN
  70
0
  10
0.0
  20
0.0
  30
0.0
   3
_OPEN
   0
LINE
   5
83
 100
AcDbEntity
   8
0
 370
-2
 100
AcDbLine
   6
BYBLOCK
  62
0
  10
-1.0000000000000
  20
 0.16666666666667
  30
0.0
  11
0.0
  21
0.0
  31
0.0
   0
LINE
   5
84
 100
AcDbEntity
   8
0
 370
-2
 100
AcDbLine
   6
BYBLOCK
  62
0
  10
0.0
  20
0.0
  30
0.0
  11
-1.0000000000000
  21
-0.16666666666667
  31
0.0
   0
LINE
   5
85
 100
AcDbEntity
   8
0
 370
-2
 100
AcDbLine
   6
BYBLOCK
  62
0
  10
0.0
  20
0.0
  30
0.0
  11
-1.0000000000000
  21
0.0
  31
0.0
   0
ENDBLK
   5
86
 100
AcDbEntity
   8
0
 100
AcDbBlockEnd
   0
BLOCK
   5
87
 100
AcDbEntity
   8
0
 100
AcDbBlockBegin
   2
_OPEN30
  70
0
  10
0.0
  20
0.0
  30
0.0
   3
_OPEN30
   0
LINE
   5
88
 100
AcDbEntity
   8
0
 370
-2
 100
AcDbLine
   6
BYBLOCK
  62
0
  10
-1.0000000000000
  20
 0.26794919243110
  30
0.0
  11
0.0
  21
0.0
  31
0.0
   0
LINE
   5
89
 100
AcDbEntity
   8
0
 370
-2
 100
AcDbLine
   6
BYBLOCK
  62
0
  10
0.0
  20
0.0
  30
0.0
  11
-1.0000000000000
  21
-0.26794919243110
  31
0.0
   0
LINE
   5
8A
 100
AcDbEntity
   8
0
 370
-2
 100
AcDbLine
   6
BYBLOCK
  62
0
  10
0.0
  20
0.0
  30
0.0
  11
-1.0000000000000
  21
0.0
  31
0.0
   0
ENDBLK
   5
8B
 100
AcDbEntity
   8
0
 100
AcDbBlockEnd
   0
BLOCK
   5
8C
 100
AcDbEntity
   8
0
 100
AcDbBlockBegin
   2
_OPEN90
  70
0
  10
0.0
  20
0.0
  30
0.0
   3
_OPEN90
   0
LINE
   5
8D
 100
AcDbEntity
   8
0
 370
-2
 100
AcDbLine
   6
BYBLOCK
  62
0
  10
-0.50000000000000
  20
 0.50000000000000
  30
0.0
  11
0.0
  21
0.0
  31
0.0
   0
LINE
   5
8E
 100
AcDbEntity
   8
0
 370
-2
 100
AcDbLine
   6
BYBLOCK
  62
0
  10
0.0
  20
0.0
  30
0.0
  11
-0.50000000000000
  21
-0.50000000000000
  31
0.0
   0
LINE
   5
8F
 100
AcDbEntity
   8
0
 370
-2
 100
AcDbLine
   6
BYBLOCK
  62
0
  10
0.0
  20
0.0
  30
0.0
  11
-1.0000000000000
  21
0.0
  31
0.0
   0
ENDBLK
   5
90
 100
AcDbEntity
   8
0
 100
AcDbBlockEnd
   0
BLOCK
   5
91
 100
AcDbEntity
   8
0
 100
AcDbBlockBegin
   2
_CLOSEDBLANK
  70
0
  10
0.0
  20
0.0
  30
0.0
   3
_CLOSEDBLANK
   0
LINE
   5
92
 100
AcDbEntity
   8
0
 370
-2
 100
AcDbLine
   6
BYBLOCK
  62
0
  10
-1.0000000000000
  20
 0.16666666666667
  30
0.0
  11
0.0
  21
0.0
  31
0.0
   0
LINE
   5
93
 100
AcDbEntity
   8
0
 370
-2
 100
AcDbLine
   6
BYBLOCK
  62
0
  10
0.0
  20
0.0
  30
0.0
  11
-1.0000000000000
  21
-0.16666666666667
  31
0.0
   0
LINE
   5
94
 100
AcDbEntity
   8
0
 370
-2
 100
AcDbLine
   6
BYBLOCK
  62
0
  10
-1.0000000000000
  20
 0.16666666666667
  30
0.0
  11
-1.0000000000000
  21
-0.16666666666667
  31
0.0
   0
ENDBLK
   5
95
 100
AcDbEntity
   8
0
 100
AcDbBlockEnd
   0
BLOCK
   5
96
 100
AcDbEntity
   8
0
 100
AcDbBlockBegin
   2
_DOT
  70
0
  10
0.0
  20
0.0
  30
0.0
   3
_DOT
   0
POLYLINE
   5
97
 100
AcDbEntity
   8
0
 370
-2
   6
BYBLOCK
  62
0
 100
AcDb2dPolyline
  66
1
  10
0.0
  20
0.0
  30
0.0
  70
1
  40
 0.50000000000000
  41
 0.50000000000000
   0
VERTEX
   5
98
 100
AcDbEntity
   8
0
   6
BYBLOCK
  62
0
 100
AcDbVertex
 100
AcDb2dVertex
  10
-0.25000000000000
  20
0.0
  30
0.0
  42
 1.0000000000000
  40
 0.50000000000000
  41
 0.50000000000000
   0
VERTEX
   5
99
 100
AcDbEntity
   8
0
   6
BYBLOCK
  62
0
 100
AcDbVertex
 100
AcDb2dVertex
  10
 0.25000000000000
  20
0.0
  30
0.0
  42
 1.0000000000000
  40
 0.50000000000000
  41
 0.50000000000000
   0
SEQEND
   5
9A
 100
AcDbEntity
   8
0
   6
BYBLOCK
  62
0
   0
LINE
   5
9B
 100
AcDbEntity
   8
0
 370
-2
 100
AcDbLine
   6
BYBLOCK
  62
0
  10
-0.50000000000000
  20
0.0
  30
0.0
  11
-1.0000000000000
  21
0.0
  31
0.0
   0
ENDBLK
   5
9C
 100
AcDbEntity
   8
0
 100
AcDbBlockEnd
   0
BLOCK
   5
9D
 100
AcDbEntity
   8
0
 100
AcDbBlockBegin
   2
_DOTSMALL
  70
0
  10
0.0
  20
0.0
  30
0.0
   3
_DOTSMALL
   0
POLYLINE
   5
9E
 100
AcDbEntity
   8
0
 370
-2
   6
BYBLOCK
  62
0
 100
AcDb2dPolyline
  66
1
  10
0.0
  20
0.0
  30
0.0
  70
1
  40
 0.50000000000000
  41
 0.50000000000000
   0
VERTEX
   5
9F
 100
AcDbEntity
   8
0
   6
BYBLOCK
  62
0
 100
AcDbVertex
 100
AcDb2dVertex
  10
-0.62500000000000E-1
  20
0.0
  30
0.0
  42
 1.0000000000000
  40
 0.50000000000000
  41
 0.50000000000000
   0
VERTEX
   5
A0
 100
AcDbEntity
   8
0
   6
BYBLOCK
  62
0
 100
AcDbVertex
 100
AcDb2dVertex
  10
 0.62500000000000E-1
  20
0.0
  30
0.0
  42
 1.0000000000000
  40
 0.50000000000000
  41
 0.50000000000000
   0
SEQEND
   5
A1
 100
AcDbEntity
   8
0
   6
BYBLOCK
  62
0
   0
ENDBLK
   5
A2
 100
AcDbEntity
   8
0
 100
AcDbBlockEnd
   0
BLOCK
   5
A3
 100
AcDbEntity
   8
0
 100
AcDbBlockBegin
   2
_DATUMBLANK
  70
0
  10
0.0
  20
0.0
  30
0.0
   3
_DATUMBLANK
   0
LINE
   5
A4
 100
AcDbEntity
   8
0
 370
-2
 100
AcDbLine
   6
BYBLOCK
  62
0
  10
0.0
  20
 0.57735027000000
  30
0.0
  11
-1.0000000000000
  21
0.0
  31
0.0
   0
LINE
   5
A5
 100
AcDbEntity
   8
0
 370
-2
 100
AcDbLine
   6
BYBLOCK
  62
0
  10
-1.0000000000000
  20
0.0
  30
0.0
  11
0.0
  21
-0.57735027000000
  31
0.0
   0
LINE
   5
A6
 100
AcDbEntity
   8
0
 370
-2
 100
AcDbLine
   6
BYBLOCK
  62
0
  10
0.0
  20
-0.57735027000000
  30
0.0
  11
0.0
  21
 0.57735027000000
  31
0.0
   0
ENDBLK
   5
A7
 100
AcDbEntity
   8
0
 100
AcDbBlockEnd
   0
BLOCK
   5
A8
 100
AcDbEntity
   8
0
 100
AcDbBlockBegin
   2
_DATUMFILLED
  70
0
  10
0.0
  20
0.0
  30
0.0
   3
_DATUMFILLED
   0
SOLID
   5
A9
 100
AcDbEntity
   8
0
 100
AcDbTrace
   6
BYBLOCK
  62
0
  10
0.0
  20
 0.57735027000000
  30
0.0
  11
-1.0000000000000
  21
0.0
  31
0.0
  12
0.0
  22
-0.57735027000000
  32
0.0
  13
0.0
  23
-0.57735027000000
  33
0.0
   0
ENDBLK
   5
AA
 100
AcDbEntity
   8
0
 100
AcDbBlockEnd
   0
BLOCK
   5
AB
 100
AcDbEntity
   8
0
 100
AcDbBlockBegin
   2
_ORIGIN
  70
0
  10
0.0
  20
0.0
  30
0.0
   3
_ORIGIN
   0
CIRCLE
   5
AC
 100
AcDbEntity
   8
0
 370
-2
 100
AcDbCircle
   6
BYBLOCK
  62
0
  10
0.0
  20
0.0
  30
0.0
  40
 0.50000000000000
   0
LINE
   5
AD
 100
AcDbEntity
   8
0
 370
-2
 100
AcDbLine
   6
BYBLOCK
  62
0
  10
0.0
  20
0.0
  30
0.0
  11
-1.0000000000000
  21
0.0
  31
0.0
   0
ENDBLK
   5
AE
 100
AcDbEntity
   8
0
 100
AcDbBlockEnd
   0
BLOCK
   5
AF
 100
AcDbEntity
   8
0
 100
AcDbBlockBegin
   2
_NONE
  70
0
  10
0.0
  20
0.0
  30
0.0
   3
_NONE
   0
CIRCLE
   5
B0
 100
AcDbEntity
   8
0
 370
-2
 100
AcDbCircle
   6
BYBLOCK
  62
0
  10
0.0
  20
0.0
  30
0.0
  40
 0.25000000000000
   0
ENDBLK
   5
B1
 100
AcDbEntity
   8
0
 100
AcDbBlockEnd
   0
BLOCK
   5
B2
 100
AcDbEntity
   8
0
 100
AcDbBlockBegin
   2
_DOTBLANK
  70
0
  10
0.0
  20
0.0
  30
0.0
   3
_DOTBLANK
   0
CIRCLE
   5
B3
 100
AcDbEntity
   8
0
 370
-2
 100
AcDbCircle
   6
BYBLOCK
  62
0
  10
0.0
  20
0.0
  30
0.0
  40
 0.50000000000000
   0
LINE
   5
B4
 100
AcDbEntity
   8
0
 370
-2
 100
AcDbLine
   6
BYBLOCK
  62
0
  10
-0.50000000000000
  20
0.0
  30
0.0
  11
-1.0000000000000
  21
0.0
  31
0.0
   0
ENDBLK
   5
B5
 100
AcDbEntity
   8
0
 100
AcDbBlockEnd
   0
BLOCK
   5
B6
 100
AcDbEntity
   8
0
 100
AcDbBlockBegin
   2
_INTEGRAL
  70
0
  10
0.0
  20
0.0
  30
0.0
   3
_INTEGRAL
   0
ARC
   5
B7
 100
AcDbEntity
   8
0
 370
-2
   6
BYBLOCK
  62
0
 100
AcDbCircle
  10
 0.44488800000000
  20
-0.91335000000000E-1
  30
0.0
  40
 0.45416700000000
 100
AcDbArc
  50
 102.00000000000
  51
 168.00000000000
   0
ARC
   5
B8
 100
AcDbEntity
   8
0
 370
-2
   6
BYBLOCK
  62
0
 100
AcDbCircle
  10
-0.44488800000000
  20
 0.91335000000000E-1
  30
0.0
  40
 0.45416700000000
 100
AcDbArc
  50
 282.00000000000
  51
 348.00000000000
   0
ENDBLK
   5
B9
 100
AcDbEntity
   8
0
 100
AcDbBlockEnd
   0
BLOCK
   5
BA
 100
AcDbEntity
   8
0
 100
AcDbBlockBegin
   2
*D9
  70
65
  10
0.0
  20
0.0
  30
0.0
   3
*D9
   0
LINE
   5
BB
 100
AcDbEntity
   8
LEVEL001
 370
13
 100
AcDbLine
   6
CONTINUOUS
  62
6
  10
 1141.1683699419
  20
 538.65168539326
  30
0.0
  11
 1141.1683699419
  21
 338.65168539326
  31
0.0
   0
LINE
   5
BC
 100
AcDbEntity
   8
LEVEL001
 370
13
 100
AcDbLine
   6
CONTINUOUS
  62
6
  10
 1641.1683699419
  20
 538.65168539326
  30
0.0
  11
 1641.1683699419
  21
 338.65168539326
  31
0.0
   0
LINE
   5
BD
 100
AcDbEntity
   8
LEVEL001
 370
13
 100
AcDbLine
   6
CONTINUOUS
  62
6
  10
 1141.1683699419
  20
 368.65168539326
  30
0.0
  11
 1641.1683699419
  21
 368.65168539326
  31
0.0
   0
INSERT
   5
BE
 100
AcDbEntity
   8
LEVEL001
   6
CONTINUOUS
  62
6
 100
AcDbBlockReference
   2
_OPEN
  10
 1141.1683699419
  20
 368.65168539326
  30
0.0
  41
 30.000000000000
  42
 30.000000000000
  43
 30.000000000000
  50
 180.00000000000
   0
INSERT
   5
BF
 100
AcDbEntity
   8
LEVEL001
   6
CONTINUOUS
  62
6
 100
AcDbBlockReference
   2
_OPEN
  10
 1641.1683699419
  20
 368.65168539326
  30
0.0
  41
 30.000000000000
  42
 30.000000000000
  43
 30.000000000000
  50
0.0
   0
MTEXT
   5
C0
 100
AcDbEntity
   8
LEVEL001
 370
13
  62
1
 100
AcDbMText
  10
 1391.1683699419
  20
 396.93739967897
  30
0.0
  40
 66.000000000000
  41
0.0
  71
8
  72
1
   1
\A1;□500
   7
GMM007
   0
ENDBLK
   5
C1
 100
AcDbEntity
   8
0
 100
AcDbBlockEnd
   0
BLOCK
   5
C2
 100
AcDbEntity
   8
0
 100
AcDbBlockBegin
   2
*D10
  70
65
  10
0.0
  20
0.0
  30
0.0
   3
*D10
   0
LINE
   5
C3
 100
AcDbEntity
   8
LEVEL001
 370
13
 100
AcDbLine
   6
CONTINUOUS
  62
6
  10
 1111.1683699419
  20
 568.65168539326
  30
0.0
  11
 611.16836994188
  21
 568.65168539326
  31
0.0
   0
LINE
   5
C4
 100
AcDbEntity
   8
LEVEL001
 370
13
 100
AcDbLine
   6
CONTINUOUS
  62
6
  10
 1111.1683699419
  20
 668.65168539326
  30
0.0
  11
 611.16836994188
  21
 668.65168539326
  31
0.0
   0
LINE
   5
C5
 100
AcDbEntity
   8
LEVEL001
 370
13
 100
AcDbLine
   6
CONTINUOUS
  62
6
  10
 641.16836994188
  20
 568.65168539326
  30
0.0
  11
 641.16836994188
  21
 668.65168539326
  31
0.0
   0
INSERT
   5
C6
 100
AcDbEntity
   8
LEVEL001
   6
CONTINUOUS
  62
6
 100
AcDbBlockReference
   2
_OPEN
  10
 641.16836994188
  20
 568.65168539326
  30
0.0
  41
 30.000000000000
  42
 30.000000000000
  43
 30.000000000000
  50
 270.00000000000
   0
INSERT
   5
C7
 100
AcDbEntity
   8
LEVEL001
   6
CONTINUOUS
  62
6
 100
AcDbBlockReference
   2
_OPEN
  10
 641.16836994188
  20
 668.65168539326
  30
0.0
  41
 30.000000000000
  42
 30.000000000000
  43
 30.000000000000
  50
 90.000000000000
   0
MTEXT
   5
C8
 100
AcDbEntity
   8
LEVEL001
 370
13
  62
1
 100
AcDbMText
  10
 612.88265565617
  20
 618.65168539326
  30
0.0
  40
 66.000000000000
  41
0.0
  71
8
  72
1
   1
\A1;100
   7
GMM007
  11
0.0
  21
 1.0000000000000
  31
0.0
   0
ENDBLK
   5
C9
 100
AcDbEntity
   8
0
 100
AcDbBlockEnd
   0
BLOCK
   5
CA
 100
AcDbEntity
   8
0
 100
AcDbBlockBegin
   2
*D11
  70
65
  10
0.0
  20
0.0
  30
0.0
   3
*D11
   0
LINE
   5
CB
 100
AcDbEntity
   8
LEVEL001
 370
13
 100
AcDbLine
   6
CONTINUOUS
  62
6
  10
 1111.1683699419
  20
 668.65168539326
  30
0.0
  11
 611.16836994188
  21
 668.65168539326
  31
0.0
   0
LINE
   5
CC
 100
AcDbEntity
   8
LEVEL001
 370
13
 100
AcDbLine
   6
CONTINUOUS
  62
6
  10
 811.16843517684
  20
 1868.6516853933
  30
0.0
  11
 611.16836994188
  21
 1868.6516853933
  31
0.0
   0
LINE
   5
CD
 100
AcDbEntity
   8
LEVEL001
 370
13
 100
AcDbLine
   6
CONTINUOUS
  62
6
  10
 641.16836994188
  20
 668.65168539326
  30
0.0
  11
 641.16836994188
  21
 1868.6516853933
  31
0.0
   0
INSERT
   5
CE
 100
AcDbEntity
   8
LEVEL001
   6
CONTINUOUS
  62
6
 100
AcDbBlockReference
   2
_OPEN
  10
 641.16836994188
  20
 668.65168539326
  30
0.0
  41
 30.000000000000
  42
 30.000000000000
  43
 30.000000000000
  50
 270.00000000000
   0
INSERT
   5
CF
 100
AcDbEntity
   8
LEVEL001
   6
CONTINUOUS
  62
6
 100
AcDbBlockReference
   2
_OPEN
  10
 641.16836994188
  20
 1868.6516853933
  30
0.0
  41
 30.000000000000
  42
 30.000000000000
  43
 30.000000000000
  50
 90.000000000000
   0
MTEXT
   5
D0
 100
AcDbEntity
   8
LEVEL001
 370
13
  62
1
 100
AcDbMText
  10
 612.88265565617
  20
 1268.6516853933
  30
0.0
  40
 66.000000000000
  41
0.0
  71
8
  72
1
   1
\A1;1200
   7
GMM007
  11
0.0
  21
 1.0000000000000
  31
0.0
   0
ENDBLK
   5
D1
 100
AcDbEntity
   8
0
 100
AcDbBlockEnd
   0
BLOCK
   5
D2
 100
AcDbEntity
   8
0
 100
AcDbBlockBegin
   2
*D12
  70
65
  10
0.0
  20
0.0
  30
0.0
   3
*D12
   0
LINE
   5
D3
 100
AcDbEntity
   8
LEVEL001
 370
13
 100
AcDbLine
   6
CONTINUOUS
  62
6
  10
 811.16843517684
  20
 1868.6516853933
  30
0.0
  11
 611.16836994188
  21
 1868.6516853933
  31
0.0
   0
LINE
   5
D4
 100
AcDbEntity
   8
LEVEL001
 370
13
 100
AcDbLine
   6
CONTINUOUS
  62
6
  10
 641.16836994188
  20
 4368.6516853933
  30
0.0
  11
 641.16836994188
  21
 4368.6516853933
  31
0.0
   0
LINE
   5
D5
 100
AcDbEntity
   8
LEVEL001
 370
13
 100
AcDbLine
   6
CONTINUOUS
  62
6
  10
 641.16836994188
  20
 1868.6516853933
  30
0.0
  11
 641.16836994188
  21
 4368.6516853933
  31
0.0
   0
INSERT
   5
D6
 100
AcDbEntity
   8
LEVEL001
   6
CONTINUOUS
  62
6
 100
AcDbBlockReference
   2
_OPEN
  10
 641.16836994188
  20
 1868.6516853933
  30
0.0
  41
 30.000000000000
  42
 30.000000000000
  43
 30.000000000000
  50
 270.00000000000
   0
INSERT
   5
D7
 100
AcDbEntity
   8
LEVEL001
   6
CONTINUOUS
  62
6
 100
AcDbBlockReference
   2
_OPEN
  10
 641.16836994188
  20
 4368.6516853933
  30
0.0
  41
 30.000000000000
  42
 30.000000000000
  43
 30.000000000000
  50
 90.000000000000
   0
MTEXT
   5
D8
 100
AcDbEntity
   8
LEVEL001
 370
13
  62
1
 100
AcDbMText
  10
 612.88265565617
  20
 3118.6516853933
  30
0.0
  40
 66.000000000000
  41
0.0
  71
8
  72
1
   1
\A1;2500(標準設置高さ)
   7
GMM007
  11
0.0
  21
 1.0000000000000
  31
0.0
   0
ENDBLK
   5
D9
 100
AcDbEntity
   8
0
 100
AcDbBlockEnd
   0
BLOCK
   5
DA
 100
AcDbEntity
   8
0
 100
AcDbBlockBegin
   2
*D16
  70
65
  10
0.0
  20
0.0
  30
0.0
   3
*D16
   0
LINE
   5
DB
 100
AcDbEntity
   8
LEVEL001
 370
13
 100
AcDbLine
   6
CONTINUOUS
  62
6
  10
 2491.1683699419
  20
 538.65168539326
  30
0.0
  11
 2491.1683699419
  21
 338.65168539326
  31
0.0
   0
LINE
   5
DC
 100
AcDbEntity
   8
LEVEL001
 370
13
 100
AcDbLine
   6
CONTINUOUS
  62
6
  10
 2991.1683699419
  20
 538.65168539326
  30
0.0
  11
 2991.1683699419
  21
 338.65168539326
  31
0.0
   0
LINE
   5
DD
 100
AcDbEntity
   8
LEVEL001
 370
13
 100
AcDbLine
   6
CONTINUOUS
  62
6
  10
 2491.1683699419
  20
 368.65168539326
  30
0.0
  11
 2991.1683699419
  21
 368.65168539326
  31
0.0
   0
INSERT
   5
DE
 100
AcDbEntity
   8
LEVEL001
   6
CONTINUOUS
  62
6
 100
AcDbBlockReference
   2
_OPEN
  10
 2491.1683699419
  20
 368.65168539326
  30
0.0
  41
 30.000000000000
  42
 30.000000000000
  43
 30.000000000000
  50
 180.00000000000
   0
INSERT
   5
DF
 100
AcDbEntity
   8
LEVEL001
   6
CONTINUOUS
  62
6
 100
AcDbBlockReference
   2
_OPEN
  10
 2991.1683699419
  20
 368.65168539326
  30
0.0
  41
 30.000000000000
  42
 30.000000000000
  43
 30.000000000000
  50
0.0
   0
MTEXT
   5
E0
 100
AcDbEntity
   8
LEVEL001
 370
13
  62
1
 100
AcDbMText
  10
 2741.1683699419
  20
 396.93739967897
  30
0.0
  40
 66.000000000000
  41
0.0
  71
8
  72
1
   1
\A1;□500
   7
GMM007
   0
ENDBLK
   5
E1
 100
AcDbEntity
   8
0
 100
AcDbBlockEnd
   0
BLOCK
   5
E2
 100
AcDbEntity
   8
0
 100
AcDbBlockBegin
   2
*D19
  70
65
  10
0.0
  20
0.0
  30
0.0
   3
*D19
   0
LINE
   5
E3
 100
AcDbEntity
   8
LEVEL001
 370
13
 100
AcDbLine
   6
CONTINUOUS
  62
6
  10
 2741.1683699419
  20
 2868.6516853933
  30
0.0
  11
 2741.1683699419
  21
 2868.6516853933
  31
0.0
   0
LINE
   5
E4
 100
AcDbEntity
   8
LEVEL001
 370
13
 100
AcDbLine
   6
CONTINUOUS
  62
6
  10
 3141.1683699419
  20
 4094.5914053310
  30
0.0
  11
 3141.1683699419
  21
 2838.6516853933
  31
0.0
   0
LINE
   5
E5
 100
AcDbEntity
   8
LEVEL001
 370
13
 100
AcDbLine
   6
CONTINUOUS
  62
6
  10
 2741.1683699419
  20
 2868.6516853933
  30
0.0
  11
 3141.1683699419
  21
 2868.6516853933
  31
0.0
   0
INSERT
   5
E6
 100
AcDbEntity
   8
LEVEL001
   6
CONTINUOUS
  62
6
 100
AcDbBlockReference
   2
_OPEN
  10
 2741.1683699419
  20
 2868.6516853933
  30
0.0
  41
 30.000000000000
  42
 30.000000000000
  43
 30.000000000000
  50
 180.00000000000
   0
INSERT
   5
E7
 100
AcDbEntity
   8
LEVEL001
   6
CONTINUOUS
  62
6
 100
AcDbBlockReference
   2
_OPEN
  10
 3141.1683699419
  20
 2868.6516853933
  30
0.0
  41
 30.000000000000
  42
 30.000000000000
  43
 30.000000000000
  50
0.0
   0
MTEXT
   5
E8
 100
AcDbEntity
   8
LEVEL001
 370
13
  62
1
 100
AcDbMText
  10
 2941.1683699419
  20
 2896.9373996790
  30
0.0
  40
 66.000000000000
  41
0.0
  71
8
  72
1
   1
\A1;400
   7
GMM007
   0
ENDBLK
   5
E9
 100
AcDbEntity
   8
0
 100
AcDbBlockEnd
   0
BLOCK
   5
EA
 100
AcDbEntity
   8
0
 100
AcDbBlockBegin
   2
*D20
  70
65
  10
0.0
  20
0.0
  30
0.0
   3
*D20
   0
LINE
   5
EB
 100
AcDbEntity
   8
LEVEL001
 370
13
 100
AcDbLine
   6
CONTINUOUS
  62
6
  10
 516.16836994188
  20
 4493.6516853933
  30
0.0
  11
 516.16836994188
  21
 4493.6516853933
  31
0.0
   0
LINE
   5
EC
 100
AcDbEntity
   8
LEVEL001
 370
13
 100
AcDbLine
   6
CONTINUOUS
  62
6
  10
 1316.1683699419
  20
 4493.6516853933
  30
0.0
  11
 1316.1683699419
  21
 4493.6516853933
  31
0.0
   0
LINE
   5
ED
 100
AcDbEntity
   8
LEVEL001
 370
13
 100
AcDbLine
   6
CONTINUOUS
  62
6
  10
 516.16836994188
  20
 4493.6516853933
  30
0.0
  11
 1316.1683699419
  21
 4493.6516853933
  31
0.0
   0
INSERT
   5
EE
 100
AcDbEntity
   8
LEVEL001
   6
CONTINUOUS
  62
6
 100
AcDbBlockReference
   2
_OPEN
  10
 516.16836994188
  20
 4493.6516853933
  30
0.0
  41
 30.000000000000
  42
 30.000000000000
  43
 30.000000000000
  50
 180.00000000000
   0
INSERT
   5
EF
 100
AcDbEntity
   8
LEVEL001
   6
CONTINUOUS
  62
6
 100
AcDbBlockReference
   2
_OPEN
  10
 1316.1683699419
  20
 4493.6516853933
  30
0.0
  41
 30.000000000000
  42
 30.000000000000
  43
 30.000000000000
  50
0.0
   0
MTEXT
   5
F0
 100
AcDbEntity
   8
LEVEL001
 370
13
  62
1
 100
AcDbMText
  10
 766.16836994188
  20
 4521.9373996790
  30
0.0
  40
 66.000000000000
  41
0.0
  71
8
  72
1
   1
\A1;800
   7
GMM007
   0
ENDBLK
   5
F1
 100
AcDbEntity
   8
0
 100
AcDbBlockEnd
   0
BLOCK
   5
F2
 100
AcDbEntity
   8
0
 100
AcDbBlockBegin
   2
*D21
  70
65
  10
0.0
  20
0.0
  30
0.0
   3
*D21
   0
LINE
   5
F3
 100
AcDbEntity
   8
LEVEL001
 370
13
 100
AcDbLine
   6
CONTINUOUS
  62
6
  10
 1203.6683699419
  20
 4368.6516853933
  30
0.0
  11
 1203.6683699419
  21
 4368.6516853933
  31
0.0
   0
LINE
   5
F4
 100
AcDbEntity
   8
LEVEL001
 370
13
 100
AcDbLine
   6
CONTINUOUS
  62
6
  10
 1203.6683699419
  20
 4968.6516853933
  30
0.0
  11
 1203.6683699419
  21
 4968.6516853933
  31
0.0
   0
LINE
   5
F5
 100
AcDbEntity
   8
LEVEL001
 370
13
 100
AcDbLine
   6
CONTINUOUS
  62
6
  10
 1203.6683699419
  20
 4368.6516853933
  30
0.0
  11
 1203.6683699419
  21
 4968.6516853933
  31
0.0
   0
INSERT
   5
F6
 100
AcDbEntity
   8
LEVEL001
   6
CONTINUOUS
  62
6
 100
AcDbBlockReference
   2
_OPEN
  10
 1203.6683699419
  20
 4368.6516853933
  30
0.0
  41
 30.000000000000
  42
 30.000000000000
  43
 30.000000000000
  50
 270.00000000000
   0
INSERT
   5
F7
 100
AcDbEntity
   8
LEVEL001
   6
CONTINUOUS
  62
6
 100
AcDbBlockReference
   2
_OPEN
  10
 1203.6683699419
  20
 4968.6516853933
  30
0.0
  41
 30.000000000000
  42
 30.000000000000
  43
 30.000000000000
  50
 90.000000000000
   0
MTEXT
   5
F8
 100
AcDbEntity
   8
LEVEL001
 370
13
  62
1
 100
AcDbMText
  10
 1175.3826556562
  20
 4806.1516853933
  30
0.0
  40
 66.000000000000
  41
0.0
  71
8
  72
1
   1
\A1;600
   7
GMM007
  11
0.0
  21
 1.0000000000000
  31
0.0
   0
ENDBLK
   5
F9
 100
AcDbEntity
   8
0
 100
AcDbBlockEnd
   0
ENDSEC
   0
SECTION
   2
ENTITIES
   0
MTEXT
   5
FB
 100
AcDbEntity
   8
LEVEL001
 370
13
  62
1
 100
AcDbMText
  10
 1391.1683699419
  20
 5500.0000000000
  30
0.0
  40
 80.000000000000
  41
0.0
  71
5
  72
1
   1
\T1.000000;正　面　図
   7
GMM001
  44
 0.79999984000003
   0
MTEXT
   5
FD
 100
AcDbEntity
   8
LEVEL001
 370
13
  62
1
 100
AcDbMText
  10
 3141.1683699419
  20
 5500.0000000000
  30
0.0
  40
 80.000000000000
  41
0.0
  71
5
  72
1
   1
\T1.000000;側　面　図
   7
GMM001
  44
 0.79999984000003
   0
MTEXT
   5
FF
 100
AcDbEntity
   8
LEVEL001
 370
13
  62
1
 100
AcDbMText
  10
 4391.1683699419
  20
 5500.0000000000
  30
0.0
  40
 80.000000000000
  41
0.0
  71
5
  72
1
   1
\T1.000000;背　面　図
   7
GMM001
  44
 0.79999984000003
   0
LINE
   5
100
 100
AcDbEntity
   8
LEVEL001
 370
13
 100
AcDbLine
   6
CONTINUOUS
  62
6
  10
 5602.0774608510
  20
 870.00000000000
  30
0.0
  11
 8117.8352400591
  21
 870.00000000000
  31
0.0
   0
MTEXT
   5
102
 100
AcDbEntity
   8
LEVEL001
 370
13
  62
1
 100
AcDbMText
  10
 5773.0564346050
  20
 1413.5736076959
  30
0.0
  40
 80.000000000000
  41
0.0
  71
9
  72
1
   1
\T1.000000;１３
   7
GMM002
  44
 0.79999984000003
   0
LINE
   5
103
 100
AcDbEntity
   8
LEVEL001
 370
13
 100
AcDbLine
   6
CONTINUOUS
  62
6
  10
 5602.0774608510
  20
 1130.0000000000
  30
0.0
  11
 8117.8352400591
  21
 1130.0000000000
  31
0.0
   0
LINE
   5
104
 100
AcDbEntity
   8
LEVEL001
 370
13
 100
AcDbLine
   6
CONTINUOUS
  62
6
  10
 5602.0774608510
  20
 1260.0000000000
  30
0.0
  11
 8117.8352400591
  21
 1260.0000000000
  31
0.0
   0
LINE
   5
105
 100
AcDbEntity
   8
LEVEL001
 370
13
 100
AcDbLine
   6
CONTINUOUS
  62
6
  10
 5602.0774608510
  20
 1390.0000000000
  30
0.0
  11
 8117.8352400591
  21
 1390.0000000000
  31
0.0
   0
LINE
   5
106
 100
AcDbEntity
   8
LEVEL001
 370
13
 100
AcDbLine
   6
CONTINUOUS
  62
6
  10
 5602.0774608510
  20
 1520.0000000000
  30
0.0
  11
 8117.8352400591
  21
 1520.0000000000
  31
0.0
   0
MTEXT
   5
108
 100
AcDbEntity
   8
LEVEL001
 370
13
  62
1
 100
AcDbMText
  10
 5773.0564346050
  20
 1283.5736076959
  30
0.0
  40
 80.000000000000
  41
0.0
  71
9
  72
1
   1
\T1.000000;１４
   7
GMM002
  44
 0.79999984000003
   0
MTEXT
   5
10A
 100
AcDbEntity
   8
LEVEL001
 370
13
  62
1
 100
AcDbMText
  10
 5773.0564346050
  20
 1153.5736076959
  30
0.0
  40
 80.000000000000
  41
0.0
  71
9
  72
1
   1
\T1.000000;１５
   7
GMM002
  44
 0.79999984000003
   0
LINE
   5
10B
 100
AcDbEntity
   8
LEVEL001
 370
13
 100
AcDbLine
   6
CONTINUOUS
  62
6
  10
 5602.0774608510
  20
 1000.0000000000
  30
0.0
  11
 8117.8352400591
  21
 1000.0000000000
  31
0.0
   0
MTEXT
   5
10D
 100
AcDbEntity
   8
LEVEL001
 370
13
  62
1
 100
AcDbMText
  10
 5852.0774608510
  20
 893.57360769589
  30
0.0
  40
 80.000000000000
  41
0.0
  71
7
  72
1
   1
\T1.000000;同上ボルトナット
   7
GMM003
  44
 0.79999984000003
   0
MTEXT
   5
10F
 100
AcDbEntity
   8
LEVEL001
 370
13
  62
1
 100
AcDbMText
  10
 5852.0774608510
  20
 1023.5736076959
  30
0.0
  40
 80.000000000000
  41
0.0
  71
7
  72
1
   1
\T1.000000;注意板取付バンド
   7
GMM003
  44
 0.79999984000003
   0
MTEXT
   5
111
 100
AcDbEntity
   8
LEVEL001
 370
13
  62
1
 100
AcDbMText
  10
 6823.0564346050
  20
 1153.5736076959
  30
0.0
  40
 80.000000000000
  41
0.0
  71
9
  72
1
   1
\T1.000000;１
   7
GMM003
  44
 0.79999984000003
   0
MTEXT
   5
113
 100
AcDbEntity
   8
LEVEL001
 370
13
  62
1
 100
AcDbMText
  10
 5852.0774608510
  20
 1283.5736076959
  30
0.0
  40
 80.000000000000
  41
0.0
  71
7
  72
1
   1
\T1.000000;キャップ
   7
GMM003
  44
 0.79999984000003
   0
MTEXT
   5
115
 100
AcDbEntity
   8
LEVEL001
 370
13
  62
1
 100
AcDbMText
  10
 6823.0564346050
  20
 1283.5736076959
  30
0.0
  40
 80.000000000000
  41
0.0
  71
9
  72
1
   1
\T1.000000;１
   7
GMM003
  44
 0.79999984000003
   0
MTEXT
   5
117
 100
AcDbEntity
   8
LEVEL001
 370
13
  62
1
 100
AcDbMText
  10
 6902.0774608510
  20
 1283.5736076959
  30
0.0
  40
 80.000000000000
  41
0.0
  71
7
  72
1
   1
\T1.000000;ＰＥ
   7
GMM003
  44
 0.79999984000003
   0
MTEXT
   5
119
 100
AcDbEntity
   8
LEVEL001
 370
13
  62
1
 100
AcDbMText
  10
 5852.0774608510
  20
 1413.5736076959
  30
0.0
  40
 80.000000000000
  41
0.0
  71
7
  72
1
   1
\T1.000000;根入れ鉄筋
   7
GMM003
  44
 0.79999984000003
   0
MTEXT
   5
11B
 100
AcDbEntity
   8
LEVEL001
 370
13
  62
1
 100
AcDbMText
  10
 5773.0564346050
  20
 1023.5736076959
  30
0.0
  40
 80.000000000000
  41
0.0
  71
9
  72
1
   1
\T1.000000;１６
   7
GMM002
  44
 0.79999984000003
   0
MTEXT
   5
11D
 100
AcDbEntity
   8
LEVEL001
 370
13
  62
1
 100
AcDbMText
  10
 5773.0564346050
  20
 893.57360769589
  30
0.0
  40
 80.000000000000
  41
0.0
  71
9
  72
1
   1
\T1.000000;１７
   7
GMM002
  44
 0.79999984000003
   0
MTEXT
   5
11F
 100
AcDbEntity
   8
LEVEL001
 370
13
  62
1
 100
AcDbMText
  10
 6902.0774608510
  20
 1413.5736076959
  30
0.0
  40
 80.000000000000
  41
0.0
  71
7
  72
1
   1
\T1.000000;ＳＤ２９５Ａ
   7
GMM003
  44
 0.79999984000003
   0
LINE
   5
120
 100
AcDbEntity
   8
LEVEL001
 370
13
 100
AcDbLine
   6
CONTINUOUS
  62
6
  10
 8117.8352400591
  20
 3780.0000000000
  30
0.0
  11
 8117.8352400591
  21
 870.00000000000
  31
0.0
   0
MTEXT
   5
122
 100
AcDbEntity
   8
LEVEL001
 370
13
  62
1
 100
AcDbMText
  10
 5773.0564346050
  20
 1673.5736076959
  30
0.0
  40
 80.000000000000
  41
0.0
  71
9
  72
1
   1
\T1.000000;１２
   7
GMM002
  44
 0.79999984000003
   0
MTEXT
   5
124
 100
AcDbEntity
   8
LEVEL001
 370
13
  62
1
 100
AcDbMText
  10
 5773.0564346050
  20
 1803.5736076959
  30
0.0
  40
 80.000000000000
  41
0.0
  71
9
  72
1
   1
\T1.000000;１１
   7
GMM002
  44
 0.79999984000003
   0
MTEXT
   5
126
 100
AcDbEntity
   8
LEVEL001
 370
13
  62
1
 100
AcDbMText
  10
 5773.0564346050
  20
 1933.5736076959
  30
0.0
  40
 80.000000000000
  41
0.0
  71
9
  72
1
   1
\T1.000000;１０
   7
GMM002
  44
 0.79999984000003
   0
MTEXT
   5
128
 100
AcDbEntity
   8
LEVEL001
 370
13
  62
1
 100
AcDbMText
  10
 5773.0564346050
  20
 2063.5736076959
  30
0.0
  40
 80.000000000000
  41
0.0
  71
9
  72
1
   1
\T1.000000;９
   7
GMM002
  44
 0.79999984000003
   0
MTEXT
   5
12A
 100
AcDbEntity
   8
LEVEL001
 370
13
  62
1
 100
AcDbMText
  10
 5773.0564346050
  20
 2193.5736076959
  30
0.0
  40
 80.000000000000
  41
0.0
  71
9
  72
1
   1
\T1.000000;８
   7
GMM002
  44
 0.79999984000003
   0
MTEXT
   5
12C
 100
AcDbEntity
   8
LEVEL001
 370
13
  62
1
 100
AcDbMText
  10
 5773.0564346050
  20
 2323.5736076959
  30
0.0
  40
 80.000000000000
  41
0.0
  71
9
  72
1
   1
\T1.000000;７
   7
GMM002
  44
 0.79999984000003
   0
MTEXT
   5
12E
 100
AcDbEntity
   8
LEVEL001
 370
13
  62
1
 100
AcDbMText
  10
 5773.0564346050
  20
 2453.5736076959
  30
0.0
  40
 80.000000000000
  41
0.0
  71
9
  72
1
   1
\T1.000000;６
   7
GMM002
  44
 0.79999984000003
   0
MTEXT
   5
130
 100
AcDbEntity
   8
LEVEL001
 370
13
  62
1
 100
AcDbMText
  10
 5773.0564346050
  20
 2583.5736076959
  30
0.0
  40
 80.000000000000
  41
0.0
  71
9
  72
1
   1
\T1.000000;５
   7
GMM002
  44
 0.79999984000003
   0
MTEXT
   5
132
 100
AcDbEntity
   8
LEVEL001
 370
13
  62
1
 100
AcDbMText
  10
 5773.0564346050
  20
 2713.5736076959
  30
0.0
  40
 80.000000000000
  41
0.0
  71
9
  72
1
   1
\T1.000000;４
   7
GMM002
  44
 0.79999984000003
   0
MTEXT
   5
134
 100
AcDbEntity
   8
LEVEL001
 370
13
  62
1
 100
AcDbMText
  10
 5773.0564346050
  20
 2843.5736076959
  30
0.0
  40
 80.000000000000
  41
0.0
  71
9
  72
1
   1
\T1.000000;３
   7
GMM002
  44
 0.79999984000003
   0
MTEXT
   5
136
 100
AcDbEntity
   8
LEVEL001
 370
13
  62
1
 100
AcDbMText
  10
 5852.0774608510
  20
 2843.5736076959
  30
0.0
  40
 80.000000000000
  41
0.0
  71
7
  72
1
   1
\T1.000000;フード
   7
GMM003
  44
 0.79999984000003
   0
MTEXT
   5
138
 100
AcDbEntity
   8
LEVEL001
 370
13
  62
1
 100
AcDbMText
  10
 5773.0564346050
  20
 2973.5736076959
  30
0.0
  40
 80.000000000000
  41
0.0
  71
9
  72
1
   1
\T1.000000;２
   7
GMM002
  44
 0.79999984000003
   0
MTEXT
   5
13A
 100
AcDbEntity
   8
LEVEL001
 370
13
  62
1
 100
AcDbMText
  10
 5852.0774608510
  20
 2973.5736076959
  30
0.0
  40
 80.000000000000
  41
0.0
  71
7
  72
1
   1
\T1.000000;バックプレート
   7
GMM003
  44
 0.79999984000003
   0
LINE
   5
13B
 100
AcDbEntity
   8
LEVEL001
 370
13
 100
AcDbLine
   6
CONTINUOUS
  62
6
  10
 5602.0774608510
  20
 1780.0000000000
  30
0.0
  11
 8117.8352400591
  21
 1780.0000000000
  31
0.0
   0
LINE
   5
13C
 100
AcDbEntity
   8
LEVEL001
 370
13
 100
AcDbLine
   6
CONTINUOUS
  62
6
  10
 5602.0774608510
  20
 1910.0000000000
  30
0.0
  11
 8117.8352400591
  21
 1910.0000000000
  31
0.0
   0
LINE
   5
13D
 100
AcDbEntity
   8
LEVEL001
 370
13
 100
AcDbLine
   6
CONTINUOUS
  62
6
  10
 5602.0774608510
  20
 2040.0000000000
  30
0.0
  11
 8117.8352400591
  21
 2040.0000000000
  31
0.0
   0
LINE
   5
13E
 100
AcDbEntity
   8
LEVEL001
 370
13
 100
AcDbLine
   6
CONTINUOUS
  62
6
  10
 5602.0774608510
  20
 2170.0000000000
  30
0.0
  11
 8117.8352400591
  21
 2170.0000000000
  31
0.0
   0
LINE
   5
13F
 100
AcDbEntity
   8
LEVEL001
 370
13
 100
AcDbLine
   6
CONTINUOUS
  62
6
  10
 5602.0774608510
  20
 2300.0000000000
  30
0.0
  11
 8117.8352400591
  21
 2300.0000000000
  31
0.0
   0
LINE
   5
140
 100
AcDbEntity
   8
LEVEL001
 370
13
 100
AcDbLine
   6
CONTINUOUS
  62
6
  10
 5602.0774608510
  20
 2430.0000000000
  30
0.0
  11
 8117.8352400591
  21
 2430.0000000000
  31
0.0
   0
LINE
   5
141
 100
AcDbEntity
   8
LEVEL001
 370
13
 100
AcDbLine
   6
CONTINUOUS
  62
6
  10
 5602.0774608510
  20
 2560.0000000000
  30
0.0
  11
 8117.8352400591
  21
 2560.0000000000
  31
0.0
   0
LINE
   5
142
 100
AcDbEntity
   8
LEVEL001
 370
13
 100
AcDbLine
   6
CONTINUOUS
  62
6
  10
 5602.0774608510
  20
 2690.0000000000
  30
0.0
  11
 8117.8352400591
  21
 2690.0000000000
  31
0.0
   0
LINE
   5
143
 100
AcDbEntity
   8
LEVEL001
 370
13
 100
AcDbLine
   6
CONTINUOUS
  62
6
  10
 5602.0774608510
  20
 2820.0000000000
  30
0.0
  11
 8117.8352400591
  21
 2820.0000000000
  31
0.0
   0
LINE
   5
144
 100
AcDbEntity
   8
LEVEL001
 370
13
 100
AcDbLine
   6
CONTINUOUS
  62
6
  10
 5602.0774608510
  20
 2950.0000000000
  30
0.0
  11
 8117.8352400591
  21
 2950.0000000000
  31
0.0
   0
LINE
   5
145
 100
AcDbEntity
   8
LEVEL001
 370
13
 100
AcDbLine
   6
CONTINUOUS
  62
6
  10
 5602.0774608510
  20
 3080.0000000000
  30
0.0
  11
 8117.8352400591
  21
 3080.0000000000
  31
0.0
   0
MTEXT
   5
147
 100
AcDbEntity
   8
LEVEL001
 370
13
  62
1
 100
AcDbMText
  10
 6823.0564346050
  20
 2973.5736076959
  30
0.0
  40
 80.000000000000
  41
0.0
  71
9
  72
1
   1
\T1.000000;２
   7
GMM003
  44
 0.79999984000003
   0
MTEXT
   5
149
 100
AcDbEntity
   8
LEVEL001
 370
13
  62
1
 100
AcDbMText
  10
 6823.0564346050
  20
 2843.5736076959
  30
0.0
  40
 80.000000000000
  41
0.0
  71
9
  72
1
   1
\T1.000000;２
   7
GMM003
  44
 0.79999984000003
   0
MTEXT
   5
14B
 100
AcDbEntity
   8
LEVEL001
 370
13
  62
1
 100
AcDbMText
  10
 6902.0774608510
  20
 2973.5736076959
  30
0.0
  40
 80.000000000000
  41
0.0
  71
7
  72
1
   1
\T1.000000;ＦＲＰ
   7
GMM003
  44
 0.79999984000003
   0
MTEXT
   5
14D
 100
AcDbEntity
   8
LEVEL001
 370
13
  62
1
 100
AcDbMText
  10
 6902.0774608510
  20
 2843.5736076959
  30
0.0
  40
 80.000000000000
  41
0.0
  71
7
  72
1
   1
\T1.000000;ＰＣ
   7
GMM003
  44
 0.79999984000003
   0
MTEXT
   5
14F
 100
AcDbEntity
   8
LEVEL001
 370
13
  62
1
 100
AcDbMText
  10
 6902.0774608510
  20
 2063.5736076959
  30
0.0
  40
 80.000000000000
  41
0.0
  71
7
  72
1
   1
\T1.000000;ＳＳ４００
   7
GMM003
  44
 0.79999984000003
   0
MTEXT
   5
151
 100
AcDbEntity
   8
LEVEL001
 370
13
  62
1
 100
AcDbMText
  10
 5852.0774608510
  20
 2063.5736076959
  30
0.0
  40
 80.000000000000
  41
0.0
  71
7
  72
1
   1
\T1.000000;金具締付ボルトナット
   7
GMM003
  44
 0.79999984000003
   0
MTEXT
   5
153
 100
AcDbEntity
   8
LEVEL001
 370
13
  62
1
 100
AcDbMText
  10
 6902.0774608510
  20
 2193.5736076959
  30
0.0
  40
 80.000000000000
  41
0.0
  71
7
  72
1
   1
\T1.000000;ＳＳ４００
   7
GMM003
  44
 0.79999984000003
   0
MTEXT
   5
155
 100
AcDbEntity
   8
LEVEL001
 370
13
  62
1
 100
AcDbMText
  10
 5852.0774608510
  20
 2193.5736076959
  30
0.0
  40
 80.000000000000
  41
0.0
  71
7
  72
1
   1
\T1.000000;裏板金具取付ボルト
   7
GMM003
  44
 0.79999984000003
   0
MTEXT
   5
157
 100
AcDbEntity
   8
LEVEL001
 370
13
  62
1
 100
AcDbMText
  10
 6902.0774608510
  20
 2323.5736076959
  30
0.0
  40
 80.000000000000
  41
0.0
  71
7
  72
1
   1
\T1.000000;ＳＳ４００
   7
GMM003
  44
 0.79999984000003
   0
MTEXT
   5
159
 100
AcDbEntity
   8
LEVEL001
 370
13
  62
1
 100
AcDbMText
  10
 5852.0774608510
  20
 2323.5736076959
  30
0.0
  40
 80.000000000000
  41
0.0
  71
7
  72
1
   1
\T1.000000;支柱取付金具
   7
GMM003
  44
 0.79999984000003
   0
MTEXT
   5
15B
 100
AcDbEntity
   8
LEVEL001
 370
13
  62
1
 100
AcDbMText
  10
 5852.0774608510
  20
 2453.5736076959
  30
0.0
  40
 80.000000000000
  41
0.0
  71
7
  72
1
   1
\T1.000000;裏板取付金具
   7
GMM003
  44
 0.79999984000003
   0
MTEXT
   5
15D
 100
AcDbEntity
   8
LEVEL001
 370
13
  62
1
 100
AcDbMText
  10
 6902.0774608510
  20
 2453.5736076959
  30
0.0
  40
 80.000000000000
  41
0.0
  71
7
  72
1
   1
\T1.000000;ＳＳ４００
   7
GMM003
  44
 0.79999984000003
   0
MTEXT
   5
15F
 100
AcDbEntity
   8
LEVEL001
 370
13
  62
1
 100
AcDbMText
  10
 6823.0564346050
  20
 2193.5736076959
  30
0.0
  40
 80.000000000000
  41
0.0
  71
9
  72
1
   1
\T1.000000;８
   7
GMM003
  44
 0.79999984000003
   0
MTEXT
   5
161
 100
AcDbEntity
   8
LEVEL001
 370
13
  62
1
 100
AcDbMText
  10
 5852.0774608510
  20
 1673.5736076959
  30
0.0
  40
 80.000000000000
  41
0.0
  71
7
  72
1
   1
\T1.000000;支柱
   7
GMM003
  44
 0.79999984000003
   0
MTEXT
   5
163
 100
AcDbEntity
   8
LEVEL001
 370
13
  62
1
 100
AcDbMText
  10
 6823.0564346050
  20
 1673.5736076959
  30
0.0
  40
 80.000000000000
  41
0.0
  71
9
  72
1
   1
\T1.000000;１
   7
GMM003
  44
 0.79999984000003
   0
MTEXT
   5
165
 100
AcDbEntity
   8
LEVEL001
 370
13
  62
1
 100
AcDbMText
  10
 6902.0774608510
  20
 1673.5736076959
  30
0.0
  40
 80.000000000000
  41
0.0
  71
7
  72
1
   1
\T1.000000;ＳＴＫ４００
   7
GMM003
  44
 0.79999984000003
   0
MTEXT
   5
167
 100
AcDbEntity
   8
LEVEL001
 370
13
  62
1
 100
AcDbMText
  10
 5852.0774608510
  20
 1803.5736076959
  30
0.0
  40
 80.000000000000
  41
0.0
  71
7
  72
1
   1
\T1.000000;同上ボルトナット
   7
GMM003
  44
 0.79999984000003
   0
MTEXT
   5
169
 100
AcDbEntity
   8
LEVEL001
 370
13
  62
1
 100
AcDbMText
  10
 6902.0774608510
  20
 1933.5736076959
  30
0.0
  40
 80.000000000000
  41
0.0
  71
7
  72
1
   1
\T1.000000;ＳＳ４００
   7
GMM003
  44
 0.79999984000003
   0
MTEXT
   5
16B
 100
AcDbEntity
   8
LEVEL001
 370
13
  62
1
 100
AcDbMText
  10
 6902.0774608510
  20
 1803.5736076959
  30
0.0
  40
 80.000000000000
  41
0.0
  71
7
  72
1
   1
\T1.000000;ＳＳ４００
   7
GMM003
  44
 0.79999984000003
   0
MTEXT
   5
16D
 100
AcDbEntity
   8
LEVEL001
 370
13
  62
1
 100
AcDbMText
  10
 5852.0774608510
  20
 1933.5736076959
  30
0.0
  40
 80.000000000000
  41
0.0
  71
7
  72
1
   1
\T1.000000;二面鏡用取付腕木
   7
GMM003
  44
 0.79999984000003
   0
MTEXT
   5
16F
 100
AcDbEntity
   8
LEVEL001
 370
13
  62
1
 100
AcDbMText
  10
 6823.0564346050
  20
 2063.5736076959
  30
0.0
  40
 80.000000000000
  41
0.0
  71
9
  72
1
   1
\T1.000000;８
   7
GMM003
  44
 0.79999984000003
   0
MTEXT
   5
171
 100
AcDbEntity
   8
LEVEL001
 370
13
  62
1
 100
AcDbMText
  10
 6823.0564346050
  20
 2713.5736076959
  30
0.0
  40
 80.000000000000
  41
0.0
  71
9
  72
1
   1
\T1.000000;２
   7
GMM003
  44
 0.79999984000003
   0
MTEXT
   5
173
 100
AcDbEntity
   8
LEVEL001
 370
13
  62
1
 100
AcDbMText
  10
 5852.0774608510
  20
 2713.5736076959
  30
0.0
  40
 80.000000000000
  41
0.0
  71
7
  72
1
   1
\T1.000000;取付枠
   7
GMM003
  44
 0.79999984000003
   0
MTEXT
   5
175
 100
AcDbEntity
   8
LEVEL001
 370
13
  62
1
 100
AcDbMText
  10
 5852.0774608510
  20
 2583.5736076959
  30
0.0
  40
 80.000000000000
  41
0.0
  71
7
  72
1
   1
\T1.000000;取付枠取付リベット
   7
GMM003
  44
 0.79999984000003
   0
MTEXT
   5
177
 100
AcDbEntity
   8
LEVEL001
 370
13
  62
1
 100
AcDbMText
  10
 6902.0774608510
  20
 2583.5736076959
  30
0.0
  40
 80.000000000000
  41
0.0
  71
7
  72
1
   1
\T1.000000;アルミニウム
   7
GMM003
  44
 0.79999984000003
   0
MTEXT
   5
179
 100
AcDbEntity
   8
LEVEL001
 370
13
  62
1
 100
AcDbMText
  10
 6902.0774608510
  20
 2713.5736076959
  30
0.0
  40
 80.000000000000
  41
0.0
  71
7
  72
1
   1
\T1.000000;ＦＲＰ
   7
GMM003
  44
 0.79999984000003
   0
MTEXT
   5
17B
 100
AcDbEntity
   8
LEVEL001
 370
13
  62
1
 100
AcDbMText
  10
 6823.0564346050
  20
 2583.5736076959
  30
0.0
  40
 80.000000000000
  41
0.0
  71
9
  72
1
   1
\T1.000000;２０
   7
GMM003
  44
 0.79999984000003
   0
MTEXT
   5
17D
 100
AcDbEntity
   8
LEVEL001
 370
13
  62
1
 100
AcDbMText
  10
 6823.0564346050
  20
 2453.5736076959
  30
0.0
  40
 80.000000000000
  41
0.0
  71
9
  72
1
   1
\T1.000000;２
   7
GMM003
  44
 0.79999984000003
   0
MTEXT
   5
17F
 100
AcDbEntity
   8
LEVEL001
 370
13
  62
1
 100
AcDbMText
  10
 6823.0564346050
  20
 2323.5736076959
  30
0.0
  40
 80.000000000000
  41
0.0
  71
9
  72
1
   1
\T1.000000;２
   7
GMM003
  44
 0.79999984000003
   0
MTEXT
   5
181
 100
AcDbEntity
   8
LEVEL001
 370
13
  62
1
 100
AcDbMText
  10
 6823.0564346050
  20
 1933.5736076959
  30
0.0
  40
 80.000000000000
  41
0.0
  71
9
  72
1
   1
\T1.000000;１
   7
GMM003
  44
 0.79999984000003
   0
MTEXT
   5
183
 100
AcDbEntity
   8
LEVEL001
 370
13
  62
1
 100
AcDbMText
  10
 6823.0564346050
  20
 1803.5736076959
  30
0.0
  40
 80.000000000000
  41
0.0
  71
9
  72
1
   1
\T1.000000;４
   7
GMM003
  44
 0.79999984000003
   0
MTEXT
   5
185
 100
AcDbEntity
   8
LEVEL001
 370
13
  62
1
 100
AcDbMText
  10
 7422.0774608510
  20
 2063.5736076959
  30
0.0
  40
 80.000000000000
  41
0.0
  71
7
  72
1
   1
\T1.000000;溶融亜鉛メッキ
   7
GMM003
  44
 0.79999984000003
   0
MTEXT
   5
187
 100
AcDbEntity
   8
LEVEL001
 370
13
  62
1
 100
AcDbMText
  10
 7422.0774608510
  20
 2193.5736076959
  30
0.0
  40
 80.000000000000
  41
0.0
  71
7
  72
1
   1
\T1.000000;溶融亜鉛メッキ
   7
GMM003
  44
 0.79999984000003
   0
MTEXT
   5
189
 100
AcDbEntity
   8
LEVEL001
 370
13
  62
1
 100
AcDbMText
  10
 7422.0774608510
  20
 2323.5736076959
  30
0.0
  40
 80.000000000000
  41
0.0
  71
7
  72
1
   1
\T1.000000;溶融亜鉛メッキ
   7
GMM003
  44
 0.79999984000003
   0
MTEXT
   5
18B
 100
AcDbEntity
   8
LEVEL001
 370
13
  62
1
 100
AcDbMText
  10
 7422.0774608510
  20
 1673.5736076959
  30
0.0
  40
 80.000000000000
  41
0.0
  71
7
  72
1
   1
\T1.000000;静電粉体塗装
   7
GMM003
  44
 0.79999984000003
   0
MTEXT
   5
18D
 100
AcDbEntity
   8
LEVEL001
 370
13
  62
1
 100
AcDbMText
  10
 7422.0774608510
  20
 1933.5736076959
  30
0.0
  40
 80.000000000000
  41
0.0
  71
7
  72
1
   1
\T1.000000;溶融亜鉛メッキ
   7
GMM003
  44
 0.79999984000003
   0
MTEXT
   5
18F
 100
AcDbEntity
   8
LEVEL001
 370
13
  62
1
 100
AcDbMText
  10
 7422.0774608510
  20
 1803.5736076959
  30
0.0
  40
 80.000000000000
  41
0.0
  71
7
  72
1
   1
\T1.000000;溶融亜鉛メッキ
   7
GMM003
  44
 0.79999984000003
   0
MTEXT
   5
191
 100
AcDbEntity
   8
LEVEL001
 370
13
  62
1
 100
AcDbMText
  10
 7422.0774608510
  20
 2453.5736076959
  30
0.0
  40
 80.000000000000
  41
0.0
  71
7
  72
1
   1
\T1.000000;溶融亜鉛メッキ
   7
GMM003
  44
 0.79999984000003
   0
MTEXT
   5
193
 100
AcDbEntity
   8
LEVEL001
 370
13
  62
1
 100
AcDbMText
  10
 7422.0774608510
  20
 2973.5736076959
  30
0.0
  40
 80.000000000000
  41
0.0
  71
7
  72
1
   1
\T1.000000;ＳＭＣ成型
   7
GMM003
  44
 0.79999984000003
   0
MTEXT
   5
195
 100
AcDbEntity
   8
LEVEL001
 370
13
  62
1
 100
AcDbMText
  10
 5773.0564346050
  20
 3363.5736076959
  30
0.0
  40
 80.000000000000
  41
0.0
  71
9
  72
1
   1
\T1.000000;１
   7
GMM002
  44
 0.79999984000003
   0
MTEXT
   5
197
 100
AcDbEntity
   8
LEVEL001
 370
13
  62
1
 100
AcDbMText
  10
 6752.0774608510
  20
 3540.0000000000
  30
0.0
  40
 80.000000000000
  41
0.0
  71
5
  72
1
   1
\T1.000000;個数
   7
GMM003
  44
 0.79999984000003
   0
MTEXT
   5
199
 100
AcDbEntity
   8
LEVEL001
 370
13
  62
1
 100
AcDbMText
  10
 6227.0774608510
  20
 3540.0000000000
  30
0.0
  40
 80.000000000000
  41
0.0
  71
5
  72
1
   1
\T1.000000;名　　称
   7
GMM003
  44
 0.79999984000003
   0
LINE
   5
19A
 100
AcDbEntity
   8
LEVEL001
 370
13
 100
AcDbLine
   6
CONTINUOUS
  62
6
  10
 5602.0774608510
  20
 3470.0000000000
  30
0.0
  11
 8117.8352400591
  21
 3470.0000000000
  31
0.0
   0
LINE
   5
19B
 100
AcDbEntity
   8
LEVEL001
 370
13
 100
AcDbLine
   6
CONTINUOUS
  62
6
  10
 5602.0774608510
  20
 3610.0000000000
  30
0.0
  11
 8117.8352400591
  21
 3610.0000000000
  31
0.0
   0
LINE
   5
19C
 100
AcDbEntity
   8
LEVEL001
 370
13
 100
AcDbLine
   6
CONTINUOUS
  62
6
  10
 5602.0774608510
  20
 3910.0000000000
  30
0.0
  11
 8117.8352400591
  21
 3910.0000000000
  31
0.0
   0
MTEXT
   5
19E
 100
AcDbEntity
   8
LEVEL001
 370
13
  62
1
 100
AcDbMText
  10
 6823.0564346050
  20
 3363.5736076959
  30
0.0
  40
 80.000000000000
  41
0.0
  71
9
  72
1
   1
\T1.000000;２
   7
GMM003
  44
 0.79999984000003
   0
MTEXT
   5
1A0
 100
AcDbEntity
   8
LEVEL001
 370
13
  62
1
 100
AcDbMText
  10
 5767.5053183266
  20
 3652.1545397593
  30
0.0
  40
 80.000000000000
  41
0.0
  71
7
  72
1
   1
\T1.000000;□６００×８００（ダブル）
   7
GMM001
  44
 0.79999984000003
   0
MTEXT
   5
1A2
 100
AcDbEntity
   8
LEVEL001
 370
13
  62
1
 100
AcDbMText
  10
 5852.0774608510
  20
 3363.5736076959
  30
0.0
  40
 80.000000000000
  41
0.0
  71
7
  72
1
   1
\T1.000000;鏡面　Ｒ＝３６００
   7
GMM003
  44
 0.79999984000003
   0
MTEXT
   5
1A4
 100
AcDbEntity
   8
LEVEL001
 370
13
  62
1
 100
AcDbMText
  10
 5767.5053183266
  20
 3789.5068305878
  30
0.0
  40
 80.000000000000
  41
0.0
  71
7
  72
1
   1
\T1.000000;アクリーン＜Ｆタイプ＞
   7
GMM001
  44
 0.79999984000003
   0
MTEXT
   5
1A6
 100
AcDbEntity
   8
LEVEL001
 370
13
  62
1
 100
AcDbMText
  10
 6902.0774608510
  20
 3363.5736076959
  30
0.0
  40
 80.000000000000
  41
0.0
  71
4
  72
1
   1
{\W0.900000;\T1.000000;ＰＭＭＡ}\P{\W0.450000;\T1.000000;(\W0.900000;\T1.000000;アクリル\W0.450000;\T1.000000;)}
   7
GMM003
  44
 0.79999984000003
   0
MTEXT
   5
1A8
 100
AcDbEntity
   8
LEVEL001
 370
13
  62
1
 100
AcDbMText
  10
 7422.0774608510
  20
 3443.5736076959
  30
0.0
  40
 80.000000000000
  41
0.0
  71
1
  72
1
   1
{\W0.325000;\T1.000000;t=3.0mm}\P{\W0.650000;\T1.000000;裏面：真空蒸着}\P{\W0.650000;\T1.000000;表面：超親水性コーティング}
   7
GMM004
  44
 0.79999984000003
   0
MTEXT
   5
1AA
 100
AcDbEntity
   8
LEVEL001
 370
13
  62
1
 100
AcDbMText
  10
 7112.0774608510
  20
 3540.0000000000
  30
0.0
  40
 80.000000000000
  41
0.0
  71
5
  72
1
   1
\T1.000000;材　　質
   7
GMM003
  44
 0.79999984000003
   0
MTEXT
   5
1AC
 100
AcDbEntity
   8
LEVEL001
 370
13
  62
1
 100
AcDbMText
  10
 7744.9563504550
  20
 3540.0000000000
  30
0.0
  40
 80.000000000000
  41
0.0
  71
5
  72
1
   1
\T1.000000;規格仕様
   7
GMM003
  44
 0.79999984000003
   0
MTEXT
   5
1AE
 100
AcDbEntity
   8
LEVEL001
 370
13
  62
1
 100
AcDbMText
  10
 5658.4836935072
  20
 4154.3113553114
  30
0.0
  40
 80.000000000000
  41
0.0
  71
4
  72
1
   1
{\T1.000000;※構成部材は改良のため、変更する場合があります。}\P{\T1.000000;※本図は道路反射鏡ハンドブックに基づいています。}
   7
GMM003
  44
 0.94999981000004
   0
MTEXT
   5
1B0
 100
AcDbEntity
   8
LEVEL001
 370
13
  62
1
 100
AcDbMText
  10
 6823.0564346050
  20
 1543.5736076959
  30
0.0
  40
 80.000000000000
  41
0.0
  71
9
  72
1
   1
\T1.000000;１
   7
GMM003
  44
 0.79999984000003
   0
MTEXT
   5
1B2
 100
AcDbEntity
   8
LEVEL001
 370
13
  62
1
 100
AcDbMText
  10
 6902.0774608510
  20
 1543.5736076959
  30
0.0
  40
 80.000000000000
  41
0.0
  71
7
  72
1
   1
\T1.000000;ＳＴＫ４００
   7
GMM003
  44
 0.79999984000003
   0
LINE
   5
1B3
 100
AcDbEntity
   8
LEVEL001
 370
13
 100
AcDbLine
   6
CONTINUOUS
  62
6
  10
 6652.0774608510
  20
 1650.0000000000
  30
0.0
  11
 8117.8352400591
  21
 1650.0000000000
  31
0.0
   0
MTEXT
   5
1B5
 100
AcDbEntity
   8
LEVEL001
 370
13
  62
1
 100
AcDbMText
  10
 7422.0774608510
  20
 1585.0000000000
  30
0.0
  40
 44.000000000000
  41
0.0
  71
4
  72
1
   1
{\T1.000000;下地亜鉛メッキ}\P{\T1.000000;＋静電粉体塗装}
   7
GMM005
  44
 0.79999984000003
   0
MTEXT
   5
1B7
 100
AcDbEntity
   8
LEVEL001
 370
13
  62
1
 100
AcDbMText
  10
 6823.0564346050
  20
 1023.5736076959
  30
0.0
  40
 80.000000000000
  41
0.0
  71
9
  72
1
   1
\T1.000000;１式
   7
GMM003
  44
 0.79999984000003
   0
MTEXT
   5
1B9
 100
AcDbEntity
   8
LEVEL001
 370
13
  62
1
 100
AcDbMText
  10
 6823.0564346050
  20
 893.57360769589
  30
0.0
  40
 80.000000000000
  41
0.0
  71
9
  72
1
   1
\T1.000000;１式
   7
GMM003
  44
 0.79999984000003
   0
MTEXT
   5
1BB
 100
AcDbEntity
   8
LEVEL001
 370
13
  62
1
 100
AcDbMText
  10
 6902.0774608510
  20
 893.57360769589
  30
0.0
  40
 80.000000000000
  41
0.0
  71
7
  72
1
   1
\T1.000000;―
   7
GMM003
  44
 0.79999984000003
   0
MTEXT
   5
1BD
 100
AcDbEntity
   8
LEVEL001
 370
13
  62
1
 100
AcDbMText
  10
 6902.0774608510
  20
 1023.5736076959
  30
0.0
  40
 80.000000000000
  41
0.0
  71
7
  72
1
   1
\T1.000000;―
   7
GMM003
  44
 0.79999984000003
   0
MTEXT
   5
1BF
 100
AcDbEntity
   8
LEVEL001
 370
13
  62
1
 100
AcDbMText
  10
 6902.0774608510
  20
 1153.5736076959
  30
0.0
  40
 80.000000000000
  41
0.0
  71
7
  72
1
   1
\T1.000000;―
   7
GMM003
  44
 0.79999984000003
   0
MTEXT
   5
1C1
 100
AcDbEntity
   8
LEVEL001
 370
13
  62
1
 100
AcDbMText
  10
 7422.0774608510
  20
 1153.5736076959
  30
0.0
  40
 80.000000000000
  41
0.0
  71
7
  72
1
   1
\T1.000000;―
   7
GMM003
  44
 0.79999984000003
   0
MTEXT
   5
1C3
 100
AcDbEntity
   8
LEVEL001
 370
13
  62
1
 100
AcDbMText
  10
 7422.0774608510
  20
 1023.5736076959
  30
0.0
  40
 80.000000000000
  41
0.0
  71
7
  72
1
   1
\T1.000000;―
   7
GMM003
  44
 0.79999984000003
   0
MTEXT
   5
1C5
 100
AcDbEntity
   8
LEVEL001
 370
13
  62
1
 100
AcDbMText
  10
 7422.0774608510
  20
 893.57360769589
  30
0.0
  40
 80.000000000000
  41
0.0
  71
7
  72
1
   1
\T1.000000;―
   7
GMM003
  44
 0.79999984000003
   0
LWPOLYLINE
   5
1C6
 100
AcDbEntity
   8
LEVEL001
 370
13
   6
CONTINUOUS
  62
6
 100
AcDbPolyline
  90
4
  70
1
  10
 5602.0774608510
  20
 3910.0000000000
  10
 5602.0774608510
  20
 870.00000000000
  10
 8117.8352400591
  20
 870.00000000000
  10
 8117.8352400591
  20
 3910.0000000000
   0
LINE
   5
1C7
 100
AcDbEntity
   8
LEVEL001
 370
13
 100
AcDbLine
   6
CONTINUOUS
  62
6
  10
 7372.0774608510
  20
 3610.0000000000
  30
0.0
  11
 7372.0774608510
  21
 870.00000000000
  31
0.0
   0
LINE
   5
1C8
 100
AcDbEntity
   8
LEVEL001
 370
13
 100
AcDbLine
   6
CONTINUOUS
  62
6
  10
 6852.0774608510
  20
 3610.0000000000
  30
0.0
  11
 6852.0774608510
  21
 870.00000000000
  31
0.0
   0
LINE
   5
1C9
 100
AcDbEntity
   8
LEVEL001
 370
13
 100
AcDbLine
   6
CONTINUOUS
  62
6
  10
 6652.0774608510
  20
 3610.0000000000
  30
0.0
  11
 6652.0774608510
  21
 870.00000000000
  31
0.0
   0
LINE
   5
1CA
 100
AcDbEntity
   8
LEVEL001
 370
13
 100
AcDbLine
   6
CONTINUOUS
  62
6
  10
 5802.0774608510
  20
 3610.0000000000
  30
0.0
  11
 5802.0774608510
  21
 870.00000000000
  31
0.0
   0
LINE
   5
1CB
 100
AcDbEntity
   8
LEVEL001
 370
13
 100
AcDbLine
   6
CONTINUOUS
  62
1
  10
 5602.0774608510
  20
 650.00000000000
  30
0.0
  11
 7242.0774608510
  21
 650.00000000000
  31
0.0
   0
MTEXT
   5
1CC
 100
AcDbEntity
   8
LEVEL001
 370
13
  62
1
 100
AcDbMText
  10
 5625.0038677774
  20
 813.78497023810
  30
0.0
  40
 37.142857142857
  41
0.0
  71
7
  72
1
   1
\T1.269231;図面番号
   7
GMM006
  44
 0.79999984000003
   0
MTEXT
   5
1CE
 100
AcDbEntity
   8
LEVEL001
 370
13
  62
1
 100
AcDbMText
  10
 6234.2535025828
  20
 687.00000000000
  30
0.0
  40
 66.000000000000
  41
0.0
  71
7
  72
1
   1
\T1.000000;ＭＦ５０６ＷＵＰ
   7
GMM007
  44
 0.79999984000003
   0
LWPOLYLINE
   5
1CF
 100
AcDbEntity
   8
LEVEL001
 370
13
   6
CONTINUOUS
  62
7
 100
AcDbPolyline
  90
4
  70
1
  10
 331.16836994188
  20
 170.00000000000
  10
 331.16836994188
  20
 5770.0000000000
  10
 8117.8352400591
  20
 5770.0000000000
  10
 8117.8352400591
  20
 170.00000000000
   0
LWPOLYLINE
   5
1D0
 100
AcDbEntity
   8
LEVEL001
 370
13
   6
CONTINUOUS
  62
7
 100
AcDbPolyline
  90
4
  70
1
  10
 1435.7183699419
  20
 5072.6516851893
  10
 1346.6183699419
  20
 5072.6516851893
  10
 1346.6183699419
  20
 5069.6516851893
  10
 1435.7183699419
  20
 5069.6516851893
   0
LWPOLYLINE
   5
1D1
 100
AcDbEntity
   8
LEVEL001
 370
13
   6
DOT
  62
1
 100
AcDbPolyline
  90
4
  70
0
  10
 1430.7183699419
  20
 5069.6516851893
  10
 1430.7183699419
  20
 5042.6516851893
  10
 1351.6183699419
  20
 5042.6516851893
  10
 1351.6183699419
  20
 5069.6516851893
   0
LWPOLYLINE
   5
1D2
 100
AcDbEntity
   8
LEVEL001
 370
13
   6
CONTINUOUS
  62
7
 100
AcDbPolyline
  90
4
  70
0
  10
 1346.6183699419
  20
 1076.1516853933
  10
 1274.7683518562
  20
 1076.1516853933
  10
 1274.7683518562
  20
 1061.1516853933
  10
 1346.6183699419
  20
 1061.1516853933
   0
LWPOLYLINE
   5
1D3
 100
AcDbEntity
   8
LEVEL001
 370
13
   6
CONTINUOUS
  62
7
 100
AcDbPolyline
  90
4
  70
0
  10
 1435.7183699419
  20
 1076.1516853933
  10
 1507.5683518562
  20
 1076.1516853933
  10
 1507.5683518562
  20
 1061.1516853933
  10
 1435.7183699419
  20
 1061.1516853933
   0
LINE
   5
1D4
 100
AcDbEntity
   8
LEVEL001
 370
13
 100
AcDbLine
   6
DASHDOT
  62
6
  10
 1324.7683518562
  20
 1068.6516853933
  30
0.0
  11
 1457.5683518562
  21
 1068.6516853933
  31
0.0
   0
LINE
   5
1D5
 100
AcDbEntity
   8
LEVEL001
 370
13
 100
AcDbLine
   6
CONTINUOUS
  62
5
  10
 1291.1683699419
  20
 668.65168539326
  30
0.0
  11
 1241.1683699419
  21
 568.65168539326
  31
0.0
   0
LINE
   5
1D6
 100
AcDbEntity
   8
LEVEL001
 370
13
 100
AcDbLine
   6
CONTINUOUS
  62
5
  10
 1241.1683699419
  20
 668.65168539326
  30
0.0
  11
 1281.1683699419
  21
 648.65168539326
  31
0.0
   0
LINE
   5
1D7
 100
AcDbEntity
   8
LEVEL001
 370
13
 100
AcDbLine
   6
CONTINUOUS
  62
5
  10
 1241.1683699419
  20
 668.65168539326
  30
0.0
  11
 1191.1683699419
  21
 568.65168539326
  31
0.0
   0
LINE
   5
1D8
 100
AcDbEntity
   8
LEVEL001
 370
13
 100
AcDbLine
   6
CONTINUOUS
  62
5
  10
 1191.1683699419
  20
 668.65168539326
  30
0.0
  11
 1231.1683699419
  21
 648.65168539326
  31
0.0
   0
LINE
   5
1D9
 100
AcDbEntity
   8
LEVEL001
 370
13
 100
AcDbLine
   6
CONTINUOUS
  62
5
  10
 1191.1683699419
  20
 668.65168539326
  30
0.0
  11
 1141.1683699419
  21
 568.65168539326
  31
0.0
   0
LINE
   5
1DA
 100
AcDbEntity
   8
LEVEL001
 370
13
 100
AcDbLine
   6
CONTINUOUS
  62
5
  10
 1141.1683699419
  20
 668.65168539326
  30
0.0
  11
 1181.1683699419
  21
 648.65168539326
  31
0.0
   0
LINE
   5
1DB
 100
AcDbEntity
   8
LEVEL001
 370
13
 100
AcDbLine
   6
CONTINUOUS
  62
5
  10
 1291.1683699419
  20
 568.65168539326
  30
0.0
  11
 1251.1683699419
  21
 588.65168539326
  31
0.0
   0
LINE
   5
1DC
 100
AcDbEntity
   8
LEVEL001
 370
13
 100
AcDbLine
   6
CONTINUOUS
  62
5
  10
 1241.1683699419
  20
 568.65168539326
  30
0.0
  11
 1201.1683699419
  21
 588.65168539326
  31
0.0
   0
LINE
   5
1DD
 100
AcDbEntity
   8
LEVEL001
 370
13
 100
AcDbLine
   6
CONTINUOUS
  62
5
  10
 1191.1683699419
  20
 568.65168539326
  30
0.0
  11
 1151.1683699419
  21
 588.65168539326
  31
0.0
   0
LINE
   5
1DE
 100
AcDbEntity
   8
LEVEL001
 370
13
 100
AcDbLine
   6
CONTINUOUS
  62
5
  10
 986.16836994170
  20
 1816.1516853933
  30
0.0
  11
 1038.6683699417
  21
 1868.6516853933
  31
0.0
   0
LINE
   5
1DF
 100
AcDbEntity
   8
LEVEL001
 370
13
 100
AcDbLine
   6
CONTINUOUS
  62
5
  10
 970.25846736485
  20
 1832.0615879701
  30
0.0
  11
 1006.8485647881
  21
 1868.6516853933
  31
0.0
   0
LINE
   5
1E0
 100
AcDbEntity
   8
LEVEL001
 370
13
 100
AcDbLine
   6
CONTINUOUS
  62
5
  10
 1022.7584673657
  20
 1868.6516853933
  30
0.0
  11
 978.21341865367
  21
 1824.1066366813
  31
0.0
   0
LINE
   5
1E1
 100
AcDbEntity
   8
LEVEL001
 370
13
 100
AcDbLine
   6
CONTINUOUS
  62
5
  10
 1043.4386622123
  20
 1816.1516853933
  30
0.0
  11
 1014.8035160770
  21
 1844.7868315286
  31
0.0
   0
LINE
   5
1E2
 100
AcDbEntity
   8
LEVEL001
 370
13
 100
AcDbLine
   6
CONTINUOUS
  62
5
  10
 1022.7584673652
  20
 1852.7417828168
  30
0.0
  11
 1059.3485647887
  21
 1816.1516853933
  31
0.0
   0
LINE
   5
1E3
 100
AcDbEntity
   8
LEVEL001
 370
13
 100
AcDbLine
   6
CONTINUOUS
  62
5
  10
 1075.2584673651
  20
 1816.1516853933
  30
0.0
  11
 1030.7134186534
  21
 1860.6967341050
  31
0.0
   0
LINE
   5
1E4
 100
AcDbEntity
   8
LEVEL001
 370
13
 100
AcDbLine
   6
CONTINUOUS
  62
5
  10
 1038.6683699417
  20
 1868.6516853933
  30
0.0
  11
 1091.1683699419
  21
 1816.1516853933
  31
0.0
   0
LINE
   5
1E5
 100
AcDbEntity
   8
LEVEL001
 370
13
 100
AcDbLine
   6
CONTINUOUS
  62
5
  10
 885.93866221183
  20
 1868.6516853933
  30
0.0
  11
 833.43866221183
  21
 1816.1516853933
  31
0.0
   0
LINE
   5
1E6
 100
AcDbEntity
   8
LEVEL001
 370
13
 100
AcDbLine
   6
CONTINUOUS
  62
5
  10
 849.34856478787
  20
 1816.1516853933
  30
0.0
  11
 901.84856478787
  21
 1868.6516853933
  31
0.0
   0
LINE
   5
1E7
 100
AcDbEntity
   8
LEVEL001
 370
13
 100
AcDbLine
   6
CONTINUOUS
  62
5
  10
 917.75846736548
  20
 1868.6516853933
  30
0.0
  11
 865.25846736548
  21
 1816.1516853933
  31
0.0
   0
LINE
   5
1E8
 100
AcDbEntity
   8
LEVEL001
 370
13
 100
AcDbLine
   6
CONTINUOUS
  62
5
  10
 881.16836994151
  20
 1816.1516853933
  30
0.0
  11
 933.66836994151
  21
 1868.6516853933
  31
0.0
   0
LINE
   5
1E9
 100
AcDbEntity
   8
LEVEL001
 370
13
 100
AcDbLine
   6
CONTINUOUS
  62
5
  10
 938.43866221210
  20
 1816.1516853933
  30
0.0
  11
 909.80351607681
  21
 1844.7868315286
  31
0.0
   0
LINE
   5
1EA
 100
AcDbEntity
   8
LEVEL001
 370
13
 100
AcDbLine
   6
CONTINUOUS
  62
5
  10
 917.75846736502
  20
 1852.7417828168
  30
0.0
  11
 954.34856478853
  21
 1816.1516853933
  31
0.0
   0
LINE
   5
1EB
 100
AcDbEntity
   8
LEVEL001
 370
13
 100
AcDbLine
   6
CONTINUOUS
  62
5
  10
 970.25846736496
  20
 1816.1516853933
  30
0.0
  11
 925.71341865324
  21
 1860.6967341050
  31
0.0
   0
LINE
   5
1EC
 100
AcDbEntity
   8
LEVEL001
 370
13
 100
AcDbLine
   6
CONTINUOUS
  62
5
  10
 933.66836994151
  20
 1868.6516853933
  30
0.0
  11
 986.16836994170
  21
 1816.1516853933
  31
0.0
   0
LINE
   5
1ED
 100
AcDbEntity
   8
LEVEL001
 370
13
 100
AcDbLine
   6
CONTINUOUS
  62
5
  10
 990.93866221202
  20
 1868.6516853933
  30
0.0
  11
 962.30351607681
  21
 1840.0165392581
  31
0.0
   0
MTEXT
   5
1EF
 100
AcDbEntity
   8
LEVEL001
 370
13
  62
1
 100
AcDbMText
  10
 961.81704038633
  20
 1877.3816224336
  30
0.0
  40
 40.000000000000
  41
0.0
  71
7
  72
1
   1
\T1.000000;ＧＬ
   7
GMM008
  44
 0.79999984000003
   0
LWPOLYLINE
   5
1F0
 100
AcDbEntity
   8
LEVEL001
 370
13
   6
CONTINUOUS
  62
1
 100
AcDbPolyline
  90
3
  70
1
  10
 933.66836994151
  20
 1868.6516853933
  10
 908.66836994151
  20
 1918.6516853933
  10
 958.66836994151
  20
 1918.6516853933
   0
LINE
   5
1F1
 100
AcDbEntity
   8
LEVEL001
 370
13
 100
AcDbLine
   6
CONTINUOUS
  62
5
  10
 1641.1683699419
  20
 668.65168539326
  30
0.0
  11
 1591.1683699419
  21
 568.65168539326
  31
0.0
   0
LINE
   5
1F2
 100
AcDbEntity
   8
LEVEL001
 370
13
 100
AcDbLine
   6
CONTINUOUS
  62
5
  10
 1591.1683699419
  20
 668.65168539326
  30
0.0
  11
 1631.1683699419
  21
 648.65168539326
  31
0.0
   0
LINE
   5
1F3
 100
AcDbEntity
   8
LEVEL001
 370
13
 100
AcDbLine
   6
CONTINUOUS
  62
5
  10
 1591.1683699419
  20
 668.65168539326
  30
0.0
  11
 1541.1683699419
  21
 568.65168539326
  31
0.0
   0
LINE
   5
1F4
 100
AcDbEntity
   8
LEVEL001
 370
13
 100
AcDbLine
   6
CONTINUOUS
  62
5
  10
 1541.1683699419
  20
 668.65168539326
  30
0.0
  11
 1581.1683699419
  21
 648.65168539326
  31
0.0
   0
LINE
   5
1F5
 100
AcDbEntity
   8
LEVEL001
 370
13
 100
AcDbLine
   6
CONTINUOUS
  62
5
  10
 1541.1683699419
  20
 668.65168539326
  30
0.0
  11
 1491.1683699419
  21
 568.65168539326
  31
0.0
   0
LINE
   5
1F6
 100
AcDbEntity
   8
LEVEL001
 370
13
 100
AcDbLine
   6
CONTINUOUS
  62
5
  10
 1491.1683699419
  20
 668.65168539326
  30
0.0
  11
 1531.1683699419
  21
 648.65168539326
  31
0.0
   0
LINE
   5
1F7
 100
AcDbEntity
   8
LEVEL001
 370
13
 100
AcDbLine
   6
CONTINUOUS
  62
5
  10
 1641.1683699419
  20
 568.65168539326
  30
0.0
  11
 1601.1683699419
  21
 588.65168539326
  31
0.0
   0
LINE
   5
1F8
 100
AcDbEntity
   8
LEVEL001
 370
13
 100
AcDbLine
   6
CONTINUOUS
  62
5
  10
 1591.1683699419
  20
 568.65168539326
  30
0.0
  11
 1551.1683699419
  21
 588.65168539326
  31
0.0
   0
LINE
   5
1F9
 100
AcDbEntity
   8
LEVEL001
 370
13
 100
AcDbLine
   6
CONTINUOUS
  62
5
  10
 1541.1683699419
  20
 568.65168539326
  30
0.0
  11
 1501.1683699419
  21
 588.65168539326
  31
0.0
   0
LINE
   5
1FA
 100
AcDbEntity
   8
LEVEL001
 370
13
 100
AcDbLine
   6
CONTINUOUS
  62
5
  10
 1743.6683699419
  20
 1868.6516853933
  30
0.0
  11
 1691.1683699419
  21
 1816.1516853933
  31
0.0
   0
LINE
   5
1FB
 100
AcDbEntity
   8
LEVEL001
 370
13
 100
AcDbLine
   6
CONTINUOUS
  62
5
  10
 1707.0782725179
  20
 1816.1516853933
  30
0.0
  11
 1759.5782725179
  21
 1868.6516853933
  31
0.0
   0
LINE
   5
1FC
 100
AcDbEntity
   8
LEVEL001
 370
13
 100
AcDbLine
   6
CONTINUOUS
  62
5
  10
 1775.4881750955
  20
 1868.6516853933
  30
0.0
  11
 1722.9881750955
  21
 1816.1516853933
  31
0.0
   0
LINE
   5
1FD
 100
AcDbEntity
   8
LEVEL001
 370
13
 100
AcDbLine
   6
CONTINUOUS
  62
5
  10
 1738.8980776716
  20
 1816.1516853933
  30
0.0
  11
 1791.3980776716
  21
 1868.6516853933
  31
0.0
   0
LINE
   5
1FE
 100
AcDbEntity
   8
LEVEL001
 370
13
 100
AcDbLine
   6
CONTINUOUS
  62
5
  10
 1796.1683699422
  20
 1816.1516853933
  30
0.0
  11
 1767.5332238069
  21
 1844.7868315286
  31
0.0
   0
LINE
   5
1FF
 100
AcDbEntity
   8
LEVEL001
 370
13
 100
AcDbLine
   6
CONTINUOUS
  62
5
  10
 1775.4881750951
  20
 1852.7417828168
  30
0.0
  11
 1812.0782725186
  21
 1816.1516853933
  31
0.0
   0
LINE
   5
200
 100
AcDbEntity
   8
LEVEL001
 370
13
 100
AcDbLine
   6
CONTINUOUS
  62
5
  10
 1827.9881750950
  20
 1816.1516853933
  30
0.0
  11
 1783.4431263833
  21
 1860.6967341050
  31
0.0
   0
LINE
   5
201
 100
AcDbEntity
   8
LEVEL001
 370
13
 100
AcDbLine
   6
CONTINUOUS
  62
5
  10
 1791.3980776716
  20
 1868.6516853933
  30
0.0
  11
 1843.8980776717
  21
 1816.1516853933
  31
0.0
   0
LINE
   5
202
 100
AcDbEntity
   8
LEVEL001
 370
13
 100
AcDbLine
   6
CONTINUOUS
  62
5
  10
 1843.8980776717
  20
 1816.1516853933
  30
0.0
  11
 1896.3980776717
  21
 1868.6516853933
  31
0.0
   0
LINE
   5
203
 100
AcDbEntity
   8
LEVEL001
 370
13
 100
AcDbLine
   6
CONTINUOUS
  62
5
  10
 1848.6683699421
  20
 1868.6516853933
  30
0.0
  11
 1820.0332238069
  21
 1840.0165392581
  31
0.0
   0
LINE
   5
204
 100
AcDbEntity
   8
LEVEL001
 370
13
 100
AcDbLine
   6
CONTINUOUS
  62
5
  10
 1827.9881750949
  20
 1832.0615879701
  30
0.0
  11
 1864.5782725181
  21
 1868.6516853933
  31
0.0
   0
LINE
   5
205
 100
AcDbEntity
   8
LEVEL001
 370
13
 100
AcDbLine
   6
CONTINUOUS
  62
5
  10
 1880.4881750957
  20
 1868.6516853933
  30
0.0
  11
 1835.9431263837
  21
 1824.1066366813
  31
0.0
   0
LINE
   5
206
 100
AcDbEntity
   8
LEVEL001
 370
13
 100
AcDbLine
   6
CONTINUOUS
  62
5
  10
 1901.1683699423
  20
 1816.1516853933
  30
0.0
  11
 1872.5332238070
  21
 1844.7868315286
  31
0.0
   0
LINE
   5
207
 100
AcDbEntity
   8
LEVEL001
 370
13
 100
AcDbLine
   6
CONTINUOUS
  62
5
  10
 1880.4881750953
  20
 1852.7417828168
  30
0.0
  11
 1917.0782725188
  21
 1816.1516853933
  31
0.0
   0
LINE
   5
208
 100
AcDbEntity
   8
LEVEL001
 370
13
 100
AcDbLine
   6
CONTINUOUS
  62
5
  10
 1932.9881750952
  20
 1816.1516853933
  30
0.0
  11
 1888.4431263835
  21
 1860.6967341050
  31
0.0
   0
LINE
   5
209
 100
AcDbEntity
   8
LEVEL001
 370
13
 100
AcDbLine
   6
CONTINUOUS
  62
5
  10
 1896.3980776717
  20
 1868.6516853933
  30
0.0
  11
 1948.8980776719
  21
 1816.1516853933
  31
0.0
   0
LWPOLYLINE
   5
20A
 100
AcDbEntity
   8
LEVEL001
 370
13
   6
CONTINUOUS
  62
5
 100
AcDbPolyline
  90
4
  70
1
  10
 1141.1683699419
  20
 668.65168539326
  10
 1141.1683699419
  20
 568.65168539326
  10
 1641.1683699419
  20
 568.65168539326
  10
 1641.1683699419
  20
 668.65168539326
   0
LINE
   5
20B
 100
AcDbEntity
   8
LEVEL001
 370
13
 100
AcDbLine
   6
CONTINUOUS
  62
5
  10
 1141.1683699419
  20
 1868.6516853933
  30
0.0
  11
 841.16843517684
  21
 1868.6516853933
  31
0.0
   0
LINE
   5
20C
 100
AcDbEntity
   8
LEVEL001
 370
13
 100
AcDbLine
   6
CONTINUOUS
  62
5
  10
 1641.1683699419
  20
 1868.6516853933
  30
0.0
  11
 1941.1684351768
  21
 1868.6516853933
  31
0.0
   0
LWPOLYLINE
   5
20D
 100
AcDbEntity
   8
LEVEL001
 370
13
   6
CONTINUOUS
  62
5
 100
AcDbPolyline
  90
6
  70
0
  10
 1346.6183699419
  20
 1868.6516853933
  10
 1141.1683699419
  20
 1868.6516853933
  10
 1141.1683699419
  20
 668.65168539326
  10
 1641.1683699419
  20
 668.65168539326
  10
 1641.1683699419
  20
 1868.6516853933
  10
 1435.7183699419
  20
 1868.6516853933
   0
CIRCLE
   5
20E
 100
AcDbEntity
   8
LEVEL001
 370
13
 100
AcDbCircle
   6
CONTINUOUS
  62
7
  10
 1391.1683361398
  20
 968.65168539326
  30
0.0
  40
 7.5000000000000
   0
LINE
   5
20F
 100
AcDbEntity
   8
LEVEL001
 370
13
 100
AcDbLine
   6
DASHDOT
  62
6
  10
 1361.1683361398
  20
 968.65168539326
  30
0.0
  11
 1421.1683361398
  21
 968.65168539326
  31
0.0
   0
LWPOLYLINE
   5
210
 100
AcDbEntity
   8
LEVEL001
 370
13
   6
CONTINUOUS
  62
7
 100
AcDbPolyline
  90
4
  70
1
  10
 1447.1683784618
  20
 4726.6516438649
  10
 1461.1683784618
  20
 4726.6516438649
  10
 1461.1683784618
  20
 4740.6516438649
  10
 1447.1683784618
  20
 4740.6516438649
   0
LWPOLYLINE
   5
211
 100
AcDbEntity
   8
LEVEL001
 370
13
   6
CONTINUOUS
  62
7
 100
AcDbPolyline
  90
4
  70
1
  10
 1335.1683614220
  20
 4556.6516438649
  10
 1321.1683614220
  20
 4556.6516438649
  10
 1321.1683614220
  20
 4570.6516438649
  10
 1335.1683614220
  20
 4570.6516438649
   0
LWPOLYLINE
   5
212
 100
AcDbEntity
   8
LEVEL001
 370
13
   6
CONTINUOUS
  62
7
 100
AcDbPolyline
  90
4
  70
1
  10
 1447.1683784618
  20
 4680.6516438649
  10
 1461.1683784618
  20
 4680.6516438649
  10
 1461.1683784618
  20
 4666.6516438649
  10
 1447.1683784618
  20
 4666.6516438649
   0
ARC
   5
213
 100
AcDbEntity
   8
LEVEL001
 370
13
   6
CONTINUOUS
  62
1
 100
AcDbCircle
  10
 1328.6683699419
  20
 4823.6516853933
  30
0.0
  40
 7.5000000000000
 100
AcDbArc
  50
 270.00000000000
  51
 90.000000000000
   0
ARC
   5
214
 100
AcDbEntity
   8
LEVEL001
 370
13
   6
CONTINUOUS
  62
7
 100
AcDbCircle
  10
 1311.1683699419
  20
 4963.6516853933
  30
0.0
  40
 5.0000000000000
 100
AcDbArc
  50
0.0
  51
 90.000000000000
   0
ARC
   5
215
 100
AcDbEntity
   8
LEVEL001
 370
13
   6
CONTINUOUS
  62
2
 100
AcDbCircle
  10
 1286.1683699419
  20
 4938.6516853933
  30
0.0
  40
 5.0000000000000
 100
AcDbArc
  50
0.0
  51
 90.000000000000
   0
LINE
   5
216
 100
AcDbEntity
   8
LEVEL001
 370
13
 100
AcDbLine
   6
CONTINUOUS
  62
2
  10
 1291.1683699419
  20
 4398.6516853933
  30
0.0
  11
 1291.1683699419
  21
 4938.6516853933
  31
0.0
   0
LINE
   5
217
 100
AcDbEntity
   8
LEVEL001
 370
13
 100
AcDbLine
   6
CONTINUOUS
  62
7
  10
 1316.1683699419
  20
 4373.6516853933
  30
0.0
  11
 1316.1683699419
  21
 4963.6516853933
  31
0.0
   0
LINE
   5
218
 100
AcDbEntity
   8
LEVEL001
 370
13
 100
AcDbLine
   6
CONTINUOUS
  62
2
  10
 1286.1683699419
  20
 4943.6516853933
  30
0.0
  11
 546.16836994188
  21
 4943.6516853933
  31
0.0
   0
LINE
   5
219
 100
AcDbEntity
   8
LEVEL001
 370
13
 100
AcDbLine
   6
CONTINUOUS
  62
7
  10
 1311.1683699419
  20
 4968.6516853933
  30
0.0
  11
 521.16836994188
  21
 4968.6516853933
  31
0.0
   0
ARC
   5
21A
 100
AcDbEntity
   8
LEVEL001
 370
13
   6
CONTINUOUS
  62
7
 100
AcDbCircle
  10
 1313.6683699419
  20
 4963.6516853933
  30
0.0
  40
 15.000000000000
 100
AcDbArc
  50
0.0
  51
 90.000000000000
   0
LINE
   5
21B
 100
AcDbEntity
   8
LEVEL001
 370
13
 100
AcDbLine
   6
CONTINUOUS
  62
7
  10
 518.66836994188
  20
 4978.6516853933
  30
0.0
  11
 1313.6683699419
  21
 4978.6516853933
  31
0.0
   0
LINE
   5
21C
 100
AcDbEntity
   8
LEVEL001
 370
13
 100
AcDbLine
   6
CONTINUOUS
  62
2
  10
 541.16836994188
  20
 4938.6516853933
  30
0.0
  11
 541.16836994188
  21
 4398.6516853933
  31
0.0
   0
ARC
   5
21D
 100
AcDbEntity
   8
LEVEL001
 370
13
   6
CONTINUOUS
  62
2
 100
AcDbCircle
  10
 546.16836994188
  20
 4938.6516853933
  30
0.0
  40
 5.0000000000000
 100
AcDbArc
  50
 90.000000000000
  51
 180.00000000000
   0
LINE
   5
21E
 100
AcDbEntity
   8
LEVEL001
 370
13
 100
AcDbLine
   6
CONTINUOUS
  62
7
  10
 516.16836994188
  20
 4963.6516853933
  30
0.0
  11
 516.16836994188
  21
 4373.6516853933
  31
0.0
   0
ARC
   5
21F
 100
AcDbEntity
   8
LEVEL001
 370
13
   6
CONTINUOUS
  62
7
 100
AcDbCircle
  10
 521.16836994188
  20
 4963.6516853933
  30
0.0
  40
 5.0000000000000
 100
AcDbArc
  50
 90.000000000000
  51
 180.00000000000
   0
ARC
   5
220
 100
AcDbEntity
   8
LEVEL001
 370
13
   6
CONTINUOUS
  62
7
 100
AcDbCircle
  10
 518.66836994188
  20
 4963.6516853933
  30
0.0
  40
 15.000000000000
 100
AcDbArc
  50
 90.000000000000
  51
 180.00000000000
   0
ARC
   5
221
 100
AcDbEntity
   8
LEVEL001
 370
13
   6
CONTINUOUS
  62
1
 100
AcDbCircle
  10
 516.16836994188
  20
 4498.6516853933
  30
0.0
  40
 7.5000000000000
 100
AcDbArc
  50
 90.000000000000
  51
 270.00000000000
   0
LINE
   5
222
 100
AcDbEntity
   8
LEVEL001
 370
13
 100
AcDbLine
   6
CONTINUOUS
  62
2
  10
 546.16836994188
  20
 4393.6516853933
  30
0.0
  11
 1286.1683699419
  21
 4393.6516853933
  31
0.0
   0
ARC
   5
223
 100
AcDbEntity
   8
LEVEL001
 370
13
   6
CONTINUOUS
  62
2
 100
AcDbCircle
  10
 546.16836994188
  20
 4398.6516853933
  30
0.0
  40
 5.0000000000000
 100
AcDbArc
  50
 180.00000000000
  51
 270.00000000000
   0
ARC
   5
224
 100
AcDbEntity
   8
LEVEL001
 370
13
   6
CONTINUOUS
  62
1
 100
AcDbCircle
  10
 653.66836994188
  20
 4368.6516853933
  30
0.0
  40
 7.5000000000000
 100
AcDbArc
  50
 180.00000000000
  51
0.0
   0
LINE
   5
225
 100
AcDbEntity
   8
LEVEL001
 370
13
 100
AcDbLine
   6
CONTINUOUS
  62
7
  10
 521.16836994188
  20
 4368.6516853933
  30
0.0
  11
 1311.1683699419
  21
 4368.6516853933
  31
0.0
   0
ARC
   5
226
 100
AcDbEntity
   8
LEVEL001
 370
13
   6
CONTINUOUS
  62
7
 100
AcDbCircle
  10
 521.16836994188
  20
 4373.6516853933
  30
0.0
  40
 5.0000000000000
 100
AcDbArc
  50
 180.00000000000
  51
 270.00000000000
   0
ARC
   5
227
 100
AcDbEntity
   8
LEVEL001
 370
13
   6
CONTINUOUS
  62
1
 100
AcDbCircle
  10
 916.16836994188
  20
 4368.6516853933
  30
0.0
  40
 7.5000000000000
 100
AcDbArc
  50
 180.00000000000
  51
0.0
   0
ARC
   5
228
 100
AcDbEntity
   8
LEVEL001
 370
13
   6
CONTINUOUS
  62
1
 100
AcDbCircle
  10
 1178.6683699419
  20
 4368.6516853933
  30
0.0
  40
 7.5000000000000
 100
AcDbArc
  50
 180.00000000000
  51
0.0
   0
ARC
   5
229
 100
AcDbEntity
   8
LEVEL001
 370
13
   6
CONTINUOUS
  62
7
 100
AcDbCircle
  10
 1311.1683699419
  20
 4373.6516853933
  30
0.0
  40
 5.0000000000000
 100
AcDbArc
  50
 270.00000000000
  51
0.0
   0
ARC
   5
22A
 100
AcDbEntity
   8
LEVEL001
 370
13
   6
CONTINUOUS
  62
1
 100
AcDbCircle
  10
 1316.1683699419
  20
 4498.6516853933
  30
0.0
  40
 7.5000000000000
 100
AcDbArc
  50
 270.00000000000
  51
 90.000000000000
   0
ARC
   5
22B
 100
AcDbEntity
   8
LEVEL001
 370
13
   6
CONTINUOUS
  62
1
 100
AcDbCircle
  10
 1316.1683699419
  20
 4498.6516853933
  30
0.0
  40
 7.5000000000000
 100
AcDbArc
  50
 270.00000000000
  51
 90.000000000000
   0
ARC
   5
22C
 100
AcDbEntity
   8
LEVEL001
 370
13
   6
CONTINUOUS
  62
2
 100
AcDbCircle
  10
 1286.1683699419
  20
 4398.6516853933
  30
0.0
  40
 5.0000000000000
 100
AcDbArc
  50
 270.00000000000
  51
0.0
   0
LINE
   5
22D
 100
AcDbEntity
   8
LEVEL001
 370
13
 100
AcDbLine
   6
DASHDOT
  62
6
  10
 1366.1683699419
  20
 4668.6516853933
  30
0.0
  11
 466.16836994188
  21
 4668.6516853933
  31
0.0
   0
LWPOLYLINE
   5
22E
 100
AcDbEntity
   8
LEVEL001
 370
13
   6
CONTINUOUS
  62
7
 100
AcDbPolyline
  90
4
  70
1
  10
 1335.1683614220
  20
 4630.6516438649
  10
 1321.1683614220
  20
 4630.6516438649
  10
 1321.1683614220
  20
 4616.6516438649
  10
 1335.1683614220
  20
 4616.6516438649
   0
LWPOLYLINE
   5
22F
 100
AcDbEntity
   8
LEVEL001
 370
13
   6
CONTINUOUS
  62
7
 100
AcDbPolyline
  90
3
  70
0
  10
 1438.9183699419
  20
 4553.6516438649
  10
 1438.9183699419
  20
 4538.6516438649
  10
 1316.1683699419
  20
 4538.6516438649
   0
LWPOLYLINE
   5
230
 100
AcDbEntity
   8
LEVEL001
 370
13
   6
CONTINUOUS
  62
7
 100
AcDbPolyline
  90
3
  70
0
  10
 1316.1683699419
  20
 4648.6516438649
  10
 1438.9183699419
  20
 4648.6516438649
  10
 1438.9183699419
  20
 4613.6516438649
   0
LWPOLYLINE
   5
231
 100
AcDbEntity
   8
LEVEL001
 370
13
   6
CONTINUOUS
  62
7
 100
AcDbPolyline
  90
4
  70
0
  10
 1316.1683699419
  20
 4723.6116924273
  10
 1345.1382439373
  20
 4738.3725804966
  10
 1345.1382439373
  20
 4671.0330062385
  10
 1316.1683699419
  20
 4656.2721181692
   0
ARC
   5
232
 100
AcDbEntity
   8
LEVEL001
 370
13
   6
CONTINUOUS
  62
1
 100
AcDbCircle
  10
 1453.6683699419
  20
 4823.6516853933
  30
0.0
  40
 7.5000000000000
 100
AcDbArc
  50
 90.000000000000
  51
 270.00000000000
   0
ARC
   5
233
 100
AcDbEntity
   8
LEVEL001
 370
13
   6
CONTINUOUS
  62
7
 100
AcDbCircle
  10
 1471.1683699419
  20
 4963.6516853933
  30
0.0
  40
 5.0000000000000
 100
AcDbArc
  50
 90.000000000000
  51
 180.00000000000
   0
ARC
   5
234
 100
AcDbEntity
   8
LEVEL001
 370
13
   6
CONTINUOUS
  62
2
 100
AcDbCircle
  10
 1496.1683699419
  20
 4938.6516853933
  30
0.0
  40
 5.0000000000000
 100
AcDbArc
  50
 90.000000000000
  51
 180.00000000000
   0
LINE
   5
235
 100
AcDbEntity
   8
LEVEL001
 370
13
 100
AcDbLine
   6
CONTINUOUS
  62
2
  10
 1491.1683699419
  20
 4398.6516853933
  30
0.0
  11
 1491.1683699419
  21
 4938.6516853933
  31
0.0
   0
LINE
   5
236
 100
AcDbEntity
   8
LEVEL001
 370
13
 100
AcDbLine
   6
CONTINUOUS
  62
7
  10
 1466.1683699419
  20
 4373.6516853933
  30
0.0
  11
 1466.1683699419
  21
 4963.6516853933
  31
0.0
   0
LINE
   5
237
 100
AcDbEntity
   8
LEVEL001
 370
13
 100
AcDbLine
   6
CONTINUOUS
  62
2
  10
 1496.1683699419
  20
 4943.6516853933
  30
0.0
  11
 2236.1683699419
  21
 4943.6516853933
  31
0.0
   0
LINE
   5
238
 100
AcDbEntity
   8
LEVEL001
 370
13
 100
AcDbLine
   6
CONTINUOUS
  62
7
  10
 1471.1683699419
  20
 4968.6516853933
  30
0.0
  11
 2261.1683699419
  21
 4968.6516853933
  31
0.0
   0
ARC
   5
239
 100
AcDbEntity
   8
LEVEL001
 370
13
   6
CONTINUOUS
  62
7
 100
AcDbCircle
  10
 1468.6683699419
  20
 4963.6516853933
  30
0.0
  40
 15.000000000000
 100
AcDbArc
  50
 90.000000000000
  51
 180.00000000000
   0
LINE
   5
23A
 100
AcDbEntity
   8
LEVEL001
 370
13
 100
AcDbLine
   6
CONTINUOUS
  62
7
  10
 2263.6683699419
  20
 4978.6516853933
  30
0.0
  11
 1468.6683699419
  21
 4978.6516853933
  31
0.0
   0
ARC
   5
23B
 100
AcDbEntity
   8
LEVEL001
 370
13
   6
CONTINUOUS
  62
1
 100
AcDbCircle
  10
 2278.6683699419
  20
 4823.6516853933
  30
0.0
  40
 7.5000000000000
 100
AcDbArc
  50
 270.00000000000
  51
 90.000000000000
   0
LINE
   5
23C
 100
AcDbEntity
   8
LEVEL001
 370
13
 100
AcDbLine
   6
CONTINUOUS
  62
2
  10
 2241.1683699419
  20
 4938.6516853933
  30
0.0
  11
 2241.1683699419
  21
 4398.6516853933
  31
0.0
   0
ARC
   5
23D
 100
AcDbEntity
   8
LEVEL001
 370
13
   6
CONTINUOUS
  62
2
 100
AcDbCircle
  10
 2236.1683699419
  20
 4938.6516853933
  30
0.0
  40
 5.0000000000000
 100
AcDbArc
  50
0.0
  51
 90.000000000000
   0
LINE
   5
23E
 100
AcDbEntity
   8
LEVEL001
 370
13
 100
AcDbLine
   6
CONTINUOUS
  62
7
  10
 2266.1683699419
  20
 4963.6516853933
  30
0.0
  11
 2266.1683699419
  21
 4373.6516853933
  31
0.0
   0
ARC
   5
23F
 100
AcDbEntity
   8
LEVEL001
 370
13
   6
CONTINUOUS
  62
7
 100
AcDbCircle
  10
 2261.1683699419
  20
 4963.6516853933
  30
0.0
  40
 5.0000000000000
 100
AcDbArc
  50
0.0
  51
 90.000000000000
   0
ARC
   5
240
 100
AcDbEntity
   8
LEVEL001
 370
13
   6
CONTINUOUS
  62
7
 100
AcDbCircle
  10
 2263.6683699419
  20
 4963.6516853933
  30
0.0
  40
 15.000000000000
 100
AcDbArc
  50
0.0
  51
 90.000000000000
   0
ARC
   5
241
 100
AcDbEntity
   8
LEVEL001
 370
13
   6
CONTINUOUS
  62
1
 100
AcDbCircle
  10
 2266.1683699419
  20
 4498.6516853933
  30
0.0
  40
 7.5000000000000
 100
AcDbArc
  50
 270.00000000000
  51
 90.000000000000
   0
LINE
   5
242
 100
AcDbEntity
   8
LEVEL001
 370
13
 100
AcDbLine
   6
CONTINUOUS
  62
2
  10
 2236.1683699419
  20
 4393.6516853933
  30
0.0
  11
 1496.1683699419
  21
 4393.6516853933
  31
0.0
   0
ARC
   5
243
 100
AcDbEntity
   8
LEVEL001
 370
13
   6
CONTINUOUS
  62
2
 100
AcDbCircle
  10
 2236.1683699419
  20
 4398.6516853933
  30
0.0
  40
 5.0000000000000
 100
AcDbArc
  50
 270.00000000000
  51
0.0
   0
ARC
   5
244
 100
AcDbEntity
   8
LEVEL001
 370
13
   6
CONTINUOUS
  62
1
 100
AcDbCircle
  10
 2128.6683699419
  20
 4368.6516853933
  30
0.0
  40
 7.5000000000000
 100
AcDbArc
  50
 180.00000000000
  51
0.0
   0
LINE
   5
245
 100
AcDbEntity
   8
LEVEL001
 370
13
 100
AcDbLine
   6
CONTINUOUS
  62
7
  10
 2261.1683699419
  20
 4368.6516853933
  30
0.0
  11
 1471.1683699419
  21
 4368.6516853933
  31
0.0
   0
ARC
   5
246
 100
AcDbEntity
   8
LEVEL001
 370
13
   6
CONTINUOUS
  62
7
 100
AcDbCircle
  10
 2261.1683699419
  20
 4373.6516853933
  30
0.0
  40
 5.0000000000000
 100
AcDbArc
  50
 270.00000000000
  51
0.0
   0
ARC
   5
247
 100
AcDbEntity
   8
LEVEL001
 370
13
   6
CONTINUOUS
  62
1
 100
AcDbCircle
  10
 1866.1683699419
  20
 4368.6516853933
  30
0.0
  40
 7.5000000000000
 100
AcDbArc
  50
 180.00000000000
  51
0.0
   0
ARC
   5
248
 100
AcDbEntity
   8
LEVEL001
 370
13
   6
CONTINUOUS
  62
1
 100
AcDbCircle
  10
 1603.6683699419
  20
 4368.6516853933
  30
0.0
  40
 7.5000000000000
 100
AcDbArc
  50
 180.00000000000
  51
0.0
   0
ARC
   5
249
 100
AcDbEntity
   8
LEVEL001
 370
13
   6
CONTINUOUS
  62
7
 100
AcDbCircle
  10
 1471.1683699419
  20
 4373.6516853933
  30
0.0
  40
 5.0000000000000
 100
AcDbArc
  50
 180.00000000000
  51
 270.00000000000
   0
ARC
   5
24A
 100
AcDbEntity
   8
LEVEL001
 370
13
   6
CONTINUOUS
  62
1
 100
AcDbCircle
  10
 1466.1683699419
  20
 4498.6516853933
  30
0.0
  40
 7.5000000000000
 100
AcDbArc
  50
 90.000000000000
  51
 270.00000000000
   0
ARC
   5
24B
 100
AcDbEntity
   8
LEVEL001
 370
13
   6
CONTINUOUS
  62
1
 100
AcDbCircle
  10
 1466.1683699419
  20
 4498.6516853933
  30
0.0
  40
 7.5000000000000
 100
AcDbArc
  50
 90.000000000000
  51
 270.00000000000
   0
ARC
   5
24C
 100
AcDbEntity
   8
LEVEL001
 370
13
   6
CONTINUOUS
  62
2
 100
AcDbCircle
  10
 1496.1683699419
  20
 4398.6516853933
  30
0.0
  40
 5.0000000000000
 100
AcDbArc
  50
 180.00000000000
  51
 270.00000000000
   0
LINE
   5
24D
 100
AcDbEntity
   8
LEVEL001
 370
13
 100
AcDbLine
   6
DASHDOT
  62
6
  10
 1416.1683699419
  20
 4668.6516853933
  30
0.0
  11
 2316.1683699419
  21
 4668.6516853933
  31
0.0
   0
LWPOLYLINE
   5
24E
 100
AcDbEntity
   8
LEVEL001
 370
13
   6
CONTINUOUS
  62
7
 100
AcDbPolyline
  90
3
  70
0
  10
 1343.4183699419
  20
 4737.4962609260
  10
 1343.4183699419
  20
 4758.6516438649
  10
 1466.1683699419
  20
 4758.6516438649
   0
LWPOLYLINE
   5
24F
 100
AcDbEntity
   8
LEVEL001
 370
13
   6
CONTINUOUS
  62
7
 100
AcDbPolyline
  90
4
  70
0
  10
 1466.1683699419
  20
 4613.6516438649
  10
 1437.1984959465
  20
 4613.6516438649
  10
 1437.1984959465
  20
 4553.6516438649
  10
 1466.1683699419
  20
 4553.6516438649
   0
LWPOLYLINE
   5
250
 100
AcDbEntity
   8
LEVEL001
 370
13
   6
CONTINUOUS
  62
7
 100
AcDbPolyline
  90
3
  70
0
  10
 1466.1683699419
  20
 4648.6516438649
  10
 1343.4183699419
  20
 4648.6516438649
  10
 1343.4183699419
  20
 4670.1566866680
   0
LEADER
   5
251
 100
AcDbEntity
   8
LEVEL001
 370
13
   6
CONTINUOUS
  62
1
 100
AcDbLeader
   3
GMM001
  73
3
  74
1
  75
0
  40
 66.000000000000
  41
0.0
  76
2
  10
 2029.1047596623
  20
 4368.6516853933
  30
0.0
  10
 2121.6224836150
  20
 4208.4062869068
  30
0.0
  77
1
   0
LEADER
   5
252
 100
AcDbEntity
   8
LEVEL001
 370
13
   6
CONTINUOUS
  62
1
 100
AcDbLeader
   3
GMM001
  73
3
  74
1
  75
0
  40
 66.000000000000
  41
0.0
  76
2
  10
 1174.9183699420
  20
 4362.1564948648
  30
0.0
  10
 1086.1506459892
  20
 4208.4062869068
  30
0.0
  77
1
   0
CIRCLE
   5
253
 100
AcDbEntity
   8
LEVEL001
 370
13
 100
AcDbCircle
   6
CONTINUOUS
  62
1
  10
 2156.6224825718
  20
 4147.7845104485
  30
0.0
  40
 69.999997913838
   0
MTEXT
   5
255
 100
AcDbEntity
   8
LEVEL001
 370
13
  62
7
 100
AcDbMText
  10
 2156.6224825718
  20
 4147.7845104485
  30
0.0
  40
 66.000000000000
  41
0.0
  71
5
  72
1
   1
\T1.000000;４
   7
GMM007
  44
 0.79999984000003
   0
CIRCLE
   5
256
 100
AcDbEntity
   8
LEVEL001
 370
13
 100
AcDbCircle
   6
CONTINUOUS
  62
1
  10
 1051.1506470325
  20
 4147.7845104485
  30
0.0
  40
 69.999997913838
   0
MTEXT
   5
258
 100
AcDbEntity
   8
LEVEL001
 370
13
  62
7
 100
AcDbMText
  10
 1051.1506470325
  20
 4147.7845104485
  30
0.0
  40
 66.000000000000
  41
0.0
  71
5
  72
1
   1
\T1.000000;５
   7
GMM007
  44
 0.79999984000003
   0
LWPOLYLINE
   5
259
 100
AcDbEntity
   8
LEVEL001
 370
13
   6
CONTINUOUS
  62
7
 100
AcDbPolyline
  90
4
  70
0
  10
 1435.7183699419
  20
 4758.6516438649
  10
 1435.7183699419
  20
 5068.6516851893
  10
 1346.6183699419
  20
 5068.6516851893
  10
 1346.6183699419
  20
 4758.6516438649
   0
LINE
   5
25A
 100
AcDbEntity
   8
LEVEL001
 370
13
 100
AcDbLine
   6
DOT
  62
7
  10
 1346.6183699419
  20
 1076.1516853933
  30
0.0
  11
 1435.7183699419
  21
 1076.1516853933
  31
0.0
   0
LINE
   5
25B
 100
AcDbEntity
   8
LEVEL001
 370
13
 100
AcDbLine
   6
DOT
  62
7
  10
 1435.7183699419
  20
 1061.1516853933
  30
0.0
  11
 1346.6183699419
  21
 1061.1516853933
  31
0.0
   0
LINE
   5
25C
 100
AcDbEntity
   8
LEVEL001
 370
13
 100
AcDbLine
   6
DASHDOT
  62
6
  10
 1391.1683699419
  20
 5122.6516851893
  30
0.0
  11
 1391.1683699419
  21
 518.65168539326
  31
0.0
   0
LINE
   5
25D
 100
AcDbEntity
   8
LEVEL001
 370
13
 100
AcDbLine
   6
DASHDOT
  62
6
  10
 1866.1683699419
  20
 5063.6516853933
  30
0.0
  11
 1866.1683699419
  21
 4318.6516853933
  31
0.0
   0
CIRCLE
   5
25E
 100
AcDbEntity
   8
LEVEL001
 370
13
 100
AcDbCircle
   6
CONTINUOUS
  62
1
  10
 3399.5006224951
  20
 4265.1311630274
  30
0.0
  40
 69.999997913838
   0
CIRCLE
   5
25F
 100
AcDbEntity
   8
LEVEL001
 370
13
 100
AcDbCircle
   6
CONTINUOUS
  62
1
  10
 3429.1792546837
  20
 5238.9348470248
  30
0.0
  40
 70.000000000000
   0
LEADER
   5
260
 100
AcDbEntity
   8
LEVEL001
 370
13
   6
CONTINUOUS
  62
1
 100
AcDbLeader
   3
GMM001
  73
3
  74
1
  75
0
  40
 66.000000000000
  41
0.0
  76
2
  10
 3141.1683699419
  20
 5072.6516851893
  30
0.0
  10
 3368.5574764188
  20
 5203.9348470246
  30
0.0
  77
1
   0
CIRCLE
   5
261
 100
AcDbEntity
   8
LEVEL001
 370
13
 100
AcDbCircle
   6
CONTINUOUS
  62
1
  10
 3539.5006204089
  20
 4265.1311630274
  30
0.0
  40
 70.000000000000
   0
ARC
   5
262
 100
AcDbEntity
   8
LEVEL001
 370
13
   6
CONTINUOUS
  62
1
 100
AcDbCircle
  10
 2623.9798252580
  20
 4368.6516852588
  30
0.0
  40
 7.5000000000000
 100
AcDbArc
  50
 180.00000000000
  51
0.0
   0
MTEXT
   5
264
 100
AcDbEntity
   8
LEVEL001
 370
13
  62
7
 100
AcDbMText
  10
 3399.5006224951
  20
 4265.1311630274
  30
0.0
  40
 66.000000000000
  41
0.0
  71
5
  72
1
   1
\T1.000000;１０
   7
GMM007
  44
 0.79999984000003
   0
MTEXT
   5
266
 100
AcDbEntity
   8
LEVEL001
 370
13
  62
7
 100
AcDbMText
  10
 3539.5006204089
  20
 4265.1311630274
  30
0.0
  40
 66.000000000000
  41
0.0
  71
5
  72
1
   1
\T1.000000;１１
   7
GMM007
  44
 0.79999984000003
   0
MTEXT
   5
268
 100
AcDbEntity
   8
LEVEL001
 370
13
  62
7
 100
AcDbMText
  10
 3429.1792546837
  20
 5238.9348470248
  30
0.0
  40
 66.000000000000
  41
0.0
  71
5
  72
1
   1
\T1.000000;１４
   7
GMM007
  44
 0.79999984000003
   0
LINE
   5
269
 100
AcDbEntity
   8
LEVEL001
 370
13
 100
AcDbLine
   6
DASHDOT
  62
6
  10
 2901.3681965995
  20
 4668.6516853933
  30
0.0
  11
 2536.4206977101
  21
 4668.6516853933
  31
0.0
   0
LWPOLYLINE
   5
26A
 100
AcDbEntity
   8
LEVEL001
 370
13
   6
CONTINUOUS
  62
7
 100
AcDbPolyline
  90
4
  70
0
  10
 2635.9798252580
  20
 4613.6516853933
  10
 2722.5885864529
  20
 4613.6516853933
  10
 2722.5885864529
  20
 4723.6516853933
  10
 2635.9798252580
  20
 4723.6516853933
   0
LWPOLYLINE
   5
26B
 100
AcDbEntity
   8
LEVEL001
 370
13
   6
CONTINUOUS
  62
7
 100
AcDbPolyline
  90
3
  70
0
  10
 2635.9798252580
  20
 4783.6516853933
  10
 2635.9798252580
  20
 4368.6516853933
  10
 2608.5016023275
  20
 4368.6516853933
   0
ARC
   5
26C
 100
AcDbEntity
   8
LEVEL001
 370
13
   6
CONTINUOUS
  62
7
 100
AcDbCircle
  10
 6195.9798252580
  20
 4668.6516853933
  30
0.0
  40
 3590.0000000000
 100
AcDbArc
  50
 178.16430583834
  51
 184.79353825525
   0
ARC
   5
26D
 100
AcDbEntity
   8
LEVEL001
 370
13
   6
HIDDEN
  62
2
 100
AcDbCircle
  10
 6195.9798252580
  20
 4668.6516853933
  30
0.0
  40
 3590.0000000000
 100
AcDbArc
  50
 175.20646174475
  51
 178.16430583834
   0
LINE
   5
26E
 100
AcDbEntity
   8
LEVEL001
 370
13
 100
AcDbLine
   6
HIDDEN
  62
2
  10
 2608.5016023275
  20
 4968.6516853933
  30
0.0
  11
 2635.9798252580
  21
 4968.6516853933
  31
0.0
   0
CIRCLE
   5
26F
 100
AcDbEntity
   8
LEVEL001
 370
13
 100
AcDbCircle
   6
CONTINUOUS
  62
1
  10
 2623.9798252580
  20
 4823.6516853933
  30
0.0
  40
 7.5000000000000
   0
CIRCLE
   5
270
 100
AcDbEntity
   8
LEVEL001
 370
13
 100
AcDbCircle
   6
CONTINUOUS
  62
1
  10
 2623.9798252580
  20
 4498.6516853933
  30
0.0
  40
 7.5000000000000
   0
ARC
   5
271
 100
AcDbEntity
   8
LEVEL001
 370
13
   6
CONTINUOUS
  62
1
 100
AcDbCircle
  10
 2623.9798252580
  20
 4368.6516853933
  30
0.0
  40
 7.5000000000000
 100
AcDbArc
  50
 180.00000000000
  51
0.0
   0
LINE
   5
272
 100
AcDbEntity
   8
LEVEL001
 370
13
 100
AcDbLine
   6
CONTINUOUS
  62
1
  10
 2639.3885396654
  20
 4663.6516838327
  30
0.0
  11
 2639.3885438269
  21
 4663.6516853933
  31
0.0
   0
ARC
   5
273
 100
AcDbEntity
   8
LEVEL001
 370
13
   6
CONTINUOUS
  62
1
 100
AcDbCircle
  10
 2634.5896699174
  20
 4668.6516853933
  30
0.0
  40
 4.7988739094943
 100
AcDbArc
  50
 303.26696871547
  51
 56.733031284531
   0
LINE
   5
274
 100
AcDbEntity
   8
LEVEL001
 370
13
 100
AcDbLine
   6
CONTINUOUS
  62
1
  10
 2637.2220484344
  20
 4672.6641377783
  30
0.0
  11
 2635.9800049015
  21
 4672.9070338087
  31
0.0
   0
LINE
   5
275
 100
AcDbEntity
   8
LEVEL001
 370
13
 100
AcDbLine
   6
CONTINUOUS
  62
1
  10
 2637.2220484344
  20
 4664.6392330082
  30
0.0
  11
 2635.9800049015
  21
 4664.3963371479
  31
0.0
   0
LINE
   5
276
 100
AcDbEntity
   8
LEVEL001
 370
13
 100
AcDbLine
   6
CONTINUOUS
  62
1
  10
 2635.9800049015
  20
 4668.6516853933
  30
0.0
  11
 2637.2220484344
  21
 4668.6516853933
  31
0.0
   0
LWPOLYLINE
   5
277
 100
AcDbEntity
   8
LEVEL001
 370
13
   6
CONTINUOUS
  62
7
 100
AcDbPolyline
  90
4
  70
0
  10
 2722.5885864529
  20
 4613.6516853933
  10
 2884.1642078904
  20
 4613.6516853933
  10
 2884.1642078904
  20
 4723.6516853933
  10
 2722.5885864529
  20
 4723.6516853933
   0
LWPOLYLINE
   5
278
 100
AcDbEntity
   8
LEVEL001
 370
13
   6
CONTINUOUS
  62
7
 100
AcDbPolyline
  90
4
  70
1
  10
 2857.1642078904
  20
 4691.6516853933
  10
 2871.1642078904
  20
 4691.6516853933
  10
 2871.1642078904
  20
 4705.6516853933
  10
 2857.1642078904
  20
 4705.6516853933
   0
LINE
   5
279
 100
AcDbEntity
   8
LEVEL001
 370
13
 100
AcDbLine
   6
CONTINUOUS
  62
6
  10
 2844.5922174443
  20
 4718.6516853933
  30
0.0
  11
 2844.5922174443
  21
 4618.6516853933
  31
0.0
   0
LWPOLYLINE
   5
27A
 100
AcDbEntity
   8
LEVEL001
 370
13
   6
CONTINUOUS
  62
7
 100
AcDbPolyline
  90
4
  70
1
  10
 2857.1642078904
  20
 4631.6516853933
  10
 2871.1642078904
  20
 4631.6516853933
  10
 2871.1642078904
  20
 4645.6516853933
  10
 2857.1642078904
  20
 4645.6516853933
   0
LINE
   5
27B
 100
AcDbEntity
   8
LEVEL001
 370
13
 100
AcDbLine
   6
CONTINUOUS
  62
6
  10
 2771.3808529236
  20
 4618.6516853933
  30
0.0
  11
 2771.3808529236
  21
 4718.6516853933
  31
0.0
   0
LWPOLYLINE
   5
27C
 100
AcDbEntity
   8
LEVEL001
 370
13
   6
CONTINUOUS
  62
7
 100
AcDbPolyline
  90
4
  70
1
  10
 3095.1382439373
  20
 4738.3726220249
  10
 3095.1382439373
  20
 4671.0330477669
  10
 2845.1382439373
  20
 4543.6516853932
  10
 2845.1382439373
  20
 4610.9912596513
   0
LINE
   5
27D
 100
AcDbEntity
   8
LEVEL001
 370
13
 100
AcDbLine
   6
DASHDOT
  62
6
  10
 2809.1641907878
  20
 4758.6516853933
  30
0.0
  11
 2809.1641907878
  21
 4518.6516853933
  31
0.0
   0
LWPOLYLINE
   5
27E
 100
AcDbEntity
   8
LEVEL001
 370
13
   6
CONTINUOUS
  62
7
 100
AcDbPolyline
  90
4
  70
0
  10
 2771.0141907878
  20
 4613.6516853933
  10
 2771.0141907878
  20
 4538.6516853933
  10
 2847.3141907878
  20
 4538.6516853933
  10
 2847.3141907878
  20
 4544.7603856903
   0
LINE
   5
27F
 100
AcDbEntity
   8
LEVEL001
 370
13
 100
AcDbLine
   6
CONTINUOUS
  62
7
  10
 2847.3141907878
  20
 4612.0999599484
  30
0.0
  11
 2847.3141907878
  21
 4613.6516853933
  31
0.0
   0
LWPOLYLINE
   5
280
 100
AcDbEntity
   8
LEVEL001
 370
13
   6
CONTINUOUS
  62
7
 100
AcDbPolyline
  90
4
  70
0
  10
 2847.3141907878
  20
 4723.6516853933
  10
 2847.3141907878
  20
 4738.6516853933
  10
 2771.0141907878
  20
 4738.6516853933
  10
 2771.0141907878
  20
 4723.6516853933
   0
LWPOLYLINE
   5
281
 100
AcDbEntity
   8
LEVEL001
 370
13
   6
CONTINUOUS
  62
7
 100
AcDbPolyline
  90
4
  70
1
  10
 2690.5885864529
  20
 4691.6516853933
  10
 2704.5885864529
  20
 4691.6516853933
  10
 2704.5885864529
  20
 4705.6516853933
  10
 2690.5885864529
  20
 4705.6516853933
   0
LWPOLYLINE
   5
282
 100
AcDbEntity
   8
LEVEL001
 370
13
   6
CONTINUOUS
  62
7
 100
AcDbPolyline
  90
4
  70
1
  10
 2690.5885864529
  20
 4631.6516853933
  10
 2704.5885864529
  20
 4631.6516853933
  10
 2704.5885864529
  20
 4645.6516853933
  10
 2690.5885864529
  20
 4645.6516853933
   0
ARC
   5
283
 100
AcDbEntity
   8
LEVEL001
 370
13
   6
CONTINUOUS
  62
7
 100
AcDbCircle
  10
 2740.5299755809
  20
 4664.2370992122
  30
0.0
  40
 8.0000000000000
 100
AcDbArc
  50
 324.99999999999
  51
 145.00000000000
   0
ARC
   5
284
 100
AcDbEntity
   8
LEVEL001
 370
13
   6
CONTINUOUS
  62
7
 100
AcDbCircle
  10
 2691.3808529236
  20
 4698.6516853933
  30
0.0
  40
 52.000000000000
 100
AcDbArc
  50
 306.88054979700
  51
 325.00000000000
   0
ARC
   5
285
 100
AcDbEntity
   8
LEVEL001
 370
13
   6
CONTINUOUS
  62
7
 100
AcDbCircle
  10
 2691.3808529236
  20
 4698.6516853933
  30
0.0
  40
 68.000000000000
 100
AcDbArc
  50
 297.31855192773
  51
 325.00000000000
   0
LWPOLYLINE
   5
286
 100
AcDbEntity
   8
LEVEL001
 370
13
   6
CONTINUOUS
  62
7
 100
AcDbPolyline
  90
4
  70
1
  10
 3197.1683784618
  20
 4666.6516853933
  10
 3211.1683784618
  20
 4666.6516853933
  10
 3211.1683784618
  20
 4680.6516853933
  10
 3197.1683784618
  20
 4680.6516853933
   0
LWPOLYLINE
   5
287
 100
AcDbEntity
   8
LEVEL001
 370
13
   6
CONTINUOUS
  62
7
 100
AcDbPolyline
  90
4
  70
1
  10
 3085.1683614220
  20
 4616.6516853933
  10
 3071.1683614220
  20
 4616.6516853933
  10
 3071.1683614220
  20
 4630.6516853933
  10
 3085.1683614220
  20
 4630.6516853933
   0
LWPOLYLINE
   5
288
 100
AcDbEntity
   8
LEVEL001
 370
13
   6
CONTINUOUS
  62
7
 100
AcDbPolyline
  90
4
  70
1
  10
 3437.1984959465
  20
 4613.6516853933
  10
 3187.1984959465
  20
 4613.6516853933
  10
 3187.1984959465
  20
 4553.6516853933
  10
 3437.1984959465
  20
 4553.6516853933
   0
LWPOLYLINE
   5
289
 100
AcDbEntity
   8
LEVEL001
 370
13
   6
CONTINUOUS
  62
7
 100
AcDbPolyline
  90
6
  70
0
  10
 3188.9183699419
  20
 4553.6516853933
  10
 3188.9183699419
  20
 4538.6516853933
  10
 3058.1683614220
  20
 4538.6516853933
  10
 3058.1683614220
  20
 4648.6516853933
  10
 3188.9183699419
  20
 4648.6516853933
  10
 3188.9183699419
  20
 4613.6516853933
   0
LWPOLYLINE
   5
28A
 100
AcDbEntity
   8
LEVEL001
 370
13
   6
CONTINUOUS
  62
7
 100
AcDbPolyline
  90
6
  70
0
  10
 3093.4183699419
  20
 4670.1567281963
  10
 3093.4183699419
  20
 4648.6516853933
  10
 3224.1683784618
  20
 4648.6516853933
  10
 3224.1683784618
  20
 4758.6516853933
  10
 3093.4183699419
  20
 4758.6516853933
  10
 3093.4183699419
  20
 4737.4963024543
   0
LWPOLYLINE
   5
28B
 100
AcDbEntity
   8
LEVEL001
 370
13
   6
CONTINUOUS
  62
7
 100
AcDbPolyline
  90
4
  70
1
  10
 3085.1683614220
  20
 4556.6516853933
  10
 3071.1683614220
  20
 4556.6516853933
  10
 3071.1683614220
  20
 4570.6516853933
  10
 3085.1683614220
  20
 4570.6516853933
   0
LWPOLYLINE
   5
28C
 100
AcDbEntity
   8
LEVEL001
 370
13
   6
CONTINUOUS
  62
7
 100
AcDbPolyline
  90
4
  70
1
  10
 3197.1683784618
  20
 4726.6516853933
  10
 3211.1683784618
  20
 4726.6516853933
  10
 3211.1683784618
  20
 4740.6516853933
  10
 3197.1683784618
  20
 4740.6516853933
   0
LWPOLYLINE
   5
28D
 100
AcDbEntity
   8
LEVEL001
 370
13
   6
CONTINUOUS
  62
7
 100
AcDbPolyline
  90
4
  70
0
  10
 3559.7481534309
  20
 4613.6516853933
  10
 3398.1725319934
  20
 4613.6516853933
  10
 3398.1725319934
  20
 4723.6516853933
  10
 3559.7481534309
  20
 4723.6516853933
   0
LWPOLYLINE
   5
28E
 100
AcDbEntity
   8
LEVEL001
 370
13
   6
CONTINUOUS
  62
7
 100
AcDbPolyline
  90
4
  70
1
  10
 3591.7481534309
  20
 4691.6516853933
  10
 3577.7481534309
  20
 4691.6516853933
  10
 3577.7481534309
  20
 4705.6516853933
  10
 3591.7481534309
  20
 4705.6516853933
   0
LWPOLYLINE
   5
28F
 100
AcDbEntity
   8
LEVEL001
 370
13
   6
CONTINUOUS
  62
7
 100
AcDbPolyline
  90
4
  70
1
  10
 3591.7481534309
  20
 4631.6516853933
  10
 3577.7481534309
  20
 4631.6516853933
  10
 3577.7481534309
  20
 4645.6516853933
  10
 3591.7481534309
  20
 4645.6516853933
   0
ARC
   5
290
 100
AcDbEntity
   8
LEVEL001
 370
13
   6
CONTINUOUS
  62
7
 100
AcDbCircle
  10
 3590.9558869602
  20
 4698.6516853933
  30
0.0
  40
 52.000000000000
 100
AcDbArc
  50
 215.00000000000
  51
 233.11945020300
   0
ARC
   5
291
 100
AcDbEntity
   8
LEVEL001
 370
13
   6
CONTINUOUS
  62
7
 100
AcDbCircle
  10
 3590.9558869602
  20
 4698.6516853933
  30
0.0
  40
 68.000000000000
 100
AcDbArc
  50
 215.00000000000
  51
 242.68144807227
   0
LWPOLYLINE
   5
292
 100
AcDbEntity
   8
LEVEL001
 370
13
   6
CONTINUOUS
  62
7
 100
AcDbPolyline
  90
4
  70
1
  10
 3425.1725319934
  20
 4691.6516853933
  10
 3411.1725319934
  20
 4691.6516853933
  10
 3411.1725319934
  20
 4705.6516853933
  10
 3425.1725319934
  20
 4705.6516853933
   0
LINE
   5
293
 100
AcDbEntity
   8
LEVEL001
 370
13
 100
AcDbLine
   6
CONTINUOUS
  62
6
  10
 3437.7445224394
  20
 4718.6516853933
  30
0.0
  11
 3437.7445224394
  21
 4618.6516853933
  31
0.0
   0
LWPOLYLINE
   5
294
 100
AcDbEntity
   8
LEVEL001
 370
13
   6
CONTINUOUS
  62
7
 100
AcDbPolyline
  90
4
  70
1
  10
 3425.1725319934
  20
 4631.6516853933
  10
 3411.1725319934
  20
 4631.6516853933
  10
 3411.1725319934
  20
 4645.6516853933
  10
 3425.1725319934
  20
 4645.6516853933
   0
ARC
   5
295
 100
AcDbEntity
   8
LEVEL001
 370
13
   6
CONTINUOUS
  62
7
 100
AcDbCircle
  10
 3541.8067643029
  20
 4664.2370992122
  30
0.0
  40
 8.0000000000000
 100
AcDbArc
  50
 35.000000000005
  51
 215.00000000001
   0
LINE
   5
296
 100
AcDbEntity
   8
LEVEL001
 370
13
 100
AcDbLine
   6
CONTINUOUS
  62
6
  10
 3510.9558869602
  20
 4618.6516853933
  30
0.0
  11
 3510.9558869602
  21
 4718.6516853933
  31
0.0
   0
LINE
   5
297
 100
AcDbEntity
   8
LEVEL001
 370
13
 100
AcDbLine
   6
DASHDOT
  62
6
  10
 3473.1725490959
  20
 4758.6516853933
  30
0.0
  11
 3473.1725490959
  21
 4518.6516853933
  31
0.0
   0
LWPOLYLINE
   5
298
 100
AcDbEntity
   8
LEVEL001
 370
13
   6
CONTINUOUS
  62
7
 100
AcDbPolyline
  90
4
  70
0
  10
 3435.0225490959
  20
 4723.6516853933
  10
 3435.0225490959
  20
 4738.6516853933
  10
 3511.3225490959
  20
 4738.6516853933
  10
 3511.3225490959
  20
 4723.6516853933
   0
LWPOLYLINE
   5
299
 100
AcDbEntity
   8
LEVEL001
 370
13
   6
CONTINUOUS
  62
7
 100
AcDbPolyline
  90
4
  70
0
  10
 3511.3225490959
  20
 4613.6516853933
  10
 3511.3225490959
  20
 4538.6516853933
  10
 3435.0225490959
  20
 4538.6516853933
  10
 3435.0225490959
  20
 4553.6516853933
   0
LINE
   5
29A
 100
AcDbEntity
   8
LEVEL001
 370
13
 100
AcDbLine
   6
DASHDOT
  62
6
  10
 3380.9685432843
  20
 4668.6516853933
  30
0.0
  11
 3745.9160421736
  21
 4668.6516853933
  31
0.0
   0
LWPOLYLINE
   5
29B
 100
AcDbEntity
   8
LEVEL001
 370
13
   6
CONTINUOUS
  62
7
 100
AcDbPolyline
  90
4
  70
0
  10
 3646.3569146258
  20
 4613.6516853933
  10
 3559.7481534309
  20
 4613.6516853933
  10
 3559.7481534309
  20
 4723.6516853933
  10
 3646.3569146258
  20
 4723.6516853933
   0
LWPOLYLINE
   5
29C
 100
AcDbEntity
   8
LEVEL001
 370
13
   6
CONTINUOUS
  62
7
 100
AcDbPolyline
  90
3
  70
0
  10
 3646.3569146258
  20
 4783.6516853933
  10
 3646.3569146258
  20
 4368.6516853933
  10
 3673.8351375562
  20
 4368.6516853933
   0
ARC
   5
29D
 100
AcDbEntity
   8
LEVEL001
 370
13
   6
CONTINUOUS
  62
7
 100
AcDbCircle
  10
 86.356914625803
  20
 4668.6516853933
  30
0.0
  40
 3590.0000000000
 100
AcDbArc
  50
 355.20646174474
  51
 1.8356941616577
   0
LINE
   5
29E
 100
AcDbEntity
   8
LEVEL001
 370
13
 100
AcDbLine
   6
CONTINUOUS
  62
1
  10
 3642.9482002184
  20
 4663.6516838327
  30
0.0
  11
 3642.9481960569
  21
 4663.6516853933
  31
0.0
   0
ARC
   5
29F
 100
AcDbEntity
   8
LEVEL001
 370
13
   6
CONTINUOUS
  62
1
 100
AcDbCircle
  10
 3647.7470699664
  20
 4668.6516853933
  30
0.0
  40
 4.7988739094943
 100
AcDbArc
  50
 123.26696871547
  51
 236.73303128453
   0
LINE
   5
2A0
 100
AcDbEntity
   8
LEVEL001
 370
13
 100
AcDbLine
   6
CONTINUOUS
  62
1
  10
 3645.1146914493
  20
 4672.6641377783
  30
0.0
  11
 3646.3567349823
  21
 4672.9070338087
  31
0.0
   0
LINE
   5
2A1
 100
AcDbEntity
   8
LEVEL001
 370
13
 100
AcDbLine
   6
CONTINUOUS
  62
1
  10
 3645.1146914493
  20
 4664.6392330082
  30
0.0
  11
 3646.3567349823
  21
 4664.3963371479
  31
0.0
   0
LINE
   5
2A2
 100
AcDbEntity
   8
LEVEL001
 370
13
 100
AcDbLine
   6
CONTINUOUS
  62
1
  10
 3646.3567349823
  20
 4668.6516853933
  30
0.0
  11
 3645.1146914493
  21
 4668.6516853933
  31
0.0
   0
CIRCLE
   5
2A3
 100
AcDbEntity
   8
LEVEL001
 370
13
 100
AcDbCircle
   6
CONTINUOUS
  62
1
  10
 3658.3569146258
  20
 4498.6516853933
  30
0.0
  40
 7.5000000000000
   0
ARC
   5
2A4
 100
AcDbEntity
   8
LEVEL001
 370
13
   6
HIDDEN
  62
2
 100
AcDbCircle
  10
 86.356914625805
  20
 4668.6516853932
  30
0.0
  40
 3590.0000000000
 100
AcDbArc
  50
 1.8356941616583
  51
 4.7935382552554
   0
LINE
   5
2A5
 100
AcDbEntity
   8
LEVEL001
 370
13
 100
AcDbLine
   6
HIDDEN
  62
2
  10
 3673.8351375562
  20
 4968.6516853933
  30
0.0
  11
 3646.3569146258
  21
 4968.6516853933
  31
0.0
   0
CIRCLE
   5
2A6
 100
AcDbEntity
   8
LEVEL001
 370
13
 100
AcDbCircle
   6
CONTINUOUS
  62
1
  10
 3658.3569146258
  20
 4823.6516853933
  30
0.0
  40
 7.5000000000000
   0
ARC
   5
2A7
 100
AcDbEntity
   8
LEVEL001
 370
13
   6
CONTINUOUS
  62
1
 100
AcDbCircle
  10
 3658.3569146258
  20
 4368.6516853933
  30
0.0
  40
 7.5000000000000
 100
AcDbArc
  50
 180.00000000000
  51
0.0
   0
LEADER
   5
2A8
 100
AcDbEntity
   8
LEVEL001
 370
13
   6
CONTINUOUS
  62
1
 100
AcDbLeader
   3
GMM001
  73
3
  74
1
  75
0
  40
 66.000000000000
  41
0.0
  76
2
  10
 3289.2314557479
  20
 4553.6516853933
  30
0.0
  10
 3375.5592131758
  20
 4330.9096445221
  30
0.0
  77
1
   0
LINE
   5
2A9
 100
AcDbEntity
   8
LEVEL001
 370
13
 100
AcDbLine
   6
DASHDOT
  62
6
  10
 4841.1683699419
  20
 4668.6516786704
  30
0.0
  11
 3941.1683699419
  21
 4668.6516786704
  31
0.0
   0
ARC
   5
2AA
 100
AcDbEntity
   8
LEVEL001
 370
13
   6
CONTINUOUS
  62
1
 100
AcDbCircle
  10
 3978.6683699419
  20
 4823.6516786704
  30
0.0
  40
 7.5000000000000
 100
AcDbArc
  50
 90.000000000000
  51
 270.00000000000
   0
ARC
   5
2AB
 100
AcDbEntity
   8
LEVEL001
 370
13
   6
CONTINUOUS
  62
1
 100
AcDbCircle
  10
 4803.6683699419
  20
 4823.6516786704
  30
0.0
  40
 7.5000000000000
 100
AcDbArc
  50
 270.00000000000
  51
 90.000000000000
   0
ARC
   5
2AC
 100
AcDbEntity
   8
LEVEL001
 370
13
   6
CONTINUOUS
  62
1
 100
AcDbCircle
  10
 3991.1683699419
  20
 4498.6516786704
  30
0.0
  40
 7.5000000000000
 100
AcDbArc
  50
 90.000000000000
  51
 270.00000000000
   0
ARC
   5
2AD
 100
AcDbEntity
   8
LEVEL001
 370
13
   6
CONTINUOUS
  62
1
 100
AcDbCircle
  10
 4791.1683699419
  20
 4498.6516786704
  30
0.0
  40
 7.5000000000000
 100
AcDbArc
  50
 270.00000000000
  51
 90.000000000000
   0
ARC
   5
2AE
 100
AcDbEntity
   8
LEVEL001
 370
13
   6
CONTINUOUS
  62
1
 100
AcDbCircle
  10
 4128.6683699419
  20
 4368.6516786704
  30
0.0
  40
 7.5000000000000
 100
AcDbArc
  50
 180.00000000000
  51
0.0
   0
ARC
   5
2AF
 100
AcDbEntity
   8
LEVEL001
 370
13
   6
CONTINUOUS
  62
1
 100
AcDbCircle
  10
 4791.1683699419
  20
 4498.6516786704
  30
0.0
  40
 7.5000000000000
 100
AcDbArc
  50
 270.00000000000
  51
 90.000000000000
   0
ARC
   5
2B0
 100
AcDbEntity
   8
LEVEL001
 370
13
   6
CONTINUOUS
  62
1
 100
AcDbCircle
  10
 4653.6683699419
  20
 4368.6516786704
  30
0.0
  40
 7.5000000000000
 100
AcDbArc
  50
 180.00000000000
  51
0.0
   0
ARC
   5
2B1
 100
AcDbEntity
   8
LEVEL001
 370
13
   6
CONTINUOUS
  62
1
 100
AcDbCircle
  10
 4391.1683699419
  20
 4368.6516786704
  30
0.0
  40
 7.5000000000000
 100
AcDbArc
  50
 180.00000000000
  51
0.0
   0
ARC
   5
2B2
 100
AcDbEntity
   8
LEVEL001
 370
13
   6
CONTINUOUS
  62
7
 100
AcDbCircle
  10
 4786.1683699419
  20
 4963.6516786704
  30
0.0
  40
 5.0000000000000
 100
AcDbArc
  50
0.0
  51
 90.000000000000
   0
ARC
   5
2B3
 100
AcDbEntity
   8
LEVEL001
 370
13
   6
CONTINUOUS
  62
2
 100
AcDbCircle
  10
 4761.1683699419
  20
 4938.6516786704
  30
0.0
  40
 5.0000000000000
 100
AcDbArc
  50
0.0
  51
 90.000000000000
   0
LINE
   5
2B4
 100
AcDbEntity
   8
LEVEL001
 370
13
 100
AcDbLine
   6
CONTINUOUS
  62
2
  10
 4766.1683699419
  20
 4398.6516786704
  30
0.0
  11
 4766.1683699419
  21
 4938.6516786704
  31
0.0
   0
ARC
   5
2B5
 100
AcDbEntity
   8
LEVEL001
 370
13
   6
CONTINUOUS
  62
2
 100
AcDbCircle
  10
 4761.1683699419
  20
 4398.6516786704
  30
0.0
  40
 5.0000000000000
 100
AcDbArc
  50
 270.00000000000
  51
0.0
   0
LINE
   5
2B6
 100
AcDbEntity
   8
LEVEL001
 370
13
 100
AcDbLine
   6
CONTINUOUS
  62
7
  10
 4791.1683699419
  20
 4373.6516786704
  30
0.0
  11
 4791.1683699419
  21
 4963.6516786704
  31
0.0
   0
ARC
   5
2B7
 100
AcDbEntity
   8
LEVEL001
 370
13
   6
CONTINUOUS
  62
7
 100
AcDbCircle
  10
 4786.1683699419
  20
 4373.6516786704
  30
0.0
  40
 5.0000000000000
 100
AcDbArc
  50
 270.00000000000
  51
0.0
   0
LINE
   5
2B8
 100
AcDbEntity
   8
LEVEL001
 370
13
 100
AcDbLine
   6
CONTINUOUS
  62
7
  10
 3996.1683699419
  20
 4368.6516786704
  30
0.0
  11
 4786.1683699419
  21
 4368.6516786704
  31
0.0
   0
ARC
   5
2B9
 100
AcDbEntity
   8
LEVEL001
 370
13
   6
CONTINUOUS
  62
7
 100
AcDbCircle
  10
 3996.1683699419
  20
 4373.6516786704
  30
0.0
  40
 5.0000000000000
 100
AcDbArc
  50
 180.00000000000
  51
 270.00000000000
   0
LINE
   5
2BA
 100
AcDbEntity
   8
LEVEL001
 370
13
 100
AcDbLine
   6
CONTINUOUS
  62
2
  10
 4021.1683699419
  20
 4393.6516786704
  30
0.0
  11
 4761.1683699419
  21
 4393.6516786704
  31
0.0
   0
ARC
   5
2BB
 100
AcDbEntity
   8
LEVEL001
 370
13
   6
CONTINUOUS
  62
2
 100
AcDbCircle
  10
 4021.1683699419
  20
 4398.6516786704
  30
0.0
  40
 5.0000000000000
 100
AcDbArc
  50
 180.00000000000
  51
 270.00000000000
   0
LINE
   5
2BC
 100
AcDbEntity
   8
LEVEL001
 370
13
 100
AcDbLine
   6
CONTINUOUS
  62
2
  10
 4761.1683699419
  20
 4943.6516786704
  30
0.0
  11
 4021.1683699419
  21
 4943.6516786704
  31
0.0
   0
LINE
   5
2BD
 100
AcDbEntity
   8
LEVEL001
 370
13
 100
AcDbLine
   6
CONTINUOUS
  62
2
  10
 4016.1683699419
  20
 4938.6516786704
  30
0.0
  11
 4016.1683699419
  21
 4398.6516786704
  31
0.0
   0
ARC
   5
2BE
 100
AcDbEntity
   8
LEVEL001
 370
13
   6
CONTINUOUS
  62
2
 100
AcDbCircle
  10
 4021.1683699419
  20
 4938.6516786704
  30
0.0
  40
 5.0000000000000
 100
AcDbArc
  50
 90.000000000000
  51
 180.00000000000
   0
LINE
   5
2BF
 100
AcDbEntity
   8
LEVEL001
 370
13
 100
AcDbLine
   6
CONTINUOUS
  62
7
  10
 4786.1683699419
  20
 4968.6516786704
  30
0.0
  11
 3996.1683699419
  21
 4968.6516786704
  31
0.0
   0
LINE
   5
2C0
 100
AcDbEntity
   8
LEVEL001
 370
13
 100
AcDbLine
   6
CONTINUOUS
  62
7
  10
 3991.1683699419
  20
 4963.6516786704
  30
0.0
  11
 3991.1683699419
  21
 4373.6516786704
  31
0.0
   0
ARC
   5
2C1
 100
AcDbEntity
   8
LEVEL001
 370
13
   6
CONTINUOUS
  62
7
 100
AcDbCircle
  10
 3996.1683699419
  20
 4963.6516786704
  30
0.0
  40
 5.0000000000000
 100
AcDbArc
  50
 90.000000000000
  51
 180.00000000000
   0
ARC
   5
2C2
 100
AcDbEntity
   8
LEVEL001
 370
13
   6
CONTINUOUS
  62
7
 100
AcDbCircle
  10
 4788.6683699419
  20
 4963.6516786704
  30
0.0
  40
 15.000000000000
 100
AcDbArc
  50
0.0
  51
 90.000000000000
   0
LINE
   5
2C3
 100
AcDbEntity
   8
LEVEL001
 370
13
 100
AcDbLine
   6
CONTINUOUS
  62
7
  10
 3993.6683699419
  20
 4978.6516786704
  30
0.0
  11
 4788.6683699419
  21
 4978.6516786704
  31
0.0
   0
ARC
   5
2C4
 100
AcDbEntity
   8
LEVEL001
 370
13
   6
CONTINUOUS
  62
7
 100
AcDbCircle
  10
 3993.6683699419
  20
 4963.6516786704
  30
0.0
  40
 15.000000000000
 100
AcDbArc
  50
 90.000000000002
  51
 180.00000000000
   0
CIRCLE
   5
2C5
 100
AcDbEntity
   8
LEVEL001
 370
13
 100
AcDbCircle
   6
CONTINUOUS
  62
2
  10
 4391.1680647661
  20
 4668.6516853933
  30
0.0
  40
 99.999997009768
   0
CIRCLE
   5
2C6
 100
AcDbEntity
   8
LEVEL001
 370
13
 100
AcDbCircle
   6
CONTINUOUS
  62
7
  10
 4351.1680714890
  20
 4703.6516853933
  30
0.0
  40
 7.0000000000000
   0
LINE
   5
2C7
 100
AcDbEntity
   8
LEVEL001
 370
13
 100
AcDbLine
   6
DASHDOT
  62
6
  10
 4351.1680714890
  20
 4683.6516853933
  30
0.0
  11
 4351.1680714890
  21
 4723.6516853933
  31
0.0
   0
LINE
   5
2C8
 100
AcDbEntity
   8
LEVEL001
 370
13
 100
AcDbLine
   6
DASHDOT
  62
6
  10
 4371.1680714890
  20
 4703.6516853933
  30
0.0
  11
 4331.1680714890
  21
 4703.6516853933
  31
0.0
   0
CIRCLE
   5
2C9
 100
AcDbEntity
   8
LEVEL001
 370
13
 100
AcDbCircle
   6
CONTINUOUS
  62
7
  10
 4431.1680714890
  20
 4703.6516853933
  30
0.0
  40
 7.0000000000000
   0
LINE
   5
2CA
 100
AcDbEntity
   8
LEVEL001
 370
13
 100
AcDbLine
   6
DASHDOT
  62
6
  10
 4411.1680714890
  20
 4703.6516853933
  30
0.0
  11
 4451.1680714890
  21
 4703.6516853933
  31
0.0
   0
LINE
   5
2CB
 100
AcDbEntity
   8
LEVEL001
 370
13
 100
AcDbLine
   6
DASHDOT
  62
6
  10
 4431.1680714890
  20
 4683.6516853933
  30
0.0
  11
 4431.1680714890
  21
 4723.6516853933
  31
0.0
   0
CIRCLE
   5
2CC
 100
AcDbEntity
   8
LEVEL001
 370
13
 100
AcDbCircle
   6
CONTINUOUS
  62
7
  10
 4431.1680714890
  20
 4633.6516853933
  30
0.0
  40
 7.0000000000000
   0
LINE
   5
2CD
 100
AcDbEntity
   8
LEVEL001
 370
13
 100
AcDbLine
   6
DASHDOT
  62
6
  10
 4431.1680714890
  20
 4653.6516853933
  30
0.0
  11
 4431.1680714890
  21
 4613.6516853933
  31
0.0
   0
LINE
   5
2CE
 100
AcDbEntity
   8
LEVEL001
 370
13
 100
AcDbLine
   6
DASHDOT
  62
6
  10
 4411.1680714890
  20
 4633.6516853933
  30
0.0
  11
 4451.1680714890
  21
 4633.6516853933
  31
0.0
   0
CIRCLE
   5
2CF
 100
AcDbEntity
   8
LEVEL001
 370
13
 100
AcDbCircle
   6
CONTINUOUS
  62
7
  10
 4351.1680714890
  20
 4633.6516853933
  30
0.0
  40
 7.0000000000000
   0
LINE
   5
2D0
 100
AcDbEntity
   8
LEVEL001
 370
13
 100
AcDbLine
   6
DASHDOT
  62
6
  10
 4371.1680714890
  20
 4633.6516853933
  30
0.0
  11
 4331.1680714890
  21
 4633.6516853933
  31
0.0
   0
LINE
   5
2D1
 100
AcDbEntity
   8
LEVEL001
 370
13
 100
AcDbLine
   6
DASHDOT
  62
6
  10
 4351.1680714890
  20
 4653.6516853933
  30
0.0
  11
 4351.1680714890
  21
 4613.6516853933
  31
0.0
   0
ARC
   5
2D2
 100
AcDbEntity
   8
LEVEL001
 370
13
   6
CONTINUOUS
  62
2
 100
AcDbCircle
  10
 4690.0508247159
  20
 4886.7550916136
  30
0.0
  40
 13.049657887988
 100
AcDbArc
  50
 316.11934084565
  51
 116.11934084949
   0
LINE
   5
2D3
 100
AcDbEntity
   8
LEVEL001
 370
13
 100
AcDbLine
   6
CONTINUOUS
  62
2
  10
 4684.3058135177
  20
 4898.4721056242
  30
0.0
  11
 4468.3303263069
  21
 4768.0879071031
  31
0.0
   0
ARC
   5
2D4
 100
AcDbEntity
   8
LEVEL001
 370
13
   6
CONTINUOUS
  62
2
 100
AcDbCircle
  10
 4460.5779911733
  20
 4780.9292972139
  30
0.0
  40
 15.000000000000
 100
AcDbArc
  50
 238.27567775435
  51
 301.11934084949
   0
LINE
   5
2D5
 100
AcDbEntity
   8
LEVEL001
 370
13
 100
AcDbLine
   6
CONTINUOUS
  62
2
  10
 4699.4568241559
  20
 4877.7096095630
  30
0.0
  11
 4509.4033500090
  21
 4711.8023868998
  31
0.0
   0
ARC
   5
2D6
 100
AcDbEntity
   8
LEVEL001
 370
13
   6
CONTINUOUS
  62
2
 100
AcDbCircle
  10
 4519.2677937440
  20
 4700.5022652279
  30
0.0
  40
 15.000000000000
 100
AcDbArc
  50
 131.11934084949
  51
 193.96282381872
   0
LINE
   5
2D7
 100
AcDbEntity
   8
LEVEL001
 370
13
 100
AcDbLine
   6
CONTINUOUS
  62
6
  10
 4661.8060957133
  20
 4869.7037752767
  30
0.0
  11
 4470.7850943534
  21
 4754.3845763960
  31
0.0
   0
LINE
   5
2D8
 100
AcDbEntity
   8
LEVEL001
 370
13
 100
AcDbLine
   6
CONTINUOUS
  62
6
  10
 4665.1961266212
  20
 4865.0581773660
  30
0.0
  11
 4497.1021322294
  21
 4718.3204874549
  31
0.0
   0
ARC
   5
2D9
 100
AcDbEntity
   8
LEVEL001
 370
13
   6
CONTINUOUS
  62
2
 100
AcDbCircle
  10
 4690.0508247159
  20
 4450.5482791729
  30
0.0
  40
 13.049657887988
 100
AcDbArc
  50
 243.88065915052
  51
 43.880659154340
   0
LINE
   5
2DA
 100
AcDbEntity
   8
LEVEL001
 370
13
 100
AcDbLine
   6
CONTINUOUS
  62
6
  10
 4661.8060957133
  20
 4467.5995955098
  30
0.0
  11
 4470.7850943534
  21
 4582.9187943905
  31
0.0
   0
LINE
   5
2DB
 100
AcDbEntity
   8
LEVEL001
 370
13
 100
AcDbLine
   6
CONTINUOUS
  62
6
  10
 4665.1961266212
  20
 4472.2451934205
  30
0.0
  11
 4497.1021322294
  21
 4618.9828833316
  31
0.0
   0
ARC
   5
2DC
 100
AcDbEntity
   8
LEVEL001
 370
13
   6
CONTINUOUS
  62
2
 100
AcDbCircle
  10
 4092.2859151678
  20
 4450.5482791729
  30
0.0
  40
 13.049657887988
 100
AcDbArc
  50
 136.11934084566
  51
 296.11934084948
   0
LINE
   5
2DD
 100
AcDbEntity
   8
LEVEL001
 370
13
 100
AcDbLine
   6
CONTINUOUS
  62
6
  10
 4120.5306441704
  20
 4467.5995955098
  30
0.0
  11
 4311.5516455303
  21
 4582.9187943905
  31
0.0
   0
LINE
   5
2DE
 100
AcDbEntity
   8
LEVEL001
 370
13
 100
AcDbLine
   6
CONTINUOUS
  62
6
  10
 4117.1406132626
  20
 4472.2451934205
  30
0.0
  11
 4285.2346076544
  21
 4618.9828833316
  31
0.0
   0
ARC
   5
2DF
 100
AcDbEntity
   8
LEVEL001
 370
13
   6
CONTINUOUS
  62
2
 100
AcDbCircle
  10
 4092.2859151678
  20
 4886.7550781678
  30
0.0
  40
 13.049657887988
 100
AcDbArc
  50
 63.880659150514
  51
 223.88065915435
   0
LINE
   5
2E0
 100
AcDbEntity
   8
LEVEL001
 370
13
 100
AcDbLine
   6
CONTINUOUS
  62
6
  10
 4120.5306441704
  20
 4869.7037618309
  30
0.0
  11
 4311.5516455303
  21
 4754.3845629502
  31
0.0
   0
LINE
   5
2E1
 100
AcDbEntity
   8
LEVEL001
 370
13
 100
AcDbLine
   6
CONTINUOUS
  62
6
  10
 4117.1406132626
  20
 4865.0581639202
  30
0.0
  11
 4285.2346076544
  21
 4718.3204740091
  31
0.0
   0
LINE
   5
2E2
 100
AcDbEntity
   8
LEVEL001
 370
13
 100
AcDbLine
   6
CONTINUOUS
  62
2
  10
 4699.4568241559
  20
 4459.5937612236
  30
0.0
  11
 4509.4033500090
  21
 4625.5009838867
  31
0.0
   0
ARC
   5
2E3
 100
AcDbEntity
   8
LEVEL001
 370
13
   6
CONTINUOUS
  62
2
 100
AcDbCircle
  10
 4519.2677937440
  20
 4636.8011055586
  30
0.0
  40
 15.000000000000
 100
AcDbArc
  50
 166.03717618128
  51
 228.88065915052
   0
ARC
   5
2E4
 100
AcDbEntity
   8
LEVEL001
 370
13
   6
CONTINUOUS
  62
2
 100
AcDbCircle
  10
 4391.1680647661
  20
 4668.6516853933
  30
0.0
  40
 117.00000000000
 100
AcDbArc
  50
 346.03717618128
  51
 13.962823818722
   0
LINE
   5
2E5
 100
AcDbEntity
   8
LEVEL001
 370
13
 100
AcDbLine
   6
CONTINUOUS
  62
2
  10
 4684.3058135177
  20
 4438.8312651623
  30
0.0
  11
 4468.3303263069
  21
 4569.2154636834
  31
0.0
   0
ARC
   5
2E6
 100
AcDbEntity
   8
LEVEL001
 370
13
   6
CONTINUOUS
  62
2
 100
AcDbCircle
  10
 4460.5779911733
  20
 4556.3740735726
  30
0.0
  40
 15.000000000000
 100
AcDbArc
  50
 58.880659150517
  51
 121.72432224565
   0
LINE
   5
2E7
 100
AcDbEntity
   8
LEVEL001
 370
13
 100
AcDbLine
   6
CONTINUOUS
  62
2
  10
 4098.0309263661
  20
 4438.8312651623
  30
0.0
  11
 4314.0061047801
  21
 4569.2152772631
  31
0.0
   0
ARC
   5
2E8
 100
AcDbEntity
   8
LEVEL001
 370
13
   6
CONTINUOUS
  62
2
 100
AcDbCircle
  10
 4321.7584399137
  20
 4556.3738871523
  30
0.0
  40
 15.000000000000
 100
AcDbArc
  50
 58.275831638986
  51
 121.11934084948
   0
ARC
   5
2E9
 100
AcDbEntity
   8
LEVEL001
 370
13
   6
CONTINUOUS
  62
2
 100
AcDbCircle
  10
 4391.1680647661
  20
 4668.6516853933
  30
0.0
  40
 117.00000000000
 100
AcDbArc
  50
 238.27583163899
  51
 301.72432224565
   0
LINE
   5
2EA
 100
AcDbEntity
   8
LEVEL001
 370
13
 100
AcDbLine
   6
CONTINUOUS
  62
2
  10
 4082.8799157279
  20
 4459.5937612236
  30
0.0
  11
 4272.9328883743
  21
 4625.5005461018
  31
0.0
   0
ARC
   5
2EB
 100
AcDbEntity
   8
LEVEL001
 370
13
   6
CONTINUOUS
  62
2
 100
AcDbCircle
  10
 4263.0684446394
  20
 4636.8006677738
  30
0.0
  40
 15.000000000000
 100
AcDbArc
  50
 311.11934084948
  51
 13.963019628937
   0
LINE
   5
2EC
 100
AcDbEntity
   8
LEVEL001
 370
13
 100
AcDbLine
   6
CONTINUOUS
  62
2
  10
 4082.8799157279
  20
 4877.7095961172
  30
0.0
  11
 4272.9328856274
  21
 4711.8028136369
  31
0.0
   0
ARC
   5
2ED
 100
AcDbEntity
   8
LEVEL001
 370
13
   6
CONTINUOUS
  62
2
 100
AcDbCircle
  10
 4263.0684418925
  20
 4700.5026919649
  30
0.0
  40
 15.000000000000
 100
AcDbArc
  50
 346.03698531248
  51
 48.880659150519
   0
ARC
   5
2EE
 100
AcDbEntity
   8
LEVEL001
 370
13
   6
CONTINUOUS
  62
2
 100
AcDbCircle
  10
 4391.1680647661
  20
 4668.6516853933
  30
0.0
  40
 117.00000000000
 100
AcDbArc
  50
 166.03698531248
  51
 193.96301962894
   0
LINE
   5
2EF
 100
AcDbEntity
   8
LEVEL001
 370
13
 100
AcDbLine
   6
CONTINUOUS
  62
2
  10
 4098.0309263661
  20
 4898.4720921785
  30
0.0
  11
 4314.0060937761
  21
 4768.0880867208
  31
0.0
   0
ARC
   5
2F0
 100
AcDbEntity
   8
LEVEL001
 370
13
   6
CONTINUOUS
  62
2
 100
AcDbCircle
  10
 4321.7584289096
  20
 4780.9294768316
  30
0.0
  40
 15.000000000000
 100
AcDbArc
  50
 238.88065915052
  51
 301.72417397642
   0
ARC
   5
2F1
 100
AcDbEntity
   8
LEVEL001
 370
13
   6
CONTINUOUS
  62
2
 100
AcDbCircle
  10
 4391.1680647661
  20
 4668.6516853933
  30
0.0
  40
 117.00000000000
 100
AcDbArc
  50
 58.275677754348
  51
 121.72417397642
   0
CIRCLE
   5
2F2
 100
AcDbEntity
   8
LEVEL001
 370
13
 100
AcDbCircle
   6
CONTINUOUS
  62
1
  10
 3997.6029612913
  20
 4243.2583994669
  30
0.0
  40
 69.999997913838
   0
MTEXT
   5
2F4
 100
AcDbEntity
   8
LEVEL001
 370
13
  62
7
 100
AcDbMText
  10
 3997.6029612913
  20
 4243.2583994669
  30
0.0
  40
 66.000000000000
  41
0.0
  71
5
  72
1
   1
\T1.000000;２
   7
GMM007
  44
 0.79999984000003
   0
LEADER
   5
2F5
 100
AcDbEntity
   8
LEVEL001
 370
13
   6
CONTINUOUS
  62
1
 100
AcDbLeader
   3
GMM001
  73
3
  74
1
  75
0
  40
 66.000000000000
  41
0.0
  76
2
  10
 4191.1744463375
  20
 4436.8298845131
  30
0.0
  10
 4047.1004344992
  20
 4292.7558726748
  30
0.0
  77
1
   0
CIRCLE
   5
2F6
 100
AcDbEntity
   8
LEVEL001
 370
13
 100
AcDbCircle
   6
CONTINUOUS
  62
1
  10
 1680.9510255084
  20
 2760.2368250989
  30
0.0
  40
 70.000000000000
   0
MTEXT
   5
2F8
 100
AcDbEntity
   8
LEVEL001
 370
13
  62
7
 100
AcDbMText
  10
 1680.9510255084
  20
 2760.2368250989
  30
0.0
  40
 66.000000000000
  41
0.0
  71
5
  72
1
   1
\T1.000000;１２
   7
GMM007
  44
 0.79999984000003
   0
LEADER
   5
2F9
 100
AcDbEntity
   8
LEVEL001
 370
13
   6
CONTINUOUS
  62
1
 100
AcDbLeader
   3
GMM001
  73
3
  74
1
  75
0
  40
 66.000000000000
  41
0.0
  76
2
  10
 1435.7183699419
  20
 2618.6516853933
  30
0.0
  10
 1620.3292472435
  20
 2725.2368250987
  30
0.0
  77
1
   0
MTEXT
   5
2FB
 100
AcDbEntity
   8
LEVEL001
 370
13
  62
1
 100
AcDbMText
  10
 1775.6103534999
  20
 2796.7242780986
  30
0.0
  40
 66.000000000000
  41
0.0
  71
1
  72
1
   1
{\W0.787879;\T1.000000;支柱}\P%%c{\W0.787879;\T1.000000;８９\W0.393939;\T1.000000;.\W0.787879;\T1.000000;１ｘ３\W0.393939;\T1.000000;.\W0.787879;\T1.000000;２ｔ}\P{\W0.787879;\T1.000000;ｘ４４００Ｌ}\P{\W0.787879;\T1.000000;ＳＴＫ４００}
   7
GMM007
  44
 0.79999984000003
   0
CIRCLE
   5
2FC
 100
AcDbEntity
   8
LEVEL001
 370
13
 100
AcDbCircle
   6
CONTINUOUS
  62
1
  10
 2391.1683699419
  20
 5118.6516853933
  30
0.0
  40
 69.999997913838
   0
MTEXT
   5
2FE
 100
AcDbEntity
   8
LEVEL001
 370
13
  62
7
 100
AcDbMText
  10
 2391.1683699419
  20
 5118.6516853933
  30
0.0
  40
 66.000000000000
  41
0.0
  71
5
  72
1
   1
\T1.000000;３
   7
GMM007
  44
 0.79999984000003
   0
CIRCLE
   5
2FF
 100
AcDbEntity
   8
LEVEL001
 370
13
 100
AcDbCircle
   6
CONTINUOUS
  62
1
  10
 2391.1683699419
  20
 4368.6516853933
  30
0.0
  40
 69.999997913838
   0
MTEXT
   5
301
 100
AcDbEntity
   8
LEVEL001
 370
13
  62
7
 100
AcDbMText
  10
 2391.1683699419
  20
 4368.6516853933
  30
0.0
  40
 66.000000000000
  41
0.0
  71
5
  72
1
   1
\T1.000000;１
   7
GMM007
  44
 0.79999984000003
   0
LEADER
   5
302
 100
AcDbEntity
   8
LEVEL001
 370
13
   6
CONTINUOUS
  62
1
 100
AcDbLeader
   3
GMM001
  73
3
  74
1
  75
0
  40
 66.000000000000
  41
0.0
  76
2
  10
 2141.1683699419
  20
 4493.6516853933
  30
0.0
  10
 2328.5584684378
  20
 4399.9566361453
  30
0.0
  77
1
   0
LEADER
   5
303
 100
AcDbEntity
   8
LEVEL001
 370
13
   6
CONTINUOUS
  62
1
 100
AcDbLeader
   3
GMM001
  73
3
  74
1
  75
0
  40
 66.000000000000
  41
0.0
  76
2
  10
 2600.2358132350
  20
 4493.6516853933
  30
0.0
  10
 2451.2486439840
  20
 4404.5732719251
  30
0.0
  77
1
   0
DIMENSION
   5
304
 100
AcDbEntity
   8
LEVEL001
 370
13
   6
CONTINUOUS
  62
6
 100
AcDbDimension
   2
*D9
  10
 1641.1683699419
  20
 368.65168539326
  30
0.0
  11
 1391.1683699419
  21
 368.65168539326
  31
0.0
  70
0
   3
GMM002
 100
AcDbAlignedDimension
  13
 1141.1683699419
  23
 568.65168539326
  33
0.0
  14
 1641.1683699419
  24
 568.65168539326
  34
0.0
 100
AcDbRotatedDimension
   0
DIMENSION
   5
305
 100
AcDbEntity
   8
LEVEL001
 370
13
   6
CONTINUOUS
  62
6
 100
AcDbDimension
   2
*D10
  10
 641.16836994188
  20
 668.65168539326
  30
0.0
  11
 641.16836994188
  21
 618.65168539326
  31
0.0
  70
0
   3
GMM003
 100
AcDbAlignedDimension
  13
 1141.1683699419
  23
 568.65168539326
  33
0.0
  14
 1141.1683699419
  24
 668.65168539326
  34
0.0
  50
 90.000000000000
 100
AcDbRotatedDimension
   0
DIMENSION
   5
306
 100
AcDbEntity
   8
LEVEL001
 370
13
   6
CONTINUOUS
  62
6
 100
AcDbDimension
   2
*D11
  10
 641.16836994188
  20
 1868.6516853933
  30
0.0
  11
 641.16836994188
  21
 1268.6516853933
  31
0.0
  70
0
   3
GMM003
 100
AcDbAlignedDimension
  13
 1141.1683699419
  23
 668.65168539326
  33
0.0
  14
 841.16843517684
  24
 1868.6516853933
  34
0.0
  50
 90.000000000000
 100
AcDbRotatedDimension
   0
DIMENSION
   5
307
 100
AcDbEntity
   8
LEVEL001
 370
13
   6
CONTINUOUS
  62
6
 100
AcDbDimension
   2
*D12
  10
 641.16836994188
  20
 4368.6516853933
  30
0.0
  11
 641.16836994188
  21
 3118.6516853933
  31
0.0
  70
0
   1
\A1;2500(標準設置高さ)
   3
GMM004
 100
AcDbAlignedDimension
  13
 841.16843517684
  23
 1868.6516853933
  33
0.0
  14
 641.16836994188
  24
 4368.6516853933
  34
0.0
  50
 90.000000000000
 100
AcDbRotatedDimension
   0
CIRCLE
   5
308
 100
AcDbEntity
   8
LEVEL001
 370
13
 100
AcDbCircle
   6
CONTINUOUS
  62
1
  10
 3266.1683699419
  20
 4993.6516853933
  30
0.0
  40
 69.999997913838
   0
CIRCLE
   5
309
 100
AcDbEntity
   8
LEVEL001
 370
13
 100
AcDbCircle
   6
CONTINUOUS
  62
1
  10
 3406.1683657696
  20
 4993.6516853933
  30
0.0
  40
 69.999997913838
   0
MTEXT
   5
30B
 100
AcDbEntity
   8
LEVEL001
 370
13
  62
7
 100
AcDbMText
  10
 3266.1683699419
  20
 4993.6516853933
  30
0.0
  40
 66.000000000000
  41
0.0
  71
5
  72
1
   1
\T1.000000;７
   7
GMM007
  44
 0.79999984000003
   0
MTEXT
   5
30D
 100
AcDbEntity
   8
LEVEL001
 370
13
  62
7
 100
AcDbMText
  10
 3406.1683657696
  20
 4993.6516853933
  30
0.0
  40
 66.000000000000
  41
0.0
  71
5
  72
1
   1
\T1.000000;９
   7
GMM007
  44
 0.79999984000003
   0
CIRCLE
   5
30E
 100
AcDbEntity
   8
LEVEL001
 370
13
 100
AcDbCircle
   6
CONTINUOUS
  62
1
  10
 2891.1683699419
  20
 5243.6516853933
  30
0.0
  40
 69.999997913838
   0
CIRCLE
   5
30F
 100
AcDbEntity
   8
LEVEL001
 370
13
 100
AcDbCircle
   6
CONTINUOUS
  62
1
  10
 3031.1683657696
  20
 5243.6516853933
  30
0.0
  40
 69.999997913838
   0
MTEXT
   5
311
 100
AcDbEntity
   8
LEVEL001
 370
13
  62
7
 100
AcDbMText
  10
 2891.1683699419
  20
 5243.6516853933
  30
0.0
  40
 66.000000000000
  41
0.0
  71
5
  72
1
   1
\T1.000000;６
   7
GMM007
  44
 0.79999984000003
   0
MTEXT
   5
313
 100
AcDbEntity
   8
LEVEL001
 370
13
  62
7
 100
AcDbMText
  10
 3031.1683657696
  20
 5243.6516853933
  30
0.0
  40
 66.000000000000
  41
0.0
  71
5
  72
1
   1
\T1.000000;８
   7
GMM007
  44
 0.79999984000003
   0
LEADER
   5
314
 100
AcDbEntity
   8
LEVEL001
 370
13
   6
CONTINUOUS
  62
1
 100
AcDbLeader
   3
GMM005
  73
3
  74
1
  75
0
  40
 66.000000000000
  41
0.0
  76
2
  10
 2884.1642078904
  20
 4723.6516853933
  30
0.0
  10
 3209.7122087123
  20
 4952.2668866483
  30
0.0
  77
1
   0
LEADER
   5
315
 100
AcDbEntity
   8
LEVEL001
 370
13
   6
CONTINUOUS
  62
1
 100
AcDbLeader
   3
GMM001
  73
3
  74
1
  75
0
  40
 66.000000000000
  41
0.0
  76
2
  10
 2703.6683699419
  20
 4723.6516853933
  30
0.0
  10
 2868.1549692847
  20
 5177.5428123267
  30
0.0
  77
1
   0
LINE
   5
316
 100
AcDbEntity
   8
LEVEL001
 370
13
 100
AcDbLine
   6
CONTINUOUS
  62
5
  10
 1641.1683699419
  20
 1554.0070244526
  30
0.0
  11
 1435.7183699419
  21
 1348.5570244526
  31
0.0
   0
LINE
   5
317
 100
AcDbEntity
   8
LEVEL001
 370
13
 100
AcDbLine
   6
CONTINUOUS
  62
5
  10
 1435.7183699419
  20
 1313.2016853933
  30
0.0
  11
 1641.1683699419
  21
 1518.6516853933
  31
0.0
   0
LINE
   5
318
 100
AcDbEntity
   8
LEVEL001
 370
13
 100
AcDbLine
   6
CONTINUOUS
  62
5
  10
 1641.1683699419
  20
 1483.2963463340
  30
0.0
  11
 1435.7183699419
  21
 1277.8463463340
  31
0.0
   0
LINE
   5
319
 100
AcDbEntity
   8
LEVEL001
 370
13
 100
AcDbLine
   6
CONTINUOUS
  62
5
  10
 1346.6183699419
  20
 1259.4570244526
  30
0.0
  11
 1141.1683699419
  21
 1054.0070244526
  31
0.0
   0
LINE
   5
31A
 100
AcDbEntity
   8
LEVEL001
 370
13
 100
AcDbLine
   6
CONTINUOUS
  62
5
  10
 1141.1683699419
  20
 1018.6516853933
  30
0.0
  11
 1346.6183699419
  21
 1224.1016853933
  31
0.0
   0
LINE
   5
31B
 100
AcDbEntity
   8
LEVEL001
 370
13
 100
AcDbLine
   6
CONTINUOUS
  62
5
  10
 1346.6183699419
  20
 1188.7463463340
  30
0.0
  11
 1141.1683699419
  21
 983.29634633397
  31
0.0
   0
LWPOLYLINE
   5
31C
 100
AcDbEntity
   8
LEVEL001
 370
13
   6
CONTINUOUS
  62
7
 100
AcDbPolyline
  90
4
  70
0
  10
 2696.6183699419
  20
 976.15168539326
  10
 2624.7683518562
  20
 976.15168539326
  10
 2624.7683518562
  20
 961.15168539326
  10
 2696.6183699419
  20
 961.15168539326
   0
LWPOLYLINE
   5
31D
 100
AcDbEntity
   8
LEVEL001
 370
13
   6
CONTINUOUS
  62
7
 100
AcDbPolyline
  90
4
  70
0
  10
 2785.7183699419
  20
 976.15168539326
  10
 2857.5683518562
  20
 976.15168539326
  10
 2857.5683518562
  20
 961.15168539326
  10
 2785.7183699419
  20
 961.15168539326
   0
LINE
   5
31E
 100
AcDbEntity
   8
LEVEL002
 370
13
 100
AcDbLine
   6
CONTINUOUS
  62
5
  10
 2641.1683699419
  20
 668.65168539326
  30
0.0
  11
 2591.1683699419
  21
 568.65168539326
  31
0.0
   0
LINE
   5
31F
 100
AcDbEntity
   8
LEVEL002
 370
13
 100
AcDbLine
   6
CONTINUOUS
  62
5
  10
 2591.1683699419
  20
 668.65168539326
  30
0.0
  11
 2631.1683699419
  21
 648.65168539326
  31
0.0
   0
LINE
   5
320
 100
AcDbEntity
   8
LEVEL002
 370
13
 100
AcDbLine
   6
CONTINUOUS
  62
5
  10
 2591.1683699419
  20
 668.65168539326
  30
0.0
  11
 2541.1683699419
  21
 568.65168539326
  31
0.0
   0
LINE
   5
321
 100
AcDbEntity
   8
LEVEL002
 370
13
 100
AcDbLine
   6
CONTINUOUS
  62
5
  10
 2541.1683699419
  20
 668.65168539326
  30
0.0
  11
 2581.1683699419
  21
 648.65168539326
  31
0.0
   0
LINE
   5
322
 100
AcDbEntity
   8
LEVEL002
 370
13
 100
AcDbLine
   6
CONTINUOUS
  62
5
  10
 2541.1683699419
  20
 668.65168539326
  30
0.0
  11
 2491.1683699419
  21
 568.65168539326
  31
0.0
   0
LINE
   5
323
 100
AcDbEntity
   8
LEVEL002
 370
13
 100
AcDbLine
   6
CONTINUOUS
  62
5
  10
 2491.1683699419
  20
 668.65168539326
  30
0.0
  11
 2531.1683699419
  21
 648.65168539326
  31
0.0
   0
LINE
   5
324
 100
AcDbEntity
   8
LEVEL002
 370
13
 100
AcDbLine
   6
CONTINUOUS
  62
5
  10
 2641.1683699419
  20
 568.65168539326
  30
0.0
  11
 2601.1683699419
  21
 588.65168539326
  31
0.0
   0
LINE
   5
325
 100
AcDbEntity
   8
LEVEL002
 370
13
 100
AcDbLine
   6
CONTINUOUS
  62
5
  10
 2591.1683699419
  20
 568.65168539326
  30
0.0
  11
 2551.1683699419
  21
 588.65168539326
  31
0.0
   0
LINE
   5
326
 100
AcDbEntity
   8
LEVEL002
 370
13
 100
AcDbLine
   6
CONTINUOUS
  62
5
  10
 2541.1683699419
  20
 568.65168539326
  30
0.0
  11
 2501.1683699419
  21
 588.65168539326
  31
0.0
   0
LINE
   5
327
 100
AcDbEntity
   8
LEVEL002
 370
13
 100
AcDbLine
   6
CONTINUOUS
  62
5
  10
 2336.1683699417
  20
 1816.1516853933
  30
0.0
  11
 2388.6683699417
  21
 1868.6516853933
  31
0.0
   0
LINE
   5
328
 100
AcDbEntity
   8
LEVEL002
 370
13
 100
AcDbLine
   6
CONTINUOUS
  62
5
  10
 2320.2584673648
  20
 1832.0615879701
  30
0.0
  11
 2356.8485647881
  21
 1868.6516853933
  31
0.0
   0
LINE
   5
329
 100
AcDbEntity
   8
LEVEL002
 370
13
 100
AcDbLine
   6
CONTINUOUS
  62
5
  10
 2372.7584673657
  20
 1868.6516853933
  30
0.0
  11
 2328.2134186537
  21
 1824.1066366813
  31
0.0
   0
LINE
   5
32A
 100
AcDbEntity
   8
LEVEL002
 370
13
 100
AcDbLine
   6
CONTINUOUS
  62
5
  10
 2393.4386622123
  20
 1816.1516853933
  30
0.0
  11
 2364.8035160770
  21
 1844.7868315286
  31
0.0
   0
LINE
   5
32B
 100
AcDbEntity
   8
LEVEL002
 370
13
 100
AcDbLine
   6
CONTINUOUS
  62
5
  10
 2372.7584673652
  20
 1852.7417828168
  30
0.0
  11
 2409.3485647887
  21
 1816.1516853933
  31
0.0
   0
LINE
   5
32C
 100
AcDbEntity
   8
LEVEL002
 370
13
 100
AcDbLine
   6
CONTINUOUS
  62
5
  10
 2425.2584673651
  20
 1816.1516853933
  30
0.0
  11
 2380.7134186534
  21
 1860.6967341050
  31
0.0
   0
LINE
   5
32D
 100
AcDbEntity
   8
LEVEL002
 370
13
 100
AcDbLine
   6
CONTINUOUS
  62
5
  10
 2388.6683699417
  20
 1868.6516853933
  30
0.0
  11
 2441.1683699419
  21
 1816.1516853933
  31
0.0
   0
LINE
   5
32E
 100
AcDbEntity
   8
LEVEL002
 370
13
 100
AcDbLine
   6
CONTINUOUS
  62
5
  10
 2235.9386622118
  20
 1868.6516853933
  30
0.0
  11
 2183.4386622118
  21
 1816.1516853933
  31
0.0
   0
LINE
   5
32F
 100
AcDbEntity
   8
LEVEL002
 370
13
 100
AcDbLine
   6
CONTINUOUS
  62
5
  10
 2199.3485647879
  20
 1816.1516853933
  30
0.0
  11
 2251.8485647879
  21
 1868.6516853933
  31
0.0
   0
LINE
   5
330
 100
AcDbEntity
   8
LEVEL002
 370
13
 100
AcDbLine
   6
CONTINUOUS
  62
5
  10
 2267.7584673655
  20
 1868.6516853933
  30
0.0
  11
 2215.2584673655
  21
 1816.1516853933
  31
0.0
   0
LINE
   5
331
 100
AcDbEntity
   8
LEVEL002
 370
13
 100
AcDbLine
   6
CONTINUOUS
  62
5
  10
 2231.1683699415
  20
 1816.1516853933
  30
0.0
  11
 2283.6683699415
  21
 1868.6516853933
  31
0.0
   0
LINE
   5
332
 100
AcDbEntity
   8
LEVEL002
 370
13
 100
AcDbLine
   6
CONTINUOUS
  62
5
  10
 2288.4386622121
  20
 1816.1516853933
  30
0.0
  11
 2259.8035160768
  21
 1844.7868315286
  31
0.0
   0
LINE
   5
333
 100
AcDbEntity
   8
LEVEL002
 370
13
 100
AcDbLine
   6
CONTINUOUS
  62
5
  10
 2267.7584673650
  20
 1852.7417828168
  30
0.0
  11
 2304.3485647885
  21
 1816.1516853933
  31
0.0
   0
LINE
   5
334
 100
AcDbEntity
   8
LEVEL002
 370
13
 100
AcDbLine
   6
CONTINUOUS
  62
5
  10
 2320.2584673650
  20
 1816.1516853933
  30
0.0
  11
 2275.7134186532
  21
 1860.6967341050
  31
0.0
   0
LINE
   5
335
 100
AcDbEntity
   8
LEVEL002
 370
13
 100
AcDbLine
   6
CONTINUOUS
  62
5
  10
 2283.6683699415
  20
 1868.6516853933
  30
0.0
  11
 2336.1683699417
  21
 1816.1516853933
  31
0.0
   0
LINE
   5
336
 100
AcDbEntity
   8
LEVEL002
 370
13
 100
AcDbLine
   6
CONTINUOUS
  62
5
  10
 2340.9386622120
  20
 1868.6516853933
  30
0.0
  11
 2312.3035160768
  21
 1840.0165392581
  31
0.0
   0
LINE
   5
337
 100
AcDbEntity
   8
LEVEL002
 370
13
 100
AcDbLine
   6
CONTINUOUS
  62
5
  10
 2991.1683699419
  20
 668.65168539326
  30
0.0
  11
 2941.1683699419
  21
 568.65168539326
  31
0.0
   0
LINE
   5
338
 100
AcDbEntity
   8
LEVEL002
 370
13
 100
AcDbLine
   6
CONTINUOUS
  62
5
  10
 2941.1683699419
  20
 668.65168539326
  30
0.0
  11
 2981.1683699419
  21
 648.65168539326
  31
0.0
   0
LINE
   5
339
 100
AcDbEntity
   8
LEVEL002
 370
13
 100
AcDbLine
   6
CONTINUOUS
  62
5
  10
 2941.1683699419
  20
 668.65168539326
  30
0.0
  11
 2891.1683699419
  21
 568.65168539326
  31
0.0
   0
LINE
   5
33A
 100
AcDbEntity
   8
LEVEL002
 370
13
 100
AcDbLine
   6
CONTINUOUS
  62
5
  10
 2891.1683699419
  20
 668.65168539326
  30
0.0
  11
 2931.1683699419
  21
 648.65168539326
  31
0.0
   0
LINE
   5
33B
 100
AcDbEntity
   8
LEVEL002
 370
13
 100
AcDbLine
   6
CONTINUOUS
  62
5
  10
 2891.1683699419
  20
 668.65168539326
  30
0.0
  11
 2841.1683699419
  21
 568.65168539326
  31
0.0
   0
LINE
   5
33C
 100
AcDbEntity
   8
LEVEL002
 370
13
 100
AcDbLine
   6
CONTINUOUS
  62
5
  10
 2841.1683699419
  20
 668.65168539326
  30
0.0
  11
 2881.1683699419
  21
 648.65168539326
  31
0.0
   0
LINE
   5
33D
 100
AcDbEntity
   8
LEVEL002
 370
13
 100
AcDbLine
   6
CONTINUOUS
  62
5
  10
 2991.1683699419
  20
 568.65168539326
  30
0.0
  11
 2951.1683699419
  21
 588.65168539326
  31
0.0
   0
LINE
   5
33E
 100
AcDbEntity
   8
LEVEL002
 370
13
 100
AcDbLine
   6
CONTINUOUS
  62
5
  10
 2941.1683699419
  20
 568.65168539326
  30
0.0
  11
 2901.1683699419
  21
 588.65168539326
  31
0.0
   0
LINE
   5
33F
 100
AcDbEntity
   8
LEVEL002
 370
13
 100
AcDbLine
   6
CONTINUOUS
  62
5
  10
 2891.1683699419
  20
 568.65168539326
  30
0.0
  11
 2851.1683699419
  21
 588.65168539326
  31
0.0
   0
LINE
   5
340
 100
AcDbEntity
   8
LEVEL002
 370
13
 100
AcDbLine
   6
CONTINUOUS
  62
5
  10
 3093.6683699419
  20
 1868.6516853933
  30
0.0
  11
 3041.1683699419
  21
 1816.1516853933
  31
0.0
   0
LINE
   5
341
 100
AcDbEntity
   8
LEVEL002
 370
13
 100
AcDbLine
   6
CONTINUOUS
  62
5
  10
 3057.0782725179
  20
 1816.1516853933
  30
0.0
  11
 3109.5782725179
  21
 1868.6516853933
  31
0.0
   0
LINE
   5
342
 100
AcDbEntity
   8
LEVEL002
 370
13
 100
AcDbLine
   6
CONTINUOUS
  62
5
  10
 3125.4881750955
  20
 1868.6516853933
  30
0.0
  11
 3072.9881750955
  21
 1816.1516853933
  31
0.0
   0
LINE
   5
343
 100
AcDbEntity
   8
LEVEL002
 370
13
 100
AcDbLine
   6
CONTINUOUS
  62
5
  10
 3088.8980776716
  20
 1816.1516853933
  30
0.0
  11
 3141.3980776716
  21
 1868.6516853933
  31
0.0
   0
LINE
   5
344
 100
AcDbEntity
   8
LEVEL002
 370
13
 100
AcDbLine
   6
CONTINUOUS
  62
5
  10
 3146.1683699422
  20
 1816.1516853933
  30
0.0
  11
 3117.5332238069
  21
 1844.7868315286
  31
0.0
   0
LINE
   5
345
 100
AcDbEntity
   8
LEVEL002
 370
13
 100
AcDbLine
   6
CONTINUOUS
  62
5
  10
 3125.4881750951
  20
 1852.7417828168
  30
0.0
  11
 3162.0782725186
  21
 1816.1516853933
  31
0.0
   0
LINE
   5
346
 100
AcDbEntity
   8
LEVEL002
 370
13
 100
AcDbLine
   6
CONTINUOUS
  62
5
  10
 3177.9881750950
  20
 1816.1516853933
  30
0.0
  11
 3133.4431263833
  21
 1860.6967341050
  31
0.0
   0
LINE
   5
347
 100
AcDbEntity
   8
LEVEL002
 370
13
 100
AcDbLine
   6
CONTINUOUS
  62
5
  10
 3141.3980776716
  20
 1868.6516853933
  30
0.0
  11
 3193.8980776718
  21
 1816.1516853933
  31
0.0
   0
LINE
   5
348
 100
AcDbEntity
   8
LEVEL002
 370
13
 100
AcDbLine
   6
CONTINUOUS
  62
5
  10
 3193.8980776718
  20
 1816.1516853933
  30
0.0
  11
 3246.3980776718
  21
 1868.6516853933
  31
0.0
   0
LINE
   5
349
 100
AcDbEntity
   8
LEVEL002
 370
13
 100
AcDbLine
   6
CONTINUOUS
  62
5
  10
 3198.6683699421
  20
 1868.6516853933
  30
0.0
  11
 3170.0332238069
  21
 1840.0165392581
  31
0.0
   0
LINE
   5
34A
 100
AcDbEntity
   8
LEVEL002
 370
13
 100
AcDbLine
   6
CONTINUOUS
  62
5
  10
 3177.9881750949
  20
 1832.0615879701
  30
0.0
  11
 3214.5782725181
  21
 1868.6516853933
  31
0.0
   0
LINE
   5
34B
 100
AcDbEntity
   8
LEVEL002
 370
13
 100
AcDbLine
   6
CONTINUOUS
  62
5
  10
 3230.4881750957
  20
 1868.6516853933
  30
0.0
  11
 3185.9431263837
  21
 1824.1066366813
  31
0.0
   0
LINE
   5
34C
 100
AcDbEntity
   8
LEVEL002
 370
13
 100
AcDbLine
   6
CONTINUOUS
  62
5
  10
 3251.1683699423
  20
 1816.1516853933
  30
0.0
  11
 3222.5332238070
  21
 1844.7868315286
  31
0.0
   0
LINE
   5
34D
 100
AcDbEntity
   8
LEVEL002
 370
13
 100
AcDbLine
   6
CONTINUOUS
  62
5
  10
 3230.4881750953
  20
 1852.7417828168
  30
0.0
  11
 3267.0782725188
  21
 1816.1516853933
  31
0.0
   0
LINE
   5
34E
 100
AcDbEntity
   8
LEVEL002
 370
13
 100
AcDbLine
   6
CONTINUOUS
  62
5
  10
 3282.9881750952
  20
 1816.1516853933
  30
0.0
  11
 3238.4431263835
  21
 1860.6967341050
  31
0.0
   0
LINE
   5
34F
 100
AcDbEntity
   8
LEVEL002
 370
13
 100
AcDbLine
   6
CONTINUOUS
  62
5
  10
 3246.3980776718
  20
 1868.6516853933
  30
0.0
  11
 3298.8980776719
  21
 1816.1516853933
  31
0.0
   0
LWPOLYLINE
   5
350
 100
AcDbEntity
   8
LEVEL002
 370
13
   6
CONTINUOUS
  62
5
 100
AcDbPolyline
  90
4
  70
1
  10
 2491.1683699419
  20
 668.65168539326
  10
 2491.1683699419
  20
 568.65168539326
  10
 2991.1683699419
  20
 568.65168539326
  10
 2991.1683699419
  20
 668.65168539326
   0
LINE
   5
351
 100
AcDbEntity
   8
LEVEL002
 370
13
 100
AcDbLine
   6
CONTINUOUS
  62
5
  10
 2491.1683699419
  20
 1868.6516853933
  30
0.0
  11
 2191.1684351768
  21
 1868.6516853933
  31
0.0
   0
LINE
   5
352
 100
AcDbEntity
   8
LEVEL002
 370
13
 100
AcDbLine
   6
CONTINUOUS
  62
5
  10
 2991.1683699419
  20
 1868.6516853933
  30
0.0
  11
 3291.1684351768
  21
 1868.6516853933
  31
0.0
   0
MTEXT
   5
354
 100
AcDbEntity
   8
LEVEL001
 370
13
  62
1
 100
AcDbMText
  10
 2311.8170403863
  20
 1877.3816224336
  30
0.0
  40
 40.000000000000
  41
0.0
  71
7
  72
1
   1
\T1.000000;ＧＬ
   7
GMM008
  44
 0.79999984000003
   0
LWPOLYLINE
   5
355
 100
AcDbEntity
   8
LEVEL001
 370
13
   6
CONTINUOUS
  62
1
 100
AcDbPolyline
  90
3
  70
1
  10
 2283.6683699415
  20
 1868.6516853933
  10
 2258.6683699415
  20
 1918.6516853933
  10
 2308.6683699415
  20
 1918.6516853933
   0
CIRCLE
   5
356
 100
AcDbEntity
   8
LEVEL001
 370
13
 100
AcDbCircle
   6
CONTINUOUS
  62
1
  10
 2366.1683699419
  20
 868.65168539326
  30
0.0
  40
 70.000000000000
   0
MTEXT
   5
358
 100
AcDbEntity
   8
LEVEL001
 370
13
  62
7
 100
AcDbMText
  10
 2366.1683699419
  20
 868.65168539326
  30
0.0
  40
 66.000000000000
  41
0.0
  71
5
  72
1
   1
\T1.000000;１３
   7
GMM007
  44
 0.79999984000003
   0
LEADER
   5
359
 100
AcDbEntity
   8
LEVEL001
 370
13
   6
CONTINUOUS
  62
1
 100
AcDbLeader
   3
GMM001
  73
3
  74
1
  75
0
  40
 66.000000000000
  41
0.0
  76
2
  10
 2624.7683518562
  20
 961.15168539326
  30
0.0
  10
 2432.0787625655
  20
 892.22752353737
  30
0.0
  77
1
   0
DIMENSION
   5
35A
 100
AcDbEntity
   8
LEVEL001
 370
13
   6
CONTINUOUS
  62
6
 100
AcDbDimension
   2
*D16
  10
 2991.1683699419
  20
 368.65168539326
  30
0.0
  11
 2741.1683699419
  21
 368.65168539326
  31
0.0
  70
0
   3
GMM006
 100
AcDbAlignedDimension
  13
 2491.1683699419
  23
 568.65168539326
  33
0.0
  14
 2991.1683699419
  24
 568.65168539326
  34
0.0
 100
AcDbRotatedDimension
   0
LINE
   5
35B
 100
AcDbEntity
   8
LEVEL001
 370
13
 100
AcDbLine
   6
CONTINUOUS
  62
5
  10
 2991.1683699419
  20
 1554.0070244526
  30
0.0
  11
 2785.7183699419
  21
 1348.5570244526
  31
0.0
   0
LINE
   5
35C
 100
AcDbEntity
   8
LEVEL001
 370
13
 100
AcDbLine
   6
CONTINUOUS
  62
5
  10
 2785.7183699419
  20
 1313.2016853933
  30
0.0
  11
 2991.1683699419
  21
 1518.6516853933
  31
0.0
   0
LINE
   5
35D
 100
AcDbEntity
   8
LEVEL001
 370
13
 100
AcDbLine
   6
CONTINUOUS
  62
5
  10
 2991.1683699419
  20
 1483.2963463340
  30
0.0
  11
 2785.7183699419
  21
 1277.8463463340
  31
0.0
   0
LINE
   5
35E
 100
AcDbEntity
   8
LEVEL001
 370
13
 100
AcDbLine
   6
CONTINUOUS
  62
5
  10
 2696.6183699419
  20
 1259.4570244526
  30
0.0
  11
 2491.1683699419
  21
 1054.0070244526
  31
0.0
   0
LINE
   5
35F
 100
AcDbEntity
   8
LEVEL001
 370
13
 100
AcDbLine
   6
CONTINUOUS
  62
5
  10
 2491.1683699419
  20
 1018.6516853933
  30
0.0
  11
 2696.6183699419
  21
 1224.1016853933
  31
0.0
   0
LINE
   5
360
 100
AcDbEntity
   8
LEVEL001
 370
13
 100
AcDbLine
   6
CONTINUOUS
  62
5
  10
 2696.6183699419
  20
 1188.7463463340
  30
0.0
  11
 2491.1683699419
  21
 983.29634633397
  31
0.0
   0
CIRCLE
   5
361
 100
AcDbEntity
   8
LEVEL001
 370
13
 100
AcDbCircle
   6
CONTINUOUS
  62
7
  10
 2741.1683699419
  20
 1068.6516853933
  30
0.0
  40
 7.5000000000000
   0
LINE
   5
362
 100
AcDbEntity
   8
LEVEL001
 370
13
 100
AcDbLine
   6
DASHDOT
  62
6
  10
 2711.1683699419
  20
 1068.6516853933
  30
0.0
  11
 2771.1683699419
  21
 1068.6516853933
  31
0.0
   0
LINE
   5
363
 100
AcDbEntity
   8
LEVEL001
 370
13
 100
AcDbLine
   6
DASHDOT
  62
6
  10
 2674.7683699419
  20
 968.65168539326
  30
0.0
  11
 2807.5683699419
  21
 968.65168539326
  31
0.0
   0
LINE
   5
364
 100
AcDbEntity
   8
LEVEL001
 370
13
 100
AcDbLine
   6
DOT
  62
7
  10
 2696.6183699419
  20
 976.15168539326
  30
0.0
  11
 2785.7183699419
  21
 976.15168539326
  31
0.0
   0
LINE
   5
365
 100
AcDbEntity
   8
LEVEL001
 370
13
 100
AcDbLine
   6
DOT
  62
7
  10
 2785.7183699419
  20
 961.15168539326
  30
0.0
  11
 2696.6183699419
  21
 961.15168539326
  31
0.0
   0
ARC
   5
366
 100
AcDbEntity
   8
LEVEL001
 370
13
   6
CONTINUOUS
  62
7
 100
AcDbCircle
  10
 3185.7183699419
  20
 3312.7119654554
  30
0.0
  40
 400.00000000000
 100
AcDbArc
  50
 141.34019174591
  51
 180.00000000000
   0
ARC
   5
367
 100
AcDbEntity
   8
LEVEL001
 370
13
   6
DASHDOT
  62
6
 100
AcDbCircle
  10
 3185.7183699419
  20
 3312.7119654556
  30
0.0
  40
 444.55000000000
 100
AcDbArc
  50
 141.34019174591
  51
 180.00000000000
   0
ARC
   5
368
 100
AcDbEntity
   8
LEVEL001
 370
13
   6
CONTINUOUS
  62
7
 100
AcDbCircle
  10
 3185.7183699419
  20
 3312.7119654554
  30
0.0
  40
 489.10000000000
 100
AcDbArc
  50
 141.34019174591
  51
 180.00000000000
   0
ARC
   5
369
 100
AcDbEntity
   8
LEVEL001
 370
13
   6
CONTINUOUS
  62
7
 100
AcDbCircle
  10
 2696.6183699419
  20
 4124.5914053308
  30
0.0
  40
 400.00000000000
 100
AcDbArc
  50
 321.34019174591
  51
 0.13027551975275E-12
   0
LINE
   5
36A
 100
AcDbEntity
   8
LEVEL001
 370
13
 100
AcDbLine
   6
CONTINUOUS
  62
7
  10
 3008.9658937191
  20
 3874.7133863090
  30
0.0
  11
 2803.7954352433
  21
 3618.2503132143
  31
0.0
   0
LINE
   5
36B
 100
AcDbEntity
   8
LEVEL001
 370
13
 100
AcDbLine
   6
DASHDOT
  62
6
  10
 3043.7535991798
  20
 3846.8832219406
  30
0.0
  11
 2838.5831407040
  21
 3590.4201488459
  31
0.0
   0
ARC
   5
36C
 100
AcDbEntity
   8
LEVEL001
 370
13
   6
DASHDOT
  62
6
 100
AcDbCircle
  10
 2696.6183699419
  20
 4124.5914053310
  30
0.0
  40
 444.55000000000
 100
AcDbArc
  50
 321.34019174591
  51
 0.11722012799707E-12
   0
ARC
   5
36D
 100
AcDbEntity
   8
LEVEL001
 370
13
   6
CONTINUOUS
  62
7
 100
AcDbCircle
  10
 2696.6183699419
  20
 4124.5914053308
  30
0.0
  40
 489.10000000000
 100
AcDbArc
  50
 321.34019174591
  51
 360.00000000000
   0
LINE
   5
36E
 100
AcDbEntity
   8
LEVEL001
 370
13
 100
AcDbLine
   6
CONTINUOUS
  62
7
  10
 2873.3708461647
  20
 3562.5899844771
  30
0.0
  11
 3078.5413046405
  21
 3819.0530575719
  31
0.0
   0
LWPOLYLINE
   5
36F
 100
AcDbEntity
   8
LEVEL001
 370
13
   6
CONTINUOUS
  62
7
 100
AcDbPolyline
  90
4
  70
1
  10
 3185.7183699419
  20
 5072.6516853933
  10
 3096.6183699419
  20
 5072.6516853933
  10
 3096.6183699419
  20
 5069.6516853933
  10
 3185.7183699419
  20
 5069.6516853933
   0
LWPOLYLINE
   5
370
 100
AcDbEntity
   8
LEVEL001
 370
13
   6
DOT
  62
1
 100
AcDbPolyline
  90
4
  70
0
  10
 3180.7183699419
  20
 5069.6516853933
  10
 3180.7183699419
  20
 5042.6516853933
  10
 3101.6183699419
  20
 5042.6516853933
  10
 3101.6183699419
  20
 5069.6516853933
   0
LINE
   5
371
 100
AcDbEntity
   8
LEVEL001
 370
13
 100
AcDbLine
   6
DASHDOT
  62
6
  10
 3141.1683699419
  20
 5118.6516853933
  30
0.0
  11
 3141.1683699419
  21
 4124.5914053310
  31
0.0
   0
LINE
   5
372
 100
AcDbEntity
   8
LEVEL001
 370
13
 100
AcDbLine
   6
DASHDOT
  62
6
  10
 2741.1683699419
  20
 3312.7119654556
  30
0.0
  11
 2741.1683699419
  21
 518.65168539326
  31
0.0
   0
CIRCLE
   5
373
 100
AcDbEntity
   8
LEVEL001
 370
13
 100
AcDbCircle
   6
CONTINUOUS
  62
1
  10
 3399.5006224951
  20
 3161.8740377727
  30
0.0
  40
 70.000000000000
   0
CIRCLE
   5
374
 100
AcDbEntity
   8
LEVEL001
 370
13
 100
AcDbCircle
   6
CONTINUOUS
  62
1
  10
 3539.5006224951
  20
 3161.8740377727
  30
0.0
  40
 70.000000000000
   0
MTEXT
   5
376
 100
AcDbEntity
   8
LEVEL001
 370
13
  62
7
 100
AcDbMText
  10
 3539.5006224951
  20
 3161.8740377727
  30
0.0
  40
 66.000000000000
  41
0.0
  71
5
  72
1
   1
\T1.000000;１７
   7
GMM007
  44
 0.79999984000003
   0
MTEXT
   5
378
 100
AcDbEntity
   8
LEVEL001
 370
13
  62
7
 100
AcDbMText
  10
 3399.5006224951
  20
 3161.8740377727
  30
0.0
  40
 66.000000000000
  41
0.0
  71
5
  72
1
   1
\T1.000000;１６
   7
GMM007
  44
 0.79999984000003
   0
CIRCLE
   5
379
 100
AcDbEntity
   8
LEVEL001
 370
13
 100
AcDbCircle
   6
CONTINUOUS
  62
1
  10
 1680.9510255084
  20
 3161.8740377727
  30
0.0
  40
 70.000000000000
   0
MTEXT
   5
37B
 100
AcDbEntity
   8
LEVEL001
 370
13
  62
7
 100
AcDbMText
  10
 1680.9510255084
  20
 3161.8740377727
  30
0.0
  40
 66.000000000000
  41
0.0
  71
5
  72
1
   1
\T1.000000;１５
   7
GMM007
  44
 0.79999984000003
   0
LWPOLYLINE
   5
37C
 100
AcDbEntity
   8
LEVEL001
 370
13
   6
CONTINUOUS
  62
5
 100
AcDbPolyline
  90
7
  70
1
  10
 1391.1683699420
  20
 3454.2119654562
  10
 1354.8683710239
  20
 3408.0119668330
  10
 1374.6683704338
  20
 3408.0119668330
  10
 1374.6683704338
  20
 3388.2119674231
  10
 1407.6683694503
  20
 3388.2119674231
  10
 1407.6683694503
  20
 3408.0119668330
  10
 1427.4683688602
  20
 3408.0119668330
   0
ARC
   5
37D
 100
AcDbEntity
   8
LEVEL001
 370
13
   6
CONTINUOUS
  62
7
 100
AcDbCircle
  10
 1446.1683699420
  20
 3474.2119654562
  30
0.0
  40
 20.000000000000
 100
AcDbArc
  50
0.0
  51
 90.000000000000
   0
ARC
   5
37E
 100
AcDbEntity
   8
LEVEL001
 370
13
   6
CONTINUOUS
  62
7
 100
AcDbCircle
  10
 1336.1683699420
  20
 3474.2119654562
  30
0.0
  40
 20.000000000000
 100
AcDbArc
  50
 90.000000000000
  51
 180.00000000000
   0
LINE
   5
37F
 100
AcDbEntity
   8
LEVEL001
 370
13
 100
AcDbLine
   6
CONTINUOUS
  62
7
  10
 1316.1683699420
  20
 3474.2119654562
  30
0.0
  11
 1316.1683699420
  21
 3114.2119654562
  31
0.0
   0
LINE
   5
380
 100
AcDbEntity
   8
LEVEL001
 370
13
 100
AcDbLine
   6
CONTINUOUS
  62
7
  10
 1466.1683699420
  20
 3114.2119654562
  30
0.0
  11
 1466.1683699420
  21
 3474.2119654562
  31
0.0
   0
LINE
   5
381
 100
AcDbEntity
   8
LEVEL001
 370
13
 100
AcDbLine
   6
CONTINUOUS
  62
7
  10
 1446.1683699420
  20
 3494.2119654562
  30
0.0
  11
 1336.1683699420
  21
 3494.2119654562
  31
0.0
   0
LINE
   5
382
 100
AcDbEntity
   8
LEVEL001
 370
13
 100
AcDbLine
   6
CONTINUOUS
  62
7
  10
 1336.1683699420
  20
 3094.2119654562
  30
0.0
  11
 1446.1683699420
  21
 3094.2119654562
  31
0.0
   0
ARC
   5
383
 100
AcDbEntity
   8
LEVEL001
 370
13
   6
CONTINUOUS
  62
7
 100
AcDbCircle
  10
 1336.1683699420
  20
 3114.2119654562
  30
0.0
  40
 20.000000000000
 100
AcDbArc
  50
 180.00000000000
  51
 270.00000000000
   0
ARC
   5
384
 100
AcDbEntity
   8
LEVEL001
 370
13
   6
CONTINUOUS
  62
7
 100
AcDbCircle
  10
 1446.1683699420
  20
 3114.2119654562
  30
0.0
  40
 20.000000000000
 100
AcDbArc
  50
 270.00000000000
  51
 360.00000000000
   0
LEADER
   5
385
 100
AcDbEntity
   8
LEVEL001
 370
13
   6
CONTINUOUS
  62
1
 100
AcDbLeader
   3
GMM007
  73
3
  74
1
  75
0
  40
 66.000000000000
  41
0.0
  76
2
  10
 1466.1683699420
  20
 3294.2119654562
  30
0.0
  10
 1621.3552620022
  20
 3198.5938549308
  30
0.0
  77
1
   0
LINE
   5
386
 100
AcDbEntity
   8
LEVEL001
 370
13
 100
AcDbLine
   6
CONTINUOUS
  62
6
  10
 2784.9451790294
  20
 3300.7119654554
  30
0.0
  11
 2698.8643851541
  21
 3300.7119654554
  31
0.0
   0
LINE
   5
387
 100
AcDbEntity
   8
LEVEL001
 370
13
 100
AcDbLine
   6
CONTINUOUS
  62
6
  10
 2698.8643851541
  20
 3287.7119654554
  30
0.0
  11
 2784.9451790294
  21
 3287.7119654554
  31
0.0
   0
LWPOLYLINE
   5
388
 100
AcDbEntity
   8
LEVEL001
 370
13
   6
CONTINUOUS
  62
7
 100
AcDbPolyline
  90
4
  70
0
  10
 2688.5730873220
  20
 3275.7119654554
  10
 2806.1171780298
  20
 3275.7119654554
  10
 2806.1171780298
  20
 3312.7119654554
  10
 2688.5726840528
  20
 3312.7119654554
   0
LINE
   5
389
 100
AcDbEntity
   8
LEVEL001
 370
13
 100
AcDbLine
   6
CONTINUOUS
  62
6
  10
 2784.9451790294
  20
 3277.7119654554
  30
0.0
  11
 2784.9451790294
  21
 3286.7119654554
  31
0.0
   0
LINE
   5
38A
 100
AcDbEntity
   8
LEVEL001
 370
13
 100
AcDbLine
   6
CONTINUOUS
  62
6
  10
 2784.9451790294
  20
 3301.7119654554
  30
0.0
  11
 2784.9451790294
  21
 3310.7119654554
  31
0.0
   0
LINE
   5
38B
 100
AcDbEntity
   8
LEVEL001
 370
13
 100
AcDbLine
   6
CONTINUOUS
  62
6
  10
 2787.2637040708
  20
 3287.7119654554
  30
0.0
  11
 2787.2637040708
  21
 3300.7119654554
  31
0.0
   0
LWPOLYLINE
   5
38C
 100
AcDbEntity
   8
LEVEL001
 370
13
   6
CONTINUOUS
  62
7
 100
AcDbPolyline
  90
4
  70
1
  10
 2791.1171780298
  20
 3289.2119654554
  10
 2801.1171780298
  20
 3289.2119654554
  10
 2801.1171780298
  20
 3299.2119654554
  10
 2791.1171780298
  20
 3299.2119654554
   0
LINE
   5
38D
 100
AcDbEntity
   8
LEVEL001
 370
13
 100
AcDbLine
   6
CONTINUOUS
  62
6
  10
 2697.6034905846
  20
 3288.7119654554
  30
0.0
  11
 2697.6034905846
  21
 3299.7119654554
  31
0.0
   0
LINE
   5
38E
 100
AcDbEntity
   8
LEVEL001
 370
13
 100
AcDbLine
   6
CONTINUOUS
  62
6
  10
 2697.6034905846
  20
 3301.7119654554
  30
0.0
  11
 2697.6034905846
  21
 3310.7119654554
  31
0.0
   0
LINE
   5
38F
 100
AcDbEntity
   8
LEVEL001
 370
13
 100
AcDbLine
   6
CONTINUOUS
  62
6
  10
 2697.6034905846
  20
 3277.7119654554
  30
0.0
  11
 2697.6034905846
  21
 3286.7119654554
  31
0.0
   0
LINE
   5
390
 100
AcDbEntity
   8
LEVEL001
 370
13
 100
AcDbLine
   6
CONTINUOUS
  62
7
  10
 2684.1887013389
  20
 3494.2119654562
  30
0.0
  11
 2681.4747945754
  21
 3487.4271985473
  31
0.0
   0
ARC
   5
391
 100
AcDbEntity
   8
LEVEL001
 370
13
   6
CONTINUOUS
  62
7
 100
AcDbCircle
  10
 2686.1171780298
  20
 3485.5702451656
  30
0.0
  40
 5.0000000000000
 100
AcDbArc
  50
 158.19859051364
  51
 180.00000000000
   0
ARC
   5
392
 100
AcDbEntity
   8
LEVEL001
 370
13
   6
CONTINUOUS
  62
7
 100
AcDbCircle
  10
 2680.1171780298
  20
 3478.3643189971
  30
0.0
  40
 5.0000000000000
 100
AcDbArc
  50
 0.26055103950549E-10
  51
 21.801409486384
   0
LINE
   5
393
 100
AcDbEntity
   8
LEVEL001
 370
13
 100
AcDbLine
   6
CONTINUOUS
  62
7
  10
 2682.9572906296
  20
 3484.7269495156
  30
0.0
  11
 2684.7595614843
  21
 3480.2212723789
  31
0.0
   0
ARC
   5
394
 100
AcDbEntity
   8
LEVEL001
 370
13
   6
CONTINUOUS
  62
7
 100
AcDbCircle
  10
 2687.5996740840
  20
 3486.5839028974
  30
0.0
  40
 5.0000000000000
 100
AcDbArc
  50
 158.19859051366
  51
 201.80140948634
   0
LWPOLYLINE
   5
395
 100
AcDbEntity
   8
LEVEL001
 370
13
   6
CONTINUOUS
  62
7
 100
AcDbPolyline
  90
3
  70
0
  10
 2684.1887013389
  20
 3494.2119654562
  10
 2685.1171780298
  20
 3493.8405747798
  10
 2682.9572906296
  20
 3488.4408562791
   0
LINE
   5
396
 100
AcDbEntity
   8
LEVEL001
 370
13
 100
AcDbLine
   6
CONTINUOUS
  62
7
  10
 2681.1171780298
  20
 3485.5702451656
  30
0.0
  11
 2681.1171780298
  21
 3102.8536857452
  31
0.0
   0
LINE
   5
397
 100
AcDbEntity
   8
LEVEL001
 370
13
 100
AcDbLine
   6
CONTINUOUS
  62
7
  10
 2685.1171780298
  20
 3478.3643189971
  30
0.0
  11
 2685.1171780298
  21
 3110.0596119136
  31
0.0
   0
LINE
   5
398
 100
AcDbEntity
   8
LEVEL001
 370
13
 100
AcDbLine
   6
CONTINUOUS
  62
6
  10
 2688.1171780298
  20
 3329.2120262135
  30
0.0
  11
 2688.1171780298
  21
 3330.2119651745
  31
0.0
   0
LINE
   5
399
 100
AcDbEntity
   8
LEVEL001
 370
13
 100
AcDbLine
   6
CONTINUOUS
  62
7
  10
 2688.1171780298
  20
 3330.2119651745
  30
0.0
  11
 2685.1171780298
  21
 3330.2119651745
  31
0.0
   0
LINE
   5
39A
 100
AcDbEntity
   8
LEVEL001
 370
13
 100
AcDbLine
   6
CONTINUOUS
  62
6
  10
 2685.1171780298
  20
 3329.2120262135
  30
0.0
  11
 2688.1171780298
  21
 3329.2120262135
  31
0.0
   0
LINE
   5
39B
 100
AcDbEntity
   8
LEVEL001
 370
13
 100
AcDbLine
   6
CONTINUOUS
  62
7
  10
 2688.5726568089
  20
 3315.2115990221
  30
0.0
  11
 2688.5731145729
  21
 3273.2116907387
  31
0.0
   0
ELLIPSE
   5
39C
 100
AcDbEntity
   8
LEVEL001
 370
13
   6
CONTINUOUS
  62
7
 100
AcDbEllipse
  10
 2684.5726542592
  20
 3315.2117209733
  30
0.0
  11
 4.0000025516047
  21
0.0
  31
0.0
  40
 0.99999938800000
  41
-0.30487804121538E-4
  42
 1.4342414715496
   0
LWPOLYLINE
   5
39D
 100
AcDbEntity
   8
LEVEL001
 370
13
   6
CONTINUOUS
  62
6
 100
AcDbPolyline
  90
3
  70
0
  10
 2688.1171780298
  20
 3258.2119654554
  10
 2688.1171780298
  20
 3259.2119959691
  10
 2685.1171780298
  20
 3259.2119959691
   0
ELLIPSE
   5
39E
 100
AcDbEntity
   8
LEVEL001
 370
13
   6
CONTINUOUS
  62
7
 100
AcDbEllipse
  10
 2684.5731120217
  20
 3273.2117518912
  30
0.0
  11
 4.0000025516047
  21
0.0
  31
0.0
  40
 0.99999938800000
  41
-1.4343569865529
  42
-0.15288126579161E-4
   0
LINE
   5
39F
 100
AcDbEntity
   8
LEVEL001
 370
13
 100
AcDbLine
   6
CONTINUOUS
  62
7
  10
 2685.1171780298
  20
 3258.2119654554
  30
0.0
  11
 2688.1171780298
  21
 3258.2119654554
  31
0.0
   0
ARC
   5
3A0
 100
AcDbEntity
   8
LEVEL001
 370
13
   6
CONTINUOUS
  62
7
 100
AcDbCircle
  10
 2686.1171780298
  20
 3102.8536857452
  30
0.0
  40
 5.0000000000000
 100
AcDbArc
  50
 180.00000000001
  51
 201.80140948636
   0
LINE
   5
3A1
 100
AcDbEntity
   8
LEVEL001
 370
13
 100
AcDbLine
   6
CONTINUOUS
  62
7
  10
 2684.1887013389
  20
 3094.2119654546
  30
0.0
  11
 2681.4747945754
  21
 3100.9967323634
  31
0.0
   0
ARC
   5
3A2
 100
AcDbEntity
   8
LEVEL001
 370
13
   6
CONTINUOUS
  62
7
 100
AcDbCircle
  10
 2680.1171780298
  20
 3110.0596119136
  30
0.0
  40
 5.0000000000000
 100
AcDbArc
  50
 338.19859051362
  51
 359.99999999996
   0
LINE
   5
3A3
 100
AcDbEntity
   8
LEVEL001
 370
13
 100
AcDbLine
   6
CONTINUOUS
  62
7
  10
 2682.9572906296
  20
 3103.6969813951
  30
0.0
  11
 2684.7595614843
  21
 3108.2026585319
  31
0.0
   0
ARC
   5
3A4
 100
AcDbEntity
   8
LEVEL001
 370
13
   6
CONTINUOUS
  62
7
 100
AcDbCircle
  10
 2687.5996740840
  20
 3101.8400280134
  30
0.0
  40
 5.0000000000000
 100
AcDbArc
  50
 158.19859051365
  51
 201.80140948635
   0
LWPOLYLINE
   5
3A5
 100
AcDbEntity
   8
LEVEL001
 370
13
   6
CONTINUOUS
  62
7
 100
AcDbPolyline
  90
3
  70
0
  10
 2684.1887013389
  20
 3094.2119654546
  10
 2685.1171780298
  20
 3094.5833561309
  10
 2682.9572906296
  20
 3099.9830746316
   0
LEADER
   5
3A6
 100
AcDbEntity
   8
LEVEL001
 370
13
   6
CONTINUOUS
  62
1
 100
AcDbLeader
   3
GMM001
  73
3
  74
1
  75
0
  40
 66.000000000000
  41
0.0
  76
2
  10
 2806.1171780298
  20
 3275.7119654554
  30
0.0
  10
 3330.2861539756
  20
 3172.3314441227
  30
0.0
  77
1
   0
LINE
   5
3A7
 100
AcDbEntity
   8
LEVEL001
 370
13
 100
AcDbLine
   6
CONTINUOUS
  62
7
  10
 3096.6183699419
  20
 4124.5914053308
  30
0.0
  11
 3096.6183699419
  21
 4538.6516853933
  31
0.0
   0
LINE
   5
3A8
 100
AcDbEntity
   8
LEVEL001
 370
13
 100
AcDbLine
   6
CONTINUOUS
  62
7
  10
 3185.7183699419
  20
 4538.6516853933
  30
0.0
  11
 3185.7183699419
  21
 4124.5914053308
  31
0.0
   0
LWPOLYLINE
   5
3A9
 100
AcDbEntity
   8
LEVEL001
 370
13
   6
CONTINUOUS
  62
7
 100
AcDbPolyline
  90
4
  70
0
  10
 3096.6183699419
  20
 4758.6516853933
  10
 3096.6183699419
  20
 5068.6516853933
  10
 3185.7183699419
  20
 5068.6516853933
  10
 3185.7183699419
  20
 4758.6516853933
   0
LWPOLYLINE
   5
3AA
 100
AcDbEntity
   8
LEVEL001
 370
13
   6
CONTINUOUS
  62
7
 100
AcDbPolyline
  90
4
  70
0
  10
 2696.6183699419
  20
 3275.7119654554
  10
 2696.6183699419
  20
 668.65168539326
  10
 2785.7183699419
  20
 668.65168539326
  10
 2785.7183699419
  20
 3275.7119654554
   0
LWPOLYLINE
   5
3AB
 100
AcDbEntity
   8
LEVEL001
 370
13
   6
CONTINUOUS
  62
7
 100
AcDbPolyline
  90
4
  70
0
  10
 1346.6183699419
  20
 3094.2119654562
  10
 1346.6183699419
  20
 668.65168539326
  10
 1435.7183699419
  20
 668.65168539326
  10
 1435.7183699419
  20
 3094.2119654562
   0
LINE
   5
3AC
 100
AcDbEntity
   8
LEVEL001
 370
13
 100
AcDbLine
   6
CONTINUOUS
  62
7
  10
 1346.6183699419
  20
 4538.6516438649
  30
0.0
  11
 1346.6183699419
  21
 3494.2119654562
  31
0.0
   0
LINE
   5
3AD
 100
AcDbEntity
   8
LEVEL001
 370
13
 100
AcDbLine
   6
CONTINUOUS
  62
7
  10
 1435.7183699419
  20
 3494.2119654562
  30
0.0
  11
 1435.7183699419
  21
 4538.6516438649
  31
0.0
   0
LWPOLYLINE
   5
3AE
 100
AcDbEntity
   8
LEVEL002
 370
13
   6
CONTINUOUS
  62
5
 100
AcDbPolyline
  90
6
  70
0
  10
 2696.6183699419
  20
 1868.6516853933
  10
 2491.1683699419
  20
 1868.6516853933
  10
 2491.1683699419
  20
 668.65168539326
  10
 2991.1683699419
  20
 668.65168539326
  10
 2991.1683699419
  20
 1868.6516853933
  10
 2785.7183699419
  20
 1868.6516853933
   0
DIMENSION
   5
3AF
 100
AcDbEntity
   8
LEVEL001
 370
13
   6
CONTINUOUS
  62
6
 100
AcDbDimension
   2
*D19
  10
 3141.1683699419
  20
 2868.6516853933
  30
0.0
  11
 2941.1683699419
  21
 2868.6516853933
  31
0.0
  70
0
   3
GMM008
 100
AcDbAlignedDimension
  13
 2741.1683699419
  23
 2868.6516853933
  33
0.0
  14
 3141.1683699419
  24
 4124.5914053310
  34
0.0
 100
AcDbRotatedDimension
   0
DIMENSION
   5
3B0
 100
AcDbEntity
   8
LEVEL001
 370
13
   6
CONTINUOUS
  62
6
 100
AcDbDimension
   2
*D20
  10
 1316.1683699419
  20
 4493.6516853933
  30
0.0
  11
 766.16836994188
  21
 4493.6516853933
  31
0.0
  70
128
   3
GMM009
 100
AcDbAlignedDimension
  13
 516.16836994188
  23
 4493.6516853933
  33
0.0
  14
 1316.1683699419
  24
 4493.6516853933
  34
0.0
 100
AcDbRotatedDimension
   0
DIMENSION
   5
3B1
 100
AcDbEntity
   8
LEVEL001
 370
13
   6
CONTINUOUS
  62
6
 100
AcDbDimension
   2
*D21
  10
 1203.6683699419
  20
 4968.6516853933
  30
0.0
  11
 1203.6683699419
  21
 4806.1516853933
  31
0.0
  70
128
   3
GMM009
 100
AcDbAlignedDimension
  13
 1203.6683699419
  23
 4368.6516853933
  33
0.0
  14
 1203.6683699419
  24
 4968.6516853933
  34
0.0
  50
 90.000000000000
 100
AcDbRotatedDimension
   0
LINE
   5
3B2
 100
AcDbEntity
   8
LEVEL001
 370
13
 100
AcDbLine
   6
CONTINUOUS
  62
6
  10
 1348.6036445970
  20
 4643.6516438649
  30
0.0
  11
 1348.6036445970
  21
 4543.6516438649
  31
0.0
   0
LINE
   5
3B3
 100
AcDbEntity
   8
LEVEL001
 370
13
 100
AcDbLine
   6
CONTINUOUS
  62
6
  10
 1433.7330952868
  20
 4753.6516438649
  30
0.0
  11
 1433.7330952868
  21
 4653.6516438649
  31
0.0
   0
LINE
   5
3B4
 100
AcDbEntity
   8
LEVEL001
 370
13
 100
AcDbLine
   6
CONTINUOUS
  62
6
  10
 3098.6036445970
  20
 4643.6516438649
  30
0.0
  11
 3098.6036445970
  21
 4543.6516853933
  31
0.0
   0
LINE
   5
3B5
 100
AcDbEntity
   8
LEVEL001
 370
13
 100
AcDbLine
   6
CONTINUOUS
  62
6
  10
 3183.7330952868
  20
 4753.6516438649
  30
0.0
  11
 3183.7330952868
  21
 4653.6516853933
  31
0.0
   0
LWPOLYLINE
   5
3B6
 100
AcDbEntity
   8
LEVEL001
 370
13
   6
CONTINUOUS
  62
7
 100
AcDbPolyline
  90
4
  70
0
  10
 1328.6683699419
  20
 4783.6516853933
  10
 1328.6683699419
  20
 4998.6516853933
  10
 503.66836994188
  20
 4998.6516853933
  10
 503.66836994188
  20
 4783.6516853933
   0
LWPOLYLINE
   5
3B7
 100
AcDbEntity
   8
LEVEL001
 370
13
   6
CONTINUOUS
  62
7
 100
AcDbPolyline
  90
4
  70
0
  10
 1453.6683699419
  20
 4783.6516853933
  10
 1453.6683699419
  20
 4998.6516853933
  10
 2278.6683699419
  20
 4998.6516853933
  10
 2278.6683699419
  20
 4783.6516853933
   0
LINE
   5
3B8
 100
AcDbEntity
   8
LEVEL001
 370
13
 100
AcDbLine
   6
DASHDOT
  62
6
  10
 916.16836994188
  20
 5048.6516853933
  30
0.0
  11
 916.16836994188
  21
 4318.6516853933
  31
0.0
   0
LWPOLYLINE
   5
3B9
 100
AcDbEntity
   8
LEVEL001
 370
13
   6
CONTINUOUS
  62
7
 100
AcDbPolyline
  90
4
  70
0
  10
 4803.6683699419
  20
 4783.6516786704
  10
 4803.6683699419
  20
 4998.6516786704
  10
 3978.6683699419
  20
 4998.6516786704
  10
 3978.6683699419
  20
 4783.6516786704
   0
LINE
   5
3BA
 100
AcDbEntity
   8
LEVEL001
 370
13
 100
AcDbLine
   6
DASHDOT
  62
6
  10
 4391.1683699419
  20
 5048.6516853933
  30
0.0
  11
 4391.1683699419
  21
 4318.6516853933
  31
0.0
   0
LWPOLYLINE
   5
3BB
 100
AcDbEntity
   8
LEVEL001
 370
13
   6
CONTINUOUS
  62
7
 100
AcDbPolyline
  90
6
  70
0
  10
 2565.9798252580
  20
 4998.6516853933
  10
 2565.9798252580
  20
 4978.6516853933
  10
 2607.8222200238
  20
 4783.6516853933
  10
 2635.9798252580
  20
 4783.6516853933
  10
 2635.9798252580
  20
 4978.6516853933
  10
 2565.9798252580
  20
 4978.6516853933
   0
LWPOLYLINE
   5
3BC
 100
AcDbEntity
   8
LEVEL001
 370
13
   6
CONTINUOUS
  62
7
 100
AcDbPolyline
  90
6
  70
0
  10
 3716.3569146258
  20
 4998.6516853933
  10
 3716.3569146258
  20
 4978.6516853933
  10
 3674.5145198600
  20
 4783.6516853933
  10
 3646.3569146258
  20
 4783.6516853933
  10
 3646.3569146258
  20
 4978.6516853933
  10
 3716.3569146258
  20
 4978.6516853933
   0
LEADER
   5
3BD
 100
AcDbEntity
   8
LEVEL001
 370
13
   6
CONTINUOUS
  62
1
 100
AcDbLeader
   3
GMM010
  73
3
  74
1
  75
0
  40
 66.000000000000
  41
0.0
  76
2
  10
 2565.9798252580
  20
 4998.6516853933
  30
0.0
  10
 2449.2352593013
  20
 5079.5590253653
  30
0.0
  77
1
   0
LEADER
   5
3BE
 100
AcDbEntity
   8
LEVEL001
 370
13
   6
CONTINUOUS
  62
1
 100
AcDbLeader
   3
GMM001
  73
3
  74
1
  75
0
  40
 66.000000000000
  41
0.0
  76
2
  10
 2141.1683699419
  20
 4998.6516853932
  30
0.0
  10
 2327.6655904770
  20
 5089.2000859770
  30
0.0
  77
1
   0
ARC
   5
3BF
 100
AcDbEntity
   8
LEVEL001
 370
13
   6
HIDDEN
  62
2
 100
AcDbCircle
  10
 6195.9798252580
  20
 4668.6516853933
  30
0.0
  40
 3600.0000000000
 100
AcDbArc
  50
 175.21980815280
  51
 177.53722131226
   0
ARC
   5
3C0
 100
AcDbEntity
   8
LEVEL001
 370
13
   6
HIDDEN
  62
2
 100
AcDbCircle
  10
 86.356914625802
  20
 4668.6516853933
  30
0.0
  40
 3600.0000000000
 100
AcDbArc
  50
 2.4627786877396
  51
 4.7801918471988
   0
ARC
   5
3C1
 100
AcDbEntity
   8
LEVEL001
 370
13
   6
CONTINUOUS
  62
7
 100
AcDbCircle
  10
 86.356914625804
  20
 4668.6516853933
  30
0.0
  40
 3600.0000000000
 100
AcDbArc
  50
 355.21980815280
  51
 2.4627786877400
   0
ARC
   5
3C2
 100
AcDbEntity
   8
LEVEL001
 370
13
   6
CONTINUOUS
  62
7
 100
AcDbCircle
  10
 6195.9798252580
  20
 4668.6516853933
  30
0.0
  40
 3600.0000000000
 100
AcDbArc
  50
 177.53722131226
  51
 184.78019184720
   0
MTEXT
   5
3C3
 100
AcDbEntity
   8
LEVEL001
 370
13
  62
1
 100
AcDbMText
  10
 1339.9808699420
  20
 3247.4619654562
  30
0.0
  40
 80.000000000000
  41
0.0
  71
4
  72
1
   1
{\T1.000000;注}\P{\T1.000000;意}
   7
GMM009
  44
 0.79999984000003
   0
LEADER
   5
3C4
 100
AcDbEntity
   8
LEVEL001
 370
13
   6
CONTINUOUS
  62
6
 100
AcDbLeader
   3
GMM011
  73
0
  74
0
  75
0
  40
 66.000000000000
  41
 676.00000000000
  76
2
  10
 2151.6807374330
  20
 4468.8440685892
  30
0.0
  10
 2303.6555134048
  20
 4161.3247175487
  30
0.0
  77
6
 340
3C5
 213
0.0
 223
-28.285714285715
 233
0.0
   0
MTEXT
   5
3C5
 102
{ACAD_REACTORS
 330
3C4
 102
}
 100
AcDbEntity
   8
LEVEL001
 370
13
  62
1
 100
AcDbMText
  10
 2303.6555134048
  20
 4189.6104318345
  30
0.0
  40
 66.000000000000
  41
0.0
  71
7
  72
1
   1
\A1;表面：超親水性コーティング
   7
GMM007
   0
ARC
   5
3C6
 100
AcDbEntity
   8
LEVEL001
 370
13
   6
CONTINUOUS
  62
1
 100
AcDbCircle
  10
 503.66836994188
  20
 4823.6516853933
  30
0.0
  40
 7.5000000000000
 100
AcDbArc
  50
 90.000000000000
  51
 270.00000000000
   0
MTEXT
   5
3C8
 100
AcDbEntity
   8
LEVEL001
 370
13
  62
1
 100
AcDbMText
  10
 5852.0774608510
  20
 1153.5736076959
  30
0.0
  40
 80.000000000000
  41
0.0
  71
7
  72
1
   1
\T1.000000;注意板
   7
GMM003
  44
 0.79999984000003
   0
MTEXT
   5
3CA
 100
AcDbEntity
   8
LEVEL001
 370
13
  62
1
 100
AcDbMText
  10
 6823.0564346050
  20
 1413.5736076959
  30
0.0
  40
 80.000000000000
  41
0.0
  71
9
  72
1
   1
\T1.000000;１
   7
GMM003
  44
 0.79999984000003
   0
ENDSEC
  0
SECTION
  2
OBJECTS
  0
DICTIONARY
  5
C
100
AcDbDictionary
  3
ACAD_GROUP
350
D
  3
ACAD_MLINESTYLE
350
1B
  3
DWGPROPS
350
1C
  0
DICTIONARY
  5
D
102
{ACAD_REACTORS
330
C
102
}
100
AcDbDictionary
  0
DICTIONARY
  5
1B
102
{ACAD_REACTORS
330
C
102
}
100
AcDbDictionary
  3
STANDARD
350
1D
  0
MLINESTYLE
  5
1D
102
{ACAD_REACTORS
330
1B
102
}
100
AcDbMlineStyle
  2
STANDARD
 70
     0
  3

 62
   256
 51
90.0
 52
90.0
 71
     2
 49
0.5
 62
   256
  6
BYLAYER
 49
-0.5
 62
   256
  6
BYLAYER
   0
XRECORD
   5
1C
 102
{ACAD_REACTORS
 330
C
 102
}
 330
C
 100
AcDbXrecord
 280
1
   1
DWGPROPS COOKIE
   2
 
   3
 
   4
 
   6
 
   7
MF506WUP
   8
 
   9

 300
 = 
 301
 = 
 302
 = 
 303
 = 
 304
 = 
 305
 = 
 306
 = 
 307
 = 
 308
 = 
 309
 = 
  40
0.0
  41
 2460338.5000000
  42
 2460338.5000000
   1

  90
10
   0
ENDSEC
   0
EOF
