   0
SECTION
   2
HEADER
   9
$ACADVER
   1
AC1015
   9
$DWGCODEPAGE
   3
ANSI_932
   9
$LIMMIN
  10
0.0
  20
0.0
   9
$LIMMAX
  10
 8400.0000000000
  20
 5940.0000000000
   9
$EXTMIN
  10
0.0
  20
0.0
  30
0.0
   9
$EXTMAX
  10
 8400.0000000000
  20
 5940.0000000000
  30
0.0
   9
$LTSCALE
  40
 168.00000000000
   9
$HANDSEED
   5
393
   0
ENDSEC
   0
SECTION
   2
TABLES
  0
TABLE
  2
VPORT
  5
8
100
AcDbSymbolTable
 70
     1
  0
VPORT
  5
392
100
AcDbSymbolTableRecord
100
AcDbViewportTableRecord
  2
*ACTIVE
 70
     0
 10
0.0
 20
0.0
 11
1.0
 21
1.0
  12
 4200.0000000000
  22
 2970.0000000000
 13
0.0
 23
0.0
 14
1.0
 24
1.0
 15
0.0
 25
0.0
 16
0.0
 26
0.0
 36
1.0
 17
0.0
 27
0.0
 37
0.0
  40
 8400.0000000000
  41
 1.4787878787879
 42
50.0
 43
0.0
 44
0.0
 50
0.0
 51
0.0
 71
     0
 72
   100
 73
     1
 74
     1
 75
     0
 76
     0
 77
     0
 78
     0
  0
ENDTAB
  0
TABLE
  2
LTYPE
  5
5
100
AcDbSymbolTable
 70
    25
  0
LTYPE
  5
12
100
AcDbSymbolTableRecord
100
AcDbLinetypeTableRecord
  2
BYBLOCK
 70
     0
  3

 72
    65
 73
     0
 40
0.0
  0
LTYPE
  5
13
100
AcDbSymbolTableRecord
100
AcDbLinetypeTableRecord
  2
BYLAYER
 70
     0
  3

 72
    65
 73
     0
 40
0.0
  0
LTYPE
  5
14
100
AcDbSymbolTableRecord
100
AcDbLinetypeTableRecord
  2
CONTINUOUS
 70
     0
  3
Solid line
 72
    65
 73
     0
 40
0.0
  0
LTYPE
  5
20
100
AcDbSymbolTableRecord
100
AcDbLinetypeTableRecord
  2
BORDER
 70
     0
  3
__ __ . __ __ . __ __ . __ __ . __ __ . __ __ .
 72
    65
 73
     6
 40
1.75
 49
0.5
 74
     0
 49
-0.25
 74
     0
 49
0.5
 74
     0
 49
-0.25
 74
     0
 49
0.0
 74
     0
 49
-0.25
 74
     0
  0
LTYPE
  5
21
100
AcDbSymbolTableRecord
100
AcDbLinetypeTableRecord
  2
BORDER2
 70
     0
  3
__.__.__.__.__.__.__.__.__.__.__.__.__.__.__.__
 72
    65
 73
     6
 40
0.875
 49
0.25
 74
     0
 49
-0.125
 74
     0
 49
0.25
 74
     0
 49
-0.125
 74
     0
 49
0.0
 74
     0
 49
-0.125
 74
     0
  0
LTYPE
  5
22
100
AcDbSymbolTableRecord
100
AcDbLinetypeTableRecord
  2
BORDERX2
 70
     0
  3
____  ____  .  ____  ____  .  ____  ____  .  __
 72
    65
 73
     6
 40
3.5
 49
1.0
 74
     0
 49
-0.5
 74
     0
 49
1.0
 74
     0
 49
-0.5
 74
     0
 49
0.0
 74
     0
 49
-0.5
 74
     0
  0
LTYPE
  5
23
100
AcDbSymbolTableRecord
100
AcDbLinetypeTableRecord
  2
CENTER
 70
     0
  3
____ _ ____ _ ____ _ ____ _ ____ _ ____ _ ____ 
 72
    65
 73
     4
 40
2.0
 49
1.25
 74
     0
 49
-0.25
 74
     0
 49
0.25
 74
     0
 49
-0.25
 74
     0
  0
LTYPE
  5
24
100
AcDbSymbolTableRecord
100
AcDbLinetypeTableRecord
  2
CENTER2
 70
     0
  3
___ _ ___ _ ___ _ ___ _ ___ _ ___ _ ___ _ ___ _
 72
    65
 73
     4
 40
1.125
 49
0.75
 74
     0
 49
-0.125
 74
     0
 49
0.125
 74
     0
 49
-0.125
 74
     0
  0
LTYPE
  5
25
100
AcDbSymbolTableRecord
100
AcDbLinetypeTableRecord
  2
CENTERX2
 70
     0
  3
________  __  ________  __  ________  __  _____
 72
    65
 73
     4
 40
4.0
 49
2.5
 74
     0
 49
-0.5
 74
     0
 49
0.5
 74
     0
 49
-0.5
 74
     0
  0
LTYPE
  5
26
100
AcDbSymbolTableRecord
100
AcDbLinetypeTableRecord
  2
DASHDOT
 70
     0
  3
__ . __ . __ . __ . __ . __ . __ . __ . __ . __
 72
    65
 73
     4
 40
1.0
 49
0.5
 74
     0
 49
-0.25
 74
     0
 49
0.0
 74
     0
 49
-0.25
 74
     0
  0
LTYPE
  5
27
100
AcDbSymbolTableRecord
100
AcDbLinetypeTableRecord
  2
DASHDOT2
 70
     0
  3
_._._._._._._._._._._._._._._._._._._._._._._._
 72
    65
 73
     4
 40
0.5
 49
0.25
 74
     0
 49
-0.125
 74
     0
 49
0.0
 74
     0
 49
-0.125
 74
     0
  0
LTYPE
  5
28
100
AcDbSymbolTableRecord
100
AcDbLinetypeTableRecord
  2
DASHDOTX2
 70
     0
  3
____  .  ____  .  ____  .  ____  .  ____  .  __
 72
    65
 73
     4
 40
2.0
 49
1.0
 74
     0
 49
-0.5
 74
     0
 49
0.0
 74
     0
 49
-0.5
 74
     0
  0
LTYPE
  5
29
100
AcDbSymbolTableRecord
100
AcDbLinetypeTableRecord
  2
DASHED
 70
     0
  3
__ __ __ __ __ __ __ __ __ __ __ __ __ __ __ __
 72
    65
 73
     2
 40
0.75
 49
0.5
 74
     0
 49
-0.25
 74
     0
  0
LTYPE
  5
2A
100
AcDbSymbolTableRecord
100
AcDbLinetypeTableRecord
  2
DASHED2
 70
     0
  3
_ _ _ _ _ _ _ _ _ _ _ _ _ _ _ _ _ _ _ _ _ _ _ _
 72
    65
 73
     2
 40
0.375
 49
0.25
 74
     0
 49
-0.125
 74
     0
  0
LTYPE
  5
2B
100
AcDbSymbolTableRecord
100
AcDbLinetypeTableRecord
  2
DASHEDX2
 70
     0
  3
____  ____  ____  ____  ____  ____  ____  ____ 
 72
    65
 73
     2
 40
1.5
 49
1.0
 74
     0
 49
-0.5
 74
     0
  0
LTYPE
  5
2C
100
AcDbSymbolTableRecord
100
AcDbLinetypeTableRecord
  2
DIVIDE
 70
     0
  3
____ . . ____ . . ____ . . ____ . . ____ . . __
 72
    65
 73
     6
 40
1.25
 49
0.5
 74
     0
 49
-0.25
 74
     0
 49
0.0
 74
     0
 49
-0.25
 74
     0
 49
0.0
 74
     0
 49
-0.25
 74
     0
  0
LTYPE
  5
2D
100
AcDbSymbolTableRecord
100
AcDbLinetypeTableRecord
  2
DIVIDE2
 70
     0
  3
__..__..__..__..__..__..__..__..__..__..__..__.
 72
    65
 73
     6
 40
0.625
 49
0.25
 74
     0
 49
-0.125
 74
     0
 49
0.0
 74
     0
 49
-0.125
 74
     0
 49
0.0
 74
     0
 49
-0.125
 74
     0
  0
LTYPE
  5
2E
100
AcDbSymbolTableRecord
100
AcDbLinetypeTableRecord
  2
DIVIDEX2
 70
     0
  3
________  .  .  ________  .  .  ________  .  . 
 72
    65
 73
     6
 40
2.5
 49
1.0
 74
     0
 49
-0.5
 74
     0
 49
0.0
 74
     0
 49
-0.5
 74
     0
 49
0.0
 74
     0
 49
-0.5
 74
     0
  0
LTYPE
  5
2F
100
AcDbSymbolTableRecord
100
AcDbLinetypeTableRecord
  2
DOT
 70
     0
  3
. . . . . . . . . . . . . . . . . . . . . . . .
 72
    65
 73
     2
 40
0.25
 49
0.0
 74
     0
 49
-0.25
 74
     0
  0
LTYPE
  5
30
100
AcDbSymbolTableRecord
100
AcDbLinetypeTableRecord
  2
DOT2
 70
     0
  3
...............................................
 72
    65
 73
     2
 40
0.125
 49
0.0
 74
     0
 49
-0.125
 74
     0
  0
LTYPE
  5
31
100
AcDbSymbolTableRecord
100
AcDbLinetypeTableRecord
  2
DOTX2
 70
     0
  3
.  .  .  .  .  .  .  .  .  .  .  .  .  .  .  . 
 72
    65
 73
     2
 40
0.5
 49
0.0
 74
     0
 49
-0.5
 74
     0
  0
LTYPE
  5
32
100
AcDbSymbolTableRecord
100
AcDbLinetypeTableRecord
  2
HIDDEN
 70
     0
  3
__ __ __ __ __ __ __ __ __ __ __ __ __ __ __ __
 72
    65
 73
     2
 40
0.375
 49
0.25
 74
     0
 49
-0.125
 74
     0
  0
LTYPE
  5
33
100
AcDbSymbolTableRecord
100
AcDbLinetypeTableRecord
  2
HIDDEN2
 70
     0
  3
_ _ _ _ _ _ _ _ _ _ _ _ _ _ _ _ _ _ _ _ _ _ _ _
 72
    65
 73
     2
 40
0.1875
 49
0.125
 74
     0
 49
-0.0625
 74
     0
  0
LTYPE
  5
34
100
AcDbSymbolTableRecord
100
AcDbLinetypeTableRecord
  2
HIDDENX2
 70
     0
  3
____ ____ ____ ____ ____ ____ ____ ____ ____ __
 72
    65
 73
     2
 40
0.75
 49
0.5
 74
     0
 49
-0.25
 74
     0
  0
LTYPE
  5
35
100
AcDbSymbolTableRecord
100
AcDbLinetypeTableRecord
  2
PHANTOM
 70
     0
  3
______  __  __  ______  __  __  ______  __  __ 
 72
    65
 73
     6
 40
2.5
 49
1.25
 74
     0
 49
-0.25
 74
     0
 49
0.25
 74
     0
 49
-0.25
 74
     0
 49
0.25
 74
     0
 49
-0.25
 74
     0
  0
LTYPE
  5
36
100
AcDbSymbolTableRecord
100
AcDbLinetypeTableRecord
  2
PHANTOM2
 70
     0
  3
___ _ _ ___ _ _ ___ _ _ ___ _ _ ___ _ _ ___ _ _
 72
    65
 73
     6
 40
1.25
 49
0.625
 74
     0
 49
-0.125
 74
     0
 49
0.125
 74
     0
 49
-0.125
 74
     0
 49
0.125
 74
     0
 49
-0.125
 74
     0
  0
LTYPE
  5
37
100
AcDbSymbolTableRecord
100
AcDbLinetypeTableRecord
  2
PHANTOMX2
 70
     0
  3
____________    ____    ____    ____________   
 72
    65
 73
     6
 40
5.0
 49
2.5
 74
     0
 49
-0.5
 74
     0
 49
0.5
 74
     0
 49
-0.5
 74
     0
 49
0.5
 74
     0
 49
-0.5
 74
     0
  0
ENDTAB
   0
TABLE
   2
LAYER
   5
2
 100
AcDbSymbolTable
  70
3
   0
LAYER
   5
E
 100
AcDbSymbolTableRecord
 100
AcDbLayerTableRecord
   2
0
  70
0
  62
7
   6
CONTINUOUS
 390
30
   0
LAYER
   5
39
 100
AcDbSymbolTableRecord
 100
AcDbLayerTableRecord
   2
LEVEL001
  70
0
  62
7
   6
CONTINUOUS
 390
30
   0
LAYER
   5
3A
 100
AcDbSymbolTableRecord
 100
AcDbLayerTableRecord
   2
LEVEL002
  70
0
  62
7
   6
CONTINUOUS
 390
30
   0
ENDTAB
  0
TABLE
  2
STYLE
  5
3
100
AcDbSymbolTable
  70
11
  0
STYLE
  5
F
100
AcDbSymbolTableRecord
100
AcDbTextStyleTableRecord
  2
STANDARD
 70
     0
 40
0.0
 41
1.0
 50
0.0
 71
     0
 42
0.2
  3
TXT
  4
BIGFONT
  0
STYLE
  5
38
100
AcDbSymbolTableRecord
100
AcDbTextStyleTableRecord
  2
STANDARD1
 70
     4
 40
0.0
 41
1.0
 50
0.0
 71
     0
 42
0.2
  3
TXT
  4
BIGFONT
   0
STYLE
   5
3B
 100
AcDbSymbolTableRecord
 100
AcDbTextStyleTableRecord
   2
GMM001
  70
0
  40
0.0
  41
 0.78787878787879
  50
0.0
  71
     0
  42
1.0
   3
txt.shx
   4
bigfont.shx
   0
STYLE
   5
3C
 100
AcDbSymbolTableRecord
 100
AcDbTextStyleTableRecord
   2
GMM002
  70
0
  40
0.0
  41
 0.75000000000000
  50
0.0
  71
     0
  42
1.0
   3
txt.shx
   4
bigfont.shx
   0
STYLE
   5
3D
 100
AcDbSymbolTableRecord
 100
AcDbTextStyleTableRecord
   2
GMM003
  70
0
  40
0.0
  41
 0.87500000000000
  50
0.0
  71
     0
  42
1.0
   3
txt.shx
   4
bigfont.shx
   0
STYLE
   5
3E
 100
AcDbSymbolTableRecord
 100
AcDbTextStyleTableRecord
   2
GMM004
  70
0
  40
0.0
  41
 0.90000000000000
  50
0.0
  71
     0
  42
1.0
   3
txt.shx
   4
bigfont.shx
   0
STYLE
   5
3F
 100
AcDbSymbolTableRecord
 100
AcDbTextStyleTableRecord
   2
GMM005
  70
0
  40
0.0
  41
 1.0000000000000
  50
0.0
  71
     0
  42
1.0
   3
txt.shx
   4
bigfont.shx
   0
STYLE
   5
40
 100
AcDbSymbolTableRecord
 100
AcDbTextStyleTableRecord
   2
GMM006
  70
0
  40
0.0
  41
 0.90000000000000
  50
0.0
  71
     0
  42
1.0
   3

   4

1001
ACAD
1000
ＭＳ 明朝
1071
33587217
   0
STYLE
   5
41
 100
AcDbSymbolTableRecord
 100
AcDbTextStyleTableRecord
   2
GMM007
  70
0
  40
0.0
  41
 1.0000000000000
  50
0.0
  71
     0
  42
1.0
   3

   4

1001
ACAD
1000
ＭＳ 明朝
1071
32785
   0
STYLE
   5
42
 100
AcDbSymbolTableRecord
 100
AcDbTextStyleTableRecord
   2
GMM008
  70
0
  40
0.0
  41
 0.65000000000000
  50
0.0
  71
     0
  42
1.0
   3
txt.shx
   4
bigfont.shx
   0
STYLE
   5
43
 100
AcDbSymbolTableRecord
 100
AcDbTextStyleTableRecord
   2
GMM009
  70
0
  40
0.0
  41
 1.6363636363636
  50
0.0
  71
     0
  42
1.0
   3
txt.shx
   4
bigfont.shx
   0
ENDTAB
  0
TABLE
  2
VIEW
  5
6
100
AcDbSymbolTable
 70
     0
  0
ENDTAB
  0
TABLE
  2
UCS
  5
7
100
AcDbSymbolTable
 70
     0
  0
ENDTAB
  0
TABLE
  2
APPID
  5
9
100
AcDbSymbolTable
 70
     1
  0
APPID
  5
10
100
AcDbSymbolTableRecord
100
AcDbRegAppTableRecord
  2
ACAD
 70
     0
  0
ENDTAB
   0
TABLE
   2
DIMSTYLE
   5
A
 100
AcDbSymbolTable
  70
10
 100
AcDbDimStyleTable
  0
DIMSTYLE
105
1D
100
AcDbSymbolTableRecord
100
AcDbDimStyleTableRecord
  2
STANDARD
 70
     0
  3

  4

  5

  6

  7

 40
1.0
 41
0.18
 42
0.0625
 43
0.38
 44
0.18
 45
0.0
 46
0.0
 47
0.0
 48
0.0
140
0.18
141
0.09
142
0.0
143
25.4
144
1.0
145
0.0
146
1.0
147
0.09
 71
     0
 72
     0
 73
     1
 74
     1
 75
     0
 76
     0
 77
     0
 78
     0
170
     0
171
     2
172
     0
173
     0
174
     0
175
     0
176
     0
177
     0
178
     0
270
     2
271
     4
272
     4
273
     2
274
     2
340
F
275
     0
280
     0
281
     0
282
     0
283
     1
284
     0
285
     0
286
     0
287
     3
288
     0
   0
DIMSTYLE
 105
44
 100
AcDbSymbolTableRecord
 100
AcDbDimStyleTableRecord
   2
GMM001
  70
0
   3

   4

   5

   6
_OPEN
   7
_OPEN
  40
 1.0000000000000
  41
 30.000000000000
  42
 30.000000000000
  43
 160.00000000000
  44
 30.000000000000
  45
0.0
  46
 37.500000000000
  47
0.0
  48
0.0
 140
 66.000000000000
 141
 20.000000000000
 142
0.0
 143
 0.39400000000000E-1
 144
 1.0000000000000
 145
0.0
 146
 0.62500000000000
 147
0.0
  71
0
  72
0
  73
0
  74
0
  75
1
  76
1
  77
0
  78
8
 170
0
 171
2
 172
1
 173
1
 174
0
 175
0
 176
1
 177
1
 178
1
 270
2
 271
1
 272
0
 273
2
 274
2
 340
F
 275
0
 280
0
 281
0
 282
0
 283
1
 284
0
 285
0
 286
0
 287
3
 288
0
   0
DIMSTYLE
 105
45
 100
AcDbSymbolTableRecord
 100
AcDbDimStyleTableRecord
   2
GMM002
  70
0
   3
%%c<>
   4

   5

   6
_OPEN
   7
_OPEN
  40
 1.0000000000000
  41
 30.000000000000
  42
 30.000000000000
  43
 160.00000000000
  44
 30.000000000000
  45
0.0
  46
 37.500000000000
  47
0.0
  48
0.0
 140
 66.000000000000
 141
 20.000000000000
 142
0.0
 143
 0.39400000000000E-1
 144
 1.0000000000000
 145
0.0
 146
 0.62500000000000
 147
 28.285714285714
  71
0
  72
0
  73
0
  74
0
  75
1
  76
1
  77
1
  78
8
 170
0
 171
2
 172
1
 173
1
 174
0
 175
0
 176
6
 177
6
 178
1
 270
2
 271
1
 272
0
 273
2
 274
2
 340
3B
 275
0
 280
0
 281
0
 282
0
 283
1
 284
0
 285
0
 286
0
 287
0
 288
0
   0
DIMSTYLE
 105
46
 100
AcDbSymbolTableRecord
 100
AcDbDimStyleTableRecord
   2
GMM003
  70
0
   3

   4

   5

   6
_OPEN
   7
_OPEN
  40
 1.0000000000000
  41
 30.000000000000
  42
 30.000000000000
  43
 160.00000000000
  44
 30.000000000000
  45
0.0
  46
 37.500000000000
  47
0.0
  48
0.0
 140
 66.000000000000
 141
 20.000000000000
 142
0.0
 143
 0.39400000000000E-1
 144
 1.0000000000000
 145
0.0
 146
 0.62500000000000
 147
0.0
  71
0
  72
0
  73
0
  74
0
  75
1
  76
1
  77
0
  78
8
 170
0
 171
2
 172
1
 173
1
 174
0
 175
0
 176
1
 177
1
 178
1
 270
2
 271
1
 272
0
 273
2
 274
2
 340
F
 275
0
 280
0
 281
0
 282
0
 283
1
 284
0
 285
0
 286
0
 287
3
 288
0
   0
DIMSTYLE
 105
47
 100
AcDbSymbolTableRecord
 100
AcDbDimStyleTableRecord
   2
GMM004
  70
0
   3
□<>
   4

   5

   6
_OPEN
   7
_OPEN
  40
 1.0000000000000
  41
 30.000000000000
  42
 30.000000000000
  43
 160.00000000000
  44
 30.000000000000
  45
0.0
  46
 37.500000000000
  47
0.0
  48
0.0
 140
 66.000000000000
 141
 20.000000000000
 142
0.0
 143
 0.39400000000000E-1
 144
 1.0000000000000
 145
0.0
 146
 0.62500000000000
 147
 28.285714285714
  71
0
  72
0
  73
0
  74
0
  75
1
  76
1
  77
1
  78
8
 170
0
 171
2
 172
1
 173
1
 174
0
 175
0
 176
6
 177
6
 178
1
 270
2
 271
1
 272
0
 273
2
 274
2
 340
3B
 275
0
 280
0
 281
0
 282
0
 283
1
 284
0
 285
0
 286
0
 287
3
 288
1
   0
DIMSTYLE
 105
48
 100
AcDbSymbolTableRecord
 100
AcDbDimStyleTableRecord
   2
GMM005
  70
0
   3

   4

   5

   6
_OPEN
   7
_OPEN
  40
 1.0000000000000
  41
 30.000000000000
  42
 30.000000000000
  43
 160.00000000000
  44
 30.000000000000
  45
0.0
  46
 37.500000000000
  47
0.0
  48
0.0
 140
 66.000000000000
 141
 20.000000000000
 142
0.0
 143
 0.39400000000000E-1
 144
 1.0000000000000
 145
0.0
 146
 0.62500000000000
 147
 28.285714285714
  71
0
  72
0
  73
0
  74
0
  75
0
  76
1
  77
1
  78
8
 170
0
 171
2
 172
1
 173
1
 174
0
 175
0
 176
6
 177
6
 178
1
 270
2
 271
1
 272
0
 273
2
 274
2
 340
3B
 275
0
 280
0
 281
0
 282
0
 283
1
 284
0
 285
0
 286
0
 287
3
 288
0
   0
DIMSTYLE
 105
49
 100
AcDbSymbolTableRecord
 100
AcDbDimStyleTableRecord
   2
GMM006
  70
0
   3
<>(標準設置高さ
   4

   5

   6
_OPEN
   7
_OPEN
  40
 1.0000000000000
  41
 30.000000000000
  42
 30.000000000000
  43
 160.00000000000
  44
 30.000000000000
  45
0.0
  46
 37.500000000000
  47
0.0
  48
0.0
 140
 66.000000000000
 141
 20.000000000000
 142
0.0
 143
 0.39400000000000E-1
 144
 1.0000000000000
 145
0.0
 146
 0.62500000000000
 147
 28.285714285714
  71
0
  72
0
  73
0
  74
0
  75
0
  76
0
  77
1
  78
8
 170
0
 171
2
 172
1
 173
1
 174
0
 175
0
 176
6
 177
6
 178
1
 270
2
 271
1
 272
0
 273
2
 274
2
 340
3B
 275
0
 280
0
 281
0
 282
0
 283
1
 284
0
 285
0
 286
0
 287
3
 288
0
   0
DIMSTYLE
 105
4A
 100
AcDbSymbolTableRecord
 100
AcDbDimStyleTableRecord
   2
GMM007
  70
0
   3

   4

   5

   6
_OPEN
   7
_OPEN
  40
 1.0000000000000
  41
 30.000000000000
  42
 30.000000000000
  43
 160.00000000000
  44
 30.000000000000
  45
0.0
  46
 37.500000000000
  47
0.0
  48
0.0
 140
 66.000000000000
 141
 20.000000000000
 142
0.0
 143
 0.39400000000000E-1
 144
 1.0000000000000
 145
0.0
 146
 0.62500000000000
 147
0.0
  71
0
  72
0
  73
0
  74
0
  75
1
  76
1
  77
0
  78
8
 170
0
 171
2
 172
1
 173
1
 174
0
 175
0
 176
1
 177
1
 178
1
 270
2
 271
1
 272
0
 273
2
 274
2
 340
F
 275
0
 280
0
 281
0
 282
0
 283
1
 284
0
 285
0
 286
0
 287
3
 288
0
   0
DIMSTYLE
 105
4B
 100
AcDbSymbolTableRecord
 100
AcDbDimStyleTableRecord
   2
GMM008
  70
0
   3

   4

   5

   6
_OPEN
   7
_OPEN
  40
 1.0000000000000
  41
 40.000000000000
  42
 40.000000000000
  43
 160.00000000000
  44
 40.000000000000
  45
0.0
  46
 50.000000000000
  47
0.0
  48
0.0
 140
 66.000000000000
 141
 20.000000000000
 142
0.0
 143
 0.39400000000000E-1
 144
 1.0000000000000
 145
0.0
 146
 0.62500000000000
 147
0.0
  71
0
  72
0
  73
0
  74
0
  75
1
  76
1
  77
1
  78
0
 170
0
 171
2
 172
1
 173
1
 174
0
 175
0
 176
6
 177
6
 178
1
 270
2
 271
0
 272
0
 273
2
 274
2
 340
3B
 275
1
 280
0
 281
0
 282
0
 283
1
 284
0
 285
0
 286
0
 287
3
 288
0
   0
ENDTAB
  0
TABLE
  2
BLOCK_RECORD
  5
1
100
AcDbSymbolTable
 70
     0
  0
BLOCK_RECORD
  5
18
100
AcDbSymbolTableRecord
100
AcDbBlockTableRecord
  2
*MODEL_SPACE
  0
BLOCK_RECORD
  5
15
100
AcDbSymbolTableRecord
100
AcDbBlockTableRecord
  2
*PAPER_SPACE
   0
BLOCK_RECORD
   5
4C
 100
AcDbSymbolTableRecord
 100
AcDbBlockTableRecord
   2
*D4
   0
BLOCK_RECORD
   5
4D
 100
AcDbSymbolTableRecord
 100
AcDbBlockTableRecord
   2
*D5
   0
BLOCK_RECORD
   5
4E
 100
AcDbSymbolTableRecord
 100
AcDbBlockTableRecord
   2
*D8
   0
BLOCK_RECORD
   5
4F
 100
AcDbSymbolTableRecord
 100
AcDbBlockTableRecord
   2
*D9
   0
BLOCK_RECORD
   5
50
 100
AcDbSymbolTableRecord
 100
AcDbBlockTableRecord
   2
*D10
   0
BLOCK_RECORD
   5
51
 100
AcDbSymbolTableRecord
 100
AcDbBlockTableRecord
   2
*D11
   0
BLOCK_RECORD
   5
52
 100
AcDbSymbolTableRecord
 100
AcDbBlockTableRecord
   2
*D12
   0
BLOCK_RECORD
   5
53
 100
AcDbSymbolTableRecord
 100
AcDbBlockTableRecord
   2
_ARCHTICK
   0
BLOCK_RECORD
   5
54
 100
AcDbSymbolTableRecord
 100
AcDbBlockTableRecord
   2
_BOXBLANK
   0
BLOCK_RECORD
   5
55
 100
AcDbSymbolTableRecord
 100
AcDbBlockTableRecord
   2
_BOXFILLED
   0
BLOCK_RECORD
   5
56
 100
AcDbSymbolTableRecord
 100
AcDbBlockTableRecord
   2
_CLOSED
   0
BLOCK_RECORD
   5
57
 100
AcDbSymbolTableRecord
 100
AcDbBlockTableRecord
   2
_CLOSEDBLANK
   0
BLOCK_RECORD
   5
58
 100
AcDbSymbolTableRecord
 100
AcDbBlockTableRecord
   2
_DATUMBLANK
   0
BLOCK_RECORD
   5
59
 100
AcDbSymbolTableRecord
 100
AcDbBlockTableRecord
   2
_DATUMFILLED
   0
BLOCK_RECORD
   5
5A
 100
AcDbSymbolTableRecord
 100
AcDbBlockTableRecord
   2
_DOT
   0
BLOCK_RECORD
   5
5B
 100
AcDbSymbolTableRecord
 100
AcDbBlockTableRecord
   2
_DOTBLANK
   0
BLOCK_RECORD
   5
5C
 100
AcDbSymbolTableRecord
 100
AcDbBlockTableRecord
   2
_DOTSMALL
   0
BLOCK_RECORD
   5
5D
 100
AcDbSymbolTableRecord
 100
AcDbBlockTableRecord
   2
_INTEGRAL
   0
BLOCK_RECORD
   5
5E
 100
AcDbSymbolTableRecord
 100
AcDbBlockTableRecord
   2
_NONE
   0
BLOCK_RECORD
   5
5F
 100
AcDbSymbolTableRecord
 100
AcDbBlockTableRecord
   2
_OBLIQUE
   0
BLOCK_RECORD
   5
60
 100
AcDbSymbolTableRecord
 100
AcDbBlockTableRecord
   2
_OPEN
   0
BLOCK_RECORD
   5
61
 100
AcDbSymbolTableRecord
 100
AcDbBlockTableRecord
   2
_OPEN30
   0
BLOCK_RECORD
   5
62
 100
AcDbSymbolTableRecord
 100
AcDbBlockTableRecord
   2
_OPEN90
   0
BLOCK_RECORD
   5
63
 100
AcDbSymbolTableRecord
 100
AcDbBlockTableRecord
   2
_ORIGIN
   0
ENDTAB
   0
ENDSEC
  0
SECTION
  2
BLOCKS
  0
BLOCK
  5
19
100
AcDbEntity
  8
0
100
AcDbBlockBegin
  2
*MODEL_SPACE
 70
     0
 10
0.0
 20
0.0
 30
0.0
  3
*MODEL_SPACE
  1

  0
ENDBLK
  5
1A
100
AcDbEntity
  8
0
100
AcDbBlockEnd
  0
BLOCK
  5
16
100
AcDbEntity
 67
     1
  8
0
100
AcDbBlockBegin
  2
*PAPER_SPACE
 70
     0
 10
0.0
 20
0.0
 30
0.0
  3
*PAPER_SPACE
  1

  0
ENDBLK
  5
17
100
AcDbEntity
 67
     1
  8
0
100
AcDbBlockEnd
   0
BLOCK
   5
64
 100
AcDbEntity
   8
0
 100
AcDbBlockBegin
   2
_ARCHTICK
  70
0
  10
0.0
  20
0.0
  30
0.0
   3
_ARCHTICK
   0
POLYLINE
   5
65
 100
AcDbEntity
   8
0
 370
-2
   6
BYBLOCK
  62
0
 100
AcDb2dPolyline
  66
1
  10
0.0
  20
0.0
  30
0.0
  70
1
  40
 0.15000000000000
  41
 0.15000000000000
   0
VERTEX
   5
66
 100
AcDbEntity
   8
0
   6
BYBLOCK
  62
0
 100
AcDbVertex
 100
AcDb2dVertex
  10
-0.50000000000000
  20
-0.50000000000000
  30
0.0
  40
 0.15000000000000
  41
 0.15000000000000
   0
VERTEX
   5
67
 100
AcDbEntity
   8
0
   6
BYBLOCK
  62
0
 100
AcDbVertex
 100
AcDb2dVertex
  10
 0.50000000000000
  20
 0.50000000000000
  30
0.0
  40
 0.15000000000000
  41
 0.15000000000000
   0
SEQEND
   5
68
 100
AcDbEntity
   8
0
   6
BYBLOCK
  62
0
   0
ENDBLK
   5
69
 100
AcDbEntity
   8
0
 100
AcDbBlockEnd
   0
BLOCK
   5
6A
 100
AcDbEntity
   8
0
 100
AcDbBlockBegin
   2
_OBLIQUE
  70
0
  10
0.0
  20
0.0
  30
0.0
   3
_OBLIQUE
   0
LINE
   5
6B
 100
AcDbEntity
   8
0
 370
-2
 100
AcDbLine
   6
BYBLOCK
  62
0
  10
-0.50000000000000
  20
-0.50000000000000
  30
0.0
  11
 0.50000000000000
  21
 0.50000000000000
  31
0.0
   0
ENDBLK
   5
6C
 100
AcDbEntity
   8
0
 100
AcDbBlockEnd
   0
BLOCK
   5
6D
 100
AcDbEntity
   8
0
 100
AcDbBlockBegin
   2
_BOXBLANK
  70
0
  10
0.0
  20
0.0
  30
0.0
   3
_BOXBLANK
   0
LINE
   5
6E
 100
AcDbEntity
   8
0
 370
-2
 100
AcDbLine
   6
BYBLOCK
  62
0
  10
-0.50000000000000
  20
-0.50000000000000
  30
0.0
  11
 0.50000000000000
  21
-0.50000000000000
  31
0.0
   0
LINE
   5
6F
 100
AcDbEntity
   8
0
 370
-2
 100
AcDbLine
   6
BYBLOCK
  62
0
  10
 0.50000000000000
  20
-0.50000000000000
  30
0.0
  11
 0.50000000000000
  21
 0.50000000000000
  31
0.0
   0
LINE
   5
70
 100
AcDbEntity
   8
0
 370
-2
 100
AcDbLine
   6
BYBLOCK
  62
0
  10
 0.50000000000000
  20
 0.50000000000000
  30
0.0
  11
-0.50000000000000
  21
 0.50000000000000
  31
0.0
   0
LINE
   5
71
 100
AcDbEntity
   8
0
 370
-2
 100
AcDbLine
   6
BYBLOCK
  62
0
  10
-0.50000000000000
  20
 0.50000000000000
  30
0.0
  11
-0.50000000000000
  21
-0.50000000000000
  31
0.0
   0
LINE
   5
72
 100
AcDbEntity
   8
0
 370
-2
 100
AcDbLine
   6
BYBLOCK
  62
0
  10
-0.50000000000000
  20
0.0
  30
0.0
  11
-1.0000000000000
  21
0.0
  31
0.0
   0
ENDBLK
   5
73
 100
AcDbEntity
   8
0
 100
AcDbBlockEnd
   0
BLOCK
   5
74
 100
AcDbEntity
   8
0
 100
AcDbBlockBegin
   2
_BOXFILLED
  70
0
  10
0.0
  20
0.0
  30
0.0
   3
_BOXFILLED
   0
SOLID
   5
75
 100
AcDbEntity
   8
0
 100
AcDbTrace
   6
BYBLOCK
  62
0
  10
-0.50000000000000
  20
 0.50000000000000
  30
0.0
  11
 0.50000000000000
  21
 0.50000000000000
  31
0.0
  12
-0.50000000000000
  22
-0.50000000000000
  32
0.0
  13
 0.50000000000000
  23
-0.50000000000000
  33
0.0
   0
LINE
   5
76
 100
AcDbEntity
   8
0
 370
-2
 100
AcDbLine
   6
BYBLOCK
  62
0
  10
-0.50000000000000
  20
0.0
  30
0.0
  11
-1.0000000000000
  21
0.0
  31
0.0
   0
ENDBLK
   5
77
 100
AcDbEntity
   8
0
 100
AcDbBlockEnd
   0
BLOCK
   5
78
 100
AcDbEntity
   8
0
 100
AcDbBlockBegin
   2
_CLOSED
  70
0
  10
0.0
  20
0.0
  30
0.0
   3
_CLOSED
   0
LINE
   5
79
 100
AcDbEntity
   8
0
 370
-2
 100
AcDbLine
   6
BYBLOCK
  62
0
  10
-1.0000000000000
  20
 0.16666666666667
  30
0.0
  11
0.0
  21
0.0
  31
0.0
   0
LINE
   5
7A
 100
AcDbEntity
   8
0
 370
-2
 100
AcDbLine
   6
BYBLOCK
  62
0
  10
0.0
  20
0.0
  30
0.0
  11
-1.0000000000000
  21
-0.16666666666667
  31
0.0
   0
LINE
   5
7B
 100
AcDbEntity
   8
0
 370
-2
 100
AcDbLine
   6
BYBLOCK
  62
0
  10
-1.0000000000000
  20
 0.16666666666667
  30
0.0
  11
-1.0000000000000
  21
-0.16666666666667
  31
0.0
   0
LINE
   5
7C
 100
AcDbEntity
   8
0
 370
-2
 100
AcDbLine
   6
BYBLOCK
  62
0
  10
0.0
  20
0.0
  30
0.0
  11
-1.0000000000000
  21
0.0
  31
0.0
   0
ENDBLK
   5
7D
 100
AcDbEntity
   8
0
 100
AcDbBlockEnd
   0
BLOCK
   5
7E
 100
AcDbEntity
   8
0
 100
AcDbBlockBegin
   2
_OPEN
  70
0
  10
0.0
  20
0.0
  30
0.0
   3
_OPEN
   0
LINE
   5
7F
 100
AcDbEntity
   8
0
 370
-2
 100
AcDbLine
   6
BYBLOCK
  62
0
  10
-1.0000000000000
  20
 0.16666666666667
  30
0.0
  11
0.0
  21
0.0
  31
0.0
   0
LINE
   5
80
 100
AcDbEntity
   8
0
 370
-2
 100
AcDbLine
   6
BYBLOCK
  62
0
  10
0.0
  20
0.0
  30
0.0
  11
-1.0000000000000
  21
-0.16666666666667
  31
0.0
   0
LINE
   5
81
 100
AcDbEntity
   8
0
 370
-2
 100
AcDbLine
   6
BYBLOCK
  62
0
  10
0.0
  20
0.0
  30
0.0
  11
-1.0000000000000
  21
0.0
  31
0.0
   0
ENDBLK
   5
82
 100
AcDbEntity
   8
0
 100
AcDbBlockEnd
   0
BLOCK
   5
83
 100
AcDbEntity
   8
0
 100
AcDbBlockBegin
   2
_OPEN30
  70
0
  10
0.0
  20
0.0
  30
0.0
   3
_OPEN30
   0
LINE
   5
84
 100
AcDbEntity
   8
0
 370
-2
 100
AcDbLine
   6
BYBLOCK
  62
0
  10
-1.0000000000000
  20
 0.26794919243110
  30
0.0
  11
0.0
  21
0.0
  31
0.0
   0
LINE
   5
85
 100
AcDbEntity
   8
0
 370
-2
 100
AcDbLine
   6
BYBLOCK
  62
0
  10
0.0
  20
0.0
  30
0.0
  11
-1.0000000000000
  21
-0.26794919243110
  31
0.0
   0
LINE
   5
86
 100
AcDbEntity
   8
0
 370
-2
 100
AcDbLine
   6
BYBLOCK
  62
0
  10
0.0
  20
0.0
  30
0.0
  11
-1.0000000000000
  21
0.0
  31
0.0
   0
ENDBLK
   5
87
 100
AcDbEntity
   8
0
 100
AcDbBlockEnd
   0
BLOCK
   5
88
 100
AcDbEntity
   8
0
 100
AcDbBlockBegin
   2
_OPEN90
  70
0
  10
0.0
  20
0.0
  30
0.0
   3
_OPEN90
   0
LINE
   5
89
 100
AcDbEntity
   8
0
 370
-2
 100
AcDbLine
   6
BYBLOCK
  62
0
  10
-0.50000000000000
  20
 0.50000000000000
  30
0.0
  11
0.0
  21
0.0
  31
0.0
   0
LINE
   5
8A
 100
AcDbEntity
   8
0
 370
-2
 100
AcDbLine
   6
BYBLOCK
  62
0
  10
0.0
  20
0.0
  30
0.0
  11
-0.50000000000000
  21
-0.50000000000000
  31
0.0
   0
LINE
   5
8B
 100
AcDbEntity
   8
0
 370
-2
 100
AcDbLine
   6
BYBLOCK
  62
0
  10
0.0
  20
0.0
  30
0.0
  11
-1.0000000000000
  21
0.0
  31
0.0
   0
ENDBLK
   5
8C
 100
AcDbEntity
   8
0
 100
AcDbBlockEnd
   0
BLOCK
   5
8D
 100
AcDbEntity
   8
0
 100
AcDbBlockBegin
   2
_CLOSEDBLANK
  70
0
  10
0.0
  20
0.0
  30
0.0
   3
_CLOSEDBLANK
   0
LINE
   5
8E
 100
AcDbEntity
   8
0
 370
-2
 100
AcDbLine
   6
BYBLOCK
  62
0
  10
-1.0000000000000
  20
 0.16666666666667
  30
0.0
  11
0.0
  21
0.0
  31
0.0
   0
LINE
   5
8F
 100
AcDbEntity
   8
0
 370
-2
 100
AcDbLine
   6
BYBLOCK
  62
0
  10
0.0
  20
0.0
  30
0.0
  11
-1.0000000000000
  21
-0.16666666666667
  31
0.0
   0
LINE
   5
90
 100
AcDbEntity
   8
0
 370
-2
 100
AcDbLine
   6
BYBLOCK
  62
0
  10
-1.0000000000000
  20
 0.16666666666667
  30
0.0
  11
-1.0000000000000
  21
-0.16666666666667
  31
0.0
   0
ENDBLK
   5
91
 100
AcDbEntity
   8
0
 100
AcDbBlockEnd
   0
BLOCK
   5
92
 100
AcDbEntity
   8
0
 100
AcDbBlockBegin
   2
_DOT
  70
0
  10
0.0
  20
0.0
  30
0.0
   3
_DOT
   0
POLYLINE
   5
93
 100
AcDbEntity
   8
0
 370
-2
   6
BYBLOCK
  62
0
 100
AcDb2dPolyline
  66
1
  10
0.0
  20
0.0
  30
0.0
  70
1
  40
 0.50000000000000
  41
 0.50000000000000
   0
VERTEX
   5
94
 100
AcDbEntity
   8
0
   6
BYBLOCK
  62
0
 100
AcDbVertex
 100
AcDb2dVertex
  10
-0.25000000000000
  20
0.0
  30
0.0
  42
 1.0000000000000
  40
 0.50000000000000
  41
 0.50000000000000
   0
VERTEX
   5
95
 100
AcDbEntity
   8
0
   6
BYBLOCK
  62
0
 100
AcDbVertex
 100
AcDb2dVertex
  10
 0.25000000000000
  20
0.0
  30
0.0
  42
 1.0000000000000
  40
 0.50000000000000
  41
 0.50000000000000
   0
SEQEND
   5
96
 100
AcDbEntity
   8
0
   6
BYBLOCK
  62
0
   0
LINE
   5
97
 100
AcDbEntity
   8
0
 370
-2
 100
AcDbLine
   6
BYBLOCK
  62
0
  10
-0.50000000000000
  20
0.0
  30
0.0
  11
-1.0000000000000
  21
0.0
  31
0.0
   0
ENDBLK
   5
98
 100
AcDbEntity
   8
0
 100
AcDbBlockEnd
   0
BLOCK
   5
99
 100
AcDbEntity
   8
0
 100
AcDbBlockBegin
   2
_DOTSMALL
  70
0
  10
0.0
  20
0.0
  30
0.0
   3
_DOTSMALL
   0
POLYLINE
   5
9A
 100
AcDbEntity
   8
0
 370
-2
   6
BYBLOCK
  62
0
 100
AcDb2dPolyline
  66
1
  10
0.0
  20
0.0
  30
0.0
  70
1
  40
 0.50000000000000
  41
 0.50000000000000
   0
VERTEX
   5
9B
 100
AcDbEntity
   8
0
   6
BYBLOCK
  62
0
 100
AcDbVertex
 100
AcDb2dVertex
  10
-0.62500000000000E-1
  20
0.0
  30
0.0
  42
 1.0000000000000
  40
 0.50000000000000
  41
 0.50000000000000
   0
VERTEX
   5
9C
 100
AcDbEntity
   8
0
   6
BYBLOCK
  62
0
 100
AcDbVertex
 100
AcDb2dVertex
  10
 0.62500000000000E-1
  20
0.0
  30
0.0
  42
 1.0000000000000
  40
 0.50000000000000
  41
 0.50000000000000
   0
SEQEND
   5
9D
 100
AcDbEntity
   8
0
   6
BYBLOCK
  62
0
   0
ENDBLK
   5
9E
 100
AcDbEntity
   8
0
 100
AcDbBlockEnd
   0
BLOCK
   5
9F
 100
AcDbEntity
   8
0
 100
AcDbBlockBegin
   2
_DATUMBLANK
  70
0
  10
0.0
  20
0.0
  30
0.0
   3
_DATUMBLANK
   0
LINE
   5
A0
 100
AcDbEntity
   8
0
 370
-2
 100
AcDbLine
   6
BYBLOCK
  62
0
  10
0.0
  20
 0.57735027000000
  30
0.0
  11
-1.0000000000000
  21
0.0
  31
0.0
   0
LINE
   5
A1
 100
AcDbEntity
   8
0
 370
-2
 100
AcDbLine
   6
BYBLOCK
  62
0
  10
-1.0000000000000
  20
0.0
  30
0.0
  11
0.0
  21
-0.57735027000000
  31
0.0
   0
LINE
   5
A2
 100
AcDbEntity
   8
0
 370
-2
 100
AcDbLine
   6
BYBLOCK
  62
0
  10
0.0
  20
-0.57735027000000
  30
0.0
  11
0.0
  21
 0.57735027000000
  31
0.0
   0
ENDBLK
   5
A3
 100
AcDbEntity
   8
0
 100
AcDbBlockEnd
   0
BLOCK
   5
A4
 100
AcDbEntity
   8
0
 100
AcDbBlockBegin
   2
_DATUMFILLED
  70
0
  10
0.0
  20
0.0
  30
0.0
   3
_DATUMFILLED
   0
SOLID
   5
A5
 100
AcDbEntity
   8
0
 100
AcDbTrace
   6
BYBLOCK
  62
0
  10
0.0
  20
 0.57735027000000
  30
0.0
  11
-1.0000000000000
  21
0.0
  31
0.0
  12
0.0
  22
-0.57735027000000
  32
0.0
  13
0.0
  23
-0.57735027000000
  33
0.0
   0
ENDBLK
   5
A6
 100
AcDbEntity
   8
0
 100
AcDbBlockEnd
   0
BLOCK
   5
A7
 100
AcDbEntity
   8
0
 100
AcDbBlockBegin
   2
_ORIGIN
  70
0
  10
0.0
  20
0.0
  30
0.0
   3
_ORIGIN
   0
CIRCLE
   5
A8
 100
AcDbEntity
   8
0
 370
-2
 100
AcDbCircle
   6
BYBLOCK
  62
0
  10
0.0
  20
0.0
  30
0.0
  40
 0.50000000000000
   0
LINE
   5
A9
 100
AcDbEntity
   8
0
 370
-2
 100
AcDbLine
   6
BYBLOCK
  62
0
  10
0.0
  20
0.0
  30
0.0
  11
-1.0000000000000
  21
0.0
  31
0.0
   0
ENDBLK
   5
AA
 100
AcDbEntity
   8
0
 100
AcDbBlockEnd
   0
BLOCK
   5
AB
 100
AcDbEntity
   8
0
 100
AcDbBlockBegin
   2
_NONE
  70
0
  10
0.0
  20
0.0
  30
0.0
   3
_NONE
   0
CIRCLE
   5
AC
 100
AcDbEntity
   8
0
 370
-2
 100
AcDbCircle
   6
BYBLOCK
  62
0
  10
0.0
  20
0.0
  30
0.0
  40
 0.25000000000000
   0
ENDBLK
   5
AD
 100
AcDbEntity
   8
0
 100
AcDbBlockEnd
   0
BLOCK
   5
AE
 100
AcDbEntity
   8
0
 100
AcDbBlockBegin
   2
_DOTBLANK
  70
0
  10
0.0
  20
0.0
  30
0.0
   3
_DOTBLANK
   0
CIRCLE
   5
AF
 100
AcDbEntity
   8
0
 370
-2
 100
AcDbCircle
   6
BYBLOCK
  62
0
  10
0.0
  20
0.0
  30
0.0
  40
 0.50000000000000
   0
LINE
   5
B0
 100
AcDbEntity
   8
0
 370
-2
 100
AcDbLine
   6
BYBLOCK
  62
0
  10
-0.50000000000000
  20
0.0
  30
0.0
  11
-1.0000000000000
  21
0.0
  31
0.0
   0
ENDBLK
   5
B1
 100
AcDbEntity
   8
0
 100
AcDbBlockEnd
   0
BLOCK
   5
B2
 100
AcDbEntity
   8
0
 100
AcDbBlockBegin
   2
_INTEGRAL
  70
0
  10
0.0
  20
0.0
  30
0.0
   3
_INTEGRAL
   0
ARC
   5
B3
 100
AcDbEntity
   8
0
 370
-2
   6
BYBLOCK
  62
0
 100
AcDbCircle
  10
 0.44488800000000
  20
-0.91335000000000E-1
  30
0.0
  40
 0.45416700000000
 100
AcDbArc
  50
 102.00000000000
  51
 168.00000000000
   0
ARC
   5
B4
 100
AcDbEntity
   8
0
 370
-2
   6
BYBLOCK
  62
0
 100
AcDbCircle
  10
-0.44488800000000
  20
 0.91335000000000E-1
  30
0.0
  40
 0.45416700000000
 100
AcDbArc
  50
 282.00000000000
  51
 348.00000000000
   0
ENDBLK
   5
B5
 100
AcDbEntity
   8
0
 100
AcDbBlockEnd
   0
BLOCK
   5
B6
 100
AcDbEntity
   8
0
 100
AcDbBlockBegin
   2
*D4
  70
65
  10
0.0
  20
0.0
  30
0.0
   3
*D4
   0
LINE
   5
B7
 100
AcDbEntity
   8
LEVEL001
 370
13
 100
AcDbLine
   6
CONTINUOUS
  62
6
  10
 1379.4826312980
  20
 5070.7134941036
  30
0.0
  11
 513.45724015788
  21
 4570.7134722029
  31
0.0
   0
INSERT
   5
B8
 100
AcDbEntity
   8
LEVEL001
   6
CONTINUOUS
  62
6
 100
AcDbBlockReference
   2
_OPEN
  10
 1379.4826312980
  20
 5070.7134941036
  30
0.0
  41
 30.000000000000
  42
 30.000000000000
  43
 30.000000000000
  50
 30.000001448936
   0
INSERT
   5
B9
 100
AcDbEntity
   8
LEVEL001
   6
CONTINUOUS
  62
6
 100
AcDbBlockReference
   2
_OPEN
  10
 513.45724015788
  20
 4570.7134722029
  30
0.0
  41
 30.000000000000
  42
 30.000000000000
  43
 30.000000000000
  50
 210.00000144894
   0
MTEXT
   5
BA
 100
AcDbEntity
   8
LEVEL001
 370
13
  62
1
 100
AcDbMText
  10
 932.32707796559
  20
 4845.2096299312
  30
0.0
  40
 66.000000000000
  41
0.0
  71
8
  72
1
   1
\A1;%%c1000
   7
GMM001
  11
 0.86602539114009
  21
 0.50000002190065
  31
0.0
   0
ENDBLK
   5
BB
 100
AcDbEntity
   8
0
 100
AcDbBlockEnd
   0
BLOCK
   5
BC
 100
AcDbEntity
   8
0
 100
AcDbBlockBegin
   2
*D5
  70
65
  10
0.0
  20
0.0
  30
0.0
   3
*D5
   0
LINE
   5
BD
 100
AcDbEntity
   8
LEVEL001
 370
13
 100
AcDbLine
   6
CONTINUOUS
  62
6
  10
 2579.4826312980
  20
 5070.7134941035
  30
0.0
  11
 1713.4572401578
  21
 4570.7134722030
  31
0.0
   0
INSERT
   5
BE
 100
AcDbEntity
   8
LEVEL001
   6
CONTINUOUS
  62
6
 100
AcDbBlockReference
   2
_OPEN
  10
 2579.4826312980
  20
 5070.7134941035
  30
0.0
  41
 30.000000000000
  42
 30.000000000000
  43
 30.000000000000
  50
 30.000001448929
   0
INSERT
   5
BF
 100
AcDbEntity
   8
LEVEL001
   6
CONTINUOUS
  62
6
 100
AcDbBlockReference
   2
_OPEN
  10
 1713.4572401578
  20
 4570.7134722030
  30
0.0
  41
 30.000000000000
  42
 30.000000000000
  43
 30.000000000000
  50
 210.00000144893
   0
MTEXT
   5
C0
 100
AcDbEntity
   8
LEVEL001
 370
13
  62
1
 100
AcDbMText
  10
 2132.3270779656
  20
 4845.2096299312
  30
0.0
  40
 66.000000000000
  41
0.0
  71
8
  72
1
   1
\A1;%%c1000
   7
GMM001
  11
 0.86602539114015
  21
 0.50000002190055
  31
0.0
   0
ENDBLK
   5
C1
 100
AcDbEntity
   8
0
 100
AcDbBlockEnd
   0
BLOCK
   5
C2
 100
AcDbEntity
   8
0
 100
AcDbBlockBegin
   2
*D8
  70
65
  10
0.0
  20
0.0
  30
0.0
   3
*D8
   0
LINE
   5
C3
 100
AcDbEntity
   8
LEVEL001
 370
13
 100
AcDbLine
   6
CONTINUOUS
  62
6
  10
 1296.4699357279
  20
 1445.7134831461
  30
0.0
  11
 1296.4699357279
  21
 1445.7134831461
  31
0.0
   0
LINE
   5
C4
 100
AcDbEntity
   8
LEVEL001
 370
13
 100
AcDbLine
   6
CONTINUOUS
  62
6
  10
 1796.4699357279
  20
 1445.7134831461
  30
0.0
  11
 1796.4699357279
  21
 1445.7134831461
  31
0.0
   0
LINE
   5
C5
 100
AcDbEntity
   8
LEVEL001
 370
13
 100
AcDbLine
   6
CONTINUOUS
  62
6
  10
 1296.4699357279
  20
 1445.7134831461
  30
0.0
  11
 1796.4699357279
  21
 1445.7134831461
  31
0.0
   0
LINE
   5
C6
 100
AcDbEntity
   8
LEVEL001
 370
13
 100
AcDbLine
   6
CONTINUOUS
  62
6
  10
 1796.4699357279
  20
 1445.7134831461
  30
0.0
  11
 2039.6765820448
  21
 1445.7134831461
  31
0.0
   0
INSERT
   5
C7
 100
AcDbEntity
   8
LEVEL001
   6
CONTINUOUS
  62
6
 100
AcDbBlockReference
   2
_OPEN
  10
 1296.4699357279
  20
 1445.7134831461
  30
0.0
  41
 30.000000000000
  42
 30.000000000000
  43
 30.000000000000
  50
 180.00000000000
   0
INSERT
   5
C8
 100
AcDbEntity
   8
LEVEL001
   6
CONTINUOUS
  62
6
 100
AcDbBlockReference
   2
_OPEN
  10
 1796.4699357279
  20
 1445.7134831461
  30
0.0
  41
 30.000000000000
  42
 30.000000000000
  43
 30.000000000000
  50
0.0
   0
MTEXT
   5
C9
 100
AcDbEntity
   8
LEVEL001
 370
13
  62
1
 100
AcDbMText
  10
 1831.6765820448
  20
 1473.9991974318
  30
0.0
  40
 66.000000000000
  41
0.0
  71
7
  72
1
   1
\A1;□500
   7
GMM001
   0
ENDBLK
   5
CA
 100
AcDbEntity
   8
0
 100
AcDbBlockEnd
   0
BLOCK
   5
CB
 100
AcDbEntity
   8
0
 100
AcDbBlockBegin
   2
*D9
  70
65
  10
0.0
  20
0.0
  30
0.0
   3
*D9
   0
LINE
   5
CC
 100
AcDbEntity
   8
LEVEL001
 370
13
 100
AcDbLine
   6
CONTINUOUS
  62
6
  10
 3671.4699357279
  20
 1445.7134831461
  30
0.0
  11
 3671.4699357279
  21
 1445.7134831461
  31
0.0
   0
LINE
   5
CD
 100
AcDbEntity
   8
LEVEL001
 370
13
 100
AcDbLine
   6
CONTINUOUS
  62
6
  10
 3171.4699357279
  20
 1445.7134831461
  30
0.0
  11
 3171.4699357279
  21
 1445.7134831461
  31
0.0
   0
LINE
   5
CE
 100
AcDbEntity
   8
LEVEL001
 370
13
 100
AcDbLine
   6
CONTINUOUS
  62
6
  10
 3671.4699357279
  20
 1445.7134831461
  30
0.0
  11
 3171.4699357279
  21
 1445.7134831461
  31
0.0
   0
LINE
   5
CF
 100
AcDbEntity
   8
LEVEL001
 370
13
 100
AcDbLine
   6
CONTINUOUS
  62
6
  10
 3171.4699357279
  20
 1445.7134831461
  30
0.0
  11
 2928.2632894110
  21
 1445.7134831461
  31
0.0
   0
INSERT
   5
D0
 100
AcDbEntity
   8
LEVEL001
   6
CONTINUOUS
  62
6
 100
AcDbBlockReference
   2
_OPEN
  10
 3671.4699357279
  20
 1445.7134831461
  30
0.0
  41
 30.000000000000
  42
 30.000000000000
  43
 30.000000000000
  50
0.0
   0
INSERT
   5
D1
 100
AcDbEntity
   8
LEVEL001
   6
CONTINUOUS
  62
6
 100
AcDbBlockReference
   2
_OPEN
  10
 3171.4699357279
  20
 1445.7134831461
  30
0.0
  41
 30.000000000000
  42
 30.000000000000
  43
 30.000000000000
  50
 180.00000000000
   0
MTEXT
   5
D2
 100
AcDbEntity
   8
LEVEL001
 370
13
  62
1
 100
AcDbMText
  10
 3136.2632894110
  20
 1473.9991974318
  30
0.0
  40
 66.000000000000
  41
0.0
  71
9
  72
1
   1
\A1;□500
   7
GMM001
   0
ENDBLK
   5
D3
 100
AcDbEntity
   8
0
 100
AcDbBlockEnd
   0
BLOCK
   5
D4
 100
AcDbEntity
   8
0
 100
AcDbBlockBegin
   2
*D10
  70
65
  10
0.0
  20
0.0
  30
0.0
   3
*D10
   0
LINE
   5
D5
 100
AcDbEntity
   8
LEVEL001
 370
13
 100
AcDbLine
   6
CONTINUOUS
  62
6
  10
 1266.4699357279
  20
 220.71348314607
  30
0.0
  11
 641.46993572792
  21
 220.71348314607
  31
0.0
   0
LINE
   5
D6
 100
AcDbEntity
   8
LEVEL001
 370
13
 100
AcDbLine
   6
CONTINUOUS
  62
6
  10
 1266.4699357279
  20
 320.71348314607
  30
0.0
  11
 641.46993572792
  21
 320.71348314607
  31
0.0
   0
LINE
   5
D7
 100
AcDbEntity
   8
LEVEL001
 370
13
 100
AcDbLine
   6
CONTINUOUS
  62
6
  10
 671.46993572792
  20
 220.71348314607
  30
0.0
  11
 671.46993572792
  21
 320.71348314607
  31
0.0
   0
INSERT
   5
D8
 100
AcDbEntity
   8
LEVEL001
   6
CONTINUOUS
  62
6
 100
AcDbBlockReference
   2
_OPEN
  10
 671.46993572792
  20
 220.71348314607
  30
0.0
  41
 30.000000000000
  42
 30.000000000000
  43
 30.000000000000
  50
 270.00000000000
   0
INSERT
   5
D9
 100
AcDbEntity
   8
LEVEL001
   6
CONTINUOUS
  62
6
 100
AcDbBlockReference
   2
_OPEN
  10
 671.46993572792
  20
 320.71348314607
  30
0.0
  41
 30.000000000000
  42
 30.000000000000
  43
 30.000000000000
  50
 90.000000000000
   0
MTEXT
   5
DA
 100
AcDbEntity
   8
LEVEL001
 370
13
  62
1
 100
AcDbMText
  10
 643.18422144221
  20
 270.71348314607
  30
0.0
  40
 66.000000000000
  41
0.0
  71
8
  72
1
   1
\A1;100
   7
GMM001
  11
0.0
  21
 1.0000000000000
  31
0.0
   0
ENDBLK
   5
DB
 100
AcDbEntity
   8
0
 100
AcDbBlockEnd
   0
BLOCK
   5
DC
 100
AcDbEntity
   8
0
 100
AcDbBlockBegin
   2
*D11
  70
65
  10
0.0
  20
0.0
  30
0.0
   3
*D11
   0
LINE
   5
DD
 100
AcDbEntity
   8
LEVEL001
 370
13
 100
AcDbLine
   6
CONTINUOUS
  62
6
  10
 1266.4699357279
  20
 320.71348314607
  30
0.0
  11
 641.46993572792
  21
 320.71348314607
  31
0.0
   0
LINE
   5
DE
 100
AcDbEntity
   8
LEVEL001
 370
13
 100
AcDbLine
   6
CONTINUOUS
  62
6
  10
 966.47000096288
  20
 1820.7134831461
  30
0.0
  11
 641.46993572792
  21
 1820.7134831461
  31
0.0
   0
LINE
   5
DF
 100
AcDbEntity
   8
LEVEL001
 370
13
 100
AcDbLine
   6
CONTINUOUS
  62
6
  10
 671.46993572792
  20
 320.71348314607
  30
0.0
  11
 671.46993572792
  21
 1820.7134831461
  31
0.0
   0
INSERT
   5
E0
 100
AcDbEntity
   8
LEVEL001
   6
CONTINUOUS
  62
6
 100
AcDbBlockReference
   2
_OPEN
  10
 671.46993572792
  20
 320.71348314607
  30
0.0
  41
 30.000000000000
  42
 30.000000000000
  43
 30.000000000000
  50
 270.00000000000
   0
INSERT
   5
E1
 100
AcDbEntity
   8
LEVEL001
   6
CONTINUOUS
  62
6
 100
AcDbBlockReference
   2
_OPEN
  10
 671.46993572792
  20
 1820.7134831461
  30
0.0
  41
 30.000000000000
  42
 30.000000000000
  43
 30.000000000000
  50
 90.000000000000
   0
MTEXT
   5
E2
 100
AcDbEntity
   8
LEVEL001
 370
13
  62
1
 100
AcDbMText
  10
 643.18422144221
  20
 1070.7134831461
  30
0.0
  40
 66.000000000000
  41
0.0
  71
8
  72
1
   1
\A1;1500
   7
GMM001
  11
0.0
  21
 1.0000000000000
  31
0.0
   0
ENDBLK
   5
E3
 100
AcDbEntity
   8
0
 100
AcDbBlockEnd
   0
BLOCK
   5
E4
 100
AcDbEntity
   8
0
 100
AcDbBlockBegin
   2
*D12
  70
65
  10
0.0
  20
0.0
  30
0.0
   3
*D12
   0
LINE
   5
E5
 100
AcDbEntity
   8
LEVEL001
 370
13
 100
AcDbLine
   6
CONTINUOUS
  62
6
  10
 966.47000096288
  20
 1820.7134831461
  30
0.0
  11
 641.46993572792
  21
 1820.7134831461
  31
0.0
   0
LINE
   5
E6
 100
AcDbEntity
   8
LEVEL001
 370
13
 100
AcDbLine
   6
CONTINUOUS
  62
6
  10
 916.47000761545
  20
 4320.7134831461
  30
0.0
  11
 641.46993572792
  21
 4320.7134831461
  31
0.0
   0
LINE
   5
E7
 100
AcDbEntity
   8
LEVEL001
 370
13
 100
AcDbLine
   6
CONTINUOUS
  62
6
  10
 671.46993572792
  20
 1820.7134831461
  30
0.0
  11
 671.46993572792
  21
 4320.7134831461
  31
0.0
   0
INSERT
   5
E8
 100
AcDbEntity
   8
LEVEL001
   6
CONTINUOUS
  62
6
 100
AcDbBlockReference
   2
_OPEN
  10
 671.46993572792
  20
 1820.7134831461
  30
0.0
  41
 30.000000000000
  42
 30.000000000000
  43
 30.000000000000
  50
 270.00000000000
   0
INSERT
   5
E9
 100
AcDbEntity
   8
LEVEL001
   6
CONTINUOUS
  62
6
 100
AcDbBlockReference
   2
_OPEN
  10
 671.46993572792
  20
 4320.7134831461
  30
0.0
  41
 30.000000000000
  42
 30.000000000000
  43
 30.000000000000
  50
 90.000000000000
   0
MTEXT
   5
EA
 100
AcDbEntity
   8
LEVEL001
 370
13
  62
1
 100
AcDbMText
  10
 643.18422144221
  20
 3070.7134831461
  30
0.0
  40
 66.000000000000
  41
0.0
  71
8
  72
1
   1
\A1;2500(標準設置高さ)
   7
GMM001
  11
0.0
  21
 1.0000000000000
  31
0.0
   0
ENDBLK
   5
EB
 100
AcDbEntity
   8
0
 100
AcDbBlockEnd
   0
ENDSEC
   0
SECTION
   2
ENTITIES
   0
LWPOLYLINE
   5
EC
 100
AcDbEntity
   8
LEVEL001
 370
13
   6
CONTINUOUS
  62
7
 100
AcDbPolyline
  90
4
  70
1
  10
 1597.2699357281
  20
 5124.7134831461
  10
 1495.6699357281
  20
 5124.7134831461
  10
 1495.6699357281
  20
 5121.7134831461
  10
 1597.2699357281
  20
 5121.7134831461
   0
LWPOLYLINE
   5
ED
 100
AcDbEntity
   8
LEVEL001
 370
13
   6
DOT
  62
1
 100
AcDbPolyline
  90
4
  70
0
  10
 1592.2699357281
  20
 5121.7134831461
  10
 1592.2699357281
  20
 5094.7134831461
  10
 1500.6699357281
  20
 5094.7134831461
  10
 1500.6699357281
  20
 5121.7134831461
   0
LWPOLYLINE
   5
EE
 100
AcDbEntity
   8
LEVEL001
 370
13
   6
CONTINUOUS
  62
7
 100
AcDbPolyline
  90
4
  70
1
  10
 3472.2699357281
  20
 5124.7134831461
  10
 3370.6699357281
  20
 5124.7134831461
  10
 3370.6699357281
  20
 5121.7134831461
  10
 3472.2699357281
  20
 5121.7134831461
   0
LWPOLYLINE
   5
EF
 100
AcDbEntity
   8
LEVEL001
 370
13
   6
DOT
  62
1
 100
AcDbPolyline
  90
4
  70
0
  10
 3467.2699357281
  20
 5121.7134831461
  10
 3467.2699357281
  20
 5094.7134831461
  10
 3375.6699357281
  20
 5094.7134831461
  10
 3375.6699357281
  20
 5121.7134831461
   0
CIRCLE
   5
F0
 100
AcDbEntity
   8
LEVEL001
 370
13
 100
AcDbCircle
   6
CONTINUOUS
  62
1
  10
 2546.4699357279
  20
 5445.7134831461
  30
0.0
  40
 69.999997913838
   0
MTEXT
   5
F2
 100
AcDbEntity
   8
LEVEL001
 370
13
  62
7
 100
AcDbMText
  10
 2546.4699357279
  20
 5445.7134831461
  30
0.0
  40
 66.000000000000
  41
0.0
  71
5
  72
1
   1
\T1.000000;３
   7
GMM001
  44
 0.79999984000003
   0
CIRCLE
   5
F3
 100
AcDbEntity
   8
LEVEL001
 370
13
 100
AcDbCircle
   6
CONTINUOUS
  62
1
  10
 3671.4699357279
  20
 5320.7134831461
  30
0.0
  40
 69.999997913838
   0
MTEXT
   5
F5
 100
AcDbEntity
   8
LEVEL001
 370
13
  62
7
 100
AcDbMText
  10
 3671.4699357279
  20
 5320.7134831461
  30
0.0
  40
 66.000000000000
  41
0.0
  71
5
  72
1
   1
\T1.000000;１４
   7
GMM001
  44
 0.79999984000003
   0
LEADER
   5
F6
 100
AcDbEntity
   8
LEVEL001
 370
13
   6
CONTINUOUS
  62
1
 100
AcDbLeader
   3
GMM001
  73
3
  74
1
  75
0
  40
 66.000000000000
  41
0.0
  76
2
  10
 3421.4699357279
  20
 5124.7134831461
  30
0.0
  10
 3616.3818068105
  20
 5277.5243900748
  30
0.0
  77
1
   0
LINE
   5
F7
 100
AcDbEntity
   8
LEVEL001
 370
13
 100
AcDbLine
   6
DASHDOT
  62
6
  10
 3421.4699357279
  20
 5176.9095274485
  30
0.0
  11
 3421.4699357279
  21
 170.71348314607
  31
0.0
   0
LINE
   5
F8
 100
AcDbEntity
   8
LEVEL001
 370
13
 100
AcDbLine
   6
DASHDOT
  62
6
  10
 1546.4699357279
  20
 5176.9095274485
  30
0.0
  11
 1546.4699357279
  21
 170.71348314607
  31
0.0
   0
LWPOLYLINE
   5
F9
 100
AcDbEntity
   8
LEVEL001
 370
13
   6
CONTINUOUS
  62
7
 100
AcDbPolyline
  90
4
  70
0
  10
 1597.2699357279
  20
 728.21348314607
  10
 1671.4699176423
  20
 728.21348314607
  10
 1671.4699176423
  20
 713.21348314607
  10
 1597.2699357279
  20
 713.21348314607
   0
LWPOLYLINE
   5
FA
 100
AcDbEntity
   8
LEVEL001
 370
13
   6
CONTINUOUS
  62
7
 100
AcDbPolyline
  90
4
  70
0
  10
 1495.6699357279
  20
 728.21348314607
  10
 1421.4699176423
  20
 728.21348314607
  10
 1421.4699176423
  20
 713.21348314607
  10
 1495.6699357279
  20
 713.21348314607
   0
LINE
   5
FB
 100
AcDbEntity
   8
LEVEL002
 370
13
 100
AcDbLine
   6
CONTINUOUS
  62
5
  10
 1141.4699357277
  20
 1768.2134831461
  30
0.0
  11
 1193.9699357277
  21
 1820.7134831461
  31
0.0
   0
LINE
   5
FC
 100
AcDbEntity
   8
LEVEL002
 370
13
 100
AcDbLine
   6
CONTINUOUS
  62
5
  10
 1125.5600331509
  20
 1784.1233857229
  30
0.0
  11
 1162.1501305741
  21
 1820.7134831461
  31
0.0
   0
LINE
   5
FD
 100
AcDbEntity
   8
LEVEL002
 370
13
 100
AcDbLine
   6
CONTINUOUS
  62
5
  10
 1178.0600331517
  20
 1820.7134831461
  30
0.0
  11
 1133.5149844397
  21
 1776.1684344341
  31
0.0
   0
LINE
   5
FE
 100
AcDbEntity
   8
LEVEL002
 370
13
 100
AcDbLine
   6
CONTINUOUS
  62
5
  10
 1198.7402279983
  20
 1768.2134831461
  30
0.0
  11
 1170.1050818630
  21
 1796.8486292814
  31
0.0
   0
LINE
   5
FF
 100
AcDbEntity
   8
LEVEL002
 370
13
 100
AcDbLine
   6
CONTINUOUS
  62
5
  10
 1178.0600331512
  20
 1804.8035805696
  30
0.0
  11
 1214.6501305748
  21
 1768.2134831461
  31
0.0
   0
LINE
   5
100
 100
AcDbEntity
   8
LEVEL002
 370
13
 100
AcDbLine
   6
CONTINUOUS
  62
5
  10
 1230.5600331512
  20
 1768.2134831461
  30
0.0
  11
 1186.0149844395
  21
 1812.7585318578
  31
0.0
   0
LINE
   5
101
 100
AcDbEntity
   8
LEVEL002
 370
13
 100
AcDbLine
   6
CONTINUOUS
  62
5
  10
 1193.9699357277
  20
 1820.7134831461
  30
0.0
  11
 1246.4699357279
  21
 1768.2134831461
  31
0.0
   0
LINE
   5
102
 100
AcDbEntity
   8
LEVEL002
 370
13
 100
AcDbLine
   6
CONTINUOUS
  62
5
  10
 1041.2402279979
  20
 1820.7134831461
  30
0.0
  11
 988.74022799787
  21
 1768.2134831461
  31
0.0
   0
LINE
   5
103
 100
AcDbEntity
   8
LEVEL002
 370
13
 100
AcDbLine
   6
CONTINUOUS
  62
5
  10
 1004.6501305739
  20
 1768.2134831461
  30
0.0
  11
 1057.1501305739
  21
 1820.7134831461
  31
0.0
   0
LINE
   5
104
 100
AcDbEntity
   8
LEVEL002
 370
13
 100
AcDbLine
   6
CONTINUOUS
  62
5
  10
 1073.0600331515
  20
 1820.7134831461
  30
0.0
  11
 1020.5600331515
  21
 1768.2134831461
  31
0.0
   0
LINE
   5
105
 100
AcDbEntity
   8
LEVEL002
 370
13
 100
AcDbLine
   6
CONTINUOUS
  62
5
  10
 1036.4699357276
  20
 1768.2134831461
  30
0.0
  11
 1088.9699357276
  21
 1820.7134831461
  31
0.0
   0
LINE
   5
106
 100
AcDbEntity
   8
LEVEL002
 370
13
 100
AcDbLine
   6
CONTINUOUS
  62
5
  10
 1093.7402279981
  20
 1768.2134831461
  30
0.0
  11
 1065.1050818628
  21
 1796.8486292814
  31
0.0
   0
LINE
   5
107
 100
AcDbEntity
   8
LEVEL002
 370
13
 100
AcDbLine
   6
CONTINUOUS
  62
5
  10
 1073.0600331511
  20
 1804.8035805696
  30
0.0
  11
 1109.6501305746
  21
 1768.2134831461
  31
0.0
   0
LINE
   5
108
 100
AcDbEntity
   8
LEVEL002
 370
13
 100
AcDbLine
   6
CONTINUOUS
  62
5
  10
 1125.5600331510
  20
 1768.2134831461
  30
0.0
  11
 1081.0149844393
  21
 1812.7585318578
  31
0.0
   0
LINE
   5
109
 100
AcDbEntity
   8
LEVEL002
 370
13
 100
AcDbLine
   6
CONTINUOUS
  62
5
  10
 1088.9699357276
  20
 1820.7134831461
  30
0.0
  11
 1141.4699357277
  21
 1768.2134831461
  31
0.0
   0
LINE
   5
10A
 100
AcDbEntity
   8
LEVEL002
 370
13
 100
AcDbLine
   6
CONTINUOUS
  62
5
  10
 1146.2402279981
  20
 1820.7134831461
  30
0.0
  11
 1117.6050818629
  21
 1792.0783370109
  31
0.0
   0
LINE
   5
10B
 100
AcDbEntity
   8
LEVEL002
 370
13
 100
AcDbLine
   6
CONTINUOUS
  62
5
  10
 1898.9699357279
  20
 1820.7134831461
  30
0.0
  11
 1846.4699357279
  21
 1768.2134831461
  31
0.0
   0
LINE
   5
10C
 100
AcDbEntity
   8
LEVEL002
 370
13
 100
AcDbLine
   6
CONTINUOUS
  62
5
  10
 1862.3798383040
  20
 1768.2134831461
  30
0.0
  11
 1914.8798383040
  21
 1820.7134831461
  31
0.0
   0
LINE
   5
10D
 100
AcDbEntity
   8
LEVEL002
 370
13
 100
AcDbLine
   6
CONTINUOUS
  62
5
  10
 1930.7897408816
  20
 1820.7134831461
  30
0.0
  11
 1878.2897408816
  21
 1768.2134831461
  31
0.0
   0
LINE
   5
10E
 100
AcDbEntity
   8
LEVEL002
 370
13
 100
AcDbLine
   6
CONTINUOUS
  62
5
  10
 1894.1996434576
  20
 1768.2134831461
  30
0.0
  11
 1946.6996434576
  21
 1820.7134831461
  31
0.0
   0
LINE
   5
10F
 100
AcDbEntity
   8
LEVEL002
 370
13
 100
AcDbLine
   6
CONTINUOUS
  62
5
  10
 1951.4699357282
  20
 1768.2134831461
  30
0.0
  11
 1922.8347895929
  21
 1796.8486292814
  31
0.0
   0
LINE
   5
110
 100
AcDbEntity
   8
LEVEL002
 370
13
 100
AcDbLine
   6
CONTINUOUS
  62
5
  10
 1930.7897408811
  20
 1804.8035805696
  30
0.0
  11
 1967.3798383046
  21
 1768.2134831461
  31
0.0
   0
LINE
   5
111
 100
AcDbEntity
   8
LEVEL002
 370
13
 100
AcDbLine
   6
CONTINUOUS
  62
5
  10
 1983.2897408811
  20
 1768.2134831461
  30
0.0
  11
 1938.7446921693
  21
 1812.7585318578
  31
0.0
   0
LINE
   5
112
 100
AcDbEntity
   8
LEVEL002
 370
13
 100
AcDbLine
   6
CONTINUOUS
  62
5
  10
 1946.6996434576
  20
 1820.7134831461
  30
0.0
  11
 1999.1996434578
  21
 1768.2134831461
  31
0.0
   0
LINE
   5
113
 100
AcDbEntity
   8
LEVEL002
 370
13
 100
AcDbLine
   6
CONTINUOUS
  62
5
  10
 1999.1996434578
  20
 1768.2134831461
  30
0.0
  11
 2051.6996434578
  21
 1820.7134831461
  31
0.0
   0
LINE
   5
114
 100
AcDbEntity
   8
LEVEL002
 370
13
 100
AcDbLine
   6
CONTINUOUS
  62
5
  10
 2003.9699357281
  20
 1820.7134831461
  30
0.0
  11
 1975.3347895929
  21
 1792.0783370109
  31
0.0
   0
LINE
   5
115
 100
AcDbEntity
   8
LEVEL002
 370
13
 100
AcDbLine
   6
CONTINUOUS
  62
5
  10
 1983.2897408809
  20
 1784.1233857229
  30
0.0
  11
 2019.8798383041
  21
 1820.7134831461
  31
0.0
   0
LINE
   5
116
 100
AcDbEntity
   8
LEVEL002
 370
13
 100
AcDbLine
   6
CONTINUOUS
  62
5
  10
 2035.7897408818
  20
 1820.7134831461
  30
0.0
  11
 1991.2446921698
  21
 1776.1684344341
  31
0.0
   0
LINE
   5
117
 100
AcDbEntity
   8
LEVEL002
 370
13
 100
AcDbLine
   6
CONTINUOUS
  62
5
  10
 2056.4699357284
  20
 1768.2134831461
  30
0.0
  11
 2027.8347895931
  21
 1796.8486292814
  31
0.0
   0
LINE
   5
118
 100
AcDbEntity
   8
LEVEL002
 370
13
 100
AcDbLine
   6
CONTINUOUS
  62
5
  10
 2035.7897408813
  20
 1804.8035805696
  30
0.0
  11
 2072.3798383048
  21
 1768.2134831461
  31
0.0
   0
LINE
   5
119
 100
AcDbEntity
   8
LEVEL002
 370
13
 100
AcDbLine
   6
CONTINUOUS
  62
5
  10
 2088.2897408812
  20
 1768.2134831461
  30
0.0
  11
 2043.7446921695
  21
 1812.7585318578
  31
0.0
   0
LINE
   5
11A
 100
AcDbEntity
   8
LEVEL002
 370
13
 100
AcDbLine
   6
CONTINUOUS
  62
5
  10
 2051.6996434578
  20
 1820.7134831461
  30
0.0
  11
 2104.1996434580
  21
 1768.2134831461
  31
0.0
   0
LINE
   5
11B
 100
AcDbEntity
   8
LEVEL002
 370
13
 100
AcDbLine
   6
CONTINUOUS
  62
5
  10
 1796.4699357279
  20
 1820.7134831461
  30
0.0
  11
 2096.4700009629
  21
 1820.7134831461
  31
0.0
   0
LINE
   5
11C
 100
AcDbEntity
   8
LEVEL002
 370
13
 100
AcDbLine
   6
CONTINUOUS
  62
5
  10
 1296.4699357279
  20
 1820.7134831461
  30
0.0
  11
 996.47000096288
  21
 1820.7134831461
  31
0.0
   0
LWPOLYLINE
   5
11D
 100
AcDbEntity
   8
LEVEL002
 370
13
   6
CONTINUOUS
  62
5
 100
AcDbPolyline
  90
6
  70
0
  10
 1495.6699357279
  20
 1820.7134831461
  10
 1296.4699357279
  20
 1820.7134831461
  10
 1296.4699357279
  20
 320.71348314607
  10
 1796.4699357279
  20
 320.71348314607
  10
 1796.4699357279
  20
 1820.7134831461
  10
 1597.2699357279
  20
 1820.7134831461
   0
LINE
   5
11E
 100
AcDbEntity
   8
LEVEL002
 370
13
 100
AcDbLine
   6
CONTINUOUS
  62
5
  10
 1446.4699357279
  20
 320.71348314607
  30
0.0
  11
 1396.4699357279
  21
 220.71348314607
  31
0.0
   0
LINE
   5
11F
 100
AcDbEntity
   8
LEVEL002
 370
13
 100
AcDbLine
   6
CONTINUOUS
  62
5
  10
 1396.4699357279
  20
 320.71348314607
  30
0.0
  11
 1436.4699357279
  21
 300.71348314607
  31
0.0
   0
LINE
   5
120
 100
AcDbEntity
   8
LEVEL002
 370
13
 100
AcDbLine
   6
CONTINUOUS
  62
5
  10
 1396.4699357279
  20
 320.71348314607
  30
0.0
  11
 1346.4699357279
  21
 220.71348314607
  31
0.0
   0
LINE
   5
121
 100
AcDbEntity
   8
LEVEL002
 370
13
 100
AcDbLine
   6
CONTINUOUS
  62
5
  10
 1346.4699357279
  20
 320.71348314607
  30
0.0
  11
 1386.4699357279
  21
 300.71348314607
  31
0.0
   0
LINE
   5
122
 100
AcDbEntity
   8
LEVEL002
 370
13
 100
AcDbLine
   6
CONTINUOUS
  62
5
  10
 1346.4699357279
  20
 320.71348314607
  30
0.0
  11
 1296.4699357279
  21
 220.71348314607
  31
0.0
   0
LINE
   5
123
 100
AcDbEntity
   8
LEVEL002
 370
13
 100
AcDbLine
   6
CONTINUOUS
  62
5
  10
 1296.4699357279
  20
 320.71348314607
  30
0.0
  11
 1336.4699357279
  21
 300.71348314607
  31
0.0
   0
LINE
   5
124
 100
AcDbEntity
   8
LEVEL002
 370
13
 100
AcDbLine
   6
CONTINUOUS
  62
5
  10
 1446.4699357279
  20
 220.71348314607
  30
0.0
  11
 1406.4699357279
  21
 240.71348314607
  31
0.0
   0
LINE
   5
125
 100
AcDbEntity
   8
LEVEL002
 370
13
 100
AcDbLine
   6
CONTINUOUS
  62
5
  10
 1396.4699357279
  20
 220.71348314607
  30
0.0
  11
 1356.4699357279
  21
 240.71348314607
  31
0.0
   0
LINE
   5
126
 100
AcDbEntity
   8
LEVEL002
 370
13
 100
AcDbLine
   6
CONTINUOUS
  62
5
  10
 1346.4699357279
  20
 220.71348314607
  30
0.0
  11
 1306.4699357279
  21
 240.71348314607
  31
0.0
   0
LINE
   5
127
 100
AcDbEntity
   8
LEVEL002
 370
13
 100
AcDbLine
   6
CONTINUOUS
  62
5
  10
 1796.4699357279
  20
 320.71348314607
  30
0.0
  11
 1746.4699357279
  21
 220.71348314607
  31
0.0
   0
LINE
   5
128
 100
AcDbEntity
   8
LEVEL002
 370
13
 100
AcDbLine
   6
CONTINUOUS
  62
5
  10
 1746.4699357279
  20
 320.71348314607
  30
0.0
  11
 1786.4699357279
  21
 300.71348314607
  31
0.0
   0
LINE
   5
129
 100
AcDbEntity
   8
LEVEL002
 370
13
 100
AcDbLine
   6
CONTINUOUS
  62
5
  10
 1746.4699357279
  20
 320.71348314607
  30
0.0
  11
 1696.4699357279
  21
 220.71348314607
  31
0.0
   0
LINE
   5
12A
 100
AcDbEntity
   8
LEVEL002
 370
13
 100
AcDbLine
   6
CONTINUOUS
  62
5
  10
 1696.4699357279
  20
 320.71348314607
  30
0.0
  11
 1736.4699357279
  21
 300.71348314607
  31
0.0
   0
LINE
   5
12B
 100
AcDbEntity
   8
LEVEL002
 370
13
 100
AcDbLine
   6
CONTINUOUS
  62
5
  10
 1696.4699357279
  20
 320.71348314607
  30
0.0
  11
 1646.4699357279
  21
 220.71348314607
  31
0.0
   0
LINE
   5
12C
 100
AcDbEntity
   8
LEVEL002
 370
13
 100
AcDbLine
   6
CONTINUOUS
  62
5
  10
 1646.4699357279
  20
 320.71348314607
  30
0.0
  11
 1686.4699357279
  21
 300.71348314607
  31
0.0
   0
LINE
   5
12D
 100
AcDbEntity
   8
LEVEL002
 370
13
 100
AcDbLine
   6
CONTINUOUS
  62
5
  10
 1796.4699357279
  20
 220.71348314607
  30
0.0
  11
 1756.4699357279
  21
 240.71348314607
  31
0.0
   0
LINE
   5
12E
 100
AcDbEntity
   8
LEVEL002
 370
13
 100
AcDbLine
   6
CONTINUOUS
  62
5
  10
 1746.4699357279
  20
 220.71348314607
  30
0.0
  11
 1706.4699357279
  21
 240.71348314607
  31
0.0
   0
LINE
   5
12F
 100
AcDbEntity
   8
LEVEL002
 370
13
 100
AcDbLine
   6
CONTINUOUS
  62
5
  10
 1696.4699357279
  20
 220.71348314607
  30
0.0
  11
 1656.4699357279
  21
 240.71348314607
  31
0.0
   0
LWPOLYLINE
   5
130
 100
AcDbEntity
   8
LEVEL002
 370
13
   6
CONTINUOUS
  62
5
 100
AcDbPolyline
  90
4
  70
1
  10
 1796.4699357279
  20
 320.71348314607
  10
 1296.4699357279
  20
 320.71348314607
  10
 1296.4699357279
  20
 220.71348314607
  10
 1796.4699357279
  20
 220.71348314607
   0
CIRCLE
   5
131
 100
AcDbEntity
   8
LEVEL001
 370
13
 100
AcDbCircle
   6
CONTINUOUS
  62
7
  10
 1546.4699357279
  20
 620.71348314607
  30
0.0
  40
 7.5000000000000
   0
LINE
   5
132
 100
AcDbEntity
   8
LEVEL001
 370
13
 100
AcDbLine
   6
DASHDOT
  62
6
  10
 1576.4699357279
  20
 620.71348314607
  30
0.0
  11
 1516.4699357279
  21
 620.71348314607
  31
0.0
   0
LINE
   5
133
 100
AcDbEntity
   8
LEVEL001
 370
13
 100
AcDbLine
   6
DASHDOT
  62
6
  10
 1619.1199357279
  20
 720.71348314607
  30
0.0
  11
 1473.8199357279
  21
 720.71348314607
  31
0.0
   0
MTEXT
   5
135
 100
AcDbEntity
   8
LEVEL002
 370
13
  62
1
 100
AcDbMText
  10
 1117.1186061724
  20
 1829.4434201864
  30
0.0
  40
 40.000000000000
  41
0.0
  71
7
  72
1
   1
\T1.000000;ＧＬ
   7
GMM002
  44
 0.79999984000003
   0
LWPOLYLINE
   5
136
 100
AcDbEntity
   8
LEVEL002
 370
13
   6
CONTINUOUS
  62
1
 100
AcDbPolyline
  90
3
  70
1
  10
 1088.9699357276
  20
 1820.7134831461
  10
 1063.9699357276
  20
 1870.7134831461
  10
 1113.9699357276
  20
 1870.7134831461
   0
LINE
   5
137
 100
AcDbEntity
   8
LEVEL001
 370
13
 100
AcDbLine
   6
DOT
  62
7
  10
 1495.6699357279
  20
 728.21348314607
  30
0.0
  11
 1597.2699357279
  21
 728.21348314607
  31
0.0
   0
LINE
   5
138
 100
AcDbEntity
   8
LEVEL001
 370
13
 100
AcDbLine
   6
DOT
  62
7
  10
 1597.2699357279
  20
 713.21348314607
  30
0.0
  11
 1495.6699357279
  21
 713.21348314607
  31
0.0
   0
LWPOLYLINE
   5
139
 100
AcDbEntity
   8
LEVEL001
 370
13
   6
CONTINUOUS
  62
7
 100
AcDbPolyline
  90
4
  70
0
  10
 3370.6699357279
  20
 628.21348314607
  10
 3296.4699176423
  20
 628.21348314607
  10
 3296.4699176423
  20
 613.21348314607
  10
 3370.6699357279
  20
 613.21348314607
   0
LWPOLYLINE
   5
13A
 100
AcDbEntity
   8
LEVEL001
 370
13
   6
CONTINUOUS
  62
7
 100
AcDbPolyline
  90
4
  70
0
  10
 3472.2699357279
  20
 628.21348314607
  10
 3546.4699176423
  20
 628.21348314607
  10
 3546.4699176423
  20
 613.21348314607
  10
 3472.2699357279
  20
 613.21348314607
   0
LINE
   5
13B
 100
AcDbEntity
   8
LEVEL002
 370
13
 100
AcDbLine
   6
CONTINUOUS
  62
5
  10
 3016.4699357277
  20
 1768.2134831461
  30
0.0
  11
 3068.9699357277
  21
 1820.7134831461
  31
0.0
   0
LINE
   5
13C
 100
AcDbEntity
   8
LEVEL002
 370
13
 100
AcDbLine
   6
CONTINUOUS
  62
5
  10
 3000.5600331509
  20
 1784.1233857229
  30
0.0
  11
 3037.1501305741
  21
 1820.7134831461
  31
0.0
   0
LINE
   5
13D
 100
AcDbEntity
   8
LEVEL002
 370
13
 100
AcDbLine
   6
CONTINUOUS
  62
5
  10
 3053.0600331517
  20
 1820.7134831461
  30
0.0
  11
 3008.5149844397
  21
 1776.1684344341
  31
0.0
   0
LINE
   5
13E
 100
AcDbEntity
   8
LEVEL002
 370
13
 100
AcDbLine
   6
CONTINUOUS
  62
5
  10
 3073.7402279983
  20
 1768.2134831461
  30
0.0
  11
 3045.1050818630
  21
 1796.8486292814
  31
0.0
   0
LINE
   5
13F
 100
AcDbEntity
   8
LEVEL002
 370
13
 100
AcDbLine
   6
CONTINUOUS
  62
5
  10
 3053.0600331512
  20
 1804.8035805696
  30
0.0
  11
 3089.6501305748
  21
 1768.2134831461
  31
0.0
   0
LINE
   5
140
 100
AcDbEntity
   8
LEVEL002
 370
13
 100
AcDbLine
   6
CONTINUOUS
  62
5
  10
 3105.5600331512
  20
 1768.2134831461
  30
0.0
  11
 3061.0149844395
  21
 1812.7585318578
  31
0.0
   0
LINE
   5
141
 100
AcDbEntity
   8
LEVEL002
 370
13
 100
AcDbLine
   6
CONTINUOUS
  62
5
  10
 3068.9699357277
  20
 1820.7134831461
  30
0.0
  11
 3121.4699357279
  21
 1768.2134831461
  31
0.0
   0
LINE
   5
142
 100
AcDbEntity
   8
LEVEL002
 370
13
 100
AcDbLine
   6
CONTINUOUS
  62
5
  10
 2916.2402279979
  20
 1820.7134831461
  30
0.0
  11
 2863.7402279979
  21
 1768.2134831461
  31
0.0
   0
LINE
   5
143
 100
AcDbEntity
   8
LEVEL002
 370
13
 100
AcDbLine
   6
CONTINUOUS
  62
5
  10
 2879.6501305739
  20
 1768.2134831461
  30
0.0
  11
 2932.1501305739
  21
 1820.7134831461
  31
0.0
   0
LINE
   5
144
 100
AcDbEntity
   8
LEVEL002
 370
13
 100
AcDbLine
   6
CONTINUOUS
  62
5
  10
 2948.0600331515
  20
 1820.7134831461
  30
0.0
  11
 2895.5600331515
  21
 1768.2134831461
  31
0.0
   0
LINE
   5
145
 100
AcDbEntity
   8
LEVEL002
 370
13
 100
AcDbLine
   6
CONTINUOUS
  62
5
  10
 2911.4699357276
  20
 1768.2134831461
  30
0.0
  11
 2963.9699357276
  21
 1820.7134831461
  31
0.0
   0
LINE
   5
146
 100
AcDbEntity
   8
LEVEL002
 370
13
 100
AcDbLine
   6
CONTINUOUS
  62
5
  10
 2968.7402279981
  20
 1768.2134831461
  30
0.0
  11
 2940.1050818628
  21
 1796.8486292814
  31
0.0
   0
LINE
   5
147
 100
AcDbEntity
   8
LEVEL002
 370
13
 100
AcDbLine
   6
CONTINUOUS
  62
5
  10
 2948.0600331511
  20
 1804.8035805696
  30
0.0
  11
 2984.6501305746
  21
 1768.2134831461
  31
0.0
   0
LINE
   5
148
 100
AcDbEntity
   8
LEVEL002
 370
13
 100
AcDbLine
   6
CONTINUOUS
  62
5
  10
 3000.5600331510
  20
 1768.2134831461
  30
0.0
  11
 2956.0149844393
  21
 1812.7585318578
  31
0.0
   0
LINE
   5
149
 100
AcDbEntity
   8
LEVEL002
 370
13
 100
AcDbLine
   6
CONTINUOUS
  62
5
  10
 2963.9699357276
  20
 1820.7134831461
  30
0.0
  11
 3016.4699357277
  21
 1768.2134831461
  31
0.0
   0
LINE
   5
14A
 100
AcDbEntity
   8
LEVEL002
 370
13
 100
AcDbLine
   6
CONTINUOUS
  62
5
  10
 3021.2402279981
  20
 1820.7134831461
  30
0.0
  11
 2992.6050818629
  21
 1792.0783370109
  31
0.0
   0
LINE
   5
14B
 100
AcDbEntity
   8
LEVEL002
 370
13
 100
AcDbLine
   6
CONTINUOUS
  62
5
  10
 3773.9699357279
  20
 1820.7134831461
  30
0.0
  11
 3721.4699357279
  21
 1768.2134831461
  31
0.0
   0
LINE
   5
14C
 100
AcDbEntity
   8
LEVEL002
 370
13
 100
AcDbLine
   6
CONTINUOUS
  62
5
  10
 3737.3798383040
  20
 1768.2134831461
  30
0.0
  11
 3789.8798383040
  21
 1820.7134831461
  31
0.0
   0
LINE
   5
14D
 100
AcDbEntity
   8
LEVEL002
 370
13
 100
AcDbLine
   6
CONTINUOUS
  62
5
  10
 3805.7897408816
  20
 1820.7134831461
  30
0.0
  11
 3753.2897408816
  21
 1768.2134831461
  31
0.0
   0
LINE
   5
14E
 100
AcDbEntity
   8
LEVEL002
 370
13
 100
AcDbLine
   6
CONTINUOUS
  62
5
  10
 3769.1996434576
  20
 1768.2134831461
  30
0.0
  11
 3821.6996434576
  21
 1820.7134831461
  31
0.0
   0
LINE
   5
14F
 100
AcDbEntity
   8
LEVEL002
 370
13
 100
AcDbLine
   6
CONTINUOUS
  62
5
  10
 3826.4699357282
  20
 1768.2134831461
  30
0.0
  11
 3797.8347895929
  21
 1796.8486292814
  31
0.0
   0
LINE
   5
150
 100
AcDbEntity
   8
LEVEL002
 370
13
 100
AcDbLine
   6
CONTINUOUS
  62
5
  10
 3805.7897408811
  20
 1804.8035805696
  30
0.0
  11
 3842.3798383046
  21
 1768.2134831461
  31
0.0
   0
LINE
   5
151
 100
AcDbEntity
   8
LEVEL002
 370
13
 100
AcDbLine
   6
CONTINUOUS
  62
5
  10
 3858.2897408811
  20
 1768.2134831461
  30
0.0
  11
 3813.7446921693
  21
 1812.7585318578
  31
0.0
   0
LINE
   5
152
 100
AcDbEntity
   8
LEVEL002
 370
13
 100
AcDbLine
   6
CONTINUOUS
  62
5
  10
 3821.6996434576
  20
 1820.7134831461
  30
0.0
  11
 3874.1996434578
  21
 1768.2134831461
  31
0.0
   0
LINE
   5
153
 100
AcDbEntity
   8
LEVEL002
 370
13
 100
AcDbLine
   6
CONTINUOUS
  62
5
  10
 3874.1996434578
  20
 1768.2134831461
  30
0.0
  11
 3926.6996434578
  21
 1820.7134831461
  31
0.0
   0
LINE
   5
154
 100
AcDbEntity
   8
LEVEL002
 370
13
 100
AcDbLine
   6
CONTINUOUS
  62
5
  10
 3878.9699357281
  20
 1820.7134831461
  30
0.0
  11
 3850.3347895929
  21
 1792.0783370109
  31
0.0
   0
LINE
   5
155
 100
AcDbEntity
   8
LEVEL002
 370
13
 100
AcDbLine
   6
CONTINUOUS
  62
5
  10
 3858.2897408809
  20
 1784.1233857229
  30
0.0
  11
 3894.8798383041
  21
 1820.7134831461
  31
0.0
   0
LINE
   5
156
 100
AcDbEntity
   8
LEVEL002
 370
13
 100
AcDbLine
   6
CONTINUOUS
  62
5
  10
 3910.7897408818
  20
 1820.7134831461
  30
0.0
  11
 3866.2446921698
  21
 1776.1684344341
  31
0.0
   0
LINE
   5
157
 100
AcDbEntity
   8
LEVEL002
 370
13
 100
AcDbLine
   6
CONTINUOUS
  62
5
  10
 3931.4699357284
  20
 1768.2134831461
  30
0.0
  11
 3902.8347895931
  21
 1796.8486292814
  31
0.0
   0
LINE
   5
158
 100
AcDbEntity
   8
LEVEL002
 370
13
 100
AcDbLine
   6
CONTINUOUS
  62
5
  10
 3910.7897408813
  20
 1804.8035805696
  30
0.0
  11
 3947.3798383048
  21
 1768.2134831461
  31
0.0
   0
LINE
   5
159
 100
AcDbEntity
   8
LEVEL002
 370
13
 100
AcDbLine
   6
CONTINUOUS
  62
5
  10
 3963.2897408812
  20
 1768.2134831461
  30
0.0
  11
 3918.7446921695
  21
 1812.7585318578
  31
0.0
   0
LINE
   5
15A
 100
AcDbEntity
   8
LEVEL002
 370
13
 100
AcDbLine
   6
CONTINUOUS
  62
5
  10
 3926.6996434578
  20
 1820.7134831461
  30
0.0
  11
 3979.1996434580
  21
 1768.2134831461
  31
0.0
   0
LINE
   5
15B
 100
AcDbEntity
   8
LEVEL002
 370
13
 100
AcDbLine
   6
CONTINUOUS
  62
5
  10
 3671.4699357279
  20
 1820.7134831461
  30
0.0
  11
 3971.4700009629
  21
 1820.7134831461
  31
0.0
   0
LINE
   5
15C
 100
AcDbEntity
   8
LEVEL002
 370
13
 100
AcDbLine
   6
CONTINUOUS
  62
5
  10
 3171.4699357279
  20
 1820.7134831461
  30
0.0
  11
 2871.4700009629
  21
 1820.7134831461
  31
0.0
   0
LWPOLYLINE
   5
15D
 100
AcDbEntity
   8
LEVEL002
 370
13
   6
CONTINUOUS
  62
5
 100
AcDbPolyline
  90
6
  70
0
  10
 3370.6699357279
  20
 1820.7134831461
  10
 3171.4699357279
  20
 1820.7134831461
  10
 3171.4699357279
  20
 320.71348314607
  10
 3671.4699357279
  20
 320.71348314607
  10
 3671.4699357279
  20
 1820.7134831461
  10
 3472.2699357279
  20
 1820.7134831461
   0
LINE
   5
15E
 100
AcDbEntity
   8
LEVEL002
 370
13
 100
AcDbLine
   6
CONTINUOUS
  62
5
  10
 3321.4699357279
  20
 320.71348314607
  30
0.0
  11
 3271.4699357279
  21
 220.71348314607
  31
0.0
   0
LINE
   5
15F
 100
AcDbEntity
   8
LEVEL002
 370
13
 100
AcDbLine
   6
CONTINUOUS
  62
5
  10
 3271.4699357279
  20
 320.71348314607
  30
0.0
  11
 3311.4699357279
  21
 300.71348314607
  31
0.0
   0
LINE
   5
160
 100
AcDbEntity
   8
LEVEL002
 370
13
 100
AcDbLine
   6
CONTINUOUS
  62
5
  10
 3271.4699357279
  20
 320.71348314607
  30
0.0
  11
 3221.4699357279
  21
 220.71348314607
  31
0.0
   0
LINE
   5
161
 100
AcDbEntity
   8
LEVEL002
 370
13
 100
AcDbLine
   6
CONTINUOUS
  62
5
  10
 3221.4699357279
  20
 320.71348314607
  30
0.0
  11
 3261.4699357279
  21
 300.71348314607
  31
0.0
   0
LINE
   5
162
 100
AcDbEntity
   8
LEVEL002
 370
13
 100
AcDbLine
   6
CONTINUOUS
  62
5
  10
 3221.4699357279
  20
 320.71348314607
  30
0.0
  11
 3171.4699357279
  21
 220.71348314607
  31
0.0
   0
LINE
   5
163
 100
AcDbEntity
   8
LEVEL002
 370
13
 100
AcDbLine
   6
CONTINUOUS
  62
5
  10
 3171.4699357279
  20
 320.71348314607
  30
0.0
  11
 3211.4699357279
  21
 300.71348314607
  31
0.0
   0
LINE
   5
164
 100
AcDbEntity
   8
LEVEL002
 370
13
 100
AcDbLine
   6
CONTINUOUS
  62
5
  10
 3321.4699357279
  20
 220.71348314607
  30
0.0
  11
 3281.4699357279
  21
 240.71348314607
  31
0.0
   0
LINE
   5
165
 100
AcDbEntity
   8
LEVEL002
 370
13
 100
AcDbLine
   6
CONTINUOUS
  62
5
  10
 3271.4699357279
  20
 220.71348314607
  30
0.0
  11
 3231.4699357279
  21
 240.71348314607
  31
0.0
   0
LINE
   5
166
 100
AcDbEntity
   8
LEVEL002
 370
13
 100
AcDbLine
   6
CONTINUOUS
  62
5
  10
 3221.4699357279
  20
 220.71348314607
  30
0.0
  11
 3181.4699357279
  21
 240.71348314607
  31
0.0
   0
LINE
   5
167
 100
AcDbEntity
   8
LEVEL002
 370
13
 100
AcDbLine
   6
CONTINUOUS
  62
5
  10
 3671.4699357279
  20
 320.71348314607
  30
0.0
  11
 3621.4699357279
  21
 220.71348314607
  31
0.0
   0
LINE
   5
168
 100
AcDbEntity
   8
LEVEL002
 370
13
 100
AcDbLine
   6
CONTINUOUS
  62
5
  10
 3621.4699357279
  20
 320.71348314607
  30
0.0
  11
 3661.4699357279
  21
 300.71348314607
  31
0.0
   0
LINE
   5
169
 100
AcDbEntity
   8
LEVEL002
 370
13
 100
AcDbLine
   6
CONTINUOUS
  62
5
  10
 3621.4699357279
  20
 320.71348314607
  30
0.0
  11
 3571.4699357279
  21
 220.71348314607
  31
0.0
   0
LINE
   5
16A
 100
AcDbEntity
   8
LEVEL002
 370
13
 100
AcDbLine
   6
CONTINUOUS
  62
5
  10
 3571.4699357279
  20
 320.71348314607
  30
0.0
  11
 3611.4699357279
  21
 300.71348314607
  31
0.0
   0
LINE
   5
16B
 100
AcDbEntity
   8
LEVEL002
 370
13
 100
AcDbLine
   6
CONTINUOUS
  62
5
  10
 3571.4699357279
  20
 320.71348314607
  30
0.0
  11
 3521.4699357279
  21
 220.71348314607
  31
0.0
   0
LINE
   5
16C
 100
AcDbEntity
   8
LEVEL002
 370
13
 100
AcDbLine
   6
CONTINUOUS
  62
5
  10
 3521.4699357279
  20
 320.71348314607
  30
0.0
  11
 3561.4699357279
  21
 300.71348314607
  31
0.0
   0
LINE
   5
16D
 100
AcDbEntity
   8
LEVEL002
 370
13
 100
AcDbLine
   6
CONTINUOUS
  62
5
  10
 3671.4699357279
  20
 220.71348314607
  30
0.0
  11
 3631.4699357279
  21
 240.71348314607
  31
0.0
   0
LINE
   5
16E
 100
AcDbEntity
   8
LEVEL002
 370
13
 100
AcDbLine
   6
CONTINUOUS
  62
5
  10
 3621.4699357279
  20
 220.71348314607
  30
0.0
  11
 3581.4699357279
  21
 240.71348314607
  31
0.0
   0
LINE
   5
16F
 100
AcDbEntity
   8
LEVEL002
 370
13
 100
AcDbLine
   6
CONTINUOUS
  62
5
  10
 3571.4699357279
  20
 220.71348314607
  30
0.0
  11
 3531.4699357279
  21
 240.71348314607
  31
0.0
   0
LWPOLYLINE
   5
170
 100
AcDbEntity
   8
LEVEL002
 370
13
   6
CONTINUOUS
  62
5
 100
AcDbPolyline
  90
4
  70
1
  10
 3671.4699357279
  20
 320.71348314607
  10
 3171.4699357279
  20
 320.71348314607
  10
 3171.4699357279
  20
 220.71348314607
  10
 3671.4699357279
  20
 220.71348314607
   0
MTEXT
   5
172
 100
AcDbEntity
   8
LEVEL002
 370
13
  62
1
 100
AcDbMText
  10
 2992.1186061724
  20
 1829.4434201864
  30
0.0
  40
 40.000000000000
  41
0.0
  71
7
  72
1
   1
\T1.000000;ＧＬ
   7
GMM002
  44
 0.79999984000003
   0
LWPOLYLINE
   5
173
 100
AcDbEntity
   8
LEVEL002
 370
13
   6
CONTINUOUS
  62
1
 100
AcDbPolyline
  90
3
  70
1
  10
 2963.9699357276
  20
 1820.7134831461
  10
 2938.9699357276
  20
 1870.7134831461
  10
 2988.9699357276
  20
 1870.7134831461
   0
CIRCLE
   5
174
 100
AcDbEntity
   8
LEVEL001
 370
13
 100
AcDbCircle
   6
CONTINUOUS
  62
7
  10
 3421.4699357279
  20
 720.71348314607
  30
0.0
  40
 7.5000000000000
   0
LINE
   5
175
 100
AcDbEntity
   8
LEVEL001
 370
13
 100
AcDbLine
   6
DASHDOT
  62
6
  10
 3494.1199357279
  20
 620.71348314607
  30
0.0
  11
 3348.8199357279
  21
 620.71348314607
  31
0.0
   0
LINE
   5
176
 100
AcDbEntity
   8
LEVEL001
 370
13
 100
AcDbLine
   6
DASHDOT
  62
6
  10
 3451.4699357279
  20
 620.71348314607
  30
0.0
  11
 3391.4699357279
  21
 620.71348314607
  31
0.0
   0
LINE
   5
177
 100
AcDbEntity
   8
LEVEL001
 370
13
 100
AcDbLine
   6
DOT
  62
7
  10
 3472.2699357279
  20
 613.21348314607
  30
0.0
  11
 3370.6699357279
  21
 613.21348314607
  31
0.0
   0
LINE
   5
178
 100
AcDbEntity
   8
LEVEL001
 370
13
 100
AcDbLine
   6
DOT
  62
7
  10
 3370.6699357279
  20
 628.21348314607
  30
0.0
  11
 3472.2699357279
  21
 628.21348314607
  31
0.0
   0
LINE
   5
179
 100
AcDbEntity
   8
LEVEL001
 370
13
 100
AcDbLine
   6
DASHDOT
  62
6
  10
 3451.4699357279
  20
 720.71348314607
  30
0.0
  11
 3391.4699357279
  21
 720.71348314607
  31
0.0
   0
CIRCLE
   5
17A
 100
AcDbEntity
   8
LEVEL001
 370
13
 100
AcDbCircle
   6
CONTINUOUS
  62
1
  10
 1796.4699357279
  20
 2445.7134831461
  30
0.0
  40
 69.999997913838
   0
MTEXT
   5
17C
 100
AcDbEntity
   8
LEVEL001
 370
13
  62
7
 100
AcDbMText
  10
 1796.4699357279
  20
 2445.7134831461
  30
0.0
  40
 66.000000000000
  41
0.0
  71
5
  72
1
   1
\T1.000000;１２
   7
GMM001
  44
 0.79999984000003
   0
LEADER
   5
17D
 100
AcDbEntity
   8
LEVEL001
 370
13
   6
CONTINUOUS
  62
1
 100
AcDbLeader
   3
GMM001
  73
3
  74
1
  75
0
  40
 66.000000000000
  41
0.0
  76
2
  10
 1597.2699357281
  20
 2320.7134831461
  30
0.0
  10
 1737.1770414783
  20
 2408.5065966942
  30
0.0
  77
1
   0
CIRCLE
   5
17E
 100
AcDbEntity
   8
LEVEL001
 370
13
 100
AcDbCircle
   6
CONTINUOUS
  62
1
  10
 3046.4699357279
  20
 445.71348314607
  30
0.0
  40
 69.999997913838
   0
MTEXT
   5
180
 100
AcDbEntity
   8
LEVEL001
 370
13
  62
7
 100
AcDbMText
  10
 3046.4699357279
  20
 445.71348314607
  30
0.0
  40
 66.000000000000
  41
0.0
  71
5
  72
1
   1
\T1.000000;１３
   7
GMM001
  44
 0.79999984000003
   0
LEADER
   5
181
 100
AcDbEntity
   8
LEVEL001
 370
13
   6
CONTINUOUS
  62
1
 100
AcDbLeader
   3
GMM001
  73
3
  74
1
  75
0
  40
 66.000000000000
  41
0.0
  76
2
  10
 3296.4699357279
  20
 613.21349526342
  30
0.0
  10
 3104.6238311494
  20
 484.67659589709
  30
0.0
  77
1
   0
LINE
   5
182
 100
AcDbEntity
   8
LEVEL001
 370
13
 100
AcDbLine
   6
CONTINUOUS
  62
6
  10
 5632.3790266370
  20
 815.71348314607
  30
0.0
  11
 8148.1368058451
  21
 815.71348314607
  31
0.0
   0
MTEXT
   5
184
 100
AcDbEntity
   8
LEVEL001
 370
13
  62
1
 100
AcDbMText
  10
 5803.3580003910
  20
 1359.2870908420
  30
0.0
  40
 80.000000000000
  41
0.0
  71
9
  72
1
   1
\T1.000000;１３
   7
GMM003
  44
 0.79999984000003
   0
LINE
   5
185
 100
AcDbEntity
   8
LEVEL001
 370
13
 100
AcDbLine
   6
CONTINUOUS
  62
6
  10
 5632.3790266370
  20
 1075.7134831461
  30
0.0
  11
 8148.1368058451
  21
 1075.7134831461
  31
0.0
   0
LINE
   5
186
 100
AcDbEntity
   8
LEVEL001
 370
13
 100
AcDbLine
   6
CONTINUOUS
  62
6
  10
 5632.3790266370
  20
 1205.7134831461
  30
0.0
  11
 8148.1368058451
  21
 1205.7134831461
  31
0.0
   0
LINE
   5
187
 100
AcDbEntity
   8
LEVEL001
 370
13
 100
AcDbLine
   6
CONTINUOUS
  62
6
  10
 5632.3790266370
  20
 1335.7134831461
  30
0.0
  11
 8148.1368058451
  21
 1335.7134831461
  31
0.0
   0
LINE
   5
188
 100
AcDbEntity
   8
LEVEL001
 370
13
 100
AcDbLine
   6
CONTINUOUS
  62
6
  10
 5632.3790266370
  20
 1465.7134831461
  30
0.0
  11
 8148.1368058451
  21
 1465.7134831461
  31
0.0
   0
MTEXT
   5
18A
 100
AcDbEntity
   8
LEVEL001
 370
13
  62
1
 100
AcDbMText
  10
 5803.3580003910
  20
 1229.2870908420
  30
0.0
  40
 80.000000000000
  41
0.0
  71
9
  72
1
   1
\T1.000000;１４
   7
GMM003
  44
 0.79999984000003
   0
MTEXT
   5
18C
 100
AcDbEntity
   8
LEVEL001
 370
13
  62
1
 100
AcDbMText
  10
 5803.3580003910
  20
 1099.2870908420
  30
0.0
  40
 80.000000000000
  41
0.0
  71
9
  72
1
   1
\T1.000000;１５
   7
GMM003
  44
 0.79999984000003
   0
LINE
   5
18D
 100
AcDbEntity
   8
LEVEL001
 370
13
 100
AcDbLine
   6
CONTINUOUS
  62
6
  10
 5632.3790266370
  20
 945.71348314607
  30
0.0
  11
 8148.1368058451
  21
 945.71348314607
  31
0.0
   0
MTEXT
   5
18F
 100
AcDbEntity
   8
LEVEL001
 370
13
  62
1
 100
AcDbMText
  10
 5882.3790266370
  20
 839.28709084196
  30
0.0
  40
 80.000000000000
  41
0.0
  71
7
  72
1
   1
\T1.000000;同上ボルトナット
   7
GMM004
  44
 0.79999984000003
   0
MTEXT
   5
191
 100
AcDbEntity
   8
LEVEL001
 370
13
  62
1
 100
AcDbMText
  10
 5882.3790266370
  20
 969.28709084196
  30
0.0
  40
 80.000000000000
  41
0.0
  71
7
  72
1
   1
\T1.000000;注意板取付バンド
   7
GMM004
  44
 0.79999984000003
   0
MTEXT
   5
193
 100
AcDbEntity
   8
LEVEL001
 370
13
  62
1
 100
AcDbMText
  10
 6853.3580003910
  20
 1099.2870908420
  30
0.0
  40
 80.000000000000
  41
0.0
  71
9
  72
1
   1
\T1.000000;１
   7
GMM004
  44
 0.79999984000003
   0
MTEXT
   5
195
 100
AcDbEntity
   8
LEVEL001
 370
13
  62
1
 100
AcDbMText
  10
 5882.3790266370
  20
 1229.2870908420
  30
0.0
  40
 80.000000000000
  41
0.0
  71
7
  72
1
   1
\T1.000000;キャップ
   7
GMM004
  44
 0.79999984000003
   0
MTEXT
   5
197
 100
AcDbEntity
   8
LEVEL001
 370
13
  62
1
 100
AcDbMText
  10
 6853.3580003910
  20
 1229.2870908420
  30
0.0
  40
 80.000000000000
  41
0.0
  71
9
  72
1
   1
\T1.000000;１
   7
GMM004
  44
 0.79999984000003
   0
MTEXT
   5
199
 100
AcDbEntity
   8
LEVEL001
 370
13
  62
1
 100
AcDbMText
  10
 6932.3790266370
  20
 1229.2870908420
  30
0.0
  40
 80.000000000000
  41
0.0
  71
7
  72
1
   1
\T1.000000;ＰＥ
   7
GMM004
  44
 0.79999984000003
   0
MTEXT
   5
19B
 100
AcDbEntity
   8
LEVEL001
 370
13
  62
1
 100
AcDbMText
  10
 5882.3790266370
  20
 1359.2870908420
  30
0.0
  40
 80.000000000000
  41
0.0
  71
7
  72
1
   1
\T1.000000;根入れ鉄筋
   7
GMM004
  44
 0.79999984000003
   0
MTEXT
   5
19D
 100
AcDbEntity
   8
LEVEL001
 370
13
  62
1
 100
AcDbMText
  10
 6853.3580003910
  20
 1359.2870908420
  30
0.0
  40
 80.000000000000
  41
0.0
  71
9
  72
1
   1
\T1.000000;２
   7
GMM004
  44
 0.79999984000003
   0
MTEXT
   5
19F
 100
AcDbEntity
   8
LEVEL001
 370
13
  62
1
 100
AcDbMText
  10
 5803.3580003910
  20
 969.28709084196
  30
0.0
  40
 80.000000000000
  41
0.0
  71
9
  72
1
   1
\T1.000000;１６
   7
GMM003
  44
 0.79999984000003
   0
MTEXT
   5
1A1
 100
AcDbEntity
   8
LEVEL001
 370
13
  62
1
 100
AcDbMText
  10
 5803.3580003910
  20
 839.28709084196
  30
0.0
  40
 80.000000000000
  41
0.0
  71
9
  72
1
   1
\T1.000000;１７
   7
GMM003
  44
 0.79999984000003
   0
LWPOLYLINE
   5
1A2
 100
AcDbEntity
   8
LEVEL001
 370
13
   6
CONTINUOUS
  62
7
 100
AcDbPolyline
  90
4
  70
0
  10
 1495.6699357281
  20
 4910.7134416250
  10
 1495.6699357281
  20
 5120.7134831461
  10
 1597.2699357281
  20
 5120.7134831461
  10
 1597.2699357281
  20
 4910.7134416250
   0
CIRCLE
   5
1A3
 100
AcDbEntity
   8
LEVEL001
 370
13
 100
AcDbCircle
   6
CONTINUOUS
  62
7
  10
 946.46993572792
  20
 4820.7134831533
  30
0.0
  40
 500.00000000000
   0
ARC
   5
1A4
 100
AcDbEntity
   8
LEVEL001
 370
13
   6
CONTINUOUS
  62
7
 100
AcDbCircle
  10
 946.46993572792
  20
 4820.7134831533
  30
0.0
  40
 507.00000000000
 100
AcDbArc
  50
 18.753603132103
  51
 161.24639686790
   0
LINE
   5
1A5
 100
AcDbEntity
   8
LEVEL001
 370
13
 100
AcDbLine
   6
CONTINUOUS
  62
7
  10
 466.38660962713
  20
 4983.7134831533
  30
0.0
  11
 473.78505126471
  21
 4983.7134831533
  31
0.0
   0
LINE
   5
1A6
 100
AcDbEntity
   8
LEVEL001
 370
13
 100
AcDbLine
   6
CONTINUOUS
  62
7
  10
 1426.5532618287
  20
 4983.7134831533
  30
0.0
  11
 1419.1548201911
  21
 4983.7134831533
  31
0.0
   0
CIRCLE
   5
1A7
 100
AcDbEntity
   8
LEVEL001
 370
13
 100
AcDbCircle
   6
CONTINUOUS
  62
2
  10
 946.46993572792
  20
 4820.7134831533
  30
0.0
  40
 483.00000000000
   0
ARC
   5
1A8
 100
AcDbEntity
   8
LEVEL001
 370
13
   6
CONTINUOUS
  62
1
 100
AcDbCircle
  10
 1077.6911915949
  20
 5310.4378770818
  30
0.0
  40
 7.5000000000000
 100
AcDbArc
  50
 344.57621078442
  51
 165.42378921560
   0
ARC
   5
1A9
 100
AcDbEntity
   8
LEVEL001
 370
13
   6
CONTINUOUS
  62
1
 100
AcDbCircle
  10
 815.24853904079
  20
 5310.4378393492
  30
0.0
  40
 7.5000000000000
 100
AcDbArc
  50
 14.576227259862
  51
 195.42380569092
   0
ARC
   5
1AA
 100
AcDbEntity
   8
LEVEL001
 370
13
   6
CONTINUOUS
  62
1
 100
AcDbCircle
  10
 1405.9679837555
  20
 5034.9809418559
  30
0.0
  40
 7.5000000000000
 100
AcDbArc
  50
 294.57621078404
  51
 115.42378921599
   0
ARC
   5
1AB
 100
AcDbEntity
   8
LEVEL001
 370
13
   6
CONTINUOUS
  62
1
 100
AcDbCircle
  10
 486.97182608794
  20
 5034.9808097272
  30
0.0
  40
 7.5000000000000
 100
AcDbArc
  50
 64.576227260807
  51
 245.42380568996
   0
ARC
   5
1AC
 100
AcDbEntity
   8
LEVEL001
 370
13
   6
CONTINUOUS
  62
1
 100
AcDbCircle
  10
 1272.3632538390
  20
 5209.0980158147
  30
0.0
  40
 7.5000000000000
 100
AcDbArc
  50
 319.57621078404
  51
 140.42378921600
   0
ARC
   5
1AD
 100
AcDbEntity
   8
LEVEL001
 370
13
   6
CONTINUOUS
  62
1
 100
AcDbCircle
  10
 620.57650593694
  20
 5209.0979221041
  30
0.0
  40
 7.5000000000000
 100
AcDbArc
  50
 39.576227259684
  51
 220.42380569108
   0
DIMENSION
   5
1AE
 100
AcDbEntity
   8
LEVEL001
 370
13
   6
CONTINUOUS
  62
6
 100
AcDbDimension
   2
*D4
  10
 1379.4826312980
  20
 5070.7134941036
  30
0.0
  11
 932.32707796559
  21
 4845.2096299312
  31
0.0
  70
3
   3
GMM002
 100
AcDbDiametricDimension
  15
 513.45724015788
  25
 4570.7134722029
  35
0.0
   0
ARC
   5
1AF
 100
AcDbEntity
   8
LEVEL001
 370
13
   6
CONTINUOUS
  62
1
 100
AcDbCircle
  10
 1431.6178162570
  20
 4699.7526051056
  30
0.0
  40
 7.5000000000000
 100
AcDbArc
  50
 255.57028586320
  51
 76.429730612155
   0
ARC
   5
1B0
 100
AcDbEntity
   8
LEVEL001
 370
13
   6
CONTINUOUS
  62
1
 100
AcDbCircle
  10
 461.32208998117
  20
 4699.7524656014
  30
0.0
  40
 7.5000000000000
 100
AcDbArc
  50
 103.57028586336
  51
 284.42973061208
   0
ARC
   5
1B1
 100
AcDbEntity
   8
LEVEL001
 370
13
   6
CONTINUOUS
  62
1
 100
AcDbCircle
  10
 946.47000761540
  20
 4320.7134831533
  30
0.0
  40
 7.5000000000000
 100
AcDbArc
  50
 179.57028586264
  51
 0.42973061271037
   0
ARC
   5
1B2
 100
AcDbEntity
   8
LEVEL001
 370
13
   6
CONTINUOUS
  62
1
 100
AcDbCircle
  10
 1254.3007300389
  20
 4426.7081506082
  30
0.0
  40
 7.5000000000000
 100
AcDbArc
  50
 217.57028586249
  51
 38.429730612858
   0
ARC
   5
1B3
 100
AcDbEntity
   8
LEVEL001
 370
13
   6
CONTINUOUS
  62
1
 100
AcDbCircle
  10
 638.63925471319
  20
 4426.7080620916
  30
0.0
  40
 7.5000000000000
 100
AcDbArc
  50
 141.57028586256
  51
 322.42973061289
   0
LINE
   5
1B4
 100
AcDbEntity
   8
LEVEL001
 370
13
 100
AcDbLine
   6
DASHDOT
  62
6
  10
 1496.4699357279
  20
 4820.7134831533
  30
0.0
  11
 396.46993572792
  21
 4820.7134831533
  31
0.0
   0
LWPOLYLINE
   5
1B5
 100
AcDbEntity
   8
LEVEL001
 370
13
   6
CONTINUOUS
  62
7
 100
AcDbPolyline
  90
4
  70
1
  10
 1482.8819288070
  20
 4708.7134416250
  10
 1468.8819288070
  20
 4708.7134416250
  10
 1468.8819288070
  20
 4722.7134416250
  10
 1482.8819288070
  20
 4722.7134416250
   0
LWPOLYLINE
   5
1B6
 100
AcDbEntity
   8
LEVEL001
 370
13
   6
CONTINUOUS
  62
7
 100
AcDbPolyline
  90
4
  70
1
  10
 1482.8819288070
  20
 4768.7134416250
  10
 1468.8819288070
  20
 4768.7134416250
  10
 1468.8819288070
  20
 4782.7134416250
  10
 1482.8819288070
  20
 4782.7134416250
   0
LWPOLYLINE
   5
1B7
 100
AcDbEntity
   8
LEVEL001
 370
13
   6
CONTINUOUS
  62
7
 100
AcDbPolyline
  90
6
  70
0
  10
 1600.4699357279
  20
 4705.7134416250
  10
 1600.4699357279
  20
 4690.7134416250
  10
 1455.8819288070
  20
 4690.7134416250
  10
 1455.8819288070
  20
 4800.7134416250
  10
 1600.4699357279
  20
 4800.7134416250
  10
 1600.4699357279
  20
 4765.7134416250
   0
LWPOLYLINE
   5
1B8
 100
AcDbEntity
   8
LEVEL001
 370
13
   6
CONTINUOUS
  62
7
 100
AcDbPolyline
  90
4
  70
1
  10
 1610.0579426488
  20
 4892.7134416250
  10
 1624.0579426488
  20
 4892.7134416250
  10
 1624.0579426488
  20
 4878.7134416250
  10
 1610.0579426488
  20
 4878.7134416250
   0
LWPOLYLINE
   5
1B9
 100
AcDbEntity
   8
LEVEL001
 370
13
   6
CONTINUOUS
  62
7
 100
AcDbPolyline
  90
4
  70
1
  10
 1610.0579426488
  20
 4832.7134416250
  10
 1624.0579426488
  20
 4832.7134416250
  10
 1624.0579426488
  20
 4818.7134416250
  10
 1610.0579426488
  20
 4818.7134416250
   0
LWPOLYLINE
   5
1BA
 100
AcDbEntity
   8
LEVEL001
 370
13
   6
CONTINUOUS
  62
7
 100
AcDbPolyline
  90
6
  70
0
  10
 1492.4699357279
  20
 4889.3515599407
  10
 1492.4699357279
  20
 4910.7134416250
  10
 1637.0579426488
  20
 4910.7134416250
  10
 1637.0579426488
  20
 4800.7134416250
  10
 1492.4699357279
  20
 4800.7134416250
  10
 1492.4699357279
  20
 4822.0119856826
   0
LINE
   5
1BB
 100
AcDbEntity
   8
LEVEL001
 370
13
 100
AcDbLine
   6
DASHDOT
  62
6
  10
 946.46993572792
  20
 5370.7134831533
  30
0.0
  11
 946.46993572792
  21
 4270.7134831533
  31
0.0
   0
LWPOLYLINE
   5
1BC
 100
AcDbEntity
   8
LEVEL001
 370
13
   6
CONTINUOUS
  62
7
 100
AcDbPolyline
  90
4
  70
0
  10
 1445.9681322285
  20
 4798.3181333522
  10
 1494.5950863305
  20
 4823.0948039986
  10
 1494.5950863305
  20
 4890.4343782567
  10
 1444.5122496796
  20
 4864.9158984002
   0
CIRCLE
   5
1BD
 100
AcDbEntity
   8
LEVEL001
 370
13
 100
AcDbCircle
   6
CONTINUOUS
  62
7
  10
 2146.4699357279
  20
 4820.7134831533
  30
0.0
  40
 500.00000000000
   0
ARC
   5
1BE
 100
AcDbEntity
   8
LEVEL001
 370
13
   6
CONTINUOUS
  62
7
 100
AcDbCircle
  10
 2146.4699357279
  20
 4820.7134831533
  30
0.0
  40
 507.00000000000
 100
AcDbArc
  50
 18.753603132103
  51
 161.24639686790
   0
LINE
   5
1BF
 100
AcDbEntity
   8
LEVEL001
 370
13
 100
AcDbLine
   6
CONTINUOUS
  62
7
  10
 1666.3866096271
  20
 4983.7134831533
  30
0.0
  11
 1673.7850512647
  21
 4983.7134831533
  31
0.0
   0
CIRCLE
   5
1C0
 100
AcDbEntity
   8
LEVEL001
 370
13
 100
AcDbCircle
   6
CONTINUOUS
  62
2
  10
 2146.4699357279
  20
 4820.7134831533
  30
0.0
  40
 483.00000000000
   0
ARC
   5
1C1
 100
AcDbEntity
   8
LEVEL001
 370
13
   6
CONTINUOUS
  62
1
 100
AcDbCircle
  10
 1686.9718260879
  20
 5034.9808097272
  30
0.0
  40
 7.5000000000000
 100
AcDbArc
  50
 64.576227260855
  51
 245.42380568991
   0
DIMENSION
   5
1C2
 100
AcDbEntity
   8
LEVEL001
 370
13
   6
CONTINUOUS
  62
6
 100
AcDbDimension
   2
*D5
  10
 2579.4826312980
  20
 5070.7134941035
  30
0.0
  11
 2132.3270779656
  21
 4845.2096299312
  31
0.0
  70
3
   3
GMM002
 100
AcDbDiametricDimension
  15
 1713.4572401578
  25
 4570.7134722030
  35
0.0
   0
ARC
   5
1C3
 100
AcDbEntity
   8
LEVEL001
 370
13
   6
CONTINUOUS
  62
1
 100
AcDbCircle
  10
 1661.3220899812
  20
 4699.7524656014
  30
0.0
  40
 7.5000000000000
 100
AcDbArc
  50
 103.57028586336
  51
 284.42973061208
   0
LINE
   5
1C4
 100
AcDbEntity
   8
LEVEL001
 370
13
 100
AcDbLine
   6
DASHDOT
  62
6
  10
 2696.4699357279
  20
 4820.7134831533
  30
0.0
  11
 1596.4699357279
  21
 4820.7134831533
  31
0.0
   0
LWPOLYLINE
   5
1C5
 100
AcDbEntity
   8
LEVEL001
 370
13
   6
CONTINUOUS
  62
7
 100
AcDbPolyline
  90
4
  70
0
  10
 1649.5041467325
  20
 4765.7134416250
  10
 1598.3447851253
  20
 4765.7134416250
  10
 1598.3447851253
  20
 4705.7134416250
  10
 1656.7705226882
  20
 4705.7134416250
   0
CIRCLE
   5
1C6
 100
AcDbEntity
   8
LEVEL001
 370
13
 100
AcDbCircle
   6
CONTINUOUS
  62
1
  10
 800.39669699457
  20
 4067.7070875277
  30
0.0
  40
 69.999997913838
   0
MTEXT
   5
1C8
 100
AcDbEntity
   8
LEVEL001
 370
13
  62
7
 100
AcDbMText
  10
 800.39669699457
  20
 4067.7070875277
  30
0.0
  40
 66.000000000000
  41
0.0
  71
5
  72
1
   1
\T1.000000;５
   7
GMM001
  44
 0.79999984000003
   0
LEADER
   5
1C9
 100
AcDbEntity
   8
LEVEL001
 370
13
   6
CONTINUOUS
  62
1
 100
AcDbLeader
   3
GMM003
  73
3
  74
1
  75
0
  40
 66.000000000000
  41
0.0
  76
2
  10
 942.72000761543
  20
 4314.2182926245
  30
0.0
  10
 835.39669595149
  20
 4128.3288639860
  30
0.0
  77
1
   0
ARC
   5
1CA
 100
AcDbEntity
   8
LEVEL001
 370
13
   6
CONTINUOUS
  62
1
 100
AcDbCircle
  10
 1838.6392547132
  20
 4426.7080620916
  30
0.0
  40
 7.5000000000000
 100
AcDbArc
  50
 141.57028586265
  51
 322.42973061280
   0
LINE
   5
1CB
 100
AcDbEntity
   8
LEVEL001
 370
13
 100
AcDbLine
   6
DASHDOT
  62
6
  10
 2146.4699357279
  20
 5370.7134831533
  30
0.0
  11
 2146.4699357279
  21
 4270.7134831533
  31
0.0
   0
LINE
   5
1CC
 100
AcDbEntity
   8
LEVEL001
 370
13
 100
AcDbLine
   6
CONTINUOUS
  62
7
  10
 2626.5532618287
  20
 4983.7134831533
  30
0.0
  11
 2619.1548201911
  21
 4983.7134831533
  31
0.0
   0
ARC
   5
1CD
 100
AcDbEntity
   8
LEVEL001
 370
13
   6
CONTINUOUS
  62
1
 100
AcDbCircle
  10
 2277.6911915948
  20
 5310.4378770818
  30
0.0
  40
 7.5000000000000
 100
AcDbArc
  50
 344.57621078487
  51
 165.42378921515
   0
ARC
   5
1CE
 100
AcDbEntity
   8
LEVEL001
 370
13
   6
CONTINUOUS
  62
1
 100
AcDbCircle
  10
 2015.2485390408
  20
 5310.4378393492
  30
0.0
  40
 7.5000000000000
 100
AcDbArc
  50
 14.576227259754
  51
 195.42380569102
   0
ARC
   5
1CF
 100
AcDbEntity
   8
LEVEL001
 370
13
   6
CONTINUOUS
  62
1
 100
AcDbCircle
  10
 2605.9679837555
  20
 5034.9809418559
  30
0.0
  40
 7.5000000000000
 100
AcDbArc
  50
 294.57621078389
  51
 115.42378921614
   0
ARC
   5
1D0
 100
AcDbEntity
   8
LEVEL001
 370
13
   6
CONTINUOUS
  62
1
 100
AcDbCircle
  10
 2472.3632538390
  20
 5209.0980158147
  30
0.0
  40
 7.5000000000000
 100
AcDbArc
  50
 319.57621078422
  51
 140.42378921582
   0
ARC
   5
1D1
 100
AcDbEntity
   8
LEVEL001
 370
13
   6
CONTINUOUS
  62
1
 100
AcDbCircle
  10
 1820.5765059370
  20
 5209.0979221041
  30
0.0
  40
 7.5000000000000
 100
AcDbArc
  50
 39.576227259864
  51
 220.42380569090
   0
ARC
   5
1D2
 100
AcDbEntity
   8
LEVEL001
 370
13
   6
CONTINUOUS
  62
1
 100
AcDbCircle
  10
 2631.6178162570
  20
 4699.7526051056
  30
0.0
  40
 7.5000000000000
 100
AcDbArc
  50
 255.57028586317
  51
 76.429730612183
   0
ARC
   5
1D3
 100
AcDbEntity
   8
LEVEL001
 370
13
   6
CONTINUOUS
  62
1
 100
AcDbCircle
  10
 2146.4700076154
  20
 4320.7134831533
  30
0.0
  40
 7.5000000000000
 100
AcDbArc
  50
 179.57028586252
  51
 0.42973061282849
   0
ARC
   5
1D4
 100
AcDbEntity
   8
LEVEL001
 370
13
   6
CONTINUOUS
  62
1
 100
AcDbCircle
  10
 2454.3007300388
  20
 4426.7081506083
  30
0.0
  40
 7.5000000000000
 100
AcDbArc
  50
 217.57028586267
  51
 38.429730612673
   0
CIRCLE
   5
1D5
 100
AcDbEntity
   8
LEVEL001
 370
13
 100
AcDbCircle
   6
CONTINUOUS
  62
7
  10
 4671.4696677652
  20
 4820.7134831533
  30
0.0
  40
 500.00000000000
   0
ARC
   5
1D6
 100
AcDbEntity
   8
LEVEL001
 370
13
   6
CONTINUOUS
  62
7
 100
AcDbCircle
  10
 4671.4696677652
  20
 4820.7134831533
  30
0.0
  40
 507.00000000000
 100
AcDbArc
  50
 18.753603132103
  51
 161.24639686790
   0
LINE
   5
1D7
 100
AcDbEntity
   8
LEVEL001
 370
13
 100
AcDbLine
   6
CONTINUOUS
  62
7
  10
 4191.3863416644
  20
 4983.7134831533
  30
0.0
  11
 4198.7847833019
  21
 4983.7134831533
  31
0.0
   0
LINE
   5
1D8
 100
AcDbEntity
   8
LEVEL001
 370
13
 100
AcDbLine
   6
CONTINUOUS
  62
7
  10
 5151.5529938659
  20
 4983.7134831533
  30
0.0
  11
 5144.1545522284
  21
 4983.7134831533
  31
0.0
   0
ARC
   5
1D9
 100
AcDbEntity
   8
LEVEL001
 370
13
   6
CONTINUOUS
  62
1
 100
AcDbCircle
  10
 4802.6909236321
  20
 5310.4378770818
  30
0.0
  40
 7.5000000000000
 100
AcDbArc
  50
 344.57621078476
  51
 165.42378921525
   0
ARC
   5
1DA
 100
AcDbEntity
   8
LEVEL001
 370
13
   6
CONTINUOUS
  62
1
 100
AcDbCircle
  10
 4540.2482710781
  20
 5310.4378393490
  30
0.0
  40
 7.5000000000000
 100
AcDbArc
  50
 14.576227260880
  51
 195.42380568989
   0
ARC
   5
1DB
 100
AcDbEntity
   8
LEVEL001
 370
13
   6
CONTINUOUS
  62
1
 100
AcDbCircle
  10
 5130.9677157927
  20
 5034.9809418559
  30
0.0
  40
 7.5000000000000
 100
AcDbArc
  50
 294.57621078464
  51
 115.42378921538
   0
ARC
   5
1DC
 100
AcDbEntity
   8
LEVEL001
 370
13
   6
CONTINUOUS
  62
1
 100
AcDbCircle
  10
 4211.9715581250
  20
 5034.9808097273
  30
0.0
  40
 7.5000000000000
 100
AcDbArc
  50
 64.576227259571
  51
 245.42380569119
   0
ARC
   5
1DD
 100
AcDbEntity
   8
LEVEL001
 370
13
   6
CONTINUOUS
  62
1
 100
AcDbCircle
  10
 4997.3629858762
  20
 5209.0980158147
  30
0.0
  40
 7.5000000000000
 100
AcDbArc
  50
 319.57621078434
  51
 140.42378921569
   0
ARC
   5
1DE
 100
AcDbEntity
   8
LEVEL001
 370
13
   6
CONTINUOUS
  62
1
 100
AcDbCircle
  10
 4345.5762379742
  20
 5209.0979221041
  30
0.0
  40
 7.5000000000000
 100
AcDbArc
  50
 39.576227259862
  51
 220.42380569090
   0
ARC
   5
1DF
 100
AcDbEntity
   8
LEVEL001
 370
13
   6
CONTINUOUS
  62
1
 100
AcDbCircle
  10
 5156.6175482942
  20
 4699.7526051056
  30
0.0
  40
 7.5000000000000
 100
AcDbArc
  50
 255.57028586317
  51
 76.429730612187
   0
ARC
   5
1E0
 100
AcDbEntity
   8
LEVEL001
 370
13
   6
CONTINUOUS
  62
1
 100
AcDbCircle
  10
 4186.3218220184
  20
 4699.7524656014
  30
0.0
  40
 7.5000000000000
 100
AcDbArc
  50
 103.57028586348
  51
 284.42973061197
   0
ARC
   5
1E1
 100
AcDbEntity
   8
LEVEL001
 370
13
   6
CONTINUOUS
  62
2
 100
AcDbCircle
  10
 4503.0802834029
  20
 4757.1130565222
  30
0.0
  40
 29.999999552965
 100
AcDbArc
  50
 20.690820101612
  51
 86.933683158184
   0
LINE
   5
1E2
 100
AcDbEntity
   8
LEVEL001
 370
13
 100
AcDbLine
   6
CONTINUOUS
  62
2
  10
 4504.6850368368
  20
 4787.0701047679
  30
0.0
  11
 4249.4006168127
  21
 4800.7422847399
  31
0.0
   0
ARC
   5
1E3
 100
AcDbEntity
   8
LEVEL001
 370
13
   6
CONTINUOUS
  62
2
 100
AcDbCircle
  10
 4503.0804073463
  20
 4884.3141622998
  30
0.0
  40
 29.999999552965
 100
AcDbArc
  50
 273.06549610976
  51
 339.30850994616
   0
LINE
   5
1E4
 100
AcDbEntity
   8
LEVEL001
 370
13
 100
AcDbLine
   6
CONTINUOUS
  62
2
  10
 4504.6847316610
  20
 4854.3570910699
  30
0.0
  11
 4249.4006168127
  21
 4840.6849110978
  31
0.0
   0
ARC
   5
1E5
 100
AcDbEntity
   8
LEVEL001
 370
13
   6
CONTINUOUS
  62
2
 100
AcDbCircle
  10
 4532.1958649858
  20
 4934.7428856574
  30
0.0
  40
 29.999999552965
 100
AcDbArc
  50
 320.69073349109
  51
 26.934436539243
   0
ARC
   5
1E6
 100
AcDbEntity
   8
LEVEL001
 370
13
   6
CONTINUOUS
  62
2
 100
AcDbCircle
  10
 4671.4694064136
  20
 4820.7127155606
  30
0.0
  40
 149.99999776483
 100
AcDbArc
  50
 140.69118347550
  51
 159.30810759659
   0
ARC
   5
1E7
 100
AcDbEntity
   8
LEVEL001
 370
13
   6
CONTINUOUS
  62
2
 100
AcDbCircle
  10
 4642.3552729330
  20
 4998.3432209132
  30
0.0
  40
 29.999999552965
 100
AcDbArc
  50
 213.06504559763
  51
 279.30759622405
   0
LINE
   5
1E8
 100
AcDbEntity
   8
LEVEL001
 370
13
 100
AcDbLine
   6
CONTINUOUS
  62
2
  10
 4558.9416278252
  20
 4948.3320042203
  30
0.0
  11
 4443.1390172461
  21
 5176.2513123475
  31
0.0
   0
LINE
   5
1E9
 100
AcDbEntity
   8
LEVEL001
 370
13
 100
AcDbLine
   6
CONTINUOUS
  62
2
  10
 4617.2137216834
  20
 4981.9754973714
  30
0.0
  11
 4477.7297760080
  21
 5196.2226255265
  31
0.0
   0
LINE
   5
1EA
 100
AcDbEntity
   8
LEVEL001
 370
13
 100
AcDbLine
   6
CONTINUOUS
  62
2
  10
 4558.9413226494
  20
 4693.0954967932
  30
0.0
  11
 4443.1396275976
  21
 4465.1764938418
  31
0.0
   0
LINE
   5
1EB
 100
AcDbEntity
   8
LEVEL001
 370
13
 100
AcDbLine
   6
CONTINUOUS
  62
2
  10
 4617.2134165076
  20
 4659.4516984664
  30
0.0
  11
 4477.7309967111
  21
 4445.2051806628
  31
0.0
   0
ARC
   5
1EC
 100
AcDbEntity
   8
LEVEL001
 370
13
   6
CONTINUOUS
  62
2
 100
AcDbCircle
  10
 4642.3548176584
  20
 4643.0837443684
  30
0.0
  40
 29.999999552965
 100
AcDbArc
  50
 80.691522663966
  51
 146.93442898003
   0
ARC
   5
1ED
 100
AcDbEntity
   8
LEVEL001
 370
13
   6
CONTINUOUS
  62
2
 100
AcDbCircle
  10
 4532.1953684521
  20
 4706.6842387236
  30
0.0
  40
 29.999999552965
 100
AcDbArc
  50
 333.06637029425
  51
 39.308689609811
   0
CIRCLE
   5
1EE
 100
AcDbEntity
   8
LEVEL001
 370
13
 100
AcDbCircle
   6
CONTINUOUS
  62
2
  10
 4671.4697023202
  20
 4820.7135979189
  30
0.0
  40
 124.99999813735
   0
ARC
   5
1EF
 100
AcDbEntity
   8
LEVEL001
 370
13
   6
CONTINUOUS
  62
2
 100
AcDbCircle
  10
 4671.4696677652
  20
 4820.7134831533
  30
0.0
  40
 149.99999776483
 100
AcDbArc
  50
 200.69160987412
  51
 219.30847493284
   0
ARC
   5
1F0
 100
AcDbEntity
   8
LEVEL001
 370
13
   6
CONTINUOUS
  62
2
 100
AcDbCircle
  10
 4460.9699457385
  20
 5185.3098981741
  30
0.0
  40
 19.999999701977
 100
AcDbArc
  50
 33.068162056360
  51
 206.93178057477
   0
ARC
   5
1F1
 100
AcDbEntity
   8
LEVEL001
 370
13
   6
CONTINUOUS
  62
2
 100
AcDbCircle
  10
 4250.4714286480
  20
 4820.7135979189
  30
0.0
  40
 19.999999701977
 100
AcDbArc
  50
 93.069117498801
  51
 266.93088250120
   0
ARC
   5
1F2
 100
AcDbEntity
   8
LEVEL001
 370
13
   6
CONTINUOUS
  62
2
 100
AcDbCircle
  10
 4460.9705560901
  20
 4456.1179080152
  30
0.0
  40
 19.999999701977
 100
AcDbArc
  50
 153.06821942523
  51
 326.93183794364
   0
ARC
   5
1F3
 100
AcDbEntity
   8
LEVEL001
 370
13
   6
CONTINUOUS
  62
2
 100
AcDbCircle
  10
 4881.9711771197
  20
 5185.3120687186
  30
0.0
  40
 19.999999701977
 100
AcDbArc
  50
 333.05928327149
  51
 146.93925766472
   0
ARC
   5
1F4
 100
AcDbEntity
   8
LEVEL001
 370
13
   6
CONTINUOUS
  62
2
 100
AcDbCircle
  10
 4700.5848921579
  20
 4998.3434514693
  30
0.0
  40
 29.999999552965
 100
AcDbArc
  50
 260.69152266397
  51
 326.93442898003
   0
LINE
   5
1F5
 100
AcDbEntity
   8
LEVEL001
 370
13
 100
AcDbLine
   6
CONTINUOUS
  62
2
  10
 4725.7262933086
  20
 4981.9754973714
  30
0.0
  11
 4865.2093234567
  21
 5196.2226255265
  31
0.0
   0
ARC
   5
1F6
 100
AcDbEntity
   8
LEVEL001
 370
13
   6
CONTINUOUS
  62
2
 100
AcDbCircle
  10
 4671.4707858405
  20
 4820.7135895441
  30
0.0
  40
 149.99999776483
 100
AcDbArc
  50
 80.691856705208
  51
 99.308863964694
   0
ARC
   5
1F7
 100
AcDbEntity
   8
LEVEL001
 370
13
   6
CONTINUOUS
  62
2
 100
AcDbCircle
  10
 4810.7439405101
  20
 4934.7430739734
  30
0.0
  40
 29.999999552965
 100
AcDbArc
  50
 153.06596687767
  51
 219.30897805813
   0
LINE
   5
1F8
 100
AcDbEntity
   8
LEVEL001
 370
13
 100
AcDbLine
   6
CONTINUOUS
  62
2
  10
 4783.9980819911
  20
 4948.3320042203
  30
0.0
  11
 4899.8006925702
  21
 5176.2507019960
  31
0.0
   0
ARC
   5
1F9
 100
AcDbEntity
   8
LEVEL001
 370
13
   6
CONTINUOUS
  62
2
 100
AcDbCircle
  10
 4700.5853474309
  20
 4643.0838189950
  30
0.0
  40
 29.999999552965
 100
AcDbArc
  50
 33.066096429618
  51
 99.309358447321
   0
ARC
   5
1FA
 100
AcDbEntity
   8
LEVEL001
 370
13
   6
CONTINUOUS
  62
2
 100
AcDbCircle
  10
 4810.7444128160
  20
 4706.6846987396
  30
0.0
  40
 29.999999552965
 100
AcDbArc
  50
 140.69244585415
  51
 206.93461516643
   0
LINE
   5
1FB
 100
AcDbEntity
   8
LEVEL001
 370
13
 100
AcDbLine
   6
CONTINUOUS
  62
2
  10
 4838.2549781553
  20
 4787.0701047679
  30
0.0
  11
 5093.5400085309
  21
 4800.7422847399
  31
0.0
   0
LINE
   5
1FC
 100
AcDbEntity
   8
LEVEL001
 370
13
 100
AcDbLine
   6
CONTINUOUS
  62
2
  10
 4838.2546729795
  20
 4854.3567858941
  30
0.0
  11
 5093.5397033551
  21
 4840.6852162736
  31
0.0
   0
LINE
   5
1FD
 100
AcDbEntity
   8
LEVEL001
 370
13
 100
AcDbLine
   6
CONTINUOUS
  62
2
  10
 4725.7265984844
  20
 4659.4520036422
  30
0.0
  11
 4865.2093234567
  21
 4445.2045703113
  31
0.0
   0
LINE
   5
1FE
 100
AcDbEntity
   8
LEVEL001
 370
13
 100
AcDbLine
   6
CONTINUOUS
  62
2
  10
 4783.9986923427
  20
 4693.0954967932
  30
0.0
  11
 4899.8000822186
  21
 4465.1755783145
  31
0.0
   0
ARC
   5
1FF
 100
AcDbEntity
   8
LEVEL001
 370
13
   6
CONTINUOUS
  62
2
 100
AcDbCircle
  10
 4671.4698549081
  20
 4820.7134537088
  30
0.0
  40
 149.99999776483
 100
AcDbArc
  50
 260.69149637044
  51
 279.30850362956
   0
ARC
   5
200
 100
AcDbEntity
   8
LEVEL001
 370
13
   6
CONTINUOUS
  62
2
 100
AcDbCircle
  10
 4671.4700894232
  20
 4820.7139137510
  30
0.0
  40
 149.99999776483
 100
AcDbArc
  50
 320.69131249564
  51
 339.30833891489
   0
ARC
   5
201
 100
AcDbEntity
   8
LEVEL001
 370
13
   6
CONTINUOUS
  62
2
 100
AcDbCircle
  10
 4839.8593024699
  20
 4757.1130335380
  30
0.0
  40
 29.999999552965
 100
AcDbArc
  50
 93.065496109764
  51
 159.30850994616
   0
ARC
   5
202
 100
AcDbEntity
   8
LEVEL001
 370
13
   6
CONTINUOUS
  62
2
 100
AcDbCircle
  10
 4839.8593087709
  20
 4884.3138404415
  30
0.0
  40
 29.999999552965
 100
AcDbArc
  50
 200.69145599578
  51
 266.93390816088
   0
ARC
   5
203
 100
AcDbEntity
   8
LEVEL001
 370
13
   6
CONTINUOUS
  62
2
 100
AcDbCircle
  10
 4671.4698754477
  20
 4820.7135434335
  30
0.0
  40
 149.99999776483
 100
AcDbArc
  50
 20.691429768673
  51
 39.308558486273
   0
ARC
   5
204
 100
AcDbEntity
   8
LEVEL001
 370
13
   6
CONTINUOUS
  62
2
 100
AcDbCircle
  10
 4881.9683766960
  20
 4456.1194281941
  30
0.0
  40
 19.999999701977
 100
AcDbArc
  50
 213.07544560321
  51
 26.924934790056
   0
ARC
   5
205
 100
AcDbEntity
   8
LEVEL001
 370
13
   6
CONTINUOUS
  62
2
 100
AcDbCircle
  10
 5092.4718937812
  20
 4820.7137423472
  30
0.0
  40
 19.999999701977
 100
AcDbArc
  50
 273.06137984711
  51
 86.939495666198
   0
CIRCLE
   5
206
 100
AcDbEntity
   8
LEVEL001
 370
13
 100
AcDbCircle
   6
CONTINUOUS
  62
7
  10
 4711.4698754477
  20
 4855.7135434335
  30
0.0
  40
 7.0000000000000
   0
LINE
   5
207
 100
AcDbEntity
   8
LEVEL001
 370
13
 100
AcDbLine
   6
DASHDOT
  62
6
  10
 4691.4698754477
  20
 4855.7135434335
  30
0.0
  11
 4731.4698754477
  21
 4855.7135434335
  31
0.0
   0
LINE
   5
208
 100
AcDbEntity
   8
LEVEL001
 370
13
 100
AcDbLine
   6
DASHDOT
  62
6
  10
 4711.4698754477
  20
 4835.7135434335
  30
0.0
  11
 4711.4698754477
  21
 4875.7135434335
  31
0.0
   0
CIRCLE
   5
209
 100
AcDbEntity
   8
LEVEL001
 370
13
 100
AcDbCircle
   6
CONTINUOUS
  62
7
  10
 4631.4698754477
  20
 4855.7135434335
  30
0.0
  40
 7.0000000000000
   0
LINE
   5
20A
 100
AcDbEntity
   8
LEVEL001
 370
13
 100
AcDbLine
   6
DASHDOT
  62
6
  10
 4611.4698754477
  20
 4855.7135434335
  30
0.0
  11
 4651.4698754477
  21
 4855.7135434335
  31
0.0
   0
LINE
   5
20B
 100
AcDbEntity
   8
LEVEL001
 370
13
 100
AcDbLine
   6
DASHDOT
  62
6
  10
 4631.4698754477
  20
 4835.7135434335
  30
0.0
  11
 4631.4698754477
  21
 4875.7135434335
  31
0.0
   0
CIRCLE
   5
20C
 100
AcDbEntity
   8
LEVEL001
 370
13
 100
AcDbCircle
   6
CONTINUOUS
  62
7
  10
 4631.4698754477
  20
 4785.7135434335
  30
0.0
  40
 7.0000000000000
   0
LINE
   5
20D
 100
AcDbEntity
   8
LEVEL001
 370
13
 100
AcDbLine
   6
DASHDOT
  62
6
  10
 4611.4698754477
  20
 4785.7135434335
  30
0.0
  11
 4651.4698754477
  21
 4785.7135434335
  31
0.0
   0
LINE
   5
20E
 100
AcDbEntity
   8
LEVEL001
 370
13
 100
AcDbLine
   6
DASHDOT
  62
6
  10
 4631.4698754477
  20
 4765.7135434335
  30
0.0
  11
 4631.4698754477
  21
 4805.7135434335
  31
0.0
   0
CIRCLE
   5
20F
 100
AcDbEntity
   8
LEVEL001
 370
13
 100
AcDbCircle
   6
CONTINUOUS
  62
7
  10
 4711.4698754477
  20
 4785.7135434335
  30
0.0
  40
 7.0000000000000
   0
LINE
   5
210
 100
AcDbEntity
   8
LEVEL001
 370
13
 100
AcDbLine
   6
DASHDOT
  62
6
  10
 4691.4698754477
  20
 4785.7135434335
  30
0.0
  11
 4731.4698754477
  21
 4785.7135434335
  31
0.0
   0
LINE
   5
211
 100
AcDbEntity
   8
LEVEL001
 370
13
 100
AcDbLine
   6
DASHDOT
  62
6
  10
 4711.4698754477
  20
 4765.7135434335
  30
0.0
  11
 4711.4698754477
  21
 4805.7135434335
  31
0.0
   0
LINE
   5
212
 100
AcDbEntity
   8
LEVEL001
 370
13
 100
AcDbLine
   6
CONTINUOUS
  62
6
  10
 4505.6478664123
  20
 4836.3828481737
  30
0.0
  11
 4294.3102841122
  21
 4825.0644889673
  31
0.0
   0
LINE
   5
213
 100
AcDbEntity
   8
LEVEL001
 370
13
 100
AcDbLine
   6
CONTINUOUS
  62
6
  10
 4505.6475612365
  20
 4805.0443476641
  30
0.0
  11
 4294.3099789365
  21
 4816.3627068704
  31
0.0
   0
LINE
   5
214
 100
AcDbEntity
   8
LEVEL001
 370
13
 100
AcDbLine
   6
CONTINUOUS
  62
6
  10
 4602.1282726895
  20
 4972.1543305255
  30
0.0
  11
 4486.6576933554
  21
 5149.5191350115
  31
0.0
   0
LINE
   5
215
 100
AcDbEntity
   8
LEVEL001
 370
13
 100
AcDbLine
   6
CONTINUOUS
  62
6
  10
 4574.9886856915
  20
 4956.4856906223
  30
0.0
  11
 4479.1219879013
  21
 5145.1685491388
  31
0.0
   0
LINE
   5
216
 100
AcDbEntity
   8
LEVEL001
 370
13
 100
AcDbLine
   6
CONTINUOUS
  62
6
  10
 4602.1288830410
  20
 4669.2728653122
  30
0.0
  11
 4486.6579985312
  21
 4491.9083660021
  31
0.0
   0
LINE
   5
217
 100
AcDbEntity
   8
LEVEL001
 370
13
 100
AcDbLine
   6
CONTINUOUS
  62
6
  10
 4574.9886856915
  20
 4684.9418103913
  30
0.0
  11
 4479.1219879013
  21
 4496.2589518747
  31
0.0
   0
LINE
   5
218
 100
AcDbEntity
   8
LEVEL001
 370
13
 100
AcDbLine
   6
CONTINUOUS
  62
6
  10
 4767.9510241248
  20
 4956.4853854465
  30
0.0
  11
 4863.8177219150
  21
 5145.1679387873
  31
0.0
   0
LINE
   5
219
 100
AcDbEntity
   8
LEVEL001
 370
13
 100
AcDbLine
   6
CONTINUOUS
  62
6
  10
 4740.8114371268
  20
 4972.1546357013
  30
0.0
  11
 4856.2823216366
  21
 5149.5191350115
  31
0.0
   0
LINE
   5
21A
 100
AcDbEntity
   8
LEVEL001
 370
13
 100
AcDbLine
   6
CONTINUOUS
  62
6
  10
 4837.2924537555
  20
 4836.3825429979
  30
0.0
  11
 5048.6297308798
  21
 4825.0644889673
  31
0.0
   0
LINE
   5
21B
 100
AcDbEntity
   8
LEVEL001
 370
13
 100
AcDbLine
   6
CONTINUOUS
  62
6
  10
 4837.2924537555
  20
 4805.0446528399
  30
0.0
  11
 5048.6300360556
  21
 4816.3630120462
  31
0.0
   0
LINE
   5
21C
 100
AcDbEntity
   8
LEVEL001
 370
13
 100
AcDbLine
   6
CONTINUOUS
  62
6
  10
 4767.9507189490
  20
 4684.9415052155
  30
0.0
  11
 4863.8177219150
  21
 4496.2586466990
  31
0.0
   0
LINE
   5
21D
 100
AcDbEntity
   8
LEVEL001
 370
13
 100
AcDbLine
   6
CONTINUOUS
  62
6
  10
 4740.8114371268
  20
 4669.2722549607
  30
0.0
  11
 4856.2820164609
  21
 4491.9080608263
  31
0.0
   0
LINE
   5
21E
 100
AcDbEntity
   8
LEVEL001
 370
13
 100
AcDbLine
   6
DASHDOT
  62
6
  10
 5221.4698501589
  20
 4820.7134831533
  30
0.0
  11
 4121.4698501589
  21
 4820.7134831533
  31
0.0
   0
LINE
   5
21F
 100
AcDbEntity
   8
LEVEL001
 370
13
 100
AcDbLine
   6
DASHDOT
  62
6
  10
 4671.4699357279
  20
 5404.0359096432
  30
0.0
  11
 4671.4699357279
  21
 4270.7135181446
  31
0.0
   0
ARC
   5
220
 100
AcDbEntity
   8
LEVEL001
 370
13
   6
CONTINUOUS
  62
1
 100
AcDbCircle
  10
 4671.4697396526
  20
 4320.7134831533
  30
0.0
  40
 7.5000000000000
 100
AcDbArc
  50
 179.57028586276
  51
 0.42973061259227
   0
ARC
   5
221
 100
AcDbEntity
   8
LEVEL001
 370
13
   6
CONTINUOUS
  62
1
 100
AcDbCircle
  10
 4363.6389867504
  20
 4426.7080620915
  30
0.0
  40
 7.5000000000000
 100
AcDbArc
  50
 141.57028586228
  51
 322.42973061316
   0
ARC
   5
222
 100
AcDbEntity
   8
LEVEL001
 370
13
   6
CONTINUOUS
  62
1
 100
AcDbCircle
  10
 4979.3004620762
  20
 4426.7081506082
  30
0.0
  40
 7.5000000000000
 100
AcDbArc
  50
 217.57028586158
  51
 38.429730613773
   0
LWPOLYLINE
   5
223
 100
AcDbEntity
   8
LEVEL001
 370
13
   6
CONTINUOUS
  62
7
 100
AcDbPolyline
  90
4
  70
1
  10
 3357.8819288070
  20
 4693.7134831533
  10
 3343.8819288070
  20
 4693.7134831533
  10
 3343.8819288070
  20
 4707.7134831533
  10
 3357.8819288070
  20
 4707.7134831533
   0
LINE
   5
224
 100
AcDbEntity
   8
LEVEL001
 370
13
 100
AcDbLine
   6
CONTINUOUS
  62
6
  10
 3371.3172119820
  20
 4738.2134831533
  30
0.0
  11
 3371.3172119820
  21
 4680.7134831533
  31
0.0
   0
LWPOLYLINE
   5
225
 100
AcDbEntity
   8
LEVEL001
 370
13
   6
CONTINUOUS
  62
7
 100
AcDbPolyline
  90
4
  70
1
  10
 3357.8819288070
  20
 4763.7134831533
  10
 3343.8819288070
  20
 4763.7134831533
  10
 3343.8819288070
  20
 4777.7134831533
  10
 3357.8819288070
  20
 4777.7134831533
   0
LWPOLYLINE
   5
226
 100
AcDbEntity
   8
LEVEL001
 370
13
   6
CONTINUOUS
  62
7
 100
AcDbPolyline
  90
4
  70
1
  10
 3485.0579426488
  20
 4827.7134831533
  10
 3499.0579426488
  20
 4827.7134831533
  10
 3499.0579426488
  20
 4813.7134831533
  10
 3485.0579426488
  20
 4813.7134831533
   0
LINE
   5
227
 100
AcDbEntity
   8
LEVEL001
 370
13
 100
AcDbLine
   6
CONTINUOUS
  62
6
  10
 3371.3172119820
  20
 4790.7134831533
  30
0.0
  11
 3371.3172119820
  21
 4738.2134831533
  31
0.0
   0
LINE
   5
228
 100
AcDbEntity
   8
LEVEL001
 370
13
 100
AcDbLine
   6
CONTINUOUS
  62
6
  10
 3471.6226594738
  20
 4800.7134831533
  30
0.0
  11
 3471.6226594738
  21
 4858.2134831533
  31
0.0
   0
LWPOLYLINE
   5
229
 100
AcDbEntity
   8
LEVEL001
 370
13
   6
CONTINUOUS
  62
7
 100
AcDbPolyline
  90
6
  70
0
  10
 3475.4699357279
  20
 4690.7134831533
  10
 3475.4699357279
  20
 4675.7134831533
  10
 3330.8819288070
  20
 4675.7134831533
  10
 3330.8819288070
  20
 4795.7134831533
  10
 3475.4699357279
  20
 4795.7134831533
  10
 3475.4699357279
  20
 4765.7134831533
   0
LWPOLYLINE
   5
22A
 100
AcDbEntity
   8
LEVEL001
 370
13
   6
CONTINUOUS
  62
7
 100
AcDbPolyline
  90
4
  70
1
  10
 3485.0579426488
  20
 4897.7134831533
  10
 3499.0579426488
  20
 4897.7134831533
  10
 3499.0579426488
  20
 4883.7134831533
  10
 3485.0579426488
  20
 4883.7134831533
   0
LWPOLYLINE
   5
22B
 100
AcDbEntity
   8
LEVEL001
 370
13
   6
CONTINUOUS
  62
7
 100
AcDbPolyline
  90
4
  70
0
  10
 3370.6699357281
  20
 4915.7134831533
  10
 3370.6699357281
  20
 5120.7134831461
  10
 3472.2699357281
  20
 5120.7134831461
  10
 3472.2699357281
  20
 4915.7134831533
   0
LINE
   5
22C
 100
AcDbEntity
   8
LEVEL001
 370
13
 100
AcDbLine
   6
CONTINUOUS
  62
6
  10
 3471.6226594738
  20
 4858.2134831533
  30
0.0
  11
 3471.6226594738
  21
 4910.7134831533
  31
0.0
   0
LINE
   5
22D
 100
AcDbEntity
   8
LEVEL001
 370
13
 100
AcDbLine
   6
DASHDOT
  62
6
  10
 3193.4541819863
  20
 4820.7134831533
  30
0.0
  11
 2815.3852797020
  21
 4820.7134831533
  31
0.0
   0
CIRCLE
   5
22E
 100
AcDbEntity
   8
LEVEL001
 370
13
 100
AcDbCircle
   6
CONTINUOUS
  62
1
  10
 2899.9445868934
  20
 5034.9809418559
  30
0.0
  40
 7.5000000000000
   0
ARC
   5
22F
 100
AcDbEntity
   8
LEVEL001
 370
13
   6
CONTINUOUS
  62
1
 100
AcDbCircle
  10
 2899.9445868934
  20
 4320.7134831533
  30
0.0
  40
 7.5000000000000
 100
AcDbArc
  50
 180.00000000000
  51
0.0
   0
CIRCLE
   5
230
 100
AcDbEntity
   8
LEVEL001
 370
13
 100
AcDbCircle
   6
CONTINUOUS
  62
1
  10
 2899.9445868934
  20
 4426.7081506083
  30
0.0
  40
 7.5000000000000
   0
CIRCLE
   5
231
 100
AcDbEntity
   8
LEVEL001
 370
13
 100
AcDbCircle
   6
CONTINUOUS
  62
1
  10
 2899.9445868934
  20
 4699.7526051055
  30
0.0
  40
 7.5000000000000
   0
LWPOLYLINE
   5
232
 100
AcDbEntity
   8
LEVEL001
 370
13
   6
CONTINUOUS
  62
7
 100
AcDbPolyline
  90
4
  70
0
  10
 2914.9445868934
  20
 4765.7134831533
  10
 3001.5531684448
  20
 4765.7134831533
  10
 3001.5531684448
  20
 4875.7134831533
  10
 2914.9445868934
  20
 4875.7134831533
   0
CIRCLE
   5
233
 100
AcDbEntity
   8
LEVEL001
 370
13
 100
AcDbCircle
   6
CONTINUOUS
  62
1
  10
 2899.9445868934
  20
 5209.0980158147
  30
0.0
  40
 7.5000000000000
   0
CIRCLE
   5
234
 100
AcDbEntity
   8
LEVEL001
 370
13
 100
AcDbCircle
   6
CONTINUOUS
  62
1
  10
 2899.9445868934
  20
 5310.4378770818
  30
0.0
  40
 7.5000000000000
   0
LWPOLYLINE
   5
235
 100
AcDbEntity
   8
LEVEL001
 370
13
   6
CONTINUOUS
  62
7
 100
AcDbPolyline
  90
4
  70
1
  10
 2969.5531684448
  20
 4843.7134831533
  10
 2983.5531684448
  20
 4843.7134831533
  10
 2983.5531684448
  20
 4857.7134831533
  10
 2969.5531684448
  20
 4857.7134831533
   0
LWPOLYLINE
   5
236
 100
AcDbEntity
   8
LEVEL001
 370
13
   6
CONTINUOUS
  62
7
 100
AcDbPolyline
  90
4
  70
1
  10
 2969.5531684448
  20
 4783.7134831533
  10
 2983.5531684448
  20
 4783.7134831533
  10
 2983.5531684448
  20
 4797.7134831533
  10
 2969.5531684448
  20
 4797.7134831533
   0
ARC
   5
237
 100
AcDbEntity
   8
LEVEL001
 370
13
   6
CONTINUOUS
  62
7
 100
AcDbCircle
  10
 3019.4945575728
  20
 4816.2988969722
  30
0.0
  40
 8.0000000000000
 100
AcDbArc
  50
 324.99999999999
  51
 144.99999999999
   0
ARC
   5
238
 100
AcDbEntity
   8
LEVEL001
 370
13
   6
CONTINUOUS
  62
7
 100
AcDbCircle
  10
 2970.3454349155
  20
 4850.7134831533
  30
0.0
  40
 52.000000000000
 100
AcDbArc
  50
 306.88054979701
  51
 325.00000000001
   0
ARC
   5
239
 100
AcDbEntity
   8
LEVEL001
 370
13
   6
CONTINUOUS
  62
7
 100
AcDbCircle
  10
 2970.3454349155
  20
 4850.7134831533
  30
0.0
  40
 68.000000000000
 100
AcDbArc
  50
 297.31855192773
  51
 325.00000000000
   0
LINE
   5
23A
 100
AcDbEntity
   8
LEVEL001
 370
13
 100
AcDbLine
   6
CONTINUOUS
  62
6
  10
 3050.3454349155
  20
 4770.7134831533
  30
0.0
  11
 3050.3454349155
  21
 4870.7134831533
  31
0.0
   0
LWPOLYLINE
   5
23B
 100
AcDbEntity
   8
LEVEL001
 370
13
   6
CONTINUOUS
  62
7
 100
AcDbPolyline
  90
4
  70
0
  10
 3001.5531684448
  20
 4765.7134831533
  10
 3163.1287898823
  20
 4765.7134831533
  10
 3163.1287898823
  20
 4875.7134831533
  10
 3001.5531684448
  20
 4875.7134831533
   0
LWPOLYLINE
   5
23C
 100
AcDbEntity
   8
LEVEL001
 370
13
   6
CONTINUOUS
  62
7
 100
AcDbPolyline
  90
4
  70
1
  10
 3136.1287898823
  20
 4843.7134831533
  10
 3150.1287898823
  20
 4843.7134831533
  10
 3150.1287898823
  20
 4857.7134831533
  10
 3136.1287898823
  20
 4857.7134831533
   0
LINE
   5
23D
 100
AcDbEntity
   8
LEVEL001
 370
13
 100
AcDbLine
   6
CONTINUOUS
  62
6
  10
 3123.5567994362
  20
 4870.7134831533
  30
0.0
  11
 3123.5567994362
  21
 4770.7134831533
  31
0.0
   0
LWPOLYLINE
   5
23E
 100
AcDbEntity
   8
LEVEL001
 370
13
   6
CONTINUOUS
  62
7
 100
AcDbPolyline
  90
4
  70
1
  10
 3136.1287898823
  20
 4783.7134831533
  10
 3150.1287898823
  20
 4783.7134831533
  10
 3150.1287898823
  20
 4797.7134831533
  10
 3136.1287898823
  20
 4797.7134831533
   0
LINE
   5
23F
 100
AcDbEntity
   8
LEVEL001
 370
13
 100
AcDbLine
   6
DASHDOT
  62
6
  10
 3088.1287727797
  20
 4910.7134831533
  30
0.0
  11
 3088.1287727797
  21
 4655.7134831533
  31
0.0
   0
LWPOLYLINE
   5
240
 100
AcDbEntity
   8
LEVEL001
 370
13
   6
CONTINUOUS
  62
7
 100
AcDbPolyline
  90
4
  70
1
  10
 3121.0367125511
  20
 4680.7134831533
  10
 3371.0367125511
  20
 4819.2907460165
  10
 3371.0367125511
  20
 4905.0423011070
  10
 3121.0367125511
  20
 4766.4650382438
   0
LWPOLYLINE
   5
241
 100
AcDbEntity
   8
LEVEL001
 370
13
   6
CONTINUOUS
  62
7
 100
AcDbPolyline
  90
4
  70
0
  10
 3049.9787727797
  20
 4765.7134831533
  10
 3049.9787727797
  20
 4675.7134831533
  10
 3126.2787727797
  20
 4675.7134831533
  10
 3126.2787727797
  20
 4683.6192045862
   0
LWPOLYLINE
   5
242
 100
AcDbEntity
   8
LEVEL001
 370
13
   6
CONTINUOUS
  62
7
 100
AcDbPolyline
  90
6
  70
0
  10
 3367.4699357279
  20
 4903.0652044294
  10
 3367.4699357279
  20
 4915.7134831533
  10
 3512.0579426488
  20
 4915.7134831533
  10
 3512.0579426488
  20
 4795.7134831533
  10
 3367.4699357279
  20
 4795.7134831533
  10
 3367.4699357279
  20
 4817.3136493389
   0
LWPOLYLINE
   5
243
 100
AcDbEntity
   8
LEVEL001
 370
13
   6
CONTINUOUS
  62
7
 100
AcDbPolyline
  90
4
  70
1
  10
 3471.5494724670
  20
 4765.7134831533
  10
 3471.5494724670
  20
 4690.7134831533
  10
 3721.5494724670
  20
 4690.7134831533
  10
 3721.5494724670
  20
 4765.7134831533
   0
LINE
   5
244
 100
AcDbEntity
   8
LEVEL001
 370
13
 100
AcDbLine
   6
CONTINUOUS
  62
6
  10
 1596.6226594738
  20
 4805.7134416250
  30
0.0
  11
 1596.6226594738
  21
 4905.7134416250
  31
0.0
   0
LINE
   5
245
 100
AcDbEntity
   8
LEVEL001
 370
13
 100
AcDbLine
   6
CONTINUOUS
  62
6
  10
 1496.3172119820
  20
 4795.7134416250
  30
0.0
  11
 1496.3172119820
  21
 4695.7134416250
  31
0.0
   0
LINE
   5
246
 100
AcDbEntity
   8
LEVEL001
 370
13
 100
AcDbLine
   6
CONTINUOUS
  62
7
  10
 1495.6699357281
  20
 4120.7134831461
  30
0.0
  11
 1495.6699357281
  21
 4690.7134416250
  31
0.0
   0
LINE
   5
247
 100
AcDbEntity
   8
LEVEL001
 370
13
 100
AcDbLine
   6
CONTINUOUS
  62
7
  10
 1597.2699357281
  20
 4690.7134416250
  30
0.0
  11
 1597.2699357281
  21
 4120.7134831461
  31
0.0
   0
LWPOLYLINE
   5
248
 100
AcDbEntity
   8
LEVEL001
 370
13
   6
CONTINUOUS
  62
5
 100
AcDbPolyline
  90
7
  70
1
  10
 1546.4699357281
  20
 4080.7134831461
  10
 1510.1699368099
  20
 4034.5134845229
  10
 1529.9699362198
  20
 4034.5134845229
  10
 1529.9699362198
  20
 4014.7134851130
  10
 1562.9699352363
  20
 4014.7134851130
  10
 1562.9699352363
  20
 4034.5134845229
  10
 1582.7699346463
  20
 4034.5134845229
   0
ARC
   5
249
 100
AcDbEntity
   8
LEVEL001
 370
13
   6
CONTINUOUS
  62
7
 100
AcDbCircle
  10
 1601.4699357281
  20
 4100.7134831461
  30
0.0
  40
 20.000000000000
 100
AcDbArc
  50
0.0
  51
 90.000000000000
   0
ARC
   5
24A
 100
AcDbEntity
   8
LEVEL001
 370
13
   6
CONTINUOUS
  62
7
 100
AcDbCircle
  10
 1491.4699357281
  20
 4100.7134831461
  30
0.0
  40
 20.000000000000
 100
AcDbArc
  50
 90.000000000000
  51
 180.00000000000
   0
LINE
   5
24B
 100
AcDbEntity
   8
LEVEL001
 370
13
 100
AcDbLine
   6
CONTINUOUS
  62
7
  10
 1471.4699357281
  20
 4100.7134831461
  30
0.0
  11
 1471.4699357281
  21
 3740.7134831461
  31
0.0
   0
LINE
   5
24C
 100
AcDbEntity
   8
LEVEL001
 370
13
 100
AcDbLine
   6
CONTINUOUS
  62
7
  10
 1621.4699357281
  20
 3740.7134831461
  30
0.0
  11
 1621.4699357281
  21
 4100.7134831461
  31
0.0
   0
LINE
   5
24D
 100
AcDbEntity
   8
LEVEL001
 370
13
 100
AcDbLine
   6
CONTINUOUS
  62
7
  10
 1601.4699357281
  20
 4120.7134831461
  30
0.0
  11
 1491.4699357281
  21
 4120.7134831461
  31
0.0
   0
ARC
   5
24E
 100
AcDbEntity
   8
LEVEL001
 370
13
   6
CONTINUOUS
  62
7
 100
AcDbCircle
  10
 1491.4699357281
  20
 3740.7134831461
  30
0.0
  40
 20.000000000000
 100
AcDbArc
  50
 180.00000000000
  51
 270.00000000000
   0
ARC
   5
24F
 100
AcDbEntity
   8
LEVEL001
 370
13
   6
CONTINUOUS
  62
7
 100
AcDbCircle
  10
 1601.4699357281
  20
 3740.7134831461
  30
0.0
  40
 20.000000000000
 100
AcDbArc
  50
 270.00000000000
  51
 360.00000000000
   0
LINE
   5
250
 100
AcDbEntity
   8
LEVEL001
 370
13
 100
AcDbLine
   6
CONTINUOUS
  62
7
  10
 1491.4699357281
  20
 3720.7134831461
  30
0.0
  11
 1601.4699357281
  21
 3720.7134831461
  31
0.0
   0
LWPOLYLINE
   5
251
 100
AcDbEntity
   8
LEVEL001
 370
13
   6
CONTINUOUS
  62
7
 100
AcDbPolyline
  90
4
  70
0
  10
 1597.2699357279
  20
 3720.7134831461
  10
 1597.2699357279
  20
 320.71348314607
  10
 1495.6699357279
  20
 320.71348314607
  10
 1495.6699357279
  20
 3720.7134831461
   0
LINE
   5
252
 100
AcDbEntity
   8
LEVEL001
 370
13
 100
AcDbLine
   6
CONTINUOUS
  62
7
  10
 3358.5421526783
  20
 4120.7134831469
  30
0.0
  11
 3355.8282459147
  21
 4113.9287162380
  31
0.0
   0
ARC
   5
253
 100
AcDbEntity
   8
LEVEL001
 370
13
   6
CONTINUOUS
  62
7
 100
AcDbCircle
  10
 3360.4706293692
  20
 4112.0717628563
  30
0.0
  40
 5.0000000000000
 100
AcDbArc
  50
 158.19859051364
  51
 179.99999999998
   0
ARC
   5
254
 100
AcDbEntity
   8
LEVEL001
 370
13
   6
CONTINUOUS
  62
7
 100
AcDbCircle
  10
 3354.4706293692
  20
 4104.8658366878
  30
0.0
  40
 5.0000000000000
 100
AcDbArc
  50
 0.20844083160439E-10
  51
 21.801409486356
   0
LINE
   5
255
 100
AcDbEntity
   8
LEVEL001
 370
13
 100
AcDbLine
   6
CONTINUOUS
  62
7
  10
 3357.3107419689
  20
 4111.2284672063
  30
0.0
  11
 3359.1130128236
  21
 4106.7227900696
  31
0.0
   0
ARC
   5
256
 100
AcDbEntity
   8
LEVEL001
 370
13
   6
CONTINUOUS
  62
7
 100
AcDbCircle
  10
 3361.9531254233
  20
 4113.0854205881
  30
0.0
  40
 5.0000000000000
 100
AcDbArc
  50
 158.19859051366
  51
 201.80140948634
   0
LWPOLYLINE
   5
257
 100
AcDbEntity
   8
LEVEL001
 370
13
   6
CONTINUOUS
  62
7
 100
AcDbPolyline
  90
3
  70
0
  10
 3358.5421526783
  20
 4120.7134831469
  10
 3359.4706293692
  20
 4120.3420924705
  10
 3357.3107419689
  20
 4114.9423739698
   0
LINE
   5
258
 100
AcDbEntity
   8
LEVEL001
 370
13
 100
AcDbLine
   6
CONTINUOUS
  62
7
  10
 3355.4706293692
  20
 4112.0717628563
  30
0.0
  11
 3355.4706293692
  21
 3729.3552034359
  31
0.0
   0
LINE
   5
259
 100
AcDbEntity
   8
LEVEL001
 370
13
 100
AcDbLine
   6
CONTINUOUS
  62
7
  10
 3359.4706293692
  20
 4104.8658366878
  30
0.0
  11
 3359.4706293692
  21
 3736.5611296043
  31
0.0
   0
LINE
   5
25A
 100
AcDbEntity
   8
LEVEL001
 370
13
 100
AcDbLine
   6
CONTINUOUS
  62
6
  10
 3362.4706293692
  20
 3955.7135439042
  30
0.0
  11
 3362.4706293692
  21
 3956.7134828652
  31
0.0
   0
LINE
   5
25B
 100
AcDbEntity
   8
LEVEL001
 370
13
 100
AcDbLine
   6
CONTINUOUS
  62
7
  10
 3362.9261081482
  20
 3941.7131167128
  30
0.0
  11
 3362.9265659122
  21
 3899.7132084294
  31
0.0
   0
LWPOLYLINE
   5
25C
 100
AcDbEntity
   8
LEVEL001
 370
13
   6
CONTINUOUS
  62
7
 100
AcDbPolyline
  90
4
  70
0
  10
 3362.9265386613
  20
 3902.2134831461
  10
 3493.4707520477
  20
 3902.2134831461
  10
 3493.4707520477
  20
 3939.2134831461
  10
 3362.9261353922
  20
 3939.2134831461
   0
LINE
   5
25D
 100
AcDbEntity
   8
LEVEL001
 370
13
 100
AcDbLine
   6
CONTINUOUS
  62
7
  10
 3362.4706293692
  20
 3956.7134828652
  30
0.0
  11
 3359.4706293692
  21
 3956.7134828652
  31
0.0
   0
LINE
   5
25E
 100
AcDbEntity
   8
LEVEL001
 370
13
 100
AcDbLine
   6
CONTINUOUS
  62
6
  10
 3359.4706293692
  20
 3955.7135439042
  30
0.0
  11
 3362.4706293692
  21
 3955.7135439042
  31
0.0
   0
ELLIPSE
   5
25F
 100
AcDbEntity
   8
LEVEL001
 370
13
   6
CONTINUOUS
  62
7
 100
AcDbEllipse
  10
 3358.9261055985
  20
 3941.7132386640
  30
0.0
  11
 4.0000025516047
  21
0.0
  31
0.0
  40
 0.99999938800000
  41
-0.30487803780477E-4
  42
 1.4342414715498
   0
LWPOLYLINE
   5
260
 100
AcDbEntity
   8
LEVEL001
 370
13
   6
CONTINUOUS
  62
6
 100
AcDbPolyline
  90
3
  70
0
  10
 3362.4706293692
  20
 3884.7134831461
  10
 3362.4706293692
  20
 3885.7135136598
  10
 3359.4706293692
  20
 3885.7135136598
   0
ELLIPSE
   5
261
 100
AcDbEntity
   8
LEVEL001
 370
13
   6
CONTINUOUS
  62
7
 100
AcDbEllipse
  10
 3358.9265633611
  20
 3899.7132695819
  30
0.0
  11
 4.0000025516047
  21
0.0
  31
0.0
  40
 0.99999938800000
  41
-1.4343569865528
  42
-0.15288126351787E-4
   0
LINE
   5
262
 100
AcDbEntity
   8
LEVEL001
 370
13
 100
AcDbLine
   6
CONTINUOUS
  62
7
  10
 3359.4706293692
  20
 3884.7134831461
  30
0.0
  11
 3362.4706293692
  21
 3884.7134831461
  31
0.0
   0
LINE
   5
263
 100
AcDbEntity
   8
LEVEL001
 370
13
 100
AcDbLine
   6
CONTINUOUS
  62
6
  10
 3472.2987530472
  20
 3928.2134831461
  30
0.0
  11
 3472.2987530472
  21
 3937.2134831461
  31
0.0
   0
LINE
   5
264
 100
AcDbEntity
   8
LEVEL001
 370
13
 100
AcDbLine
   6
CONTINUOUS
  62
6
  10
 3371.4930020196
  20
 3928.2134831461
  30
0.0
  11
 3371.4930020196
  21
 3937.2134831461
  31
0.0
   0
LINE
   5
265
 100
AcDbEntity
   8
LEVEL001
 370
13
 100
AcDbLine
   6
CONTINUOUS
  62
6
  10
 3472.2987530472
  20
 3904.2134831461
  30
0.0
  11
 3472.2987530472
  21
 3913.2134831461
  31
0.0
   0
LINE
   5
266
 100
AcDbEntity
   8
LEVEL001
 370
13
 100
AcDbLine
   6
CONTINUOUS
  62
6
  10
 3474.6172780886
  20
 3914.2134831461
  30
0.0
  11
 3474.6172780886
  21
 3927.2134831461
  31
0.0
   0
LINE
   5
267
 100
AcDbEntity
   8
LEVEL001
 370
13
 100
AcDbLine
   6
CONTINUOUS
  62
6
  10
 3472.2987530472
  20
 3927.2134831461
  30
0.0
  11
 3372.7538965892
  21
 3927.2134831461
  31
0.0
   0
LINE
   5
268
 100
AcDbEntity
   8
LEVEL001
 370
13
 100
AcDbLine
   6
CONTINUOUS
  62
6
  10
 3372.7538965892
  20
 3914.2134831461
  30
0.0
  11
 3472.2987530472
  21
 3914.2134831461
  31
0.0
   0
LINE
   5
269
 100
AcDbEntity
   8
LEVEL001
 370
13
 100
AcDbLine
   6
CONTINUOUS
  62
6
  10
 3371.4930020196
  20
 3915.2134831461
  30
0.0
  11
 3371.4930020196
  21
 3926.2134831461
  31
0.0
   0
LINE
   5
26A
 100
AcDbEntity
   8
LEVEL001
 370
13
 100
AcDbLine
   6
CONTINUOUS
  62
6
  10
 3371.4930020196
  20
 3904.2134831461
  30
0.0
  11
 3371.4930020196
  21
 3913.2134831461
  31
0.0
   0
LWPOLYLINE
   5
26B
 100
AcDbEntity
   8
LEVEL001
 370
13
   6
CONTINUOUS
  62
7
 100
AcDbPolyline
  90
4
  70
1
  10
 3478.4707520477
  20
 3915.7134831461
  10
 3488.4707520477
  20
 3915.7134831461
  10
 3488.4707520477
  20
 3925.7134831461
  10
 3478.4707520477
  20
 3925.7134831461
   0
ARC
   5
26C
 100
AcDbEntity
   8
LEVEL001
 370
13
   6
CONTINUOUS
  62
7
 100
AcDbCircle
  10
 3360.4706293692
  20
 3729.3552034359
  30
0.0
  40
 5.0000000000000
 100
AcDbArc
  50
 180.00000000000
  51
 201.80140948636
   0
LINE
   5
26D
 100
AcDbEntity
   8
LEVEL001
 370
13
 100
AcDbLine
   6
CONTINUOUS
  62
7
  10
 3358.5421526783
  20
 3720.7134831453
  30
0.0
  11
 3355.8282459147
  21
 3727.4982500541
  31
0.0
   0
ARC
   5
26E
 100
AcDbEntity
   8
LEVEL001
 370
13
   6
CONTINUOUS
  62
7
 100
AcDbCircle
  10
 3354.4706293692
  20
 3736.5611296043
  30
0.0
  40
 5.0000000000000
 100
AcDbArc
  50
 338.19859051364
  51
0.0
   0
LINE
   5
26F
 100
AcDbEntity
   8
LEVEL001
 370
13
 100
AcDbLine
   6
CONTINUOUS
  62
7
  10
 3357.3107419689
  20
 3730.1984990858
  30
0.0
  11
 3359.1130128236
  21
 3734.7041762226
  31
0.0
   0
ARC
   5
270
 100
AcDbEntity
   8
LEVEL001
 370
13
   6
CONTINUOUS
  62
7
 100
AcDbCircle
  10
 3361.9531254233
  20
 3728.3415457041
  30
0.0
  40
 5.0000000000000
 100
AcDbArc
  50
 158.19859051364
  51
 201.80140948636
   0
LWPOLYLINE
   5
271
 100
AcDbEntity
   8
LEVEL001
 370
13
   6
CONTINUOUS
  62
7
 100
AcDbPolyline
  90
3
  70
0
  10
 3358.5421526783
  20
 3720.7134831453
  10
 3359.4706293692
  20
 3721.0848738216
  10
 3357.3107419689
  20
 3726.4845923223
   0
LWPOLYLINE
   5
272
 100
AcDbEntity
   8
LEVEL001
 370
13
   6
CONTINUOUS
  62
7
 100
AcDbPolyline
  90
4
  70
0
  10
 3472.2699357279
  20
 3902.2134831461
  10
 3472.2699357279
  20
 320.71348314607
  10
 3370.6699357279
  20
 320.71348314607
  10
 3370.6699357279
  20
 3902.2134831461
   0
CIRCLE
   5
273
 100
AcDbEntity
   8
LEVEL001
 370
13
 100
AcDbCircle
   6
CONTINUOUS
  62
1
  10
 3671.4699357279
  20
 3820.7134831453
  30
0.0
  40
 69.999997913838
   0
CIRCLE
   5
274
 100
AcDbEntity
   8
LEVEL001
 370
13
 100
AcDbCircle
   6
CONTINUOUS
  62
1
  10
 3811.4699315556
  20
 3820.7134831453
  30
0.0
  40
 69.999997913838
   0
MTEXT
   5
276
 100
AcDbEntity
   8
LEVEL001
 370
13
  62
7
 100
AcDbMText
  10
 3671.4699357279
  20
 3820.7134831453
  30
0.0
  40
 66.000000000000
  41
0.0
  71
5
  72
1
   1
\T1.000000;１６
   7
GMM001
  44
 0.79999984000003
   0
MTEXT
   5
278
 100
AcDbEntity
   8
LEVEL001
 370
13
  62
7
 100
AcDbMText
  10
 3811.4699315556
  20
 3820.7134831453
  30
0.0
  40
 66.000000000000
  41
0.0
  71
5
  72
1
   1
\T1.000000;１７
   7
GMM001
  44
 0.79999984000003
   0
LEADER
   5
279
 100
AcDbEntity
   8
LEVEL001
 370
13
   6
CONTINUOUS
  62
1
 100
AcDbLeader
   3
GMM001
  73
3
  74
1
  75
0
  40
 66.000000000000
  41
0.0
  76
2
  10
 3493.4707520477
  20
 3902.2134831461
  30
0.0
  10
 3607.8241693796
  20
 3849.8547963255
  30
0.0
  77
1
   0
LINE
   5
27A
 100
AcDbEntity
   8
LEVEL001
 370
13
 100
AcDbLine
   6
CONTINUOUS
  62
7
  10
 3472.2699357281
  20
 4675.7134831533
  30
0.0
  11
 3472.2699357281
  21
 3939.2134831461
  31
0.0
   0
LINE
   5
27B
 100
AcDbEntity
   8
LEVEL001
 370
13
 100
AcDbLine
   6
CONTINUOUS
  62
7
  10
 3370.6699357281
  20
 3939.2134831461
  30
0.0
  11
 3370.6699357281
  21
 4675.7134831533
  31
0.0
   0
DIMENSION
   5
27C
 100
AcDbEntity
   8
LEVEL001
 370
13
   6
CONTINUOUS
  62
6
 100
AcDbDimension
   2
*D8
  10
 1796.4699357279
  20
 1445.7134831461
  30
0.0
  11
 1831.6765820448
  21
 1445.7134831461
  31
0.0
  70
128
   3
GMM004
 100
AcDbAlignedDimension
  13
 1296.4699357279
  23
 1445.7134831461
  33
0.0
  14
 1796.4699357279
  24
 1445.7134831461
  34
0.0
 100
AcDbRotatedDimension
   0
DIMENSION
   5
27D
 100
AcDbEntity
   8
LEVEL001
 370
13
   6
CONTINUOUS
  62
6
 100
AcDbDimension
   2
*D9
  10
 3171.4699357279
  20
 1445.7134831461
  30
0.0
  11
 3136.2632894110
  21
 1445.7134831461
  31
0.0
  70
128
   3
GMM004
 100
AcDbAlignedDimension
  13
 3671.4699357279
  23
 1445.7134831461
  33
0.0
  14
 3171.4699357279
  24
 1445.7134831461
  34
0.0
  50
 180.00000000000
 100
AcDbRotatedDimension
   0
LINE
   5
27E
 100
AcDbEntity
   8
LEVEL001
 370
13
 100
AcDbLine
   6
CONTINUOUS
  62
5
  10
 1796.4699357279
  20
 1356.0688222054
  30
0.0
  11
 1597.2699357279
  21
 1156.8688222054
  31
0.0
   0
LINE
   5
27F
 100
AcDbEntity
   8
LEVEL001
 370
13
 100
AcDbLine
   6
CONTINUOUS
  62
5
  10
 1597.2699357279
  20
 1121.5134831461
  30
0.0
  11
 1796.4699357279
  21
 1320.7134831461
  31
0.0
   0
LINE
   5
280
 100
AcDbEntity
   8
LEVEL001
 370
13
 100
AcDbLine
   6
CONTINUOUS
  62
5
  10
 1796.4699357279
  20
 1285.3581440866
  30
0.0
  11
 1597.2699357279
  21
 1086.1581440866
  31
0.0
   0
LINE
   5
281
 100
AcDbEntity
   8
LEVEL001
 370
13
 100
AcDbLine
   6
CONTINUOUS
  62
5
  10
 1495.6699357279
  20
 984.55814408658
  30
0.0
  11
 1296.4699357279
  21
 785.35814408658
  31
0.0
   0
LINE
   5
282
 100
AcDbEntity
   8
LEVEL001
 370
13
 100
AcDbLine
   6
CONTINUOUS
  62
5
  10
 1296.4699357279
  20
 820.71348314608
  30
0.0
  11
 1495.6699357279
  21
 1019.9134831461
  31
0.0
   0
LINE
   5
283
 100
AcDbEntity
   8
LEVEL001
 370
13
 100
AcDbLine
   6
CONTINUOUS
  62
5
  10
 1495.6699357279
  20
 1055.2688222054
  30
0.0
  11
 1296.4699357279
  21
 856.06882220540
  31
0.0
   0
LINE
   5
284
 100
AcDbEntity
   8
LEVEL001
 370
13
 100
AcDbLine
   6
CONTINUOUS
  62
5
  10
 3370.6699357279
  20
 1055.2688222054
  30
0.0
  11
 3171.4699357279
  21
 856.06882220540
  31
0.0
   0
LINE
   5
285
 100
AcDbEntity
   8
LEVEL001
 370
13
 100
AcDbLine
   6
CONTINUOUS
  62
5
  10
 3171.4699357279
  20
 820.71348314608
  30
0.0
  11
 3370.6699357279
  21
 1019.9134831461
  31
0.0
   0
LINE
   5
286
 100
AcDbEntity
   8
LEVEL001
 370
13
 100
AcDbLine
   6
CONTINUOUS
  62
5
  10
 3370.6699357279
  20
 984.55814408658
  30
0.0
  11
 3171.4699357279
  21
 785.35814408658
  31
0.0
   0
LINE
   5
287
 100
AcDbEntity
   8
LEVEL001
 370
13
 100
AcDbLine
   6
CONTINUOUS
  62
5
  10
 3671.4699357279
  20
 1285.3581440866
  30
0.0
  11
 3472.2699357279
  21
 1086.1581440866
  31
0.0
   0
LINE
   5
288
 100
AcDbEntity
   8
LEVEL001
 370
13
 100
AcDbLine
   6
CONTINUOUS
  62
5
  10
 3472.2699357279
  20
 1121.5134831461
  30
0.0
  11
 3671.4699357279
  21
 1320.7134831461
  31
0.0
   0
LINE
   5
289
 100
AcDbEntity
   8
LEVEL001
 370
13
 100
AcDbLine
   6
CONTINUOUS
  62
5
  10
 3671.4699357279
  20
 1356.0688222054
  30
0.0
  11
 3472.2699357279
  21
 1156.8688222054
  31
0.0
   0
DIMENSION
   5
28A
 100
AcDbEntity
   8
LEVEL001
 370
13
   6
CONTINUOUS
  62
6
 100
AcDbDimension
   2
*D10
  10
 671.46993572792
  20
 320.71348314607
  30
0.0
  11
 671.46993572792
  21
 270.71348314607
  31
0.0
  70
0
   3
GMM005
 100
AcDbAlignedDimension
  13
 1296.4699357279
  23
 220.71348314607
  33
0.0
  14
 1296.4699357279
  24
 320.71348314607
  34
0.0
  50
 90.000000000000
 100
AcDbRotatedDimension
   0
DIMENSION
   5
28B
 100
AcDbEntity
   8
LEVEL001
 370
13
   6
CONTINUOUS
  62
6
 100
AcDbDimension
   2
*D11
  10
 671.46993572792
  20
 1820.7134831461
  30
0.0
  11
 671.46993572792
  21
 1070.7134831461
  31
0.0
  70
0
   3
GMM005
 100
AcDbAlignedDimension
  13
 1296.4699357279
  23
 320.71348314607
  33
0.0
  14
 996.47000096288
  24
 1820.7134831461
  34
0.0
  50
 90.000000000000
 100
AcDbRotatedDimension
   0
DIMENSION
   5
28C
 100
AcDbEntity
   8
LEVEL001
 370
13
   6
CONTINUOUS
  62
6
 100
AcDbDimension
   2
*D12
  10
 671.46993572792
  20
 4320.7134831461
  30
0.0
  11
 671.46993572792
  21
 3070.7134831461
  31
0.0
  70
0
   1
\A1;2500(標準設置高さ)
   3
GMM006
 100
AcDbAlignedDimension
  13
 996.47000096288
  23
 1820.7134831461
  33
0.0
  14
 946.47000761545
  24
 4320.7134831461
  34
0.0
  50
 90.000000000000
 100
AcDbRotatedDimension
   0
LEADER
   5
28D
 100
AcDbEntity
   8
LEVEL001
 370
13
   6
CONTINUOUS
  62
1
 100
AcDbLeader
   3
GMM007
  73
3
  74
1
  75
0
  40
 66.000000000000
  41
0.0
  76
2
  10
 2343.0015786643
  20
 5287.3910916475
  30
0.0
  10
 2491.6001612956
  20
 5402.2473174343
  30
0.0
  77
1
   0
CIRCLE
   5
28E
 100
AcDbEntity
   8
LEVEL001
 370
13
 100
AcDbCircle
   6
CONTINUOUS
  62
1
  10
 2546.4699357279
  20
 4320.7134831461
  30
0.0
  40
 69.999997913838
   0
MTEXT
   5
290
 100
AcDbEntity
   8
LEVEL001
 370
13
  62
7
 100
AcDbMText
  10
 2546.4699357279
  20
 4320.7134831461
  30
0.0
  40
 66.000000000000
  41
0.0
  71
5
  72
1
   1
\T1.000000;１
   7
GMM001
  44
 0.79999984000003
   0
LEADER
   5
291
 100
AcDbEntity
   8
LEVEL001
 370
13
   6
CONTINUOUS
  62
1
 100
AcDbLeader
   3
GMM001
  73
3
  74
1
  75
0
  40
 66.000000000000
  41
0.0
  76
2
  10
 2861.9125849932
  20
 4445.7134831461
  30
0.0
  10
 2611.8251721056
  20
 4345.7872300928
  30
0.0
  77
1
   0
LEADER
   5
292
 100
AcDbEntity
   8
LEVEL001
 370
13
   6
CONTINUOUS
  62
1
 100
AcDbLeader
   3
GMM001
  73
3
  74
1
  75
0
  40
 66.000000000000
  41
0.0
  76
2
  10
 2296.4699357279
  20
 4445.7134831461
  30
0.0
  10
 2483.7172809314
  20
 4351.7312848723
  30
0.0
  77
1
   0
CIRCLE
   5
293
 100
AcDbEntity
   8
LEVEL001
 370
13
 100
AcDbCircle
   6
CONTINUOUS
  62
1
  10
 2421.4699357279
  20
 4195.7134831461
  30
0.0
  40
 69.999997913838
   0
MTEXT
   5
295
 100
AcDbEntity
   8
LEVEL001
 370
13
  62
7
 100
AcDbMText
  10
 2421.4699357279
  20
 4195.7134831461
  30
0.0
  40
 66.000000000000
  41
0.0
  71
5
  72
1
   1
\T1.000000;４
   7
GMM001
  44
 0.79999984000003
   0
LEADER
   5
296
 100
AcDbEntity
   8
LEVEL001
 370
13
   6
CONTINUOUS
  62
1
 100
AcDbLeader
   3
GMM001
  73
3
  74
1
  75
0
  40
 66.000000000000
  41
0.0
  76
2
  10
 2296.4699357279
  20
 4343.7438824448
  30
0.0
  10
 2375.3073971913
  20
 4248.3349592161
  30
0.0
  77
1
   0
CIRCLE
   5
297
 100
AcDbEntity
   8
LEVEL001
 370
13
 100
AcDbCircle
   6
CONTINUOUS
  62
1
  10
 1796.4699357279
  20
 3820.7134831461
  30
0.0
  40
 70.000000000000
   0
MTEXT
   5
299
 100
AcDbEntity
   8
LEVEL001
 370
13
  62
7
 100
AcDbMText
  10
 1796.4699357279
  20
 3820.7134831461
  30
0.0
  40
 66.000000000000
  41
0.0
  71
5
  72
1
   1
\T1.000000;１５
   7
GMM001
  44
 0.79999984000003
   0
LEADER
   5
29A
 100
AcDbEntity
   8
LEVEL001
 370
13
   6
CONTINUOUS
  62
1
 100
AcDbLeader
   3
GMM001
  73
3
  74
1
  75
0
  40
 66.000000000000
  41
0.0
  76
2
  10
 1621.4699357281
  20
 3920.7134831461
  30
0.0
  10
 1734.3097163689
  20
 3852.9021011536
  30
0.0
  77
1
   0
CIRCLE
   5
29B
 100
AcDbEntity
   8
LEVEL001
 370
13
 100
AcDbCircle
   6
CONTINUOUS
  62
1
  10
 3671.4699357279
  20
 4320.7134831461
  30
0.0
  40
 69.999997913838
   0
MTEXT
   5
29D
 100
AcDbEntity
   8
LEVEL001
 370
13
  62
7
 100
AcDbMText
  10
 3671.4699357279
  20
 4320.7134831461
  30
0.0
  40
 66.000000000000
  41
0.0
  71
5
  72
1
   1
\T1.000000;１０
   7
GMM001
  44
 0.79999984000003
   0
MTEXT
   5
29F
 100
AcDbEntity
   8
LEVEL001
 370
13
  62
7
 100
AcDbMText
  10
 3811.4699315556
  20
 4320.7134831461
  30
0.0
  40
 66.000000000000
  41
0.0
  71
5
  72
1
   1
\T1.000000;１１
   7
GMM001
  44
 0.79999984000003
   0
CIRCLE
   5
2A0
 100
AcDbEntity
   8
LEVEL001
 370
13
 100
AcDbCircle
   6
CONTINUOUS
  62
1
  10
 3811.4699315556
  20
 4320.7134831461
  30
0.0
  40
 69.999997913838
   0
LEADER
   5
2A1
 100
AcDbEntity
   8
LEVEL001
 370
13
   6
CONTINUOUS
  62
1
 100
AcDbLeader
   3
GMM001
  73
3
  74
1
  75
0
  40
 66.000000000000
  41
0.0
  76
2
  10
 3546.4699357279
  20
 4690.7134831532
  30
0.0
  10
 3648.9279422832
  20
 4386.9845797077
  30
0.0
  77
1
   0
MTEXT
   5
2A3
 100
AcDbEntity
   8
LEVEL001
 370
13
  62
1
 100
AcDbMText
  10
 1546.4699357279
  20
 5647.7134831461
  30
0.0
  40
 80.000000000000
  41
0.0
  71
5
  72
1
   1
\T1.000000;正　面　図
   7
GMM005
  44
 0.79999984000003
   0
MTEXT
   5
2A5
 100
AcDbEntity
   8
LEVEL001
 370
13
  62
1
 100
AcDbMText
  10
 3421.4699357279
  20
 5647.7134831461
  30
0.0
  40
 80.000000000000
  41
0.0
  71
5
  72
1
   1
\T1.000000;側　面　図
   7
GMM005
  44
 0.79999984000003
   0
MTEXT
   5
2A7
 100
AcDbEntity
   8
LEVEL001
 370
13
  62
1
 100
AcDbMText
  10
 4671.4699357279
  20
 5647.7134831461
  30
0.0
  40
 80.000000000000
  41
0.0
  71
5
  72
1
   1
\T1.000000;背　面　図
   7
GMM005
  44
 0.79999984000003
   0
CIRCLE
   5
2A8
 100
AcDbEntity
   8
LEVEL001
 370
13
 100
AcDbCircle
   6
CONTINUOUS
  62
1
  10
 3046.4699357279
  20
 5445.7134831461
  30
0.0
  40
 69.999997913838
   0
CIRCLE
   5
2A9
 100
AcDbEntity
   8
LEVEL001
 370
13
 100
AcDbCircle
   6
CONTINUOUS
  62
1
  10
 3186.4699315556
  20
 5445.7134831461
  30
0.0
  40
 69.999997913838
   0
MTEXT
   5
2AB
 100
AcDbEntity
   8
LEVEL001
 370
13
  62
7
 100
AcDbMText
  10
 3046.4699357279
  20
 5445.7134831461
  30
0.0
  40
 66.000000000000
  41
0.0
  71
5
  72
1
   1
\T1.000000;６
   7
GMM001
  44
 0.79999984000003
   0
MTEXT
   5
2AD
 100
AcDbEntity
   8
LEVEL001
 370
13
  62
7
 100
AcDbMText
  10
 3186.4699315556
  20
 5445.7134831461
  30
0.0
  40
 66.000000000000
  41
0.0
  71
5
  72
1
   1
\T1.000000;８
   7
GMM001
  44
 0.79999984000003
   0
CIRCLE
   5
2AE
 100
AcDbEntity
   8
LEVEL001
 370
13
 100
AcDbCircle
   6
CONTINUOUS
  62
1
  10
 3296.4699357279
  20
 5320.7134831461
  30
0.0
  40
 69.999997913838
   0
CIRCLE
   5
2AF
 100
AcDbEntity
   8
LEVEL001
 370
13
 100
AcDbCircle
   6
CONTINUOUS
  62
1
  10
 3436.4699315556
  20
 5320.7134831461
  30
0.0
  40
 69.999997913838
   0
MTEXT
   5
2B1
 100
AcDbEntity
   8
LEVEL001
 370
13
  62
7
 100
AcDbMText
  10
 3296.4699357279
  20
 5320.7134831461
  30
0.0
  40
 66.000000000000
  41
0.0
  71
5
  72
1
   1
\T1.000000;７
   7
GMM001
  44
 0.79999984000003
   0
MTEXT
   5
2B3
 100
AcDbEntity
   8
LEVEL001
 370
13
  62
7
 100
AcDbMText
  10
 3436.4699315556
  20
 5320.7134831461
  30
0.0
  40
 66.000000000000
  41
0.0
  71
5
  72
1
   1
\T1.000000;９
   7
GMM001
  44
 0.79999984000003
   0
LEADER
   5
2B4
 100
AcDbEntity
   8
LEVEL001
 370
13
   6
CONTINUOUS
  62
1
 100
AcDbLeader
   3
GMM001
  73
3
  74
1
  75
0
  40
 66.000000000000
  41
0.0
  76
2
  10
 2983.9699357279
  20
 4875.7134831532
  30
0.0
  10
 3037.1038167116
  20
 5376.3429164588
  30
0.0
  77
1
   0
LEADER
   5
2B5
 100
AcDbEntity
   8
LEVEL001
 370
13
   6
CONTINUOUS
  62
1
 100
AcDbLeader
   3
GMM001
  73
3
  74
1
  75
0
  40
 66.000000000000
  41
0.0
  76
2
  10
 3163.1287898823
  20
 4875.7134831533
  30
0.0
  10
 3276.5728905870
  20
 5253.6008367775
  30
0.0
  77
1
   0
MTEXT
   5
2B7
 100
AcDbEntity
   8
LEVEL001
 370
13
  62
7
 100
AcDbMText
  10
 4296.4699357279
  20
 4320.7134831461
  30
0.0
  40
 66.000000000000
  41
0.0
  71
5
  72
1
   1
\T1.000000;２
   7
GMM001
  44
 0.79999984000003
   0
CIRCLE
   5
2B8
 100
AcDbEntity
   8
LEVEL001
 370
13
 100
AcDbCircle
   6
CONTINUOUS
  62
1
  10
 4296.4699357279
  20
 4320.7134831461
  30
0.0
  40
 69.999997913838
   0
LEADER
   5
2B9
 100
AcDbEntity
   8
LEVEL001
 370
13
   6
CONTINUOUS
  62
1
 100
AcDbLeader
   3
GMM001
  73
3
  74
1
  75
0
  40
 66.000000000000
  41
0.0
  76
2
  10
 4421.4699357279
  20
 4445.7134831461
  30
0.0
  10
 4345.6580411786
  20
 4370.5184024825
  30
0.0
  77
1
   0
MTEXT
   5
2BB
 100
AcDbEntity
   8
LEVEL001
 370
13
  62
1
 100
AcDbMText
  10
 6932.3790266370
  20
 1359.2870908420
  30
0.0
  40
 80.000000000000
  41
0.0
  71
7
  72
1
   1
\T1.000000;ＳＤ２９５Ａ
   7
GMM004
  44
 0.79999984000003
   0
LWPOLYLINE
   5
2BC
 100
AcDbEntity
   8
LEVEL001
 370
13
   6
CONTINUOUS
  62
7
 100
AcDbPolyline
  90
5
  70
1
  10
 2914.9445868934
  20
 4967.9957294073
  10
 2879.9445868934
  20
 4967.9957294073
  10
 2834.9445868934
  20
 5103.3501106093
  10
 2834.9445868934
  20
 5320.7134831533
  10
 2914.9445868934
  20
 5320.7134831533
   0
LWPOLYLINE
   5
2BD
 100
AcDbEntity
   8
LEVEL001
 370
13
   6
CONTINUOUS
  62
7
 100
AcDbPolyline
  90
4
  70
0
  10
 2879.9445868934
  20
 4967.9957294073
  10
 2879.9445868934
  20
 4320.7134831533
  10
 2914.9445868934
  20
 4320.7134831533
  10
 2914.9445868934
  20
 4983.7135901071
   0
ARC
   5
2BE
 100
AcDbEntity
   8
LEVEL001
 370
13
   6
DOT
  62
2
 100
AcDbCircle
  10
 5876.0303099375
  20
 4820.7134831533
  30
0.0
  40
 3037.3558665110
 100
AcDbArc
  50
 170.54414598144
  51
 175.42443917237
   0
LWPOLYLINE
   5
2BF
 100
AcDbEntity
   8
LEVEL001
 370
13
   6
DOT
  62
2
 100
AcDbPolyline
  90
4
  70
0
  10
 2914.9445868934
  20
 4983.7135901071
  10
 2914.9445868934
  20
 5320.7134831533
  10
 2879.9445868934
  20
 5320.7134831533
  10
 2879.9445868934
  20
 4967.9957294073
   0
ARC
   5
2C0
 100
AcDbEntity
   8
LEVEL001
 370
13
   6
CONTINUOUS
  62
7
 100
AcDbCircle
  10
 5876.0303099375
  20
 4820.7134831533
  30
0.0
  40
 3037.3558665110
 100
AcDbArc
  50
 175.42443917237
  51
 189.45585401856
   0
LINE
   5
2C1
 100
AcDbEntity
   8
LEVEL001
 370
13
 100
AcDbLine
   6
DASHDOT
  62
6
  10
 3649.4856894696
  20
 4820.7134831533
  30
0.0
  11
 4027.5545917538
  21
 4820.7134831533
  31
0.0
   0
CIRCLE
   5
2C2
 100
AcDbEntity
   8
LEVEL001
 370
13
 100
AcDbCircle
   6
CONTINUOUS
  62
1
  10
 3942.9952845625
  20
 5034.9809418559
  30
0.0
  40
 7.5000000000000
   0
ARC
   5
2C3
 100
AcDbEntity
   8
LEVEL001
 370
13
   6
CONTINUOUS
  62
1
 100
AcDbCircle
  10
 3942.9952845625
  20
 4320.7134831533
  30
0.0
  40
 7.5000000000000
 100
AcDbArc
  50
 180.00000000000
  51
0.0
   0
CIRCLE
   5
2C4
 100
AcDbEntity
   8
LEVEL001
 370
13
 100
AcDbCircle
   6
CONTINUOUS
  62
1
  10
 3942.9952845625
  20
 4426.7081506083
  30
0.0
  40
 7.5000000000000
   0
CIRCLE
   5
2C5
 100
AcDbEntity
   8
LEVEL001
 370
13
 100
AcDbCircle
   6
CONTINUOUS
  62
1
  10
 3942.9952845625
  20
 4699.7526051055
  30
0.0
  40
 7.5000000000000
   0
LWPOLYLINE
   5
2C6
 100
AcDbEntity
   8
LEVEL001
 370
13
   6
CONTINUOUS
  62
7
 100
AcDbPolyline
  90
4
  70
0
  10
 3927.9952845625
  20
 4765.7134831533
  10
 3841.3867030111
  20
 4765.7134831533
  10
 3841.3867030111
  20
 4875.7134831533
  10
 3927.9952845625
  20
 4875.7134831533
   0
CIRCLE
   5
2C7
 100
AcDbEntity
   8
LEVEL001
 370
13
 100
AcDbCircle
   6
CONTINUOUS
  62
1
  10
 3942.9952845625
  20
 5209.0980158147
  30
0.0
  40
 7.5000000000000
   0
CIRCLE
   5
2C8
 100
AcDbEntity
   8
LEVEL001
 370
13
 100
AcDbCircle
   6
CONTINUOUS
  62
1
  10
 3942.9952845625
  20
 5310.4378770818
  30
0.0
  40
 7.5000000000000
   0
LWPOLYLINE
   5
2C9
 100
AcDbEntity
   8
LEVEL001
 370
13
   6
CONTINUOUS
  62
7
 100
AcDbPolyline
  90
5
  70
1
  10
 3927.9952845625
  20
 4967.9957294073
  10
 3962.9952845625
  20
 4967.9957294073
  10
 4007.9952845625
  20
 5103.3501106093
  10
 4007.9952845625
  20
 5320.7134831533
  10
 3927.9952845625
  20
 5320.7134831533
   0
LWPOLYLINE
   5
2CA
 100
AcDbEntity
   8
LEVEL001
 370
13
   6
CONTINUOUS
  62
7
 100
AcDbPolyline
  90
4
  70
0
  10
 3962.9952845625
  20
 4967.9957294073
  10
 3962.9952845625
  20
 4320.7134831533
  10
 3927.9952845625
  20
 4320.7134831533
  10
 3927.9952845625
  20
 4983.7135901071
   0
ARC
   5
2CB
 100
AcDbEntity
   8
LEVEL001
 370
13
   6
DOT
  62
2
 100
AcDbCircle
  10
 966.90956151838
  20
 4820.7134831533
  30
0.0
  40
 3037.3558665110
 100
AcDbArc
  50
 4.5755608276339
  51
 9.4558540185633
   0
LWPOLYLINE
   5
2CC
 100
AcDbEntity
   8
LEVEL001
 370
13
   6
DOT
  62
2
 100
AcDbPolyline
  90
4
  70
0
  10
 3927.9952845625
  20
 4983.7135901071
  10
 3927.9952845625
  20
 5320.7134831533
  10
 3962.9952845625
  20
 5320.7134831533
  10
 3962.9952845625
  20
 4967.9957294073
   0
ARC
   5
2CD
 100
AcDbEntity
   8
LEVEL001
 370
13
   6
CONTINUOUS
  62
7
 100
AcDbCircle
  10
 966.90956151838
  20
 4820.7134831533
  30
0.0
  40
 3037.3558665110
 100
AcDbArc
  50
 350.54414598144
  51
 4.5755608276340
   0
LWPOLYLINE
   5
2CE
 100
AcDbEntity
   8
LEVEL001
 370
13
   6
CONTINUOUS
  62
7
 100
AcDbPolyline
  90
4
  70
1
  10
 3873.3867030111
  20
 4843.7134831533
  10
 3859.3867030111
  20
 4843.7134831533
  10
 3859.3867030111
  20
 4857.7134831533
  10
 3873.3867030111
  20
 4857.7134831533
   0
LWPOLYLINE
   5
2CF
 100
AcDbEntity
   8
LEVEL001
 370
13
   6
CONTINUOUS
  62
7
 100
AcDbPolyline
  90
4
  70
1
  10
 3873.3867030111
  20
 4783.7134831533
  10
 3859.3867030111
  20
 4783.7134831533
  10
 3859.3867030111
  20
 4797.7134831533
  10
 3873.3867030111
  20
 4797.7134831533
   0
ARC
   5
2D0
 100
AcDbEntity
   8
LEVEL001
 370
13
   6
CONTINUOUS
  62
7
 100
AcDbCircle
  10
 3823.4453138830
  20
 4816.2988969722
  30
0.0
  40
 8.0000000000000
 100
AcDbArc
  50
 35.000000000010
  51
 215.00000000001
   0
ARC
   5
2D1
 100
AcDbEntity
   8
LEVEL001
 370
13
   6
CONTINUOUS
  62
7
 100
AcDbCircle
  10
 3872.5944365404
  20
 4850.7134831533
  30
0.0
  40
 52.000000000000
 100
AcDbArc
  50
 214.99999999999
  51
 233.11945020299
   0
ARC
   5
2D2
 100
AcDbEntity
   8
LEVEL001
 370
13
   6
CONTINUOUS
  62
7
 100
AcDbCircle
  10
 3872.5944365404
  20
 4850.7134831533
  30
0.0
  40
 68.000000000000
 100
AcDbArc
  50
 215.00000000000
  51
 242.68144807227
   0
LINE
   5
2D3
 100
AcDbEntity
   8
LEVEL001
 370
13
 100
AcDbLine
   6
CONTINUOUS
  62
6
  10
 3792.5944365404
  20
 4770.7134831533
  30
0.0
  11
 3792.5944365404
  21
 4870.7134831533
  31
0.0
   0
LWPOLYLINE
   5
2D4
 100
AcDbEntity
   8
LEVEL001
 370
13
   6
CONTINUOUS
  62
7
 100
AcDbPolyline
  90
4
  70
0
  10
 3841.3867030111
  20
 4765.7134831533
  10
 3679.8110815736
  20
 4765.7134831533
  10
 3679.8110815736
  20
 4875.7134831533
  10
 3841.3867030111
  20
 4875.7134831533
   0
LWPOLYLINE
   5
2D5
 100
AcDbEntity
   8
LEVEL001
 370
13
   6
CONTINUOUS
  62
7
 100
AcDbPolyline
  90
4
  70
1
  10
 3706.8110815736
  20
 4843.7134831533
  10
 3692.8110815736
  20
 4843.7134831533
  10
 3692.8110815736
  20
 4857.7134831533
  10
 3706.8110815736
  20
 4857.7134831533
   0
LINE
   5
2D6
 100
AcDbEntity
   8
LEVEL001
 370
13
 100
AcDbLine
   6
CONTINUOUS
  62
6
  10
 3719.3830720196
  20
 4870.7134831533
  30
0.0
  11
 3719.3830720196
  21
 4770.7134831533
  31
0.0
   0
LWPOLYLINE
   5
2D7
 100
AcDbEntity
   8
LEVEL001
 370
13
   6
CONTINUOUS
  62
7
 100
AcDbPolyline
  90
4
  70
1
  10
 3706.8110815736
  20
 4783.7134831533
  10
 3692.8110815736
  20
 4783.7134831533
  10
 3692.8110815736
  20
 4797.7134831533
  10
 3706.8110815736
  20
 4797.7134831533
   0
LINE
   5
2D8
 100
AcDbEntity
   8
LEVEL001
 370
13
 100
AcDbLine
   6
DASHDOT
  62
6
  10
 3754.8110986761
  20
 4910.7134831533
  30
0.0
  11
 3754.8110986761
  21
 4655.7134831533
  31
0.0
   0
LWPOLYLINE
   5
2D9
 100
AcDbEntity
   8
LEVEL001
 370
13
   6
CONTINUOUS
  62
7
 100
AcDbPolyline
  90
4
  70
0
  10
 3792.9610986761
  20
 4765.7134831533
  10
 3792.9610986761
  20
 4675.7134831533
  10
 3716.6610986761
  20
 4675.7134831533
  10
 3716.6610986761
  20
 4690.7134831533
   0
LEADER
   5
2DA
 100
AcDbEntity
   8
LEVEL001
 370
13
   6
CONTINUOUS
  62
1
 100
AcDbLeader
   3
GMM001
  73
3
  74
1
  75
0
  40
 66.000000000000
  41
0.0
  76
2
  10
 2834.9445868934
  20
 5320.7134831533
  30
0.0
  10
 2610.8088435191
  20
 5418.1362343316
  30
0.0
  77
1
   0
MTEXT
   5
2DB
 100
AcDbEntity
   8
LEVEL001
 370
13
  62
1
 100
AcDbMText
  10
 1495.2824357281
  20
 3873.9634831461
  30
0.0
  40
 80.000000000000
  41
0.0
  71
4
  72
1
   1
{\T1.000000;注}\P{\T1.000000;意}
   7
GMM006
  44
 0.79999984000003
   0
LEADER
   5
2DC
 100
AcDbEntity
   8
LEVEL001
 370
13
   6
CONTINUOUS
  62
6
 100
AcDbLeader
   3
GMM008
  73
0
  74
0
  75
0
  40
 66.000000000000
  41
 676.00000000000
  76
2
  10
 2060.2242080483
  20
 4400.0860867974
  30
0.0
  10
 2244.9120761284
  20
 3964.7503977515
  30
0.0
  77
6
 340
2DD
 213
0.0
 223
-28.285714285714
 233
0.0
   0
MTEXT
   5
2DD
 102
{ACAD_REACTORS
 330
2DC
 102
}
 100
AcDbEntity
   8
LEVEL001
 370
13
  62
1
 100
AcDbMText
  10
 2244.9120761284
  20
 3993.0361120372
  30
0.0
  40
 66.000000000000
  41
0.0
  71
7
  72
1
   1
\A1;表面：超親水性コーティング
   7
GMM001
   0
LINE
   5
2DE
 100
AcDbEntity
   8
LEVEL001
 370
13
 100
AcDbLine
   6
CONTINUOUS
  62
1
  10
 5632.3790266370
  20
 595.71348314607
  30
0.0
  11
 7272.3790266370
  21
 595.71348314607
  31
0.0
   0
MTEXT
   5
2DF
 100
AcDbEntity
   8
LEVEL001
 370
13
  62
1
 100
AcDbMText
  10
 5655.3054335634
  20
 759.49845338416
  30
0.0
  40
 37.142857142857
  41
0.0
  71
7
  72
1
   1
\T1.269231;図面番号
   7
GMM007
  44
 0.79999984000003
   0
MTEXT
   5
2E1
 100
AcDbEntity
   8
LEVEL001
 370
13
  62
1
 100
AcDbMText
  10
 5803.3580003910
  20
 1619.2870908420
  30
0.0
  40
 80.000000000000
  41
0.0
  71
9
  72
1
   1
\T1.000000;１２
   7
GMM003
  44
 0.79999984000003
   0
MTEXT
   5
2E3
 100
AcDbEntity
   8
LEVEL001
 370
13
  62
1
 100
AcDbMText
  10
 5803.3580003910
  20
 1749.2870908420
  30
0.0
  40
 80.000000000000
  41
0.0
  71
9
  72
1
   1
\T1.000000;１１
   7
GMM003
  44
 0.79999984000003
   0
MTEXT
   5
2E5
 100
AcDbEntity
   8
LEVEL001
 370
13
  62
1
 100
AcDbMText
  10
 5803.3580003910
  20
 1879.2870908420
  30
0.0
  40
 80.000000000000
  41
0.0
  71
9
  72
1
   1
\T1.000000;１０
   7
GMM003
  44
 0.79999984000003
   0
MTEXT
   5
2E7
 100
AcDbEntity
   8
LEVEL001
 370
13
  62
1
 100
AcDbMText
  10
 5803.3580003910
  20
 2009.2870908420
  30
0.0
  40
 80.000000000000
  41
0.0
  71
9
  72
1
   1
\T1.000000;９
   7
GMM003
  44
 0.79999984000003
   0
MTEXT
   5
2E9
 100
AcDbEntity
   8
LEVEL001
 370
13
  62
1
 100
AcDbMText
  10
 5803.3580003910
  20
 2139.2870908420
  30
0.0
  40
 80.000000000000
  41
0.0
  71
9
  72
1
   1
\T1.000000;８
   7
GMM003
  44
 0.79999984000003
   0
MTEXT
   5
2EB
 100
AcDbEntity
   8
LEVEL001
 370
13
  62
1
 100
AcDbMText
  10
 5803.3580003910
  20
 2269.2870908420
  30
0.0
  40
 80.000000000000
  41
0.0
  71
9
  72
1
   1
\T1.000000;７
   7
GMM003
  44
 0.79999984000003
   0
MTEXT
   5
2ED
 100
AcDbEntity
   8
LEVEL001
 370
13
  62
1
 100
AcDbMText
  10
 5803.3580003910
  20
 2399.2870908420
  30
0.0
  40
 80.000000000000
  41
0.0
  71
9
  72
1
   1
\T1.000000;６
   7
GMM003
  44
 0.79999984000003
   0
MTEXT
   5
2EF
 100
AcDbEntity
   8
LEVEL001
 370
13
  62
1
 100
AcDbMText
  10
 5803.3580003910
  20
 2529.2870908420
  30
0.0
  40
 80.000000000000
  41
0.0
  71
9
  72
1
   1
\T1.000000;５
   7
GMM003
  44
 0.79999984000003
   0
MTEXT
   5
2F1
 100
AcDbEntity
   8
LEVEL001
 370
13
  62
1
 100
AcDbMText
  10
 5803.3580003910
  20
 2659.2870908420
  30
0.0
  40
 80.000000000000
  41
0.0
  71
9
  72
1
   1
\T1.000000;４
   7
GMM003
  44
 0.79999984000003
   0
MTEXT
   5
2F3
 100
AcDbEntity
   8
LEVEL001
 370
13
  62
1
 100
AcDbMText
  10
 5803.3580003910
  20
 2789.2870908420
  30
0.0
  40
 80.000000000000
  41
0.0
  71
9
  72
1
   1
\T1.000000;３
   7
GMM003
  44
 0.79999984000003
   0
MTEXT
   5
2F5
 100
AcDbEntity
   8
LEVEL001
 370
13
  62
1
 100
AcDbMText
  10
 5882.3790266370
  20
 2789.2870908420
  30
0.0
  40
 80.000000000000
  41
0.0
  71
7
  72
1
   1
\T1.000000;フード
   7
GMM004
  44
 0.79999984000003
   0
MTEXT
   5
2F7
 100
AcDbEntity
   8
LEVEL001
 370
13
  62
1
 100
AcDbMText
  10
 5803.3580003910
  20
 2919.2870908420
  30
0.0
  40
 80.000000000000
  41
0.0
  71
9
  72
1
   1
\T1.000000;２
   7
GMM003
  44
 0.79999984000003
   0
MTEXT
   5
2F9
 100
AcDbEntity
   8
LEVEL001
 370
13
  62
1
 100
AcDbMText
  10
 5882.3790266370
  20
 2919.2870908420
  30
0.0
  40
 80.000000000000
  41
0.0
  71
7
  72
1
   1
\T1.000000;バックプレート
   7
GMM004
  44
 0.79999984000003
   0
LINE
   5
2FA
 100
AcDbEntity
   8
LEVEL001
 370
13
 100
AcDbLine
   6
CONTINUOUS
  62
6
  10
 5632.3790266370
  20
 1725.7134831461
  30
0.0
  11
 8148.1368058451
  21
 1725.7134831461
  31
0.0
   0
LINE
   5
2FB
 100
AcDbEntity
   8
LEVEL001
 370
13
 100
AcDbLine
   6
CONTINUOUS
  62
6
  10
 5632.3790266370
  20
 1855.7134831461
  30
0.0
  11
 8148.1368058451
  21
 1855.7134831461
  31
0.0
   0
LINE
   5
2FC
 100
AcDbEntity
   8
LEVEL001
 370
13
 100
AcDbLine
   6
CONTINUOUS
  62
6
  10
 5632.3790266370
  20
 1985.7134831461
  30
0.0
  11
 8148.1368058451
  21
 1985.7134831461
  31
0.0
   0
LINE
   5
2FD
 100
AcDbEntity
   8
LEVEL001
 370
13
 100
AcDbLine
   6
CONTINUOUS
  62
6
  10
 5632.3790266370
  20
 2115.7134831461
  30
0.0
  11
 8148.1368058451
  21
 2115.7134831461
  31
0.0
   0
LINE
   5
2FE
 100
AcDbEntity
   8
LEVEL001
 370
13
 100
AcDbLine
   6
CONTINUOUS
  62
6
  10
 5632.3790266370
  20
 2245.7134831461
  30
0.0
  11
 8148.1368058451
  21
 2245.7134831461
  31
0.0
   0
LINE
   5
2FF
 100
AcDbEntity
   8
LEVEL001
 370
13
 100
AcDbLine
   6
CONTINUOUS
  62
6
  10
 5632.3790266370
  20
 2375.7134831461
  30
0.0
  11
 8148.1368058451
  21
 2375.7134831461
  31
0.0
   0
LINE
   5
300
 100
AcDbEntity
   8
LEVEL001
 370
13
 100
AcDbLine
   6
CONTINUOUS
  62
6
  10
 5632.3790266370
  20
 2505.7134831461
  30
0.0
  11
 8148.1368058451
  21
 2505.7134831461
  31
0.0
   0
LINE
   5
301
 100
AcDbEntity
   8
LEVEL001
 370
13
 100
AcDbLine
   6
CONTINUOUS
  62
6
  10
 5632.3790266370
  20
 2635.7134831461
  30
0.0
  11
 8148.1368058451
  21
 2635.7134831461
  31
0.0
   0
LINE
   5
302
 100
AcDbEntity
   8
LEVEL001
 370
13
 100
AcDbLine
   6
CONTINUOUS
  62
6
  10
 5632.3790266370
  20
 2765.7134831461
  30
0.0
  11
 8148.1368058451
  21
 2765.7134831461
  31
0.0
   0
LINE
   5
303
 100
AcDbEntity
   8
LEVEL001
 370
13
 100
AcDbLine
   6
CONTINUOUS
  62
6
  10
 5632.3790266370
  20
 2895.7134831461
  30
0.0
  11
 8148.1368058451
  21
 2895.7134831461
  31
0.0
   0
LINE
   5
304
 100
AcDbEntity
   8
LEVEL001
 370
13
 100
AcDbLine
   6
CONTINUOUS
  62
6
  10
 5632.3790266370
  20
 3025.7134831461
  30
0.0
  11
 8148.1368058451
  21
 3025.7134831461
  31
0.0
   0
MTEXT
   5
306
 100
AcDbEntity
   8
LEVEL001
 370
13
  62
1
 100
AcDbMText
  10
 6853.3580003910
  20
 2919.2870908420
  30
0.0
  40
 80.000000000000
  41
0.0
  71
9
  72
1
   1
\T1.000000;２
   7
GMM004
  44
 0.79999984000003
   0
MTEXT
   5
308
 100
AcDbEntity
   8
LEVEL001
 370
13
  62
1
 100
AcDbMText
  10
 6853.3580003910
  20
 2789.2870908420
  30
0.0
  40
 80.000000000000
  41
0.0
  71
9
  72
1
   1
\T1.000000;２
   7
GMM004
  44
 0.79999984000003
   0
MTEXT
   5
30A
 100
AcDbEntity
   8
LEVEL001
 370
13
  62
1
 100
AcDbMText
  10
 6932.3790266370
  20
 2919.2870908420
  30
0.0
  40
 80.000000000000
  41
0.0
  71
7
  72
1
   1
\T1.000000;ＦＲＰ
   7
GMM004
  44
 0.79999984000003
   0
MTEXT
   5
30C
 100
AcDbEntity
   8
LEVEL001
 370
13
  62
1
 100
AcDbMText
  10
 6932.3790266370
  20
 2789.2870908420
  30
0.0
  40
 80.000000000000
  41
0.0
  71
7
  72
1
   1
\T1.000000;ＰＣ
   7
GMM004
  44
 0.79999984000003
   0
MTEXT
   5
30E
 100
AcDbEntity
   8
LEVEL001
 370
13
  62
1
 100
AcDbMText
  10
 6932.3790266370
  20
 2009.2870908420
  30
0.0
  40
 80.000000000000
  41
0.0
  71
7
  72
1
   1
\T1.000000;ＳＳ４００
   7
GMM004
  44
 0.79999984000003
   0
MTEXT
   5
310
 100
AcDbEntity
   8
LEVEL001
 370
13
  62
1
 100
AcDbMText
  10
 5882.3790266370
  20
 2009.2870908420
  30
0.0
  40
 80.000000000000
  41
0.0
  71
7
  72
1
   1
\T1.000000;金具締付ボルトナット
   7
GMM004
  44
 0.79999984000003
   0
MTEXT
   5
312
 100
AcDbEntity
   8
LEVEL001
 370
13
  62
1
 100
AcDbMText
  10
 6932.3790266370
  20
 2139.2870908420
  30
0.0
  40
 80.000000000000
  41
0.0
  71
7
  72
1
   1
\T1.000000;ＳＳ４００
   7
GMM004
  44
 0.79999984000003
   0
MTEXT
   5
314
 100
AcDbEntity
   8
LEVEL001
 370
13
  62
1
 100
AcDbMText
  10
 5882.3790266370
  20
 2139.2870908420
  30
0.0
  40
 80.000000000000
  41
0.0
  71
7
  72
1
   1
\T1.000000;裏板金具取付ボルト
   7
GMM004
  44
 0.79999984000003
   0
MTEXT
   5
316
 100
AcDbEntity
   8
LEVEL001
 370
13
  62
1
 100
AcDbMText
  10
 6932.3790266370
  20
 2269.2870908420
  30
0.0
  40
 80.000000000000
  41
0.0
  71
7
  72
1
   1
\T1.000000;ＳＳ４００
   7
GMM004
  44
 0.79999984000003
   0
MTEXT
   5
318
 100
AcDbEntity
   8
LEVEL001
 370
13
  62
1
 100
AcDbMText
  10
 5882.3790266370
  20
 2269.2870908420
  30
0.0
  40
 80.000000000000
  41
0.0
  71
7
  72
1
   1
\T1.000000;支柱取付金具
   7
GMM004
  44
 0.79999984000003
   0
MTEXT
   5
31A
 100
AcDbEntity
   8
LEVEL001
 370
13
  62
1
 100
AcDbMText
  10
 5882.3790266370
  20
 2399.2870908420
  30
0.0
  40
 80.000000000000
  41
0.0
  71
7
  72
1
   1
\T1.000000;裏板取付金具
   7
GMM004
  44
 0.79999984000003
   0
MTEXT
   5
31C
 100
AcDbEntity
   8
LEVEL001
 370
13
  62
1
 100
AcDbMText
  10
 6932.3790266370
  20
 2399.2870908420
  30
0.0
  40
 80.000000000000
  41
0.0
  71
7
  72
1
   1
\T1.000000;ＳＳ４００
   7
GMM004
  44
 0.79999984000003
   0
MTEXT
   5
31E
 100
AcDbEntity
   8
LEVEL001
 370
13
  62
1
 100
AcDbMText
  10
 6853.3580003910
  20
 2139.2870908420
  30
0.0
  40
 80.000000000000
  41
0.0
  71
9
  72
1
   1
\T1.000000;８
   7
GMM004
  44
 0.79999984000003
   0
MTEXT
   5
320
 100
AcDbEntity
   8
LEVEL001
 370
13
  62
1
 100
AcDbMText
  10
 5882.3790266370
  20
 1619.2870908420
  30
0.0
  40
 80.000000000000
  41
0.0
  71
7
  72
1
   1
\T1.000000;支柱
   7
GMM004
  44
 0.79999984000003
   0
MTEXT
   5
322
 100
AcDbEntity
   8
LEVEL001
 370
13
  62
1
 100
AcDbMText
  10
 6853.3580003910
  20
 1619.2870908420
  30
0.0
  40
 80.000000000000
  41
0.0
  71
9
  72
1
   1
\T1.000000;１
   7
GMM004
  44
 0.79999984000003
   0
MTEXT
   5
324
 100
AcDbEntity
   8
LEVEL001
 370
13
  62
1
 100
AcDbMText
  10
 6932.3790266370
  20
 1619.2870908420
  30
0.0
  40
 80.000000000000
  41
0.0
  71
7
  72
1
   1
\T1.000000;ＳＴＫ４００
   7
GMM004
  44
 0.79999984000003
   0
MTEXT
   5
326
 100
AcDbEntity
   8
LEVEL001
 370
13
  62
1
 100
AcDbMText
  10
 5882.3790266370
  20
 1749.2870908420
  30
0.0
  40
 80.000000000000
  41
0.0
  71
7
  72
1
   1
\T1.000000;同上ボルトナット
   7
GMM004
  44
 0.79999984000003
   0
MTEXT
   5
328
 100
AcDbEntity
   8
LEVEL001
 370
13
  62
1
 100
AcDbMText
  10
 6932.3790266370
  20
 1879.2870908420
  30
0.0
  40
 80.000000000000
  41
0.0
  71
7
  72
1
   1
\T1.000000;ＳＳ４００
   7
GMM004
  44
 0.79999984000003
   0
MTEXT
   5
32A
 100
AcDbEntity
   8
LEVEL001
 370
13
  62
1
 100
AcDbMText
  10
 6932.3790266370
  20
 1749.2870908420
  30
0.0
  40
 80.000000000000
  41
0.0
  71
7
  72
1
   1
\T1.000000;ＳＳ４００
   7
GMM004
  44
 0.79999984000003
   0
MTEXT
   5
32C
 100
AcDbEntity
   8
LEVEL001
 370
13
  62
1
 100
AcDbMText
  10
 5882.3790266370
  20
 1879.2870908420
  30
0.0
  40
 80.000000000000
  41
0.0
  71
7
  72
1
   1
\T1.000000;二面鏡用取付腕木
   7
GMM004
  44
 0.79999984000003
   0
MTEXT
   5
32E
 100
AcDbEntity
   8
LEVEL001
 370
13
  62
1
 100
AcDbMText
  10
 6853.3580003910
  20
 2009.2870908420
  30
0.0
  40
 80.000000000000
  41
0.0
  71
9
  72
1
   1
\T1.000000;８
   7
GMM004
  44
 0.79999984000003
   0
MTEXT
   5
330
 100
AcDbEntity
   8
LEVEL001
 370
13
  62
1
 100
AcDbMText
  10
 6853.3580003910
  20
 2659.2870908420
  30
0.0
  40
 80.000000000000
  41
0.0
  71
9
  72
1
   1
\T1.000000;２
   7
GMM004
  44
 0.79999984000003
   0
MTEXT
   5
332
 100
AcDbEntity
   8
LEVEL001
 370
13
  62
1
 100
AcDbMText
  10
 5882.3790266370
  20
 2659.2870908420
  30
0.0
  40
 80.000000000000
  41
0.0
  71
7
  72
1
   1
\T1.000000;取付枠
   7
GMM004
  44
 0.79999984000003
   0
MTEXT
   5
334
 100
AcDbEntity
   8
LEVEL001
 370
13
  62
1
 100
AcDbMText
  10
 5882.3790266370
  20
 2529.2870908420
  30
0.0
  40
 80.000000000000
  41
0.0
  71
7
  72
1
   1
\T1.000000;取付枠取付リベット
   7
GMM004
  44
 0.79999984000003
   0
MTEXT
   5
336
 100
AcDbEntity
   8
LEVEL001
 370
13
  62
1
 100
AcDbMText
  10
 6932.3790266370
  20
 2659.2870908420
  30
0.0
  40
 80.000000000000
  41
0.0
  71
7
  72
1
   1
\T1.000000;アルミニウム
   7
GMM004
  44
 0.79999984000003
   0
MTEXT
   5
338
 100
AcDbEntity
   8
LEVEL001
 370
13
  62
1
 100
AcDbMText
  10
 6932.3790266370
  20
 2529.2870908420
  30
0.0
  40
 80.000000000000
  41
0.0
  71
7
  72
1
   1
\T1.000000;アルミニウム
   7
GMM004
  44
 0.79999984000003
   0
MTEXT
   5
33A
 100
AcDbEntity
   8
LEVEL001
 370
13
  62
1
 100
AcDbMText
  10
 6853.3580003910
  20
 2529.2870908420
  30
0.0
  40
 80.000000000000
  41
0.0
  71
9
  72
1
   1
\T1.000000;２２
   7
GMM004
  44
 0.79999984000003
   0
MTEXT
   5
33C
 100
AcDbEntity
   8
LEVEL001
 370
13
  62
1
 100
AcDbMText
  10
 6853.3580003910
  20
 2399.2870908420
  30
0.0
  40
 80.000000000000
  41
0.0
  71
9
  72
1
   1
\T1.000000;２
   7
GMM004
  44
 0.79999984000003
   0
MTEXT
   5
33E
 100
AcDbEntity
   8
LEVEL001
 370
13
  62
1
 100
AcDbMText
  10
 6853.3580003910
  20
 2269.2870908420
  30
0.0
  40
 80.000000000000
  41
0.0
  71
9
  72
1
   1
\T1.000000;２
   7
GMM004
  44
 0.79999984000003
   0
MTEXT
   5
340
 100
AcDbEntity
   8
LEVEL001
 370
13
  62
1
 100
AcDbMText
  10
 6853.3580003910
  20
 1879.2870908420
  30
0.0
  40
 80.000000000000
  41
0.0
  71
9
  72
1
   1
\T1.000000;１
   7
GMM004
  44
 0.79999984000003
   0
MTEXT
   5
342
 100
AcDbEntity
   8
LEVEL001
 370
13
  62
1
 100
AcDbMText
  10
 6853.3580003910
  20
 1749.2870908420
  30
0.0
  40
 80.000000000000
  41
0.0
  71
9
  72
1
   1
\T1.000000;４
   7
GMM004
  44
 0.79999984000003
   0
MTEXT
   5
344
 100
AcDbEntity
   8
LEVEL001
 370
13
  62
1
 100
AcDbMText
  10
 7452.3790266370
  20
 2009.2870908420
  30
0.0
  40
 80.000000000000
  41
0.0
  71
7
  72
1
   1
\T1.000000;溶融亜鉛メッキ
   7
GMM004
  44
 0.79999984000003
   0
MTEXT
   5
346
 100
AcDbEntity
   8
LEVEL001
 370
13
  62
1
 100
AcDbMText
  10
 7452.3790266370
  20
 2139.2870908420
  30
0.0
  40
 80.000000000000
  41
0.0
  71
7
  72
1
   1
\T1.000000;溶融亜鉛メッキ
   7
GMM004
  44
 0.79999984000003
   0
MTEXT
   5
348
 100
AcDbEntity
   8
LEVEL001
 370
13
  62
1
 100
AcDbMText
  10
 7452.3790266370
  20
 2269.2870908420
  30
0.0
  40
 80.000000000000
  41
0.0
  71
7
  72
1
   1
\T1.000000;溶融亜鉛メッキ
   7
GMM004
  44
 0.79999984000003
   0
MTEXT
   5
34A
 100
AcDbEntity
   8
LEVEL001
 370
13
  62
1
 100
AcDbMText
  10
 7452.3790266370
  20
 2399.2870908420
  30
0.0
  40
 80.000000000000
  41
0.0
  71
7
  72
1
   1
\T1.000000;溶融亜鉛メッキ
   7
GMM004
  44
 0.79999984000003
   0
MTEXT
   5
34C
 100
AcDbEntity
   8
LEVEL001
 370
13
  62
1
 100
AcDbMText
  10
 7452.3790266370
  20
 1619.2870908420
  30
0.0
  40
 80.000000000000
  41
0.0
  71
7
  72
1
   1
\T1.000000;静電粉体塗装
   7
GMM004
  44
 0.79999984000003
   0
MTEXT
   5
34E
 100
AcDbEntity
   8
LEVEL001
 370
13
  62
1
 100
AcDbMText
  10
 7452.3790266370
  20
 1879.2870908420
  30
0.0
  40
 80.000000000000
  41
0.0
  71
7
  72
1
   1
\T1.000000;溶融亜鉛メッキ
   7
GMM004
  44
 0.79999984000003
   0
MTEXT
   5
350
 100
AcDbEntity
   8
LEVEL001
 370
13
  62
1
 100
AcDbMText
  10
 7452.3790266370
  20
 1749.2870908420
  30
0.0
  40
 80.000000000000
  41
0.0
  71
7
  72
1
   1
\T1.000000;溶融亜鉛メッキ
   7
GMM004
  44
 0.79999984000003
   0
MTEXT
   5
352
 100
AcDbEntity
   8
LEVEL001
 370
13
  62
1
 100
AcDbMText
  10
 7452.3790266370
  20
 2919.2870908420
  30
0.0
  40
 80.000000000000
  41
0.0
  71
7
  72
1
   1
\T1.000000;ＳＭＣ成型
   7
GMM004
  44
 0.79999984000003
   0
MTEXT
   5
354
 100
AcDbEntity
   8
LEVEL001
 370
13
  62
1
 100
AcDbMText
  10
 5803.3580003910
  20
 3309.2870908420
  30
0.0
  40
 80.000000000000
  41
0.0
  71
9
  72
1
   1
\T1.000000;１
   7
GMM003
  44
 0.79999984000003
   0
MTEXT
   5
356
 100
AcDbEntity
   8
LEVEL001
 370
13
  62
1
 100
AcDbMText
  10
 6782.3790266370
  20
 3485.7134831461
  30
0.0
  40
 80.000000000000
  41
0.0
  71
5
  72
1
   1
\T1.000000;個数
   7
GMM004
  44
 0.79999984000003
   0
MTEXT
   5
358
 100
AcDbEntity
   8
LEVEL001
 370
13
  62
1
 100
AcDbMText
  10
 6257.3790266370
  20
 3485.7134831461
  30
0.0
  40
 80.000000000000
  41
0.0
  71
5
  72
1
   1
\T1.000000;名　　称
   7
GMM004
  44
 0.79999984000003
   0
LINE
   5
359
 100
AcDbEntity
   8
LEVEL001
 370
13
 100
AcDbLine
   6
CONTINUOUS
  62
6
  10
 5632.3790266370
  20
 3415.7134831461
  30
0.0
  11
 8148.1368058451
  21
 3415.7134831461
  31
0.0
   0
LINE
   5
35A
 100
AcDbEntity
   8
LEVEL001
 370
13
 100
AcDbLine
   6
CONTINUOUS
  62
6
  10
 5632.3790266370
  20
 3555.7134831461
  30
0.0
  11
 8148.1368058451
  21
 3555.7134831461
  31
0.0
   0
LINE
   5
35B
 100
AcDbEntity
   8
LEVEL001
 370
13
 100
AcDbLine
   6
CONTINUOUS
  62
6
  10
 5632.3790266370
  20
 3855.7134831461
  30
0.0
  11
 8148.1368058451
  21
 3855.7134831461
  31
0.0
   0
MTEXT
   5
35D
 100
AcDbEntity
   8
LEVEL001
 370
13
  62
1
 100
AcDbMText
  10
 6853.3580003910
  20
 3309.2870908420
  30
0.0
  40
 80.000000000000
  41
0.0
  71
9
  72
1
   1
\T1.000000;２
   7
GMM004
  44
 0.79999984000003
   0
MTEXT
   5
35F
 100
AcDbEntity
   8
LEVEL001
 370
13
  62
1
 100
AcDbMText
  10
 5797.8068841127
  20
 3597.8680229054
  30
0.0
  40
 80.000000000000
  41
0.0
  71
7
  72
1
   1
%%c\T1.000000;１０００（ダブル）
   7
GMM005
  44
 0.79999984000003
   0
MTEXT
   5
361
 100
AcDbEntity
   8
LEVEL001
 370
13
  62
1
 100
AcDbMText
  10
 5882.3790266370
  20
 3309.2870908420
  30
0.0
  40
 80.000000000000
  41
0.0
  71
7
  72
1
   1
\T1.000000;鏡面　Ｒ＝３６００
   7
GMM004
  44
 0.79999984000003
   0
MTEXT
   5
363
 100
AcDbEntity
   8
LEVEL001
 370
13
  62
1
 100
AcDbMText
  10
 5797.8068841127
  20
 3735.2203137338
  30
0.0
  40
 80.000000000000
  41
0.0
  71
7
  72
1
   1
\T1.000000;アクリーン＜Ｆタイプ＞
   7
GMM005
  44
 0.79999984000003
   0
MTEXT
   5
365
 100
AcDbEntity
   8
LEVEL001
 370
13
  62
1
 100
AcDbMText
  10
 6932.3790266370
  20
 3309.2870908420
  30
0.0
  40
 80.000000000000
  41
0.0
  71
4
  72
1
   1
{\W0.900000;\T1.000000;ＰＭＭＡ}\P{\W0.450000;\T1.000000;(\W0.900000;\T1.000000;アクリル\W0.450000;\T1.000000;)}
   7
GMM004
  44
 0.79999984000003
   0
MTEXT
   5
367
 100
AcDbEntity
   8
LEVEL001
 370
13
  62
1
 100
AcDbMText
  10
 7452.3790266370
  20
 3389.2870908420
  30
0.0
  40
 80.000000000000
  41
0.0
  71
1
  72
1
   1
{\W0.325000;\T1.000000;t=3.0mm}\P{\W0.650000;\T1.000000;裏面：真空蒸着}\P{\W0.650000;\T1.000000;表面：超親水性コーティング}
   7
GMM008
  44
 0.79999984000003
   0
MTEXT
   5
369
 100
AcDbEntity
   8
LEVEL001
 370
13
  62
1
 100
AcDbMText
  10
 7142.3790266370
  20
 3485.7134831461
  30
0.0
  40
 80.000000000000
  41
0.0
  71
5
  72
1
   1
\T1.000000;材　　質
   7
GMM004
  44
 0.79999984000003
   0
MTEXT
   5
36B
 100
AcDbEntity
   8
LEVEL001
 370
13
  62
1
 100
AcDbMText
  10
 7775.2579162411
  20
 3485.7134831461
  30
0.0
  40
 80.000000000000
  41
0.0
  71
5
  72
1
   1
\T1.000000;規格仕様
   7
GMM004
  44
 0.79999984000003
   0
LINE
   5
36C
 100
AcDbEntity
   8
LEVEL001
 370
13
 100
AcDbLine
   6
CONTINUOUS
  62
6
  10
 6882.3790266370
  20
 3555.7134831461
  30
0.0
  11
 6882.3790266370
  21
 815.71348314607
  31
0.0
   0
LINE
   5
36D
 100
AcDbEntity
   8
LEVEL001
 370
13
 100
AcDbLine
   6
CONTINUOUS
  62
6
  10
 7402.3790266370
  20
 3555.7134831461
  30
0.0
  11
 7402.3790266370
  21
 815.71348314607
  31
0.0
   0
LINE
   5
36E
 100
AcDbEntity
   8
LEVEL001
 370
13
 100
AcDbLine
   6
CONTINUOUS
  62
6
  10
 5632.3790266370
  20
 3855.7134831461
  30
0.0
  11
 5632.3790266370
  21
 815.71348314607
  31
0.0
   0
LINE
   5
36F
 100
AcDbEntity
   8
LEVEL001
 370
13
 100
AcDbLine
   6
CONTINUOUS
  62
6
  10
 5832.3790266370
  20
 3555.7134831461
  30
0.0
  11
 5832.3790266370
  21
 815.71348314607
  31
0.0
   0
LINE
   5
370
 100
AcDbEntity
   8
LEVEL001
 370
13
 100
AcDbLine
   6
CONTINUOUS
  62
6
  10
 6682.3790266370
  20
 3555.7134831461
  30
0.0
  11
 6682.3790266370
  21
 815.71348314607
  31
0.0
   0
LINE
   5
371
 100
AcDbEntity
   8
LEVEL001
 370
13
 100
AcDbLine
   6
CONTINUOUS
  62
6
  10
 8148.1368058451
  20
 3855.7134831461
  30
0.0
  11
 8148.1368058451
  21
 815.71348314607
  31
0.0
   0
MTEXT
   5
373
 100
AcDbEntity
   8
LEVEL001
 370
13
  62
1
 100
AcDbMText
  10
 6932.3790266370
  20
 1099.2870908420
  30
0.0
  40
 80.000000000000
  41
0.0
  71
7
  72
1
   1
\T1.000000;―
   7
GMM004
  44
 0.79999984000003
   0
MTEXT
   5
375
 100
AcDbEntity
   8
LEVEL001
 370
13
  62
1
 100
AcDbMText
  10
 6932.3790266370
  20
 969.28709084196
  30
0.0
  40
 80.000000000000
  41
0.0
  71
7
  72
1
   1
\T1.000000;―
   7
GMM004
  44
 0.79999984000003
   0
MTEXT
   5
377
 100
AcDbEntity
   8
LEVEL001
 370
13
  62
1
 100
AcDbMText
  10
 6853.3580003910
  20
 839.28709084195
  30
0.0
  40
 80.000000000000
  41
0.0
  71
9
  72
1
   1
\T1.000000;１式
   7
GMM004
  44
 0.79999984000003
   0
MTEXT
   5
379
 100
AcDbEntity
   8
LEVEL001
 370
13
  62
1
 100
AcDbMText
  10
 6853.3580003910
  20
 969.28709084196
  30
0.0
  40
 80.000000000000
  41
0.0
  71
9
  72
1
   1
\T1.000000;１式
   7
GMM004
  44
 0.79999984000003
   0
MTEXT
   5
37B
 100
AcDbEntity
   8
LEVEL001
 370
13
  62
1
 100
AcDbMText
  10
 6932.3790266370
  20
 839.28709084195
  30
0.0
  40
 80.000000000000
  41
0.0
  71
7
  72
1
   1
\T1.000000;―
   7
GMM004
  44
 0.79999984000003
   0
MTEXT
   5
37D
 100
AcDbEntity
   8
LEVEL001
 370
13
  62
1
 100
AcDbMText
  10
 7432.3790266370
  20
 969.28709084196
  30
0.0
  40
 80.000000000000
  41
0.0
  71
7
  72
1
   1
\T1.000000;―
   7
GMM004
  44
 0.79999984000003
   0
MTEXT
   5
37F
 100
AcDbEntity
   8
LEVEL001
 370
13
  62
1
 100
AcDbMText
  10
 7432.3790266370
  20
 1099.2870908420
  30
0.0
  40
 80.000000000000
  41
0.0
  71
7
  72
1
   1
\T1.000000;―
   7
GMM004
  44
 0.79999984000003
   0
MTEXT
   5
381
 100
AcDbEntity
   8
LEVEL001
 370
13
  62
1
 100
AcDbMText
  10
 7432.3790266370
  20
 839.28709084196
  30
0.0
  40
 80.000000000000
  41
0.0
  71
7
  72
1
   1
\T1.000000;―
   7
GMM004
  44
 0.79999984000003
   0
MTEXT
   5
383
 100
AcDbEntity
   8
LEVEL001
 370
13
  62
1
 100
AcDbMText
  10
 7432.3790266370
  20
 1532.5797874761
  30
0.0
  40
 44.000000000000
  41
0.0
  71
4
  72
1
   1
{\T1.000000;下地亜鉛メッキ}\P{\T1.000000;＋静電粉体塗装}
   7
GMM009
  44
 0.79999984000003
   0
MTEXT
   5
385
 100
AcDbEntity
   8
LEVEL001
 370
13
  62
1
 100
AcDbMText
  10
 6932.3790266370
  20
 1489.2870908420
  30
0.0
  40
 80.000000000000
  41
0.0
  71
7
  72
1
   1
\T1.000000;ＳＴＫ４００
   7
GMM004
  44
 0.79999984000003
   0
MTEXT
   5
387
 100
AcDbEntity
   8
LEVEL001
 370
13
  62
1
 100
AcDbMText
  10
 6853.3580003910
  20
 1489.2870908420
  30
0.0
  40
 80.000000000000
  41
0.0
  71
9
  72
1
   1
\T1.000000;１
   7
GMM004
  44
 0.79999984000003
   0
MTEXT
   5
389
 100
AcDbEntity
   8
LEVEL001
 370
13
  62
1
 100
AcDbMText
  10
 5688.7852592932
  20
 4100.0248384574
  30
0.0
  40
 80.000000000000
  41
0.0
  71
4
  72
1
   1
{\T1.000000;※構成部材は改良のため、変更する場合があります。}\P{\T1.000000;※本図は道路反射鏡ハンドブックに基づいています。}
   7
GMM004
  44
 0.94999981000004
   0
MTEXT
   5
38B
 100
AcDbEntity
   8
LEVEL001
 370
13
  62
1
 100
AcDbMText
  10
 6464.5001370330
  20
 665.71348314607
  30
0.0
  40
 66.000000000000
  41
0.0
  71
5
  72
1
   1
\T1.000000;ＭＦ１００Ｗ
   7
GMM001
  44
 0.79999984000003
   0
MTEXT
   5
38D
 100
AcDbEntity
   8
LEVEL001
 370
13
  62
1
 100
AcDbMText
  10
 5882.3790266370
  20
 1099.2870908420
  30
0.0
  40
 80.000000000000
  41
0.0
  71
7
  72
1
   1
\T1.000000;注意板
   7
GMM004
  44
 0.79999984000003
   0
LINE
   5
38E
 100
AcDbEntity
   8
LEVEL001
 370
13
 100
AcDbLine
   6
CONTINUOUS
  62
6
  10
 6682.3790266370
  20
 1595.7134831461
  30
0.0
  11
 8148.1368058451
  21
 1595.7134831461
  31
0.0
   0
MTEXT
   5
390
 100
AcDbEntity
   8
LEVEL001
 370
13
  62
1
 100
AcDbMText
  10
 1891.1292637195
  20
 2482.2009361458
  30
0.0
  40
 66.000000000000
  41
0.0
  71
1
  72
1
   1
{\W0.787879;\T1.000000;支柱}\P%%c{\W0.787879;\T1.000000;１０１\W0.393939;\T1.000000;.\W0.787879;\T1.000000;６ｘ４\W0.393939;\T1.000000;.\W0.787879;\T1.000000;２ｔ}\P{\W0.787879;\T1.000000;ｘ４８００Ｌ}
   7
GMM001
  44
 0.79999984000003
   0
LWPOLYLINE
   5
391
 100
AcDbEntity
   8
LEVEL001
 370
13
   6
CONTINUOUS
  62
7
 100
AcDbPolyline
  90
4
  70
1
  10
 8148.1368058451
  20
 115.71348314607
  10
 8148.1368058451
  20
 5772.5818069008
  10
 293.39908514565
  20
 5772.5818069008
  10
 293.39908514565
  20
 115.71348314607
   0
ENDSEC
  0
SECTION
  2
OBJECTS
  0
DICTIONARY
  5
C
100
AcDbDictionary
  3
ACAD_GROUP
350
D
  3
ACAD_MLINESTYLE
350
1B
  3
DWGPROPS
350
1C
  0
DICTIONARY
  5
D
102
{ACAD_REACTORS
330
C
102
}
100
AcDbDictionary
  0
DICTIONARY
  5
1B
102
{ACAD_REACTORS
330
C
102
}
100
AcDbDictionary
  3
STANDARD
350
1D
  0
MLINESTYLE
  5
1D
102
{ACAD_REACTORS
330
1B
102
}
100
AcDbMlineStyle
  2
STANDARD
 70
     0
  3

 62
   256
 51
90.0
 52
90.0
 71
     2
 49
0.5
 62
   256
  6
BYLAYER
 49
-0.5
 62
   256
  6
BYLAYER
   0
XRECORD
   5
1C
 102
{ACAD_REACTORS
 330
C
 102
}
 330
C
 100
AcDbXrecord
 280
1
   1
DWGPROPS COOKIE
   2
 
   3
 
   4
 
   6
 
   7
MF100W
   8
 
   9

 300
 = 
 301
 = 
 302
 = 
 303
 = 
 304
 = 
 305
 = 
 306
 = 
 307
 = 
 308
 = 
 309
 = 
  40
0.0
  41
 2460328.5000000
  42
 2460328.5000000
   1

  90
10
   0
ENDSEC
   0
EOF
