   0
SECTION
   2
HEADER
   9
$ACADVER
   1
AC1015
   9
$DWGCODEPAGE
   3
ANSI_932
   9
$LIMMIN
  10
0.0
  20
0.0
   9
$LIMMAX
  10
 8400.0000000000
  20
 5940.0000000000
   9
$EXTMIN
  10
0.0
  20
0.0
  30
0.0
   9
$EXTMAX
  10
 8400.0000000000
  20
 5940.0000000000
  30
0.0
   9
$LTSCALE
  40
 168.00000000000
   9
$HANDSEED
   5
347
   0
ENDSEC
   0
SECTION
   2
TABLES
  0
TABLE
  2
VPORT
  5
8
100
AcDbSymbolTable
 70
     1
  0
VPORT
  5
346
100
AcDbSymbolTableRecord
100
AcDbViewportTableRecord
  2
*ACTIVE
 70
     0
 10
0.0
 20
0.0
 11
1.0
 21
1.0
  12
 4200.0000000000
  22
 2970.0000000000
 13
0.0
 23
0.0
 14
1.0
 24
1.0
 15
0.0
 25
0.0
 16
0.0
 26
0.0
 36
1.0
 17
0.0
 27
0.0
 37
0.0
  40
 8400.0000000000
  41
 1.4787878787879
 42
50.0
 43
0.0
 44
0.0
 50
0.0
 51
0.0
 71
     0
 72
   100
 73
     1
 74
     1
 75
     0
 76
     0
 77
     0
 78
     0
  0
ENDTAB
  0
TABLE
  2
LTYPE
  5
5
100
AcDbSymbolTable
 70
    25
  0
LTYPE
  5
12
100
AcDbSymbolTableRecord
100
AcDbLinetypeTableRecord
  2
BYBLOCK
 70
     0
  3

 72
    65
 73
     0
 40
0.0
  0
LTYPE
  5
13
100
AcDbSymbolTableRecord
100
AcDbLinetypeTableRecord
  2
BYLAYER
 70
     0
  3

 72
    65
 73
     0
 40
0.0
  0
LTYPE
  5
14
100
AcDbSymbolTableRecord
100
AcDbLinetypeTableRecord
  2
CONTINUOUS
 70
     0
  3
Solid line
 72
    65
 73
     0
 40
0.0
  0
LTYPE
  5
20
100
AcDbSymbolTableRecord
100
AcDbLinetypeTableRecord
  2
BORDER
 70
     0
  3
__ __ . __ __ . __ __ . __ __ . __ __ . __ __ .
 72
    65
 73
     6
 40
1.75
 49
0.5
 74
     0
 49
-0.25
 74
     0
 49
0.5
 74
     0
 49
-0.25
 74
     0
 49
0.0
 74
     0
 49
-0.25
 74
     0
  0
LTYPE
  5
21
100
AcDbSymbolTableRecord
100
AcDbLinetypeTableRecord
  2
BORDER2
 70
     0
  3
__.__.__.__.__.__.__.__.__.__.__.__.__.__.__.__
 72
    65
 73
     6
 40
0.875
 49
0.25
 74
     0
 49
-0.125
 74
     0
 49
0.25
 74
     0
 49
-0.125
 74
     0
 49
0.0
 74
     0
 49
-0.125
 74
     0
  0
LTYPE
  5
22
100
AcDbSymbolTableRecord
100
AcDbLinetypeTableRecord
  2
BORDERX2
 70
     0
  3
____  ____  .  ____  ____  .  ____  ____  .  __
 72
    65
 73
     6
 40
3.5
 49
1.0
 74
     0
 49
-0.5
 74
     0
 49
1.0
 74
     0
 49
-0.5
 74
     0
 49
0.0
 74
     0
 49
-0.5
 74
     0
  0
LTYPE
  5
23
100
AcDbSymbolTableRecord
100
AcDbLinetypeTableRecord
  2
CENTER
 70
     0
  3
____ _ ____ _ ____ _ ____ _ ____ _ ____ _ ____ 
 72
    65
 73
     4
 40
2.0
 49
1.25
 74
     0
 49
-0.25
 74
     0
 49
0.25
 74
     0
 49
-0.25
 74
     0
  0
LTYPE
  5
24
100
AcDbSymbolTableRecord
100
AcDbLinetypeTableRecord
  2
CENTER2
 70
     0
  3
___ _ ___ _ ___ _ ___ _ ___ _ ___ _ ___ _ ___ _
 72
    65
 73
     4
 40
1.125
 49
0.75
 74
     0
 49
-0.125
 74
     0
 49
0.125
 74
     0
 49
-0.125
 74
     0
  0
LTYPE
  5
25
100
AcDbSymbolTableRecord
100
AcDbLinetypeTableRecord
  2
CENTERX2
 70
     0
  3
________  __  ________  __  ________  __  _____
 72
    65
 73
     4
 40
4.0
 49
2.5
 74
     0
 49
-0.5
 74
     0
 49
0.5
 74
     0
 49
-0.5
 74
     0
  0
LTYPE
  5
26
100
AcDbSymbolTableRecord
100
AcDbLinetypeTableRecord
  2
DASHDOT
 70
     0
  3
__ . __ . __ . __ . __ . __ . __ . __ . __ . __
 72
    65
 73
     4
 40
1.0
 49
0.5
 74
     0
 49
-0.25
 74
     0
 49
0.0
 74
     0
 49
-0.25
 74
     0
  0
LTYPE
  5
27
100
AcDbSymbolTableRecord
100
AcDbLinetypeTableRecord
  2
DASHDOT2
 70
     0
  3
_._._._._._._._._._._._._._._._._._._._._._._._
 72
    65
 73
     4
 40
0.5
 49
0.25
 74
     0
 49
-0.125
 74
     0
 49
0.0
 74
     0
 49
-0.125
 74
     0
  0
LTYPE
  5
28
100
AcDbSymbolTableRecord
100
AcDbLinetypeTableRecord
  2
DASHDOTX2
 70
     0
  3
____  .  ____  .  ____  .  ____  .  ____  .  __
 72
    65
 73
     4
 40
2.0
 49
1.0
 74
     0
 49
-0.5
 74
     0
 49
0.0
 74
     0
 49
-0.5
 74
     0
  0
LTYPE
  5
29
100
AcDbSymbolTableRecord
100
AcDbLinetypeTableRecord
  2
DASHED
 70
     0
  3
__ __ __ __ __ __ __ __ __ __ __ __ __ __ __ __
 72
    65
 73
     2
 40
0.75
 49
0.5
 74
     0
 49
-0.25
 74
     0
  0
LTYPE
  5
2A
100
AcDbSymbolTableRecord
100
AcDbLinetypeTableRecord
  2
DASHED2
 70
     0
  3
_ _ _ _ _ _ _ _ _ _ _ _ _ _ _ _ _ _ _ _ _ _ _ _
 72
    65
 73
     2
 40
0.375
 49
0.25
 74
     0
 49
-0.125
 74
     0
  0
LTYPE
  5
2B
100
AcDbSymbolTableRecord
100
AcDbLinetypeTableRecord
  2
DASHEDX2
 70
     0
  3
____  ____  ____  ____  ____  ____  ____  ____ 
 72
    65
 73
     2
 40
1.5
 49
1.0
 74
     0
 49
-0.5
 74
     0
  0
LTYPE
  5
2C
100
AcDbSymbolTableRecord
100
AcDbLinetypeTableRecord
  2
DIVIDE
 70
     0
  3
____ . . ____ . . ____ . . ____ . . ____ . . __
 72
    65
 73
     6
 40
1.25
 49
0.5
 74
     0
 49
-0.25
 74
     0
 49
0.0
 74
     0
 49
-0.25
 74
     0
 49
0.0
 74
     0
 49
-0.25
 74
     0
  0
LTYPE
  5
2D
100
AcDbSymbolTableRecord
100
AcDbLinetypeTableRecord
  2
DIVIDE2
 70
     0
  3
__..__..__..__..__..__..__..__..__..__..__..__.
 72
    65
 73
     6
 40
0.625
 49
0.25
 74
     0
 49
-0.125
 74
     0
 49
0.0
 74
     0
 49
-0.125
 74
     0
 49
0.0
 74
     0
 49
-0.125
 74
     0
  0
LTYPE
  5
2E
100
AcDbSymbolTableRecord
100
AcDbLinetypeTableRecord
  2
DIVIDEX2
 70
     0
  3
________  .  .  ________  .  .  ________  .  . 
 72
    65
 73
     6
 40
2.5
 49
1.0
 74
     0
 49
-0.5
 74
     0
 49
0.0
 74
     0
 49
-0.5
 74
     0
 49
0.0
 74
     0
 49
-0.5
 74
     0
  0
LTYPE
  5
2F
100
AcDbSymbolTableRecord
100
AcDbLinetypeTableRecord
  2
DOT
 70
     0
  3
. . . . . . . . . . . . . . . . . . . . . . . .
 72
    65
 73
     2
 40
0.25
 49
0.0
 74
     0
 49
-0.25
 74
     0
  0
LTYPE
  5
30
100
AcDbSymbolTableRecord
100
AcDbLinetypeTableRecord
  2
DOT2
 70
     0
  3
...............................................
 72
    65
 73
     2
 40
0.125
 49
0.0
 74
     0
 49
-0.125
 74
     0
  0
LTYPE
  5
31
100
AcDbSymbolTableRecord
100
AcDbLinetypeTableRecord
  2
DOTX2
 70
     0
  3
.  .  .  .  .  .  .  .  .  .  .  .  .  .  .  . 
 72
    65
 73
     2
 40
0.5
 49
0.0
 74
     0
 49
-0.5
 74
     0
  0
LTYPE
  5
32
100
AcDbSymbolTableRecord
100
AcDbLinetypeTableRecord
  2
HIDDEN
 70
     0
  3
__ __ __ __ __ __ __ __ __ __ __ __ __ __ __ __
 72
    65
 73
     2
 40
0.375
 49
0.25
 74
     0
 49
-0.125
 74
     0
  0
LTYPE
  5
33
100
AcDbSymbolTableRecord
100
AcDbLinetypeTableRecord
  2
HIDDEN2
 70
     0
  3
_ _ _ _ _ _ _ _ _ _ _ _ _ _ _ _ _ _ _ _ _ _ _ _
 72
    65
 73
     2
 40
0.1875
 49
0.125
 74
     0
 49
-0.0625
 74
     0
  0
LTYPE
  5
34
100
AcDbSymbolTableRecord
100
AcDbLinetypeTableRecord
  2
HIDDENX2
 70
     0
  3
____ ____ ____ ____ ____ ____ ____ ____ ____ __
 72
    65
 73
     2
 40
0.75
 49
0.5
 74
     0
 49
-0.25
 74
     0
  0
LTYPE
  5
35
100
AcDbSymbolTableRecord
100
AcDbLinetypeTableRecord
  2
PHANTOM
 70
     0
  3
______  __  __  ______  __  __  ______  __  __ 
 72
    65
 73
     6
 40
2.5
 49
1.25
 74
     0
 49
-0.25
 74
     0
 49
0.25
 74
     0
 49
-0.25
 74
     0
 49
0.25
 74
     0
 49
-0.25
 74
     0
  0
LTYPE
  5
36
100
AcDbSymbolTableRecord
100
AcDbLinetypeTableRecord
  2
PHANTOM2
 70
     0
  3
___ _ _ ___ _ _ ___ _ _ ___ _ _ ___ _ _ ___ _ _
 72
    65
 73
     6
 40
1.25
 49
0.625
 74
     0
 49
-0.125
 74
     0
 49
0.125
 74
     0
 49
-0.125
 74
     0
 49
0.125
 74
     0
 49
-0.125
 74
     0
  0
LTYPE
  5
37
100
AcDbSymbolTableRecord
100
AcDbLinetypeTableRecord
  2
PHANTOMX2
 70
     0
  3
____________    ____    ____    ____________   
 72
    65
 73
     6
 40
5.0
 49
2.5
 74
     0
 49
-0.5
 74
     0
 49
0.5
 74
     0
 49
-0.5
 74
     0
 49
0.5
 74
     0
 49
-0.5
 74
     0
  0
ENDTAB
   0
TABLE
   2
LAYER
   5
2
 100
AcDbSymbolTable
  70
2
   0
LAYER
   5
E
 100
AcDbSymbolTableRecord
 100
AcDbLayerTableRecord
   2
0
  70
0
  62
7
   6
CONTINUOUS
 390
30
   0
LAYER
   5
39
 100
AcDbSymbolTableRecord
 100
AcDbLayerTableRecord
   2
LEVEL001
  70
0
  62
7
   6
CONTINUOUS
 390
30
   0
ENDTAB
  0
TABLE
  2
STYLE
  5
3
100
AcDbSymbolTable
  70
11
  0
STYLE
  5
F
100
AcDbSymbolTableRecord
100
AcDbTextStyleTableRecord
  2
STANDARD
 70
     0
 40
0.0
 41
1.0
 50
0.0
 71
     0
 42
0.2
  3
TXT
  4
BIGFONT
  0
STYLE
  5
38
100
AcDbSymbolTableRecord
100
AcDbTextStyleTableRecord
  2
STANDARD1
 70
     4
 40
0.0
 41
1.0
 50
0.0
 71
     0
 42
0.2
  3
TXT
  4
BIGFONT
   0
STYLE
   5
3A
 100
AcDbSymbolTableRecord
 100
AcDbTextStyleTableRecord
   2
GMM001
  70
0
  40
0.0
  41
 1.0000000000000
  50
0.0
  71
     0
  42
1.0
   3
txt.shx
   4
bigfont.shx
   0
STYLE
   5
3B
 100
AcDbSymbolTableRecord
 100
AcDbTextStyleTableRecord
   2
GMM002
  70
0
  40
0.0
  41
 0.78787878787879
  50
0.0
  71
     0
  42
1.0
   3
txt.shx
   4
bigfont.shx
   0
STYLE
   5
3C
 100
AcDbSymbolTableRecord
 100
AcDbTextStyleTableRecord
   2
GMM003
  70
0
  40
0.0
  41
 0.75000000000000
  50
0.0
  71
     0
  42
1.0
   3
txt.shx
   4
bigfont.shx
   0
STYLE
   5
3D
 100
AcDbSymbolTableRecord
 100
AcDbTextStyleTableRecord
   2
GMM004
  70
0
  40
0.0
  41
 0.90000000000000
  50
0.0
  71
     0
  42
1.0
   3

   4

1001
ACAD
1000
ＭＳ 明朝
1071
33587217
   0
STYLE
   5
3E
 100
AcDbSymbolTableRecord
 100
AcDbTextStyleTableRecord
   2
GMM005
  70
0
  40
0.0
  41
 0.87500000000000
  50
0.0
  71
     0
  42
1.0
   3
txt.shx
   4
bigfont.shx
   0
STYLE
   5
3F
 100
AcDbSymbolTableRecord
 100
AcDbTextStyleTableRecord
   2
GMM006
  70
0
  40
0.0
  41
 0.90000000000000
  50
0.0
  71
     0
  42
1.0
   3
txt.shx
   4
bigfont.shx
   0
STYLE
   5
40
 100
AcDbSymbolTableRecord
 100
AcDbTextStyleTableRecord
   2
GMM007
  70
0
  40
0.0
  41
 1.0000000000000
  50
0.0
  71
     0
  42
1.0
   3

   4

1001
ACAD
1000
ＭＳ 明朝
1071
32785
   0
STYLE
   5
41
 100
AcDbSymbolTableRecord
 100
AcDbTextStyleTableRecord
   2
GMM008
  70
0
  40
0.0
  41
 0.65000000000000
  50
0.0
  71
     0
  42
1.0
   3
txt.shx
   4
bigfont.shx
   0
STYLE
   5
42
 100
AcDbSymbolTableRecord
 100
AcDbTextStyleTableRecord
   2
GMM009
  70
0
  40
0.0
  41
 1.6363636363636
  50
0.0
  71
     0
  42
1.0
   3
txt.shx
   4
bigfont.shx
   0
ENDTAB
  0
TABLE
  2
VIEW
  5
6
100
AcDbSymbolTable
 70
     0
  0
ENDTAB
  0
TABLE
  2
UCS
  5
7
100
AcDbSymbolTable
 70
     0
  0
ENDTAB
  0
TABLE
  2
APPID
  5
9
100
AcDbSymbolTable
 70
     1
  0
APPID
  5
10
100
AcDbSymbolTableRecord
100
AcDbRegAppTableRecord
  2
ACAD
 70
     0
  0
ENDTAB
   0
TABLE
   2
DIMSTYLE
   5
A
 100
AcDbSymbolTable
  70
13
 100
AcDbDimStyleTable
  0
DIMSTYLE
105
1D
100
AcDbSymbolTableRecord
100
AcDbDimStyleTableRecord
  2
STANDARD
 70
     0
  3

  4

  5

  6

  7

 40
1.0
 41
0.18
 42
0.0625
 43
0.38
 44
0.18
 45
0.0
 46
0.0
 47
0.0
 48
0.0
140
0.18
141
0.09
142
0.0
143
25.4
144
1.0
145
0.0
146
1.0
147
0.09
 71
     0
 72
     0
 73
     1
 74
     1
 75
     0
 76
     0
 77
     0
 78
     0
170
     0
171
     2
172
     0
173
     0
174
     0
175
     0
176
     0
177
     0
178
     0
270
     2
271
     4
272
     4
273
     2
274
     2
340
F
275
     0
280
     0
281
     0
282
     0
283
     1
284
     0
285
     0
286
     0
287
     3
288
     0
   0
DIMSTYLE
 105
43
 100
AcDbSymbolTableRecord
 100
AcDbDimStyleTableRecord
   2
GMM001
  70
0
   3
%%c<>
   4

   5

   6
_OPEN
   7
_OPEN
  40
 1.0000000000000
  41
 30.000000000000
  42
 30.000000000000
  43
 160.00000000000
  44
 30.000000000000
  45
0.0
  46
 37.500000000000
  47
0.0
  48
0.0
 140
 66.000000000000
 141
 20.000000000000
 142
0.0
 143
 0.39400000000000E-1
 144
 1.0000000000000
 145
0.0
 146
 0.62500000000000
 147
 28.285714285714
  71
0
  72
0
  73
0
  74
0
  75
1
  76
1
  77
1
  78
8
 170
0
 171
2
 172
1
 173
1
 174
0
 175
0
 176
6
 177
6
 178
1
 270
2
 271
1
 272
0
 273
2
 274
2
 340
3B
 275
0
 280
0
 281
0
 282
0
 283
1
 284
0
 285
0
 286
0
 287
0
 288
0
   0
DIMSTYLE
 105
44
 100
AcDbSymbolTableRecord
 100
AcDbDimStyleTableRecord
   2
GMM002
  70
0
   3

   4

   5

   6
_OPEN
   7
_OPEN
  40
 1.0000000000000
  41
 30.000000000000
  42
 30.000000000000
  43
 160.00000000000
  44
 30.000000000000
  45
0.0
  46
 37.500000000000
  47
0.0
  48
0.0
 140
 66.000000000000
 141
 20.000000000000
 142
0.0
 143
 0.39400000000000E-1
 144
 1.0000000000000
 145
0.0
 146
 0.62500000000000
 147
0.0
  71
0
  72
0
  73
0
  74
0
  75
1
  76
1
  77
0
  78
8
 170
0
 171
2
 172
1
 173
1
 174
0
 175
0
 176
1
 177
1
 178
1
 270
2
 271
1
 272
0
 273
2
 274
2
 340
F
 275
0
 280
0
 281
0
 282
0
 283
1
 284
0
 285
0
 286
0
 287
3
 288
0
   0
DIMSTYLE
 105
45
 100
AcDbSymbolTableRecord
 100
AcDbDimStyleTableRecord
   2
GMM003
  70
0
   3

   4

   5

   6
_OPEN
   7
_OPEN
  40
 1.0000000000000
  41
 30.000000000000
  42
 30.000000000000
  43
 160.00000000000
  44
 30.000000000000
  45
0.0
  46
 37.500000000000
  47
0.0
  48
0.0
 140
 66.000000000000
 141
 20.000000000000
 142
0.0
 143
 0.39400000000000E-1
 144
 1.0000000000000
 145
0.0
 146
 0.62500000000000
 147
 28.285714285714
  71
0
  72
0
  73
0
  74
0
  75
0
  76
1
  77
1
  78
8
 170
0
 171
2
 172
1
 173
1
 174
0
 175
0
 176
6
 177
6
 178
1
 270
2
 271
1
 272
0
 273
2
 274
2
 340
3B
 275
0
 280
0
 281
0
 282
0
 283
1
 284
0
 285
0
 286
0
 287
3
 288
0
   0
DIMSTYLE
 105
46
 100
AcDbSymbolTableRecord
 100
AcDbDimStyleTableRecord
   2
GMM004
  70
0
   3
<>(標準設置高さ
   4

   5

   6
_OPEN
   7
_OPEN
  40
 1.0000000000000
  41
 30.000000000000
  42
 30.000000000000
  43
 160.00000000000
  44
 30.000000000000
  45
0.0
  46
 37.500000000000
  47
0.0
  48
0.0
 140
 66.000000000000
 141
 20.000000000000
 142
0.0
 143
 0.39400000000000E-1
 144
 1.0000000000000
 145
0.0
 146
 0.62500000000000
 147
 28.285714285714
  71
0
  72
0
  73
0
  74
0
  75
0
  76
0
  77
1
  78
8
 170
0
 171
2
 172
1
 173
1
 174
0
 175
0
 176
6
 177
6
 178
1
 270
2
 271
1
 272
0
 273
2
 274
2
 340
3B
 275
0
 280
0
 281
0
 282
0
 283
1
 284
0
 285
0
 286
0
 287
3
 288
0
   0
DIMSTYLE
 105
47
 100
AcDbSymbolTableRecord
 100
AcDbDimStyleTableRecord
   2
GMM005
  70
0
   3

   4

   5

   6
_OPEN
   7
_OPEN
  40
 1.0000000000000
  41
 30.000000000000
  42
 30.000000000000
  43
 160.00000000000
  44
 30.000000000000
  45
0.0
  46
 37.500000000000
  47
0.0
  48
0.0
 140
 66.000000000000
 141
 20.000000000000
 142
0.0
 143
 0.39400000000000E-1
 144
 1.0000000000000
 145
0.0
 146
 0.62500000000000
 147
 28.285714285714
  71
0
  72
0
  73
0
  74
0
  75
1
  76
0
  77
1
  78
8
 170
0
 171
2
 172
1
 173
1
 174
0
 175
0
 176
6
 177
6
 178
1
 270
2
 271
1
 272
0
 273
2
 274
2
 340
3B
 275
0
 280
0
 281
0
 282
0
 283
1
 284
0
 285
0
 286
0
 287
3
 288
0
   0
DIMSTYLE
 105
48
 100
AcDbSymbolTableRecord
 100
AcDbDimStyleTableRecord
   2
GMM006
  70
0
   3

   4

   5

   6
_OPEN
   7
_OPEN
  40
 1.0000000000000
  41
 30.000000000000
  42
 30.000000000000
  43
 160.00000000000
  44
 30.000000000000
  45
0.0
  46
 37.500000000000
  47
0.0
  48
0.0
 140
 66.000000000000
 141
 20.000000000000
 142
0.0
 143
 0.39400000000000E-1
 144
 1.0000000000000
 145
0.0
 146
 0.62500000000000
 147
0.0
  71
0
  72
0
  73
0
  74
0
  75
1
  76
1
  77
0
  78
8
 170
0
 171
2
 172
1
 173
1
 174
0
 175
0
 176
1
 177
1
 178
1
 270
2
 271
1
 272
0
 273
2
 274
2
 340
F
 275
0
 280
0
 281
0
 282
0
 283
1
 284
0
 285
0
 286
0
 287
3
 288
0
   0
DIMSTYLE
 105
49
 100
AcDbSymbolTableRecord
 100
AcDbDimStyleTableRecord
   2
GMM007
  70
0
   3
□<>
   4

   5

   6
_OPEN
   7
_OPEN
  40
 1.0000000000000
  41
 30.000000000000
  42
 30.000000000000
  43
 160.00000000000
  44
 30.000000000000
  45
0.0
  46
 37.500000000000
  47
0.0
  48
0.0
 140
 66.000000000000
 141
 20.000000000000
 142
0.0
 143
 0.39400000000000E-1
 144
 1.0000000000000
 145
0.0
 146
 0.62500000000000
 147
 28.285714285714
  71
0
  72
0
  73
0
  74
0
  75
0
  76
0
  77
1
  78
8
 170
0
 171
2
 172
1
 173
1
 174
0
 175
0
 176
6
 177
6
 178
1
 270
2
 271
1
 272
0
 273
2
 274
2
 340
3B
 275
0
 280
0
 281
0
 282
0
 283
1
 284
0
 285
0
 286
0
 287
3
 288
0
   0
DIMSTYLE
 105
4A
 100
AcDbSymbolTableRecord
 100
AcDbDimStyleTableRecord
   2
GMM008
  70
0
   3

   4

   5

   6
_OPEN
   7
_OPEN
  40
 1.0000000000000
  41
 30.000000000000
  42
 30.000000000000
  43
 160.00000000000
  44
 30.000000000000
  45
0.0
  46
 37.500000000000
  47
0.0
  48
0.0
 140
 66.000000000000
 141
 20.000000000000
 142
0.0
 143
 0.39400000000000E-1
 144
 1.0000000000000
 145
0.0
 146
 0.62500000000000
 147
0.0
  71
0
  72
0
  73
0
  74
0
  75
1
  76
1
  77
0
  78
8
 170
0
 171
2
 172
1
 173
1
 174
0
 175
0
 176
1
 177
1
 178
1
 270
2
 271
1
 272
0
 273
2
 274
2
 340
F
 275
0
 280
0
 281
0
 282
0
 283
1
 284
0
 285
0
 286
0
 287
3
 288
0
   0
DIMSTYLE
 105
4B
 100
AcDbSymbolTableRecord
 100
AcDbDimStyleTableRecord
   2
GMM009
  70
0
   3
□<>
   4

   5

   6
_OPEN
   7
_OPEN
  40
 1.0000000000000
  41
 30.000000000000
  42
 30.000000000000
  43
 160.00000000000
  44
 30.000000000000
  45
0.0
  46
 37.500000000000
  47
0.0
  48
0.0
 140
 66.000000000000
 141
 20.000000000000
 142
0.0
 143
 0.39400000000000E-1
 144
 1.0000000000000
 145
0.0
 146
 0.62500000000000
 147
 28.285714285714
  71
0
  72
0
  73
0
  74
0
  75
0
  76
0
  77
1
  78
8
 170
0
 171
2
 172
1
 173
1
 174
0
 175
0
 176
6
 177
6
 178
1
 270
2
 271
1
 272
0
 273
2
 274
2
 340
3B
 275
0
 280
0
 281
0
 282
0
 283
1
 284
0
 285
0
 286
0
 287
3
 288
0
   0
DIMSTYLE
 105
4C
 100
AcDbSymbolTableRecord
 100
AcDbDimStyleTableRecord
   2
GMM010
  70
0
   3

   4

   5

   6
_OPEN
   7
_OPEN
  40
 1.0000000000000
  41
 30.000000000000
  42
 30.000000000000
  43
 160.00000000000
  44
 30.000000000000
  45
0.0
  46
 37.500000000000
  47
0.0
  48
0.0
 140
 66.000000000000
 141
 20.000000000000
 142
0.0
 143
 0.39400000000000E-1
 144
 1.0000000000000
 145
0.0
 146
 0.62500000000000
 147
0.0
  71
0
  72
0
  73
0
  74
0
  75
1
  76
1
  77
0
  78
8
 170
0
 171
2
 172
1
 173
1
 174
0
 175
0
 176
1
 177
1
 178
1
 270
2
 271
1
 272
0
 273
2
 274
2
 340
F
 275
0
 280
0
 281
0
 282
0
 283
1
 284
0
 285
0
 286
0
 287
3
 288
0
   0
DIMSTYLE
 105
4D
 100
AcDbSymbolTableRecord
 100
AcDbDimStyleTableRecord
   2
GMM011
  70
0
   3

   4

   5

   6
_OPEN
   7
_OPEN
  40
 1.0000000000000
  41
 40.000000000000
  42
 40.000000000000
  43
 160.00000000000
  44
 40.000000000000
  45
0.0
  46
 50.000000000000
  47
0.0
  48
0.0
 140
 66.000000000000
 141
 20.000000000000
 142
0.0
 143
 0.39400000000000E-1
 144
 1.0000000000000
 145
0.0
 146
 0.62500000000000
 147
0.0
  71
0
  72
0
  73
0
  74
0
  75
1
  76
1
  77
1
  78
0
 170
0
 171
2
 172
1
 173
1
 174
0
 175
0
 176
6
 177
6
 178
1
 270
2
 271
0
 272
0
 273
2
 274
2
 340
3B
 275
1
 280
0
 281
0
 282
0
 283
1
 284
0
 285
0
 286
0
 287
3
 288
0
   0
ENDTAB
  0
TABLE
  2
BLOCK_RECORD
  5
1
100
AcDbSymbolTable
 70
     0
  0
BLOCK_RECORD
  5
18
100
AcDbSymbolTableRecord
100
AcDbBlockTableRecord
  2
*MODEL_SPACE
  0
BLOCK_RECORD
  5
15
100
AcDbSymbolTableRecord
100
AcDbBlockTableRecord
  2
*PAPER_SPACE
   0
BLOCK_RECORD
   5
4E
 100
AcDbSymbolTableRecord
 100
AcDbBlockTableRecord
   2
*D1
   0
BLOCK_RECORD
   5
4F
 100
AcDbSymbolTableRecord
 100
AcDbBlockTableRecord
   2
*D11
   0
BLOCK_RECORD
   5
50
 100
AcDbSymbolTableRecord
 100
AcDbBlockTableRecord
   2
*D12
   0
BLOCK_RECORD
   5
51
 100
AcDbSymbolTableRecord
 100
AcDbBlockTableRecord
   2
*D13
   0
BLOCK_RECORD
   5
52
 100
AcDbSymbolTableRecord
 100
AcDbBlockTableRecord
   2
*D14
   0
BLOCK_RECORD
   5
53
 100
AcDbSymbolTableRecord
 100
AcDbBlockTableRecord
   2
*D17
   0
BLOCK_RECORD
   5
54
 100
AcDbSymbolTableRecord
 100
AcDbBlockTableRecord
   2
*D19
   0
BLOCK_RECORD
   5
55
 100
AcDbSymbolTableRecord
 100
AcDbBlockTableRecord
   2
_ARCHTICK
   0
BLOCK_RECORD
   5
56
 100
AcDbSymbolTableRecord
 100
AcDbBlockTableRecord
   2
_BOXBLANK
   0
BLOCK_RECORD
   5
57
 100
AcDbSymbolTableRecord
 100
AcDbBlockTableRecord
   2
_BOXFILLED
   0
BLOCK_RECORD
   5
58
 100
AcDbSymbolTableRecord
 100
AcDbBlockTableRecord
   2
_CLOSED
   0
BLOCK_RECORD
   5
59
 100
AcDbSymbolTableRecord
 100
AcDbBlockTableRecord
   2
_CLOSEDBLANK
   0
BLOCK_RECORD
   5
5A
 100
AcDbSymbolTableRecord
 100
AcDbBlockTableRecord
   2
_DATUMBLANK
   0
BLOCK_RECORD
   5
5B
 100
AcDbSymbolTableRecord
 100
AcDbBlockTableRecord
   2
_DATUMFILLED
   0
BLOCK_RECORD
   5
5C
 100
AcDbSymbolTableRecord
 100
AcDbBlockTableRecord
   2
_DOT
   0
BLOCK_RECORD
   5
5D
 100
AcDbSymbolTableRecord
 100
AcDbBlockTableRecord
   2
_DOTBLANK
   0
BLOCK_RECORD
   5
5E
 100
AcDbSymbolTableRecord
 100
AcDbBlockTableRecord
   2
_DOTSMALL
   0
BLOCK_RECORD
   5
5F
 100
AcDbSymbolTableRecord
 100
AcDbBlockTableRecord
   2
_INTEGRAL
   0
BLOCK_RECORD
   5
60
 100
AcDbSymbolTableRecord
 100
AcDbBlockTableRecord
   2
_NONE
   0
BLOCK_RECORD
   5
61
 100
AcDbSymbolTableRecord
 100
AcDbBlockTableRecord
   2
_OBLIQUE
   0
BLOCK_RECORD
   5
62
 100
AcDbSymbolTableRecord
 100
AcDbBlockTableRecord
   2
_OPEN
   0
BLOCK_RECORD
   5
63
 100
AcDbSymbolTableRecord
 100
AcDbBlockTableRecord
   2
_OPEN30
   0
BLOCK_RECORD
   5
64
 100
AcDbSymbolTableRecord
 100
AcDbBlockTableRecord
   2
_OPEN90
   0
BLOCK_RECORD
   5
65
 100
AcDbSymbolTableRecord
 100
AcDbBlockTableRecord
   2
_ORIGIN
   0
ENDTAB
   0
ENDSEC
  0
SECTION
  2
BLOCKS
  0
BLOCK
  5
19
100
AcDbEntity
  8
0
100
AcDbBlockBegin
  2
*MODEL_SPACE
 70
     0
 10
0.0
 20
0.0
 30
0.0
  3
*MODEL_SPACE
  1

  0
ENDBLK
  5
1A
100
AcDbEntity
  8
0
100
AcDbBlockEnd
  0
BLOCK
  5
16
100
AcDbEntity
 67
     1
  8
0
100
AcDbBlockBegin
  2
*PAPER_SPACE
 70
     0
 10
0.0
 20
0.0
 30
0.0
  3
*PAPER_SPACE
  1

  0
ENDBLK
  5
17
100
AcDbEntity
 67
     1
  8
0
100
AcDbBlockEnd
   0
BLOCK
   5
66
 100
AcDbEntity
   8
0
 100
AcDbBlockBegin
   2
_ARCHTICK
  70
0
  10
0.0
  20
0.0
  30
0.0
   3
_ARCHTICK
   0
POLYLINE
   5
67
 100
AcDbEntity
   8
0
 370
-2
   6
BYBLOCK
  62
0
 100
AcDb2dPolyline
  66
1
  10
0.0
  20
0.0
  30
0.0
  70
1
  40
 0.15000000000000
  41
 0.15000000000000
   0
VERTEX
   5
68
 100
AcDbEntity
   8
0
   6
BYBLOCK
  62
0
 100
AcDbVertex
 100
AcDb2dVertex
  10
-0.50000000000000
  20
-0.50000000000000
  30
0.0
  40
 0.15000000000000
  41
 0.15000000000000
   0
VERTEX
   5
69
 100
AcDbEntity
   8
0
   6
BYBLOCK
  62
0
 100
AcDbVertex
 100
AcDb2dVertex
  10
 0.50000000000000
  20
 0.50000000000000
  30
0.0
  40
 0.15000000000000
  41
 0.15000000000000
   0
SEQEND
   5
6A
 100
AcDbEntity
   8
0
   6
BYBLOCK
  62
0
   0
ENDBLK
   5
6B
 100
AcDbEntity
   8
0
 100
AcDbBlockEnd
   0
BLOCK
   5
6C
 100
AcDbEntity
   8
0
 100
AcDbBlockBegin
   2
_OBLIQUE
  70
0
  10
0.0
  20
0.0
  30
0.0
   3
_OBLIQUE
   0
LINE
   5
6D
 100
AcDbEntity
   8
0
 370
-2
 100
AcDbLine
   6
BYBLOCK
  62
0
  10
-0.50000000000000
  20
-0.50000000000000
  30
0.0
  11
 0.50000000000000
  21
 0.50000000000000
  31
0.0
   0
ENDBLK
   5
6E
 100
AcDbEntity
   8
0
 100
AcDbBlockEnd
   0
BLOCK
   5
6F
 100
AcDbEntity
   8
0
 100
AcDbBlockBegin
   2
_BOXBLANK
  70
0
  10
0.0
  20
0.0
  30
0.0
   3
_BOXBLANK
   0
LINE
   5
70
 100
AcDbEntity
   8
0
 370
-2
 100
AcDbLine
   6
BYBLOCK
  62
0
  10
-0.50000000000000
  20
-0.50000000000000
  30
0.0
  11
 0.50000000000000
  21
-0.50000000000000
  31
0.0
   0
LINE
   5
71
 100
AcDbEntity
   8
0
 370
-2
 100
AcDbLine
   6
BYBLOCK
  62
0
  10
 0.50000000000000
  20
-0.50000000000000
  30
0.0
  11
 0.50000000000000
  21
 0.50000000000000
  31
0.0
   0
LINE
   5
72
 100
AcDbEntity
   8
0
 370
-2
 100
AcDbLine
   6
BYBLOCK
  62
0
  10
 0.50000000000000
  20
 0.50000000000000
  30
0.0
  11
-0.50000000000000
  21
 0.50000000000000
  31
0.0
   0
LINE
   5
73
 100
AcDbEntity
   8
0
 370
-2
 100
AcDbLine
   6
BYBLOCK
  62
0
  10
-0.50000000000000
  20
 0.50000000000000
  30
0.0
  11
-0.50000000000000
  21
-0.50000000000000
  31
0.0
   0
LINE
   5
74
 100
AcDbEntity
   8
0
 370
-2
 100
AcDbLine
   6
BYBLOCK
  62
0
  10
-0.50000000000000
  20
0.0
  30
0.0
  11
-1.0000000000000
  21
0.0
  31
0.0
   0
ENDBLK
   5
75
 100
AcDbEntity
   8
0
 100
AcDbBlockEnd
   0
BLOCK
   5
76
 100
AcDbEntity
   8
0
 100
AcDbBlockBegin
   2
_BOXFILLED
  70
0
  10
0.0
  20
0.0
  30
0.0
   3
_BOXFILLED
   0
SOLID
   5
77
 100
AcDbEntity
   8
0
 100
AcDbTrace
   6
BYBLOCK
  62
0
  10
-0.50000000000000
  20
 0.50000000000000
  30
0.0
  11
 0.50000000000000
  21
 0.50000000000000
  31
0.0
  12
-0.50000000000000
  22
-0.50000000000000
  32
0.0
  13
 0.50000000000000
  23
-0.50000000000000
  33
0.0
   0
LINE
   5
78
 100
AcDbEntity
   8
0
 370
-2
 100
AcDbLine
   6
BYBLOCK
  62
0
  10
-0.50000000000000
  20
0.0
  30
0.0
  11
-1.0000000000000
  21
0.0
  31
0.0
   0
ENDBLK
   5
79
 100
AcDbEntity
   8
0
 100
AcDbBlockEnd
   0
BLOCK
   5
7A
 100
AcDbEntity
   8
0
 100
AcDbBlockBegin
   2
_CLOSED
  70
0
  10
0.0
  20
0.0
  30
0.0
   3
_CLOSED
   0
LINE
   5
7B
 100
AcDbEntity
   8
0
 370
-2
 100
AcDbLine
   6
BYBLOCK
  62
0
  10
-1.0000000000000
  20
 0.16666666666667
  30
0.0
  11
0.0
  21
0.0
  31
0.0
   0
LINE
   5
7C
 100
AcDbEntity
   8
0
 370
-2
 100
AcDbLine
   6
BYBLOCK
  62
0
  10
0.0
  20
0.0
  30
0.0
  11
-1.0000000000000
  21
-0.16666666666667
  31
0.0
   0
LINE
   5
7D
 100
AcDbEntity
   8
0
 370
-2
 100
AcDbLine
   6
BYBLOCK
  62
0
  10
-1.0000000000000
  20
 0.16666666666667
  30
0.0
  11
-1.0000000000000
  21
-0.16666666666667
  31
0.0
   0
LINE
   5
7E
 100
AcDbEntity
   8
0
 370
-2
 100
AcDbLine
   6
BYBLOCK
  62
0
  10
0.0
  20
0.0
  30
0.0
  11
-1.0000000000000
  21
0.0
  31
0.0
   0
ENDBLK
   5
7F
 100
AcDbEntity
   8
0
 100
AcDbBlockEnd
   0
BLOCK
   5
80
 100
AcDbEntity
   8
0
 100
AcDbBlockBegin
   2
_OPEN
  70
0
  10
0.0
  20
0.0
  30
0.0
   3
_OPEN
   0
LINE
   5
81
 100
AcDbEntity
   8
0
 370
-2
 100
AcDbLine
   6
BYBLOCK
  62
0
  10
-1.0000000000000
  20
 0.16666666666667
  30
0.0
  11
0.0
  21
0.0
  31
0.0
   0
LINE
   5
82
 100
AcDbEntity
   8
0
 370
-2
 100
AcDbLine
   6
BYBLOCK
  62
0
  10
0.0
  20
0.0
  30
0.0
  11
-1.0000000000000
  21
-0.16666666666667
  31
0.0
   0
LINE
   5
83
 100
AcDbEntity
   8
0
 370
-2
 100
AcDbLine
   6
BYBLOCK
  62
0
  10
0.0
  20
0.0
  30
0.0
  11
-1.0000000000000
  21
0.0
  31
0.0
   0
ENDBLK
   5
84
 100
AcDbEntity
   8
0
 100
AcDbBlockEnd
   0
BLOCK
   5
85
 100
AcDbEntity
   8
0
 100
AcDbBlockBegin
   2
_OPEN30
  70
0
  10
0.0
  20
0.0
  30
0.0
   3
_OPEN30
   0
LINE
   5
86
 100
AcDbEntity
   8
0
 370
-2
 100
AcDbLine
   6
BYBLOCK
  62
0
  10
-1.0000000000000
  20
 0.26794919243110
  30
0.0
  11
0.0
  21
0.0
  31
0.0
   0
LINE
   5
87
 100
AcDbEntity
   8
0
 370
-2
 100
AcDbLine
   6
BYBLOCK
  62
0
  10
0.0
  20
0.0
  30
0.0
  11
-1.0000000000000
  21
-0.26794919243110
  31
0.0
   0
LINE
   5
88
 100
AcDbEntity
   8
0
 370
-2
 100
AcDbLine
   6
BYBLOCK
  62
0
  10
0.0
  20
0.0
  30
0.0
  11
-1.0000000000000
  21
0.0
  31
0.0
   0
ENDBLK
   5
89
 100
AcDbEntity
   8
0
 100
AcDbBlockEnd
   0
BLOCK
   5
8A
 100
AcDbEntity
   8
0
 100
AcDbBlockBegin
   2
_OPEN90
  70
0
  10
0.0
  20
0.0
  30
0.0
   3
_OPEN90
   0
LINE
   5
8B
 100
AcDbEntity
   8
0
 370
-2
 100
AcDbLine
   6
BYBLOCK
  62
0
  10
-0.50000000000000
  20
 0.50000000000000
  30
0.0
  11
0.0
  21
0.0
  31
0.0
   0
LINE
   5
8C
 100
AcDbEntity
   8
0
 370
-2
 100
AcDbLine
   6
BYBLOCK
  62
0
  10
0.0
  20
0.0
  30
0.0
  11
-0.50000000000000
  21
-0.50000000000000
  31
0.0
   0
LINE
   5
8D
 100
AcDbEntity
   8
0
 370
-2
 100
AcDbLine
   6
BYBLOCK
  62
0
  10
0.0
  20
0.0
  30
0.0
  11
-1.0000000000000
  21
0.0
  31
0.0
   0
ENDBLK
   5
8E
 100
AcDbEntity
   8
0
 100
AcDbBlockEnd
   0
BLOCK
   5
8F
 100
AcDbEntity
   8
0
 100
AcDbBlockBegin
   2
_CLOSEDBLANK
  70
0
  10
0.0
  20
0.0
  30
0.0
   3
_CLOSEDBLANK
   0
LINE
   5
90
 100
AcDbEntity
   8
0
 370
-2
 100
AcDbLine
   6
BYBLOCK
  62
0
  10
-1.0000000000000
  20
 0.16666666666667
  30
0.0
  11
0.0
  21
0.0
  31
0.0
   0
LINE
   5
91
 100
AcDbEntity
   8
0
 370
-2
 100
AcDbLine
   6
BYBLOCK
  62
0
  10
0.0
  20
0.0
  30
0.0
  11
-1.0000000000000
  21
-0.16666666666667
  31
0.0
   0
LINE
   5
92
 100
AcDbEntity
   8
0
 370
-2
 100
AcDbLine
   6
BYBLOCK
  62
0
  10
-1.0000000000000
  20
 0.16666666666667
  30
0.0
  11
-1.0000000000000
  21
-0.16666666666667
  31
0.0
   0
ENDBLK
   5
93
 100
AcDbEntity
   8
0
 100
AcDbBlockEnd
   0
BLOCK
   5
94
 100
AcDbEntity
   8
0
 100
AcDbBlockBegin
   2
_DOT
  70
0
  10
0.0
  20
0.0
  30
0.0
   3
_DOT
   0
POLYLINE
   5
95
 100
AcDbEntity
   8
0
 370
-2
   6
BYBLOCK
  62
0
 100
AcDb2dPolyline
  66
1
  10
0.0
  20
0.0
  30
0.0
  70
1
  40
 0.50000000000000
  41
 0.50000000000000
   0
VERTEX
   5
96
 100
AcDbEntity
   8
0
   6
BYBLOCK
  62
0
 100
AcDbVertex
 100
AcDb2dVertex
  10
-0.25000000000000
  20
0.0
  30
0.0
  42
 1.0000000000000
  40
 0.50000000000000
  41
 0.50000000000000
   0
VERTEX
   5
97
 100
AcDbEntity
   8
0
   6
BYBLOCK
  62
0
 100
AcDbVertex
 100
AcDb2dVertex
  10
 0.25000000000000
  20
0.0
  30
0.0
  42
 1.0000000000000
  40
 0.50000000000000
  41
 0.50000000000000
   0
SEQEND
   5
98
 100
AcDbEntity
   8
0
   6
BYBLOCK
  62
0
   0
LINE
   5
99
 100
AcDbEntity
   8
0
 370
-2
 100
AcDbLine
   6
BYBLOCK
  62
0
  10
-0.50000000000000
  20
0.0
  30
0.0
  11
-1.0000000000000
  21
0.0
  31
0.0
   0
ENDBLK
   5
9A
 100
AcDbEntity
   8
0
 100
AcDbBlockEnd
   0
BLOCK
   5
9B
 100
AcDbEntity
   8
0
 100
AcDbBlockBegin
   2
_DOTSMALL
  70
0
  10
0.0
  20
0.0
  30
0.0
   3
_DOTSMALL
   0
POLYLINE
   5
9C
 100
AcDbEntity
   8
0
 370
-2
   6
BYBLOCK
  62
0
 100
AcDb2dPolyline
  66
1
  10
0.0
  20
0.0
  30
0.0
  70
1
  40
 0.50000000000000
  41
 0.50000000000000
   0
VERTEX
   5
9D
 100
AcDbEntity
   8
0
   6
BYBLOCK
  62
0
 100
AcDbVertex
 100
AcDb2dVertex
  10
-0.62500000000000E-1
  20
0.0
  30
0.0
  42
 1.0000000000000
  40
 0.50000000000000
  41
 0.50000000000000
   0
VERTEX
   5
9E
 100
AcDbEntity
   8
0
   6
BYBLOCK
  62
0
 100
AcDbVertex
 100
AcDb2dVertex
  10
 0.62500000000000E-1
  20
0.0
  30
0.0
  42
 1.0000000000000
  40
 0.50000000000000
  41
 0.50000000000000
   0
SEQEND
   5
9F
 100
AcDbEntity
   8
0
   6
BYBLOCK
  62
0
   0
ENDBLK
   5
A0
 100
AcDbEntity
   8
0
 100
AcDbBlockEnd
   0
BLOCK
   5
A1
 100
AcDbEntity
   8
0
 100
AcDbBlockBegin
   2
_DATUMBLANK
  70
0
  10
0.0
  20
0.0
  30
0.0
   3
_DATUMBLANK
   0
LINE
   5
A2
 100
AcDbEntity
   8
0
 370
-2
 100
AcDbLine
   6
BYBLOCK
  62
0
  10
0.0
  20
 0.57735027000000
  30
0.0
  11
-1.0000000000000
  21
0.0
  31
0.0
   0
LINE
   5
A3
 100
AcDbEntity
   8
0
 370
-2
 100
AcDbLine
   6
BYBLOCK
  62
0
  10
-1.0000000000000
  20
0.0
  30
0.0
  11
0.0
  21
-0.57735027000000
  31
0.0
   0
LINE
   5
A4
 100
AcDbEntity
   8
0
 370
-2
 100
AcDbLine
   6
BYBLOCK
  62
0
  10
0.0
  20
-0.57735027000000
  30
0.0
  11
0.0
  21
 0.57735027000000
  31
0.0
   0
ENDBLK
   5
A5
 100
AcDbEntity
   8
0
 100
AcDbBlockEnd
   0
BLOCK
   5
A6
 100
AcDbEntity
   8
0
 100
AcDbBlockBegin
   2
_DATUMFILLED
  70
0
  10
0.0
  20
0.0
  30
0.0
   3
_DATUMFILLED
   0
SOLID
   5
A7
 100
AcDbEntity
   8
0
 100
AcDbTrace
   6
BYBLOCK
  62
0
  10
0.0
  20
 0.57735027000000
  30
0.0
  11
-1.0000000000000
  21
0.0
  31
0.0
  12
0.0
  22
-0.57735027000000
  32
0.0
  13
0.0
  23
-0.57735027000000
  33
0.0
   0
ENDBLK
   5
A8
 100
AcDbEntity
   8
0
 100
AcDbBlockEnd
   0
BLOCK
   5
A9
 100
AcDbEntity
   8
0
 100
AcDbBlockBegin
   2
_ORIGIN
  70
0
  10
0.0
  20
0.0
  30
0.0
   3
_ORIGIN
   0
CIRCLE
   5
AA
 100
AcDbEntity
   8
0
 370
-2
 100
AcDbCircle
   6
BYBLOCK
  62
0
  10
0.0
  20
0.0
  30
0.0
  40
 0.50000000000000
   0
LINE
   5
AB
 100
AcDbEntity
   8
0
 370
-2
 100
AcDbLine
   6
BYBLOCK
  62
0
  10
0.0
  20
0.0
  30
0.0
  11
-1.0000000000000
  21
0.0
  31
0.0
   0
ENDBLK
   5
AC
 100
AcDbEntity
   8
0
 100
AcDbBlockEnd
   0
BLOCK
   5
AD
 100
AcDbEntity
   8
0
 100
AcDbBlockBegin
   2
_NONE
  70
0
  10
0.0
  20
0.0
  30
0.0
   3
_NONE
   0
CIRCLE
   5
AE
 100
AcDbEntity
   8
0
 370
-2
 100
AcDbCircle
   6
BYBLOCK
  62
0
  10
0.0
  20
0.0
  30
0.0
  40
 0.25000000000000
   0
ENDBLK
   5
AF
 100
AcDbEntity
   8
0
 100
AcDbBlockEnd
   0
BLOCK
   5
B0
 100
AcDbEntity
   8
0
 100
AcDbBlockBegin
   2
_DOTBLANK
  70
0
  10
0.0
  20
0.0
  30
0.0
   3
_DOTBLANK
   0
CIRCLE
   5
B1
 100
AcDbEntity
   8
0
 370
-2
 100
AcDbCircle
   6
BYBLOCK
  62
0
  10
0.0
  20
0.0
  30
0.0
  40
 0.50000000000000
   0
LINE
   5
B2
 100
AcDbEntity
   8
0
 370
-2
 100
AcDbLine
   6
BYBLOCK
  62
0
  10
-0.50000000000000
  20
0.0
  30
0.0
  11
-1.0000000000000
  21
0.0
  31
0.0
   0
ENDBLK
   5
B3
 100
AcDbEntity
   8
0
 100
AcDbBlockEnd
   0
BLOCK
   5
B4
 100
AcDbEntity
   8
0
 100
AcDbBlockBegin
   2
_INTEGRAL
  70
0
  10
0.0
  20
0.0
  30
0.0
   3
_INTEGRAL
   0
ARC
   5
B5
 100
AcDbEntity
   8
0
 370
-2
   6
BYBLOCK
  62
0
 100
AcDbCircle
  10
 0.44488800000000
  20
-0.91335000000000E-1
  30
0.0
  40
 0.45416700000000
 100
AcDbArc
  50
 102.00000000000
  51
 168.00000000000
   0
ARC
   5
B6
 100
AcDbEntity
   8
0
 370
-2
   6
BYBLOCK
  62
0
 100
AcDbCircle
  10
-0.44488800000000
  20
 0.91335000000000E-1
  30
0.0
  40
 0.45416700000000
 100
AcDbArc
  50
 282.00000000000
  51
 348.00000000000
   0
ENDBLK
   5
B7
 100
AcDbEntity
   8
0
 100
AcDbBlockEnd
   0
BLOCK
   5
B8
 100
AcDbEntity
   8
0
 100
AcDbBlockBegin
   2
*D1
  70
65
  10
0.0
  20
0.0
  30
0.0
   3
*D1
   0
LINE
   5
B9
 100
AcDbEntity
   8
LEVEL001
 370
13
 100
AcDbLine
   6
CONTINUOUS
  62
6
  10
 1703.8070641621
  20
 4889.4660263546
  30
0.0
  11
 1010.9864347022
  21
 4489.4665579151
  31
0.0
   0
INSERT
   5
BA
 100
AcDbEntity
   8
LEVEL001
   6
CONTINUOUS
  62
6
 100
AcDbBlockReference
   2
_OPEN
  10
 1703.8070641621
  20
 4889.4660263546
  30
0.0
  41
 30.000000000000
  42
 30.000000000000
  43
 30.000000000000
  50
 29.999956056923
   0
INSERT
   5
BB
 100
AcDbEntity
   8
LEVEL001
   6
CONTINUOUS
  62
6
 100
AcDbBlockReference
   2
_OPEN
  10
 1010.9864347022
  20
 4489.4665579151
  30
0.0
  41
 30.000000000000
  42
 30.000000000000
  43
 30.000000000000
  50
 209.99995605692
   0
MTEXT
   5
BC
 100
AcDbEntity
   8
LEVEL001
 370
13
  62
1
 100
AcDbMText
  10
 1343.2539110767
  20
 4713.9624501173
  30
0.0
  40
 66.000000000000
  41
0.0
  71
8
  72
1
   1
\A1;%%c800
   7
GMM002
  11
 0.86602578725987
  21
 0.49999933580048
  31
0.0
   0
ENDBLK
   5
BD
 100
AcDbEntity
   8
0
 100
AcDbBlockEnd
   0
BLOCK
   5
BE
 100
AcDbEntity
   8
0
 100
AcDbBlockBegin
   2
*D11
  70
65
  10
0.0
  20
0.0
  30
0.0
   3
*D11
   0
LINE
   5
BF
 100
AcDbEntity
   8
LEVEL001
 370
13
 100
AcDbLine
   6
CONTINUOUS
  62
6
  10
 1077.3969020201
  20
 789.46550759032
  30
0.0
  11
 577.39690202005
  21
 789.46550759032
  31
0.0
   0
LINE
   5
C0
 100
AcDbEntity
   8
LEVEL001
 370
13
 100
AcDbLine
   6
CONTINUOUS
  62
6
  10
 1077.3969020201
  20
 889.46550759032
  30
0.0
  11
 577.39690202005
  21
 889.46550759032
  31
0.0
   0
LINE
   5
C1
 100
AcDbEntity
   8
LEVEL001
 370
13
 100
AcDbLine
   6
CONTINUOUS
  62
6
  10
 607.39690202005
  20
 789.46550759032
  30
0.0
  11
 607.39690202005
  21
 889.46550759032
  31
0.0
   0
INSERT
   5
C2
 100
AcDbEntity
   8
LEVEL001
   6
CONTINUOUS
  62
6
 100
AcDbBlockReference
   2
_OPEN
  10
 607.39690202005
  20
 789.46550759032
  30
0.0
  41
 30.000000000000
  42
 30.000000000000
  43
 30.000000000000
  50
 270.00000000000
   0
INSERT
   5
C3
 100
AcDbEntity
   8
LEVEL001
   6
CONTINUOUS
  62
6
 100
AcDbBlockReference
   2
_OPEN
  10
 607.39690202005
  20
 889.46550759032
  30
0.0
  41
 30.000000000000
  42
 30.000000000000
  43
 30.000000000000
  50
 90.000000000000
   0
MTEXT
   5
C4
 100
AcDbEntity
   8
LEVEL001
 370
13
  62
1
 100
AcDbMText
  10
 579.11118773434
  20
 839.46550759032
  30
0.0
  40
 66.000000000000
  41
0.0
  71
8
  72
1
   1
\A1;100
   7
GMM002
  11
0.0
  21
 1.0000000000000
  31
0.0
   0
ENDBLK
   5
C5
 100
AcDbEntity
   8
0
 100
AcDbBlockEnd
   0
BLOCK
   5
C6
 100
AcDbEntity
   8
0
 100
AcDbBlockBegin
   2
*D12
  70
65
  10
0.0
  20
0.0
  30
0.0
   3
*D12
   0
LINE
   5
C7
 100
AcDbEntity
   8
LEVEL001
 370
13
 100
AcDbLine
   6
CONTINUOUS
  62
6
  10
 1077.3969020201
  20
 889.46550759032
  30
0.0
  11
 577.39690202005
  21
 889.46550759032
  31
0.0
   0
LINE
   5
C8
 100
AcDbEntity
   8
LEVEL001
 370
13
 100
AcDbLine
   6
CONTINUOUS
  62
6
  10
 827.39690202005
  20
 1789.4655075903
  30
0.0
  11
 577.39690202005
  21
 1789.4655075903
  31
0.0
   0
LINE
   5
C9
 100
AcDbEntity
   8
LEVEL001
 370
13
 100
AcDbLine
   6
CONTINUOUS
  62
6
  10
 607.39690202005
  20
 889.46550759032
  30
0.0
  11
 607.39690202005
  21
 1789.4655075903
  31
0.0
   0
INSERT
   5
CA
 100
AcDbEntity
   8
LEVEL001
   6
CONTINUOUS
  62
6
 100
AcDbBlockReference
   2
_OPEN
  10
 607.39690202005
  20
 889.46550759032
  30
0.0
  41
 30.000000000000
  42
 30.000000000000
  43
 30.000000000000
  50
 270.00000000000
   0
INSERT
   5
CB
 100
AcDbEntity
   8
LEVEL001
   6
CONTINUOUS
  62
6
 100
AcDbBlockReference
   2
_OPEN
  10
 607.39690202005
  20
 1789.4655075903
  30
0.0
  41
 30.000000000000
  42
 30.000000000000
  43
 30.000000000000
  50
 90.000000000000
   0
MTEXT
   5
CC
 100
AcDbEntity
   8
LEVEL001
 370
13
  62
1
 100
AcDbMText
  10
 579.11118773434
  20
 1339.4655075903
  30
0.0
  40
 66.000000000000
  41
0.0
  71
8
  72
1
   1
\A1;900
   7
GMM002
  11
0.0
  21
 1.0000000000000
  31
0.0
   0
ENDBLK
   5
CD
 100
AcDbEntity
   8
0
 100
AcDbBlockEnd
   0
BLOCK
   5
CE
 100
AcDbEntity
   8
0
 100
AcDbBlockBegin
   2
*D13
  70
65
  10
0.0
  20
0.0
  30
0.0
   3
*D13
   0
LINE
   5
CF
 100
AcDbEntity
   8
LEVEL001
 370
13
 100
AcDbLine
   6
CONTINUOUS
  62
6
  10
 827.39690202005
  20
 1789.4655075903
  30
0.0
  11
 577.39690202005
  21
 1789.4655075903
  31
0.0
   0
LINE
   5
D0
 100
AcDbEntity
   8
LEVEL001
 370
13
 100
AcDbLine
   6
CONTINUOUS
  62
6
  10
 1327.3969020199
  20
 4289.4662923487
  30
0.0
  11
 577.39690202005
  21
 4289.4662923487
  31
0.0
   0
LINE
   5
D1
 100
AcDbEntity
   8
LEVEL001
 370
13
 100
AcDbLine
   6
CONTINUOUS
  62
6
  10
 607.39690202005
  20
 1789.4655075903
  30
0.0
  11
 607.39690202005
  21
 4289.4662923487
  31
0.0
   0
INSERT
   5
D2
 100
AcDbEntity
   8
LEVEL001
   6
CONTINUOUS
  62
6
 100
AcDbBlockReference
   2
_OPEN
  10
 607.39690202005
  20
 1789.4655075903
  30
0.0
  41
 30.000000000000
  42
 30.000000000000
  43
 30.000000000000
  50
 270.00000000000
   0
INSERT
   5
D3
 100
AcDbEntity
   8
LEVEL001
   6
CONTINUOUS
  62
6
 100
AcDbBlockReference
   2
_OPEN
  10
 607.39690202005
  20
 4289.4662923487
  30
0.0
  41
 30.000000000000
  42
 30.000000000000
  43
 30.000000000000
  50
 90.000000000000
   0
MTEXT
   5
D4
 100
AcDbEntity
   8
LEVEL001
 370
13
  62
1
 100
AcDbMText
  10
 579.11118773434
  20
 3039.4658999695
  30
0.0
  40
 66.000000000000
  41
0.0
  71
8
  72
1
   1
\A1;2500(標準設置高さ)
   7
GMM002
  11
0.0
  21
 1.0000000000000
  31
0.0
   0
ENDBLK
   5
D5
 100
AcDbEntity
   8
0
 100
AcDbBlockEnd
   0
BLOCK
   5
D6
 100
AcDbEntity
   8
0
 100
AcDbBlockBegin
   2
*D14
  70
65
  10
0.0
  20
0.0
  30
0.0
   3
*D14
   0
LINE
   5
D7
 100
AcDbEntity
   8
LEVEL001
 370
13
 100
AcDbLine
   6
CONTINUOUS
  62
6
  10
 2507.3969020201
  20
 2539.4655075903
  30
0.0
  11
 2507.3969020201
  21
 2539.4655075903
  31
0.0
   0
LINE
   5
D8
 100
AcDbEntity
   8
LEVEL001
 370
13
 100
AcDbLine
   6
CONTINUOUS
  62
6
  10
 2857.3969020201
  20
 4175.4873933007
  30
0.0
  11
 2857.3969020201
  21
 2509.4655075903
  31
0.0
   0
LINE
   5
D9
 100
AcDbEntity
   8
LEVEL001
 370
13
 100
AcDbLine
   6
CONTINUOUS
  62
6
  10
 2507.3969020201
  20
 2539.4655075903
  30
0.0
  11
 2857.3969020201
  21
 2539.4655075903
  31
0.0
   0
INSERT
   5
DA
 100
AcDbEntity
   8
LEVEL001
   6
CONTINUOUS
  62
6
 100
AcDbBlockReference
   2
_OPEN
  10
 2507.3969020201
  20
 2539.4655075903
  30
0.0
  41
 30.000000000000
  42
 30.000000000000
  43
 30.000000000000
  50
 180.00000000000
   0
INSERT
   5
DB
 100
AcDbEntity
   8
LEVEL001
   6
CONTINUOUS
  62
6
 100
AcDbBlockReference
   2
_OPEN
  10
 2857.3969020201
  20
 2539.4655075903
  30
0.0
  41
 30.000000000000
  42
 30.000000000000
  43
 30.000000000000
  50
0.0
   0
MTEXT
   5
DC
 100
AcDbEntity
   8
LEVEL001
 370
13
  62
1
 100
AcDbMText
  10
 2682.3969020201
  20
 2567.7512218760
  30
0.0
  40
 66.000000000000
  41
0.0
  71
8
  72
1
   1
\A1;350
   7
GMM002
   0
ENDBLK
   5
DD
 100
AcDbEntity
   8
0
 100
AcDbBlockEnd
   0
BLOCK
   5
DE
 100
AcDbEntity
   8
0
 100
AcDbBlockBegin
   2
*D17
  70
65
  10
0.0
  20
0.0
  30
0.0
   3
*D17
   0
LINE
   5
DF
 100
AcDbEntity
   8
LEVEL001
 370
13
 100
AcDbLine
   6
CONTINUOUS
  62
6
  10
 1107.3969020201
  20
 759.46550759032
  30
0.0
  11
 1107.3969020201
  21
 509.46550759032
  31
0.0
   0
LINE
   5
E0
 100
AcDbEntity
   8
LEVEL001
 370
13
 100
AcDbLine
   6
CONTINUOUS
  62
6
  10
 1607.3969020201
  20
 759.46550759032
  30
0.0
  11
 1607.3969020201
  21
 509.46550759032
  31
0.0
   0
LINE
   5
E1
 100
AcDbEntity
   8
LEVEL001
 370
13
 100
AcDbLine
   6
CONTINUOUS
  62
6
  10
 1107.3969020201
  20
 539.46550759032
  30
0.0
  11
 1607.3969020201
  21
 539.46550759032
  31
0.0
   0
INSERT
   5
E2
 100
AcDbEntity
   8
LEVEL001
   6
CONTINUOUS
  62
6
 100
AcDbBlockReference
   2
_OPEN
  10
 1107.3969020201
  20
 539.46550759032
  30
0.0
  41
 30.000000000000
  42
 30.000000000000
  43
 30.000000000000
  50
 180.00000000000
   0
INSERT
   5
E3
 100
AcDbEntity
   8
LEVEL001
   6
CONTINUOUS
  62
6
 100
AcDbBlockReference
   2
_OPEN
  10
 1607.3969020201
  20
 539.46550759032
  30
0.0
  41
 30.000000000000
  42
 30.000000000000
  43
 30.000000000000
  50
0.0
   0
MTEXT
   5
E4
 100
AcDbEntity
   8
LEVEL001
 370
13
  62
1
 100
AcDbMText
  10
 1357.3969020201
  20
 567.75122187604
  30
0.0
  40
 66.000000000000
  41
0.0
  71
8
  72
1
   1
\A1;□500
   7
GMM002
   0
ENDBLK
   5
E5
 100
AcDbEntity
   8
0
 100
AcDbBlockEnd
   0
BLOCK
   5
E6
 100
AcDbEntity
   8
0
 100
AcDbBlockBegin
   2
*D19
  70
65
  10
0.0
  20
0.0
  30
0.0
   3
*D19
   0
LINE
   5
E7
 100
AcDbEntity
   8
LEVEL001
 370
13
 100
AcDbLine
   6
CONTINUOUS
  62
6
  10
 2257.3969020201
  20
 759.46550759032
  30
0.0
  11
 2257.3969020201
  21
 509.46550759032
  31
0.0
   0
LINE
   5
E8
 100
AcDbEntity
   8
LEVEL001
 370
13
 100
AcDbLine
   6
CONTINUOUS
  62
6
  10
 2757.3969020201
  20
 759.46550759032
  30
0.0
  11
 2757.3969020201
  21
 509.46550759032
  31
0.0
   0
LINE
   5
E9
 100
AcDbEntity
   8
LEVEL001
 370
13
 100
AcDbLine
   6
CONTINUOUS
  62
6
  10
 2257.3969020201
  20
 539.46550759032
  30
0.0
  11
 2757.3969020201
  21
 539.46550759032
  31
0.0
   0
INSERT
   5
EA
 100
AcDbEntity
   8
LEVEL001
   6
CONTINUOUS
  62
6
 100
AcDbBlockReference
   2
_OPEN
  10
 2257.3969020201
  20
 539.46550759032
  30
0.0
  41
 30.000000000000
  42
 30.000000000000
  43
 30.000000000000
  50
 180.00000000000
   0
INSERT
   5
EB
 100
AcDbEntity
   8
LEVEL001
   6
CONTINUOUS
  62
6
 100
AcDbBlockReference
   2
_OPEN
  10
 2757.3969020201
  20
 539.46550759032
  30
0.0
  41
 30.000000000000
  42
 30.000000000000
  43
 30.000000000000
  50
0.0
   0
MTEXT
   5
EC
 100
AcDbEntity
   8
LEVEL001
 370
13
  62
1
 100
AcDbMText
  10
 2507.3969020201
  20
 567.75122187604
  30
0.0
  40
 66.000000000000
  41
0.0
  71
8
  72
1
   1
\A1;□500
   7
GMM002
   0
ENDBLK
   5
ED
 100
AcDbEntity
   8
0
 100
AcDbBlockEnd
   0
ENDSEC
   0
SECTION
   2
ENTITIES
   0
LWPOLYLINE
   5
EE
 100
AcDbEntity
   8
LEVEL001
 370
13
   6
CONTINUOUS
  62
7
 100
AcDbPolyline
  90
4
  70
1
  10
 297.39690202005
  20
 189.46629213483
  10
 297.39690202005
  20
 5789.4662921348
  10
 8084.0637721372
  20
 5789.4662921348
  10
 8084.0637721372
  20
 189.46629213483
   0
LINE
   5
EF
 100
AcDbEntity
   8
LEVEL001
 370
13
 100
AcDbLine
   6
CONTINUOUS
  62
1
  10
 5568.3059929291
  20
 669.46629213483
  30
0.0
  11
 7208.3059929291
  21
 669.46629213483
  31
0.0
   0
MTEXT
   5
F1
 100
AcDbEntity
   8
LEVEL001
 370
13
  62
1
 100
AcDbMText
  10
 1357.3969020201
  20
 5539.4662921348
  30
0.0
  40
 80.000000000000
  41
0.0
  71
5
  72
1
   1
\T1.000000;正　面　図
   7
GMM001
  44
 0.79999984000003
   0
MTEXT
   5
F3
 100
AcDbEntity
   8
LEVEL001
 370
13
  62
1
 100
AcDbMText
  10
 2857.3969020201
  20
 5539.4662921348
  30
0.0
  40
 80.000000000000
  41
0.0
  71
5
  72
1
   1
\T1.000000;側　面　図
   7
GMM001
  44
 0.79999984000003
   0
MTEXT
   5
F5
 100
AcDbEntity
   8
LEVEL001
 370
13
  62
1
 100
AcDbMText
  10
 4107.3969020201
  20
 5539.4662921348
  30
0.0
  40
 80.000000000000
  41
0.0
  71
5
  72
1
   1
\T1.000000;背　面　図
   7
GMM001
  44
 0.79999984000003
   0
CIRCLE
   5
F6
 100
AcDbEntity
   8
LEVEL001
 370
13
 100
AcDbCircle
   6
CONTINUOUS
  62
1
  10
 2107.3969020201
  20
 4422.0020160350
  30
0.0
  40
 69.999997913838
   0
MTEXT
   5
F8
 100
AcDbEntity
   8
LEVEL001
 370
13
  62
7
 100
AcDbMText
  10
 2107.3969020201
  20
 4422.0020160350
  30
0.0
  40
 66.000000000000
  41
0.0
  71
5
  72
1
   1
\T1.000000;１
   7
GMM002
  44
 0.79999984000003
   0
CIRCLE
   5
F9
 100
AcDbEntity
   8
LEVEL001
 370
13
 100
AcDbCircle
   6
CONTINUOUS
  62
1
  10
 2107.3969020201
  20
 5159.7494124420
  30
0.0
  40
 69.999997913838
   0
MTEXT
   5
FB
 100
AcDbEntity
   8
LEVEL001
 370
13
  62
7
 100
AcDbMText
  10
 2107.3969020201
  20
 5159.7494124420
  30
0.0
  40
 66.000000000000
  41
0.0
  71
5
  72
1
   1
\T1.000000;３
   7
GMM002
  44
 0.79999984000003
   0
CIRCLE
   5
FC
 100
AcDbEntity
   8
LEVEL001
 370
13
 100
AcDbCircle
   6
CONTINUOUS
  62
7
  10
 1357.3967494322
  20
 4689.4662921348
  30
0.0
  40
 399.99999979907
   0
DIMENSION
   5
FD
 100
AcDbEntity
   8
LEVEL001
 370
13
   6
CONTINUOUS
  62
6
 100
AcDbDimension
   2
*D1
  10
 1703.8070641621
  20
 4889.4660263546
  30
0.0
  11
 1343.2539110767
  21
 4713.9624501173
  31
0.0
  70
3
   3
GMM001
 100
AcDbDiametricDimension
  15
 1010.9864347022
  25
 4489.4665579151
  35
0.0
   0
CIRCLE
   5
FE
 100
AcDbEntity
   8
LEVEL001
 370
13
 100
AcDbCircle
   6
CONTINUOUS
  62
2
  10
 1357.3969020201
  20
 4689.4662921348
  30
0.0
  40
 382.20001201504
   0
ARC
   5
FF
 100
AcDbEntity
   8
LEVEL001
 370
13
   6
CONTINUOUS
  62
7
 100
AcDbCircle
  10
 1357.3969020201
  20
 4689.4662921348
  30
0.0
  40
 406.99999979904
 100
AcDbArc
  50
 18.850250860434
  51
 161.14974913957
   0
LINE
   5
100
 100
AcDbEntity
   8
LEVEL001
 370
13
 100
AcDbLine
   6
CONTINUOUS
  62
7
  10
 1742.5679676992
  20
 4820.9662921348
  30
0.0
  11
 1735.1635423604
  21
 4820.9662921348
  31
0.0
   0
LINE
   5
101
 100
AcDbEntity
   8
LEVEL001
 370
13
 100
AcDbLine
   6
CONTINUOUS
  62
7
  10
 972.22583634089
  20
 4820.9662921348
  30
0.0
  11
 979.63026167975
  21
 4820.9662921348
  31
0.0
   0
ARC
   5
102
 100
AcDbEntity
   8
LEVEL001
 370
13
   6
CONTINUOUS
  62
1
 100
AcDbCircle
  10
 1462.7362533247
  20
 5082.5981032404
  30
0.0
  40
 7.5000000000000
 100
AcDbArc
  50
 344.47208301399
  51
 165.52791698602
   0
ARC
   5
103
 100
AcDbEntity
   8
LEVEL001
 370
13
   6
CONTINUOUS
  62
1
 100
AcDbCircle
  10
 1252.0575507154
  20
 5082.5981032404
  30
0.0
  40
 7.5000000000000
 100
AcDbArc
  50
 14.472083013652
  51
 195.52791698637
   0
ARC
   5
104
 100
AcDbEntity
   8
LEVEL001
 370
13
   6
CONTINUOUS
  62
1
 100
AcDbCircle
  10
 988.52963287851
  20
 4861.4719245786
  30
0.0
  40
 7.5000000000000
 100
AcDbArc
  50
 64.472083013724
  51
 245.52791698629
   0
ARC
   5
105
 100
AcDbEntity
   8
LEVEL001
 370
13
   6
CONTINUOUS
  62
1
 100
AcDbCircle
  10
 1726.2641711616
  20
 4861.4719245786
  30
0.0
  40
 7.5000000000000
 100
AcDbArc
  50
 294.47208301375
  51
 115.52791698624
   0
ARC
   5
106
 100
AcDbEntity
   8
LEVEL001
 370
13
   6
CONTINUOUS
  62
1
 100
AcDbCircle
  10
 1619.0114590331
  20
 5001.2463803303
  30
0.0
  40
 7.5000000000000
 100
AcDbArc
  50
 319.47208301459
  51
 140.52791698537
   0
ARC
   5
107
 100
AcDbEntity
   8
LEVEL001
 370
13
   6
CONTINUOUS
  62
1
 100
AcDbCircle
  10
 1095.7823450071
  20
 5001.2463803303
  30
0.0
  40
 7.5000000000000
 100
AcDbArc
  50
 39.472083014700
  51
 220.52791698534
   0
ARC
   5
108
 100
AcDbEntity
   8
LEVEL001
 370
13
   6
CONTINUOUS
  62
1
 100
AcDbCircle
  10
 1357.3969020201
  20
 4289.4662923358
  30
0.0
  40
 7.5000000000000
 100
AcDbArc
  50
 179.46286605484
  51
 0.53717765837727
   0
ARC
   5
109
 100
AcDbEntity
   8
LEVEL001
 370
13
   6
CONTINUOUS
  62
1
 100
AcDbCircle
  10
 1614.5119457655
  20
 4383.0485150412
  30
0.0
  40
 7.5000000000000
 100
AcDbArc
  50
 219.46286605485
  51
 40.537177658366
   0
ARC
   5
10A
 100
AcDbEntity
   8
LEVEL001
 370
13
   6
CONTINUOUS
  62
1
 100
AcDbCircle
  10
 1751.3200030270
  20
 4620.0070211030
  30
0.0
  40
 7.5000000000000
 100
AcDbArc
  50
 259.46286605474
  51
 80.537177658472
   0
ARC
   5
10B
 100
AcDbEntity
   8
LEVEL001
 370
13
   6
CONTINUOUS
  62
1
 100
AcDbCircle
  10
 963.47380101308
  20
 4620.0070211030
  30
0.0
  40
 7.5000000000000
 100
AcDbArc
  50
 99.462822341528
  51
 280.53713394526
   0
ARC
   5
10C
 100
AcDbEntity
   8
LEVEL001
 370
13
   6
CONTINUOUS
  62
1
 100
AcDbCircle
  10
 1100.2818582746
  20
 4383.0485150412
  30
0.0
  40
 7.5000000000000
 100
AcDbArc
  50
 139.46282234142
  51
 320.53713394536
   0
LINE
   5
10D
 100
AcDbEntity
   8
LEVEL001
 370
13
 100
AcDbLine
   6
DASHDOT
  62
6
  10
 1807.3969020201
  20
 4689.4662921348
  30
0.0
  11
 907.39690202005
  21
 4689.4662921348
  31
0.0
   0
LINE
   5
10E
 100
AcDbEntity
   8
LEVEL001
 370
13
 100
AcDbLine
   6
DASHDOT
  62
6
  10
 2950.7842456959
  20
 4689.4662921348
  30
0.0
  11
 2585.8367468066
  21
 4689.4662921348
  31
0.0
   0
LWPOLYLINE
   5
10F
 100
AcDbEntity
   8
LEVEL001
 370
13
   6
CONTINUOUS
  62
7
 100
AcDbPolyline
  90
4
  70
1
  10
 2740.0046355494
  20
 4712.4662921348
  10
 2754.0046355494
  20
 4712.4662921348
  10
 2754.0046355494
  20
 4726.4662921348
  10
 2740.0046355494
  20
 4726.4662921348
   0
LWPOLYLINE
   5
110
 100
AcDbEntity
   8
LEVEL001
 370
13
   6
CONTINUOUS
  62
7
 100
AcDbPolyline
  90
4
  70
1
  10
 2740.0046355494
  20
 4652.4662921348
  10
 2754.0046355494
  20
 4652.4662921348
  10
 2754.0046355494
  20
 4666.4662921348
  10
 2740.0046355494
  20
 4666.4662921348
   0
LWPOLYLINE
   5
111
 100
AcDbEntity
   8
LEVEL001
 370
13
   6
CONTINUOUS
  62
7
 100
AcDbPolyline
  90
4
  70
0
  10
 2772.0046355494
  20
 4634.4662921348
  10
 2933.5802569869
  20
 4634.4662921348
  10
 2933.5802569869
  20
 4744.4662921348
  10
 2772.0046355494
  20
 4744.4662921348
   0
ARC
   5
112
 100
AcDbEntity
   8
LEVEL001
 370
13
   6
CONTINUOUS
  62
7
 100
AcDbCircle
  10
 2740.7969020201
  20
 4719.4662921348
  30
0.0
  40
 52.000000000000
 100
AcDbArc
  50
 306.88054979700
  51
 325.00000000000
   0
ARC
   5
113
 100
AcDbEntity
   8
LEVEL001
 370
13
   6
CONTINUOUS
  62
7
 100
AcDbCircle
  10
 2740.7969020201
  20
 4719.4662921348
  30
0.0
  40
 68.000000000000
 100
AcDbArc
  50
 297.31855192772
  51
 325.00000000000
   0
LINE
   5
114
 100
AcDbEntity
   8
LEVEL001
 370
13
 100
AcDbLine
   6
DOT
  62
2
  10
 2660.3954900588
  20
 5089.4662920653
  30
0.0
  11
 2685.3958743544
  21
 5089.4662920653
  31
0.0
   0
CIRCLE
   5
115
 100
AcDbEntity
   8
LEVEL001
 370
13
 100
AcDbCircle
   6
CONTINUOUS
  62
1
  10
 2673.3958743544
  20
 5082.5981032404
  30
0.0
  40
 7.5000000000000
   0
CIRCLE
   5
116
 100
AcDbEntity
   8
LEVEL001
 370
13
 100
AcDbCircle
   6
CONTINUOUS
  62
1
  10
 2673.3958743544
  20
 5001.2463803304
  30
0.0
  40
 7.5000000000000
   0
CIRCLE
   5
117
 100
AcDbEntity
   8
LEVEL001
 370
13
 100
AcDbCircle
   6
CONTINUOUS
  62
1
  10
 2673.3958743544
  20
 4861.4719245786
  30
0.0
  40
 7.5000000000000
   0
CIRCLE
   5
118
 100
AcDbEntity
   8
LEVEL001
 370
13
 100
AcDbCircle
   6
CONTINUOUS
  62
1
  10
 2673.3958743544
  20
 4620.0070211030
  30
0.0
  40
 7.5000000000000
   0
CIRCLE
   5
119
 100
AcDbEntity
   8
LEVEL001
 370
13
 100
AcDbCircle
   6
CONTINUOUS
  62
1
  10
 2673.3958743544
  20
 4383.0485150412
  30
0.0
  40
 7.5000000000000
   0
ARC
   5
11A
 100
AcDbEntity
   8
LEVEL001
 370
13
   6
CONTINUOUS
  62
1
 100
AcDbCircle
  10
 2673.3958743544
  20
 4289.4662922044
  30
0.0
  40
 7.5000000000000
 100
AcDbArc
  50
 180.00000000000
  51
0.0
   0
ARC
   5
11B
 100
AcDbEntity
   8
LEVEL001
 370
13
   6
CONTINUOUS
  62
1
 100
AcDbCircle
  10
 2684.0057190139
  20
 4689.4662921348
  30
0.0
  40
 4.7988739094943
 100
AcDbArc
  50
 303.26696871548
  51
 56.733031284521
   0
LINE
   5
11C
 100
AcDbEntity
   8
LEVEL001
 370
13
 100
AcDbLine
   6
CONTINUOUS
  62
1
  10
 2686.6380975309
  20
 4693.4787445199
  30
0.0
  11
 2685.3960539980
  21
 4693.7216405503
  31
0.0
   0
LINE
   5
11D
 100
AcDbEntity
   8
LEVEL001
 370
13
 100
AcDbLine
   6
CONTINUOUS
  62
1
  10
 2686.6380975309
  20
 4685.4538397498
  30
0.0
  11
 2685.3960539980
  21
 4685.2109438894
  31
0.0
   0
LINE
   5
11E
 100
AcDbEntity
   8
LEVEL001
 370
13
 100
AcDbLine
   6
CONTINUOUS
  62
1
  10
 2685.3960539980
  20
 4689.4662921348
  30
0.0
  11
 2686.6380975309
  21
 4689.4662921348
  31
0.0
   0
ARC
   5
11F
 100
AcDbEntity
   8
LEVEL001
 370
13
   6
CONTINUOUS
  62
7
 100
AcDbCircle
  10
 2789.9460246774
  20
 4685.0517059538
  30
0.0
  40
 8.0000000000000
 100
AcDbArc
  50
 324.99999999999
  51
 145.00000000000
   0
LWPOLYLINE
   5
120
 100
AcDbEntity
   8
LEVEL001
 370
13
   6
CONTINUOUS
  62
7
 100
AcDbPolyline
  90
4
  70
0
  10
 2685.3958743544
  20
 4634.4662921348
  10
 2772.0046355494
  20
 4634.4662921348
  10
 2772.0046355494
  20
 4744.4662921348
  10
 2685.3958743544
  20
 4744.4662921348
   0
LINE
   5
121
 100
AcDbEntity
   8
LEVEL001
 370
13
 100
AcDbLine
   6
CONTINUOUS
  62
6
  10
 2820.7969020201
  20
 4639.4662921348
  30
0.0
  11
 2820.7969020201
  21
 4739.4662921348
  31
0.0
   0
LWPOLYLINE
   5
122
 100
AcDbEntity
   8
LEVEL001
 370
13
   6
CONTINUOUS
  62
7
 100
AcDbPolyline
  90
4
  70
1
  10
 2906.5802569869
  20
 4712.4662921348
  10
 2920.5802569869
  20
 4712.4662921348
  10
 2920.5802569869
  20
 4726.4662921348
  10
 2906.5802569869
  20
 4726.4662921348
   0
LWPOLYLINE
   5
123
 100
AcDbEntity
   8
LEVEL001
 370
13
   6
CONTINUOUS
  62
7
 100
AcDbPolyline
  90
4
  70
1
  10
 2906.5802569869
  20
 4652.4662921348
  10
 2920.5802569869
  20
 4652.4662921348
  10
 2920.5802569869
  20
 4666.4662921348
  10
 2906.5802569869
  20
 4666.4662921348
   0
LINE
   5
124
 100
AcDbEntity
   8
LEVEL001
 370
13
 100
AcDbLine
   6
CONTINUOUS
  62
6
  10
 2894.0082665408
  20
 4739.4662921348
  30
0.0
  11
 2894.0082665408
  21
 4639.4662921348
  31
0.0
   0
CIRCLE
   5
125
 100
AcDbEntity
   8
LEVEL001
 370
13
 100
AcDbCircle
   6
CONTINUOUS
  62
7
  10
 4147.3969020201
  20
 4724.4662921348
  30
0.0
  40
 7.0000000000000
   0
LINE
   5
126
 100
AcDbEntity
   8
LEVEL001
 370
13
 100
AcDbLine
   6
DASHDOT
  62
6
  10
 4127.3969020201
  20
 4724.4662921348
  30
0.0
  11
 4167.3969020201
  21
 4724.4662921348
  31
0.0
   0
LINE
   5
127
 100
AcDbEntity
   8
LEVEL001
 370
13
 100
AcDbLine
   6
DASHDOT
  62
6
  10
 4147.3969020201
  20
 4704.4662921348
  30
0.0
  11
 4147.3969020201
  21
 4744.4662921348
  31
0.0
   0
CIRCLE
   5
128
 100
AcDbEntity
   8
LEVEL001
 370
13
 100
AcDbCircle
   6
CONTINUOUS
  62
7
  10
 4067.3969020201
  20
 4724.4662921348
  30
0.0
  40
 7.0000000000000
   0
LINE
   5
129
 100
AcDbEntity
   8
LEVEL001
 370
13
 100
AcDbLine
   6
DASHDOT
  62
6
  10
 4047.3969020201
  20
 4724.4662921348
  30
0.0
  11
 4087.3969020201
  21
 4724.4662921348
  31
0.0
   0
LINE
   5
12A
 100
AcDbEntity
   8
LEVEL001
 370
13
 100
AcDbLine
   6
DASHDOT
  62
6
  10
 4067.3969020201
  20
 4704.4662921348
  30
0.0
  11
 4067.3969020201
  21
 4744.4662921348
  31
0.0
   0
CIRCLE
   5
12B
 100
AcDbEntity
   8
LEVEL001
 370
13
 100
AcDbCircle
   6
CONTINUOUS
  62
7
  10
 4067.3969020201
  20
 4654.4662921348
  30
0.0
  40
 7.0000000000000
   0
LINE
   5
12C
 100
AcDbEntity
   8
LEVEL001
 370
13
 100
AcDbLine
   6
DASHDOT
  62
6
  10
 4047.3969020201
  20
 4654.4662921348
  30
0.0
  11
 4087.3969020201
  21
 4654.4662921348
  31
0.0
   0
LINE
   5
12D
 100
AcDbEntity
   8
LEVEL001
 370
13
 100
AcDbLine
   6
DASHDOT
  62
6
  10
 4067.3969020201
  20
 4634.4662921348
  30
0.0
  11
 4067.3969020201
  21
 4674.4662921348
  31
0.0
   0
CIRCLE
   5
12E
 100
AcDbEntity
   8
LEVEL001
 370
13
 100
AcDbCircle
   6
CONTINUOUS
  62
7
  10
 4147.3969020201
  20
 4654.4662921348
  30
0.0
  40
 7.0000000000000
   0
LINE
   5
12F
 100
AcDbEntity
   8
LEVEL001
 370
13
 100
AcDbLine
   6
DASHDOT
  62
6
  10
 4127.3969020201
  20
 4654.4662921348
  30
0.0
  11
 4167.3969020201
  21
 4654.4662921348
  31
0.0
   0
LINE
   5
130
 100
AcDbEntity
   8
LEVEL001
 370
13
 100
AcDbLine
   6
DASHDOT
  62
6
  10
 4147.3969020201
  20
 4634.4662921348
  30
0.0
  11
 4147.3969020201
  21
 4674.4662921348
  31
0.0
   0
CIRCLE
   5
131
 100
AcDbEntity
   8
LEVEL001
 370
13
 100
AcDbCircle
   6
CONTINUOUS
  62
7
  10
 4107.3967494322
  20
 4689.4662921348
  30
0.0
  40
 399.99999979907
   0
ARC
   5
132
 100
AcDbEntity
   8
LEVEL001
 370
13
   6
CONTINUOUS
  62
7
 100
AcDbCircle
  10
 4107.3969020201
  20
 4689.4662921348
  30
0.0
  40
 406.99999979904
 100
AcDbArc
  50
 18.850250860435
  51
 161.14974913957
   0
LINE
   5
133
 100
AcDbEntity
   8
LEVEL001
 370
13
 100
AcDbLine
   6
CONTINUOUS
  62
7
  10
 4492.5679676992
  20
 4820.9662921348
  30
0.0
  11
 4485.1635423604
  21
 4820.9662921348
  31
0.0
   0
LINE
   5
134
 100
AcDbEntity
   8
LEVEL001
 370
13
 100
AcDbLine
   6
CONTINUOUS
  62
7
  10
 3722.2258363409
  20
 4820.9662921348
  30
0.0
  11
 3729.6302616797
  21
 4820.9662921348
  31
0.0
   0
ARC
   5
135
 100
AcDbEntity
   8
LEVEL001
 370
13
   6
CONTINUOUS
  62
1
 100
AcDbCircle
  10
 4212.7362533247
  20
 5082.5981032404
  30
0.0
  40
 7.5000000000000
 100
AcDbArc
  50
 344.47208301399
  51
 165.52791698602
   0
ARC
   5
136
 100
AcDbEntity
   8
LEVEL001
 370
13
   6
CONTINUOUS
  62
1
 100
AcDbCircle
  10
 4002.0575507154
  20
 5082.5981032404
  30
0.0
  40
 7.5000000000000
 100
AcDbArc
  50
 14.472083013925
  51
 195.52791698609
   0
ARC
   5
137
 100
AcDbEntity
   8
LEVEL001
 370
13
   6
CONTINUOUS
  62
1
 100
AcDbCircle
  10
 3738.5296328785
  20
 4861.4719245786
  30
0.0
  40
 7.5000000000000
 100
AcDbArc
  50
 64.472083013760
  51
 245.52791698626
   0
ARC
   5
138
 100
AcDbEntity
   8
LEVEL001
 370
13
   6
CONTINUOUS
  62
1
 100
AcDbCircle
  10
 4476.2641711616
  20
 4861.4719245786
  30
0.0
  40
 7.5000000000000
 100
AcDbArc
  50
 294.47208301375
  51
 115.52791698624
   0
ARC
   5
139
 100
AcDbEntity
   8
LEVEL001
 370
13
   6
CONTINUOUS
  62
1
 100
AcDbCircle
  10
 4369.0114590330
  20
 5001.2463803303
  30
0.0
  40
 7.5000000000000
 100
AcDbArc
  50
 319.47208301503
  51
 140.52791698494
   0
ARC
   5
13A
 100
AcDbEntity
   8
LEVEL001
 370
13
   6
CONTINUOUS
  62
1
 100
AcDbCircle
  10
 3845.7823450071
  20
 5001.2463803303
  30
0.0
  40
 7.5000000000000
 100
AcDbArc
  50
 39.472083014771
  51
 220.52791698526
   0
ARC
   5
13B
 100
AcDbEntity
   8
LEVEL001
 370
13
   6
CONTINUOUS
  62
1
 100
AcDbCircle
  10
 4107.3969020201
  20
 4289.4662923357
  30
0.0
  40
 7.5000000000000
 100
AcDbArc
  50
 179.46286605437
  51
 0.53717765884280
   0
ARC
   5
13C
 100
AcDbEntity
   8
LEVEL001
 370
13
   6
CONTINUOUS
  62
1
 100
AcDbCircle
  10
 4364.5119457655
  20
 4383.0485150412
  30
0.0
  40
 7.5000000000000
 100
AcDbArc
  50
 219.46286605471
  51
 40.537177658506
   0
ARC
   5
13D
 100
AcDbEntity
   8
LEVEL001
 370
13
   6
CONTINUOUS
  62
1
 100
AcDbCircle
  10
 4501.3200030270
  20
 4620.0070211030
  30
0.0
  40
 7.5000000000000
 100
AcDbArc
  50
 259.46286605474
  51
 80.537177658472
   0
ARC
   5
13E
 100
AcDbEntity
   8
LEVEL001
 370
13
   6
CONTINUOUS
  62
1
 100
AcDbCircle
  10
 3713.4738010131
  20
 4620.0070211030
  30
0.0
  40
 7.5000000000000
 100
AcDbArc
  50
 99.462822341528
  51
 280.53713394526
   0
ARC
   5
13F
 100
AcDbEntity
   8
LEVEL001
 370
13
   6
CONTINUOUS
  62
1
 100
AcDbCircle
  10
 3850.2818582746
  20
 4383.0485150412
  30
0.0
  40
 7.5000000000000
 100
AcDbArc
  50
 139.46282234163
  51
 320.53713394515
   0
LINE
   5
140
 100
AcDbEntity
   8
LEVEL001
 370
13
 100
AcDbLine
   6
DASHDOT
  62
6
  10
 4107.3969020201
  20
 5139.4662921348
  30
0.0
  11
 4107.3969020201
  21
 4239.4662921348
  31
0.0
   0
LINE
   5
141
 100
AcDbEntity
   8
LEVEL001
 370
13
 100
AcDbLine
   6
DASHDOT
  62
6
  10
 4557.3969020201
  20
 4689.4662921348
  30
0.0
  11
 3657.3969020201
  21
 4689.4662921348
  31
0.0
   0
CIRCLE
   5
142
 100
AcDbEntity
   8
LEVEL001
 370
13
 100
AcDbCircle
   6
CONTINUOUS
  62
1
  10
 1107.3969020201
  20
 4164.4655075903
  30
0.0
  40
 69.999997913838
   0
MTEXT
   5
144
 100
AcDbEntity
   8
LEVEL001
 370
13
  62
7
 100
AcDbMText
  10
 1107.3969020201
  20
 4164.4655075903
  30
0.0
  40
 66.000000000000
  41
0.0
  71
5
  72
1
   1
\T1.000000;５
   7
GMM002
  44
 0.79999984000003
   0
CIRCLE
   5
145
 100
AcDbEntity
   8
LEVEL001
 370
13
 100
AcDbCircle
   6
CONTINUOUS
  62
1
  10
 1607.3969020201
  20
 4164.4655075903
  30
0.0
  40
 69.999997913838
   0
MTEXT
   5
147
 100
AcDbEntity
   8
LEVEL001
 370
13
  62
7
 100
AcDbMText
  10
 1607.3969020201
  20
 4164.4655075903
  30
0.0
  40
 66.000000000000
  41
0.0
  71
5
  72
1
   1
\T1.000000;４
   7
GMM002
  44
 0.79999984000003
   0
CIRCLE
   5
148
 100
AcDbEntity
   8
LEVEL001
 370
13
 100
AcDbCircle
   6
CONTINUOUS
  62
1
  10
 2982.3969020201
  20
 5039.4655075903
  30
0.0
  40
 69.999997913838
   0
MTEXT
   5
14A
 100
AcDbEntity
   8
LEVEL001
 370
13
  62
7
 100
AcDbMText
  10
 2982.3969020201
  20
 5039.4655075903
  30
0.0
  40
 66.000000000000
  41
0.0
  71
5
  72
1
   1
\T1.000000;１２
   7
GMM002
  44
 0.79999984000003
   0
LEADER
   5
14B
 100
AcDbEntity
   8
LEVEL001
 370
13
   6
CONTINUOUS
  62
1
 100
AcDbLeader
   3
GMM002
  73
3
  74
1
  75
0
  40
 66.000000000000
  41
0.0
  76
2
  10
 1350.6887065104
  20
 4286.1121735253
  30
0.0
  10
 1170.0067249114
  20
 4195.7706155674
  30
0.0
  77
1
   0
LEADER
   5
14C
 100
AcDbEntity
   8
LEVEL001
 370
13
   6
CONTINUOUS
  62
1
 100
AcDbLeader
   3
GMM002
  73
3
  74
1
  75
0
  40
 66.000000000000
  41
0.0
  76
2
  10
 1526.2121023364
  20
 4326.8351069576
  30
0.0
  10
 1576.0919512680
  20
 4227.0754090944
  30
0.0
  77
1
   0
LEADER
   5
14D
 100
AcDbEntity
   8
LEVEL001
 370
13
   6
CONTINUOUS
  62
1
 100
AcDbLeader
   3
GMM002
  73
3
  74
1
  75
0
  40
 66.000000000000
  41
0.0
  76
2
  10
 1607.3969020200
  20
 4539.4655075903
  30
0.0
  10
 2039.2521285406
  20
 4438.0110620833
  30
0.0
  77
1
   0
LEADER
   5
14E
 100
AcDbEntity
   8
LEVEL001
 370
13
   6
CONTINUOUS
  62
1
 100
AcDbLeader
   3
GMM002
  73
3
  74
1
  75
0
  40
 66.000000000000
  41
0.0
  76
2
  10
 2621.0442529605
  20
 4539.4655075903
  30
0.0
  10
 2175.6353102278
  20
 4437.6071226740
  30
0.0
  77
1
   0
LEADER
   5
14F
 100
AcDbEntity
   8
LEVEL001
 370
13
   6
CONTINUOUS
  62
1
 100
AcDbLeader
   3
GMM002
  73
3
  74
1
  75
0
  40
 66.000000000000
  41
0.0
  76
2
  10
 1565.1215972707
  20
 5039.4655075903
  30
0.0
  10
 2039.0578979957
  20
 5144.5909086604
  30
0.0
  77
1
   0
LEADER
   5
150
 100
AcDbEntity
   8
LEVEL001
 370
13
   6
CONTINUOUS
  62
1
 100
AcDbLeader
   3
GMM002
  73
3
  74
1
  75
0
  40
 66.000000000000
  41
0.0
  76
2
  10
 2857.3969020201
  20
 4893.4655075903
  30
0.0
  10
 2936.8715076909
  20
 4986.2918470137
  30
0.0
  77
1
   0
CIRCLE
   5
151
 100
AcDbEntity
   8
LEVEL001
 370
13
 100
AcDbCircle
   6
CONTINUOUS
  62
1
  10
 3857.3969020201
  20
 4164.4655075903
  30
0.0
  40
 69.999997913838
   0
MTEXT
   5
153
 100
AcDbEntity
   8
LEVEL001
 370
13
  62
7
 100
AcDbMText
  10
 3857.3969020201
  20
 4164.4655075903
  30
0.0
  40
 66.000000000000
  41
0.0
  71
5
  72
1
   1
\T1.000000;２
   7
GMM002
  44
 0.79999984000003
   0
LEADER
   5
154
 100
AcDbEntity
   8
LEVEL001
 370
13
   6
CONTINUOUS
  62
1
 100
AcDbLeader
   3
GMM002
  73
3
  74
1
  75
0
  40
 66.000000000000
  41
0.0
  76
2
  10
 3982.3969020201
  20
 4414.4655075903
  30
0.0
  10
 3888.7018527721
  20
 4227.0754090944
  30
0.0
  77
1
   0
CIRCLE
   5
155
 100
AcDbEntity
   8
LEVEL001
 370
13
 100
AcDbCircle
   6
CONTINUOUS
  62
1
  10
 3107.3969020201
  20
 4914.4655075903
  30
0.0
  40
 69.999997913838
   0
MTEXT
   5
157
 100
AcDbEntity
   8
LEVEL001
 370
13
  62
7
 100
AcDbMText
  10
 3107.3969020201
  20
 4914.4655075903
  30
0.0
  40
 66.000000000000
  41
0.0
  71
5
  72
1
   1
\T1.000000;７
   7
GMM002
  44
 0.79999984000003
   0
CIRCLE
   5
158
 100
AcDbEntity
   8
LEVEL001
 370
13
 100
AcDbCircle
   6
CONTINUOUS
  62
1
  10
 3247.3968978477
  20
 4914.4655075903
  30
0.0
  40
 69.999997913838
   0
MTEXT
   5
15A
 100
AcDbEntity
   8
LEVEL001
 370
13
  62
7
 100
AcDbMText
  10
 3247.3968978477
  20
 4914.4655075903
  30
0.0
  40
 66.000000000000
  41
0.0
  71
5
  72
1
   1
\T1.000000;９
   7
GMM002
  44
 0.79999984000003
   0
CIRCLE
   5
15B
 100
AcDbEntity
   8
LEVEL001
 370
13
 100
AcDbCircle
   6
CONTINUOUS
  62
1
  10
 2857.3969020201
  20
 5195.7155075903
  30
0.0
  40
 69.999997913838
   0
MTEXT
   5
15D
 100
AcDbEntity
   8
LEVEL001
 370
13
  62
7
 100
AcDbMText
  10
 2857.3969020201
  20
 5195.7155075903
  30
0.0
  40
 66.000000000000
  41
0.0
  71
5
  72
1
   1
\T1.000000;６
   7
GMM002
  44
 0.79999984000003
   0
CIRCLE
   5
15E
 100
AcDbEntity
   8
LEVEL001
 370
13
 100
AcDbCircle
   6
CONTINUOUS
  62
1
  10
 2997.3968978477
  20
 5195.7155075903
  30
0.0
  40
 69.999997913838
   0
MTEXT
   5
160
 100
AcDbEntity
   8
LEVEL001
 370
13
  62
7
 100
AcDbMText
  10
 2997.3968978477
  20
 5195.7155075903
  30
0.0
  40
 66.000000000000
  41
0.0
  71
5
  72
1
   1
\T1.000000;８
   7
GMM002
  44
 0.79999984000003
   0
LEADER
   5
161
 100
AcDbEntity
   8
LEVEL001
 370
13
   6
CONTINUOUS
  62
1
 100
AcDbLeader
   3
GMM002
  73
3
  74
1
  75
0
  40
 66.000000000000
  41
0.0
  76
2
  10
 2933.5802569869
  20
 4744.4662921348
  30
0.0
  10
 3057.3529369074
  20
 4865.5206277382
  30
0.0
  77
1
   0
LEADER
   5
162
 100
AcDbEntity
   8
LEVEL001
 370
13
   6
CONTINUOUS
  62
1
 100
AcDbLeader
   3
GMM002
  73
3
  74
1
  75
0
  40
 66.000000000000
  41
0.0
  76
2
  10
 2732.3969020201
  20
 4744.4662921348
  30
0.0
  10
 2838.7099963719
  20
 5128.2558954862
  30
0.0
  77
1
   0
DIMENSION
   5
163
 100
AcDbEntity
   8
LEVEL001
 370
13
   6
CONTINUOUS
  62
6
 100
AcDbDimension
   2
*D11
  10
 607.39690202005
  20
 889.46550759032
  30
0.0
  11
 607.39690202005
  21
 839.46550759032
  31
0.0
  70
0
   3
GMM003
 100
AcDbAlignedDimension
  13
 1107.3969020201
  23
 789.46550759032
  33
0.0
  14
 1107.3969020201
  24
 889.46550759032
  34
0.0
  50
 90.000000000000
 100
AcDbRotatedDimension
   0
DIMENSION
   5
164
 100
AcDbEntity
   8
LEVEL001
 370
13
   6
CONTINUOUS
  62
6
 100
AcDbDimension
   2
*D12
  10
 607.39690202005
  20
 1789.4655075903
  30
0.0
  11
 607.39690202005
  21
 1339.4655075903
  31
0.0
  70
0
   3
GMM003
 100
AcDbAlignedDimension
  13
 1107.3969020201
  23
 889.46550759032
  33
0.0
  14
 857.39690202005
  24
 1789.4655075903
  34
0.0
  50
 90.000000000000
 100
AcDbRotatedDimension
   0
DIMENSION
   5
165
 100
AcDbEntity
   8
LEVEL001
 370
13
   6
CONTINUOUS
  62
6
 100
AcDbDimension
   2
*D13
  10
 607.39690202005
  20
 4289.4662923487
  30
0.0
  11
 607.39690202005
  21
 3039.4658999695
  31
0.0
  70
0
   1
\A1;2500(標準設置高さ)
   3
GMM004
 100
AcDbAlignedDimension
  13
 857.39690202005
  23
 1789.4655075903
  33
0.0
  14
 1357.3969020199
  24
 4289.4662923487
  34
0.0
  50
 90.000000000000
 100
AcDbRotatedDimension
   0
ARC
   5
166
 100
AcDbEntity
   8
LEVEL001
 370
13
   6
CONTINUOUS
  62
7
 100
AcDbCircle
  10
 2519.2469020201
  20
 4205.4873933007
  30
0.0
  40
 300.00000000000
 100
AcDbArc
  50
 322.12501634890
  51
0.0
   0
ARC
   5
167
 100
AcDbEntity
   8
LEVEL001
 370
13
   6
DASHDOT
  62
6
 100
AcDbCircle
  10
 2519.2469020201
  20
 4205.4873933007
  30
0.0
  40
 338.15000000000
 100
AcDbArc
  50
 322.12501634890
  51
 0.30820764690876E-12
   0
ARC
   5
168
 100
AcDbEntity
   8
LEVEL001
 370
13
   6
CONTINUOUS
  62
7
 100
AcDbCircle
  10
 2519.2469020201
  20
 4205.4873933007
  30
0.0
  40
 376.30000000000
 100
AcDbArc
  50
 322.12501634890
  51
 0.13848048870874E-12
   0
LINE
   5
169
 100
AcDbEntity
   8
LEVEL001
 370
13
 100
AcDbLine
   6
DASHDOT
  62
6
  10
 2857.3969020201
  20
 4939.4655075903
  30
0.0
  11
 2857.3969020201
  21
 4205.4873933007
  31
0.0
   0
LINE
   5
16A
 100
AcDbEntity
   8
LEVEL001
 370
13
 100
AcDbLine
   6
CONTINUOUS
  62
7
  10
 1319.2469020201
  20
 4291.2897119826
  30
0.0
  11
 1319.2469020201
  21
 3704.9436218799
  31
0.0
   0
LINE
   5
16B
 100
AcDbEntity
   8
LEVEL001
 370
13
 100
AcDbLine
   6
CONTINUOUS
  62
7
  10
 1395.5469020201
  20
 3704.9436218799
  30
0.0
  11
 1395.5469020201
  21
 4291.2897412221
  31
0.0
   0
DIMENSION
   5
16C
 100
AcDbEntity
   8
LEVEL001
 370
13
   6
CONTINUOUS
  62
6
 100
AcDbDimension
   2
*D14
  10
 2857.3969020201
  20
 2539.4655075903
  30
0.0
  11
 2682.3969020201
  21
 2539.4655075903
  31
0.0
  70
0
   3
GMM005
 100
AcDbAlignedDimension
  13
 2507.3969020201
  23
 2539.4655075903
  33
0.0
  14
 2857.3969020201
  24
 4205.4873933007
  34
0.0
 100
AcDbRotatedDimension
   0
LWPOLYLINE
   5
16D
 100
AcDbEntity
   8
LEVEL001
 370
13
   6
CONTINUOUS
  62
3
 100
AcDbPolyline
  90
5
  70
0
  10
 2685.3960539980
  20
 5093.2162921348
  10
 2625.3960539980
  20
 5093.2162921348
  10
 2625.3960539980
  20
 4856.5017693445
  10
 2665.3960539980
  20
 4800.2617577336
  10
 2685.3960539980
  20
 4800.2617577336
   0
LWPOLYLINE
   5
16E
 100
AcDbEntity
   8
LEVEL001
 370
13
   6
CONTINUOUS
  62
7
 100
AcDbPolyline
  90
4
  70
0
  10
 2685.3958743544
  20
 5093.2162921348
  10
 2685.3958743544
  20
 4289.4662922044
  10
 2660.3958743544
  20
 4289.4662922044
  10
 2660.3958743544
  20
 4807.2920117638
   0
LINE
   5
16F
 100
AcDbEntity
   8
LEVEL001
 370
13
 100
AcDbLine
   6
DOT
  62
2
  10
 2660.3958743544
  20
 4807.2920117638
  30
0.0
  11
 2660.3958743544
  21
 5089.4679516425
  31
0.0
   0
ARC
   5
170
 100
AcDbEntity
   8
LEVEL001
 370
13
   6
DOT
  62
2
 100
AcDbCircle
  10
 4387.7862396674
  20
 4689.4684365780
  30
0.0
  40
 1773.0981603475
 100
AcDbArc
  50
 166.96221629918
  51
 173.69995409002
   0
ARC
   5
171
 100
AcDbEntity
   8
LEVEL001
 370
13
   6
CONTINUOUS
  62
7
 100
AcDbCircle
  10
 4387.7861273903
  20
 4689.4662921348
  30
0.0
  40
 1773.0981603475
 100
AcDbArc
  50
 173.69988481498
  51
 193.03779978333
   0
LEADER
   5
172
 100
AcDbEntity
   8
LEVEL001
 370
13
   6
CONTINUOUS
  62
1
 100
AcDbLeader
   3
GMM006
  73
3
  74
1
  75
0
  40
 66.000000000000
  41
0.0
  76
2
  10
 2625.3960539980
  20
 5039.4655075903
  30
0.0
  10
 2175.3858581834
  20
 5143.0910347372
  30
0.0
  77
1
   0
LINE
   5
173
 100
AcDbEntity
   8
LEVEL001
 370
13
 100
AcDbLine
   6
CONTINUOUS
  62
7
  10
 2895.5469020201
  20
 4634.4662921348
  30
0.0
  11
 2895.5469020201
  21
 4205.4873933007
  31
0.0
   0
LWPOLYLINE
   5
174
 100
AcDbEntity
   8
LEVEL001
 370
13
   6
CONTINUOUS
  62
7
 100
AcDbPolyline
  90
4
  70
0
  10
 2819.2469020201
  20
 4744.4662921348
  10
 2819.2469020201
  20
 4889.4655075903
  10
 2895.5469020201
  20
 4889.4655075903
  10
 2895.5469020201
  20
 4744.4662921348
   0
LINE
   5
175
 100
AcDbEntity
   8
LEVEL001
 370
13
 100
AcDbLine
   6
CONTINUOUS
  62
7
  10
 2819.2469020201
  20
 4205.4873933007
  30
0.0
  11
 2819.2469020201
  21
 4634.4662921348
  31
0.0
   0
ARC
   5
176
 100
AcDbEntity
   8
LEVEL001
 370
13
   6
CONTINUOUS
  62
2
 100
AcDbCircle
  10
 3942.7909479867
  20
 4747.5812915065
  30
0.0
  40
 29.925185329180
 100
AcDbArc
  50
 274.14136530443
  51
 340.55392640748
   0
LINE
   5
177
 100
AcDbEntity
   8
LEVEL001
 370
13
 100
AcDbLine
   6
CONTINUOUS
  62
2
  10
 3944.9520712175
  20
 4717.7342436899
  30
0.0
  11
 3760.6807044846
  21
 4704.3899197144
  31
0.0
   0
LINE
   5
178
 100
AcDbEntity
   8
LEVEL001
 370
13
 100
AcDbLine
   6
CONTINUOUS
  62
2
  10
 3944.9520712175
  20
 4661.1995582387
  30
0.0
  11
 3760.6807044846
  21
 4674.5426645553
  31
0.0
   0
ARC
   5
179
 100
AcDbEntity
   8
LEVEL001
 370
13
   6
CONTINUOUS
  62
2
 100
AcDbCircle
  10
 3942.7909479867
  20
 4631.3525104221
  30
0.0
  40
 29.925185329180
 100
AcDbArc
  50
 19.446073592524
  51
 85.858634695571
   0
ARC
   5
17A
 100
AcDbEntity
   8
LEVEL001
 370
13
   6
CONTINUOUS
  62
2
 100
AcDbCircle
  10
 4107.3968769671
  20
 4689.4672419668
  30
0.0
  40
 144.63836721882
 100
AcDbArc
  50
 199.44570402826
  51
 220.55442164438
   0
ARC
   5
17B
 100
AcDbEntity
   8
LEVEL001
 370
13
   6
CONTINUOUS
  62
2
 100
AcDbCircle
  10
 4107.3968769671
  20
 4689.4665599618
  30
0.0
  40
 144.63836721882
 100
AcDbArc
  50
 139.44557835562
  51
 160.55429597174
   0
CIRCLE
   5
17C
 100
AcDbEntity
   8
LEVEL001
 370
13
 100
AcDbCircle
   6
CONTINUOUS
  62
2
  10
 4107.3969020201
  20
 4689.4662921348
  30
0.0
  40
 124.68827220492
   0
ARC
   5
17D
 100
AcDbEntity
   8
LEVEL001
 370
13
   6
CONTINUOUS
  62
2
 100
AcDbCircle
  10
 3761.7600641556
  20
 4689.4662921348
  30
0.0
  40
 14.962609312270
 100
AcDbArc
  50
 94.136746090312
  51
 265.86325390969
   0
LINE
   5
17E
 100
AcDbEntity
   8
LEVEL001
 370
13
 100
AcDbLine
   6
CONTINUOUS
  62
6
  10
 3946.0327434986
  20
 4676.1231858182
  30
0.0
  11
 3791.0089349124
  21
 4687.3487832934
  31
0.0
   0
LINE
   5
17F
 100
AcDbEntity
   8
LEVEL001
 370
13
 100
AcDbLine
   6
CONTINUOUS
  62
6
  10
 3946.0327434986
  20
 4702.8106161104
  30
0.0
  11
 3791.0089349124
  21
 4691.5850186352
  31
0.0
   0
LINE
   5
180
 100
AcDbEntity
   8
LEVEL001
 370
13
 100
AcDbLine
   6
CONTINUOUS
  62
6
  10
 3972.9016049681
  20
 4709.7135244612
  30
0.0
  11
 3965.8577525986
  21
 4719.2477937128
  31
0.0
   0
LINE
   5
181
 100
AcDbEntity
   8
LEVEL001
 370
13
 100
AcDbLine
   6
CONTINUOUS
  62
6
  10
 3965.8577525986
  20
 4659.6860082157
  30
0.0
  11
 3972.9009961386
  21
 4669.2190598084
  31
0.0
   0
ARC
   5
182
 100
AcDbEntity
   8
LEVEL001
 370
13
   6
CONTINUOUS
  62
2
 100
AcDbCircle
  10
 3974.7656908964
  20
 4575.9709761294
  30
0.0
  40
 29.925185329180
 100
AcDbArc
  50
 334.14054601454
  51
 40.555122017427
   0
LINE
   5
183
 100
AcDbEntity
   8
LEVEL001
 370
13
 100
AcDbLine
   6
CONTINUOUS
  62
2
  10
 4001.6943675126
  20
 4562.9186547770
  30
0.0
  11
 3921.1145716002
  21
 4396.6631604211
  31
0.0
   0
ARC
   5
184
 100
AcDbEntity
   8
LEVEL001
 370
13
   6
CONTINUOUS
  62
2
 100
AcDbCircle
  10
 3934.5792999077
  20
 4390.1377662541
  30
0.0
  40
 14.962609312270
 100
AcDbArc
  50
 154.14383864624
  51
 325.85554262844
   0
LINE
   5
185
 100
AcDbEntity
   8
LEVEL001
 370
13
 100
AcDbLine
   6
CONTINUOUS
  62
2
  10
 4050.6546057250
  20
 4534.6519208809
  30
0.0
  11
 3946.9627304898
  21
 4381.7395328416
  31
0.0
   0
ARC
   5
186
 100
AcDbEntity
   8
LEVEL001
 370
13
   6
CONTINUOUS
  62
2
 100
AcDbCircle
  10
 4075.4221547370
  20
 4517.8565276755
  30
0.0
  40
 29.925185329180
 100
AcDbArc
  50
 79.445274345877
  51
 145.85798307978
   0
ARC
   5
187
 100
AcDbEntity
   8
LEVEL001
 370
13
   6
CONTINUOUS
  62
2
 100
AcDbCircle
  10
 4107.3969020201
  20
 4689.4666946651
  30
0.0
  40
 144.63836721882
 100
AcDbArc
  50
 259.44562091362
  51
 280.55437908638
   0
LINE
   5
188
 100
AcDbEntity
   8
LEVEL001
 370
13
 100
AcDbLine
   6
CONTINUOUS
  62
6
  10
 4038.2707102134
  20
 4543.0488967122
  30
0.0
  11
 3951.0370171968
  21
 4414.4081036911
  31
0.0
   0
LINE
   5
189
 100
AcDbEntity
   8
LEVEL001
 370
13
 100
AcDbLine
   6
CONTINUOUS
  62
6
  10
 4015.1589353053
  20
 4556.3932206877
  30
0.0
  11
 3947.3688197357
  21
 4416.5256125325
  31
0.0
   0
LINE
   5
18A
 100
AcDbEntity
   8
LEVEL001
 370
13
 100
AcDbLine
   6
CONTINUOUS
  62
6
  10
 4010.8362461810
  20
 4581.7801912658
  30
0.0
  11
 4022.6146608005
  21
 4583.1135277704
  31
0.0
   0
LINE
   5
18B
 100
AcDbEntity
   8
LEVEL001
 370
13
 100
AcDbLine
   6
CONTINUOUS
  62
6
  10
 4057.6835417729
  20
 4562.8675131029
  30
0.0
  11
 4062.4184084376
  21
 4551.9999073467
  31
0.0
   0
ARC
   5
18C
 100
AcDbEntity
   8
LEVEL001
 370
13
   6
CONTINUOUS
  62
2
 100
AcDbCircle
  10
 4107.3969270731
  20
 4689.4672419668
  30
0.0
  40
 144.63836721882
 100
AcDbArc
  50
 319.44557835562
  51
 340.55429597174
   0
ARC
   5
18D
 100
AcDbEntity
   8
LEVEL001
 370
13
   6
CONTINUOUS
  62
2
 100
AcDbCircle
  10
 4240.0281131437
  20
 4575.9709761294
  30
0.0
  40
 29.925185329180
 100
AcDbArc
  50
 139.44487798257
  51
 205.85945398546
   0
LINE
   5
18E
 100
AcDbEntity
   8
LEVEL001
 370
13
 100
AcDbLine
   6
CONTINUOUS
  62
2
  10
 4213.0994365275
  20
 4562.9186547770
  30
0.0
  11
 4293.6792324399
  21
 4396.6631604211
  31
0.0
   0
ARC
   5
18F
 100
AcDbEntity
   8
LEVEL001
 370
13
   6
CONTINUOUS
  62
2
 100
AcDbCircle
  10
 4280.2145041324
  20
 4390.1377662541
  30
0.0
  40
 14.962609312270
 100
AcDbArc
  50
 214.14445737158
  51
 25.856161353738
   0
LINE
   5
190
 100
AcDbEntity
   8
LEVEL001
 370
13
 100
AcDbLine
   6
CONTINUOUS
  62
2
  10
 4164.1391983151
  20
 4534.6519208809
  30
0.0
  11
 4267.8310735503
  21
 4381.7395328416
  31
0.0
   0
ARC
   5
191
 100
AcDbEntity
   8
LEVEL001
 370
13
   6
CONTINUOUS
  62
2
 100
AcDbCircle
  10
 4139.3716493031
  20
 4517.8565276755
  30
0.0
  40
 29.925185329180
 100
AcDbArc
  50
 34.142016920223
  51
 100.55472565412
   0
LINE
   5
192
 100
AcDbEntity
   8
LEVEL001
 370
13
 100
AcDbLine
   6
CONTINUOUS
  62
6
  10
 4199.6348687348
  20
 4556.3932206877
  30
0.0
  11
 4267.4249843044
  21
 4416.5256125325
  31
0.0
   0
LINE
   5
193
 100
AcDbEntity
   8
LEVEL001
 370
13
 100
AcDbLine
   6
CONTINUOUS
  62
6
  10
 4176.5230938267
  20
 4543.0488967122
  30
0.0
  11
 4263.7567868433
  21
 4414.4081036911
  31
0.0
   0
LINE
   5
194
 100
AcDbEntity
   8
LEVEL001
 370
13
 100
AcDbLine
   6
CONTINUOUS
  62
6
  10
 4157.1102622672
  20
 4562.8675131029
  30
0.0
  11
 4152.3753956025
  21
 4551.9999073467
  31
0.0
   0
LINE
   5
195
 100
AcDbEntity
   8
LEVEL001
 370
13
 100
AcDbLine
   6
CONTINUOUS
  62
6
  10
 4203.9575578591
  20
 4581.7801912658
  30
0.0
  11
 4192.1791432396
  21
 4583.1135277704
  31
0.0
   0
ARC
   5
196
 100
AcDbEntity
   8
LEVEL001
 370
13
   6
CONTINUOUS
  62
2
 100
AcDbCircle
  10
 4107.3969270731
  20
 4689.4665599618
  30
0.0
  40
 144.63836721882
 100
AcDbArc
  50
 19.445704028260
  51
 40.554421644382
   0
ARC
   5
197
 100
AcDbEntity
   8
LEVEL001
 370
13
   6
CONTINUOUS
  62
2
 100
AcDbCircle
  10
 4272.0028560534
  20
 4747.5812915065
  30
0.0
  40
 29.925185329180
 100
AcDbArc
  50
 199.44607359252
  51
 265.85863469557
   0
LINE
   5
198
 100
AcDbEntity
   8
LEVEL001
 370
13
 100
AcDbLine
   6
CONTINUOUS
  62
2
  10
 4269.8417328226
  20
 4717.7342436899
  30
0.0
  11
 4454.1134039702
  21
 4704.3899197144
  31
0.0
   0
LINE
   5
199
 100
AcDbEntity
   8
LEVEL001
 370
13
 100
AcDbLine
   6
CONTINUOUS
  62
2
  10
 4269.8417328226
  20
 4661.1995582387
  30
0.0
  11
 4454.1134039702
  21
 4674.5426645553
  31
0.0
   0
ARC
   5
19A
 100
AcDbEntity
   8
LEVEL001
 370
13
   6
CONTINUOUS
  62
2
 100
AcDbCircle
  10
 4272.0028560534
  20
 4631.3525104221
  30
0.0
  40
 29.925185329180
 100
AcDbArc
  50
 94.141365304432
  51
 160.55392640748
   0
ARC
   5
19B
 100
AcDbEntity
   8
LEVEL001
 370
13
   6
CONTINUOUS
  62
2
 100
AcDbCircle
  10
 4453.0340442993
  20
 4689.4662921348
  30
0.0
  40
 14.962609312270
 100
AcDbArc
  50
 274.13674609031
  51
 85.863253909687
   0
LINE
   5
19C
 100
AcDbEntity
   8
LEVEL001
 370
13
 100
AcDbLine
   6
CONTINUOUS
  62
6
  10
 4268.7610605415
  20
 4702.8106161104
  30
0.0
  11
 4423.7848691277
  21
 4691.5850186352
  31
0.0
   0
LINE
   5
19D
 100
AcDbEntity
   8
LEVEL001
 370
13
 100
AcDbLine
   6
CONTINUOUS
  62
6
  10
 4268.7610605415
  20
 4676.1231858182
  30
0.0
  11
 4423.7848691277
  21
 4687.3487832934
  31
0.0
   0
LINE
   5
19E
 100
AcDbEntity
   8
LEVEL001
 370
13
 100
AcDbLine
   6
CONTINUOUS
  62
6
  10
 4248.9360514415
  20
 4659.6860082157
  30
0.0
  11
 4241.8928079015
  21
 4669.2190598084
  31
0.0
   0
LINE
   5
19F
 100
AcDbEntity
   8
LEVEL001
 370
13
 100
AcDbLine
   6
CONTINUOUS
  62
6
  10
 4241.8921990720
  20
 4709.7135244612
  30
0.0
  11
 4248.9360514415
  21
 4719.2477937128
  31
0.0
   0
ARC
   5
1A0
 100
AcDbEntity
   8
LEVEL001
 370
13
   6
CONTINUOUS
  62
2
 100
AcDbCircle
  10
 4139.3716493031
  20
 4861.0772742531
  30
0.0
  40
 29.925185329180
 100
AcDbArc
  50
 259.44527434588
  51
 325.85798307978
   0
LINE
   5
1A1
 100
AcDbEntity
   8
LEVEL001
 370
13
 100
AcDbLine
   6
CONTINUOUS
  62
2
  10
 4164.1391983151
  20
 4844.2818810477
  30
0.0
  11
 4267.8310735503
  21
 4997.1942690870
  31
0.0
   0
LINE
   5
1A2
 100
AcDbEntity
   8
LEVEL001
 370
13
 100
AcDbLine
   6
CONTINUOUS
  62
2
  10
 4213.0994365275
  20
 4816.0139294926
  30
0.0
  11
 4293.6792324399
  21
 4982.2706415074
  31
0.0
   0
ARC
   5
1A3
 100
AcDbEntity
   8
LEVEL001
 370
13
   6
CONTINUOUS
  62
2
 100
AcDbCircle
  10
 4240.0284899176
  20
 4802.9623855034
  30
0.0
  40
 29.925185329180
 100
AcDbArc
  50
 154.14219998810
  51
 220.55401248931
   0
ARC
   5
1A4
 100
AcDbEntity
   8
LEVEL001
 370
13
   6
CONTINUOUS
  62
2
 100
AcDbCircle
  10
 4280.2145041324
  20
 4988.7960356745
  30
0.0
  40
 14.962609312270
 100
AcDbArc
  50
 334.14383864624
  51
 145.85554262844
   0
ARC
   5
1A5
 100
AcDbEntity
   8
LEVEL001
 370
13
   6
CONTINUOUS
  62
2
 100
AcDbCircle
  10
 4107.3969020201
  20
 4689.4671072635
  30
0.0
  40
 144.63836721882
 100
AcDbArc
  50
 79.445620913618
  51
 100.55437908638
   0
LINE
   5
1A6
 100
AcDbEntity
   8
LEVEL001
 370
13
 100
AcDbLine
   6
CONTINUOUS
  62
6
  10
 4176.5230938267
  20
 4835.8836875575
  30
0.0
  11
 4263.7564824286
  21
 4964.5256982375
  31
0.0
   0
LINE
   5
1A7
 100
AcDbEntity
   8
LEVEL001
 370
13
 100
AcDbLine
   6
CONTINUOUS
  62
6
  10
 4199.6348687348
  20
 4822.5405812409
  30
0.0
  11
 4267.4249843044
  21
 4962.4081893960
  31
0.0
   0
LINE
   5
1A8
 100
AcDbEntity
   8
LEVEL001
 370
13
 100
AcDbLine
   6
CONTINUOUS
  62
6
  10
 4192.1791432396
  20
 4795.8202741582
  30
0.0
  11
 4203.9575578591
  21
 4797.1523930038
  31
0.0
   0
LINE
   5
1A9
 100
AcDbEntity
   8
LEVEL001
 370
13
 100
AcDbLine
   6
CONTINUOUS
  62
6
  10
 4152.3753956025
  20
 4826.9338945818
  30
0.0
  11
 4157.1102622672
  21
 4816.0675064846
  31
0.0
   0
ARC
   5
1AA
 100
AcDbEntity
   8
LEVEL001
 370
13
   6
CONTINUOUS
  62
2
 100
AcDbCircle
  10
 4075.4221547370
  20
 4861.0772742531
  30
0.0
  40
 29.925185329180
 100
AcDbArc
  50
 214.14201692022
  51
 280.55472565412
   0
LINE
   5
1AB
 100
AcDbEntity
   8
LEVEL001
 370
13
 100
AcDbLine
   6
CONTINUOUS
  62
2
  10
 4050.6546057250
  20
 4844.2818810477
  30
0.0
  11
 3946.9627304898
  21
 4997.1942690870
  31
0.0
   0
LINE
   5
1AC
 100
AcDbEntity
   8
LEVEL001
 370
13
 100
AcDbLine
   6
CONTINUOUS
  62
2
  10
 4001.6943675126
  20
 4816.0139294926
  30
0.0
  11
 3921.1145716002
  21
 4982.2706415074
  31
0.0
   0
ARC
   5
1AD
 100
AcDbEntity
   8
LEVEL001
 370
13
   6
CONTINUOUS
  62
2
 100
AcDbCircle
  10
 3974.7653141226
  20
 4802.9623855034
  30
0.0
  40
 29.925185329180
 100
AcDbArc
  50
 319.44598751069
  51
 25.857800011898
   0
ARC
   5
1AE
 100
AcDbEntity
   8
LEVEL001
 370
13
   6
CONTINUOUS
  62
2
 100
AcDbCircle
  10
 3934.5792999077
  20
 4988.7960356745
  30
0.0
  40
 14.962609312270
 100
AcDbArc
  50
 34.144457371535
  51
 205.85616135379
   0
LINE
   5
1AF
 100
AcDbEntity
   8
LEVEL001
 370
13
 100
AcDbLine
   6
CONTINUOUS
  62
6
  10
 4015.1589353053
  20
 4822.5405812409
  30
0.0
  11
 3947.3688197357
  21
 4962.4081893960
  31
0.0
   0
LINE
   5
1B0
 100
AcDbEntity
   8
LEVEL001
 370
13
 100
AcDbLine
   6
CONTINUOUS
  62
6
  10
 4038.2707102134
  20
 4835.8836875575
  30
0.0
  11
 3951.0373216115
  21
 4964.5256982375
  31
0.0
   0
LINE
   5
1B1
 100
AcDbEntity
   8
LEVEL001
 370
13
 100
AcDbLine
   6
CONTINUOUS
  62
6
  10
 4062.4184084376
  20
 4826.9338945818
  30
0.0
  11
 4057.6835417729
  21
 4816.0675064846
  31
0.0
   0
LINE
   5
1B2
 100
AcDbEntity
   8
LEVEL001
 370
13
 100
AcDbLine
   6
CONTINUOUS
  62
6
  10
 4022.6146608005
  20
 4795.8202741582
  30
0.0
  11
 4010.8362461810
  21
 4797.1523930038
  31
0.0
   0
LWPOLYLINE
   5
1B3
 100
AcDbEntity
   8
LEVEL001
 370
13
   6
DOT
  62
6
 100
AcDbPolyline
  90
4
  70
0
  10
 2890.5469020201
  20
 4890.4655075903
  10
 2890.5469020201
  20
 4863.4655075903
  10
 2824.2469020201
  20
 4863.4655075903
  10
 2824.2469020201
  20
 4890.4655075903
   0
LWPOLYLINE
   5
1B4
 100
AcDbEntity
   8
LEVEL001
 370
13
   6
CONTINUOUS
  62
1
 100
AcDbPolyline
  90
4
  70
1
  10
 2895.5469020201
  20
 4893.4655075903
  10
 2819.2469020201
  20
 4893.4655075903
  10
 2819.2469020201
  20
 4890.4655075903
  10
 2895.5469020201
  20
 4890.4655075903
   0
LINE
   5
1B5
 100
AcDbEntity
   8
LEVEL001
 370
13
 100
AcDbLine
   6
DASHDOT
  62
6
  10
 1357.3969020201
  20
 5139.4662921348
  30
0.0
  11
 1357.3969020201
  21
 789.46550759032
  31
0.0
   0
LINE
   5
1B6
 100
AcDbEntity
   8
LEVEL001
 370
13
 100
AcDbLine
   6
CONTINUOUS
  62
5
  10
 1659.8968367851
  20
 1789.4655075903
  30
0.0
  11
 1607.3968367851
  21
 1736.9655075903
  31
0.0
   0
LINE
   5
1B7
 100
AcDbEntity
   8
LEVEL001
 370
13
 100
AcDbLine
   6
CONTINUOUS
  62
5
  10
 1623.3067393611
  20
 1736.9655075903
  30
0.0
  11
 1675.8067393611
  21
 1789.4655075903
  31
0.0
   0
LINE
   5
1B8
 100
AcDbEntity
   8
LEVEL001
 370
13
 100
AcDbLine
   6
CONTINUOUS
  62
5
  10
 1691.7166419387
  20
 1789.4655075903
  30
0.0
  11
 1639.2166419387
  21
 1736.9655075903
  31
0.0
   0
LINE
   5
1B9
 100
AcDbEntity
   8
LEVEL001
 370
13
 100
AcDbLine
   6
CONTINUOUS
  62
5
  10
 1655.1265445148
  20
 1736.9655075903
  30
0.0
  11
 1707.6265445148
  21
 1789.4655075903
  31
0.0
   0
LINE
   5
1BA
 100
AcDbEntity
   8
LEVEL001
 370
13
 100
AcDbLine
   6
CONTINUOUS
  62
5
  10
 1712.3968367854
  20
 1736.9655075903
  30
0.0
  11
 1683.7616906501
  21
 1765.6006537256
  31
0.0
   0
LINE
   5
1BB
 100
AcDbEntity
   8
LEVEL001
 370
13
 100
AcDbLine
   6
CONTINUOUS
  62
5
  10
 1691.7166419383
  20
 1773.5556050138
  30
0.0
  11
 1728.3067393618
  21
 1736.9655075903
  31
0.0
   0
LINE
   5
1BC
 100
AcDbEntity
   8
LEVEL001
 370
13
 100
AcDbLine
   6
CONTINUOUS
  62
5
  10
 1744.2166419382
  20
 1736.9655075903
  30
0.0
  11
 1699.6715932265
  21
 1781.5105563020
  31
0.0
   0
LINE
   5
1BD
 100
AcDbEntity
   8
LEVEL001
 370
13
 100
AcDbLine
   6
CONTINUOUS
  62
5
  10
 1707.6265445148
  20
 1789.4655075903
  30
0.0
  11
 1760.1265445150
  21
 1736.9655075903
  31
0.0
   0
LINE
   5
1BE
 100
AcDbEntity
   8
LEVEL001
 370
13
 100
AcDbLine
   6
CONTINUOUS
  62
5
  10
 1760.1265445150
  20
 1736.9655075903
  30
0.0
  11
 1812.6265445150
  21
 1789.4655075903
  31
0.0
   0
LINE
   5
1BF
 100
AcDbEntity
   8
LEVEL001
 370
13
 100
AcDbLine
   6
CONTINUOUS
  62
5
  10
 1764.8968367853
  20
 1789.4655075903
  30
0.0
  11
 1736.2616906501
  21
 1760.8303614551
  31
0.0
   0
LINE
   5
1C0
 100
AcDbEntity
   8
LEVEL001
 370
13
 100
AcDbLine
   6
CONTINUOUS
  62
5
  10
 1744.2166419381
  20
 1752.8754101671
  30
0.0
  11
 1780.8067393613
  21
 1789.4655075903
  31
0.0
   0
LINE
   5
1C1
 100
AcDbEntity
   8
LEVEL001
 370
13
 100
AcDbLine
   6
CONTINUOUS
  62
5
  10
 1796.7166419389
  20
 1789.4655075903
  30
0.0
  11
 1752.1715932269
  21
 1744.9204588783
  31
0.0
   0
LINE
   5
1C2
 100
AcDbEntity
   8
LEVEL001
 370
13
 100
AcDbLine
   6
CONTINUOUS
  62
5
  10
 1817.3968367855
  20
 1736.9655075903
  30
0.0
  11
 1788.7616906503
  21
 1765.6006537256
  31
0.0
   0
LINE
   5
1C3
 100
AcDbEntity
   8
LEVEL001
 370
13
 100
AcDbLine
   6
CONTINUOUS
  62
5
  10
 1796.7166419385
  20
 1773.5556050138
  30
0.0
  11
 1833.3067393620
  21
 1736.9655075903
  31
0.0
   0
LINE
   5
1C4
 100
AcDbEntity
   8
LEVEL001
 370
13
 100
AcDbLine
   6
CONTINUOUS
  62
5
  10
 1849.2166419384
  20
 1736.9655075903
  30
0.0
  11
 1804.6715932267
  21
 1781.5105563020
  31
0.0
   0
LINE
   5
1C5
 100
AcDbEntity
   8
LEVEL001
 370
13
 100
AcDbLine
   6
CONTINUOUS
  62
5
  10
 1812.6265445150
  20
 1789.4655075903
  30
0.0
  11
 1865.1265445151
  21
 1736.9655075903
  31
0.0
   0
LINE
   5
1C6
 100
AcDbEntity
   8
LEVEL001
 370
13
 100
AcDbLine
   6
CONTINUOUS
  62
5
  10
 1002.3968367849
  20
 1736.9655075903
  30
0.0
  11
 1054.8968367849
  21
 1789.4655075903
  31
0.0
   0
LINE
   5
1C7
 100
AcDbEntity
   8
LEVEL001
 370
13
 100
AcDbLine
   6
CONTINUOUS
  62
5
  10
 986.48693420806
  20
 1752.8754101671
  30
0.0
  11
 1023.0770316313
  21
 1789.4655075903
  31
0.0
   0
LINE
   5
1C8
 100
AcDbEntity
   8
LEVEL001
 370
13
 100
AcDbLine
   6
CONTINUOUS
  62
5
  10
 1038.9869342089
  20
 1789.4655075903
  30
0.0
  11
 994.44188549688
  21
 1744.9204588783
  31
0.0
   0
LINE
   5
1C9
 100
AcDbEntity
   8
LEVEL001
 370
13
 100
AcDbLine
   6
CONTINUOUS
  62
5
  10
 1059.6671290555
  20
 1736.9655075903
  30
0.0
  11
 1031.0319829202
  21
 1765.6006537256
  31
0.0
   0
LINE
   5
1CA
 100
AcDbEntity
   8
LEVEL001
 370
13
 100
AcDbLine
   6
CONTINUOUS
  62
5
  10
 1038.9869342084
  20
 1773.5556050138
  30
0.0
  11
 1075.5770316319
  21
 1736.9655075903
  31
0.0
   0
LINE
   5
1CB
 100
AcDbEntity
   8
LEVEL001
 370
13
 100
AcDbLine
   6
CONTINUOUS
  62
5
  10
 1091.4869342084
  20
 1736.9655075903
  30
0.0
  11
 1046.9418854966
  21
 1781.5105563020
  31
0.0
   0
LINE
   5
1CC
 100
AcDbEntity
   8
LEVEL001
 370
13
 100
AcDbLine
   6
CONTINUOUS
  62
5
  10
 1054.8968367849
  20
 1789.4655075903
  30
0.0
  11
 1107.3968367851
  21
 1736.9655075903
  31
0.0
   0
LINE
   5
1CD
 100
AcDbEntity
   8
LEVEL001
 370
13
 100
AcDbLine
   6
CONTINUOUS
  62
5
  10
 902.16712905504
  20
 1789.4655075903
  30
0.0
  11
 849.66712905504
  21
 1736.9655075903
  31
0.0
   0
LINE
   5
1CE
 100
AcDbEntity
   8
LEVEL001
 370
13
 100
AcDbLine
   6
CONTINUOUS
  62
5
  10
 865.57703163108
  20
 1736.9655075903
  30
0.0
  11
 918.07703163108
  21
 1789.4655075903
  31
0.0
   0
LINE
   5
1CF
 100
AcDbEntity
   8
LEVEL001
 370
13
 100
AcDbLine
   6
CONTINUOUS
  62
5
  10
 933.98693420869
  20
 1789.4655075903
  30
0.0
  11
 881.48693420869
  21
 1736.9655075903
  31
0.0
   0
LINE
   5
1D0
 100
AcDbEntity
   8
LEVEL001
 370
13
 100
AcDbLine
   6
CONTINUOUS
  62
5
  10
 897.39683678473
  20
 1736.9655075903
  30
0.0
  11
 949.89683678473
  21
 1789.4655075903
  31
0.0
   0
LINE
   5
1D1
 100
AcDbEntity
   8
LEVEL001
 370
13
 100
AcDbLine
   6
CONTINUOUS
  62
5
  10
 954.66712905531
  20
 1736.9655075903
  30
0.0
  11
 926.03198292002
  21
 1765.6006537256
  31
0.0
   0
LINE
   5
1D2
 100
AcDbEntity
   8
LEVEL001
 370
13
 100
AcDbLine
   6
CONTINUOUS
  62
5
  10
 933.98693420823
  20
 1773.5556050138
  30
0.0
  11
 970.57703163174
  21
 1736.9655075903
  31
0.0
   0
LINE
   5
1D3
 100
AcDbEntity
   8
LEVEL001
 370
13
 100
AcDbLine
   6
CONTINUOUS
  62
5
  10
 986.48693420817
  20
 1736.9655075903
  30
0.0
  11
 941.94188549645
  21
 1781.5105563020
  31
0.0
   0
LINE
   5
1D4
 100
AcDbEntity
   8
LEVEL001
 370
13
 100
AcDbLine
   6
CONTINUOUS
  62
5
  10
 949.89683678473
  20
 1789.4655075903
  30
0.0
  11
 1002.3968367849
  21
 1736.9655075903
  31
0.0
   0
LINE
   5
1D5
 100
AcDbEntity
   8
LEVEL001
 370
13
 100
AcDbLine
   6
CONTINUOUS
  62
5
  10
 1007.1671290552
  20
 1789.4655075903
  30
0.0
  11
 978.53198292003
  21
 1760.8303614551
  31
0.0
   0
MTEXT
   5
1D7
 100
AcDbEntity
   8
LEVEL001
 370
13
  62
1
 100
AcDbMText
  10
 978.04550722954
  20
 1798.1954446306
  30
0.0
  40
 40.000000000000
  41
0.0
  71
7
  72
1
   1
\T1.000000;ＧＬ
   7
GMM003
  44
 0.79999984000003
   0
LWPOLYLINE
   5
1D8
 100
AcDbEntity
   8
LEVEL001
 370
13
   6
CONTINUOUS
  62
1
 100
AcDbPolyline
  90
3
  70
1
  10
 949.89683678473
  20
 1789.4655075903
  10
 924.89683678473
  20
 1839.4655075903
  10
 974.89683678473
  20
 1839.4655075903
   0
LINE
   5
1D9
 100
AcDbEntity
   8
LEVEL001
 370
13
 100
AcDbLine
   6
CONTINUOUS
  62
5
  10
 1319.2469020201
  20
 1789.4655075903
  30
0.0
  11
 857.39690202005
  21
 1789.4655075903
  31
0.0
   0
LINE
   5
1DA
 100
AcDbEntity
   8
LEVEL001
 370
13
 100
AcDbLine
   6
CONTINUOUS
  62
5
  10
 1395.5469020201
  20
 1789.4655075903
  30
0.0
  11
 1857.3969020201
  21
 1789.4655075903
  31
0.0
   0
LWPOLYLINE
   5
1DB
 100
AcDbEntity
   8
LEVEL001
 370
13
   6
CONTINUOUS
  62
5
 100
AcDbPolyline
  90
6
  70
0
  10
 1319.2469020201
  20
 1789.4655075903
  10
 1107.3969020201
  20
 1789.4655075903
  10
 1107.3969020201
  20
 889.46550759032
  10
 1607.3969020201
  20
 889.46550759032
  10
 1607.3969020201
  20
 1789.4655075903
  10
 1395.5469020201
  20
 1789.4655075903
   0
LINE
   5
1DC
 100
AcDbEntity
   8
LEVEL001
 370
13
 100
AcDbLine
   6
CONTINUOUS
  62
5
  10
 1257.3969020201
  20
 889.46550759032
  30
0.0
  11
 1207.3969020201
  21
 789.46550759032
  31
0.0
   0
LINE
   5
1DD
 100
AcDbEntity
   8
LEVEL001
 370
13
 100
AcDbLine
   6
CONTINUOUS
  62
5
  10
 1207.3969020201
  20
 889.46550759032
  30
0.0
  11
 1247.3969020201
  21
 869.46550759032
  31
0.0
   0
LINE
   5
1DE
 100
AcDbEntity
   8
LEVEL001
 370
13
 100
AcDbLine
   6
CONTINUOUS
  62
5
  10
 1207.3969020201
  20
 889.46550759032
  30
0.0
  11
 1157.3969020201
  21
 789.46550759032
  31
0.0
   0
LINE
   5
1DF
 100
AcDbEntity
   8
LEVEL001
 370
13
 100
AcDbLine
   6
CONTINUOUS
  62
5
  10
 1157.3969020201
  20
 889.46550759032
  30
0.0
  11
 1197.3969020201
  21
 869.46550759032
  31
0.0
   0
LINE
   5
1E0
 100
AcDbEntity
   8
LEVEL001
 370
13
 100
AcDbLine
   6
CONTINUOUS
  62
5
  10
 1157.3969020201
  20
 889.46550759032
  30
0.0
  11
 1107.3969020201
  21
 789.46550759032
  31
0.0
   0
LINE
   5
1E1
 100
AcDbEntity
   8
LEVEL001
 370
13
 100
AcDbLine
   6
CONTINUOUS
  62
5
  10
 1107.3969020201
  20
 889.46550759032
  30
0.0
  11
 1147.3969020201
  21
 869.46550759032
  31
0.0
   0
LINE
   5
1E2
 100
AcDbEntity
   8
LEVEL001
 370
13
 100
AcDbLine
   6
CONTINUOUS
  62
5
  10
 1257.3969020201
  20
 789.46550759032
  30
0.0
  11
 1217.3969020201
  21
 809.46550759032
  31
0.0
   0
LINE
   5
1E3
 100
AcDbEntity
   8
LEVEL001
 370
13
 100
AcDbLine
   6
CONTINUOUS
  62
5
  10
 1207.3969020201
  20
 789.46550759032
  30
0.0
  11
 1167.3969020201
  21
 809.46550759032
  31
0.0
   0
LINE
   5
1E4
 100
AcDbEntity
   8
LEVEL001
 370
13
 100
AcDbLine
   6
CONTINUOUS
  62
5
  10
 1157.3969020201
  20
 789.46550759032
  30
0.0
  11
 1117.3969020201
  21
 809.46550759032
  31
0.0
   0
LINE
   5
1E5
 100
AcDbEntity
   8
LEVEL001
 370
13
 100
AcDbLine
   6
CONTINUOUS
  62
5
  10
 1607.3969020201
  20
 889.46550759032
  30
0.0
  11
 1557.3969020201
  21
 789.46550759032
  31
0.0
   0
LINE
   5
1E6
 100
AcDbEntity
   8
LEVEL001
 370
13
 100
AcDbLine
   6
CONTINUOUS
  62
5
  10
 1557.3969020201
  20
 889.46550759032
  30
0.0
  11
 1597.3969020201
  21
 869.46550759032
  31
0.0
   0
LINE
   5
1E7
 100
AcDbEntity
   8
LEVEL001
 370
13
 100
AcDbLine
   6
CONTINUOUS
  62
5
  10
 1557.3969020201
  20
 889.46550759032
  30
0.0
  11
 1507.3969020201
  21
 789.46550759032
  31
0.0
   0
LINE
   5
1E8
 100
AcDbEntity
   8
LEVEL001
 370
13
 100
AcDbLine
   6
CONTINUOUS
  62
5
  10
 1507.3969020201
  20
 889.46550759032
  30
0.0
  11
 1547.3969020201
  21
 869.46550759032
  31
0.0
   0
LINE
   5
1E9
 100
AcDbEntity
   8
LEVEL001
 370
13
 100
AcDbLine
   6
CONTINUOUS
  62
5
  10
 1507.3969020201
  20
 889.46550759032
  30
0.0
  11
 1457.3969020201
  21
 789.46550759032
  31
0.0
   0
LINE
   5
1EA
 100
AcDbEntity
   8
LEVEL001
 370
13
 100
AcDbLine
   6
CONTINUOUS
  62
5
  10
 1457.3969020201
  20
 889.46550759032
  30
0.0
  11
 1497.3969020201
  21
 869.46550759032
  31
0.0
   0
LINE
   5
1EB
 100
AcDbEntity
   8
LEVEL001
 370
13
 100
AcDbLine
   6
CONTINUOUS
  62
5
  10
 1607.3969020201
  20
 789.46550759032
  30
0.0
  11
 1567.3969020201
  21
 809.46550759032
  31
0.0
   0
LINE
   5
1EC
 100
AcDbEntity
   8
LEVEL001
 370
13
 100
AcDbLine
   6
CONTINUOUS
  62
5
  10
 1557.3969020201
  20
 789.46550759032
  30
0.0
  11
 1517.3969020201
  21
 809.46550759032
  31
0.0
   0
LINE
   5
1ED
 100
AcDbEntity
   8
LEVEL001
 370
13
 100
AcDbLine
   6
CONTINUOUS
  62
5
  10
 1507.3969020201
  20
 789.46550759032
  30
0.0
  11
 1467.3969020201
  21
 809.46550759032
  31
0.0
   0
LWPOLYLINE
   5
1EE
 100
AcDbEntity
   8
LEVEL001
 370
13
   6
CONTINUOUS
  62
5
 100
AcDbPolyline
  90
4
  70
1
  10
 1107.3969020201
  20
 889.46550759032
  10
 1107.3969020201
  20
 789.46550759032
  10
 1607.3969020201
  20
 789.46550759032
  10
 1607.3969020201
  20
 889.46550759032
   0
LINE
   5
1EF
 100
AcDbEntity
   8
LEVEL001
 370
13
 100
AcDbLine
   6
DASHDOT
  62
6
  10
 1297.3968839344
  20
 1289.4655075903
  30
0.0
  11
 1417.3968839344
  21
 1289.4655075903
  31
0.0
   0
CIRCLE
   5
1F0
 100
AcDbEntity
   8
LEVEL001
 370
13
 100
AcDbCircle
   6
CONTINUOUS
  62
7
  10
 1357.3968682180
  20
 1189.4655075903
  30
0.0
  40
 7.5000000000000
   0
LINE
   5
1F1
 100
AcDbEntity
   8
LEVEL001
 370
13
 100
AcDbLine
   6
DASHDOT
  62
6
  10
 1327.3968682180
  20
 1189.4655075903
  30
0.0
  11
 1387.3968682180
  21
 1189.4655075903
  31
0.0
   0
CIRCLE
   5
1F2
 100
AcDbEntity
   8
LEVEL001
 370
13
 100
AcDbCircle
   6
CONTINUOUS
  62
1
  10
 1607.3969020201
  20
 2664.4655075903
  30
0.0
  40
 69.999997913838
   0
MTEXT
   5
1F4
 100
AcDbEntity
   8
LEVEL001
 370
13
  62
7
 100
AcDbMText
  10
 1607.3969020201
  20
 2664.4655075903
  30
0.0
  40
 66.000000000000
  41
0.0
  71
5
  72
1
   1
\T1.000000;１０
   7
GMM002
  44
 0.79999984000003
   0
LEADER
   5
1F5
 100
AcDbEntity
   8
LEVEL001
 370
13
   6
CONTINUOUS
  62
1
 100
AcDbLeader
   3
GMM002
  73
3
  74
1
  75
0
  40
 66.000000000000
  41
0.0
  76
2
  10
 1395.5469020201
  20
 2539.4655075903
  30
0.0
  10
 1547.1091144556
  20
 2628.8932940167
  30
0.0
  77
1
   0
DIMENSION
   5
1F6
 100
AcDbEntity
   8
LEVEL001
 370
13
   6
CONTINUOUS
  62
6
 100
AcDbDimension
   2
*D17
  10
 1607.3969020201
  20
 539.46550759032
  30
0.0
  11
 1357.3969020201
  21
 539.46550759032
  31
0.0
  70
0
   3
GMM007
 100
AcDbAlignedDimension
  13
 1107.3969020201
  23
 789.46550759032
  33
0.0
  14
 1607.3969020201
  24
 789.46550759032
  34
0.0
 100
AcDbRotatedDimension
   0
LINE
   5
1F7
 100
AcDbEntity
   8
LEVEL001
 370
13
 100
AcDbLine
   6
CONTINUOUS
  62
5
  10
 1607.3969020201
  20
 1624.8208466499
  30
0.0
  11
 1395.5469020201
  21
 1412.9708466499
  31
0.0
   0
LINE
   5
1F8
 100
AcDbEntity
   8
LEVEL001
 370
13
 100
AcDbLine
   6
CONTINUOUS
  62
5
  10
 1395.5469020201
  20
 1377.6155075906
  30
0.0
  11
 1607.3969020201
  21
 1589.4655075906
  31
0.0
   0
LINE
   5
1F9
 100
AcDbEntity
   8
LEVEL001
 370
13
 100
AcDbLine
   6
CONTINUOUS
  62
5
  10
 1607.3969020201
  20
 1554.1101685312
  30
0.0
  11
 1395.5469020201
  21
 1342.2601685312
  31
0.0
   0
LINE
   5
1FA
 100
AcDbEntity
   8
LEVEL001
 370
13
 100
AcDbLine
   6
CONTINUOUS
  62
5
  10
 1319.2469020201
  20
 1265.9601685312
  30
0.0
  11
 1107.3969020201
  21
 1054.1101685312
  31
0.0
   0
LINE
   5
1FB
 100
AcDbEntity
   8
LEVEL001
 370
13
 100
AcDbLine
   6
CONTINUOUS
  62
5
  10
 2154.8969020199
  20
 1789.4655075903
  30
0.0
  11
 2207.3969020201
  21
 1736.9655075903
  31
0.0
   0
LINE
   5
1FC
 100
AcDbEntity
   8
LEVEL001
 370
13
 100
AcDbLine
   6
CONTINUOUS
  62
5
  10
 2859.8969020201
  20
 1789.4655075903
  30
0.0
  11
 2807.3969020201
  21
 1736.9655075903
  31
0.0
   0
LINE
   5
1FD
 100
AcDbEntity
   8
LEVEL001
 370
13
 100
AcDbLine
   6
CONTINUOUS
  62
5
  10
 2823.3068045961
  20
 1736.9655075903
  30
0.0
  11
 2875.8068045961
  21
 1789.4655075903
  31
0.0
   0
LINE
   5
1FE
 100
AcDbEntity
   8
LEVEL001
 370
13
 100
AcDbLine
   6
CONTINUOUS
  62
5
  10
 2891.7167071737
  20
 1789.4655075903
  30
0.0
  11
 2839.2167071737
  21
 1736.9655075903
  31
0.0
   0
LINE
   5
1FF
 100
AcDbEntity
   8
LEVEL001
 370
13
 100
AcDbLine
   6
CONTINUOUS
  62
5
  10
 2855.1266097497
  20
 1736.9655075903
  30
0.0
  11
 2907.6266097497
  21
 1789.4655075903
  31
0.0
   0
LINE
   5
200
 100
AcDbEntity
   8
LEVEL001
 370
13
 100
AcDbLine
   6
CONTINUOUS
  62
5
  10
 2912.3969020203
  20
 1736.9655075903
  30
0.0
  11
 2883.7617558850
  21
 1765.6006537256
  31
0.0
   0
LINE
   5
201
 100
AcDbEntity
   8
LEVEL001
 370
13
 100
AcDbLine
   6
CONTINUOUS
  62
5
  10
 2891.7167071732
  20
 1773.5556050138
  30
0.0
  11
 2928.3068045968
  21
 1736.9655075903
  31
0.0
   0
LINE
   5
202
 100
AcDbEntity
   8
LEVEL001
 370
13
 100
AcDbLine
   6
CONTINUOUS
  62
5
  10
 2944.2167071732
  20
 1736.9655075903
  30
0.0
  11
 2899.6716584615
  21
 1781.5105563020
  31
0.0
   0
LINE
   5
203
 100
AcDbEntity
   8
LEVEL001
 370
13
 100
AcDbLine
   6
CONTINUOUS
  62
5
  10
 2907.6266097497
  20
 1789.4655075903
  30
0.0
  11
 2960.1266097499
  21
 1736.9655075903
  31
0.0
   0
LINE
   5
204
 100
AcDbEntity
   8
LEVEL001
 370
13
 100
AcDbLine
   6
CONTINUOUS
  62
5
  10
 2960.1266097499
  20
 1736.9655075903
  30
0.0
  11
 3012.6266097499
  21
 1789.4655075903
  31
0.0
   0
LINE
   5
205
 100
AcDbEntity
   8
LEVEL001
 370
13
 100
AcDbLine
   6
CONTINUOUS
  62
5
  10
 2964.8969020202
  20
 1789.4655075903
  30
0.0
  11
 2936.2617558850
  21
 1760.8303614551
  31
0.0
   0
LINE
   5
206
 100
AcDbEntity
   8
LEVEL001
 370
13
 100
AcDbLine
   6
CONTINUOUS
  62
5
  10
 2944.2167071731
  20
 1752.8754101671
  30
0.0
  11
 2980.8068045963
  21
 1789.4655075903
  31
0.0
   0
LINE
   5
207
 100
AcDbEntity
   8
LEVEL001
 370
13
 100
AcDbLine
   6
CONTINUOUS
  62
5
  10
 2996.7167071739
  20
 1789.4655075903
  30
0.0
  11
 2952.1716584619
  21
 1744.9204588783
  31
0.0
   0
LINE
   5
208
 100
AcDbEntity
   8
LEVEL001
 370
13
 100
AcDbLine
   6
CONTINUOUS
  62
5
  10
 3017.3969020205
  20
 1736.9655075903
  30
0.0
  11
 2988.7617558852
  21
 1765.6006537256
  31
0.0
   0
LINE
   5
209
 100
AcDbEntity
   8
LEVEL001
 370
13
 100
AcDbLine
   6
CONTINUOUS
  62
5
  10
 2996.7167071734
  20
 1773.5556050138
  30
0.0
  11
 3033.3068045969
  21
 1736.9655075903
  31
0.0
   0
LINE
   5
20A
 100
AcDbEntity
   8
LEVEL001
 370
13
 100
AcDbLine
   6
CONTINUOUS
  62
5
  10
 3049.2167071734
  20
 1736.9655075903
  30
0.0
  11
 3004.6716584616
  21
 1781.5105563020
  31
0.0
   0
LINE
   5
20B
 100
AcDbEntity
   8
LEVEL001
 370
13
 100
AcDbLine
   6
CONTINUOUS
  62
5
  10
 3012.6266097499
  20
 1789.4655075903
  30
0.0
  11
 3065.1266097501
  21
 1736.9655075903
  31
0.0
   0
LINE
   5
20C
 100
AcDbEntity
   8
LEVEL001
 370
13
 100
AcDbLine
   6
CONTINUOUS
  62
5
  10
 2257.3969020201
  20
 1789.4655075903
  30
0.0
  11
 1957.3969672550
  21
 1789.4655075903
  31
0.0
   0
LINE
   5
20D
 100
AcDbEntity
   8
LEVEL001
 370
13
 100
AcDbLine
   6
CONTINUOUS
  62
5
  10
 2757.3969020201
  20
 1789.4655075903
  30
0.0
  11
 3057.3969672550
  21
 1789.4655075903
  31
0.0
   0
LWPOLYLINE
   5
20E
 100
AcDbEntity
   8
LEVEL001
 370
13
   6
CONTINUOUS
  62
5
 100
AcDbPolyline
  90
6
  70
0
  10
 2469.2469020201
  20
 1789.4655075903
  10
 2257.3969020201
  20
 1789.4655075903
  10
 2257.3969020201
  20
 889.46550759032
  10
 2757.3969020201
  20
 889.46550759032
  10
 2757.3969020201
  20
 1789.4655075903
  10
 2545.5469020201
  20
 1789.4655075903
   0
LINE
   5
20F
 100
AcDbEntity
   8
LEVEL001
 370
13
 100
AcDbLine
   6
CONTINUOUS
  62
5
  10
 2102.3969020199
  20
 1736.9655075903
  30
0.0
  11
 2154.8969020199
  21
 1789.4655075903
  31
0.0
   0
LINE
   5
210
 100
AcDbEntity
   8
LEVEL001
 370
13
 100
AcDbLine
   6
CONTINUOUS
  62
5
  10
 2086.4869994430
  20
 1752.8754101671
  30
0.0
  11
 2123.0770968662
  21
 1789.4655075903
  31
0.0
   0
LINE
   5
211
 100
AcDbEntity
   8
LEVEL001
 370
13
 100
AcDbLine
   6
CONTINUOUS
  62
5
  10
 2138.9869994438
  20
 1789.4655075903
  30
0.0
  11
 2094.4419507318
  21
 1744.9204588783
  31
0.0
   0
LINE
   5
212
 100
AcDbEntity
   8
LEVEL001
 370
13
 100
AcDbLine
   6
CONTINUOUS
  62
5
  10
 2159.6671942905
  20
 1736.9655075903
  30
0.0
  11
 2131.0320481552
  21
 1765.6006537256
  31
0.0
   0
LINE
   5
213
 100
AcDbEntity
   8
LEVEL001
 370
13
 100
AcDbLine
   6
CONTINUOUS
  62
5
  10
 2138.9869994434
  20
 1773.5556050138
  30
0.0
  11
 2175.5770968669
  21
 1736.9655075903
  31
0.0
   0
LINE
   5
214
 100
AcDbEntity
   8
LEVEL001
 370
13
 100
AcDbLine
   6
CONTINUOUS
  62
5
  10
 2191.4869994433
  20
 1736.9655075903
  30
0.0
  11
 2146.9419507316
  21
 1781.5105563020
  31
0.0
   0
LINE
   5
215
 100
AcDbEntity
   8
LEVEL001
 370
13
 100
AcDbLine
   6
CONTINUOUS
  62
5
  10
 2002.1671942900
  20
 1789.4655075903
  30
0.0
  11
 1949.6671942900
  21
 1736.9655075903
  31
0.0
   0
LINE
   5
216
 100
AcDbEntity
   8
LEVEL001
 370
13
 100
AcDbLine
   6
CONTINUOUS
  62
5
  10
 1965.5770968660
  20
 1736.9655075903
  30
0.0
  11
 2018.0770968660
  21
 1789.4655075903
  31
0.0
   0
LINE
   5
217
 100
AcDbEntity
   8
LEVEL001
 370
13
 100
AcDbLine
   6
CONTINUOUS
  62
5
  10
 2033.9869994436
  20
 1789.4655075903
  30
0.0
  11
 1981.4869994436
  21
 1736.9655075903
  31
0.0
   0
LINE
   5
218
 100
AcDbEntity
   8
LEVEL001
 370
13
 100
AcDbLine
   6
CONTINUOUS
  62
5
  10
 1997.3969020197
  20
 1736.9655075903
  30
0.0
  11
 2049.8969020197
  21
 1789.4655075903
  31
0.0
   0
LINE
   5
219
 100
AcDbEntity
   8
LEVEL001
 370
13
 100
AcDbLine
   6
CONTINUOUS
  62
5
  10
 2054.6671942903
  20
 1736.9655075903
  30
0.0
  11
 2026.0320481550
  21
 1765.6006537256
  31
0.0
   0
LINE
   5
21A
 100
AcDbEntity
   8
LEVEL001
 370
13
 100
AcDbLine
   6
CONTINUOUS
  62
5
  10
 2033.9869994432
  20
 1773.5556050138
  30
0.0
  11
 2070.5770968667
  21
 1736.9655075903
  31
0.0
   0
LINE
   5
21B
 100
AcDbEntity
   8
LEVEL001
 370
13
 100
AcDbLine
   6
CONTINUOUS
  62
5
  10
 2086.4869994431
  20
 1736.9655075903
  30
0.0
  11
 2041.9419507314
  21
 1781.5105563020
  31
0.0
   0
LINE
   5
21C
 100
AcDbEntity
   8
LEVEL001
 370
13
 100
AcDbLine
   6
CONTINUOUS
  62
5
  10
 2049.8969020197
  20
 1789.4655075903
  30
0.0
  11
 2102.3969020199
  21
 1736.9655075903
  31
0.0
   0
LINE
   5
21D
 100
AcDbEntity
   8
LEVEL001
 370
13
 100
AcDbLine
   6
CONTINUOUS
  62
5
  10
 2107.1671942902
  20
 1789.4655075903
  30
0.0
  11
 2078.5320481550
  21
 1760.8303614551
  31
0.0
   0
MTEXT
   5
21F
 100
AcDbEntity
   8
LEVEL001
 370
13
  62
1
 100
AcDbMText
  10
 2078.0455724645
  20
 1798.1954446306
  30
0.0
  40
 40.000000000000
  41
0.0
  71
7
  72
1
   1
\T1.000000;ＧＬ
   7
GMM003
  44
 0.79999984000003
   0
LWPOLYLINE
   5
220
 100
AcDbEntity
   8
LEVEL001
 370
13
   6
CONTINUOUS
  62
1
 100
AcDbPolyline
  90
3
  70
1
  10
 2049.8969020197
  20
 1789.4655075903
  10
 2024.8969020197
  20
 1839.4655075903
  10
 2074.8969020197
  20
 1839.4655075903
   0
LINE
   5
221
 100
AcDbEntity
   8
LEVEL001
 370
13
 100
AcDbLine
   6
CONTINUOUS
  62
5
  10
 2407.3969020201
  20
 889.46550759032
  30
0.0
  11
 2357.3969020201
  21
 789.46550759032
  31
0.0
   0
LINE
   5
222
 100
AcDbEntity
   8
LEVEL001
 370
13
 100
AcDbLine
   6
CONTINUOUS
  62
5
  10
 2357.3969020201
  20
 889.46550759032
  30
0.0
  11
 2397.3969020201
  21
 869.46550759032
  31
0.0
   0
LINE
   5
223
 100
AcDbEntity
   8
LEVEL001
 370
13
 100
AcDbLine
   6
CONTINUOUS
  62
5
  10
 2357.3969020201
  20
 889.46550759032
  30
0.0
  11
 2307.3969020201
  21
 789.46550759032
  31
0.0
   0
LINE
   5
224
 100
AcDbEntity
   8
LEVEL001
 370
13
 100
AcDbLine
   6
CONTINUOUS
  62
5
  10
 2307.3969020201
  20
 889.46550759032
  30
0.0
  11
 2347.3969020201
  21
 869.46550759032
  31
0.0
   0
LINE
   5
225
 100
AcDbEntity
   8
LEVEL001
 370
13
 100
AcDbLine
   6
CONTINUOUS
  62
5
  10
 2307.3969020201
  20
 889.46550759032
  30
0.0
  11
 2257.3969020201
  21
 789.46550759032
  31
0.0
   0
LINE
   5
226
 100
AcDbEntity
   8
LEVEL001
 370
13
 100
AcDbLine
   6
CONTINUOUS
  62
5
  10
 2257.3969020201
  20
 889.46550759032
  30
0.0
  11
 2297.3969020201
  21
 869.46550759032
  31
0.0
   0
LINE
   5
227
 100
AcDbEntity
   8
LEVEL001
 370
13
 100
AcDbLine
   6
CONTINUOUS
  62
5
  10
 2407.3969020201
  20
 789.46550759032
  30
0.0
  11
 2367.3969020201
  21
 809.46550759032
  31
0.0
   0
LINE
   5
228
 100
AcDbEntity
   8
LEVEL001
 370
13
 100
AcDbLine
   6
CONTINUOUS
  62
5
  10
 2357.3969020201
  20
 789.46550759032
  30
0.0
  11
 2317.3969020201
  21
 809.46550759032
  31
0.0
   0
LINE
   5
229
 100
AcDbEntity
   8
LEVEL001
 370
13
 100
AcDbLine
   6
CONTINUOUS
  62
5
  10
 2307.3969020201
  20
 789.46550759032
  30
0.0
  11
 2267.3969020201
  21
 809.46550759032
  31
0.0
   0
LINE
   5
22A
 100
AcDbEntity
   8
LEVEL001
 370
13
 100
AcDbLine
   6
CONTINUOUS
  62
5
  10
 2757.3969020201
  20
 889.46550759032
  30
0.0
  11
 2707.3969020201
  21
 789.46550759032
  31
0.0
   0
LINE
   5
22B
 100
AcDbEntity
   8
LEVEL001
 370
13
 100
AcDbLine
   6
CONTINUOUS
  62
5
  10
 2707.3969020201
  20
 889.46550759032
  30
0.0
  11
 2747.3969020201
  21
 869.46550759032
  31
0.0
   0
LINE
   5
22C
 100
AcDbEntity
   8
LEVEL001
 370
13
 100
AcDbLine
   6
CONTINUOUS
  62
5
  10
 2707.3969020201
  20
 889.46550759032
  30
0.0
  11
 2657.3969020201
  21
 789.46550759032
  31
0.0
   0
LINE
   5
22D
 100
AcDbEntity
   8
LEVEL001
 370
13
 100
AcDbLine
   6
CONTINUOUS
  62
5
  10
 2657.3969020201
  20
 889.46550759032
  30
0.0
  11
 2697.3969020201
  21
 869.46550759032
  31
0.0
   0
LINE
   5
22E
 100
AcDbEntity
   8
LEVEL001
 370
13
 100
AcDbLine
   6
CONTINUOUS
  62
5
  10
 2657.3969020201
  20
 889.46550759032
  30
0.0
  11
 2607.3969020201
  21
 789.46550759032
  31
0.0
   0
LINE
   5
22F
 100
AcDbEntity
   8
LEVEL001
 370
13
 100
AcDbLine
   6
CONTINUOUS
  62
5
  10
 2607.3969020201
  20
 889.46550759032
  30
0.0
  11
 2647.3969020201
  21
 869.46550759032
  31
0.0
   0
LINE
   5
230
 100
AcDbEntity
   8
LEVEL001
 370
13
 100
AcDbLine
   6
CONTINUOUS
  62
5
  10
 2757.3969020201
  20
 789.46550759032
  30
0.0
  11
 2717.3969020201
  21
 809.46550759032
  31
0.0
   0
LINE
   5
231
 100
AcDbEntity
   8
LEVEL001
 370
13
 100
AcDbLine
   6
CONTINUOUS
  62
5
  10
 2707.3969020201
  20
 789.46550759032
  30
0.0
  11
 2667.3969020201
  21
 809.46550759032
  31
0.0
   0
LINE
   5
232
 100
AcDbEntity
   8
LEVEL001
 370
13
 100
AcDbLine
   6
CONTINUOUS
  62
5
  10
 2657.3969020201
  20
 789.46550759032
  30
0.0
  11
 2617.3969020201
  21
 809.46550759032
  31
0.0
   0
LWPOLYLINE
   5
233
 100
AcDbEntity
   8
LEVEL001
 370
13
   6
CONTINUOUS
  62
5
 100
AcDbPolyline
  90
4
  70
1
  10
 2257.3969020201
  20
 889.46550759032
  10
 2257.3969020201
  20
 789.46550759032
  10
 2757.3969020201
  20
 789.46550759032
  10
 2757.3969020201
  20
 889.46550759032
   0
LWPOLYLINE
   5
234
 100
AcDbEntity
   8
LEVEL001
 370
13
   6
CONTINUOUS
  62
7
 100
AcDbPolyline
  90
4
  70
0
  10
 2545.5469020201
  20
 1196.9655075903
  10
 2617.3968839344
  20
 1196.9655075903
  10
 2617.3968839344
  20
 1181.9655075903
  10
 2545.5469020201
  20
 1181.9655075903
   0
LWPOLYLINE
   5
235
 100
AcDbEntity
   8
LEVEL001
 370
13
   6
CONTINUOUS
  62
7
 100
AcDbPolyline
  90
4
  70
0
  10
 2469.2469020201
  20
 1196.9655075903
  10
 2397.3968839344
  20
 1196.9655075903
  10
 2397.3968839344
  20
 1181.9655075903
  10
 2469.2469020201
  20
 1181.9655075903
   0
CIRCLE
   5
236
 100
AcDbEntity
   8
LEVEL001
 370
13
 100
AcDbCircle
   6
CONTINUOUS
  62
1
  10
 2132.3969020201
  20
 1039.4655075903
  30
0.0
  40
 69.999997913838
   0
MTEXT
   5
238
 100
AcDbEntity
   8
LEVEL001
 370
13
  62
7
 100
AcDbMText
  10
 2132.3969020201
  20
 1039.4655075903
  30
0.0
  40
 66.000000000000
  41
0.0
  71
5
  72
1
   1
\T1.000000;１１
   7
GMM002
  44
 0.79999984000003
   0
LEADER
   5
239
 100
AcDbEntity
   8
LEVEL001
 370
13
   6
CONTINUOUS
  62
1
 100
AcDbLeader
   3
GMM008
  73
3
  74
1
  75
0
  40
 66.000000000000
  41
0.0
  76
2
  10
 2397.3968839344
  20
 1181.9655075903
  30
0.0
  10
 2194.0485423227
  20
 1072.6178069967
  30
0.0
  77
1
   0
DIMENSION
   5
23A
 100
AcDbEntity
   8
LEVEL001
 370
13
   6
CONTINUOUS
  62
6
 100
AcDbDimension
   2
*D19
  10
 2757.3969020201
  20
 539.46550759032
  30
0.0
  11
 2507.3969020201
  21
 539.46550759032
  31
0.0
  70
0
   3
GMM009
 100
AcDbAlignedDimension
  13
 2257.3969020201
  23
 789.46550759032
  33
0.0
  14
 2757.3969020201
  24
 789.46550759032
  34
0.0
 100
AcDbRotatedDimension
   0
LINE
   5
23B
 100
AcDbEntity
   8
LEVEL001
 370
13
 100
AcDbLine
   6
CONTINUOUS
  62
5
  10
 2757.3969020201
  20
 1624.8208466499
  30
0.0
  11
 2545.5469020201
  21
 1412.9708466499
  31
0.0
   0
LINE
   5
23C
 100
AcDbEntity
   8
LEVEL001
 370
13
 100
AcDbLine
   6
CONTINUOUS
  62
5
  10
 2545.5469020201
  20
 1377.6155075906
  30
0.0
  11
 2757.3969020201
  21
 1589.4655075906
  31
0.0
   0
LINE
   5
23D
 100
AcDbEntity
   8
LEVEL001
 370
13
 100
AcDbLine
   6
CONTINUOUS
  62
5
  10
 2469.2469020201
  20
 1336.6708466499
  30
0.0
  11
 2257.3969020201
  21
 1124.8208466499
  31
0.0
   0
LINE
   5
23E
 100
AcDbEntity
   8
LEVEL001
 370
13
 100
AcDbLine
   6
CONTINUOUS
  62
5
  10
 2257.3969020201
  20
 1089.4655075906
  30
0.0
  11
 2469.2469020201
  21
 1301.3155075906
  31
0.0
   0
LINE
   5
23F
 100
AcDbEntity
   8
LEVEL001
 370
13
 100
AcDbLine
   6
CONTINUOUS
  62
5
  10
 2757.3969020201
  20
 1554.1101685312
  30
0.0
  11
 2545.5469020201
  21
 1342.2601685312
  31
0.0
   0
LINE
   5
240
 100
AcDbEntity
   8
LEVEL001
 370
13
 100
AcDbLine
   6
CONTINUOUS
  62
5
  10
 2469.2469020201
  20
 1265.9601685312
  30
0.0
  11
 2257.3969020201
  21
 1054.1101685312
  31
0.0
   0
CIRCLE
   5
241
 100
AcDbEntity
   8
LEVEL001
 370
13
 100
AcDbCircle
   6
CONTINUOUS
  62
7
  10
 2507.3969020201
  20
 1289.4655075903
  30
0.0
  40
 7.5000000000000
   0
LINE
   5
242
 100
AcDbEntity
   8
LEVEL001
 370
13
 100
AcDbLine
   6
DASHDOT
  62
6
  10
 2477.3969020201
  20
 1289.4655075903
  30
0.0
  11
 2537.3969020201
  21
 1289.4655075903
  31
0.0
   0
LINE
   5
243
 100
AcDbEntity
   8
LEVEL001
 370
13
 100
AcDbLine
   6
DASHDOT
  62
6
  10
 2447.3969020201
  20
 1189.4655075903
  30
0.0
  11
 2567.3969020201
  21
 1189.4655075903
  31
0.0
   0
ARC
   5
244
 100
AcDbEntity
   8
LEVEL001
 370
13
   6
CONTINUOUS
  62
7
 100
AcDbCircle
  10
 2845.5469020201
  20
 3523.4436218799
  30
0.0
  40
 300.00000000000
 100
AcDbArc
  50
 142.12501634890
  51
 180.00000000000
   0
LINE
   5
245
 100
AcDbEntity
   8
LEVEL001
 370
13
 100
AcDbLine
   6
DASHDOT
  62
6
  10
 2578.6274497143
  20
 3731.0476403400
  30
0.0
  11
 2786.1663543259
  21
 3997.8833748406
  31
0.0
   0
ARC
   5
246
 100
AcDbEntity
   8
LEVEL001
 370
13
   6
DASHDOT
  62
6
 100
AcDbCircle
  10
 2845.5469020201
  20
 3523.4436218799
  30
0.0
  40
 338.15000000000
 100
AcDbArc
  50
 142.12501634890
  51
 180.00000000000
   0
ARC
   5
247
 100
AcDbEntity
   8
LEVEL001
 370
13
   6
CONTINUOUS
  62
7
 100
AcDbCircle
  10
 2845.5469020201
  20
 3523.4436218799
  30
0.0
  40
 376.30000000000
 100
AcDbArc
  50
 142.12501634890
  51
 180.00000000000
   0
LINE
   5
248
 100
AcDbEntity
   8
LEVEL001
 370
13
 100
AcDbLine
   6
CONTINUOUS
  62
7
  10
 2756.0525672330
  20
 4021.3052092462
  30
0.0
  11
 2548.5136626213
  21
 3754.4694747456
  31
0.0
   0
LINE
   5
249
 100
AcDbEntity
   8
LEVEL001
 370
13
 100
AcDbLine
   6
CONTINUOUS
  62
7
  10
 2608.7412368072
  20
 3707.6258059344
  30
0.0
  11
 2816.2801414188
  21
 3974.4615404350
  31
0.0
   0
CIRCLE
   5
24A
 100
AcDbEntity
   8
LEVEL001
 370
13
 100
AcDbCircle
   6
CONTINUOUS
  62
1
  10
 3107.3969020201
  20
 3654.9436218791
  30
0.0
  40
 69.999997913838
   0
MTEXT
   5
24C
 100
AcDbEntity
   8
LEVEL001
 370
13
  62
7
 100
AcDbMText
  10
 3107.3969020201
  20
 3654.9436218791
  30
0.0
  40
 66.000000000000
  41
0.0
  71
5
  72
1
   1
\T1.000000;１４
   7
GMM002
  44
 0.79999984000003
   0
CIRCLE
   5
24D
 100
AcDbEntity
   8
LEVEL001
 370
13
 100
AcDbCircle
   6
CONTINUOUS
  62
1
  10
 3247.3968978477
  20
 3654.9436218791
  30
0.0
  40
 69.999997913838
   0
MTEXT
   5
24F
 100
AcDbEntity
   8
LEVEL001
 370
13
  62
7
 100
AcDbMText
  10
 3247.3968978477
  20
 3654.9436218791
  30
0.0
  40
 66.000000000000
  41
0.0
  71
5
  72
1
   1
\T1.000000;１５
   7
GMM002
  44
 0.79999984000003
   0
ARC
   5
250
 100
AcDbEntity
   8
LEVEL001
 370
13
   6
CONTINUOUS
  62
7
 100
AcDbCircle
  10
 1302.3969020202
  20
 3684.9436218799
  30
0.0
  40
 20.000000000000
 100
AcDbArc
  50
 90.000000000000
  51
 180.00000000000
   0
LINE
   5
251
 100
AcDbEntity
   8
LEVEL001
 370
13
 100
AcDbLine
   6
CONTINUOUS
  62
7
  10
 1282.3969020202
  20
 3684.9436218799
  30
0.0
  11
 1282.3969020202
  21
 3324.9436218799
  31
0.0
   0
LINE
   5
252
 100
AcDbEntity
   8
LEVEL001
 370
13
 100
AcDbLine
   6
CONTINUOUS
  62
7
  10
 1412.3969020202
  20
 3704.9436218799
  30
0.0
  11
 1302.3969020202
  21
 3704.9436218799
  31
0.0
   0
ARC
   5
253
 100
AcDbEntity
   8
LEVEL001
 370
13
   6
CONTINUOUS
  62
7
 100
AcDbCircle
  10
 1412.3969020202
  20
 3684.9436218799
  30
0.0
  40
 20.000000000000
 100
AcDbArc
  50
0.0
  51
 90.000000000000
   0
LINE
   5
254
 100
AcDbEntity
   8
LEVEL001
 370
13
 100
AcDbLine
   6
CONTINUOUS
  62
7
  10
 1432.3969020202
  20
 3324.9436218799
  30
0.0
  11
 1432.3969020202
  21
 3684.9436218799
  31
0.0
   0
ARC
   5
255
 100
AcDbEntity
   8
LEVEL001
 370
13
   6
CONTINUOUS
  62
7
 100
AcDbCircle
  10
 1412.3969020202
  20
 3324.9436218799
  30
0.0
  40
 20.000000000000
 100
AcDbArc
  50
 270.00000000000
  51
0.0
   0
ARC
   5
256
 100
AcDbEntity
   8
LEVEL001
 370
13
   6
CONTINUOUS
  62
7
 100
AcDbCircle
  10
 1302.3969020202
  20
 3324.9436218799
  30
0.0
  40
 20.000000000000
 100
AcDbArc
  50
 180.00000000000
  51
 270.00000000000
   0
LINE
   5
257
 100
AcDbEntity
   8
LEVEL001
 370
13
 100
AcDbLine
   6
CONTINUOUS
  62
7
  10
 1302.3969020202
  20
 3304.9436218799
  30
0.0
  11
 1412.3969020202
  21
 3304.9436218799
  31
0.0
   0
LWPOLYLINE
   5
258
 100
AcDbEntity
   8
LEVEL001
 370
13
   6
CONTINUOUS
  62
5
 100
AcDbPolyline
  90
7
  70
1
  10
 1357.3969020202
  20
 3664.9436218799
  10
 1321.0969031020
  20
 3618.7436232568
  10
 1340.8969025120
  20
 3618.7436232568
  10
 1340.8969025120
  20
 3598.9436238469
  10
 1373.8969015285
  20
 3598.9436238469
  10
 1373.8969015285
  20
 3618.7436232568
  10
 1393.6969009384
  20
 3618.7436232568
   0
CIRCLE
   5
259
 100
AcDbEntity
   8
LEVEL001
 370
13
 100
AcDbCircle
   6
CONTINUOUS
  62
1
  10
 1607.3969020201
  20
 3404.9436218791
  30
0.0
  40
 69.999997913838
   0
LEADER
   5
25A
 100
AcDbEntity
   8
LEVEL001
 370
13
   6
CONTINUOUS
  62
1
 100
AcDbLeader
   3
GMM010
  73
3
  74
1
  75
0
  40
 66.000000000000
  41
0.0
  76
2
  10
 1432.3969020202
  20
 3504.9436218791
  30
0.0
  10
 1546.6198838827
  20
 3439.6733465291
  30
0.0
  77
1
   0
MTEXT
   5
25C
 100
AcDbEntity
   8
LEVEL001
 370
13
  62
7
 100
AcDbMText
  10
 1607.3969020201
  20
 3404.9436218791
  30
0.0
  40
 66.000000000000
  41
0.0
  71
5
  72
1
   1
\T1.000000;１３
   7
GMM002
  44
 0.79999984000003
   0
ARC
   5
25D
 100
AcDbEntity
   8
LEVEL001
 370
13
   6
CONTINUOUS
  62
7
 100
AcDbCircle
  10
 2457.4742807705
  20
 3313.5853421697
  30
0.0
  40
 5.0000000000000
 100
AcDbArc
  50
 180.00000000000
  51
 201.80140948636
   0
LINE
   5
25E
 100
AcDbEntity
   8
LEVEL001
 370
13
 100
AcDbLine
   6
CONTINUOUS
  62
7
  10
 2455.5458040796
  20
 3304.9436218791
  30
0.0
  11
 2452.8318973160
  21
 3311.7283887880
  31
0.0
   0
ARC
   5
25F
 100
AcDbEntity
   8
LEVEL001
 370
13
   6
CONTINUOUS
  62
7
 100
AcDbCircle
  10
 2451.4742807705
  20
 3320.7912683382
  30
0.0
  40
 5.0000000000000
 100
AcDbArc
  50
 338.19859051366
  51
 0.15633062370329E-10
   0
LINE
   5
260
 100
AcDbEntity
   8
LEVEL001
 370
13
 100
AcDbLine
   6
CONTINUOUS
  62
7
  10
 2454.3143933702
  20
 3314.4286378197
  30
0.0
  11
 2456.1166642249
  21
 3318.9343149564
  31
0.0
   0
ARC
   5
261
 100
AcDbEntity
   8
LEVEL001
 370
13
   6
CONTINUOUS
  62
7
 100
AcDbCircle
  10
 2458.9567768246
  20
 3312.5716844379
  30
0.0
  40
 5.0000000000000
 100
AcDbArc
  50
 158.19859051364
  51
 201.80140948636
   0
LWPOLYLINE
   5
262
 100
AcDbEntity
   8
LEVEL001
 370
13
   6
CONTINUOUS
  62
7
 100
AcDbPolyline
  90
3
  70
0
  10
 2455.5458040796
  20
 3304.9436218791
  10
 2456.4742807705
  20
 3305.3150125555
  10
 2454.3143933702
  20
 3310.7147310562
   0
LINE
   5
263
 100
AcDbEntity
   8
LEVEL001
 370
13
 100
AcDbLine
   6
CONTINUOUS
  62
7
  10
 2455.5458040796
  20
 3704.9436218807
  30
0.0
  11
 2452.8318973160
  21
 3698.1588549719
  31
0.0
   0
ARC
   5
264
 100
AcDbEntity
   8
LEVEL001
 370
13
   6
CONTINUOUS
  62
7
 100
AcDbCircle
  10
 2457.4742807705
  20
 3696.3019015901
  30
0.0
  40
 5.0000000000000
 100
AcDbArc
  50
 158.19859051364
  51
 180.00000000000
   0
ARC
   5
265
 100
AcDbEntity
   8
LEVEL001
 370
13
   6
CONTINUOUS
  62
7
 100
AcDbCircle
  10
 2451.4742807705
  20
 3689.0959754217
  30
0.0
  40
 5.0000000000000
 100
AcDbArc
  50
 359.99999999998
  51
 21.801409486339
   0
LINE
   5
266
 100
AcDbEntity
   8
LEVEL001
 370
13
 100
AcDbLine
   6
CONTINUOUS
  62
7
  10
 2454.3143933702
  20
 3695.4586059402
  30
0.0
  11
 2456.1166642249
  21
 3690.9529288034
  31
0.0
   0
ARC
   5
267
 100
AcDbEntity
   8
LEVEL001
 370
13
   6
CONTINUOUS
  62
7
 100
AcDbCircle
  10
 2458.9567768246
  20
 3697.3155593219
  30
0.0
  40
 5.0000000000000
 100
AcDbArc
  50
 158.19859051364
  51
 201.80140948636
   0
LWPOLYLINE
   5
268
 100
AcDbEntity
   8
LEVEL001
 370
13
   6
CONTINUOUS
  62
7
 100
AcDbPolyline
  90
3
  70
0
  10
 2455.5458040796
  20
 3704.9436218807
  10
 2456.4742807705
  20
 3704.5722312044
  10
 2454.3143933702
  20
 3699.1725127037
   0
LINE
   5
269
 100
AcDbEntity
   8
LEVEL001
 370
13
 100
AcDbLine
   6
CONTINUOUS
  62
7
  10
 2452.4742807705
  20
 3696.3019015901
  30
0.0
  11
 2452.4742807705
  21
 3313.5853421697
  31
0.0
   0
LINE
   5
26A
 100
AcDbEntity
   8
LEVEL001
 370
13
 100
AcDbLine
   6
CONTINUOUS
  62
7
  10
 2456.4742807705
  20
 3689.0959754217
  30
0.0
  11
 2456.4742807705
  21
 3320.7912683382
  31
0.0
   0
LINE
   5
26B
 100
AcDbEntity
   8
LEVEL001
 370
13
 100
AcDbLine
   6
CONTINUOUS
  62
6
  10
 2459.4742807705
  20
 3539.9436826381
  30
0.0
  11
 2459.4742807705
  21
 3540.9436215990
  31
0.0
   0
LINE
   5
26C
 100
AcDbEntity
   8
LEVEL001
 370
13
 100
AcDbLine
   6
CONTINUOUS
  62
7
  10
 2459.9297595496
  20
 3525.9432554466
  30
0.0
  11
 2459.9302173135
  21
 3483.9433471632
  31
0.0
   0
LINE
   5
26D
 100
AcDbEntity
   8
LEVEL001
 370
13
 100
AcDbLine
   6
CONTINUOUS
  62
7
  10
 2459.4742807705
  20
 3540.9436215990
  30
0.0
  11
 2456.4742807705
  21
 3540.9436215990
  31
0.0
   0
LINE
   5
26E
 100
AcDbEntity
   8
LEVEL001
 370
13
 100
AcDbLine
   6
CONTINUOUS
  62
6
  10
 2456.4742807705
  20
 3539.9436826381
  30
0.0
  11
 2459.4742807705
  21
 3539.9436826381
  31
0.0
   0
LWPOLYLINE
   5
26F
 100
AcDbEntity
   8
LEVEL001
 370
13
   6
CONTINUOUS
  62
6
 100
AcDbPolyline
  90
3
  70
0
  10
 2459.4742807705
  20
 3468.9436218799
  10
 2459.4742807705
  20
 3469.9436523936
  10
 2456.4742807705
  20
 3469.9436523936
   0
ELLIPSE
   5
270
 100
AcDbEntity
   8
LEVEL001
 370
13
   6
CONTINUOUS
  62
7
 100
AcDbEllipse
  10
 2455.9302147624
  20
 3483.9434083157
  30
0.0
  11
 4.0000025516047
  21
0.0
  31
0.0
  40
 0.99999938800000
  41
-1.4343569865528
  42
-0.15288126351787E-4
   0
LINE
   5
271
 100
AcDbEntity
   8
LEVEL001
 370
13
 100
AcDbLine
   6
CONTINUOUS
  62
7
  10
 2456.4742807705
  20
 3468.9436218799
  30
0.0
  11
 2459.4742807705
  21
 3468.9436218799
  31
0.0
   0
ELLIPSE
   5
272
 100
AcDbEntity
   8
LEVEL001
 370
13
   6
CONTINUOUS
  62
7
 100
AcDbEllipse
  10
 2455.9297569998
  20
 3525.9433773978
  30
0.0
  11
 4.0000025516047
  21
0.0
  31
0.0
  40
 0.99999938800000
  41
-0.30487804121538E-4
  42
 1.4342414715500
   0
LWPOLYLINE
   5
273
 100
AcDbEntity
   8
LEVEL001
 370
13
   6
CONTINUOUS
  62
7
 100
AcDbPolyline
  90
4
  70
0
  10
 2459.9297867935
  20
 3523.4436218799
  10
 2565.4742807705
  20
 3523.4436218799
  10
 2565.4742807705
  20
 3486.4436218799
  10
 2459.9301900626
  20
 3486.4436218799
   0
LINE
   5
274
 100
AcDbEntity
   8
LEVEL001
 370
13
 100
AcDbLine
   6
CONTINUOUS
  62
6
  10
 2470.9222153748
  20
 3510.4436218799
  30
0.0
  11
 2470.9222153748
  21
 3499.4436218799
  31
0.0
   0
LINE
   5
275
 100
AcDbEntity
   8
LEVEL001
 370
13
 100
AcDbLine
   6
CONTINUOUS
  62
6
  10
 2470.9222153748
  20
 3497.4436218799
  30
0.0
  11
 2470.9222153748
  21
 3488.4436218799
  31
0.0
   0
LINE
   5
276
 100
AcDbEntity
   8
LEVEL001
 370
13
 100
AcDbLine
   6
CONTINUOUS
  62
6
  10
 2470.9222153748
  20
 3521.4436218799
  30
0.0
  11
 2470.9222153748
  21
 3512.4436218799
  31
0.0
   0
LINE
   5
277
 100
AcDbEntity
   8
LEVEL001
 370
13
 100
AcDbLine
   6
CONTINUOUS
  62
6
  10
 2544.3022817700
  20
 3498.4436218799
  30
0.0
  11
 2472.1831099444
  21
 3498.4436218799
  31
0.0
   0
LINE
   5
278
 100
AcDbEntity
   8
LEVEL001
 370
13
 100
AcDbLine
   6
CONTINUOUS
  62
6
  10
 2472.1831099444
  20
 3511.4436218799
  30
0.0
  11
 2544.3022817700
  21
 3511.4436218799
  31
0.0
   0
LINE
   5
279
 100
AcDbEntity
   8
LEVEL001
 370
13
 100
AcDbLine
   6
CONTINUOUS
  62
6
  10
 2544.3022817700
  20
 3521.4436218799
  30
0.0
  11
 2544.3022817700
  21
 3512.4436218799
  31
0.0
   0
LINE
   5
27A
 100
AcDbEntity
   8
LEVEL001
 370
13
 100
AcDbLine
   6
CONTINUOUS
  62
6
  10
 2544.3022817700
  20
 3497.4436218799
  30
0.0
  11
 2544.3022817700
  21
 3488.4436218799
  31
0.0
   0
LINE
   5
27B
 100
AcDbEntity
   8
LEVEL001
 370
13
 100
AcDbLine
   6
CONTINUOUS
  62
6
  10
 2546.6208068114
  20
 3511.4436218799
  30
0.0
  11
 2546.6208068114
  21
 3498.4436218799
  31
0.0
   0
LWPOLYLINE
   5
27C
 100
AcDbEntity
   8
LEVEL001
 370
13
   6
CONTINUOUS
  62
7
 100
AcDbPolyline
  90
4
  70
1
  10
 2550.4742807705
  20
 3499.9436218799
  10
 2560.4742807705
  20
 3499.9436218799
  10
 2560.4742807705
  20
 3509.9436218799
  10
 2550.4742807705
  20
 3509.9436218799
   0
LWPOLYLINE
   5
27D
 100
AcDbEntity
   8
LEVEL001
 370
13
   6
CONTINUOUS
  62
7
 100
AcDbPolyline
  90
4
  70
0
  10
 2469.2469020201
  20
 3486.4436218799
  10
 2469.2469020201
  20
 889.46550759032
  10
 2545.5469020201
  20
 889.46550759032
  10
 2545.5469020201
  20
 3486.4436218799
   0
LEADER
   5
27E
 100
AcDbEntity
   8
LEVEL001
 370
13
   6
CONTINUOUS
  62
1
 100
AcDbLeader
   3
GMM002
  73
3
  74
1
  75
0
  40
 66.000000000000
  41
0.0
  76
2
  10
 2565.4742807705
  20
 3523.4436218799
  30
0.0
  10
 3040.1565553767
  20
 3635.4824941826
  30
0.0
  77
1
   0
LWPOLYLINE
   5
27F
 100
AcDbEntity
   8
LEVEL001
 370
13
   6
CONTINUOUS
  62
7
 100
AcDbPolyline
  90
4
  70
0
  10
 1319.2469020201
  20
 3304.9436218799
  10
 1319.2469020201
  20
 889.46550759032
  10
 1395.5469020201
  20
 889.46550759032
  10
 1395.5469020201
  20
 3304.9436218799
   0
LINE
   5
280
 100
AcDbEntity
   8
LEVEL001
 370
13
 100
AcDbLine
   6
CONTINUOUS
  62
5
  10
 1319.2469020201
  20
 1336.6708466499
  30
0.0
  11
 1107.3969020201
  21
 1124.8208466499
  31
0.0
   0
LINE
   5
281
 100
AcDbEntity
   8
LEVEL001
 370
13
 100
AcDbLine
   6
CONTINUOUS
  62
5
  10
 1107.3969020201
  20
 1089.4655075906
  30
0.0
  11
 1319.2469020201
  21
 1301.3155075906
  31
0.0
   0
MTEXT
   5
282
 100
AcDbEntity
   8
LEVEL001
 370
13
  62
1
 100
AcDbMText
  10
 1306.2094020202
  20
 3458.1936218799
  30
0.0
  40
 80.000000000000
  41
0.0
  71
4
  72
1
   1
{\T1.000000;注}\P{\T1.000000;意}
   7
GMM004
  44
 0.79999984000003
   0
LINE
   5
283
 100
AcDbEntity
   8
LEVEL001
 370
13
 100
AcDbLine
   6
DOT
  62
1
  10
 2545.5469020201
  20
 1181.9655075903
  30
0.0
  11
 2469.2469020201
  21
 1181.9655075903
  31
0.0
   0
LINE
   5
284
 100
AcDbEntity
   8
LEVEL001
 370
13
 100
AcDbLine
   6
DOT
  62
1
  10
 2469.2469020201
  20
 1196.9655075903
  30
0.0
  11
 2545.5469020201
  21
 1196.9655075903
  31
0.0
   0
LINE
   5
285
 100
AcDbEntity
   8
LEVEL001
 370
13
 100
AcDbLine
   6
DASHDOT
  62
6
  10
 2507.3969020201
  20
 3523.4436218799
  30
0.0
  11
 2507.3969020201
  21
 789.46550759032
  31
0.0
   0
LINE
   5
286
 100
AcDbEntity
   8
LEVEL001
 370
13
 100
AcDbLine
   6
CONTINUOUS
  62
6
  10
 5568.3059929291
  20
 1539.4662921348
  30
0.0
  11
 8084.0637721372
  21
 1539.4662921348
  31
0.0
   0
LINE
   5
287
 100
AcDbEntity
   8
LEVEL001
 370
13
 100
AcDbLine
   6
CONTINUOUS
  62
6
  10
 5568.3059929291
  20
 1409.4662921348
  30
0.0
  11
 8084.0637721372
  21
 1409.4662921348
  31
0.0
   0
LINE
   5
288
 100
AcDbEntity
   8
LEVEL001
 370
13
 100
AcDbLine
   6
CONTINUOUS
  62
6
  10
 5568.3059929291
  20
 1279.4662921348
  30
0.0
  11
 8084.0637721372
  21
 1279.4662921348
  31
0.0
   0
LINE
   5
289
 100
AcDbEntity
   8
LEVEL001
 370
13
 100
AcDbLine
   6
CONTINUOUS
  62
6
  10
 5568.3059929291
  20
 1149.4662921348
  30
0.0
  11
 8084.0637721372
  21
 1149.4662921348
  31
0.0
   0
MTEXT
   5
28B
 100
AcDbEntity
   8
LEVEL001
 370
13
  62
1
 100
AcDbMText
  10
 5739.2849666832
  20
 1173.0398998307
  30
0.0
  40
 80.000000000000
  41
0.0
  71
9
  72
1
   1
\T1.000000;１３
   7
GMM005
  44
 0.79999984000003
   0
MTEXT
   5
28D
 100
AcDbEntity
   8
LEVEL001
 370
13
  62
1
 100
AcDbMText
  10
 5739.2849666832
  20
 1303.0398998307
  30
0.0
  40
 80.000000000000
  41
0.0
  71
9
  72
1
   1
\T1.000000;１２
   7
GMM005
  44
 0.79999984000003
   0
MTEXT
   5
28F
 100
AcDbEntity
   8
LEVEL001
 370
13
  62
1
 100
AcDbMText
  10
 5739.2849666832
  20
 1433.0398998307
  30
0.0
  40
 80.000000000000
  41
0.0
  71
9
  72
1
   1
\T1.000000;１１
   7
GMM005
  44
 0.79999984000003
   0
LINE
   5
290
 100
AcDbEntity
   8
LEVEL001
 370
13
 100
AcDbLine
   6
CONTINUOUS
  62
6
  10
 5568.3059929291
  20
 1019.4662921348
  30
0.0
  11
 8084.0637721372
  21
 1019.4662921348
  31
0.0
   0
MTEXT
   5
292
 100
AcDbEntity
   8
LEVEL001
 370
13
  62
1
 100
AcDbMText
  10
 5818.3059929291
  20
 913.03989983072
  30
0.0
  40
 80.000000000000
  41
0.0
  71
7
  72
1
   1
\T1.000000;同上ボルトナット
   7
GMM006
  44
 0.79999984000003
   0
MTEXT
   5
294
 100
AcDbEntity
   8
LEVEL001
 370
13
  62
1
 100
AcDbMText
  10
 5818.3059929291
  20
 1043.0398998307
  30
0.0
  40
 80.000000000000
  41
0.0
  71
7
  72
1
   1
\T1.000000;注意板取付バンド
   7
GMM006
  44
 0.79999984000003
   0
MTEXT
   5
296
 100
AcDbEntity
   8
LEVEL001
 370
13
  62
1
 100
AcDbMText
  10
 6789.2849666832
  20
 1173.0398998307
  30
0.0
  40
 80.000000000000
  41
0.0
  71
9
  72
1
   1
\T1.000000;１
   7
GMM006
  44
 0.79999984000003
   0
MTEXT
   5
298
 100
AcDbEntity
   8
LEVEL001
 370
13
  62
1
 100
AcDbMText
  10
 5818.3059929291
  20
 1303.0398998307
  30
0.0
  40
 80.000000000000
  41
0.0
  71
7
  72
1
   1
\T1.000000;キャップ
   7
GMM006
  44
 0.79999984000003
   0
MTEXT
   5
29A
 100
AcDbEntity
   8
LEVEL001
 370
13
  62
1
 100
AcDbMText
  10
 6789.2849666832
  20
 1303.0398998307
  30
0.0
  40
 80.000000000000
  41
0.0
  71
9
  72
1
   1
\T1.000000;１
   7
GMM006
  44
 0.79999984000003
   0
MTEXT
   5
29C
 100
AcDbEntity
   8
LEVEL001
 370
13
  62
1
 100
AcDbMText
  10
 6868.3059929291
  20
 1303.0398998307
  30
0.0
  40
 80.000000000000
  41
0.0
  71
7
  72
1
   1
\T1.000000;ＰＥ
   7
GMM006
  44
 0.79999984000003
   0
MTEXT
   5
29E
 100
AcDbEntity
   8
LEVEL001
 370
13
  62
1
 100
AcDbMText
  10
 5818.3059929291
  20
 1433.0398998307
  30
0.0
  40
 80.000000000000
  41
0.0
  71
7
  72
1
   1
\T1.000000;根入れ鉄筋
   7
GMM006
  44
 0.79999984000003
   0
MTEXT
   5
2A0
 100
AcDbEntity
   8
LEVEL001
 370
13
  62
1
 100
AcDbMText
  10
 5739.2849666832
  20
 913.03989983072
  30
0.0
  40
 80.000000000000
  41
0.0
  71
9
  72
1
   1
\T1.000000;１５
   7
GMM005
  44
 0.79999984000003
   0
MTEXT
   5
2A2
 100
AcDbEntity
   8
LEVEL001
 370
13
  62
1
 100
AcDbMText
  10
 5739.2849666832
  20
 1043.0398998307
  30
0.0
  40
 80.000000000000
  41
0.0
  71
9
  72
1
   1
\T1.000000;１４
   7
GMM005
  44
 0.79999984000003
   0
MTEXT
   5
2A4
 100
AcDbEntity
   8
LEVEL001
 370
13
  62
1
 100
AcDbMText
  10
 6789.2849666832
  20
 1433.0398998307
  30
0.0
  40
 80.000000000000
  41
0.0
  71
9
  72
1
   1
\T1.000000;１
   7
GMM006
  44
 0.79999984000003
   0
MTEXT
   5
2A6
 100
AcDbEntity
   8
LEVEL001
 370
13
  62
1
 100
AcDbMText
  10
 6868.3059929291
  20
 1433.0398998307
  30
0.0
  40
 80.000000000000
  41
0.0
  71
7
  72
1
   1
\T1.000000;ＳＤ２９５Ａ
   7
GMM006
  44
 0.79999984000003
   0
LEADER
   5
2A7
 100
AcDbEntity
   8
LEVEL001
 370
13
   6
CONTINUOUS
  62
6
 100
AcDbLeader
   3
GMM011
  73
0
  74
0
  75
0
  40
 66.000000000000
  41
 676.00000000000
  76
2
  10
 1489.0701196094
  20
 4450.1009312406
  30
0.0
  10
 1759.7943653887
  20
 4200.5913879201
  30
0.0
  77
6
 340
2A8
 213
0.0
 223
-28.285714285715
 233
0.0
   0
MTEXT
   5
2A8
 102
{ACAD_REACTORS
 330
2A7
 102
}
 100
AcDbEntity
   8
LEVEL001
 370
13
  62
1
 100
AcDbMText
  10
 1759.7943653887
  20
 4228.8771022058
  30
0.0
  40
 66.000000000000
  41
0.0
  71
7
  72
1
   1
\A1;表面：超親水性コーティング
   7
GMM002
   0
MTEXT
   5
2AA
 100
AcDbEntity
   8
LEVEL001
 370
13
  62
1
 100
AcDbMText
  10
 6388.3059929291
  20
 727.65404325411
  30
0.0
  40
 66.000000000000
  41
0.0
  71
5
  72
1
   1
\T1.000000;ＭＦ０８０ＳＵＰ
   7
GMM002
  44
 0.79999984000003
   0
MTEXT
   5
2AB
 100
AcDbEntity
   8
LEVEL001
 370
13
  62
1
 100
AcDbMText
  10
 5591.2323998556
  20
 833.25126237293
  30
0.0
  40
 37.142857142857
  41
0.0
  71
7
  72
1
   1
\T1.269231;図面番号
   7
GMM007
  44
 0.79999984000003
   0
LINE
   5
2AC
 100
AcDbEntity
   8
LEVEL001
 370
13
 100
AcDbLine
   6
CONTINUOUS
  62
6
  10
 5568.3059929291
  20
 1799.4662921348
  30
0.0
  11
 8084.0637721372
  21
 1799.4662921348
  31
0.0
   0
LINE
   5
2AD
 100
AcDbEntity
   8
LEVEL001
 370
13
 100
AcDbLine
   6
CONTINUOUS
  62
6
  10
 5568.3059929291
  20
 1929.4662921348
  30
0.0
  11
 8084.0637721372
  21
 1929.4662921348
  31
0.0
   0
LINE
   5
2AE
 100
AcDbEntity
   8
LEVEL001
 370
13
 100
AcDbLine
   6
CONTINUOUS
  62
6
  10
 5568.3059929291
  20
 2059.4662921348
  30
0.0
  11
 8084.0637721372
  21
 2059.4662921348
  31
0.0
   0
LINE
   5
2AF
 100
AcDbEntity
   8
LEVEL001
 370
13
 100
AcDbLine
   6
CONTINUOUS
  62
6
  10
 5568.3059929291
  20
 2189.4662921348
  30
0.0
  11
 8084.0637721372
  21
 2189.4662921348
  31
0.0
   0
LINE
   5
2B0
 100
AcDbEntity
   8
LEVEL001
 370
13
 100
AcDbLine
   6
CONTINUOUS
  62
6
  10
 5568.3059929291
  20
 2319.4662921348
  30
0.0
  11
 8084.0637721372
  21
 2319.4662921348
  31
0.0
   0
LINE
   5
2B1
 100
AcDbEntity
   8
LEVEL001
 370
13
 100
AcDbLine
   6
CONTINUOUS
  62
6
  10
 5568.3059929291
  20
 2449.4662921348
  30
0.0
  11
 8084.0637721372
  21
 2449.4662921348
  31
0.0
   0
LINE
   5
2B2
 100
AcDbEntity
   8
LEVEL001
 370
13
 100
AcDbLine
   6
CONTINUOUS
  62
6
  10
 5568.3059929291
  20
 2579.4662921348
  30
0.0
  11
 8084.0637721372
  21
 2579.4662921348
  31
0.0
   0
LINE
   5
2B3
 100
AcDbEntity
   8
LEVEL001
 370
13
 100
AcDbLine
   6
CONTINUOUS
  62
6
  10
 5568.3059929291
  20
 2709.4662921348
  30
0.0
  11
 8084.0637721372
  21
 2709.4662921348
  31
0.0
   0
LINE
   5
2B4
 100
AcDbEntity
   8
LEVEL001
 370
13
 100
AcDbLine
   6
CONTINUOUS
  62
6
  10
 5568.3059929291
  20
 2839.4662921348
  30
0.0
  11
 8084.0637721372
  21
 2839.4662921348
  31
0.0
   0
MTEXT
   5
2B6
 100
AcDbEntity
   8
LEVEL001
 370
13
  62
1
 100
AcDbMText
  10
 5739.2849666832
  20
 1693.0398998307
  30
0.0
  40
 80.000000000000
  41
0.0
  71
9
  72
1
   1
\T1.000000;１０
   7
GMM005
  44
 0.79999984000003
   0
MTEXT
   5
2B8
 100
AcDbEntity
   8
LEVEL001
 370
13
  62
1
 100
AcDbMText
  10
 5739.2849666832
  20
 1823.0398998307
  30
0.0
  40
 80.000000000000
  41
0.0
  71
9
  72
1
   1
\T1.000000;９
   7
GMM005
  44
 0.79999984000003
   0
MTEXT
   5
2BA
 100
AcDbEntity
   8
LEVEL001
 370
13
  62
1
 100
AcDbMText
  10
 5739.2849666832
  20
 1953.0398998307
  30
0.0
  40
 80.000000000000
  41
0.0
  71
9
  72
1
   1
\T1.000000;８
   7
GMM005
  44
 0.79999984000003
   0
MTEXT
   5
2BC
 100
AcDbEntity
   8
LEVEL001
 370
13
  62
1
 100
AcDbMText
  10
 5739.2849666832
  20
 2083.0398998307
  30
0.0
  40
 80.000000000000
  41
0.0
  71
9
  72
1
   1
\T1.000000;７
   7
GMM005
  44
 0.79999984000003
   0
MTEXT
   5
2BE
 100
AcDbEntity
   8
LEVEL001
 370
13
  62
1
 100
AcDbMText
  10
 5739.2849666832
  20
 2213.0398998307
  30
0.0
  40
 80.000000000000
  41
0.0
  71
9
  72
1
   1
\T1.000000;６
   7
GMM005
  44
 0.79999984000003
   0
MTEXT
   5
2C0
 100
AcDbEntity
   8
LEVEL001
 370
13
  62
1
 100
AcDbMText
  10
 5739.2849666832
  20
 2343.0398998307
  30
0.0
  40
 80.000000000000
  41
0.0
  71
9
  72
1
   1
\T1.000000;５
   7
GMM005
  44
 0.79999984000003
   0
MTEXT
   5
2C2
 100
AcDbEntity
   8
LEVEL001
 370
13
  62
1
 100
AcDbMText
  10
 5739.2849666832
  20
 2473.0398998307
  30
0.0
  40
 80.000000000000
  41
0.0
  71
9
  72
1
   1
\T1.000000;４
   7
GMM005
  44
 0.79999984000003
   0
MTEXT
   5
2C4
 100
AcDbEntity
   8
LEVEL001
 370
13
  62
1
 100
AcDbMText
  10
 5739.2849666832
  20
 2603.0398998307
  30
0.0
  40
 80.000000000000
  41
0.0
  71
9
  72
1
   1
\T1.000000;３
   7
GMM005
  44
 0.79999984000003
   0
MTEXT
   5
2C6
 100
AcDbEntity
   8
LEVEL001
 370
13
  62
1
 100
AcDbMText
  10
 6789.2849666832
  20
 2603.0398998307
  30
0.0
  40
 80.000000000000
  41
0.0
  71
9
  72
1
   1
\T1.000000;１
   7
GMM006
  44
 0.79999984000003
   0
MTEXT
   5
2C8
 100
AcDbEntity
   8
LEVEL001
 370
13
  62
1
 100
AcDbMText
  10
 5818.3059929291
  20
 2603.0398998307
  30
0.0
  40
 80.000000000000
  41
0.0
  71
7
  72
1
   1
\T1.000000;フード
   7
GMM006
  44
 0.79999984000003
   0
MTEXT
   5
2CA
 100
AcDbEntity
   8
LEVEL001
 370
13
  62
1
 100
AcDbMText
  10
 5739.2849666832
  20
 2733.0398998307
  30
0.0
  40
 80.000000000000
  41
0.0
  71
9
  72
1
   1
\T1.000000;２
   7
GMM005
  44
 0.79999984000003
   0
MTEXT
   5
2CC
 100
AcDbEntity
   8
LEVEL001
 370
13
  62
1
 100
AcDbMText
  10
 6789.2849666832
  20
 2733.0398998307
  30
0.0
  40
 80.000000000000
  41
0.0
  71
9
  72
1
   1
\T1.000000;１
   7
GMM006
  44
 0.79999984000003
   0
MTEXT
   5
2CE
 100
AcDbEntity
   8
LEVEL001
 370
13
  62
1
 100
AcDbMText
  10
 5818.3059929291
  20
 2733.0398998307
  30
0.0
  40
 80.000000000000
  41
0.0
  71
7
  72
1
   1
\T1.000000;バックプレート
   7
GMM006
  44
 0.79999984000003
   0
MTEXT
   5
2D0
 100
AcDbEntity
   8
LEVEL001
 370
13
  62
1
 100
AcDbMText
  10
 6868.3059929291
  20
 2733.0398998307
  30
0.0
  40
 80.000000000000
  41
0.0
  71
7
  72
1
   1
\T1.000000;ＦＲＰ
   7
GMM006
  44
 0.79999984000003
   0
MTEXT
   5
2D2
 100
AcDbEntity
   8
LEVEL001
 370
13
  62
1
 100
AcDbMText
  10
 6868.3059929291
  20
 2603.0398998307
  30
0.0
  40
 80.000000000000
  41
0.0
  71
7
  72
1
   1
\T1.000000;ＰＣ
   7
GMM006
  44
 0.79999984000003
   0
MTEXT
   5
2D4
 100
AcDbEntity
   8
LEVEL001
 370
13
  62
1
 100
AcDbMText
  10
 5818.3059929291
  20
 1693.0398998307
  30
0.0
  40
 80.000000000000
  41
0.0
  71
7
  72
1
   1
\T1.000000;支柱
   7
GMM006
  44
 0.79999984000003
   0
MTEXT
   5
2D6
 100
AcDbEntity
   8
LEVEL001
 370
13
  62
1
 100
AcDbMText
  10
 6789.2849666832
  20
 1693.0398998307
  30
0.0
  40
 80.000000000000
  41
0.0
  71
9
  72
1
   1
\T1.000000;１
   7
GMM006
  44
 0.79999984000003
   0
MTEXT
   5
2D8
 100
AcDbEntity
   8
LEVEL001
 370
13
  62
1
 100
AcDbMText
  10
 6868.3059929291
  20
 1693.0398998307
  30
0.0
  40
 80.000000000000
  41
0.0
  71
7
  72
1
   1
\T1.000000;ＳＴＫ４００
   7
GMM006
  44
 0.79999984000003
   0
MTEXT
   5
2DA
 100
AcDbEntity
   8
LEVEL001
 370
13
  62
1
 100
AcDbMText
  10
 6868.3059929291
  20
 1823.0398998307
  30
0.0
  40
 80.000000000000
  41
0.0
  71
7
  72
1
   1
\T1.000000;ＳＳ４００
   7
GMM006
  44
 0.79999984000003
   0
MTEXT
   5
2DC
 100
AcDbEntity
   8
LEVEL001
 370
13
  62
1
 100
AcDbMText
  10
 5818.3059929291
  20
 1823.0398998307
  30
0.0
  40
 80.000000000000
  41
0.0
  71
7
  72
1
   1
\T1.000000;金具締付ボルトナット
   7
GMM006
  44
 0.79999984000003
   0
MTEXT
   5
2DE
 100
AcDbEntity
   8
LEVEL001
 370
13
  62
1
 100
AcDbMText
  10
 6868.3059929291
  20
 1953.0398998307
  30
0.0
  40
 80.000000000000
  41
0.0
  71
7
  72
1
   1
\T1.000000;ＳＳ４００
   7
GMM006
  44
 0.79999984000003
   0
MTEXT
   5
2E0
 100
AcDbEntity
   8
LEVEL001
 370
13
  62
1
 100
AcDbMText
  10
 5818.3059929291
  20
 1953.0398998307
  30
0.0
  40
 80.000000000000
  41
0.0
  71
7
  72
1
   1
\T1.000000;裏板金具取付ボルト
   7
GMM006
  44
 0.79999984000003
   0
MTEXT
   5
2E2
 100
AcDbEntity
   8
LEVEL001
 370
13
  62
1
 100
AcDbMText
  10
 6789.2849666832
  20
 1953.0398998307
  30
0.0
  40
 80.000000000000
  41
0.0
  71
9
  72
1
   1
\T1.000000;４
   7
GMM006
  44
 0.79999984000003
   0
MTEXT
   5
2E4
 100
AcDbEntity
   8
LEVEL001
 370
13
  62
1
 100
AcDbMText
  10
 6868.3059929291
  20
 2083.0398998307
  30
0.0
  40
 80.000000000000
  41
0.0
  71
7
  72
1
   1
\T1.000000;ＳＳ４００
   7
GMM006
  44
 0.79999984000003
   0
MTEXT
   5
2E6
 100
AcDbEntity
   8
LEVEL001
 370
13
  62
1
 100
AcDbMText
  10
 5818.3059929291
  20
 2083.0398998307
  30
0.0
  40
 80.000000000000
  41
0.0
  71
7
  72
1
   1
\T1.000000;支柱取付金具
   7
GMM006
  44
 0.79999984000003
   0
MTEXT
   5
2E8
 100
AcDbEntity
   8
LEVEL001
 370
13
  62
1
 100
AcDbMText
  10
 5818.3059929291
  20
 2213.0398998307
  30
0.0
  40
 80.000000000000
  41
0.0
  71
7
  72
1
   1
\T1.000000;裏板取付金具
   7
GMM006
  44
 0.79999984000003
   0
MTEXT
   5
2EA
 100
AcDbEntity
   8
LEVEL001
 370
13
  62
1
 100
AcDbMText
  10
 6868.3059929291
  20
 2213.0398998307
  30
0.0
  40
 80.000000000000
  41
0.0
  71
7
  72
1
   1
\T1.000000;ＳＳ４００
   7
GMM006
  44
 0.79999984000003
   0
MTEXT
   5
2EC
 100
AcDbEntity
   8
LEVEL001
 370
13
  62
1
 100
AcDbMText
  10
 6789.2849666832
  20
 1823.0398998307
  30
0.0
  40
 80.000000000000
  41
0.0
  71
9
  72
1
   1
\T1.000000;４
   7
GMM006
  44
 0.79999984000003
   0
MTEXT
   5
2EE
 100
AcDbEntity
   8
LEVEL001
 370
13
  62
1
 100
AcDbMText
  10
 6789.2849666832
  20
 2473.0398998307
  30
0.0
  40
 80.000000000000
  41
0.0
  71
9
  72
1
   1
\T1.000000;１
   7
GMM006
  44
 0.79999984000003
   0
MTEXT
   5
2F0
 100
AcDbEntity
   8
LEVEL001
 370
13
  62
1
 100
AcDbMText
  10
 5818.3059929291
  20
 2473.0398998307
  30
0.0
  40
 80.000000000000
  41
0.0
  71
7
  72
1
   1
\T1.000000;取付枠
   7
GMM006
  44
 0.79999984000003
   0
MTEXT
   5
2F2
 100
AcDbEntity
   8
LEVEL001
 370
13
  62
1
 100
AcDbMText
  10
 6868.3059929291
  20
 2473.0398998307
  30
0.0
  40
 80.000000000000
  41
0.0
  71
7
  72
1
   1
\T1.000000;アルミニウム
   7
GMM006
  44
 0.79999984000003
   0
MTEXT
   5
2F4
 100
AcDbEntity
   8
LEVEL001
 370
13
  62
1
 100
AcDbMText
  10
 5818.3059929291
  20
 2343.0398998307
  30
0.0
  40
 80.000000000000
  41
0.0
  71
7
  72
1
   1
\T1.000000;取付枠取付リベット
   7
GMM006
  44
 0.79999984000003
   0
MTEXT
   5
2F6
 100
AcDbEntity
   8
LEVEL001
 370
13
  62
1
 100
AcDbMText
  10
 6868.3059929291
  20
 2343.0398998307
  30
0.0
  40
 80.000000000000
  41
0.0
  71
7
  72
1
   1
\T1.000000;アルミニウム
   7
GMM006
  44
 0.79999984000003
   0
MTEXT
   5
2F8
 100
AcDbEntity
   8
LEVEL001
 370
13
  62
1
 100
AcDbMText
  10
 6789.2849666832
  20
 2343.0398998307
  30
0.0
  40
 80.000000000000
  41
0.0
  71
9
  72
1
   1
\T1.000000;１１
   7
GMM006
  44
 0.79999984000003
   0
MTEXT
   5
2FA
 100
AcDbEntity
   8
LEVEL001
 370
13
  62
1
 100
AcDbMText
  10
 6789.2849666832
  20
 2213.0398998307
  30
0.0
  40
 80.000000000000
  41
0.0
  71
9
  72
1
   1
\T1.000000;１
   7
GMM006
  44
 0.79999984000003
   0
MTEXT
   5
2FC
 100
AcDbEntity
   8
LEVEL001
 370
13
  62
1
 100
AcDbMText
  10
 6789.2849666832
  20
 2083.0398998307
  30
0.0
  40
 80.000000000000
  41
0.0
  71
9
  72
1
   1
\T1.000000;１
   7
GMM006
  44
 0.79999984000003
   0
MTEXT
   5
2FE
 100
AcDbEntity
   8
LEVEL001
 370
13
  62
1
 100
AcDbMText
  10
 7388.3059929291
  20
 1693.0398998307
  30
0.0
  40
 80.000000000000
  41
0.0
  71
7
  72
1
   1
\T1.000000;静電粉体塗装
   7
GMM006
  44
 0.79999984000003
   0
MTEXT
   5
300
 100
AcDbEntity
   8
LEVEL001
 370
13
  62
1
 100
AcDbMText
  10
 7388.3059929291
  20
 1823.0398998307
  30
0.0
  40
 80.000000000000
  41
0.0
  71
7
  72
1
   1
\T1.000000;溶融亜鉛メッキ
   7
GMM006
  44
 0.79999984000003
   0
MTEXT
   5
302
 100
AcDbEntity
   8
LEVEL001
 370
13
  62
1
 100
AcDbMText
  10
 7388.3059929291
  20
 1953.0398998307
  30
0.0
  40
 80.000000000000
  41
0.0
  71
7
  72
1
   1
\T1.000000;溶融亜鉛メッキ
   7
GMM006
  44
 0.79999984000003
   0
MTEXT
   5
304
 100
AcDbEntity
   8
LEVEL001
 370
13
  62
1
 100
AcDbMText
  10
 7388.3059929291
  20
 2083.0398998307
  30
0.0
  40
 80.000000000000
  41
0.0
  71
7
  72
1
   1
\T1.000000;溶融亜鉛メッキ
   7
GMM006
  44
 0.79999984000003
   0
MTEXT
   5
306
 100
AcDbEntity
   8
LEVEL001
 370
13
  62
1
 100
AcDbMText
  10
 7388.3059929291
  20
 2213.0398998307
  30
0.0
  40
 80.000000000000
  41
0.0
  71
7
  72
1
   1
\T1.000000;溶融亜鉛メッキ
   7
GMM006
  44
 0.79999984000003
   0
MTEXT
   5
308
 100
AcDbEntity
   8
LEVEL001
 370
13
  62
1
 100
AcDbMText
  10
 7388.3059929291
  20
 2733.0398998307
  30
0.0
  40
 80.000000000000
  41
0.0
  71
7
  72
1
   1
\T1.000000;ＳＭＣ成型
   7
GMM006
  44
 0.79999984000003
   0
LINE
   5
309
 100
AcDbEntity
   8
LEVEL001
 370
13
 100
AcDbLine
   6
CONTINUOUS
  62
6
  10
 5568.3059929291
  20
 3369.4662921348
  30
0.0
  11
 8084.0637721372
  21
 3369.4662921348
  31
0.0
   0
LINE
   5
30A
 100
AcDbEntity
   8
LEVEL001
 370
13
 100
AcDbLine
   6
CONTINUOUS
  62
6
  10
 5568.3059929291
  20
 3669.4662921348
  30
0.0
  11
 8084.0637721372
  21
 3669.4662921348
  31
0.0
   0
MTEXT
   5
30C
 100
AcDbEntity
   8
LEVEL001
 370
13
  62
1
 100
AcDbMText
  10
 5739.2849666832
  20
 3123.0398998307
  30
0.0
  40
 80.000000000000
  41
0.0
  71
9
  72
1
   1
\T1.000000;１
   7
GMM005
  44
 0.79999984000003
   0
MTEXT
   5
30E
 100
AcDbEntity
   8
LEVEL001
 370
13
  62
1
 100
AcDbMText
  10
 6789.2849666832
  20
 3123.0398998307
  30
0.0
  40
 80.000000000000
  41
0.0
  71
9
  72
1
   1
\T1.000000;１
   7
GMM006
  44
 0.79999984000003
   0
MTEXT
   5
310
 100
AcDbEntity
   8
LEVEL001
 370
13
  62
1
 100
AcDbMText
  10
 6718.3059929291
  20
 3299.4662921348
  30
0.0
  40
 80.000000000000
  41
0.0
  71
5
  72
1
   1
\T1.000000;個数
   7
GMM006
  44
 0.79999984000003
   0
MTEXT
   5
312
 100
AcDbEntity
   8
LEVEL001
 370
13
  62
1
 100
AcDbMText
  10
 7068.3059929291
  20
 3299.4662921348
  30
0.0
  40
 80.000000000000
  41
0.0
  71
5
  72
1
   1
\T1.000000;材　　質
   7
GMM006
  44
 0.79999984000003
   0
MTEXT
   5
314
 100
AcDbEntity
   8
LEVEL001
 370
13
  62
1
 100
AcDbMText
  10
 6193.3059929291
  20
 3299.4662921348
  30
0.0
  40
 80.000000000000
  41
0.0
  71
5
  72
1
   1
\T1.000000;名　　称
   7
GMM006
  44
 0.79999984000003
   0
MTEXT
   5
316
 100
AcDbEntity
   8
LEVEL001
 370
13
  62
1
 100
AcDbMText
  10
 5818.3059929291
  20
 3123.0398998307
  30
0.0
  40
 80.000000000000
  41
0.0
  71
7
  72
1
   1
\T1.000000;鏡面　Ｒ＝３０００
   7
GMM006
  44
 0.79999984000003
   0
MTEXT
   5
318
 100
AcDbEntity
   8
LEVEL001
 370
13
  62
1
 100
AcDbMText
  10
 5733.7338504048
  20
 3411.6208318942
  30
0.0
  40
 80.000000000000
  41
0.0
  71
7
  72
1
   1
%%c\T1.000000;８００（シングル）
   7
GMM001
  44
 0.79999984000003
   0
LINE
   5
319
 100
AcDbEntity
   8
LEVEL001
 370
13
 100
AcDbLine
   6
CONTINUOUS
  62
6
  10
 5568.3059929291
  20
 3229.4662921348
  30
0.0
  11
 8084.0637721372
  21
 3229.4662921348
  31
0.0
   0
MTEXT
   5
31B
 100
AcDbEntity
   8
LEVEL001
 370
13
  62
1
 100
AcDbMText
  10
 7721.1848825332
  20
 3299.4662921348
  30
0.0
  40
 80.000000000000
  41
0.0
  71
5
  72
1
   1
\T1.000000;規格仕様
   7
GMM006
  44
 0.79999984000003
   0
MTEXT
   5
31D
 100
AcDbEntity
   8
LEVEL001
 370
13
  62
1
 100
AcDbMText
  10
 5733.7338504048
  20
 3548.9731227226
  30
0.0
  40
 80.000000000000
  41
0.0
  71
7
  72
1
   1
\T1.000000;アクリーン＜Ｆタイプ＞
   7
GMM001
  44
 0.79999984000003
   0
MTEXT
   5
31F
 100
AcDbEntity
   8
LEVEL001
 370
13
  62
1
 100
AcDbMText
  10
 6868.3059929291
  20
 3123.0398998307
  30
0.0
  40
 80.000000000000
  41
0.0
  71
4
  72
1
   1
{\W0.900000;\T1.000000;ＰＭＭＡ}\P{\W0.450000;\T1.000000;(\W0.900000;\T1.000000;アクリル\W0.450000;\T1.000000;)}
   7
GMM006
  44
 0.79999984000003
   0
MTEXT
   5
321
 100
AcDbEntity
   8
LEVEL001
 370
13
  62
1
 100
AcDbMText
  10
 7388.3059929291
  20
 3203.0398998307
  30
0.0
  40
 80.000000000000
  41
0.0
  71
1
  72
1
   1
{\W0.325000;\T1.000000;t=3.0mm}\P{\W0.650000;\T1.000000;裏面：真空蒸着}\P{\W0.650000;\T1.000000;表面：超親水性コーティング}
   7
GMM008
  44
 0.79999984000003
   0
MTEXT
   5
323
 100
AcDbEntity
   8
LEVEL001
 370
13
  62
1
 100
AcDbMText
  10
 1702.0562300116
  20
 2700.9529605900
  30
0.0
  40
 66.000000000000
  41
0.0
  71
1
  72
1
   1
{\W0.787879;\T1.000000;支柱}\P%%c{\W0.787879;\T1.000000;７６\W0.393939;\T1.000000;.\W0.787879;\T1.000000;３ｘ３\W0.393939;\T1.000000;.\W0.787879;\T1.000000;２ｔ}\P{\W0.787879;\T1.000000;ｘ４０００Ｌ}
   7
GMM002
  44
 0.79999984000003
   0
MTEXT
   5
325
 100
AcDbEntity
   8
LEVEL001
 370
13
  62
1
 100
AcDbMText
  10
 6789.2849666832
  20
 1043.0398998307
  30
0.0
  40
 80.000000000000
  41
0.0
  71
9
  72
1
   1
\T1.000000;１式
   7
GMM006
  44
 0.79999984000003
   0
MTEXT
   5
327
 100
AcDbEntity
   8
LEVEL001
 370
13
  62
1
 100
AcDbMText
  10
 6789.2849666832
  20
 913.03989983072
  30
0.0
  40
 80.000000000000
  41
0.0
  71
9
  72
1
   1
\T1.000000;１式
   7
GMM006
  44
 0.79999984000003
   0
MTEXT
   5
329
 100
AcDbEntity
   8
LEVEL001
 370
13
  62
1
 100
AcDbMText
  10
 6868.3059929291
  20
 1043.0398998307
  30
0.0
  40
 80.000000000000
  41
0.0
  71
7
  72
1
   1
\T1.000000;―
   7
GMM006
  44
 0.79999984000003
   0
MTEXT
   5
32B
 100
AcDbEntity
   8
LEVEL001
 370
13
  62
1
 100
AcDbMText
  10
 6868.3059929291
  20
 913.03989983072
  30
0.0
  40
 80.000000000000
  41
0.0
  71
7
  72
1
   1
\T1.000000;―
   7
GMM006
  44
 0.79999984000003
   0
MTEXT
   5
32D
 100
AcDbEntity
   8
LEVEL001
 370
13
  62
1
 100
AcDbMText
  10
 6868.3059929291
  20
 1173.0398998307
  30
0.0
  40
 80.000000000000
  41
0.0
  71
7
  72
1
   1
\T1.000000;―
   7
GMM006
  44
 0.79999984000003
   0
MTEXT
   5
32F
 100
AcDbEntity
   8
LEVEL001
 370
13
  62
1
 100
AcDbMText
  10
 7388.3059929291
  20
 1043.0398998307
  30
0.0
  40
 80.000000000000
  41
0.0
  71
7
  72
1
   1
\T1.000000;―
   7
GMM006
  44
 0.79999984000003
   0
MTEXT
   5
331
 100
AcDbEntity
   8
LEVEL001
 370
13
  62
1
 100
AcDbMText
  10
 7388.3059929291
  20
 913.03989983072
  30
0.0
  40
 80.000000000000
  41
0.0
  71
7
  72
1
   1
\T1.000000;―
   7
GMM006
  44
 0.79999984000003
   0
MTEXT
   5
333
 100
AcDbEntity
   8
LEVEL001
 370
13
  62
1
 100
AcDbMText
  10
 7388.3059929291
  20
 1173.0398998307
  30
0.0
  40
 80.000000000000
  41
0.0
  71
7
  72
1
   1
\T1.000000;―
   7
GMM006
  44
 0.79999984000003
   0
LINE
   5
334
 100
AcDbEntity
   8
LEVEL001
 370
13
 100
AcDbLine
   6
CONTINUOUS
  62
6
  10
 7338.3059929291
  20
 3369.4662921348
  30
0.0
  11
 7338.3059929291
  21
 889.46629213483
  31
0.0
   0
LINE
   5
335
 100
AcDbEntity
   8
LEVEL001
 370
13
 100
AcDbLine
   6
CONTINUOUS
  62
6
  10
 6818.3059929291
  20
 3369.4662921348
  30
0.0
  11
 6818.3059929291
  21
 889.46629213483
  31
0.0
   0
LINE
   5
336
 100
AcDbEntity
   8
LEVEL001
 370
13
 100
AcDbLine
   6
CONTINUOUS
  62
6
  10
 5568.3059929291
  20
 3669.4662921348
  30
0.0
  11
 5568.3059929291
  21
 889.46629213483
  31
0.0
   0
LINE
   5
337
 100
AcDbEntity
   8
LEVEL001
 370
13
 100
AcDbLine
   6
CONTINUOUS
  62
6
  10
 5768.3059929291
  20
 3369.4662921348
  30
0.0
  11
 5768.3059929291
  21
 889.46629213483
  31
0.0
   0
LINE
   5
338
 100
AcDbEntity
   8
LEVEL001
 370
13
 100
AcDbLine
   6
CONTINUOUS
  62
6
  10
 6618.3059929291
  20
 3369.4662921348
  30
0.0
  11
 6618.3059929291
  21
 889.46629213483
  31
0.0
   0
LINE
   5
339
 100
AcDbEntity
   8
LEVEL001
 370
13
 100
AcDbLine
   6
CONTINUOUS
  62
6
  10
 8084.0637721372
  20
 889.46629213483
  30
0.0
  11
 8084.0637721372
  21
 3669.4662921348
  31
0.0
   0
MTEXT
   5
33B
 100
AcDbEntity
   8
LEVEL001
 370
13
  62
1
 100
AcDbMText
  10
 6789.2849666832
  20
 1563.0398998307
  30
0.0
  40
 80.000000000000
  41
0.0
  71
9
  72
1
   1
\T1.000000;１
   7
GMM006
  44
 0.79999984000003
   0
MTEXT
   5
33D
 100
AcDbEntity
   8
LEVEL001
 370
13
  62
1
 100
AcDbMText
  10
 6868.3059929291
  20
 1563.0398998307
  30
0.0
  40
 80.000000000000
  41
0.0
  71
7
  72
1
   1
\T1.000000;ＳＴＫ４００
   7
GMM006
  44
 0.79999984000003
   0
MTEXT
   5
33F
 100
AcDbEntity
   8
LEVEL001
 370
13
  62
1
 100
AcDbMText
  10
 7388.3059929291
  20
 1604.4662921348
  30
0.0
  40
 44.000000000000
  41
0.0
  71
4
  72
1
   1
{\T1.000000;下地亜鉛メッキ}\P{\T1.000000;＋静電粉体塗装}
   7
GMM009
  44
 0.79999984000003
   0
LINE
   5
340
 100
AcDbEntity
   8
LEVEL001
 370
13
 100
AcDbLine
   6
CONTINUOUS
  62
6
  10
 6618.3059929291
  20
 1669.4662921348
  30
0.0
  11
 8084.0637721372
  21
 1669.4662921348
  31
0.0
   0
MTEXT
   5
342
 100
AcDbEntity
   8
LEVEL001
 370
13
  62
1
 100
AcDbMText
  10
 5624.7122255854
  20
 3913.7776474462
  30
0.0
  40
 80.000000000000
  41
0.0
  71
4
  72
1
   1
{\T1.000000;※構成部材は改良のため、変更する場合があります。}\P{\T1.000000;※本図は道路反射鏡ハンドブックに基づいています。}
   7
GMM006
  44
 0.94999981000004
   0
LINE
   5
343
 100
AcDbEntity
   8
LEVEL001
 370
13
 100
AcDbLine
   6
CONTINUOUS
  62
6
  10
 5568.3059929291
  20
 889.46629213483
  30
0.0
  11
 8084.0637721372
  21
 889.46629213483
  31
0.0
   0
MTEXT
   5
345
 100
AcDbEntity
   8
LEVEL001
 370
13
  62
1
 100
AcDbMText
  10
 5818.3059929291
  20
 1173.0398998307
  30
0.0
  40
 80.000000000000
  41
0.0
  71
7
  72
1
   1
\T1.000000;注意板
   7
GMM006
  44
 0.79999984000003
   0
ENDSEC
  0
SECTION
  2
OBJECTS
  0
DICTIONARY
  5
C
100
AcDbDictionary
  3
ACAD_GROUP
350
D
  3
ACAD_MLINESTYLE
350
1B
  3
DWGPROPS
350
1C
  0
DICTIONARY
  5
D
102
{ACAD_REACTORS
330
C
102
}
100
AcDbDictionary
  0
DICTIONARY
  5
1B
102
{ACAD_REACTORS
330
C
102
}
100
AcDbDictionary
  3
STANDARD
350
1D
  0
MLINESTYLE
  5
1D
102
{ACAD_REACTORS
330
1B
102
}
100
AcDbMlineStyle
  2
STANDARD
 70
     0
  3

 62
   256
 51
90.0
 52
90.0
 71
     2
 49
0.5
 62
   256
  6
BYLAYER
 49
-0.5
 62
   256
  6
BYLAYER
   0
XRECORD
   5
1C
 102
{ACAD_REACTORS
 330
C
 102
}
 330
C
 100
AcDbXrecord
 280
1
   1
DWGPROPS COOKIE
   2
 
   3
 
   4
 
   6
 
   7
MF080SUP
   8
 
   9

 300
 = 
 301
 = 
 302
 = 
 303
 = 
 304
 = 
 305
 = 
 306
 = 
 307
 = 
 308
 = 
 309
 = 
  40
0.0
  41
 2460327.5000000
  42
 2460327.5000000
   1

  90
10
   0
ENDSEC
   0
EOF
