   0
SECTION
   2
HEADER
   9
$ACADVER
   1
AC1015
   9
$DWGCODEPAGE
   3
ANSI_932
   9
$LIMMIN
  10
0.0
  20
0.0
   9
$LIMMAX
  10
 8400.0000000000
  20
 5940.0000000000
   9
$EXTMIN
  10
0.0
  20
0.0
  30
0.0
   9
$EXTMAX
  10
 8400.0000000000
  20
 5940.0000000000
  30
0.0
   9
$LTSCALE
  40
 168.00000000000
   9
$HANDSEED
   5
32F
   0
ENDSEC
   0
SECTION
   2
TABLES
  0
TABLE
  2
VPORT
  5
8
100
AcDbSymbolTable
 70
     1
  0
VPORT
  5
32E
100
AcDbSymbolTableRecord
100
AcDbViewportTableRecord
  2
*ACTIVE
 70
     0
 10
0.0
 20
0.0
 11
1.0
 21
1.0
  12
 4200.0000000000
  22
 2970.0000000000
 13
0.0
 23
0.0
 14
1.0
 24
1.0
 15
0.0
 25
0.0
 16
0.0
 26
0.0
 36
1.0
 17
0.0
 27
0.0
 37
0.0
  40
 8400.0000000000
  41
 1.4787878787879
 42
50.0
 43
0.0
 44
0.0
 50
0.0
 51
0.0
 71
     0
 72
   100
 73
     1
 74
     1
 75
     0
 76
     0
 77
     0
 78
     0
  0
ENDTAB
  0
TABLE
  2
LTYPE
  5
5
100
AcDbSymbolTable
 70
    25
  0
LTYPE
  5
12
100
AcDbSymbolTableRecord
100
AcDbLinetypeTableRecord
  2
BYBLOCK
 70
     0
  3

 72
    65
 73
     0
 40
0.0
  0
LTYPE
  5
13
100
AcDbSymbolTableRecord
100
AcDbLinetypeTableRecord
  2
BYLAYER
 70
     0
  3

 72
    65
 73
     0
 40
0.0
  0
LTYPE
  5
14
100
AcDbSymbolTableRecord
100
AcDbLinetypeTableRecord
  2
CONTINUOUS
 70
     0
  3
Solid line
 72
    65
 73
     0
 40
0.0
  0
LTYPE
  5
20
100
AcDbSymbolTableRecord
100
AcDbLinetypeTableRecord
  2
BORDER
 70
     0
  3
__ __ . __ __ . __ __ . __ __ . __ __ . __ __ .
 72
    65
 73
     6
 40
1.75
 49
0.5
 74
     0
 49
-0.25
 74
     0
 49
0.5
 74
     0
 49
-0.25
 74
     0
 49
0.0
 74
     0
 49
-0.25
 74
     0
  0
LTYPE
  5
21
100
AcDbSymbolTableRecord
100
AcDbLinetypeTableRecord
  2
BORDER2
 70
     0
  3
__.__.__.__.__.__.__.__.__.__.__.__.__.__.__.__
 72
    65
 73
     6
 40
0.875
 49
0.25
 74
     0
 49
-0.125
 74
     0
 49
0.25
 74
     0
 49
-0.125
 74
     0
 49
0.0
 74
     0
 49
-0.125
 74
     0
  0
LTYPE
  5
22
100
AcDbSymbolTableRecord
100
AcDbLinetypeTableRecord
  2
BORDERX2
 70
     0
  3
____  ____  .  ____  ____  .  ____  ____  .  __
 72
    65
 73
     6
 40
3.5
 49
1.0
 74
     0
 49
-0.5
 74
     0
 49
1.0
 74
     0
 49
-0.5
 74
     0
 49
0.0
 74
     0
 49
-0.5
 74
     0
  0
LTYPE
  5
23
100
AcDbSymbolTableRecord
100
AcDbLinetypeTableRecord
  2
CENTER
 70
     0
  3
____ _ ____ _ ____ _ ____ _ ____ _ ____ _ ____ 
 72
    65
 73
     4
 40
2.0
 49
1.25
 74
     0
 49
-0.25
 74
     0
 49
0.25
 74
     0
 49
-0.25
 74
     0
  0
LTYPE
  5
24
100
AcDbSymbolTableRecord
100
AcDbLinetypeTableRecord
  2
CENTER2
 70
     0
  3
___ _ ___ _ ___ _ ___ _ ___ _ ___ _ ___ _ ___ _
 72
    65
 73
     4
 40
1.125
 49
0.75
 74
     0
 49
-0.125
 74
     0
 49
0.125
 74
     0
 49
-0.125
 74
     0
  0
LTYPE
  5
25
100
AcDbSymbolTableRecord
100
AcDbLinetypeTableRecord
  2
CENTERX2
 70
     0
  3
________  __  ________  __  ________  __  _____
 72
    65
 73
     4
 40
4.0
 49
2.5
 74
     0
 49
-0.5
 74
     0
 49
0.5
 74
     0
 49
-0.5
 74
     0
  0
LTYPE
  5
26
100
AcDbSymbolTableRecord
100
AcDbLinetypeTableRecord
  2
DASHDOT
 70
     0
  3
__ . __ . __ . __ . __ . __ . __ . __ . __ . __
 72
    65
 73
     4
 40
1.0
 49
0.5
 74
     0
 49
-0.25
 74
     0
 49
0.0
 74
     0
 49
-0.25
 74
     0
  0
LTYPE
  5
27
100
AcDbSymbolTableRecord
100
AcDbLinetypeTableRecord
  2
DASHDOT2
 70
     0
  3
_._._._._._._._._._._._._._._._._._._._._._._._
 72
    65
 73
     4
 40
0.5
 49
0.25
 74
     0
 49
-0.125
 74
     0
 49
0.0
 74
     0
 49
-0.125
 74
     0
  0
LTYPE
  5
28
100
AcDbSymbolTableRecord
100
AcDbLinetypeTableRecord
  2
DASHDOTX2
 70
     0
  3
____  .  ____  .  ____  .  ____  .  ____  .  __
 72
    65
 73
     4
 40
2.0
 49
1.0
 74
     0
 49
-0.5
 74
     0
 49
0.0
 74
     0
 49
-0.5
 74
     0
  0
LTYPE
  5
29
100
AcDbSymbolTableRecord
100
AcDbLinetypeTableRecord
  2
DASHED
 70
     0
  3
__ __ __ __ __ __ __ __ __ __ __ __ __ __ __ __
 72
    65
 73
     2
 40
0.75
 49
0.5
 74
     0
 49
-0.25
 74
     0
  0
LTYPE
  5
2A
100
AcDbSymbolTableRecord
100
AcDbLinetypeTableRecord
  2
DASHED2
 70
     0
  3
_ _ _ _ _ _ _ _ _ _ _ _ _ _ _ _ _ _ _ _ _ _ _ _
 72
    65
 73
     2
 40
0.375
 49
0.25
 74
     0
 49
-0.125
 74
     0
  0
LTYPE
  5
2B
100
AcDbSymbolTableRecord
100
AcDbLinetypeTableRecord
  2
DASHEDX2
 70
     0
  3
____  ____  ____  ____  ____  ____  ____  ____ 
 72
    65
 73
     2
 40
1.5
 49
1.0
 74
     0
 49
-0.5
 74
     0
  0
LTYPE
  5
2C
100
AcDbSymbolTableRecord
100
AcDbLinetypeTableRecord
  2
DIVIDE
 70
     0
  3
____ . . ____ . . ____ . . ____ . . ____ . . __
 72
    65
 73
     6
 40
1.25
 49
0.5
 74
     0
 49
-0.25
 74
     0
 49
0.0
 74
     0
 49
-0.25
 74
     0
 49
0.0
 74
     0
 49
-0.25
 74
     0
  0
LTYPE
  5
2D
100
AcDbSymbolTableRecord
100
AcDbLinetypeTableRecord
  2
DIVIDE2
 70
     0
  3
__..__..__..__..__..__..__..__..__..__..__..__.
 72
    65
 73
     6
 40
0.625
 49
0.25
 74
     0
 49
-0.125
 74
     0
 49
0.0
 74
     0
 49
-0.125
 74
     0
 49
0.0
 74
     0
 49
-0.125
 74
     0
  0
LTYPE
  5
2E
100
AcDbSymbolTableRecord
100
AcDbLinetypeTableRecord
  2
DIVIDEX2
 70
     0
  3
________  .  .  ________  .  .  ________  .  . 
 72
    65
 73
     6
 40
2.5
 49
1.0
 74
     0
 49
-0.5
 74
     0
 49
0.0
 74
     0
 49
-0.5
 74
     0
 49
0.0
 74
     0
 49
-0.5
 74
     0
  0
LTYPE
  5
2F
100
AcDbSymbolTableRecord
100
AcDbLinetypeTableRecord
  2
DOT
 70
     0
  3
. . . . . . . . . . . . . . . . . . . . . . . .
 72
    65
 73
     2
 40
0.25
 49
0.0
 74
     0
 49
-0.25
 74
     0
  0
LTYPE
  5
30
100
AcDbSymbolTableRecord
100
AcDbLinetypeTableRecord
  2
DOT2
 70
     0
  3
...............................................
 72
    65
 73
     2
 40
0.125
 49
0.0
 74
     0
 49
-0.125
 74
     0
  0
LTYPE
  5
31
100
AcDbSymbolTableRecord
100
AcDbLinetypeTableRecord
  2
DOTX2
 70
     0
  3
.  .  .  .  .  .  .  .  .  .  .  .  .  .  .  . 
 72
    65
 73
     2
 40
0.5
 49
0.0
 74
     0
 49
-0.5
 74
     0
  0
LTYPE
  5
32
100
AcDbSymbolTableRecord
100
AcDbLinetypeTableRecord
  2
HIDDEN
 70
     0
  3
__ __ __ __ __ __ __ __ __ __ __ __ __ __ __ __
 72
    65
 73
     2
 40
0.375
 49
0.25
 74
     0
 49
-0.125
 74
     0
  0
LTYPE
  5
33
100
AcDbSymbolTableRecord
100
AcDbLinetypeTableRecord
  2
HIDDEN2
 70
     0
  3
_ _ _ _ _ _ _ _ _ _ _ _ _ _ _ _ _ _ _ _ _ _ _ _
 72
    65
 73
     2
 40
0.1875
 49
0.125
 74
     0
 49
-0.0625
 74
     0
  0
LTYPE
  5
34
100
AcDbSymbolTableRecord
100
AcDbLinetypeTableRecord
  2
HIDDENX2
 70
     0
  3
____ ____ ____ ____ ____ ____ ____ ____ ____ __
 72
    65
 73
     2
 40
0.75
 49
0.5
 74
     0
 49
-0.25
 74
     0
  0
LTYPE
  5
35
100
AcDbSymbolTableRecord
100
AcDbLinetypeTableRecord
  2
PHANTOM
 70
     0
  3
______  __  __  ______  __  __  ______  __  __ 
 72
    65
 73
     6
 40
2.5
 49
1.25
 74
     0
 49
-0.25
 74
     0
 49
0.25
 74
     0
 49
-0.25
 74
     0
 49
0.25
 74
     0
 49
-0.25
 74
     0
  0
LTYPE
  5
36
100
AcDbSymbolTableRecord
100
AcDbLinetypeTableRecord
  2
PHANTOM2
 70
     0
  3
___ _ _ ___ _ _ ___ _ _ ___ _ _ ___ _ _ ___ _ _
 72
    65
 73
     6
 40
1.25
 49
0.625
 74
     0
 49
-0.125
 74
     0
 49
0.125
 74
     0
 49
-0.125
 74
     0
 49
0.125
 74
     0
 49
-0.125
 74
     0
  0
LTYPE
  5
37
100
AcDbSymbolTableRecord
100
AcDbLinetypeTableRecord
  2
PHANTOMX2
 70
     0
  3
____________    ____    ____    ____________   
 72
    65
 73
     6
 40
5.0
 49
2.5
 74
     0
 49
-0.5
 74
     0
 49
0.5
 74
     0
 49
-0.5
 74
     0
 49
0.5
 74
     0
 49
-0.5
 74
     0
  0
ENDTAB
   0
TABLE
   2
LAYER
   5
2
 100
AcDbSymbolTable
  70
2
   0
LAYER
   5
E
 100
AcDbSymbolTableRecord
 100
AcDbLayerTableRecord
   2
0
  70
0
  62
7
   6
CONTINUOUS
 390
30
   0
LAYER
   5
39
 100
AcDbSymbolTableRecord
 100
AcDbLayerTableRecord
   2
LEVEL001
  70
0
  62
7
   6
CONTINUOUS
 390
30
   0
ENDTAB
  0
TABLE
  2
STYLE
  5
3
100
AcDbSymbolTable
  70
11
  0
STYLE
  5
F
100
AcDbSymbolTableRecord
100
AcDbTextStyleTableRecord
  2
STANDARD
 70
     0
 40
0.0
 41
1.0
 50
0.0
 71
     0
 42
0.2
  3
TXT
  4
BIGFONT
  0
STYLE
  5
38
100
AcDbSymbolTableRecord
100
AcDbTextStyleTableRecord
  2
STANDARD1
 70
     4
 40
0.0
 41
1.0
 50
0.0
 71
     0
 42
0.2
  3
TXT
  4
BIGFONT
   0
STYLE
   5
3A
 100
AcDbSymbolTableRecord
 100
AcDbTextStyleTableRecord
   2
GMM001
  70
0
  40
0.0
  41
 1.0000000000000
  50
0.0
  71
     0
  42
1.0
   3
txt.shx
   4
bigfont.shx
   0
STYLE
   5
3B
 100
AcDbSymbolTableRecord
 100
AcDbTextStyleTableRecord
   2
GMM002
  70
0
  40
0.0
  41
 0.78787878787879
  50
0.0
  71
     0
  42
1.0
   3
txt.shx
   4
bigfont.shx
   0
STYLE
   5
3C
 100
AcDbSymbolTableRecord
 100
AcDbTextStyleTableRecord
   2
GMM003
  70
0
  40
0.0
  41
 0.75000000000000
  50
0.0
  71
     0
  42
1.0
   3
txt.shx
   4
bigfont.shx
   0
STYLE
   5
3D
 100
AcDbSymbolTableRecord
 100
AcDbTextStyleTableRecord
   2
GMM004
  70
0
  40
0.0
  41
 0.90000000000000
  50
0.0
  71
     0
  42
1.0
   3

   4

1001
ACAD
1000
ＭＳ 明朝
1071
33587217
   0
STYLE
   5
3E
 100
AcDbSymbolTableRecord
 100
AcDbTextStyleTableRecord
   2
GMM005
  70
0
  40
0.0
  41
 0.87500000000000
  50
0.0
  71
     0
  42
1.0
   3
txt.shx
   4
bigfont.shx
   0
STYLE
   5
3F
 100
AcDbSymbolTableRecord
 100
AcDbTextStyleTableRecord
   2
GMM006
  70
0
  40
0.0
  41
 0.90000000000000
  50
0.0
  71
     0
  42
1.0
   3
txt.shx
   4
bigfont.shx
   0
STYLE
   5
40
 100
AcDbSymbolTableRecord
 100
AcDbTextStyleTableRecord
   2
GMM007
  70
0
  40
0.0
  41
 0.65000000000000
  50
0.0
  71
     0
  42
1.0
   3
txt.shx
   4
bigfont.shx
   0
STYLE
   5
41
 100
AcDbSymbolTableRecord
 100
AcDbTextStyleTableRecord
   2
GMM008
  70
0
  40
0.0
  41
 1.0000000000000
  50
0.0
  71
     0
  42
1.0
   3

   4

1001
ACAD
1000
ＭＳ 明朝
1071
32785
   0
STYLE
   5
42
 100
AcDbSymbolTableRecord
 100
AcDbTextStyleTableRecord
   2
GMM009
  70
0
  40
0.0
  41
 1.6363636363636
  50
0.0
  71
     0
  42
1.0
   3
txt.shx
   4
bigfont.shx
   0
ENDTAB
  0
TABLE
  2
VIEW
  5
6
100
AcDbSymbolTable
 70
     0
  0
ENDTAB
  0
TABLE
  2
UCS
  5
7
100
AcDbSymbolTable
 70
     0
  0
ENDTAB
  0
TABLE
  2
APPID
  5
9
100
AcDbSymbolTable
 70
     1
  0
APPID
  5
10
100
AcDbSymbolTableRecord
100
AcDbRegAppTableRecord
  2
ACAD
 70
     0
  0
ENDTAB
   0
TABLE
   2
DIMSTYLE
   5
A
 100
AcDbSymbolTable
  70
9
 100
AcDbDimStyleTable
  0
DIMSTYLE
105
1D
100
AcDbSymbolTableRecord
100
AcDbDimStyleTableRecord
  2
STANDARD
 70
     0
  3

  4

  5

  6

  7

 40
1.0
 41
0.18
 42
0.0625
 43
0.38
 44
0.18
 45
0.0
 46
0.0
 47
0.0
 48
0.0
140
0.18
141
0.09
142
0.0
143
25.4
144
1.0
145
0.0
146
1.0
147
0.09
 71
     0
 72
     0
 73
     1
 74
     1
 75
     0
 76
     0
 77
     0
 78
     0
170
     0
171
     2
172
     0
173
     0
174
     0
175
     0
176
     0
177
     0
178
     0
270
     2
271
     4
272
     4
273
     2
274
     2
340
F
275
     0
280
     0
281
     0
282
     0
283
     1
284
     0
285
     0
286
     0
287
     3
288
     0
   0
DIMSTYLE
 105
43
 100
AcDbSymbolTableRecord
 100
AcDbDimStyleTableRecord
   2
GMM001
  70
0
   3
%%c<>
   4

   5

   6
_OPEN
   7
_OPEN
  40
 1.0000000000000
  41
 30.000000000000
  42
 30.000000000000
  43
 160.00000000000
  44
 30.000000000000
  45
0.0
  46
 37.500000000000
  47
0.0
  48
0.0
 140
 66.000000000000
 141
 20.000000000000
 142
0.0
 143
 0.39400000000000E-1
 144
 1.0000000000000
 145
0.0
 146
 0.62500000000000
 147
 28.285714285714
  71
0
  72
0
  73
0
  74
0
  75
1
  76
1
  77
1
  78
8
 170
0
 171
2
 172
1
 173
1
 174
0
 175
0
 176
6
 177
6
 178
1
 270
2
 271
1
 272
0
 273
2
 274
2
 340
3B
 275
0
 280
0
 281
0
 282
0
 283
1
 284
0
 285
0
 286
0
 287
0
 288
0
   0
DIMSTYLE
 105
44
 100
AcDbSymbolTableRecord
 100
AcDbDimStyleTableRecord
   2
GMM002
  70
0
   3

   4

   5

   6
_OPEN
   7
_OPEN
  40
 1.0000000000000
  41
 30.000000000000
  42
 30.000000000000
  43
 160.00000000000
  44
 30.000000000000
  45
0.0
  46
 37.500000000000
  47
0.0
  48
0.0
 140
 66.000000000000
 141
 20.000000000000
 142
0.0
 143
 0.39400000000000E-1
 144
 1.0000000000000
 145
0.0
 146
 0.62500000000000
 147
0.0
  71
0
  72
0
  73
0
  74
0
  75
1
  76
1
  77
0
  78
8
 170
0
 171
2
 172
1
 173
1
 174
0
 175
0
 176
1
 177
1
 178
1
 270
2
 271
1
 272
0
 273
2
 274
2
 340
F
 275
0
 280
0
 281
0
 282
0
 283
1
 284
0
 285
0
 286
0
 287
3
 288
0
   0
DIMSTYLE
 105
45
 100
AcDbSymbolTableRecord
 100
AcDbDimStyleTableRecord
   2
GMM003
  70
0
   3

   4

   5

   6
_OPEN
   7
_OPEN
  40
 1.0000000000000
  41
 30.000000000000
  42
 30.000000000000
  43
 160.00000000000
  44
 30.000000000000
  45
0.0
  46
 37.500000000000
  47
0.0
  48
0.0
 140
 66.000000000000
 141
 20.000000000000
 142
0.0
 143
 0.39400000000000E-1
 144
 1.0000000000000
 145
0.0
 146
 0.62500000000000
 147
 28.285714285714
  71
0
  72
0
  73
0
  74
0
  75
0
  76
1
  77
1
  78
8
 170
0
 171
2
 172
1
 173
1
 174
0
 175
0
 176
6
 177
6
 178
1
 270
2
 271
1
 272
0
 273
2
 274
2
 340
3B
 275
0
 280
0
 281
0
 282
0
 283
1
 284
0
 285
0
 286
0
 287
3
 288
0
   0
DIMSTYLE
 105
46
 100
AcDbSymbolTableRecord
 100
AcDbDimStyleTableRecord
   2
GMM004
  70
0
   3
<>(標準設置高さ
   4

   5

   6
_OPEN
   7
_OPEN
  40
 1.0000000000000
  41
 30.000000000000
  42
 30.000000000000
  43
 160.00000000000
  44
 30.000000000000
  45
0.0
  46
 37.500000000000
  47
0.0
  48
0.0
 140
 66.000000000000
 141
 20.000000000000
 142
0.0
 143
 0.39400000000000E-1
 144
 1.0000000000000
 145
0.0
 146
 0.62500000000000
 147
 28.285714285714
  71
0
  72
0
  73
0
  74
0
  75
0
  76
0
  77
1
  78
8
 170
0
 171
2
 172
1
 173
1
 174
0
 175
0
 176
6
 177
6
 178
1
 270
2
 271
1
 272
0
 273
2
 274
2
 340
3B
 275
0
 280
0
 281
0
 282
0
 283
1
 284
0
 285
0
 286
0
 287
3
 288
0
   0
DIMSTYLE
 105
47
 100
AcDbSymbolTableRecord
 100
AcDbDimStyleTableRecord
   2
GMM005
  70
0
   3

   4

   5

   6
_OPEN
   7
_OPEN
  40
 1.0000000000000
  41
 30.000000000000
  42
 30.000000000000
  43
 160.00000000000
  44
 30.000000000000
  45
0.0
  46
 37.500000000000
  47
0.0
  48
0.0
 140
 66.000000000000
 141
 20.000000000000
 142
0.0
 143
 0.39400000000000E-1
 144
 1.0000000000000
 145
0.0
 146
 0.62500000000000
 147
0.0
  71
0
  72
0
  73
0
  74
0
  75
1
  76
1
  77
0
  78
8
 170
0
 171
2
 172
1
 173
1
 174
0
 175
0
 176
1
 177
1
 178
1
 270
2
 271
1
 272
0
 273
2
 274
2
 340
F
 275
0
 280
0
 281
0
 282
0
 283
1
 284
0
 285
0
 286
0
 287
3
 288
0
   0
DIMSTYLE
 105
48
 100
AcDbSymbolTableRecord
 100
AcDbDimStyleTableRecord
   2
GMM006
  70
0
   3
□<>
   4

   5

   6
_OPEN
   7
_OPEN
  40
 1.0000000000000
  41
 30.000000000000
  42
 30.000000000000
  43
 160.00000000000
  44
 30.000000000000
  45
0.0
  46
 37.500000000000
  47
0.0
  48
0.0
 140
 66.000000000000
 141
 20.000000000000
 142
0.0
 143
 0.39400000000000E-1
 144
 1.0000000000000
 145
0.0
 146
 0.62500000000000
 147
 28.285714285714
  71
0
  72
0
  73
0
  74
0
  75
0
  76
0
  77
1
  78
8
 170
0
 171
2
 172
1
 173
1
 174
0
 175
0
 176
6
 177
6
 178
1
 270
2
 271
1
 272
0
 273
2
 274
2
 340
3B
 275
0
 280
0
 281
0
 282
0
 283
1
 284
0
 285
0
 286
0
 287
3
 288
0
   0
DIMSTYLE
 105
49
 100
AcDbSymbolTableRecord
 100
AcDbDimStyleTableRecord
   2
GMM007
  70
0
   3

   4

   5

   6
_OPEN
   7
_OPEN
  40
 1.0000000000000
  41
 40.000000000000
  42
 40.000000000000
  43
 160.00000000000
  44
 40.000000000000
  45
0.0
  46
 50.000000000000
  47
0.0
  48
0.0
 140
 66.000000000000
 141
 20.000000000000
 142
0.0
 143
 0.39400000000000E-1
 144
 1.0000000000000
 145
0.0
 146
 0.62500000000000
 147
0.0
  71
0
  72
0
  73
0
  74
0
  75
1
  76
1
  77
1
  78
0
 170
0
 171
2
 172
1
 173
1
 174
0
 175
0
 176
6
 177
6
 178
1
 270
2
 271
0
 272
0
 273
2
 274
2
 340
3B
 275
1
 280
0
 281
0
 282
0
 283
1
 284
0
 285
0
 286
0
 287
3
 288
0
   0
ENDTAB
  0
TABLE
  2
BLOCK_RECORD
  5
1
100
AcDbSymbolTable
 70
     0
  0
BLOCK_RECORD
  5
18
100
AcDbSymbolTableRecord
100
AcDbBlockTableRecord
  2
*MODEL_SPACE
  0
BLOCK_RECORD
  5
15
100
AcDbSymbolTableRecord
100
AcDbBlockTableRecord
  2
*PAPER_SPACE
   0
BLOCK_RECORD
   5
4A
 100
AcDbSymbolTableRecord
 100
AcDbBlockTableRecord
   2
*D1
   0
BLOCK_RECORD
   5
4B
 100
AcDbSymbolTableRecord
 100
AcDbBlockTableRecord
   2
*D11
   0
BLOCK_RECORD
   5
4C
 100
AcDbSymbolTableRecord
 100
AcDbBlockTableRecord
   2
*D12
   0
BLOCK_RECORD
   5
4D
 100
AcDbSymbolTableRecord
 100
AcDbBlockTableRecord
   2
*D13
   0
BLOCK_RECORD
   5
4E
 100
AcDbSymbolTableRecord
 100
AcDbBlockTableRecord
   2
*D19
   0
BLOCK_RECORD
   5
4F
 100
AcDbSymbolTableRecord
 100
AcDbBlockTableRecord
   2
*D20
   0
BLOCK_RECORD
   5
50
 100
AcDbSymbolTableRecord
 100
AcDbBlockTableRecord
   2
_ARCHTICK
   0
BLOCK_RECORD
   5
51
 100
AcDbSymbolTableRecord
 100
AcDbBlockTableRecord
   2
_BOXBLANK
   0
BLOCK_RECORD
   5
52
 100
AcDbSymbolTableRecord
 100
AcDbBlockTableRecord
   2
_BOXFILLED
   0
BLOCK_RECORD
   5
53
 100
AcDbSymbolTableRecord
 100
AcDbBlockTableRecord
   2
_CLOSED
   0
BLOCK_RECORD
   5
54
 100
AcDbSymbolTableRecord
 100
AcDbBlockTableRecord
   2
_CLOSEDBLANK
   0
BLOCK_RECORD
   5
55
 100
AcDbSymbolTableRecord
 100
AcDbBlockTableRecord
   2
_DATUMBLANK
   0
BLOCK_RECORD
   5
56
 100
AcDbSymbolTableRecord
 100
AcDbBlockTableRecord
   2
_DATUMFILLED
   0
BLOCK_RECORD
   5
57
 100
AcDbSymbolTableRecord
 100
AcDbBlockTableRecord
   2
_DOT
   0
BLOCK_RECORD
   5
58
 100
AcDbSymbolTableRecord
 100
AcDbBlockTableRecord
   2
_DOTBLANK
   0
BLOCK_RECORD
   5
59
 100
AcDbSymbolTableRecord
 100
AcDbBlockTableRecord
   2
_DOTSMALL
   0
BLOCK_RECORD
   5
5A
 100
AcDbSymbolTableRecord
 100
AcDbBlockTableRecord
   2
_INTEGRAL
   0
BLOCK_RECORD
   5
5B
 100
AcDbSymbolTableRecord
 100
AcDbBlockTableRecord
   2
_NONE
   0
BLOCK_RECORD
   5
5C
 100
AcDbSymbolTableRecord
 100
AcDbBlockTableRecord
   2
_OBLIQUE
   0
BLOCK_RECORD
   5
5D
 100
AcDbSymbolTableRecord
 100
AcDbBlockTableRecord
   2
_OPEN
   0
BLOCK_RECORD
   5
5E
 100
AcDbSymbolTableRecord
 100
AcDbBlockTableRecord
   2
_OPEN30
   0
BLOCK_RECORD
   5
5F
 100
AcDbSymbolTableRecord
 100
AcDbBlockTableRecord
   2
_OPEN90
   0
BLOCK_RECORD
   5
60
 100
AcDbSymbolTableRecord
 100
AcDbBlockTableRecord
   2
_ORIGIN
   0
ENDTAB
   0
ENDSEC
  0
SECTION
  2
BLOCKS
  0
BLOCK
  5
19
100
AcDbEntity
  8
0
100
AcDbBlockBegin
  2
*MODEL_SPACE
 70
     0
 10
0.0
 20
0.0
 30
0.0
  3
*MODEL_SPACE
  1

  0
ENDBLK
  5
1A
100
AcDbEntity
  8
0
100
AcDbBlockEnd
  0
BLOCK
  5
16
100
AcDbEntity
 67
     1
  8
0
100
AcDbBlockBegin
  2
*PAPER_SPACE
 70
     0
 10
0.0
 20
0.0
 30
0.0
  3
*PAPER_SPACE
  1

  0
ENDBLK
  5
17
100
AcDbEntity
 67
     1
  8
0
100
AcDbBlockEnd
   0
BLOCK
   5
61
 100
AcDbEntity
   8
0
 100
AcDbBlockBegin
   2
_ARCHTICK
  70
0
  10
0.0
  20
0.0
  30
0.0
   3
_ARCHTICK
   0
POLYLINE
   5
62
 100
AcDbEntity
   8
0
 370
-2
   6
BYBLOCK
  62
0
 100
AcDb2dPolyline
  66
1
  10
0.0
  20
0.0
  30
0.0
  70
1
  40
 0.15000000000000
  41
 0.15000000000000
   0
VERTEX
   5
63
 100
AcDbEntity
   8
0
   6
BYBLOCK
  62
0
 100
AcDbVertex
 100
AcDb2dVertex
  10
-0.50000000000000
  20
-0.50000000000000
  30
0.0
  40
 0.15000000000000
  41
 0.15000000000000
   0
VERTEX
   5
64
 100
AcDbEntity
   8
0
   6
BYBLOCK
  62
0
 100
AcDbVertex
 100
AcDb2dVertex
  10
 0.50000000000000
  20
 0.50000000000000
  30
0.0
  40
 0.15000000000000
  41
 0.15000000000000
   0
SEQEND
   5
65
 100
AcDbEntity
   8
0
   6
BYBLOCK
  62
0
   0
ENDBLK
   5
66
 100
AcDbEntity
   8
0
 100
AcDbBlockEnd
   0
BLOCK
   5
67
 100
AcDbEntity
   8
0
 100
AcDbBlockBegin
   2
_OBLIQUE
  70
0
  10
0.0
  20
0.0
  30
0.0
   3
_OBLIQUE
   0
LINE
   5
68
 100
AcDbEntity
   8
0
 370
-2
 100
AcDbLine
   6
BYBLOCK
  62
0
  10
-0.50000000000000
  20
-0.50000000000000
  30
0.0
  11
 0.50000000000000
  21
 0.50000000000000
  31
0.0
   0
ENDBLK
   5
69
 100
AcDbEntity
   8
0
 100
AcDbBlockEnd
   0
BLOCK
   5
6A
 100
AcDbEntity
   8
0
 100
AcDbBlockBegin
   2
_BOXBLANK
  70
0
  10
0.0
  20
0.0
  30
0.0
   3
_BOXBLANK
   0
LINE
   5
6B
 100
AcDbEntity
   8
0
 370
-2
 100
AcDbLine
   6
BYBLOCK
  62
0
  10
-0.50000000000000
  20
-0.50000000000000
  30
0.0
  11
 0.50000000000000
  21
-0.50000000000000
  31
0.0
   0
LINE
   5
6C
 100
AcDbEntity
   8
0
 370
-2
 100
AcDbLine
   6
BYBLOCK
  62
0
  10
 0.50000000000000
  20
-0.50000000000000
  30
0.0
  11
 0.50000000000000
  21
 0.50000000000000
  31
0.0
   0
LINE
   5
6D
 100
AcDbEntity
   8
0
 370
-2
 100
AcDbLine
   6
BYBLOCK
  62
0
  10
 0.50000000000000
  20
 0.50000000000000
  30
0.0
  11
-0.50000000000000
  21
 0.50000000000000
  31
0.0
   0
LINE
   5
6E
 100
AcDbEntity
   8
0
 370
-2
 100
AcDbLine
   6
BYBLOCK
  62
0
  10
-0.50000000000000
  20
 0.50000000000000
  30
0.0
  11
-0.50000000000000
  21
-0.50000000000000
  31
0.0
   0
LINE
   5
6F
 100
AcDbEntity
   8
0
 370
-2
 100
AcDbLine
   6
BYBLOCK
  62
0
  10
-0.50000000000000
  20
0.0
  30
0.0
  11
-1.0000000000000
  21
0.0
  31
0.0
   0
ENDBLK
   5
70
 100
AcDbEntity
   8
0
 100
AcDbBlockEnd
   0
BLOCK
   5
71
 100
AcDbEntity
   8
0
 100
AcDbBlockBegin
   2
_BOXFILLED
  70
0
  10
0.0
  20
0.0
  30
0.0
   3
_BOXFILLED
   0
SOLID
   5
72
 100
AcDbEntity
   8
0
 100
AcDbTrace
   6
BYBLOCK
  62
0
  10
-0.50000000000000
  20
 0.50000000000000
  30
0.0
  11
 0.50000000000000
  21
 0.50000000000000
  31
0.0
  12
-0.50000000000000
  22
-0.50000000000000
  32
0.0
  13
 0.50000000000000
  23
-0.50000000000000
  33
0.0
   0
LINE
   5
73
 100
AcDbEntity
   8
0
 370
-2
 100
AcDbLine
   6
BYBLOCK
  62
0
  10
-0.50000000000000
  20
0.0
  30
0.0
  11
-1.0000000000000
  21
0.0
  31
0.0
   0
ENDBLK
   5
74
 100
AcDbEntity
   8
0
 100
AcDbBlockEnd
   0
BLOCK
   5
75
 100
AcDbEntity
   8
0
 100
AcDbBlockBegin
   2
_CLOSED
  70
0
  10
0.0
  20
0.0
  30
0.0
   3
_CLOSED
   0
LINE
   5
76
 100
AcDbEntity
   8
0
 370
-2
 100
AcDbLine
   6
BYBLOCK
  62
0
  10
-1.0000000000000
  20
 0.16666666666667
  30
0.0
  11
0.0
  21
0.0
  31
0.0
   0
LINE
   5
77
 100
AcDbEntity
   8
0
 370
-2
 100
AcDbLine
   6
BYBLOCK
  62
0
  10
0.0
  20
0.0
  30
0.0
  11
-1.0000000000000
  21
-0.16666666666667
  31
0.0
   0
LINE
   5
78
 100
AcDbEntity
   8
0
 370
-2
 100
AcDbLine
   6
BYBLOCK
  62
0
  10
-1.0000000000000
  20
 0.16666666666667
  30
0.0
  11
-1.0000000000000
  21
-0.16666666666667
  31
0.0
   0
LINE
   5
79
 100
AcDbEntity
   8
0
 370
-2
 100
AcDbLine
   6
BYBLOCK
  62
0
  10
0.0
  20
0.0
  30
0.0
  11
-1.0000000000000
  21
0.0
  31
0.0
   0
ENDBLK
   5
7A
 100
AcDbEntity
   8
0
 100
AcDbBlockEnd
   0
BLOCK
   5
7B
 100
AcDbEntity
   8
0
 100
AcDbBlockBegin
   2
_OPEN
  70
0
  10
0.0
  20
0.0
  30
0.0
   3
_OPEN
   0
LINE
   5
7C
 100
AcDbEntity
   8
0
 370
-2
 100
AcDbLine
   6
BYBLOCK
  62
0
  10
-1.0000000000000
  20
 0.16666666666667
  30
0.0
  11
0.0
  21
0.0
  31
0.0
   0
LINE
   5
7D
 100
AcDbEntity
   8
0
 370
-2
 100
AcDbLine
   6
BYBLOCK
  62
0
  10
0.0
  20
0.0
  30
0.0
  11
-1.0000000000000
  21
-0.16666666666667
  31
0.0
   0
LINE
   5
7E
 100
AcDbEntity
   8
0
 370
-2
 100
AcDbLine
   6
BYBLOCK
  62
0
  10
0.0
  20
0.0
  30
0.0
  11
-1.0000000000000
  21
0.0
  31
0.0
   0
ENDBLK
   5
7F
 100
AcDbEntity
   8
0
 100
AcDbBlockEnd
   0
BLOCK
   5
80
 100
AcDbEntity
   8
0
 100
AcDbBlockBegin
   2
_OPEN30
  70
0
  10
0.0
  20
0.0
  30
0.0
   3
_OPEN30
   0
LINE
   5
81
 100
AcDbEntity
   8
0
 370
-2
 100
AcDbLine
   6
BYBLOCK
  62
0
  10
-1.0000000000000
  20
 0.26794919243110
  30
0.0
  11
0.0
  21
0.0
  31
0.0
   0
LINE
   5
82
 100
AcDbEntity
   8
0
 370
-2
 100
AcDbLine
   6
BYBLOCK
  62
0
  10
0.0
  20
0.0
  30
0.0
  11
-1.0000000000000
  21
-0.26794919243110
  31
0.0
   0
LINE
   5
83
 100
AcDbEntity
   8
0
 370
-2
 100
AcDbLine
   6
BYBLOCK
  62
0
  10
0.0
  20
0.0
  30
0.0
  11
-1.0000000000000
  21
0.0
  31
0.0
   0
ENDBLK
   5
84
 100
AcDbEntity
   8
0
 100
AcDbBlockEnd
   0
BLOCK
   5
85
 100
AcDbEntity
   8
0
 100
AcDbBlockBegin
   2
_OPEN90
  70
0
  10
0.0
  20
0.0
  30
0.0
   3
_OPEN90
   0
LINE
   5
86
 100
AcDbEntity
   8
0
 370
-2
 100
AcDbLine
   6
BYBLOCK
  62
0
  10
-0.50000000000000
  20
 0.50000000000000
  30
0.0
  11
0.0
  21
0.0
  31
0.0
   0
LINE
   5
87
 100
AcDbEntity
   8
0
 370
-2
 100
AcDbLine
   6
BYBLOCK
  62
0
  10
0.0
  20
0.0
  30
0.0
  11
-0.50000000000000
  21
-0.50000000000000
  31
0.0
   0
LINE
   5
88
 100
AcDbEntity
   8
0
 370
-2
 100
AcDbLine
   6
BYBLOCK
  62
0
  10
0.0
  20
0.0
  30
0.0
  11
-1.0000000000000
  21
0.0
  31
0.0
   0
ENDBLK
   5
89
 100
AcDbEntity
   8
0
 100
AcDbBlockEnd
   0
BLOCK
   5
8A
 100
AcDbEntity
   8
0
 100
AcDbBlockBegin
   2
_CLOSEDBLANK
  70
0
  10
0.0
  20
0.0
  30
0.0
   3
_CLOSEDBLANK
   0
LINE
   5
8B
 100
AcDbEntity
   8
0
 370
-2
 100
AcDbLine
   6
BYBLOCK
  62
0
  10
-1.0000000000000
  20
 0.16666666666667
  30
0.0
  11
0.0
  21
0.0
  31
0.0
   0
LINE
   5
8C
 100
AcDbEntity
   8
0
 370
-2
 100
AcDbLine
   6
BYBLOCK
  62
0
  10
0.0
  20
0.0
  30
0.0
  11
-1.0000000000000
  21
-0.16666666666667
  31
0.0
   0
LINE
   5
8D
 100
AcDbEntity
   8
0
 370
-2
 100
AcDbLine
   6
BYBLOCK
  62
0
  10
-1.0000000000000
  20
 0.16666666666667
  30
0.0
  11
-1.0000000000000
  21
-0.16666666666667
  31
0.0
   0
ENDBLK
   5
8E
 100
AcDbEntity
   8
0
 100
AcDbBlockEnd
   0
BLOCK
   5
8F
 100
AcDbEntity
   8
0
 100
AcDbBlockBegin
   2
_DOT
  70
0
  10
0.0
  20
0.0
  30
0.0
   3
_DOT
   0
POLYLINE
   5
90
 100
AcDbEntity
   8
0
 370
-2
   6
BYBLOCK
  62
0
 100
AcDb2dPolyline
  66
1
  10
0.0
  20
0.0
  30
0.0
  70
1
  40
 0.50000000000000
  41
 0.50000000000000
   0
VERTEX
   5
91
 100
AcDbEntity
   8
0
   6
BYBLOCK
  62
0
 100
AcDbVertex
 100
AcDb2dVertex
  10
-0.25000000000000
  20
0.0
  30
0.0
  42
 1.0000000000000
  40
 0.50000000000000
  41
 0.50000000000000
   0
VERTEX
   5
92
 100
AcDbEntity
   8
0
   6
BYBLOCK
  62
0
 100
AcDbVertex
 100
AcDb2dVertex
  10
 0.25000000000000
  20
0.0
  30
0.0
  42
 1.0000000000000
  40
 0.50000000000000
  41
 0.50000000000000
   0
SEQEND
   5
93
 100
AcDbEntity
   8
0
   6
BYBLOCK
  62
0
   0
LINE
   5
94
 100
AcDbEntity
   8
0
 370
-2
 100
AcDbLine
   6
BYBLOCK
  62
0
  10
-0.50000000000000
  20
0.0
  30
0.0
  11
-1.0000000000000
  21
0.0
  31
0.0
   0
ENDBLK
   5
95
 100
AcDbEntity
   8
0
 100
AcDbBlockEnd
   0
BLOCK
   5
96
 100
AcDbEntity
   8
0
 100
AcDbBlockBegin
   2
_DOTSMALL
  70
0
  10
0.0
  20
0.0
  30
0.0
   3
_DOTSMALL
   0
POLYLINE
   5
97
 100
AcDbEntity
   8
0
 370
-2
   6
BYBLOCK
  62
0
 100
AcDb2dPolyline
  66
1
  10
0.0
  20
0.0
  30
0.0
  70
1
  40
 0.50000000000000
  41
 0.50000000000000
   0
VERTEX
   5
98
 100
AcDbEntity
   8
0
   6
BYBLOCK
  62
0
 100
AcDbVertex
 100
AcDb2dVertex
  10
-0.62500000000000E-1
  20
0.0
  30
0.0
  42
 1.0000000000000
  40
 0.50000000000000
  41
 0.50000000000000
   0
VERTEX
   5
99
 100
AcDbEntity
   8
0
   6
BYBLOCK
  62
0
 100
AcDbVertex
 100
AcDb2dVertex
  10
 0.62500000000000E-1
  20
0.0
  30
0.0
  42
 1.0000000000000
  40
 0.50000000000000
  41
 0.50000000000000
   0
SEQEND
   5
9A
 100
AcDbEntity
   8
0
   6
BYBLOCK
  62
0
   0
ENDBLK
   5
9B
 100
AcDbEntity
   8
0
 100
AcDbBlockEnd
   0
BLOCK
   5
9C
 100
AcDbEntity
   8
0
 100
AcDbBlockBegin
   2
_DATUMBLANK
  70
0
  10
0.0
  20
0.0
  30
0.0
   3
_DATUMBLANK
   0
LINE
   5
9D
 100
AcDbEntity
   8
0
 370
-2
 100
AcDbLine
   6
BYBLOCK
  62
0
  10
0.0
  20
 0.57735027000000
  30
0.0
  11
-1.0000000000000
  21
0.0
  31
0.0
   0
LINE
   5
9E
 100
AcDbEntity
   8
0
 370
-2
 100
AcDbLine
   6
BYBLOCK
  62
0
  10
-1.0000000000000
  20
0.0
  30
0.0
  11
0.0
  21
-0.57735027000000
  31
0.0
   0
LINE
   5
9F
 100
AcDbEntity
   8
0
 370
-2
 100
AcDbLine
   6
BYBLOCK
  62
0
  10
0.0
  20
-0.57735027000000
  30
0.0
  11
0.0
  21
 0.57735027000000
  31
0.0
   0
ENDBLK
   5
A0
 100
AcDbEntity
   8
0
 100
AcDbBlockEnd
   0
BLOCK
   5
A1
 100
AcDbEntity
   8
0
 100
AcDbBlockBegin
   2
_DATUMFILLED
  70
0
  10
0.0
  20
0.0
  30
0.0
   3
_DATUMFILLED
   0
SOLID
   5
A2
 100
AcDbEntity
   8
0
 100
AcDbTrace
   6
BYBLOCK
  62
0
  10
0.0
  20
 0.57735027000000
  30
0.0
  11
-1.0000000000000
  21
0.0
  31
0.0
  12
0.0
  22
-0.57735027000000
  32
0.0
  13
0.0
  23
-0.57735027000000
  33
0.0
   0
ENDBLK
   5
A3
 100
AcDbEntity
   8
0
 100
AcDbBlockEnd
   0
BLOCK
   5
A4
 100
AcDbEntity
   8
0
 100
AcDbBlockBegin
   2
_ORIGIN
  70
0
  10
0.0
  20
0.0
  30
0.0
   3
_ORIGIN
   0
CIRCLE
   5
A5
 100
AcDbEntity
   8
0
 370
-2
 100
AcDbCircle
   6
BYBLOCK
  62
0
  10
0.0
  20
0.0
  30
0.0
  40
 0.50000000000000
   0
LINE
   5
A6
 100
AcDbEntity
   8
0
 370
-2
 100
AcDbLine
   6
BYBLOCK
  62
0
  10
0.0
  20
0.0
  30
0.0
  11
-1.0000000000000
  21
0.0
  31
0.0
   0
ENDBLK
   5
A7
 100
AcDbEntity
   8
0
 100
AcDbBlockEnd
   0
BLOCK
   5
A8
 100
AcDbEntity
   8
0
 100
AcDbBlockBegin
   2
_NONE
  70
0
  10
0.0
  20
0.0
  30
0.0
   3
_NONE
   0
CIRCLE
   5
A9
 100
AcDbEntity
   8
0
 370
-2
 100
AcDbCircle
   6
BYBLOCK
  62
0
  10
0.0
  20
0.0
  30
0.0
  40
 0.25000000000000
   0
ENDBLK
   5
AA
 100
AcDbEntity
   8
0
 100
AcDbBlockEnd
   0
BLOCK
   5
AB
 100
AcDbEntity
   8
0
 100
AcDbBlockBegin
   2
_DOTBLANK
  70
0
  10
0.0
  20
0.0
  30
0.0
   3
_DOTBLANK
   0
CIRCLE
   5
AC
 100
AcDbEntity
   8
0
 370
-2
 100
AcDbCircle
   6
BYBLOCK
  62
0
  10
0.0
  20
0.0
  30
0.0
  40
 0.50000000000000
   0
LINE
   5
AD
 100
AcDbEntity
   8
0
 370
-2
 100
AcDbLine
   6
BYBLOCK
  62
0
  10
-0.50000000000000
  20
0.0
  30
0.0
  11
-1.0000000000000
  21
0.0
  31
0.0
   0
ENDBLK
   5
AE
 100
AcDbEntity
   8
0
 100
AcDbBlockEnd
   0
BLOCK
   5
AF
 100
AcDbEntity
   8
0
 100
AcDbBlockBegin
   2
_INTEGRAL
  70
0
  10
0.0
  20
0.0
  30
0.0
   3
_INTEGRAL
   0
ARC
   5
B0
 100
AcDbEntity
   8
0
 370
-2
   6
BYBLOCK
  62
0
 100
AcDbCircle
  10
 0.44488800000000
  20
-0.91335000000000E-1
  30
0.0
  40
 0.45416700000000
 100
AcDbArc
  50
 102.00000000000
  51
 168.00000000000
   0
ARC
   5
B1
 100
AcDbEntity
   8
0
 370
-2
   6
BYBLOCK
  62
0
 100
AcDbCircle
  10
-0.44488800000000
  20
 0.91335000000000E-1
  30
0.0
  40
 0.45416700000000
 100
AcDbArc
  50
 282.00000000000
  51
 348.00000000000
   0
ENDBLK
   5
B2
 100
AcDbEntity
   8
0
 100
AcDbBlockEnd
   0
BLOCK
   5
B3
 100
AcDbEntity
   8
0
 100
AcDbBlockBegin
   2
*D1
  70
65
  10
0.0
  20
0.0
  30
0.0
   3
*D1
   0
LINE
   5
B4
 100
AcDbEntity
   8
LEVEL001
 370
13
 100
AcDbLine
   6
CONTINUOUS
  62
6
  10
 1739.0317832632
  20
 4855.1682735456
  30
0.0
  11
 1046.2111538034
  21
 4455.1688051061
  31
0.0
   0
INSERT
   5
B5
 100
AcDbEntity
   8
LEVEL001
   6
CONTINUOUS
  62
6
 100
AcDbBlockReference
   2
_OPEN
  10
 1739.0317832632
  20
 4855.1682735456
  30
0.0
  41
 30.000000000000
  42
 30.000000000000
  43
 30.000000000000
  50
 29.999956056923
   0
INSERT
   5
B6
 100
AcDbEntity
   8
LEVEL001
   6
CONTINUOUS
  62
6
 100
AcDbBlockReference
   2
_OPEN
  10
 1046.2111538034
  20
 4455.1688051061
  30
0.0
  41
 30.000000000000
  42
 30.000000000000
  43
 30.000000000000
  50
 209.99995605692
   0
MTEXT
   5
B7
 100
AcDbEntity
   8
LEVEL001
 370
13
  62
1
 100
AcDbMText
  10
 1378.4786301778
  20
 4679.6646973083
  30
0.0
  40
 66.000000000000
  41
0.0
  71
8
  72
1
   1
\A1;%%c800
   7
GMM002
  11
 0.86602578725987
  21
 0.49999933580048
  31
0.0
   0
ENDBLK
   5
B8
 100
AcDbEntity
   8
0
 100
AcDbBlockEnd
   0
BLOCK
   5
B9
 100
AcDbEntity
   8
0
 100
AcDbBlockBegin
   2
*D11
  70
65
  10
0.0
  20
0.0
  30
0.0
   3
*D11
   0
LINE
   5
BA
 100
AcDbEntity
   8
LEVEL001
 370
13
 100
AcDbLine
   6
CONTINUOUS
  62
6
  10
 1112.6216211212
  20
 755.16775478133
  30
0.0
  11
 612.62162112118
  21
 755.16775478133
  31
0.0
   0
LINE
   5
BB
 100
AcDbEntity
   8
LEVEL001
 370
13
 100
AcDbLine
   6
CONTINUOUS
  62
6
  10
 1112.6216211212
  20
 855.16775478133
  30
0.0
  11
 612.62162112118
  21
 855.16775478133
  31
0.0
   0
LINE
   5
BC
 100
AcDbEntity
   8
LEVEL001
 370
13
 100
AcDbLine
   6
CONTINUOUS
  62
6
  10
 642.62162112118
  20
 755.16775478133
  30
0.0
  11
 642.62162112118
  21
 855.16775478133
  31
0.0
   0
INSERT
   5
BD
 100
AcDbEntity
   8
LEVEL001
   6
CONTINUOUS
  62
6
 100
AcDbBlockReference
   2
_OPEN
  10
 642.62162112118
  20
 755.16775478133
  30
0.0
  41
 30.000000000000
  42
 30.000000000000
  43
 30.000000000000
  50
 270.00000000000
   0
INSERT
   5
BE
 100
AcDbEntity
   8
LEVEL001
   6
CONTINUOUS
  62
6
 100
AcDbBlockReference
   2
_OPEN
  10
 642.62162112118
  20
 855.16775478133
  30
0.0
  41
 30.000000000000
  42
 30.000000000000
  43
 30.000000000000
  50
 90.000000000000
   0
MTEXT
   5
BF
 100
AcDbEntity
   8
LEVEL001
 370
13
  62
1
 100
AcDbMText
  10
 614.33590683547
  20
 805.16775478133
  30
0.0
  40
 66.000000000000
  41
0.0
  71
8
  72
1
   1
\A1;100
   7
GMM002
  11
0.0
  21
 1.0000000000000
  31
0.0
   0
ENDBLK
   5
C0
 100
AcDbEntity
   8
0
 100
AcDbBlockEnd
   0
BLOCK
   5
C1
 100
AcDbEntity
   8
0
 100
AcDbBlockBegin
   2
*D12
  70
65
  10
0.0
  20
0.0
  30
0.0
   3
*D12
   0
LINE
   5
C2
 100
AcDbEntity
   8
LEVEL001
 370
13
 100
AcDbLine
   6
CONTINUOUS
  62
6
  10
 1112.6216211212
  20
 855.16775478133
  30
0.0
  11
 612.62162112118
  21
 855.16775478133
  31
0.0
   0
LINE
   5
C3
 100
AcDbEntity
   8
LEVEL001
 370
13
 100
AcDbLine
   6
CONTINUOUS
  62
6
  10
 862.62162112118
  20
 1755.1677547813
  30
0.0
  11
 612.62162112118
  21
 1755.1677547813
  31
0.0
   0
LINE
   5
C4
 100
AcDbEntity
   8
LEVEL001
 370
13
 100
AcDbLine
   6
CONTINUOUS
  62
6
  10
 642.62162112118
  20
 855.16775478133
  30
0.0
  11
 642.62162112118
  21
 1755.1677547813
  31
0.0
   0
INSERT
   5
C5
 100
AcDbEntity
   8
LEVEL001
   6
CONTINUOUS
  62
6
 100
AcDbBlockReference
   2
_OPEN
  10
 642.62162112118
  20
 855.16775478133
  30
0.0
  41
 30.000000000000
  42
 30.000000000000
  43
 30.000000000000
  50
 270.00000000000
   0
INSERT
   5
C6
 100
AcDbEntity
   8
LEVEL001
   6
CONTINUOUS
  62
6
 100
AcDbBlockReference
   2
_OPEN
  10
 642.62162112118
  20
 1755.1677547813
  30
0.0
  41
 30.000000000000
  42
 30.000000000000
  43
 30.000000000000
  50
 90.000000000000
   0
MTEXT
   5
C7
 100
AcDbEntity
   8
LEVEL001
 370
13
  62
1
 100
AcDbMText
  10
 614.33590683547
  20
 1305.1677547813
  30
0.0
  40
 66.000000000000
  41
0.0
  71
8
  72
1
   1
\A1;900
   7
GMM002
  11
0.0
  21
 1.0000000000000
  31
0.0
   0
ENDBLK
   5
C8
 100
AcDbEntity
   8
0
 100
AcDbBlockEnd
   0
BLOCK
   5
C9
 100
AcDbEntity
   8
0
 100
AcDbBlockBegin
   2
*D13
  70
65
  10
0.0
  20
0.0
  30
0.0
   3
*D13
   0
LINE
   5
CA
 100
AcDbEntity
   8
LEVEL001
 370
13
 100
AcDbLine
   6
CONTINUOUS
  62
6
  10
 862.62162112118
  20
 1755.1677547813
  30
0.0
  11
 612.62162112118
  21
 1755.1677547813
  31
0.0
   0
LINE
   5
CB
 100
AcDbEntity
   8
LEVEL001
 370
13
 100
AcDbLine
   6
CONTINUOUS
  62
6
  10
 1362.6216211211
  20
 4255.1685395397
  30
0.0
  11
 612.62162112118
  21
 4255.1685395397
  31
0.0
   0
LINE
   5
CC
 100
AcDbEntity
   8
LEVEL001
 370
13
 100
AcDbLine
   6
CONTINUOUS
  62
6
  10
 642.62162112118
  20
 1755.1677547813
  30
0.0
  11
 642.62162112118
  21
 4255.1685395397
  31
0.0
   0
INSERT
   5
CD
 100
AcDbEntity
   8
LEVEL001
   6
CONTINUOUS
  62
6
 100
AcDbBlockReference
   2
_OPEN
  10
 642.62162112118
  20
 1755.1677547813
  30
0.0
  41
 30.000000000000
  42
 30.000000000000
  43
 30.000000000000
  50
 270.00000000000
   0
INSERT
   5
CE
 100
AcDbEntity
   8
LEVEL001
   6
CONTINUOUS
  62
6
 100
AcDbBlockReference
   2
_OPEN
  10
 642.62162112118
  20
 4255.1685395397
  30
0.0
  41
 30.000000000000
  42
 30.000000000000
  43
 30.000000000000
  50
 90.000000000000
   0
MTEXT
   5
CF
 100
AcDbEntity
   8
LEVEL001
 370
13
  62
1
 100
AcDbMText
  10
 614.33590683547
  20
 3005.1681471605
  30
0.0
  40
 66.000000000000
  41
0.0
  71
8
  72
1
   1
\A1;2500(標準設置高さ)
   7
GMM002
  11
0.0
  21
 1.0000000000000
  31
0.0
   0
ENDBLK
   5
D0
 100
AcDbEntity
   8
0
 100
AcDbBlockEnd
   0
BLOCK
   5
D1
 100
AcDbEntity
   8
0
 100
AcDbBlockBegin
   2
*D19
  70
65
  10
0.0
  20
0.0
  30
0.0
   3
*D19
   0
LINE
   5
D2
 100
AcDbEntity
   8
LEVEL001
 370
13
 100
AcDbLine
   6
CONTINUOUS
  62
6
  10
 1142.6216211212
  20
 725.16775478133
  30
0.0
  11
 1142.6216211212
  21
 475.16775478133
  31
0.0
   0
LINE
   5
D3
 100
AcDbEntity
   8
LEVEL001
 370
13
 100
AcDbLine
   6
CONTINUOUS
  62
6
  10
 1642.6216211212
  20
 725.16775478133
  30
0.0
  11
 1642.6216211212
  21
 475.16775478133
  31
0.0
   0
LINE
   5
D4
 100
AcDbEntity
   8
LEVEL001
 370
13
 100
AcDbLine
   6
CONTINUOUS
  62
6
  10
 1142.6216211212
  20
 505.16775478133
  30
0.0
  11
 1642.6216211212
  21
 505.16775478133
  31
0.0
   0
INSERT
   5
D5
 100
AcDbEntity
   8
LEVEL001
   6
CONTINUOUS
  62
6
 100
AcDbBlockReference
   2
_OPEN
  10
 1142.6216211212
  20
 505.16775478133
  30
0.0
  41
 30.000000000000
  42
 30.000000000000
  43
 30.000000000000
  50
 180.00000000000
   0
INSERT
   5
D6
 100
AcDbEntity
   8
LEVEL001
   6
CONTINUOUS
  62
6
 100
AcDbBlockReference
   2
_OPEN
  10
 1642.6216211212
  20
 505.16775478133
  30
0.0
  41
 30.000000000000
  42
 30.000000000000
  43
 30.000000000000
  50
0.0
   0
MTEXT
   5
D7
 100
AcDbEntity
   8
LEVEL001
 370
13
  62
1
 100
AcDbMText
  10
 1392.6216211212
  20
 533.45346906705
  30
0.0
  40
 66.000000000000
  41
0.0
  71
8
  72
1
   1
\A1;□500
   7
GMM002
   0
ENDBLK
   5
D8
 100
AcDbEntity
   8
0
 100
AcDbBlockEnd
   0
BLOCK
   5
D9
 100
AcDbEntity
   8
0
 100
AcDbBlockBegin
   2
*D20
  70
65
  10
0.0
  20
0.0
  30
0.0
   3
*D20
   0
LINE
   5
DA
 100
AcDbEntity
   8
LEVEL001
 370
13
 100
AcDbLine
   6
CONTINUOUS
  62
6
  10
 2642.6216211212
  20
 725.16775478133
  30
0.0
  11
 2642.6216211212
  21
 475.16775478133
  31
0.0
   0
LINE
   5
DB
 100
AcDbEntity
   8
LEVEL001
 370
13
 100
AcDbLine
   6
CONTINUOUS
  62
6
  10
 3142.6216211212
  20
 725.16775478133
  30
0.0
  11
 3142.6216211212
  21
 475.16775478133
  31
0.0
   0
LINE
   5
DC
 100
AcDbEntity
   8
LEVEL001
 370
13
 100
AcDbLine
   6
CONTINUOUS
  62
6
  10
 2642.6216211212
  20
 505.16775478133
  30
0.0
  11
 3142.6216211212
  21
 505.16775478133
  31
0.0
   0
INSERT
   5
DD
 100
AcDbEntity
   8
LEVEL001
   6
CONTINUOUS
  62
6
 100
AcDbBlockReference
   2
_OPEN
  10
 2642.6216211212
  20
 505.16775478133
  30
0.0
  41
 30.000000000000
  42
 30.000000000000
  43
 30.000000000000
  50
 180.00000000000
   0
INSERT
   5
DE
 100
AcDbEntity
   8
LEVEL001
   6
CONTINUOUS
  62
6
 100
AcDbBlockReference
   2
_OPEN
  10
 3142.6216211212
  20
 505.16775478133
  30
0.0
  41
 30.000000000000
  42
 30.000000000000
  43
 30.000000000000
  50
0.0
   0
MTEXT
   5
DF
 100
AcDbEntity
   8
LEVEL001
 370
13
  62
1
 100
AcDbMText
  10
 2892.6216211212
  20
 533.45346906705
  30
0.0
  40
 66.000000000000
  41
0.0
  71
8
  72
1
   1
\A1;□500
   7
GMM002
   0
ENDBLK
   5
E0
 100
AcDbEntity
   8
0
 100
AcDbBlockEnd
   0
ENDSEC
   0
SECTION
   2
ENTITIES
   0
LWPOLYLINE
   5
E1
 100
AcDbEntity
   8
LEVEL001
 370
13
   6
CONTINUOUS
  62
7
 100
AcDbPolyline
  90
4
  70
1
  10
 332.62162112118
  20
 155.16853932584
  10
 332.62162112118
  20
 5755.1685393258
  10
 8119.2884912384
  20
 5755.1685393258
  10
 8119.2884912384
  20
 155.16853932584
   0
LINE
   5
E2
 100
AcDbEntity
   8
LEVEL001
 370
13
 100
AcDbLine
   6
CONTINUOUS
  62
1
  10
 5603.5307120303
  20
 635.16853932584
  30
0.0
  11
 7243.5307120303
  21
 635.16853932584
  31
0.0
   0
MTEXT
   5
E4
 100
AcDbEntity
   8
LEVEL001
 370
13
  62
1
 100
AcDbMText
  10
 1392.6216211212
  20
 5505.1685393258
  30
0.0
  40
 80.000000000000
  41
0.0
  71
5
  72
1
   1
\T1.000000;正　面　図
   7
GMM001
  44
 0.79999984000003
   0
MTEXT
   5
E6
 100
AcDbEntity
   8
LEVEL001
 370
13
  62
1
 100
AcDbMText
  10
 2892.6216211212
  20
 5505.1685393258
  30
0.0
  40
 80.000000000000
  41
0.0
  71
5
  72
1
   1
\T1.000000;側　面　図
   7
GMM001
  44
 0.79999984000003
   0
MTEXT
   5
E8
 100
AcDbEntity
   8
LEVEL001
 370
13
  62
1
 100
AcDbMText
  10
 4142.6216211212
  20
 5505.1685393258
  30
0.0
  40
 80.000000000000
  41
0.0
  71
5
  72
1
   1
\T1.000000;背　面　図
   7
GMM001
  44
 0.79999984000003
   0
CIRCLE
   5
E9
 100
AcDbEntity
   8
LEVEL001
 370
13
 100
AcDbCircle
   6
CONTINUOUS
  62
1
  10
 2142.6216211212
  20
 4387.7042632261
  30
0.0
  40
 69.999997913838
   0
MTEXT
   5
EB
 100
AcDbEntity
   8
LEVEL001
 370
13
  62
7
 100
AcDbMText
  10
 2142.6216211212
  20
 4387.7042632261
  30
0.0
  40
 66.000000000000
  41
0.0
  71
5
  72
1
   1
\T1.000000;１
   7
GMM002
  44
 0.79999984000003
   0
CIRCLE
   5
EC
 100
AcDbEntity
   8
LEVEL001
 370
13
 100
AcDbCircle
   6
CONTINUOUS
  62
1
  10
 2142.6216211212
  20
 5125.4516596330
  30
0.0
  40
 69.999997913838
   0
MTEXT
   5
EE
 100
AcDbEntity
   8
LEVEL001
 370
13
  62
7
 100
AcDbMText
  10
 2142.6216211212
  20
 5125.4516596330
  30
0.0
  40
 66.000000000000
  41
0.0
  71
5
  72
1
   1
\T1.000000;３
   7
GMM002
  44
 0.79999984000003
   0
CIRCLE
   5
EF
 100
AcDbEntity
   8
LEVEL001
 370
13
 100
AcDbCircle
   6
CONTINUOUS
  62
7
  10
 1392.6214685333
  20
 4655.1685393258
  30
0.0
  40
 399.99999979907
   0
DIMENSION
   5
F0
 100
AcDbEntity
   8
LEVEL001
 370
13
   6
CONTINUOUS
  62
6
 100
AcDbDimension
   2
*D1
  10
 1739.0317832632
  20
 4855.1682735456
  30
0.0
  11
 1378.4786301778
  21
 4679.6646973083
  31
0.0
  70
3
   3
GMM001
 100
AcDbDiametricDimension
  15
 1046.2111538034
  25
 4455.1688051061
  35
0.0
   0
CIRCLE
   5
F1
 100
AcDbEntity
   8
LEVEL001
 370
13
 100
AcDbCircle
   6
CONTINUOUS
  62
2
  10
 1392.6216211212
  20
 4655.1685393258
  30
0.0
  40
 382.20001201504
   0
ARC
   5
F2
 100
AcDbEntity
   8
LEVEL001
 370
13
   6
CONTINUOUS
  62
7
 100
AcDbCircle
  10
 1392.6216211212
  20
 4655.1685393258
  30
0.0
  40
 406.99999979904
 100
AcDbArc
  50
 18.850250860434
  51
 161.14974913957
   0
LINE
   5
F3
 100
AcDbEntity
   8
LEVEL001
 370
13
 100
AcDbLine
   6
CONTINUOUS
  62
7
  10
 1777.7926868003
  20
 4786.6685393258
  30
0.0
  11
 1770.3882614615
  21
 4786.6685393258
  31
0.0
   0
LINE
   5
F4
 100
AcDbEntity
   8
LEVEL001
 370
13
 100
AcDbLine
   6
CONTINUOUS
  62
7
  10
 1007.4505554420
  20
 4786.6685393258
  30
0.0
  11
 1014.8549807809
  21
 4786.6685393258
  31
0.0
   0
ARC
   5
F5
 100
AcDbEntity
   8
LEVEL001
 370
13
   6
CONTINUOUS
  62
1
 100
AcDbCircle
  10
 1497.9609724258
  20
 5048.3003504314
  30
0.0
  40
 7.5000000000000
 100
AcDbArc
  50
 344.47208301399
  51
 165.52791698602
   0
ARC
   5
F6
 100
AcDbEntity
   8
LEVEL001
 370
13
   6
CONTINUOUS
  62
1
 100
AcDbCircle
  10
 1287.2822698165
  20
 5048.3003504314
  30
0.0
  40
 7.5000000000000
 100
AcDbArc
  50
 14.472083013652
  51
 195.52791698637
   0
ARC
   5
F7
 100
AcDbEntity
   8
LEVEL001
 370
13
   6
CONTINUOUS
  62
1
 100
AcDbCircle
  10
 1023.7543519796
  20
 4827.1741717696
  30
0.0
  40
 7.5000000000000
 100
AcDbArc
  50
 64.472083013724
  51
 245.52791698629
   0
ARC
   5
F8
 100
AcDbEntity
   8
LEVEL001
 370
13
   6
CONTINUOUS
  62
1
 100
AcDbCircle
  10
 1761.4888902627
  20
 4827.1741717696
  30
0.0
  40
 7.5000000000000
 100
AcDbArc
  50
 294.47208301375
  51
 115.52791698624
   0
ARC
   5
F9
 100
AcDbEntity
   8
LEVEL001
 370
13
   6
CONTINUOUS
  62
1
 100
AcDbCircle
  10
 1654.2361781342
  20
 4966.9486275213
  30
0.0
  40
 7.5000000000000
 100
AcDbArc
  50
 319.47208301459
  51
 140.52791698537
   0
ARC
   5
FA
 100
AcDbEntity
   8
LEVEL001
 370
13
   6
CONTINUOUS
  62
1
 100
AcDbCircle
  10
 1131.0070641082
  20
 4966.9486275213
  30
0.0
  40
 7.5000000000000
 100
AcDbArc
  50
 39.472083014700
  51
 220.52791698534
   0
ARC
   5
FB
 100
AcDbEntity
   8
LEVEL001
 370
13
   6
CONTINUOUS
  62
1
 100
AcDbCircle
  10
 1392.6216211212
  20
 4255.1685395268
  30
0.0
  40
 7.5000000000000
 100
AcDbArc
  50
 179.46286605484
  51
 0.53717765837727
   0
ARC
   5
FC
 100
AcDbEntity
   8
LEVEL001
 370
13
   6
CONTINUOUS
  62
1
 100
AcDbCircle
  10
 1649.7366648666
  20
 4348.7507622322
  30
0.0
  40
 7.5000000000000
 100
AcDbArc
  50
 219.46286605485
  51
 40.537177658366
   0
ARC
   5
FD
 100
AcDbEntity
   8
LEVEL001
 370
13
   6
CONTINUOUS
  62
1
 100
AcDbCircle
  10
 1786.5447221282
  20
 4585.7092682940
  30
0.0
  40
 7.5000000000000
 100
AcDbArc
  50
 259.46286605474
  51
 80.537177658472
   0
ARC
   5
FE
 100
AcDbEntity
   8
LEVEL001
 370
13
   6
CONTINUOUS
  62
1
 100
AcDbCircle
  10
 998.69852011421
  20
 4585.7092682940
  30
0.0
  40
 7.5000000000000
 100
AcDbArc
  50
 99.462822341528
  51
 280.53713394526
   0
ARC
   5
FF
 100
AcDbEntity
   8
LEVEL001
 370
13
   6
CONTINUOUS
  62
1
 100
AcDbCircle
  10
 1135.5065773757
  20
 4348.7507622322
  30
0.0
  40
 7.5000000000000
 100
AcDbArc
  50
 139.46282234142
  51
 320.53713394536
   0
LINE
   5
100
 100
AcDbEntity
   8
LEVEL001
 370
13
 100
AcDbLine
   6
DASHDOT
  62
6
  10
 1842.6216211212
  20
 4655.1685393258
  30
0.0
  11
 942.62162112118
  21
 4655.1685393258
  31
0.0
   0
LINE
   5
101
 100
AcDbEntity
   8
LEVEL001
 370
13
 100
AcDbLine
   6
DASHDOT
  62
6
  10
 2986.0089647971
  20
 4655.1685393258
  30
0.0
  11
 2621.0614659077
  21
 4655.1685393258
  31
0.0
   0
LWPOLYLINE
   5
102
 100
AcDbEntity
   8
LEVEL001
 370
13
   6
CONTINUOUS
  62
7
 100
AcDbPolyline
  90
4
  70
1
  10
 2775.2293546505
  20
 4678.1685393258
  10
 2789.2293546505
  20
 4678.1685393258
  10
 2789.2293546505
  20
 4692.1685393258
  10
 2775.2293546505
  20
 4692.1685393258
   0
LWPOLYLINE
   5
103
 100
AcDbEntity
   8
LEVEL001
 370
13
   6
CONTINUOUS
  62
7
 100
AcDbPolyline
  90
4
  70
1
  10
 2775.2293546505
  20
 4618.1685393258
  10
 2789.2293546505
  20
 4618.1685393258
  10
 2789.2293546505
  20
 4632.1685393258
  10
 2775.2293546505
  20
 4632.1685393258
   0
LWPOLYLINE
   5
104
 100
AcDbEntity
   8
LEVEL001
 370
13
   6
CONTINUOUS
  62
7
 100
AcDbPolyline
  90
4
  70
0
  10
 2807.2293546505
  20
 4600.1685393258
  10
 2968.8049760880
  20
 4600.1685393258
  10
 2968.8049760880
  20
 4710.1685393258
  10
 2807.2293546505
  20
 4710.1685393258
   0
ARC
   5
105
 100
AcDbEntity
   8
LEVEL001
 370
13
   6
CONTINUOUS
  62
7
 100
AcDbCircle
  10
 2776.0216211212
  20
 4685.1685393258
  30
0.0
  40
 52.000000000000
 100
AcDbArc
  50
 306.88054979700
  51
 325.00000000000
   0
ARC
   5
106
 100
AcDbEntity
   8
LEVEL001
 370
13
   6
CONTINUOUS
  62
7
 100
AcDbCircle
  10
 2776.0216211212
  20
 4685.1685393258
  30
0.0
  40
 68.000000000000
 100
AcDbArc
  50
 297.31855192772
  51
 325.00000000000
   0
LINE
   5
107
 100
AcDbEntity
   8
LEVEL001
 370
13
 100
AcDbLine
   6
DOT
  62
2
  10
 2695.6202091599
  20
 5055.1685392563
  30
0.0
  11
 2720.6205934556
  21
 5055.1685392563
  31
0.0
   0
CIRCLE
   5
108
 100
AcDbEntity
   8
LEVEL001
 370
13
 100
AcDbCircle
   6
CONTINUOUS
  62
1
  10
 2708.6205934556
  20
 5048.3003504314
  30
0.0
  40
 7.5000000000000
   0
CIRCLE
   5
109
 100
AcDbEntity
   8
LEVEL001
 370
13
 100
AcDbCircle
   6
CONTINUOUS
  62
1
  10
 2708.6205934556
  20
 4966.9486275214
  30
0.0
  40
 7.5000000000000
   0
CIRCLE
   5
10A
 100
AcDbEntity
   8
LEVEL001
 370
13
 100
AcDbCircle
   6
CONTINUOUS
  62
1
  10
 2708.6205934556
  20
 4827.1741717696
  30
0.0
  40
 7.5000000000000
   0
CIRCLE
   5
10B
 100
AcDbEntity
   8
LEVEL001
 370
13
 100
AcDbCircle
   6
CONTINUOUS
  62
1
  10
 2708.6205934556
  20
 4585.7092682940
  30
0.0
  40
 7.5000000000000
   0
CIRCLE
   5
10C
 100
AcDbEntity
   8
LEVEL001
 370
13
 100
AcDbCircle
   6
CONTINUOUS
  62
1
  10
 2708.6205934556
  20
 4348.7507622322
  30
0.0
  40
 7.5000000000000
   0
ARC
   5
10D
 100
AcDbEntity
   8
LEVEL001
 370
13
   6
CONTINUOUS
  62
1
 100
AcDbCircle
  10
 2708.6205934556
  20
 4255.1685393954
  30
0.0
  40
 7.5000000000000
 100
AcDbArc
  50
 180.00000000000
  51
0.0
   0
ARC
   5
10E
 100
AcDbEntity
   8
LEVEL001
 370
13
   6
CONTINUOUS
  62
1
 100
AcDbCircle
  10
 2719.2304381150
  20
 4655.1685393258
  30
0.0
  40
 4.7988739094943
 100
AcDbArc
  50
 303.26696871548
  51
 56.733031284521
   0
LINE
   5
10F
 100
AcDbEntity
   8
LEVEL001
 370
13
 100
AcDbLine
   6
CONTINUOUS
  62
1
  10
 2721.8628166320
  20
 4659.1809917109
  30
0.0
  11
 2720.6207730991
  21
 4659.4238877413
  31
0.0
   0
LINE
   5
110
 100
AcDbEntity
   8
LEVEL001
 370
13
 100
AcDbLine
   6
CONTINUOUS
  62
1
  10
 2721.8628166320
  20
 4651.1560869408
  30
0.0
  11
 2720.6207730991
  21
 4650.9131910804
  31
0.0
   0
LINE
   5
111
 100
AcDbEntity
   8
LEVEL001
 370
13
 100
AcDbLine
   6
CONTINUOUS
  62
1
  10
 2720.6207730991
  20
 4655.1685393258
  30
0.0
  11
 2721.8628166320
  21
 4655.1685393258
  31
0.0
   0
ARC
   5
112
 100
AcDbEntity
   8
LEVEL001
 370
13
   6
CONTINUOUS
  62
7
 100
AcDbCircle
  10
 2825.1707437785
  20
 4650.7539531448
  30
0.0
  40
 8.0000000000000
 100
AcDbArc
  50
 324.99999999999
  51
 145.00000000000
   0
LWPOLYLINE
   5
113
 100
AcDbEntity
   8
LEVEL001
 370
13
   6
CONTINUOUS
  62
7
 100
AcDbPolyline
  90
4
  70
0
  10
 2720.6205934556
  20
 4600.1685393258
  10
 2807.2293546505
  20
 4600.1685393258
  10
 2807.2293546505
  20
 4710.1685393258
  10
 2720.6205934556
  20
 4710.1685393258
   0
LINE
   5
114
 100
AcDbEntity
   8
LEVEL001
 370
13
 100
AcDbLine
   6
CONTINUOUS
  62
6
  10
 2856.0216211212
  20
 4605.1685393258
  30
0.0
  11
 2856.0216211212
  21
 4705.1685393258
  31
0.0
   0
LWPOLYLINE
   5
115
 100
AcDbEntity
   8
LEVEL001
 370
13
   6
CONTINUOUS
  62
7
 100
AcDbPolyline
  90
4
  70
1
  10
 2941.8049760880
  20
 4678.1685393258
  10
 2955.8049760880
  20
 4678.1685393258
  10
 2955.8049760880
  20
 4692.1685393258
  10
 2941.8049760880
  20
 4692.1685393258
   0
LWPOLYLINE
   5
116
 100
AcDbEntity
   8
LEVEL001
 370
13
   6
CONTINUOUS
  62
7
 100
AcDbPolyline
  90
4
  70
1
  10
 2941.8049760880
  20
 4618.1685393258
  10
 2955.8049760880
  20
 4618.1685393258
  10
 2955.8049760880
  20
 4632.1685393258
  10
 2941.8049760880
  20
 4632.1685393258
   0
LINE
   5
117
 100
AcDbEntity
   8
LEVEL001
 370
13
 100
AcDbLine
   6
CONTINUOUS
  62
6
  10
 2929.2329856419
  20
 4705.1685393258
  30
0.0
  11
 2929.2329856419
  21
 4605.1685393258
  31
0.0
   0
LWPOLYLINE
   5
118
 100
AcDbEntity
   8
LEVEL001
 370
13
   6
CONTINUOUS
  62
7
 100
AcDbPolyline
  90
4
  70
0
  10
 2930.7716211212
  20
 4710.1685393258
  10
 2930.7716211212
  20
 4855.1677547813
  10
 2854.4716211212
  20
 4855.1677547813
  10
 2854.4716211212
  20
 4710.1685393258
   0
CIRCLE
   5
119
 100
AcDbEntity
   8
LEVEL001
 370
13
 100
AcDbCircle
   6
CONTINUOUS
  62
7
  10
 4182.6216211212
  20
 4690.1685393258
  30
0.0
  40
 7.0000000000000
   0
LINE
   5
11A
 100
AcDbEntity
   8
LEVEL001
 370
13
 100
AcDbLine
   6
DASHDOT
  62
6
  10
 4162.6216211212
  20
 4690.1685393258
  30
0.0
  11
 4202.6216211212
  21
 4690.1685393258
  31
0.0
   0
LINE
   5
11B
 100
AcDbEntity
   8
LEVEL001
 370
13
 100
AcDbLine
   6
DASHDOT
  62
6
  10
 4182.6216211212
  20
 4670.1685393258
  30
0.0
  11
 4182.6216211212
  21
 4710.1685393258
  31
0.0
   0
CIRCLE
   5
11C
 100
AcDbEntity
   8
LEVEL001
 370
13
 100
AcDbCircle
   6
CONTINUOUS
  62
7
  10
 4102.6216211212
  20
 4690.1685393258
  30
0.0
  40
 7.0000000000000
   0
LINE
   5
11D
 100
AcDbEntity
   8
LEVEL001
 370
13
 100
AcDbLine
   6
DASHDOT
  62
6
  10
 4082.6216211212
  20
 4690.1685393258
  30
0.0
  11
 4122.6216211212
  21
 4690.1685393258
  31
0.0
   0
LINE
   5
11E
 100
AcDbEntity
   8
LEVEL001
 370
13
 100
AcDbLine
   6
DASHDOT
  62
6
  10
 4102.6216211212
  20
 4670.1685393258
  30
0.0
  11
 4102.6216211212
  21
 4710.1685393258
  31
0.0
   0
CIRCLE
   5
11F
 100
AcDbEntity
   8
LEVEL001
 370
13
 100
AcDbCircle
   6
CONTINUOUS
  62
7
  10
 4102.6216211212
  20
 4620.1685393258
  30
0.0
  40
 7.0000000000000
   0
LINE
   5
120
 100
AcDbEntity
   8
LEVEL001
 370
13
 100
AcDbLine
   6
DASHDOT
  62
6
  10
 4082.6216211212
  20
 4620.1685393258
  30
0.0
  11
 4122.6216211212
  21
 4620.1685393258
  31
0.0
   0
LINE
   5
121
 100
AcDbEntity
   8
LEVEL001
 370
13
 100
AcDbLine
   6
DASHDOT
  62
6
  10
 4102.6216211212
  20
 4600.1685393258
  30
0.0
  11
 4102.6216211212
  21
 4640.1685393258
  31
0.0
   0
CIRCLE
   5
122
 100
AcDbEntity
   8
LEVEL001
 370
13
 100
AcDbCircle
   6
CONTINUOUS
  62
7
  10
 4182.6216211212
  20
 4620.1685393258
  30
0.0
  40
 7.0000000000000
   0
LINE
   5
123
 100
AcDbEntity
   8
LEVEL001
 370
13
 100
AcDbLine
   6
DASHDOT
  62
6
  10
 4162.6216211212
  20
 4620.1685393258
  30
0.0
  11
 4202.6216211212
  21
 4620.1685393258
  31
0.0
   0
LINE
   5
124
 100
AcDbEntity
   8
LEVEL001
 370
13
 100
AcDbLine
   6
DASHDOT
  62
6
  10
 4182.6216211212
  20
 4600.1685393258
  30
0.0
  11
 4182.6216211212
  21
 4640.1685393258
  31
0.0
   0
CIRCLE
   5
125
 100
AcDbEntity
   8
LEVEL001
 370
13
 100
AcDbCircle
   6
CONTINUOUS
  62
7
  10
 4142.6214685333
  20
 4655.1685393258
  30
0.0
  40
 399.99999979907
   0
ARC
   5
126
 100
AcDbEntity
   8
LEVEL001
 370
13
   6
CONTINUOUS
  62
7
 100
AcDbCircle
  10
 4142.6216211212
  20
 4655.1685393258
  30
0.0
  40
 406.99999979904
 100
AcDbArc
  50
 18.850250860435
  51
 161.14974913957
   0
LINE
   5
127
 100
AcDbEntity
   8
LEVEL001
 370
13
 100
AcDbLine
   6
CONTINUOUS
  62
7
  10
 4527.7926868003
  20
 4786.6685393258
  30
0.0
  11
 4520.3882614615
  21
 4786.6685393258
  31
0.0
   0
LINE
   5
128
 100
AcDbEntity
   8
LEVEL001
 370
13
 100
AcDbLine
   6
CONTINUOUS
  62
7
  10
 3757.4505554420
  20
 4786.6685393258
  30
0.0
  11
 3764.8549807809
  21
 4786.6685393258
  31
0.0
   0
ARC
   5
129
 100
AcDbEntity
   8
LEVEL001
 370
13
   6
CONTINUOUS
  62
1
 100
AcDbCircle
  10
 4247.9609724258
  20
 5048.3003504314
  30
0.0
  40
 7.5000000000000
 100
AcDbArc
  50
 344.47208301399
  51
 165.52791698602
   0
ARC
   5
12A
 100
AcDbEntity
   8
LEVEL001
 370
13
   6
CONTINUOUS
  62
1
 100
AcDbCircle
  10
 4037.2822698165
  20
 5048.3003504314
  30
0.0
  40
 7.5000000000000
 100
AcDbArc
  50
 14.472083013925
  51
 195.52791698609
   0
ARC
   5
12B
 100
AcDbEntity
   8
LEVEL001
 370
13
   6
CONTINUOUS
  62
1
 100
AcDbCircle
  10
 3773.7543519796
  20
 4827.1741717696
  30
0.0
  40
 7.5000000000000
 100
AcDbArc
  50
 64.472083013760
  51
 245.52791698626
   0
ARC
   5
12C
 100
AcDbEntity
   8
LEVEL001
 370
13
   6
CONTINUOUS
  62
1
 100
AcDbCircle
  10
 4511.4888902627
  20
 4827.1741717696
  30
0.0
  40
 7.5000000000000
 100
AcDbArc
  50
 294.47208301375
  51
 115.52791698624
   0
ARC
   5
12D
 100
AcDbEntity
   8
LEVEL001
 370
13
   6
CONTINUOUS
  62
1
 100
AcDbCircle
  10
 4404.2361781341
  20
 4966.9486275213
  30
0.0
  40
 7.5000000000000
 100
AcDbArc
  50
 319.47208301503
  51
 140.52791698494
   0
ARC
   5
12E
 100
AcDbEntity
   8
LEVEL001
 370
13
   6
CONTINUOUS
  62
1
 100
AcDbCircle
  10
 3881.0070641082
  20
 4966.9486275213
  30
0.0
  40
 7.5000000000000
 100
AcDbArc
  50
 39.472083014771
  51
 220.52791698526
   0
ARC
   5
12F
 100
AcDbEntity
   8
LEVEL001
 370
13
   6
CONTINUOUS
  62
1
 100
AcDbCircle
  10
 4142.6216211212
  20
 4255.1685395268
  30
0.0
  40
 7.5000000000000
 100
AcDbArc
  50
 179.46286605437
  51
 0.53717765884280
   0
ARC
   5
130
 100
AcDbEntity
   8
LEVEL001
 370
13
   6
CONTINUOUS
  62
1
 100
AcDbCircle
  10
 4399.7366648666
  20
 4348.7507622322
  30
0.0
  40
 7.5000000000000
 100
AcDbArc
  50
 219.46286605471
  51
 40.537177658506
   0
ARC
   5
131
 100
AcDbEntity
   8
LEVEL001
 370
13
   6
CONTINUOUS
  62
1
 100
AcDbCircle
  10
 4536.5447221282
  20
 4585.7092682940
  30
0.0
  40
 7.5000000000000
 100
AcDbArc
  50
 259.46286605474
  51
 80.537177658472
   0
ARC
   5
132
 100
AcDbEntity
   8
LEVEL001
 370
13
   6
CONTINUOUS
  62
1
 100
AcDbCircle
  10
 3748.6985201142
  20
 4585.7092682940
  30
0.0
  40
 7.5000000000000
 100
AcDbArc
  50
 99.462822341528
  51
 280.53713394526
   0
ARC
   5
133
 100
AcDbEntity
   8
LEVEL001
 370
13
   6
CONTINUOUS
  62
1
 100
AcDbCircle
  10
 3885.5065773758
  20
 4348.7507622322
  30
0.0
  40
 7.5000000000000
 100
AcDbArc
  50
 139.46282234163
  51
 320.53713394515
   0
LINE
   5
134
 100
AcDbEntity
   8
LEVEL001
 370
13
 100
AcDbLine
   6
DASHDOT
  62
6
  10
 4142.6216211212
  20
 5105.1685393258
  30
0.0
  11
 4142.6216211212
  21
 4205.1685393258
  31
0.0
   0
LINE
   5
135
 100
AcDbEntity
   8
LEVEL001
 370
13
 100
AcDbLine
   6
DASHDOT
  62
6
  10
 4592.6216211212
  20
 4655.1685393258
  30
0.0
  11
 3692.6216211212
  21
 4655.1685393258
  31
0.0
   0
LINE
   5
136
 100
AcDbEntity
   8
LEVEL001
 370
13
 100
AcDbLine
   6
CONTINUOUS
  62
7
  10
 2840.7705231807
  20
 4055.1677547830
  30
0.0
  11
 2838.0566164172
  21
 4048.3829878741
  31
0.0
   0
ARC
   5
137
 100
AcDbEntity
   8
LEVEL001
 370
13
   6
CONTINUOUS
  62
7
 100
AcDbCircle
  10
 2842.6989998716
  20
 4046.5260344923
  30
0.0
  40
 5.0000000000000
 100
AcDbArc
  50
 158.19859051364
  51
 180.00000000000
   0
ARC
   5
138
 100
AcDbEntity
   8
LEVEL001
 370
13
   6
CONTINUOUS
  62
7
 100
AcDbCircle
  10
 2836.6989998716
  20
 4039.3201083239
  30
0.0
  40
 5.0000000000000
 100
AcDbArc
  50
 359.99999999998
  51
 21.801409486339
   0
LINE
   5
139
 100
AcDbEntity
   8
LEVEL001
 370
13
 100
AcDbLine
   6
CONTINUOUS
  62
7
  10
 2839.5391124713
  20
 4045.6827388424
  30
0.0
  11
 2841.3413833260
  21
 4041.1770617056
  31
0.0
   0
ARC
   5
13A
 100
AcDbEntity
   8
LEVEL001
 370
13
   6
CONTINUOUS
  62
7
 100
AcDbCircle
  10
 2844.1814959258
  20
 4047.5396922241
  30
0.0
  40
 5.0000000000000
 100
AcDbArc
  50
 158.19859051364
  51
 201.80140948636
   0
LWPOLYLINE
   5
13B
 100
AcDbEntity
   8
LEVEL001
 370
13
   6
CONTINUOUS
  62
7
 100
AcDbPolyline
  90
3
  70
0
  10
 2840.7705231807
  20
 4055.1677547830
  10
 2841.6989998716
  20
 4054.7963641066
  10
 2839.5391124713
  20
 4049.3966456059
   0
LINE
   5
13C
 100
AcDbEntity
   8
LEVEL001
 370
13
 100
AcDbLine
   6
CONTINUOUS
  62
7
  10
 2837.6989998716
  20
 4046.5260344923
  30
0.0
  11
 2837.6989998716
  21
 3663.8094750720
  31
0.0
   0
LINE
   5
13D
 100
AcDbEntity
   8
LEVEL001
 370
13
 100
AcDbLine
   6
CONTINUOUS
  62
7
  10
 2841.6989998716
  20
 4039.3201083239
  30
0.0
  11
 2841.6989998716
  21
 3671.0154012404
  31
0.0
   0
LINE
   5
13E
 100
AcDbEntity
   8
LEVEL001
 370
13
 100
AcDbLine
   6
CONTINUOUS
  62
7
  10
 2854.4716211212
  20
 4600.1685393258
  30
0.0
  11
 2854.4716211212
  21
 3873.6677547821
  31
0.0
   0
LINE
   5
13F
 100
AcDbEntity
   8
LEVEL001
 370
13
 100
AcDbLine
   6
CONTINUOUS
  62
7
  10
 2930.7716211212
  20
 3873.6677547821
  30
0.0
  11
 2930.7716211212
  21
 4600.1685393258
  31
0.0
   0
ARC
   5
140
 100
AcDbEntity
   8
LEVEL001
 370
13
   6
CONTINUOUS
  62
7
 100
AcDbCircle
  10
 1337.6216211213
  20
 4035.1677547821
  30
0.0
  40
 20.000000000000
 100
AcDbArc
  50
 90.000000000000
  51
 180.00000000000
   0
LINE
   5
141
 100
AcDbEntity
   8
LEVEL001
 370
13
 100
AcDbLine
   6
CONTINUOUS
  62
7
  10
 1317.6216211213
  20
 4035.1677547821
  30
0.0
  11
 1317.6216211213
  21
 3675.1677547821
  31
0.0
   0
LINE
   5
142
 100
AcDbEntity
   8
LEVEL001
 370
13
 100
AcDbLine
   6
CONTINUOUS
  62
7
  10
 1447.6216211213
  20
 4055.1677547821
  30
0.0
  11
 1337.6216211213
  21
 4055.1677547821
  31
0.0
   0
ARC
   5
143
 100
AcDbEntity
   8
LEVEL001
 370
13
   6
CONTINUOUS
  62
7
 100
AcDbCircle
  10
 1447.6216211213
  20
 4035.1677547821
  30
0.0
  40
 20.000000000000
 100
AcDbArc
  50
0.0
  51
 90.000000000000
   0
LINE
   5
144
 100
AcDbEntity
   8
LEVEL001
 370
13
 100
AcDbLine
   6
CONTINUOUS
  62
7
  10
 1467.6216211213
  20
 3675.1677547821
  30
0.0
  11
 1467.6216211213
  21
 4035.1677547821
  31
0.0
   0
LWPOLYLINE
   5
145
 100
AcDbEntity
   8
LEVEL001
 370
13
   6
CONTINUOUS
  62
5
 100
AcDbPolyline
  90
7
  70
1
  10
 1392.6216211213
  20
 4015.1677547821
  10
 1356.3216222032
  20
 3968.9677561590
  10
 1376.1216216131
  20
 3968.9677561590
  10
 1376.1216216131
  20
 3949.1677567491
  10
 1409.1216206296
  20
 3949.1677567491
  10
 1409.1216206296
  20
 3968.9677561590
  10
 1428.9216200395
  20
 3968.9677561590
   0
LINE
   5
146
 100
AcDbEntity
   8
LEVEL001
 370
13
 100
AcDbLine
   6
CONTINUOUS
  62
7
  10
 1354.4716211212
  20
 4256.9919591737
  30
0.0
  11
 1354.4716211212
  21
 4055.1677547821
  31
0.0
   0
LINE
   5
147
 100
AcDbEntity
   8
LEVEL001
 370
13
 100
AcDbLine
   6
CONTINUOUS
  62
7
  10
 1430.7716211212
  20
 4055.1677547821
  30
0.0
  11
 1430.7716211212
  21
 4256.9919884131
  31
0.0
   0
CIRCLE
   5
148
 100
AcDbEntity
   8
LEVEL001
 370
13
 100
AcDbCircle
   6
CONTINUOUS
  62
1
  10
 1142.6216211212
  20
 4130.1677547813
  30
0.0
  40
 69.999997913838
   0
MTEXT
   5
14A
 100
AcDbEntity
   8
LEVEL001
 370
13
  62
7
 100
AcDbMText
  10
 1142.6216211212
  20
 4130.1677547813
  30
0.0
  40
 66.000000000000
  41
0.0
  71
5
  72
1
   1
\T1.000000;５
   7
GMM002
  44
 0.79999984000003
   0
CIRCLE
   5
14B
 100
AcDbEntity
   8
LEVEL001
 370
13
 100
AcDbCircle
   6
CONTINUOUS
  62
1
  10
 1642.6216211212
  20
 4130.1677547813
  30
0.0
  40
 69.999997913838
   0
MTEXT
   5
14D
 100
AcDbEntity
   8
LEVEL001
 370
13
  62
7
 100
AcDbMText
  10
 1642.6216211212
  20
 4130.1677547813
  30
0.0
  40
 66.000000000000
  41
0.0
  71
5
  72
1
   1
\T1.000000;４
   7
GMM002
  44
 0.79999984000003
   0
CIRCLE
   5
14E
 100
AcDbEntity
   8
LEVEL001
 370
13
 100
AcDbCircle
   6
CONTINUOUS
  62
1
  10
 3017.6216211212
  20
 5005.1677547813
  30
0.0
  40
 69.999997913838
   0
MTEXT
   5
150
 100
AcDbEntity
   8
LEVEL001
 370
13
  62
7
 100
AcDbMText
  10
 3017.6216211212
  20
 5005.1677547813
  30
0.0
  40
 66.000000000000
  41
0.0
  71
5
  72
1
   1
\T1.000000;１２
   7
GMM002
  44
 0.79999984000003
   0
CIRCLE
   5
151
 100
AcDbEntity
   8
LEVEL001
 370
13
 100
AcDbCircle
   6
CONTINUOUS
  62
1
  10
 3142.6216211212
  20
 4005.1677547813
  30
0.0
  40
 69.999997913838
   0
MTEXT
   5
153
 100
AcDbEntity
   8
LEVEL001
 370
13
  62
7
 100
AcDbMText
  10
 3142.6216211212
  20
 4005.1677547813
  30
0.0
  40
 66.000000000000
  41
0.0
  71
5
  72
1
   1
\T1.000000;１４
   7
GMM002
  44
 0.79999984000003
   0
CIRCLE
   5
154
 100
AcDbEntity
   8
LEVEL001
 370
13
 100
AcDbCircle
   6
CONTINUOUS
  62
1
  10
 3282.6216169489
  20
 4005.1677547813
  30
0.0
  40
 69.999997913838
   0
MTEXT
   5
156
 100
AcDbEntity
   8
LEVEL001
 370
13
  62
7
 100
AcDbMText
  10
 3282.6216169489
  20
 4005.1677547813
  30
0.0
  40
 66.000000000000
  41
0.0
  71
5
  72
1
   1
\T1.000000;１５
   7
GMM002
  44
 0.79999984000003
   0
LEADER
   5
157
 100
AcDbEntity
   8
LEVEL001
 370
13
   6
CONTINUOUS
  62
1
 100
AcDbLeader
   3
GMM002
  73
3
  74
1
  75
0
  40
 66.000000000000
  41
0.0
  76
2
  10
 1385.9134256115
  20
 4251.8144207163
  30
0.0
  10
 1205.2314440125
  20
 4161.4728627584
  30
0.0
  77
1
   0
LEADER
   5
158
 100
AcDbEntity
   8
LEVEL001
 370
13
   6
CONTINUOUS
  62
1
 100
AcDbLeader
   3
GMM002
  73
3
  74
1
  75
0
  40
 66.000000000000
  41
0.0
  76
2
  10
 1561.4368214375
  20
 4292.5373541486
  30
0.0
  10
 1611.3166703691
  20
 4192.7776562854
  30
0.0
  77
1
   0
LEADER
   5
159
 100
AcDbEntity
   8
LEVEL001
 370
13
   6
CONTINUOUS
  62
1
 100
AcDbLeader
   3
GMM002
  73
3
  74
1
  75
0
  40
 66.000000000000
  41
0.0
  76
2
  10
 1642.6216211212
  20
 4505.1677547813
  30
0.0
  10
 2074.4768476418
  20
 4403.7133092743
  30
0.0
  77
1
   0
LEADER
   5
15A
 100
AcDbEntity
   8
LEVEL001
 370
13
   6
CONTINUOUS
  62
1
 100
AcDbLeader
   3
GMM002
  73
3
  74
1
  75
0
  40
 66.000000000000
  41
0.0
  76
2
  10
 2656.2689720616
  20
 4505.1677547813
  30
0.0
  10
 2210.8600293289
  20
 4403.3093698650
  30
0.0
  77
1
   0
LEADER
   5
15B
 100
AcDbEntity
   8
LEVEL001
 370
13
   6
CONTINUOUS
  62
1
 100
AcDbLeader
   3
GMM002
  73
3
  74
1
  75
0
  40
 66.000000000000
  41
0.0
  76
2
  10
 1600.3463163718
  20
 5005.1677547813
  30
0.0
  10
 2074.2826170968
  20
 5110.2931558514
  30
0.0
  77
1
   0
LEADER
   5
15C
 100
AcDbEntity
   8
LEVEL001
 370
13
   6
CONTINUOUS
  62
1
 100
AcDbLeader
   3
GMM002
  73
3
  74
1
  75
0
  40
 66.000000000000
  41
0.0
  76
2
  10
 2892.6216211212
  20
 4859.1677547813
  30
0.0
  10
 2972.0962267921
  20
 4951.9940942047
  30
0.0
  77
1
   0
CIRCLE
   5
15D
 100
AcDbEntity
   8
LEVEL001
 370
13
 100
AcDbCircle
   6
CONTINUOUS
  62
1
  10
 3892.6216211212
  20
 4130.1677547813
  30
0.0
  40
 69.999997913838
   0
MTEXT
   5
15F
 100
AcDbEntity
   8
LEVEL001
 370
13
  62
7
 100
AcDbMText
  10
 3892.6216211212
  20
 4130.1677547813
  30
0.0
  40
 66.000000000000
  41
0.0
  71
5
  72
1
   1
\T1.000000;２
   7
GMM002
  44
 0.79999984000003
   0
LEADER
   5
160
 100
AcDbEntity
   8
LEVEL001
 370
13
   6
CONTINUOUS
  62
1
 100
AcDbLeader
   3
GMM002
  73
3
  74
1
  75
0
  40
 66.000000000000
  41
0.0
  76
2
  10
 4017.6216211212
  20
 4380.1677547813
  30
0.0
  10
 3923.9265718732
  20
 4192.7776562854
  30
0.0
  77
1
   0
CIRCLE
   5
161
 100
AcDbEntity
   8
LEVEL001
 370
13
 100
AcDbCircle
   6
CONTINUOUS
  62
1
  10
 3142.6216211212
  20
 4880.1677547813
  30
0.0
  40
 69.999997913838
   0
MTEXT
   5
163
 100
AcDbEntity
   8
LEVEL001
 370
13
  62
7
 100
AcDbMText
  10
 3142.6216211212
  20
 4880.1677547813
  30
0.0
  40
 66.000000000000
  41
0.0
  71
5
  72
1
   1
\T1.000000;７
   7
GMM002
  44
 0.79999984000003
   0
CIRCLE
   5
164
 100
AcDbEntity
   8
LEVEL001
 370
13
 100
AcDbCircle
   6
CONTINUOUS
  62
1
  10
 3282.6216169489
  20
 4880.1677547813
  30
0.0
  40
 69.999997913838
   0
MTEXT
   5
166
 100
AcDbEntity
   8
LEVEL001
 370
13
  62
7
 100
AcDbMText
  10
 3282.6216169489
  20
 4880.1677547813
  30
0.0
  40
 66.000000000000
  41
0.0
  71
5
  72
1
   1
\T1.000000;９
   7
GMM002
  44
 0.79999984000003
   0
CIRCLE
   5
167
 100
AcDbEntity
   8
LEVEL001
 370
13
 100
AcDbCircle
   6
CONTINUOUS
  62
1
  10
 2892.6216211212
  20
 5161.4177547813
  30
0.0
  40
 69.999997913838
   0
MTEXT
   5
169
 100
AcDbEntity
   8
LEVEL001
 370
13
  62
7
 100
AcDbMText
  10
 2892.6216211212
  20
 5161.4177547813
  30
0.0
  40
 66.000000000000
  41
0.0
  71
5
  72
1
   1
\T1.000000;６
   7
GMM002
  44
 0.79999984000003
   0
CIRCLE
   5
16A
 100
AcDbEntity
   8
LEVEL001
 370
13
 100
AcDbCircle
   6
CONTINUOUS
  62
1
  10
 3032.6216169489
  20
 5161.4177547813
  30
0.0
  40
 69.999997913838
   0
MTEXT
   5
16C
 100
AcDbEntity
   8
LEVEL001
 370
13
  62
7
 100
AcDbMText
  10
 3032.6216169489
  20
 5161.4177547813
  30
0.0
  40
 66.000000000000
  41
0.0
  71
5
  72
1
   1
\T1.000000;８
   7
GMM002
  44
 0.79999984000003
   0
LEADER
   5
16D
 100
AcDbEntity
   8
LEVEL001
 370
13
   6
CONTINUOUS
  62
1
 100
AcDbLeader
   3
GMM002
  73
3
  74
1
  75
0
  40
 66.000000000000
  41
0.0
  76
2
  10
 2968.8049760880
  20
 4710.1685393258
  30
0.0
  10
 3092.5776560085
  20
 4831.2228749292
  30
0.0
  77
1
   0
LEADER
   5
16E
 100
AcDbEntity
   8
LEVEL001
 370
13
   6
CONTINUOUS
  62
1
 100
AcDbLeader
   3
GMM002
  73
3
  74
1
  75
0
  40
 66.000000000000
  41
0.0
  76
2
  10
 2767.6216211212
  20
 4710.1685393258
  30
0.0
  10
 2873.9347154730
  20
 5093.9581426772
  30
0.0
  77
1
   0
DIMENSION
   5
16F
 100
AcDbEntity
   8
LEVEL001
 370
13
   6
CONTINUOUS
  62
6
 100
AcDbDimension
   2
*D11
  10
 642.62162112118
  20
 855.16775478133
  30
0.0
  11
 642.62162112118
  21
 805.16775478133
  31
0.0
  70
0
   3
GMM003
 100
AcDbAlignedDimension
  13
 1142.6216211212
  23
 755.16775478133
  33
0.0
  14
 1142.6216211212
  24
 855.16775478133
  34
0.0
  50
 90.000000000000
 100
AcDbRotatedDimension
   0
DIMENSION
   5
170
 100
AcDbEntity
   8
LEVEL001
 370
13
   6
CONTINUOUS
  62
6
 100
AcDbDimension
   2
*D12
  10
 642.62162112118
  20
 1755.1677547813
  30
0.0
  11
 642.62162112118
  21
 1305.1677547813
  31
0.0
  70
0
   3
GMM003
 100
AcDbAlignedDimension
  13
 1142.6216211212
  23
 855.16775478133
  33
0.0
  14
 892.62162112118
  24
 1755.1677547813
  34
0.0
  50
 90.000000000000
 100
AcDbRotatedDimension
   0
DIMENSION
   5
171
 100
AcDbEntity
   8
LEVEL001
 370
13
   6
CONTINUOUS
  62
6
 100
AcDbDimension
   2
*D13
  10
 642.62162112118
  20
 4255.1685395397
  30
0.0
  11
 642.62162112118
  21
 3005.1681471605
  31
0.0
  70
0
   1
\A1;2500(標準設置高さ)
   3
GMM004
 100
AcDbAlignedDimension
  13
 892.62162112118
  23
 1755.1677547813
  33
0.0
  14
 1392.6216211211
  24
 4255.1685395397
  34
0.0
  50
 90.000000000000
 100
AcDbRotatedDimension
   0
LWPOLYLINE
   5
172
 100
AcDbEntity
   8
LEVEL001
 370
13
   6
CONTINUOUS
  62
3
 100
AcDbPolyline
  90
5
  70
0
  10
 2720.6207730991
  20
 5058.9185393258
  10
 2660.6207730991
  20
 5058.9185393258
  10
 2660.6207730991
  20
 4822.2040165355
  10
 2700.6207730991
  20
 4765.9640049246
  10
 2720.6207730991
  20
 4765.9640049246
   0
LWPOLYLINE
   5
173
 100
AcDbEntity
   8
LEVEL001
 370
13
   6
CONTINUOUS
  62
7
 100
AcDbPolyline
  90
4
  70
0
  10
 2720.6205934556
  20
 5058.9185393258
  10
 2720.6205934556
  20
 4255.1685393954
  10
 2695.6205934556
  20
 4255.1685393954
  10
 2695.6205934556
  20
 4772.9942589548
   0
ARC
   5
174
 100
AcDbEntity
   8
LEVEL001
 370
13
   6
DOT
  62
2
 100
AcDbCircle
  10
 4423.0109587685
  20
 4655.1706837690
  30
0.0
  40
 1773.0981603475
 100
AcDbArc
  50
 166.96221629918
  51
 173.69995409002
   0
LINE
   5
175
 100
AcDbEntity
   8
LEVEL001
 370
13
 100
AcDbLine
   6
DOT
  62
2
  10
 2695.6205934556
  20
 4772.9942589548
  30
0.0
  11
 2695.6205934556
  21
 5055.1701988335
  31
0.0
   0
ARC
   5
176
 100
AcDbEntity
   8
LEVEL001
 370
13
   6
CONTINUOUS
  62
7
 100
AcDbCircle
  10
 4423.0108464915
  20
 4655.1685393258
  30
0.0
  40
 1773.0981603475
 100
AcDbArc
  50
 173.69988481498
  51
 193.03779978333
   0
LEADER
   5
177
 100
AcDbEntity
   8
LEVEL001
 370
13
   6
CONTINUOUS
  62
1
 100
AcDbLeader
   3
GMM005
  73
3
  74
1
  75
0
  40
 66.000000000000
  41
0.0
  76
2
  10
 2660.6207730991
  20
 5005.1677547813
  30
0.0
  10
 2209.8760382889
  20
 5106.0392131267
  30
0.0
  77
1
   0
ARC
   5
178
 100
AcDbEntity
   8
LEVEL001
 370
13
   6
CONTINUOUS
  62
2
 100
AcDbCircle
  10
 3978.0156670878
  20
 4713.2835386975
  30
0.0
  40
 29.925185329180
 100
AcDbArc
  50
 274.14136530443
  51
 340.55392640748
   0
LINE
   5
179
 100
AcDbEntity
   8
LEVEL001
 370
13
 100
AcDbLine
   6
CONTINUOUS
  62
2
  10
 3980.1767903187
  20
 4683.4364908809
  30
0.0
  11
 3795.9054235858
  21
 4670.0921669054
  31
0.0
   0
LINE
   5
17A
 100
AcDbEntity
   8
LEVEL001
 370
13
 100
AcDbLine
   6
CONTINUOUS
  62
2
  10
 3980.1767903187
  20
 4626.9018054297
  30
0.0
  11
 3795.9054235858
  21
 4640.2449117463
  31
0.0
   0
ARC
   5
17B
 100
AcDbEntity
   8
LEVEL001
 370
13
   6
CONTINUOUS
  62
2
 100
AcDbCircle
  10
 3978.0156670878
  20
 4597.0547576131
  30
0.0
  40
 29.925185329180
 100
AcDbArc
  50
 19.446073592524
  51
 85.858634695571
   0
ARC
   5
17C
 100
AcDbEntity
   8
LEVEL001
 370
13
   6
CONTINUOUS
  62
2
 100
AcDbCircle
  10
 4142.6215960682
  20
 4655.1694891578
  30
0.0
  40
 144.63836721882
 100
AcDbArc
  50
 199.44570402826
  51
 220.55442164438
   0
ARC
   5
17D
 100
AcDbEntity
   8
LEVEL001
 370
13
   6
CONTINUOUS
  62
2
 100
AcDbCircle
  10
 4142.6215960682
  20
 4655.1688071528
  30
0.0
  40
 144.63836721882
 100
AcDbArc
  50
 139.44557835562
  51
 160.55429597174
   0
CIRCLE
   5
17E
 100
AcDbEntity
   8
LEVEL001
 370
13
 100
AcDbCircle
   6
CONTINUOUS
  62
2
  10
 4142.6216211212
  20
 4655.1685393258
  30
0.0
  40
 124.68827220492
   0
ARC
   5
17F
 100
AcDbEntity
   8
LEVEL001
 370
13
   6
CONTINUOUS
  62
2
 100
AcDbCircle
  10
 3796.9847832567
  20
 4655.1685393258
  30
0.0
  40
 14.962609312270
 100
AcDbArc
  50
 94.136746090312
  51
 265.86325390969
   0
LINE
   5
180
 100
AcDbEntity
   8
LEVEL001
 370
13
 100
AcDbLine
   6
CONTINUOUS
  62
6
  10
 3981.2574625997
  20
 4641.8254330092
  30
0.0
  11
 3826.2336540136
  21
 4653.0510304844
  31
0.0
   0
LINE
   5
181
 100
AcDbEntity
   8
LEVEL001
 370
13
 100
AcDbLine
   6
CONTINUOUS
  62
6
  10
 3981.2574625997
  20
 4668.5128633014
  30
0.0
  11
 3826.2336540136
  21
 4657.2872658262
  31
0.0
   0
LINE
   5
182
 100
AcDbEntity
   8
LEVEL001
 370
13
 100
AcDbLine
   6
CONTINUOUS
  62
6
  10
 4008.1263240692
  20
 4675.4157716522
  30
0.0
  11
 4001.0824716997
  21
 4684.9500409038
  31
0.0
   0
LINE
   5
183
 100
AcDbEntity
   8
LEVEL001
 370
13
 100
AcDbLine
   6
CONTINUOUS
  62
6
  10
 4001.0824716997
  20
 4625.3882554067
  30
0.0
  11
 4008.1257152398
  21
 4634.9213069994
  31
0.0
   0
ARC
   5
184
 100
AcDbEntity
   8
LEVEL001
 370
13
   6
CONTINUOUS
  62
2
 100
AcDbCircle
  10
 4009.9904099975
  20
 4541.6732233204
  30
0.0
  40
 29.925185329180
 100
AcDbArc
  50
 334.14054601454
  51
 40.555122017427
   0
LINE
   5
185
 100
AcDbEntity
   8
LEVEL001
 370
13
 100
AcDbLine
   6
CONTINUOUS
  62
2
  10
 4036.9190866137
  20
 4528.6209019680
  30
0.0
  11
 3956.3392907013
  21
 4362.3654076121
  31
0.0
   0
ARC
   5
186
 100
AcDbEntity
   8
LEVEL001
 370
13
   6
CONTINUOUS
  62
2
 100
AcDbCircle
  10
 3969.8040190089
  20
 4355.8400134451
  30
0.0
  40
 14.962609312270
 100
AcDbArc
  50
 154.14383864624
  51
 325.85554262844
   0
LINE
   5
187
 100
AcDbEntity
   8
LEVEL001
 370
13
 100
AcDbLine
   6
CONTINUOUS
  62
2
  10
 4085.8793248261
  20
 4500.3541680719
  30
0.0
  11
 3982.1874495909
  21
 4347.4417800326
  31
0.0
   0
ARC
   5
188
 100
AcDbEntity
   8
LEVEL001
 370
13
   6
CONTINUOUS
  62
2
 100
AcDbCircle
  10
 4110.6468738381
  20
 4483.5587748665
  30
0.0
  40
 29.925185329180
 100
AcDbArc
  50
 79.445274345877
  51
 145.85798307978
   0
ARC
   5
189
 100
AcDbEntity
   8
LEVEL001
 370
13
   6
CONTINUOUS
  62
2
 100
AcDbCircle
  10
 4142.6216211212
  20
 4655.1689418561
  30
0.0
  40
 144.63836721882
 100
AcDbArc
  50
 259.44562091362
  51
 280.55437908638
   0
LINE
   5
18A
 100
AcDbEntity
   8
LEVEL001
 370
13
 100
AcDbLine
   6
CONTINUOUS
  62
6
  10
 4073.4954293145
  20
 4508.7511439032
  30
0.0
  11
 3986.2617362979
  21
 4380.1103508821
  31
0.0
   0
LINE
   5
18B
 100
AcDbEntity
   8
LEVEL001
 370
13
 100
AcDbLine
   6
CONTINUOUS
  62
6
  10
 4050.3836544064
  20
 4522.0954678787
  30
0.0
  11
 3982.5935388368
  21
 4382.2278597235
  31
0.0
   0
LINE
   5
18C
 100
AcDbEntity
   8
LEVEL001
 370
13
 100
AcDbLine
   6
CONTINUOUS
  62
6
  10
 4046.0609652821
  20
 4547.4824384568
  30
0.0
  11
 4057.8393799017
  21
 4548.8157749614
  31
0.0
   0
LINE
   5
18D
 100
AcDbEntity
   8
LEVEL001
 370
13
 100
AcDbLine
   6
CONTINUOUS
  62
6
  10
 4092.9082608740
  20
 4528.5697602939
  30
0.0
  11
 4097.6431275388
  21
 4517.7021545377
  31
0.0
   0
ARC
   5
18E
 100
AcDbEntity
   8
LEVEL001
 370
13
   6
CONTINUOUS
  62
2
 100
AcDbCircle
  10
 4142.6216461742
  20
 4655.1694891578
  30
0.0
  40
 144.63836721882
 100
AcDbArc
  50
 319.44557835562
  51
 340.55429597174
   0
ARC
   5
18F
 100
AcDbEntity
   8
LEVEL001
 370
13
   6
CONTINUOUS
  62
2
 100
AcDbCircle
  10
 4275.2528322448
  20
 4541.6732233204
  30
0.0
  40
 29.925185329180
 100
AcDbArc
  50
 139.44487798257
  51
 205.85945398546
   0
LINE
   5
190
 100
AcDbEntity
   8
LEVEL001
 370
13
 100
AcDbLine
   6
CONTINUOUS
  62
2
  10
 4248.3241556286
  20
 4528.6209019680
  30
0.0
  11
 4328.9039515411
  21
 4362.3654076121
  31
0.0
   0
ARC
   5
191
 100
AcDbEntity
   8
LEVEL001
 370
13
   6
CONTINUOUS
  62
2
 100
AcDbCircle
  10
 4315.4392232335
  20
 4355.8400134451
  30
0.0
  40
 14.962609312270
 100
AcDbArc
  50
 214.14445737158
  51
 25.856161353738
   0
LINE
   5
192
 100
AcDbEntity
   8
LEVEL001
 370
13
 100
AcDbLine
   6
CONTINUOUS
  62
2
  10
 4199.3639174162
  20
 4500.3541680719
  30
0.0
  11
 4303.0557926514
  21
 4347.4417800326
  31
0.0
   0
ARC
   5
193
 100
AcDbEntity
   8
LEVEL001
 370
13
   6
CONTINUOUS
  62
2
 100
AcDbCircle
  10
 4174.5963684042
  20
 4483.5587748665
  30
0.0
  40
 29.925185329180
 100
AcDbArc
  50
 34.142016920223
  51
 100.55472565412
   0
LINE
   5
194
 100
AcDbEntity
   8
LEVEL001
 370
13
 100
AcDbLine
   6
CONTINUOUS
  62
6
  10
 4234.8595878359
  20
 4522.0954678787
  30
0.0
  11
 4302.6497034055
  21
 4382.2278597235
  31
0.0
   0
LINE
   5
195
 100
AcDbEntity
   8
LEVEL001
 370
13
 100
AcDbLine
   6
CONTINUOUS
  62
6
  10
 4211.7478129279
  20
 4508.7511439032
  30
0.0
  11
 4298.9815059444
  21
 4380.1103508821
  31
0.0
   0
LINE
   5
196
 100
AcDbEntity
   8
LEVEL001
 370
13
 100
AcDbLine
   6
CONTINUOUS
  62
6
  10
 4192.3349813684
  20
 4528.5697602939
  30
0.0
  11
 4187.6001147036
  21
 4517.7021545377
  31
0.0
   0
LINE
   5
197
 100
AcDbEntity
   8
LEVEL001
 370
13
 100
AcDbLine
   6
CONTINUOUS
  62
6
  10
 4239.1822769602
  20
 4547.4824384568
  30
0.0
  11
 4227.4038623407
  21
 4548.8157749614
  31
0.0
   0
ARC
   5
198
 100
AcDbEntity
   8
LEVEL001
 370
13
   6
CONTINUOUS
  62
2
 100
AcDbCircle
  10
 4142.6216461742
  20
 4655.1688071528
  30
0.0
  40
 144.63836721882
 100
AcDbArc
  50
 19.445704028260
  51
 40.554421644382
   0
ARC
   5
199
 100
AcDbEntity
   8
LEVEL001
 370
13
   6
CONTINUOUS
  62
2
 100
AcDbCircle
  10
 4307.2275751545
  20
 4713.2835386975
  30
0.0
  40
 29.925185329180
 100
AcDbArc
  50
 199.44607359252
  51
 265.85863469557
   0
LINE
   5
19A
 100
AcDbEntity
   8
LEVEL001
 370
13
 100
AcDbLine
   6
CONTINUOUS
  62
2
  10
 4305.0664519237
  20
 4683.4364908809
  30
0.0
  11
 4489.3381230713
  21
 4670.0921669054
  31
0.0
   0
LINE
   5
19B
 100
AcDbEntity
   8
LEVEL001
 370
13
 100
AcDbLine
   6
CONTINUOUS
  62
2
  10
 4305.0664519237
  20
 4626.9018054297
  30
0.0
  11
 4489.3381230713
  21
 4640.2449117463
  31
0.0
   0
ARC
   5
19C
 100
AcDbEntity
   8
LEVEL001
 370
13
   6
CONTINUOUS
  62
2
 100
AcDbCircle
  10
 4307.2275751545
  20
 4597.0547576131
  30
0.0
  40
 29.925185329180
 100
AcDbArc
  50
 94.141365304432
  51
 160.55392640748
   0
ARC
   5
19D
 100
AcDbEntity
   8
LEVEL001
 370
13
   6
CONTINUOUS
  62
2
 100
AcDbCircle
  10
 4488.2587634004
  20
 4655.1685393258
  30
0.0
  40
 14.962609312270
 100
AcDbArc
  50
 274.13674609031
  51
 85.863253909687
   0
LINE
   5
19E
 100
AcDbEntity
   8
LEVEL001
 370
13
 100
AcDbLine
   6
CONTINUOUS
  62
6
  10
 4303.9857796426
  20
 4668.5128633014
  30
0.0
  11
 4459.0095882288
  21
 4657.2872658262
  31
0.0
   0
LINE
   5
19F
 100
AcDbEntity
   8
LEVEL001
 370
13
 100
AcDbLine
   6
CONTINUOUS
  62
6
  10
 4303.9857796426
  20
 4641.8254330092
  30
0.0
  11
 4459.0095882288
  21
 4653.0510304844
  31
0.0
   0
LINE
   5
1A0
 100
AcDbEntity
   8
LEVEL001
 370
13
 100
AcDbLine
   6
CONTINUOUS
  62
6
  10
 4284.1607705427
  20
 4625.3882554067
  30
0.0
  11
 4277.1175270026
  21
 4634.9213069994
  31
0.0
   0
LINE
   5
1A1
 100
AcDbEntity
   8
LEVEL001
 370
13
 100
AcDbLine
   6
CONTINUOUS
  62
6
  10
 4277.1169181732
  20
 4675.4157716522
  30
0.0
  11
 4284.1607705427
  21
 4684.9500409038
  31
0.0
   0
ARC
   5
1A2
 100
AcDbEntity
   8
LEVEL001
 370
13
   6
CONTINUOUS
  62
2
 100
AcDbCircle
  10
 4174.5963684042
  20
 4826.7795214441
  30
0.0
  40
 29.925185329180
 100
AcDbArc
  50
 259.44527434588
  51
 325.85798307978
   0
LINE
   5
1A3
 100
AcDbEntity
   8
LEVEL001
 370
13
 100
AcDbLine
   6
CONTINUOUS
  62
2
  10
 4199.3639174162
  20
 4809.9841282387
  30
0.0
  11
 4303.0557926514
  21
 4962.8965162780
  31
0.0
   0
LINE
   5
1A4
 100
AcDbEntity
   8
LEVEL001
 370
13
 100
AcDbLine
   6
CONTINUOUS
  62
2
  10
 4248.3241556286
  20
 4781.7161766837
  30
0.0
  11
 4328.9039515411
  21
 4947.9728886985
  31
0.0
   0
ARC
   5
1A5
 100
AcDbEntity
   8
LEVEL001
 370
13
   6
CONTINUOUS
  62
2
 100
AcDbCircle
  10
 4275.2532090187
  20
 4768.6646326945
  30
0.0
  40
 29.925185329180
 100
AcDbArc
  50
 154.14219998810
  51
 220.55401248931
   0
ARC
   5
1A6
 100
AcDbEntity
   8
LEVEL001
 370
13
   6
CONTINUOUS
  62
2
 100
AcDbCircle
  10
 4315.4392232335
  20
 4954.4982828655
  30
0.0
  40
 14.962609312270
 100
AcDbArc
  50
 334.14383864624
  51
 145.85554262844
   0
ARC
   5
1A7
 100
AcDbEntity
   8
LEVEL001
 370
13
   6
CONTINUOUS
  62
2
 100
AcDbCircle
  10
 4142.6216211212
  20
 4655.1693544545
  30
0.0
  40
 144.63836721882
 100
AcDbArc
  50
 79.445620913618
  51
 100.55437908638
   0
LINE
   5
1A8
 100
AcDbEntity
   8
LEVEL001
 370
13
 100
AcDbLine
   6
CONTINUOUS
  62
6
  10
 4211.7478129279
  20
 4801.5859347485
  30
0.0
  11
 4298.9812015297
  21
 4930.2279454285
  31
0.0
   0
LINE
   5
1A9
 100
AcDbEntity
   8
LEVEL001
 370
13
 100
AcDbLine
   6
CONTINUOUS
  62
6
  10
 4234.8595878359
  20
 4788.2428284319
  30
0.0
  11
 4302.6497034055
  21
 4928.1104365871
  31
0.0
   0
LINE
   5
1AA
 100
AcDbEntity
   8
LEVEL001
 370
13
 100
AcDbLine
   6
CONTINUOUS
  62
6
  10
 4227.4038623407
  20
 4761.5225213492
  30
0.0
  11
 4239.1822769602
  21
 4762.8546401948
  31
0.0
   0
LINE
   5
1AB
 100
AcDbEntity
   8
LEVEL001
 370
13
 100
AcDbLine
   6
CONTINUOUS
  62
6
  10
 4187.6001147036
  20
 4792.6361417729
  30
0.0
  11
 4192.3349813684
  21
 4781.7697536756
  31
0.0
   0
ARC
   5
1AC
 100
AcDbEntity
   8
LEVEL001
 370
13
   6
CONTINUOUS
  62
2
 100
AcDbCircle
  10
 4110.6468738381
  20
 4826.7795214441
  30
0.0
  40
 29.925185329180
 100
AcDbArc
  50
 214.14201692022
  51
 280.55472565412
   0
LINE
   5
1AD
 100
AcDbEntity
   8
LEVEL001
 370
13
 100
AcDbLine
   6
CONTINUOUS
  62
2
  10
 4085.8793248261
  20
 4809.9841282387
  30
0.0
  11
 3982.1874495909
  21
 4962.8965162780
  31
0.0
   0
LINE
   5
1AE
 100
AcDbEntity
   8
LEVEL001
 370
13
 100
AcDbLine
   6
CONTINUOUS
  62
2
  10
 4036.9190866137
  20
 4781.7161766837
  30
0.0
  11
 3956.3392907013
  21
 4947.9728886985
  31
0.0
   0
ARC
   5
1AF
 100
AcDbEntity
   8
LEVEL001
 370
13
   6
CONTINUOUS
  62
2
 100
AcDbCircle
  10
 4009.9900332237
  20
 4768.6646326945
  30
0.0
  40
 29.925185329180
 100
AcDbArc
  50
 319.44598751069
  51
 25.857800011898
   0
ARC
   5
1B0
 100
AcDbEntity
   8
LEVEL001
 370
13
   6
CONTINUOUS
  62
2
 100
AcDbCircle
  10
 3969.8040190089
  20
 4954.4982828655
  30
0.0
  40
 14.962609312270
 100
AcDbArc
  50
 34.144457371535
  51
 205.85616135379
   0
LINE
   5
1B1
 100
AcDbEntity
   8
LEVEL001
 370
13
 100
AcDbLine
   6
CONTINUOUS
  62
6
  10
 4050.3836544064
  20
 4788.2428284319
  30
0.0
  11
 3982.5935388368
  21
 4928.1104365871
  31
0.0
   0
LINE
   5
1B2
 100
AcDbEntity
   8
LEVEL001
 370
13
 100
AcDbLine
   6
CONTINUOUS
  62
6
  10
 4073.4954293145
  20
 4801.5859347485
  30
0.0
  11
 3986.2620407127
  21
 4930.2279454285
  31
0.0
   0
LINE
   5
1B3
 100
AcDbEntity
   8
LEVEL001
 370
13
 100
AcDbLine
   6
CONTINUOUS
  62
6
  10
 4097.6431275388
  20
 4792.6361417729
  30
0.0
  11
 4092.9082608740
  21
 4781.7697536756
  31
0.0
   0
LINE
   5
1B4
 100
AcDbEntity
   8
LEVEL001
 370
13
 100
AcDbLine
   6
CONTINUOUS
  62
6
  10
 4057.8393799017
  20
 4761.5225213492
  30
0.0
  11
 4046.0609652821
  21
 4762.8546401948
  31
0.0
   0
LWPOLYLINE
   5
1B5
 100
AcDbEntity
   8
LEVEL001
 370
13
   6
DOT
  62
6
 100
AcDbPolyline
  90
4
  70
0
  10
 2925.7716211212
  20
 4856.1677547813
  10
 2925.7716211212
  20
 4829.1677547813
  10
 2859.4716211212
  20
 4829.1677547813
  10
 2859.4716211212
  20
 4856.1677547813
   0
LWPOLYLINE
   5
1B6
 100
AcDbEntity
   8
LEVEL001
 370
13
   6
CONTINUOUS
  62
1
 100
AcDbPolyline
  90
4
  70
1
  10
 2930.7716211212
  20
 4859.1677547813
  10
 2854.4716211212
  20
 4859.1677547813
  10
 2854.4716211212
  20
 4856.1677547813
  10
 2930.7716211212
  20
 4856.1677547813
   0
LINE
   5
1B7
 100
AcDbEntity
   8
LEVEL001
 370
13
 100
AcDbLine
   6
DASHDOT
  62
6
  10
 1392.6216211212
  20
 5105.1685393258
  30
0.0
  11
 1392.6216211212
  21
 755.16775478133
  31
0.0
   0
LINE
   5
1B8
 100
AcDbEntity
   8
LEVEL001
 370
13
 100
AcDbLine
   6
DASHDOT
  62
6
  10
 2892.6216211212
  20
 4911.3637990837
  30
0.0
  11
 2892.6216211212
  21
 755.16775478133
  31
0.0
   0
LINE
   5
1B9
 100
AcDbEntity
   8
LEVEL001
 370
13
 100
AcDbLine
   6
CONTINUOUS
  62
5
  10
 1695.1215558862
  20
 1755.1677547813
  30
0.0
  11
 1642.6215558862
  21
 1702.6677547813
  31
0.0
   0
LINE
   5
1BA
 100
AcDbEntity
   8
LEVEL001
 370
13
 100
AcDbLine
   6
CONTINUOUS
  62
5
  10
 1658.5314584623
  20
 1702.6677547813
  30
0.0
  11
 1711.0314584623
  21
 1755.1677547813
  31
0.0
   0
LINE
   5
1BB
 100
AcDbEntity
   8
LEVEL001
 370
13
 100
AcDbLine
   6
CONTINUOUS
  62
5
  10
 1726.9413610399
  20
 1755.1677547813
  30
0.0
  11
 1674.4413610399
  21
 1702.6677547813
  31
0.0
   0
LINE
   5
1BC
 100
AcDbEntity
   8
LEVEL001
 370
13
 100
AcDbLine
   6
CONTINUOUS
  62
5
  10
 1690.3512636159
  20
 1702.6677547813
  30
0.0
  11
 1742.8512636159
  21
 1755.1677547813
  31
0.0
   0
LINE
   5
1BD
 100
AcDbEntity
   8
LEVEL001
 370
13
 100
AcDbLine
   6
CONTINUOUS
  62
5
  10
 1747.6215558865
  20
 1702.6677547813
  30
0.0
  11
 1718.9864097512
  21
 1731.3029009166
  31
0.0
   0
LINE
   5
1BE
 100
AcDbEntity
   8
LEVEL001
 370
13
 100
AcDbLine
   6
CONTINUOUS
  62
5
  10
 1726.9413610394
  20
 1739.2578522048
  30
0.0
  11
 1763.5314584629
  21
 1702.6677547813
  31
0.0
   0
LINE
   5
1BF
 100
AcDbEntity
   8
LEVEL001
 370
13
 100
AcDbLine
   6
CONTINUOUS
  62
5
  10
 1779.4413610394
  20
 1702.6677547813
  30
0.0
  11
 1734.8963123276
  21
 1747.2128034931
  31
0.0
   0
LINE
   5
1C0
 100
AcDbEntity
   8
LEVEL001
 370
13
 100
AcDbLine
   6
CONTINUOUS
  62
5
  10
 1742.8512636159
  20
 1755.1677547813
  30
0.0
  11
 1795.3512636161
  21
 1702.6677547813
  31
0.0
   0
LINE
   5
1C1
 100
AcDbEntity
   8
LEVEL001
 370
13
 100
AcDbLine
   6
CONTINUOUS
  62
5
  10
 1795.3512636161
  20
 1702.6677547813
  30
0.0
  11
 1847.8512636161
  21
 1755.1677547813
  31
0.0
   0
LINE
   5
1C2
 100
AcDbEntity
   8
LEVEL001
 370
13
 100
AcDbLine
   6
CONTINUOUS
  62
5
  10
 1800.1215558864
  20
 1755.1677547813
  30
0.0
  11
 1771.4864097512
  21
 1726.5326086461
  31
0.0
   0
LINE
   5
1C3
 100
AcDbEntity
   8
LEVEL001
 370
13
 100
AcDbLine
   6
CONTINUOUS
  62
5
  10
 1779.4413610392
  20
 1718.5776573581
  30
0.0
  11
 1816.0314584624
  21
 1755.1677547813
  31
0.0
   0
LINE
   5
1C4
 100
AcDbEntity
   8
LEVEL001
 370
13
 100
AcDbLine
   6
CONTINUOUS
  62
5
  10
 1831.9413610401
  20
 1755.1677547813
  30
0.0
  11
 1787.3963123281
  21
 1710.6227060693
  31
0.0
   0
LINE
   5
1C5
 100
AcDbEntity
   8
LEVEL001
 370
13
 100
AcDbLine
   6
CONTINUOUS
  62
5
  10
 1852.6215558867
  20
 1702.6677547813
  30
0.0
  11
 1823.9864097514
  21
 1731.3029009166
  31
0.0
   0
LINE
   5
1C6
 100
AcDbEntity
   8
LEVEL001
 370
13
 100
AcDbLine
   6
CONTINUOUS
  62
5
  10
 1831.9413610396
  20
 1739.2578522048
  30
0.0
  11
 1868.5314584631
  21
 1702.6677547813
  31
0.0
   0
LINE
   5
1C7
 100
AcDbEntity
   8
LEVEL001
 370
13
 100
AcDbLine
   6
CONTINUOUS
  62
5
  10
 1884.4413610395
  20
 1702.6677547813
  30
0.0
  11
 1839.8963123278
  21
 1747.2128034931
  31
0.0
   0
LINE
   5
1C8
 100
AcDbEntity
   8
LEVEL001
 370
13
 100
AcDbLine
   6
CONTINUOUS
  62
5
  10
 1847.8512636161
  20
 1755.1677547813
  30
0.0
  11
 1900.3512636163
  21
 1702.6677547813
  31
0.0
   0
LINE
   5
1C9
 100
AcDbEntity
   8
LEVEL001
 370
13
 100
AcDbLine
   6
CONTINUOUS
  62
5
  10
 1037.6215558860
  20
 1702.6677547813
  30
0.0
  11
 1090.1215558860
  21
 1755.1677547813
  31
0.0
   0
LINE
   5
1CA
 100
AcDbEntity
   8
LEVEL001
 370
13
 100
AcDbLine
   6
CONTINUOUS
  62
5
  10
 1021.7116533092
  20
 1718.5776573581
  30
0.0
  11
 1058.3017507324
  21
 1755.1677547813
  31
0.0
   0
LINE
   5
1CB
 100
AcDbEntity
   8
LEVEL001
 370
13
 100
AcDbLine
   6
CONTINUOUS
  62
5
  10
 1074.2116533100
  20
 1755.1677547813
  30
0.0
  11
 1029.6666045980
  21
 1710.6227060693
  31
0.0
   0
LINE
   5
1CC
 100
AcDbEntity
   8
LEVEL001
 370
13
 100
AcDbLine
   6
CONTINUOUS
  62
5
  10
 1094.8918481566
  20
 1702.6677547813
  30
0.0
  11
 1066.2567020213
  21
 1731.3029009166
  31
0.0
   0
LINE
   5
1CD
 100
AcDbEntity
   8
LEVEL001
 370
13
 100
AcDbLine
   6
CONTINUOUS
  62
5
  10
 1074.2116533095
  20
 1739.2578522048
  30
0.0
  11
 1110.8017507331
  21
 1702.6677547813
  31
0.0
   0
LINE
   5
1CE
 100
AcDbEntity
   8
LEVEL001
 370
13
 100
AcDbLine
   6
CONTINUOUS
  62
5
  10
 1126.7116533095
  20
 1702.6677547813
  30
0.0
  11
 1082.1666045978
  21
 1747.2128034931
  31
0.0
   0
LINE
   5
1CF
 100
AcDbEntity
   8
LEVEL001
 370
13
 100
AcDbLine
   6
CONTINUOUS
  62
5
  10
 1090.1215558860
  20
 1755.1677547813
  30
0.0
  11
 1142.6215558862
  21
 1702.6677547813
  31
0.0
   0
LINE
   5
1D0
 100
AcDbEntity
   8
LEVEL001
 370
13
 100
AcDbLine
   6
CONTINUOUS
  62
5
  10
 937.39184815617
  20
 1755.1677547813
  30
0.0
  11
 884.89184815617
  21
 1702.6677547813
  31
0.0
   0
LINE
   5
1D1
 100
AcDbEntity
   8
LEVEL001
 370
13
 100
AcDbLine
   6
CONTINUOUS
  62
5
  10
 900.80175073221
  20
 1702.6677547813
  30
0.0
  11
 953.30175073221
  21
 1755.1677547813
  31
0.0
   0
LINE
   5
1D2
 100
AcDbEntity
   8
LEVEL001
 370
13
 100
AcDbLine
   6
CONTINUOUS
  62
5
  10
 969.21165330981
  20
 1755.1677547813
  30
0.0
  11
 916.71165330981
  21
 1702.6677547813
  31
0.0
   0
LINE
   5
1D3
 100
AcDbEntity
   8
LEVEL001
 370
13
 100
AcDbLine
   6
CONTINUOUS
  62
5
  10
 932.62155588585
  20
 1702.6677547813
  30
0.0
  11
 985.12155588585
  21
 1755.1677547813
  31
0.0
   0
LINE
   5
1D4
 100
AcDbEntity
   8
LEVEL001
 370
13
 100
AcDbLine
   6
CONTINUOUS
  62
5
  10
 989.89184815644
  20
 1702.6677547813
  30
0.0
  11
 961.25670202114
  21
 1731.3029009166
  31
0.0
   0
LINE
   5
1D5
 100
AcDbEntity
   8
LEVEL001
 370
13
 100
AcDbLine
   6
CONTINUOUS
  62
5
  10
 969.21165330936
  20
 1739.2578522048
  30
0.0
  11
 1005.8017507329
  21
 1702.6677547813
  31
0.0
   0
LINE
   5
1D6
 100
AcDbEntity
   8
LEVEL001
 370
13
 100
AcDbLine
   6
CONTINUOUS
  62
5
  10
 1021.7116533093
  20
 1702.6677547813
  30
0.0
  11
 977.16660459758
  21
 1747.2128034931
  31
0.0
   0
LINE
   5
1D7
 100
AcDbEntity
   8
LEVEL001
 370
13
 100
AcDbLine
   6
CONTINUOUS
  62
5
  10
 985.12155588585
  20
 1755.1677547813
  30
0.0
  11
 1037.6215558860
  21
 1702.6677547813
  31
0.0
   0
LINE
   5
1D8
 100
AcDbEntity
   8
LEVEL001
 370
13
 100
AcDbLine
   6
CONTINUOUS
  62
5
  10
 1042.3918481564
  20
 1755.1677547813
  30
0.0
  11
 1013.7567020212
  21
 1726.5326086461
  31
0.0
   0
MTEXT
   5
1DA
 100
AcDbEntity
   8
LEVEL001
 370
13
  62
1
 100
AcDbMText
  10
 1013.2702263307
  20
 1763.8976918216
  30
0.0
  40
 40.000000000000
  41
0.0
  71
7
  72
1
   1
\T1.000000;ＧＬ
   7
GMM003
  44
 0.79999984000003
   0
LWPOLYLINE
   5
1DB
 100
AcDbEntity
   8
LEVEL001
 370
13
   6
CONTINUOUS
  62
1
 100
AcDbPolyline
  90
3
  70
1
  10
 985.12155588585
  20
 1755.1677547813
  10
 960.12155588585
  20
 1805.1677547813
  10
 1010.1215558859
  20
 1805.1677547813
   0
LINE
   5
1DC
 100
AcDbEntity
   8
LEVEL001
 370
13
 100
AcDbLine
   6
CONTINUOUS
  62
5
  10
 1354.4716211212
  20
 1755.1677547813
  30
0.0
  11
 892.62162112118
  21
 1755.1677547813
  31
0.0
   0
LINE
   5
1DD
 100
AcDbEntity
   8
LEVEL001
 370
13
 100
AcDbLine
   6
CONTINUOUS
  62
5
  10
 1430.7716211212
  20
 1755.1677547813
  30
0.0
  11
 1892.6216211212
  21
 1755.1677547813
  31
0.0
   0
LWPOLYLINE
   5
1DE
 100
AcDbEntity
   8
LEVEL001
 370
13
   6
CONTINUOUS
  62
5
 100
AcDbPolyline
  90
6
  70
0
  10
 1354.4716211212
  20
 1755.1677547813
  10
 1142.6216211212
  20
 1755.1677547813
  10
 1142.6216211212
  20
 855.16775478133
  10
 1642.6216211212
  20
 855.16775478133
  10
 1642.6216211212
  20
 1755.1677547813
  10
 1430.7716211212
  20
 1755.1677547813
   0
LINE
   5
1DF
 100
AcDbEntity
   8
LEVEL001
 370
13
 100
AcDbLine
   6
CONTINUOUS
  62
5
  10
 2540.1216211210
  20
 1755.1677547813
  30
0.0
  11
 2592.6216211212
  21
 1702.6677547813
  31
0.0
   0
LINE
   5
1E0
 100
AcDbEntity
   8
LEVEL001
 370
13
 100
AcDbLine
   6
CONTINUOUS
  62
5
  10
 3245.1216211212
  20
 1755.1677547813
  30
0.0
  11
 3192.6216211212
  21
 1702.6677547813
  31
0.0
   0
LINE
   5
1E1
 100
AcDbEntity
   8
LEVEL001
 370
13
 100
AcDbLine
   6
CONTINUOUS
  62
5
  10
 3208.5315236972
  20
 1702.6677547813
  30
0.0
  11
 3261.0315236972
  21
 1755.1677547813
  31
0.0
   0
LINE
   5
1E2
 100
AcDbEntity
   8
LEVEL001
 370
13
 100
AcDbLine
   6
CONTINUOUS
  62
5
  10
 3276.9414262748
  20
 1755.1677547813
  30
0.0
  11
 3224.4414262748
  21
 1702.6677547813
  31
0.0
   0
LINE
   5
1E3
 100
AcDbEntity
   8
LEVEL001
 370
13
 100
AcDbLine
   6
CONTINUOUS
  62
5
  10
 3240.3513288509
  20
 1702.6677547813
  30
0.0
  11
 3292.8513288509
  21
 1755.1677547813
  31
0.0
   0
LINE
   5
1E4
 100
AcDbEntity
   8
LEVEL001
 370
13
 100
AcDbLine
   6
CONTINUOUS
  62
5
  10
 3297.6216211215
  20
 1702.6677547813
  30
0.0
  11
 3268.9864749862
  21
 1731.3029009166
  31
0.0
   0
LINE
   5
1E5
 100
AcDbEntity
   8
LEVEL001
 370
13
 100
AcDbLine
   6
CONTINUOUS
  62
5
  10
 3276.9414262744
  20
 1739.2578522048
  30
0.0
  11
 3313.5315236979
  21
 1702.6677547813
  31
0.0
   0
LINE
   5
1E6
 100
AcDbEntity
   8
LEVEL001
 370
13
 100
AcDbLine
   6
CONTINUOUS
  62
5
  10
 3329.4414262743
  20
 1702.6677547813
  30
0.0
  11
 3284.8963775626
  21
 1747.2128034931
  31
0.0
   0
LINE
   5
1E7
 100
AcDbEntity
   8
LEVEL001
 370
13
 100
AcDbLine
   6
CONTINUOUS
  62
5
  10
 3292.8513288509
  20
 1755.1677547813
  30
0.0
  11
 3345.3513288510
  21
 1702.6677547813
  31
0.0
   0
LINE
   5
1E8
 100
AcDbEntity
   8
LEVEL001
 370
13
 100
AcDbLine
   6
CONTINUOUS
  62
5
  10
 3345.3513288510
  20
 1702.6677547813
  30
0.0
  11
 3397.8513288510
  21
 1755.1677547813
  31
0.0
   0
LINE
   5
1E9
 100
AcDbEntity
   8
LEVEL001
 370
13
 100
AcDbLine
   6
CONTINUOUS
  62
5
  10
 3350.1216211214
  20
 1755.1677547813
  30
0.0
  11
 3321.4864749862
  21
 1726.5326086461
  31
0.0
   0
LINE
   5
1EA
 100
AcDbEntity
   8
LEVEL001
 370
13
 100
AcDbLine
   6
CONTINUOUS
  62
5
  10
 3329.4414262742
  20
 1718.5776573581
  30
0.0
  11
 3366.0315236974
  21
 1755.1677547813
  31
0.0
   0
LINE
   5
1EB
 100
AcDbEntity
   8
LEVEL001
 370
13
 100
AcDbLine
   6
CONTINUOUS
  62
5
  10
 3381.9414262750
  20
 1755.1677547813
  30
0.0
  11
 3337.3963775630
  21
 1710.6227060693
  31
0.0
   0
LINE
   5
1EC
 100
AcDbEntity
   8
LEVEL001
 370
13
 100
AcDbLine
   6
CONTINUOUS
  62
5
  10
 3402.6216211216
  20
 1702.6677547813
  30
0.0
  11
 3373.9864749863
  21
 1731.3029009166
  31
0.0
   0
LINE
   5
1ED
 100
AcDbEntity
   8
LEVEL001
 370
13
 100
AcDbLine
   6
CONTINUOUS
  62
5
  10
 3381.9414262746
  20
 1739.2578522048
  30
0.0
  11
 3418.5315236981
  21
 1702.6677547813
  31
0.0
   0
LINE
   5
1EE
 100
AcDbEntity
   8
LEVEL001
 370
13
 100
AcDbLine
   6
CONTINUOUS
  62
5
  10
 3434.4414262745
  20
 1702.6677547813
  30
0.0
  11
 3389.8963775628
  21
 1747.2128034931
  31
0.0
   0
LINE
   5
1EF
 100
AcDbEntity
   8
LEVEL001
 370
13
 100
AcDbLine
   6
CONTINUOUS
  62
5
  10
 3397.8513288510
  20
 1755.1677547813
  30
0.0
  11
 3450.3513288512
  21
 1702.6677547813
  31
0.0
   0
LINE
   5
1F0
 100
AcDbEntity
   8
LEVEL001
 370
13
 100
AcDbLine
   6
CONTINUOUS
  62
5
  10
 2642.6216211212
  20
 1755.1677547813
  30
0.0
  11
 2342.6216863561
  21
 1755.1677547813
  31
0.0
   0
LINE
   5
1F1
 100
AcDbEntity
   8
LEVEL001
 370
13
 100
AcDbLine
   6
CONTINUOUS
  62
5
  10
 3142.6216211212
  20
 1755.1677547813
  30
0.0
  11
 3442.6216863561
  21
 1755.1677547813
  31
0.0
   0
LWPOLYLINE
   5
1F2
 100
AcDbEntity
   8
LEVEL001
 370
13
   6
CONTINUOUS
  62
5
 100
AcDbPolyline
  90
6
  70
0
  10
 2854.4716211212
  20
 1755.1677547813
  10
 2642.6216211212
  20
 1755.1677547813
  10
 2642.6216211212
  20
 855.16775478133
  10
 3142.6216211212
  20
 855.16775478133
  10
 3142.6216211212
  20
 1755.1677547813
  10
 2930.7716211212
  20
 1755.1677547813
   0
LINE
   5
1F3
 100
AcDbEntity
   8
LEVEL001
 370
13
 100
AcDbLine
   6
CONTINUOUS
  62
5
  10
 2487.6216211210
  20
 1702.6677547813
  30
0.0
  11
 2540.1216211210
  21
 1755.1677547813
  31
0.0
   0
LINE
   5
1F4
 100
AcDbEntity
   8
LEVEL001
 370
13
 100
AcDbLine
   6
CONTINUOUS
  62
5
  10
 2471.7117185441
  20
 1718.5776573581
  30
0.0
  11
 2508.3018159674
  21
 1755.1677547813
  31
0.0
   0
LINE
   5
1F5
 100
AcDbEntity
   8
LEVEL001
 370
13
 100
AcDbLine
   6
CONTINUOUS
  62
5
  10
 2524.2117185450
  20
 1755.1677547813
  30
0.0
  11
 2479.6666698330
  21
 1710.6227060693
  31
0.0
   0
LINE
   5
1F6
 100
AcDbEntity
   8
LEVEL001
 370
13
 100
AcDbLine
   6
CONTINUOUS
  62
5
  10
 2544.8919133916
  20
 1702.6677547813
  30
0.0
  11
 2516.2567672563
  21
 1731.3029009166
  31
0.0
   0
LINE
   5
1F7
 100
AcDbEntity
   8
LEVEL001
 370
13
 100
AcDbLine
   6
CONTINUOUS
  62
5
  10
 2524.2117185445
  20
 1739.2578522048
  30
0.0
  11
 2560.8018159680
  21
 1702.6677547813
  31
0.0
   0
LINE
   5
1F8
 100
AcDbEntity
   8
LEVEL001
 370
13
 100
AcDbLine
   6
CONTINUOUS
  62
5
  10
 2576.7117185444
  20
 1702.6677547813
  30
0.0
  11
 2532.1666698327
  21
 1747.2128034931
  31
0.0
   0
LINE
   5
1F9
 100
AcDbEntity
   8
LEVEL001
 370
13
 100
AcDbLine
   6
CONTINUOUS
  62
5
  10
 2387.3919133911
  20
 1755.1677547813
  30
0.0
  11
 2334.8919133911
  21
 1702.6677547813
  31
0.0
   0
LINE
   5
1FA
 100
AcDbEntity
   8
LEVEL001
 370
13
 100
AcDbLine
   6
CONTINUOUS
  62
5
  10
 2350.8018159672
  20
 1702.6677547813
  30
0.0
  11
 2403.3018159672
  21
 1755.1677547813
  31
0.0
   0
LINE
   5
1FB
 100
AcDbEntity
   8
LEVEL001
 370
13
 100
AcDbLine
   6
CONTINUOUS
  62
5
  10
 2419.2117185448
  20
 1755.1677547813
  30
0.0
  11
 2366.7117185448
  21
 1702.6677547813
  31
0.0
   0
LINE
   5
1FC
 100
AcDbEntity
   8
LEVEL001
 370
13
 100
AcDbLine
   6
CONTINUOUS
  62
5
  10
 2382.6216211208
  20
 1702.6677547813
  30
0.0
  11
 2435.1216211208
  21
 1755.1677547813
  31
0.0
   0
LINE
   5
1FD
 100
AcDbEntity
   8
LEVEL001
 370
13
 100
AcDbLine
   6
CONTINUOUS
  62
5
  10
 2439.8919133914
  20
 1702.6677547813
  30
0.0
  11
 2411.2567672561
  21
 1731.3029009166
  31
0.0
   0
LINE
   5
1FE
 100
AcDbEntity
   8
LEVEL001
 370
13
 100
AcDbLine
   6
CONTINUOUS
  62
5
  10
 2419.2117185443
  20
 1739.2578522048
  30
0.0
  11
 2455.8018159678
  21
 1702.6677547813
  31
0.0
   0
LINE
   5
1FF
 100
AcDbEntity
   8
LEVEL001
 370
13
 100
AcDbLine
   6
CONTINUOUS
  62
5
  10
 2471.7117185443
  20
 1702.6677547813
  30
0.0
  11
 2427.1666698325
  21
 1747.2128034931
  31
0.0
   0
LINE
   5
200
 100
AcDbEntity
   8
LEVEL001
 370
13
 100
AcDbLine
   6
CONTINUOUS
  62
5
  10
 2435.1216211208
  20
 1755.1677547813
  30
0.0
  11
 2487.6216211210
  21
 1702.6677547813
  31
0.0
   0
LINE
   5
201
 100
AcDbEntity
   8
LEVEL001
 370
13
 100
AcDbLine
   6
CONTINUOUS
  62
5
  10
 2492.3919133913
  20
 1755.1677547813
  30
0.0
  11
 2463.7567672561
  21
 1726.5326086461
  31
0.0
   0
MTEXT
   5
203
 100
AcDbEntity
   8
LEVEL001
 370
13
  62
1
 100
AcDbMText
  10
 2463.2702915656
  20
 1763.8976918216
  30
0.0
  40
 40.000000000000
  41
0.0
  71
7
  72
1
   1
\T1.000000;ＧＬ
   7
GMM003
  44
 0.79999984000003
   0
LWPOLYLINE
   5
204
 100
AcDbEntity
   8
LEVEL001
 370
13
   6
CONTINUOUS
  62
1
 100
AcDbPolyline
  90
3
  70
1
  10
 2435.1216211208
  20
 1755.1677547813
  10
 2410.1216211208
  20
 1805.1677547813
  10
 2460.1216211208
  20
 1805.1677547813
   0
ARC
   5
205
 100
AcDbEntity
   8
LEVEL001
 370
13
   6
CONTINUOUS
  62
7
 100
AcDbCircle
  10
 2842.6989998716
  20
 3663.8094750720
  30
0.0
  40
 5.0000000000000
 100
AcDbArc
  50
 180.00000000000
  51
 201.80140948636
   0
LINE
   5
206
 100
AcDbEntity
   8
LEVEL001
 370
13
 100
AcDbLine
   6
CONTINUOUS
  62
7
  10
 2840.7705231807
  20
 3655.1677547813
  30
0.0
  11
 2838.0566164172
  21
 3661.9525216902
  31
0.0
   0
ARC
   5
207
 100
AcDbEntity
   8
LEVEL001
 370
13
   6
CONTINUOUS
  62
7
 100
AcDbCircle
  10
 2836.6989998716
  20
 3671.0154012404
  30
0.0
  40
 5.0000000000000
 100
AcDbArc
  50
 338.19859051366
  51
 0.15633062370329E-10
   0
LINE
   5
208
 100
AcDbEntity
   8
LEVEL001
 370
13
 100
AcDbLine
   6
CONTINUOUS
  62
7
  10
 2839.5391124713
  20
 3664.6527707219
  30
0.0
  11
 2841.3413833260
  21
 3669.1584478586
  31
0.0
   0
ARC
   5
209
 100
AcDbEntity
   8
LEVEL001
 370
13
   6
CONTINUOUS
  62
7
 100
AcDbCircle
  10
 2844.1814959258
  20
 3662.7958173401
  30
0.0
  40
 5.0000000000000
 100
AcDbArc
  50
 158.19859051364
  51
 201.80140948636
   0
LWPOLYLINE
   5
20A
 100
AcDbEntity
   8
LEVEL001
 370
13
   6
CONTINUOUS
  62
7
 100
AcDbPolyline
  90
3
  70
0
  10
 2840.7705231807
  20
 3655.1677547813
  10
 2841.6989998716
  20
 3655.5391454577
  10
 2839.5391124713
  20
 3660.9388639584
   0
LINE
   5
20B
 100
AcDbEntity
   8
LEVEL001
 370
13
 100
AcDbLine
   6
CONTINUOUS
  62
6
  10
 2844.6989998716
  20
 3890.1678155403
  30
0.0
  11
 2844.6989998716
  21
 3891.1677545012
  31
0.0
   0
LINE
   5
20C
 100
AcDbEntity
   8
LEVEL001
 370
13
 100
AcDbLine
   6
CONTINUOUS
  62
7
  10
 2845.1544786507
  20
 3876.1673883488
  30
0.0
  11
 2845.1549364146
  21
 3834.1674800654
  31
0.0
   0
LINE
   5
20D
 100
AcDbEntity
   8
LEVEL001
 370
13
 100
AcDbLine
   6
CONTINUOUS
  62
7
  10
 2844.6989998716
  20
 3891.1677545012
  30
0.0
  11
 2841.6989998716
  21
 3891.1677545012
  31
0.0
   0
LINE
   5
20E
 100
AcDbEntity
   8
LEVEL001
 370
13
 100
AcDbLine
   6
CONTINUOUS
  62
6
  10
 2841.6989998716
  20
 3890.1678155403
  30
0.0
  11
 2844.6989998716
  21
 3890.1678155403
  31
0.0
   0
LWPOLYLINE
   5
20F
 100
AcDbEntity
   8
LEVEL001
 370
13
   6
CONTINUOUS
  62
6
 100
AcDbPolyline
  90
3
  70
0
  10
 2844.6989998716
  20
 3819.1677547822
  10
 2844.6989998716
  20
 3820.1677852958
  10
 2841.6989998716
  20
 3820.1677852958
   0
ELLIPSE
   5
210
 100
AcDbEntity
   8
LEVEL001
 370
13
   6
CONTINUOUS
  62
7
 100
AcDbEllipse
  10
 2841.1549338635
  20
 3834.1675412179
  30
0.0
  11
 4.0000025516047
  21
0.0
  31
0.0
  40
 0.99999938800000
  41
-1.4343569865528
  42
-0.15288126351787E-4
   0
LINE
   5
211
 100
AcDbEntity
   8
LEVEL001
 370
13
 100
AcDbLine
   6
CONTINUOUS
  62
7
  10
 2841.6989998716
  20
 3819.1677547822
  30
0.0
  11
 2844.6989998716
  21
 3819.1677547822
  31
0.0
   0
ELLIPSE
   5
212
 100
AcDbEntity
   8
LEVEL001
 370
13
   6
CONTINUOUS
  62
7
 100
AcDbEllipse
  10
 2841.1544761009
  20
 3876.1675103000
  30
0.0
  11
 4.0000025516047
  21
0.0
  31
0.0
  40
 0.99999938800000
  41
-0.30487804121538E-4
  42
 1.4342414715500
   0
LWPOLYLINE
   5
213
 100
AcDbEntity
   8
LEVEL001
 370
13
   6
CONTINUOUS
  62
7
 100
AcDbPolyline
  90
4
  70
0
  10
 2845.1545058946
  20
 3873.6677547821
  10
 2950.6989998716
  20
 3873.6677547821
  10
 2950.6989998716
  20
 3836.6677547821
  10
 2845.1549091637
  20
 3836.6677547821
   0
LINE
   5
214
 100
AcDbEntity
   8
LEVEL001
 370
13
 100
AcDbLine
   6
CONTINUOUS
  62
6
  10
 2856.1469344759
  20
 3860.6677547821
  30
0.0
  11
 2856.1469344759
  21
 3849.6677547821
  31
0.0
   0
LINE
   5
215
 100
AcDbEntity
   8
LEVEL001
 370
13
 100
AcDbLine
   6
CONTINUOUS
  62
6
  10
 2856.1469344759
  20
 3847.6677547821
  30
0.0
  11
 2856.1469344759
  21
 3838.6677547821
  31
0.0
   0
LINE
   5
216
 100
AcDbEntity
   8
LEVEL001
 370
13
 100
AcDbLine
   6
CONTINUOUS
  62
6
  10
 2856.1469344759
  20
 3871.6677547821
  30
0.0
  11
 2856.1469344759
  21
 3862.6677547821
  31
0.0
   0
LINE
   5
217
 100
AcDbEntity
   8
LEVEL001
 370
13
 100
AcDbLine
   6
CONTINUOUS
  62
6
  10
 2929.5270008712
  20
 3848.6677547821
  30
0.0
  11
 2857.4078290455
  21
 3848.6677547821
  31
0.0
   0
LINE
   5
218
 100
AcDbEntity
   8
LEVEL001
 370
13
 100
AcDbLine
   6
CONTINUOUS
  62
6
  10
 2857.4078290455
  20
 3861.6677547821
  30
0.0
  11
 2929.5270008712
  21
 3861.6677547821
  31
0.0
   0
LINE
   5
219
 100
AcDbEntity
   8
LEVEL001
 370
13
 100
AcDbLine
   6
CONTINUOUS
  62
6
  10
 2929.5270008712
  20
 3871.6677547821
  30
0.0
  11
 2929.5270008712
  21
 3862.6677547821
  31
0.0
   0
LINE
   5
21A
 100
AcDbEntity
   8
LEVEL001
 370
13
 100
AcDbLine
   6
CONTINUOUS
  62
6
  10
 2929.5270008712
  20
 3847.6677547821
  30
0.0
  11
 2929.5270008712
  21
 3838.6677547821
  31
0.0
   0
LINE
   5
21B
 100
AcDbEntity
   8
LEVEL001
 370
13
 100
AcDbLine
   6
CONTINUOUS
  62
6
  10
 2931.8455259125
  20
 3861.6677547821
  30
0.0
  11
 2931.8455259125
  21
 3848.6677547821
  31
0.0
   0
LWPOLYLINE
   5
21C
 100
AcDbEntity
   8
LEVEL001
 370
13
   6
CONTINUOUS
  62
7
 100
AcDbPolyline
  90
4
  70
1
  10
 2935.6989998716
  20
 3850.1677547821
  10
 2945.6989998716
  20
 3850.1677547821
  10
 2945.6989998716
  20
 3860.1677547821
  10
 2935.6989998716
  20
 3860.1677547821
   0
LWPOLYLINE
   5
21D
 100
AcDbEntity
   8
LEVEL001
 370
13
   6
CONTINUOUS
  62
7
 100
AcDbPolyline
  90
4
  70
0
  10
 2854.4716211212
  20
 3836.6677547821
  10
 2854.4716211212
  20
 855.16775478133
  10
 2930.7716211212
  20
 855.16775478133
  10
 2930.7716211212
  20
 3836.6677547821
   0
ARC
   5
21E
 100
AcDbEntity
   8
LEVEL001
 370
13
   6
CONTINUOUS
  62
7
 100
AcDbCircle
  10
 1447.6216211213
  20
 3675.1677547821
  30
0.0
  40
 20.000000000000
 100
AcDbArc
  50
 270.00000000000
  51
0.0
   0
ARC
   5
21F
 100
AcDbEntity
   8
LEVEL001
 370
13
   6
CONTINUOUS
  62
7
 100
AcDbCircle
  10
 1337.6216211213
  20
 3675.1677547821
  30
0.0
  40
 20.000000000000
 100
AcDbArc
  50
 180.00000000000
  51
 270.00000000000
   0
LINE
   5
220
 100
AcDbEntity
   8
LEVEL001
 370
13
 100
AcDbLine
   6
CONTINUOUS
  62
7
  10
 1337.6216211213
  20
 3655.1677547821
  30
0.0
  11
 1447.6216211213
  21
 3655.1677547821
  31
0.0
   0
LWPOLYLINE
   5
221
 100
AcDbEntity
   8
LEVEL001
 370
13
   6
CONTINUOUS
  62
7
 100
AcDbPolyline
  90
4
  70
0
  10
 1354.4716211212
  20
 3655.1677547821
  10
 1354.4716211212
  20
 855.16775478133
  10
 1430.7716211212
  20
 855.16775478133
  10
 1430.7716211212
  20
 3655.1677547821
   0
LINE
   5
222
 100
AcDbEntity
   8
LEVEL001
 370
13
 100
AcDbLine
   6
CONTINUOUS
  62
5
  10
 1292.6216211212
  20
 855.16775478133
  30
0.0
  11
 1242.6216211212
  21
 755.16775478133
  31
0.0
   0
LINE
   5
223
 100
AcDbEntity
   8
LEVEL001
 370
13
 100
AcDbLine
   6
CONTINUOUS
  62
5
  10
 1242.6216211212
  20
 855.16775478133
  30
0.0
  11
 1282.6216211212
  21
 835.16775478133
  31
0.0
   0
LINE
   5
224
 100
AcDbEntity
   8
LEVEL001
 370
13
 100
AcDbLine
   6
CONTINUOUS
  62
5
  10
 1242.6216211212
  20
 855.16775478133
  30
0.0
  11
 1192.6216211212
  21
 755.16775478133
  31
0.0
   0
LINE
   5
225
 100
AcDbEntity
   8
LEVEL001
 370
13
 100
AcDbLine
   6
CONTINUOUS
  62
5
  10
 1192.6216211212
  20
 855.16775478133
  30
0.0
  11
 1232.6216211212
  21
 835.16775478133
  31
0.0
   0
LINE
   5
226
 100
AcDbEntity
   8
LEVEL001
 370
13
 100
AcDbLine
   6
CONTINUOUS
  62
5
  10
 1192.6216211212
  20
 855.16775478133
  30
0.0
  11
 1142.6216211212
  21
 755.16775478133
  31
0.0
   0
LINE
   5
227
 100
AcDbEntity
   8
LEVEL001
 370
13
 100
AcDbLine
   6
CONTINUOUS
  62
5
  10
 1142.6216211212
  20
 855.16775478133
  30
0.0
  11
 1182.6216211212
  21
 835.16775478133
  31
0.0
   0
LINE
   5
228
 100
AcDbEntity
   8
LEVEL001
 370
13
 100
AcDbLine
   6
CONTINUOUS
  62
5
  10
 1292.6216211212
  20
 755.16775478133
  30
0.0
  11
 1252.6216211212
  21
 775.16775478133
  31
0.0
   0
LINE
   5
229
 100
AcDbEntity
   8
LEVEL001
 370
13
 100
AcDbLine
   6
CONTINUOUS
  62
5
  10
 1242.6216211212
  20
 755.16775478133
  30
0.0
  11
 1202.6216211212
  21
 775.16775478133
  31
0.0
   0
LINE
   5
22A
 100
AcDbEntity
   8
LEVEL001
 370
13
 100
AcDbLine
   6
CONTINUOUS
  62
5
  10
 1192.6216211212
  20
 755.16775478133
  30
0.0
  11
 1152.6216211212
  21
 775.16775478133
  31
0.0
   0
LINE
   5
22B
 100
AcDbEntity
   8
LEVEL001
 370
13
 100
AcDbLine
   6
CONTINUOUS
  62
5
  10
 1642.6216211212
  20
 855.16775478133
  30
0.0
  11
 1592.6216211212
  21
 755.16775478133
  31
0.0
   0
LINE
   5
22C
 100
AcDbEntity
   8
LEVEL001
 370
13
 100
AcDbLine
   6
CONTINUOUS
  62
5
  10
 1592.6216211212
  20
 855.16775478133
  30
0.0
  11
 1632.6216211212
  21
 835.16775478133
  31
0.0
   0
LINE
   5
22D
 100
AcDbEntity
   8
LEVEL001
 370
13
 100
AcDbLine
   6
CONTINUOUS
  62
5
  10
 1592.6216211212
  20
 855.16775478133
  30
0.0
  11
 1542.6216211212
  21
 755.16775478133
  31
0.0
   0
LINE
   5
22E
 100
AcDbEntity
   8
LEVEL001
 370
13
 100
AcDbLine
   6
CONTINUOUS
  62
5
  10
 1542.6216211212
  20
 855.16775478133
  30
0.0
  11
 1582.6216211212
  21
 835.16775478133
  31
0.0
   0
LINE
   5
22F
 100
AcDbEntity
   8
LEVEL001
 370
13
 100
AcDbLine
   6
CONTINUOUS
  62
5
  10
 1542.6216211212
  20
 855.16775478133
  30
0.0
  11
 1492.6216211212
  21
 755.16775478133
  31
0.0
   0
LINE
   5
230
 100
AcDbEntity
   8
LEVEL001
 370
13
 100
AcDbLine
   6
CONTINUOUS
  62
5
  10
 1492.6216211212
  20
 855.16775478133
  30
0.0
  11
 1532.6216211212
  21
 835.16775478133
  31
0.0
   0
LINE
   5
231
 100
AcDbEntity
   8
LEVEL001
 370
13
 100
AcDbLine
   6
CONTINUOUS
  62
5
  10
 1642.6216211212
  20
 755.16775478133
  30
0.0
  11
 1602.6216211212
  21
 775.16775478133
  31
0.0
   0
LINE
   5
232
 100
AcDbEntity
   8
LEVEL001
 370
13
 100
AcDbLine
   6
CONTINUOUS
  62
5
  10
 1592.6216211212
  20
 755.16775478133
  30
0.0
  11
 1552.6216211212
  21
 775.16775478133
  31
0.0
   0
LINE
   5
233
 100
AcDbEntity
   8
LEVEL001
 370
13
 100
AcDbLine
   6
CONTINUOUS
  62
5
  10
 1542.6216211212
  20
 755.16775478133
  30
0.0
  11
 1502.6216211212
  21
 775.16775478133
  31
0.0
   0
LWPOLYLINE
   5
234
 100
AcDbEntity
   8
LEVEL001
 370
13
   6
CONTINUOUS
  62
5
 100
AcDbPolyline
  90
4
  70
1
  10
 1142.6216211212
  20
 855.16775478133
  10
 1142.6216211212
  20
 755.16775478133
  10
 1642.6216211212
  20
 755.16775478133
  10
 1642.6216211212
  20
 855.16775478133
   0
LINE
   5
235
 100
AcDbEntity
   8
LEVEL001
 370
13
 100
AcDbLine
   6
CONTINUOUS
  62
5
  10
 2792.6216211212
  20
 855.16775478133
  30
0.0
  11
 2742.6216211212
  21
 755.16775478133
  31
0.0
   0
LINE
   5
236
 100
AcDbEntity
   8
LEVEL001
 370
13
 100
AcDbLine
   6
CONTINUOUS
  62
5
  10
 2742.6216211212
  20
 855.16775478133
  30
0.0
  11
 2782.6216211212
  21
 835.16775478133
  31
0.0
   0
LINE
   5
237
 100
AcDbEntity
   8
LEVEL001
 370
13
 100
AcDbLine
   6
CONTINUOUS
  62
5
  10
 2742.6216211212
  20
 855.16775478133
  30
0.0
  11
 2692.6216211212
  21
 755.16775478133
  31
0.0
   0
LINE
   5
238
 100
AcDbEntity
   8
LEVEL001
 370
13
 100
AcDbLine
   6
CONTINUOUS
  62
5
  10
 2692.6216211212
  20
 855.16775478133
  30
0.0
  11
 2732.6216211212
  21
 835.16775478133
  31
0.0
   0
LINE
   5
239
 100
AcDbEntity
   8
LEVEL001
 370
13
 100
AcDbLine
   6
CONTINUOUS
  62
5
  10
 2692.6216211212
  20
 855.16775478133
  30
0.0
  11
 2642.6216211212
  21
 755.16775478133
  31
0.0
   0
LINE
   5
23A
 100
AcDbEntity
   8
LEVEL001
 370
13
 100
AcDbLine
   6
CONTINUOUS
  62
5
  10
 2642.6216211212
  20
 855.16775478133
  30
0.0
  11
 2682.6216211212
  21
 835.16775478133
  31
0.0
   0
LINE
   5
23B
 100
AcDbEntity
   8
LEVEL001
 370
13
 100
AcDbLine
   6
CONTINUOUS
  62
5
  10
 2792.6216211212
  20
 755.16775478133
  30
0.0
  11
 2752.6216211212
  21
 775.16775478133
  31
0.0
   0
LINE
   5
23C
 100
AcDbEntity
   8
LEVEL001
 370
13
 100
AcDbLine
   6
CONTINUOUS
  62
5
  10
 2742.6216211212
  20
 755.16775478133
  30
0.0
  11
 2702.6216211212
  21
 775.16775478133
  31
0.0
   0
LINE
   5
23D
 100
AcDbEntity
   8
LEVEL001
 370
13
 100
AcDbLine
   6
CONTINUOUS
  62
5
  10
 2692.6216211212
  20
 755.16775478133
  30
0.0
  11
 2652.6216211212
  21
 775.16775478133
  31
0.0
   0
LINE
   5
23E
 100
AcDbEntity
   8
LEVEL001
 370
13
 100
AcDbLine
   6
CONTINUOUS
  62
5
  10
 3142.6216211212
  20
 855.16775478133
  30
0.0
  11
 3092.6216211212
  21
 755.16775478133
  31
0.0
   0
LINE
   5
23F
 100
AcDbEntity
   8
LEVEL001
 370
13
 100
AcDbLine
   6
CONTINUOUS
  62
5
  10
 3092.6216211212
  20
 855.16775478133
  30
0.0
  11
 3132.6216211212
  21
 835.16775478133
  31
0.0
   0
LINE
   5
240
 100
AcDbEntity
   8
LEVEL001
 370
13
 100
AcDbLine
   6
CONTINUOUS
  62
5
  10
 3092.6216211212
  20
 855.16775478133
  30
0.0
  11
 3042.6216211212
  21
 755.16775478133
  31
0.0
   0
LINE
   5
241
 100
AcDbEntity
   8
LEVEL001
 370
13
 100
AcDbLine
   6
CONTINUOUS
  62
5
  10
 3042.6216211212
  20
 855.16775478133
  30
0.0
  11
 3082.6216211212
  21
 835.16775478133
  31
0.0
   0
LINE
   5
242
 100
AcDbEntity
   8
LEVEL001
 370
13
 100
AcDbLine
   6
CONTINUOUS
  62
5
  10
 3042.6216211212
  20
 855.16775478133
  30
0.0
  11
 2992.6216211212
  21
 755.16775478133
  31
0.0
   0
LINE
   5
243
 100
AcDbEntity
   8
LEVEL001
 370
13
 100
AcDbLine
   6
CONTINUOUS
  62
5
  10
 2992.6216211212
  20
 855.16775478133
  30
0.0
  11
 3032.6216211212
  21
 835.16775478133
  31
0.0
   0
LINE
   5
244
 100
AcDbEntity
   8
LEVEL001
 370
13
 100
AcDbLine
   6
CONTINUOUS
  62
5
  10
 3142.6216211212
  20
 755.16775478133
  30
0.0
  11
 3102.6216211212
  21
 775.16775478133
  31
0.0
   0
LINE
   5
245
 100
AcDbEntity
   8
LEVEL001
 370
13
 100
AcDbLine
   6
CONTINUOUS
  62
5
  10
 3092.6216211212
  20
 755.16775478133
  30
0.0
  11
 3052.6216211212
  21
 775.16775478133
  31
0.0
   0
LINE
   5
246
 100
AcDbEntity
   8
LEVEL001
 370
13
 100
AcDbLine
   6
CONTINUOUS
  62
5
  10
 3042.6216211212
  20
 755.16775478133
  30
0.0
  11
 3002.6216211212
  21
 775.16775478133
  31
0.0
   0
LWPOLYLINE
   5
247
 100
AcDbEntity
   8
LEVEL001
 370
13
   6
CONTINUOUS
  62
5
 100
AcDbPolyline
  90
4
  70
1
  10
 2642.6216211212
  20
 855.16775478133
  10
 2642.6216211212
  20
 755.16775478133
  10
 3142.6216211212
  20
 755.16775478133
  10
 3142.6216211212
  20
 855.16775478133
   0
CIRCLE
   5
248
 100
AcDbEntity
   8
LEVEL001
 370
13
 100
AcDbCircle
   6
CONTINUOUS
  62
7
  10
 2892.6215873191
  20
 1255.1677547813
  30
0.0
  40
 7.5000000000000
   0
LINE
   5
249
 100
AcDbEntity
   8
LEVEL001
 370
13
 100
AcDbLine
   6
DASHDOT
  62
6
  10
 2862.6215873191
  20
 1255.1677547813
  30
0.0
  11
 2922.6215873191
  21
 1255.1677547813
  31
0.0
   0
LINE
   5
24A
 100
AcDbEntity
   8
LEVEL001
 370
13
 100
AcDbLine
   6
DASHDOT
  62
6
  10
 2832.6216030355
  20
 1155.1677547813
  30
0.0
  11
 2952.6216030355
  21
 1155.1677547813
  31
0.0
   0
LWPOLYLINE
   5
24B
 100
AcDbEntity
   8
LEVEL001
 370
13
   6
CONTINUOUS
  62
7
 100
AcDbPolyline
  90
4
  70
0
  10
 2930.7716211212
  20
 1162.6677547813
  10
 3002.6216030355
  20
 1162.6677547813
  10
 3002.6216030355
  20
 1147.6677547813
  10
 2930.7716211212
  20
 1147.6677547813
   0
LWPOLYLINE
   5
24C
 100
AcDbEntity
   8
LEVEL001
 370
13
   6
CONTINUOUS
  62
7
 100
AcDbPolyline
  90
4
  70
0
  10
 2854.4716211212
  20
 1162.6677547813
  10
 2782.6216030355
  20
 1162.6677547813
  10
 2782.6216030355
  20
 1147.6677547813
  10
 2854.4716211212
  20
 1147.6677547813
   0
LINE
   5
24D
 100
AcDbEntity
   8
LEVEL001
 370
13
 100
AcDbLine
   6
DASHDOT
  62
6
  10
 1332.6216030355
  20
 1255.1677547813
  30
0.0
  11
 1452.6216030355
  21
 1255.1677547813
  31
0.0
   0
CIRCLE
   5
24E
 100
AcDbEntity
   8
LEVEL001
 370
13
 100
AcDbCircle
   6
CONTINUOUS
  62
7
  10
 1392.6215873191
  20
 1155.1677547813
  30
0.0
  40
 7.5000000000000
   0
LINE
   5
24F
 100
AcDbEntity
   8
LEVEL001
 370
13
 100
AcDbLine
   6
DASHDOT
  62
6
  10
 1362.6215873191
  20
 1155.1677547813
  30
0.0
  11
 1422.6215873191
  21
 1155.1677547813
  31
0.0
   0
CIRCLE
   5
250
 100
AcDbEntity
   8
LEVEL001
 370
13
 100
AcDbCircle
   6
CONTINUOUS
  62
1
  10
 1642.6216211212
  20
 3755.1677547813
  30
0.0
  40
 69.999997913838
   0
MTEXT
   5
252
 100
AcDbEntity
   8
LEVEL001
 370
13
  62
7
 100
AcDbMText
  10
 1642.6216211212
  20
 3755.1677547813
  30
0.0
  40
 66.000000000000
  41
0.0
  71
5
  72
1
   1
\T1.000000;１３
   7
GMM002
  44
 0.79999984000003
   0
CIRCLE
   5
253
 100
AcDbEntity
   8
LEVEL001
 370
13
 100
AcDbCircle
   6
CONTINUOUS
  62
1
  10
 1642.6216211212
  20
 2630.1677547813
  30
0.0
  40
 69.999997913838
   0
MTEXT
   5
255
 100
AcDbEntity
   8
LEVEL001
 370
13
  62
7
 100
AcDbMText
  10
 1642.6216211212
  20
 2630.1677547813
  30
0.0
  40
 66.000000000000
  41
0.0
  71
5
  72
1
   1
\T1.000000;１０
   7
GMM002
  44
 0.79999984000003
   0
CIRCLE
   5
256
 100
AcDbEntity
   8
LEVEL001
 370
13
 100
AcDbCircle
   6
CONTINUOUS
  62
1
  10
 2517.6216211212
  20
 1005.1677547813
  30
0.0
  40
 69.999997913838
   0
MTEXT
   5
258
 100
AcDbEntity
   8
LEVEL001
 370
13
  62
7
 100
AcDbMText
  10
 2517.6216211212
  20
 1005.1677547813
  30
0.0
  40
 66.000000000000
  41
0.0
  71
5
  72
1
   1
\T1.000000;１１
   7
GMM002
  44
 0.79999984000003
   0
LEADER
   5
259
 100
AcDbEntity
   8
LEVEL001
 370
13
   6
CONTINUOUS
  62
1
 100
AcDbLeader
   3
GMM002
  73
3
  74
1
  75
0
  40
 66.000000000000
  41
0.0
  76
2
  10
 1467.6216211213
  20
 3855.1677547813
  30
0.0
  10
 1581.8446029838
  20
 3789.8974794313
  30
0.0
  77
1
   0
LEADER
   5
25A
 100
AcDbEntity
   8
LEVEL001
 370
13
   6
CONTINUOUS
  62
1
 100
AcDbLeader
   3
GMM002
  73
3
  74
1
  75
0
  40
 66.000000000000
  41
0.0
  76
2
  10
 2950.6989998716
  20
 3873.6677547821
  30
0.0
  10
 3080.1216211212
  20
 3963.0413609146
  30
0.0
  77
1
   0
LEADER
   5
25B
 100
AcDbEntity
   8
LEVEL001
 370
13
   6
CONTINUOUS
  62
1
 100
AcDbLeader
   3
GMM002
  73
3
  74
1
  75
0
  40
 66.000000000000
  41
0.0
  76
2
  10
 2782.6216030355
  20
 1147.6677547813
  30
0.0
  10
 2579.2732614238
  20
 1038.3200541877
  30
0.0
  77
1
   0
LEADER
   5
25C
 100
AcDbEntity
   8
LEVEL001
 370
13
   6
CONTINUOUS
  62
1
 100
AcDbLeader
   3
GMM002
  73
3
  74
1
  75
0
  40
 66.000000000000
  41
0.0
  76
2
  10
 1430.7716211212
  20
 2505.1677547813
  30
0.0
  10
 1582.3338335568
  20
 2594.5955412077
  30
0.0
  77
1
   0
DIMENSION
   5
25D
 100
AcDbEntity
   8
LEVEL001
 370
13
   6
CONTINUOUS
  62
6
 100
AcDbDimension
   2
*D19
  10
 1642.6216211212
  20
 505.16775478133
  30
0.0
  11
 1392.6216211212
  21
 505.16775478133
  31
0.0
  70
0
   3
GMM006
 100
AcDbAlignedDimension
  13
 1142.6216211212
  23
 755.16775478133
  33
0.0
  14
 1642.6216211212
  24
 755.16775478133
  34
0.0
 100
AcDbRotatedDimension
   0
DIMENSION
   5
25E
 100
AcDbEntity
   8
LEVEL001
 370
13
   6
CONTINUOUS
  62
6
 100
AcDbDimension
   2
*D20
  10
 3142.6216211212
  20
 505.16775478133
  30
0.0
  11
 2892.6216211212
  21
 505.16775478133
  31
0.0
  70
0
   3
GMM006
 100
AcDbAlignedDimension
  13
 2642.6216211212
  23
 755.16775478133
  33
0.0
  14
 3142.6216211212
  24
 755.16775478133
  34
0.0
 100
AcDbRotatedDimension
   0
LINE
   5
25F
 100
AcDbEntity
   8
LEVEL001
 370
13
 100
AcDbLine
   6
CONTINUOUS
  62
5
  10
 1642.6216211212
  20
 1590.5230938409
  30
0.0
  11
 1430.7716211212
  21
 1378.6730938409
  31
0.0
   0
LINE
   5
260
 100
AcDbEntity
   8
LEVEL001
 370
13
 100
AcDbLine
   6
CONTINUOUS
  62
5
  10
 1430.7716211212
  20
 1343.3177547816
  30
0.0
  11
 1642.6216211212
  21
 1555.1677547816
  31
0.0
   0
LINE
   5
261
 100
AcDbEntity
   8
LEVEL001
 370
13
 100
AcDbLine
   6
CONTINUOUS
  62
5
  10
 1642.6216211212
  20
 1519.8124157222
  30
0.0
  11
 1430.7716211212
  21
 1307.9624157222
  31
0.0
   0
LINE
   5
262
 100
AcDbEntity
   8
LEVEL001
 370
13
 100
AcDbLine
   6
CONTINUOUS
  62
5
  10
 1354.4716211212
  20
 1231.6624157222
  30
0.0
  11
 1142.6216211212
  21
 1019.8124157222
  31
0.0
   0
LINE
   5
263
 100
AcDbEntity
   8
LEVEL001
 370
13
 100
AcDbLine
   6
CONTINUOUS
  62
5
  10
 3142.6216211212
  20
 1590.5230938409
  30
0.0
  11
 2930.7716211212
  21
 1378.6730938409
  31
0.0
   0
LINE
   5
264
 100
AcDbEntity
   8
LEVEL001
 370
13
 100
AcDbLine
   6
CONTINUOUS
  62
5
  10
 2930.7716211212
  20
 1343.3177547816
  30
0.0
  11
 3142.6216211212
  21
 1555.1677547816
  31
0.0
   0
LINE
   5
265
 100
AcDbEntity
   8
LEVEL001
 370
13
 100
AcDbLine
   6
CONTINUOUS
  62
5
  10
 2854.4716211212
  20
 1302.3730938409
  30
0.0
  11
 2642.6216211212
  21
 1090.5230938409
  31
0.0
   0
LINE
   5
266
 100
AcDbEntity
   8
LEVEL001
 370
13
 100
AcDbLine
   6
CONTINUOUS
  62
5
  10
 2642.6216211212
  20
 1055.1677547816
  30
0.0
  11
 2854.4716211212
  21
 1267.0177547816
  31
0.0
   0
LINE
   5
267
 100
AcDbEntity
   8
LEVEL001
 370
13
 100
AcDbLine
   6
CONTINUOUS
  62
5
  10
 3142.6216211212
  20
 1519.8124157222
  30
0.0
  11
 2930.7716211212
  21
 1307.9624157222
  31
0.0
   0
LINE
   5
268
 100
AcDbEntity
   8
LEVEL001
 370
13
 100
AcDbLine
   6
CONTINUOUS
  62
5
  10
 2854.4716211212
  20
 1231.6624157222
  30
0.0
  11
 2642.6216211212
  21
 1019.8124157222
  31
0.0
   0
LINE
   5
269
 100
AcDbEntity
   8
LEVEL001
 370
13
 100
AcDbLine
   6
CONTINUOUS
  62
5
  10
 1142.6216211212
  20
 1055.1677547816
  30
0.0
  11
 1354.4716211212
  21
 1267.0177547816
  31
0.0
   0
LINE
   5
26A
 100
AcDbEntity
   8
LEVEL001
 370
13
 100
AcDbLine
   6
CONTINUOUS
  62
5
  10
 1354.4716211212
  20
 1302.3730938409
  30
0.0
  11
 1142.6216211212
  21
 1090.5230938409
  31
0.0
   0
MTEXT
   5
26B
 100
AcDbEntity
   8
LEVEL001
 370
13
  62
1
 100
AcDbMText
  10
 1341.4341211213
  20
 3808.4177547821
  30
0.0
  40
 80.000000000000
  41
0.0
  71
4
  72
1
   1
{\T1.000000;注}\P{\T1.000000;意}
   7
GMM004
  44
 0.79999984000003
   0
LINE
   5
26C
 100
AcDbEntity
   8
LEVEL001
 370
13
 100
AcDbLine
   6
DOT
  62
1
  10
 2930.7716211212
  20
 1147.6677547813
  30
0.0
  11
 2854.4716211212
  21
 1147.6677547813
  31
0.0
   0
LINE
   5
26D
 100
AcDbEntity
   8
LEVEL001
 370
13
 100
AcDbLine
   6
DOT
  62
1
  10
 2854.4716211212
  20
 1162.6677547813
  30
0.0
  11
 2930.7716211212
  21
 1162.6677547813
  31
0.0
   0
LINE
   5
26E
 100
AcDbEntity
   8
LEVEL001
 370
13
 100
AcDbLine
   6
CONTINUOUS
  62
6
  10
 5603.5307120303
  20
 1505.1685393258
  30
0.0
  11
 8119.2884912384
  21
 1505.1685393258
  31
0.0
   0
LINE
   5
26F
 100
AcDbEntity
   8
LEVEL001
 370
13
 100
AcDbLine
   6
CONTINUOUS
  62
6
  10
 5603.5307120303
  20
 1375.1685393258
  30
0.0
  11
 8119.2884912384
  21
 1375.1685393258
  31
0.0
   0
LINE
   5
270
 100
AcDbEntity
   8
LEVEL001
 370
13
 100
AcDbLine
   6
CONTINUOUS
  62
6
  10
 5603.5307120303
  20
 1245.1685393258
  30
0.0
  11
 8119.2884912384
  21
 1245.1685393258
  31
0.0
   0
LINE
   5
271
 100
AcDbEntity
   8
LEVEL001
 370
13
 100
AcDbLine
   6
CONTINUOUS
  62
6
  10
 5603.5307120303
  20
 1115.1685393258
  30
0.0
  11
 8119.2884912384
  21
 1115.1685393258
  31
0.0
   0
MTEXT
   5
273
 100
AcDbEntity
   8
LEVEL001
 370
13
  62
1
 100
AcDbMText
  10
 5774.5096857843
  20
 1138.7421470217
  30
0.0
  40
 80.000000000000
  41
0.0
  71
9
  72
1
   1
\T1.000000;１３
   7
GMM005
  44
 0.79999984000003
   0
MTEXT
   5
275
 100
AcDbEntity
   8
LEVEL001
 370
13
  62
1
 100
AcDbMText
  10
 5774.5096857843
  20
 1268.7421470217
  30
0.0
  40
 80.000000000000
  41
0.0
  71
9
  72
1
   1
\T1.000000;１２
   7
GMM005
  44
 0.79999984000003
   0
MTEXT
   5
277
 100
AcDbEntity
   8
LEVEL001
 370
13
  62
1
 100
AcDbMText
  10
 5774.5096857843
  20
 1398.7421470217
  30
0.0
  40
 80.000000000000
  41
0.0
  71
9
  72
1
   1
\T1.000000;１１
   7
GMM005
  44
 0.79999984000003
   0
LINE
   5
278
 100
AcDbEntity
   8
LEVEL001
 370
13
 100
AcDbLine
   6
CONTINUOUS
  62
6
  10
 5603.5307120303
  20
 985.16853932584
  30
0.0
  11
 8119.2884912384
  21
 985.16853932584
  31
0.0
   0
MTEXT
   5
27A
 100
AcDbEntity
   8
LEVEL001
 370
13
  62
1
 100
AcDbMText
  10
 5853.5307120303
  20
 878.74214702173
  30
0.0
  40
 80.000000000000
  41
0.0
  71
7
  72
1
   1
\T1.000000;同上ボルトナット
   7
GMM006
  44
 0.79999984000003
   0
MTEXT
   5
27C
 100
AcDbEntity
   8
LEVEL001
 370
13
  62
1
 100
AcDbMText
  10
 5853.5307120303
  20
 1008.7421470217
  30
0.0
  40
 80.000000000000
  41
0.0
  71
7
  72
1
   1
\T1.000000;注意板取付バンド
   7
GMM006
  44
 0.79999984000003
   0
MTEXT
   5
27E
 100
AcDbEntity
   8
LEVEL001
 370
13
  62
1
 100
AcDbMText
  10
 6824.5096857843
  20
 1138.7421470217
  30
0.0
  40
 80.000000000000
  41
0.0
  71
9
  72
1
   1
\T1.000000;１
   7
GMM006
  44
 0.79999984000003
   0
MTEXT
   5
280
 100
AcDbEntity
   8
LEVEL001
 370
13
  62
1
 100
AcDbMText
  10
 5853.5307120303
  20
 1268.7421470217
  30
0.0
  40
 80.000000000000
  41
0.0
  71
7
  72
1
   1
\T1.000000;キャップ
   7
GMM006
  44
 0.79999984000003
   0
MTEXT
   5
282
 100
AcDbEntity
   8
LEVEL001
 370
13
  62
1
 100
AcDbMText
  10
 6824.5096857843
  20
 1268.7421470217
  30
0.0
  40
 80.000000000000
  41
0.0
  71
9
  72
1
   1
\T1.000000;１
   7
GMM006
  44
 0.79999984000003
   0
MTEXT
   5
284
 100
AcDbEntity
   8
LEVEL001
 370
13
  62
1
 100
AcDbMText
  10
 6903.5307120303
  20
 1268.7421470217
  30
0.0
  40
 80.000000000000
  41
0.0
  71
7
  72
1
   1
\T1.000000;ＰＥ
   7
GMM006
  44
 0.79999984000003
   0
MTEXT
   5
286
 100
AcDbEntity
   8
LEVEL001
 370
13
  62
1
 100
AcDbMText
  10
 5853.5307120303
  20
 1398.7421470217
  30
0.0
  40
 80.000000000000
  41
0.0
  71
7
  72
1
   1
\T1.000000;根入れ鉄筋
   7
GMM006
  44
 0.79999984000003
   0
MTEXT
   5
288
 100
AcDbEntity
   8
LEVEL001
 370
13
  62
1
 100
AcDbMText
  10
 5774.5096857843
  20
 878.74214702173
  30
0.0
  40
 80.000000000000
  41
0.0
  71
9
  72
1
   1
\T1.000000;１５
   7
GMM005
  44
 0.79999984000003
   0
MTEXT
   5
28A
 100
AcDbEntity
   8
LEVEL001
 370
13
  62
1
 100
AcDbMText
  10
 5774.5096857843
  20
 1008.7421470217
  30
0.0
  40
 80.000000000000
  41
0.0
  71
9
  72
1
   1
\T1.000000;１４
   7
GMM005
  44
 0.79999984000003
   0
MTEXT
   5
28C
 100
AcDbEntity
   8
LEVEL001
 370
13
  62
1
 100
AcDbMText
  10
 6824.5096857843
  20
 1398.7421470217
  30
0.0
  40
 80.000000000000
  41
0.0
  71
9
  72
1
   1
\T1.000000;１
   7
GMM006
  44
 0.79999984000003
   0
MTEXT
   5
28E
 100
AcDbEntity
   8
LEVEL001
 370
13
  62
1
 100
AcDbMText
  10
 6903.5307120303
  20
 1398.7421470217
  30
0.0
  40
 80.000000000000
  41
0.0
  71
7
  72
1
   1
\T1.000000;ＳＤ２９５Ａ
   7
GMM006
  44
 0.79999984000003
   0
LEADER
   5
28F
 100
AcDbEntity
   8
LEVEL001
 370
13
   6
CONTINUOUS
  62
6
 100
AcDbLeader
   3
GMM007
  73
0
  74
0
  75
0
  40
 66.000000000000
  41
 676.00000000000
  76
2
  10
 1524.2948387105
  20
 4415.8031784316
  30
0.0
  10
 1795.0190844898
  20
 4166.2936351111
  30
0.0
  77
6
 340
290
 213
0.0
 223
-28.285714285715
 233
0.0
   0
MTEXT
   5
290
 102
{ACAD_REACTORS
 330
28F
 102
}
 100
AcDbEntity
   8
LEVEL001
 370
13
  62
1
 100
AcDbMText
  10
 1795.0190844898
  20
 4194.5793493968
  30
0.0
  40
 66.000000000000
  41
0.0
  71
7
  72
1
   1
\A1;表面：超親水性コーティング
   7
GMM002
   0
LINE
   5
291
 100
AcDbEntity
   8
LEVEL001
 370
13
 100
AcDbLine
   6
CONTINUOUS
  62
6
  10
 5603.5307120303
  20
 1765.1685393258
  30
0.0
  11
 8119.2884912384
  21
 1765.1685393258
  31
0.0
   0
LINE
   5
292
 100
AcDbEntity
   8
LEVEL001
 370
13
 100
AcDbLine
   6
CONTINUOUS
  62
6
  10
 5603.5307120303
  20
 1895.1685393258
  30
0.0
  11
 8119.2884912384
  21
 1895.1685393258
  31
0.0
   0
LINE
   5
293
 100
AcDbEntity
   8
LEVEL001
 370
13
 100
AcDbLine
   6
CONTINUOUS
  62
6
  10
 5603.5307120303
  20
 2025.1685393258
  30
0.0
  11
 8119.2884912384
  21
 2025.1685393258
  31
0.0
   0
LINE
   5
294
 100
AcDbEntity
   8
LEVEL001
 370
13
 100
AcDbLine
   6
CONTINUOUS
  62
6
  10
 5603.5307120303
  20
 2155.1685393258
  30
0.0
  11
 8119.2884912384
  21
 2155.1685393258
  31
0.0
   0
LINE
   5
295
 100
AcDbEntity
   8
LEVEL001
 370
13
 100
AcDbLine
   6
CONTINUOUS
  62
6
  10
 5603.5307120303
  20
 2285.1685393258
  30
0.0
  11
 8119.2884912384
  21
 2285.1685393258
  31
0.0
   0
LINE
   5
296
 100
AcDbEntity
   8
LEVEL001
 370
13
 100
AcDbLine
   6
CONTINUOUS
  62
6
  10
 5603.5307120303
  20
 2415.1685393258
  30
0.0
  11
 8119.2884912384
  21
 2415.1685393258
  31
0.0
   0
LINE
   5
297
 100
AcDbEntity
   8
LEVEL001
 370
13
 100
AcDbLine
   6
CONTINUOUS
  62
6
  10
 5603.5307120303
  20
 2545.1685393258
  30
0.0
  11
 8119.2884912384
  21
 2545.1685393258
  31
0.0
   0
LINE
   5
298
 100
AcDbEntity
   8
LEVEL001
 370
13
 100
AcDbLine
   6
CONTINUOUS
  62
6
  10
 5603.5307120303
  20
 2675.1685393258
  30
0.0
  11
 8119.2884912384
  21
 2675.1685393258
  31
0.0
   0
LINE
   5
299
 100
AcDbEntity
   8
LEVEL001
 370
13
 100
AcDbLine
   6
CONTINUOUS
  62
6
  10
 5603.5307120303
  20
 2805.1685393258
  30
0.0
  11
 8119.2884912384
  21
 2805.1685393258
  31
0.0
   0
MTEXT
   5
29B
 100
AcDbEntity
   8
LEVEL001
 370
13
  62
1
 100
AcDbMText
  10
 5774.5096857843
  20
 1658.7421470217
  30
0.0
  40
 80.000000000000
  41
0.0
  71
9
  72
1
   1
\T1.000000;１０
   7
GMM005
  44
 0.79999984000003
   0
MTEXT
   5
29D
 100
AcDbEntity
   8
LEVEL001
 370
13
  62
1
 100
AcDbMText
  10
 5774.5096857843
  20
 1788.7421470217
  30
0.0
  40
 80.000000000000
  41
0.0
  71
9
  72
1
   1
\T1.000000;９
   7
GMM005
  44
 0.79999984000003
   0
MTEXT
   5
29F
 100
AcDbEntity
   8
LEVEL001
 370
13
  62
1
 100
AcDbMText
  10
 5774.5096857843
  20
 1918.7421470217
  30
0.0
  40
 80.000000000000
  41
0.0
  71
9
  72
1
   1
\T1.000000;８
   7
GMM005
  44
 0.79999984000003
   0
MTEXT
   5
2A1
 100
AcDbEntity
   8
LEVEL001
 370
13
  62
1
 100
AcDbMText
  10
 5774.5096857843
  20
 2048.7421470217
  30
0.0
  40
 80.000000000000
  41
0.0
  71
9
  72
1
   1
\T1.000000;７
   7
GMM005
  44
 0.79999984000003
   0
MTEXT
   5
2A3
 100
AcDbEntity
   8
LEVEL001
 370
13
  62
1
 100
AcDbMText
  10
 5774.5096857843
  20
 2178.7421470217
  30
0.0
  40
 80.000000000000
  41
0.0
  71
9
  72
1
   1
\T1.000000;６
   7
GMM005
  44
 0.79999984000003
   0
MTEXT
   5
2A5
 100
AcDbEntity
   8
LEVEL001
 370
13
  62
1
 100
AcDbMText
  10
 5774.5096857843
  20
 2308.7421470217
  30
0.0
  40
 80.000000000000
  41
0.0
  71
9
  72
1
   1
\T1.000000;５
   7
GMM005
  44
 0.79999984000003
   0
MTEXT
   5
2A7
 100
AcDbEntity
   8
LEVEL001
 370
13
  62
1
 100
AcDbMText
  10
 5774.5096857843
  20
 2438.7421470217
  30
0.0
  40
 80.000000000000
  41
0.0
  71
9
  72
1
   1
\T1.000000;４
   7
GMM005
  44
 0.79999984000003
   0
MTEXT
   5
2A9
 100
AcDbEntity
   8
LEVEL001
 370
13
  62
1
 100
AcDbMText
  10
 5774.5096857843
  20
 2568.7421470217
  30
0.0
  40
 80.000000000000
  41
0.0
  71
9
  72
1
   1
\T1.000000;３
   7
GMM005
  44
 0.79999984000003
   0
MTEXT
   5
2AB
 100
AcDbEntity
   8
LEVEL001
 370
13
  62
1
 100
AcDbMText
  10
 6824.5096857843
  20
 2568.7421470217
  30
0.0
  40
 80.000000000000
  41
0.0
  71
9
  72
1
   1
\T1.000000;１
   7
GMM006
  44
 0.79999984000003
   0
MTEXT
   5
2AD
 100
AcDbEntity
   8
LEVEL001
 370
13
  62
1
 100
AcDbMText
  10
 5853.5307120303
  20
 2568.7421470217
  30
0.0
  40
 80.000000000000
  41
0.0
  71
7
  72
1
   1
\T1.000000;フード
   7
GMM006
  44
 0.79999984000003
   0
MTEXT
   5
2AF
 100
AcDbEntity
   8
LEVEL001
 370
13
  62
1
 100
AcDbMText
  10
 5774.5096857843
  20
 2698.7421470217
  30
0.0
  40
 80.000000000000
  41
0.0
  71
9
  72
1
   1
\T1.000000;２
   7
GMM005
  44
 0.79999984000003
   0
MTEXT
   5
2B1
 100
AcDbEntity
   8
LEVEL001
 370
13
  62
1
 100
AcDbMText
  10
 6824.5096857843
  20
 2698.7421470217
  30
0.0
  40
 80.000000000000
  41
0.0
  71
9
  72
1
   1
\T1.000000;１
   7
GMM006
  44
 0.79999984000003
   0
MTEXT
   5
2B3
 100
AcDbEntity
   8
LEVEL001
 370
13
  62
1
 100
AcDbMText
  10
 5853.5307120303
  20
 2698.7421470217
  30
0.0
  40
 80.000000000000
  41
0.0
  71
7
  72
1
   1
\T1.000000;バックプレート
   7
GMM006
  44
 0.79999984000003
   0
MTEXT
   5
2B5
 100
AcDbEntity
   8
LEVEL001
 370
13
  62
1
 100
AcDbMText
  10
 6903.5307120303
  20
 2698.7421470217
  30
0.0
  40
 80.000000000000
  41
0.0
  71
7
  72
1
   1
\T1.000000;ＦＲＰ
   7
GMM006
  44
 0.79999984000003
   0
MTEXT
   5
2B7
 100
AcDbEntity
   8
LEVEL001
 370
13
  62
1
 100
AcDbMText
  10
 6903.5307120303
  20
 2568.7421470217
  30
0.0
  40
 80.000000000000
  41
0.0
  71
7
  72
1
   1
\T1.000000;ＰＣ
   7
GMM006
  44
 0.79999984000003
   0
MTEXT
   5
2B9
 100
AcDbEntity
   8
LEVEL001
 370
13
  62
1
 100
AcDbMText
  10
 5853.5307120303
  20
 1658.7421470217
  30
0.0
  40
 80.000000000000
  41
0.0
  71
7
  72
1
   1
\T1.000000;支柱
   7
GMM006
  44
 0.79999984000003
   0
MTEXT
   5
2BB
 100
AcDbEntity
   8
LEVEL001
 370
13
  62
1
 100
AcDbMText
  10
 6824.5096857843
  20
 1658.7421470217
  30
0.0
  40
 80.000000000000
  41
0.0
  71
9
  72
1
   1
\T1.000000;１
   7
GMM006
  44
 0.79999984000003
   0
MTEXT
   5
2BD
 100
AcDbEntity
   8
LEVEL001
 370
13
  62
1
 100
AcDbMText
  10
 6903.5307120303
  20
 1658.7421470217
  30
0.0
  40
 80.000000000000
  41
0.0
  71
7
  72
1
   1
\T1.000000;ＳＴＫ４００
   7
GMM006
  44
 0.79999984000003
   0
MTEXT
   5
2BF
 100
AcDbEntity
   8
LEVEL001
 370
13
  62
1
 100
AcDbMText
  10
 6903.5307120303
  20
 1788.7421470217
  30
0.0
  40
 80.000000000000
  41
0.0
  71
7
  72
1
   1
\T1.000000;ＳＳ４００
   7
GMM006
  44
 0.79999984000003
   0
MTEXT
   5
2C1
 100
AcDbEntity
   8
LEVEL001
 370
13
  62
1
 100
AcDbMText
  10
 5853.5307120303
  20
 1788.7421470217
  30
0.0
  40
 80.000000000000
  41
0.0
  71
7
  72
1
   1
\T1.000000;金具締付ボルトナット
   7
GMM006
  44
 0.79999984000003
   0
MTEXT
   5
2C3
 100
AcDbEntity
   8
LEVEL001
 370
13
  62
1
 100
AcDbMText
  10
 6903.5307120303
  20
 1918.7421470217
  30
0.0
  40
 80.000000000000
  41
0.0
  71
7
  72
1
   1
\T1.000000;ＳＳ４００
   7
GMM006
  44
 0.79999984000003
   0
MTEXT
   5
2C5
 100
AcDbEntity
   8
LEVEL001
 370
13
  62
1
 100
AcDbMText
  10
 5853.5307120303
  20
 1918.7421470217
  30
0.0
  40
 80.000000000000
  41
0.0
  71
7
  72
1
   1
\T1.000000;裏板金具取付ボルト
   7
GMM006
  44
 0.79999984000003
   0
MTEXT
   5
2C7
 100
AcDbEntity
   8
LEVEL001
 370
13
  62
1
 100
AcDbMText
  10
 6824.5096857843
  20
 1918.7421470217
  30
0.0
  40
 80.000000000000
  41
0.0
  71
9
  72
1
   1
\T1.000000;４
   7
GMM006
  44
 0.79999984000003
   0
MTEXT
   5
2C9
 100
AcDbEntity
   8
LEVEL001
 370
13
  62
1
 100
AcDbMText
  10
 6903.5307120303
  20
 2048.7421470217
  30
0.0
  40
 80.000000000000
  41
0.0
  71
7
  72
1
   1
\T1.000000;ＳＳ４００
   7
GMM006
  44
 0.79999984000003
   0
MTEXT
   5
2CB
 100
AcDbEntity
   8
LEVEL001
 370
13
  62
1
 100
AcDbMText
  10
 5853.5307120303
  20
 2048.7421470217
  30
0.0
  40
 80.000000000000
  41
0.0
  71
7
  72
1
   1
\T1.000000;支柱取付金具
   7
GMM006
  44
 0.79999984000003
   0
MTEXT
   5
2CD
 100
AcDbEntity
   8
LEVEL001
 370
13
  62
1
 100
AcDbMText
  10
 5853.5307120303
  20
 2178.7421470217
  30
0.0
  40
 80.000000000000
  41
0.0
  71
7
  72
1
   1
\T1.000000;裏板取付金具
   7
GMM006
  44
 0.79999984000003
   0
MTEXT
   5
2CF
 100
AcDbEntity
   8
LEVEL001
 370
13
  62
1
 100
AcDbMText
  10
 6903.5307120303
  20
 2178.7421470217
  30
0.0
  40
 80.000000000000
  41
0.0
  71
7
  72
1
   1
\T1.000000;ＳＳ４００
   7
GMM006
  44
 0.79999984000003
   0
MTEXT
   5
2D1
 100
AcDbEntity
   8
LEVEL001
 370
13
  62
1
 100
AcDbMText
  10
 6824.5096857843
  20
 1788.7421470217
  30
0.0
  40
 80.000000000000
  41
0.0
  71
9
  72
1
   1
\T1.000000;４
   7
GMM006
  44
 0.79999984000003
   0
MTEXT
   5
2D3
 100
AcDbEntity
   8
LEVEL001
 370
13
  62
1
 100
AcDbMText
  10
 6824.5096857843
  20
 2438.7421470217
  30
0.0
  40
 80.000000000000
  41
0.0
  71
9
  72
1
   1
\T1.000000;１
   7
GMM006
  44
 0.79999984000003
   0
MTEXT
   5
2D5
 100
AcDbEntity
   8
LEVEL001
 370
13
  62
1
 100
AcDbMText
  10
 5853.5307120303
  20
 2438.7421470217
  30
0.0
  40
 80.000000000000
  41
0.0
  71
7
  72
1
   1
\T1.000000;取付枠
   7
GMM006
  44
 0.79999984000003
   0
MTEXT
   5
2D7
 100
AcDbEntity
   8
LEVEL001
 370
13
  62
1
 100
AcDbMText
  10
 6903.5307120303
  20
 2438.7421470217
  30
0.0
  40
 80.000000000000
  41
0.0
  71
7
  72
1
   1
\T1.000000;アルミニウム
   7
GMM006
  44
 0.79999984000003
   0
MTEXT
   5
2D9
 100
AcDbEntity
   8
LEVEL001
 370
13
  62
1
 100
AcDbMText
  10
 5853.5307120303
  20
 2308.7421470217
  30
0.0
  40
 80.000000000000
  41
0.0
  71
7
  72
1
   1
\T1.000000;取付枠取付リベット
   7
GMM006
  44
 0.79999984000003
   0
MTEXT
   5
2DB
 100
AcDbEntity
   8
LEVEL001
 370
13
  62
1
 100
AcDbMText
  10
 6903.5307120303
  20
 2308.7421470217
  30
0.0
  40
 80.000000000000
  41
0.0
  71
7
  72
1
   1
\T1.000000;アルミニウム
   7
GMM006
  44
 0.79999984000003
   0
MTEXT
   5
2DD
 100
AcDbEntity
   8
LEVEL001
 370
13
  62
1
 100
AcDbMText
  10
 6824.5096857843
  20
 2308.7421470217
  30
0.0
  40
 80.000000000000
  41
0.0
  71
9
  72
1
   1
\T1.000000;１１
   7
GMM006
  44
 0.79999984000003
   0
MTEXT
   5
2DF
 100
AcDbEntity
   8
LEVEL001
 370
13
  62
1
 100
AcDbMText
  10
 6824.5096857843
  20
 2178.7421470217
  30
0.0
  40
 80.000000000000
  41
0.0
  71
9
  72
1
   1
\T1.000000;１
   7
GMM006
  44
 0.79999984000003
   0
MTEXT
   5
2E1
 100
AcDbEntity
   8
LEVEL001
 370
13
  62
1
 100
AcDbMText
  10
 6824.5096857843
  20
 2048.7421470217
  30
0.0
  40
 80.000000000000
  41
0.0
  71
9
  72
1
   1
\T1.000000;１
   7
GMM006
  44
 0.79999984000003
   0
MTEXT
   5
2E3
 100
AcDbEntity
   8
LEVEL001
 370
13
  62
1
 100
AcDbMText
  10
 7423.5307120303
  20
 1658.7421470217
  30
0.0
  40
 80.000000000000
  41
0.0
  71
7
  72
1
   1
\T1.000000;静電粉体塗装
   7
GMM006
  44
 0.79999984000003
   0
MTEXT
   5
2E5
 100
AcDbEntity
   8
LEVEL001
 370
13
  62
1
 100
AcDbMText
  10
 7423.5307120303
  20
 1788.7421470217
  30
0.0
  40
 80.000000000000
  41
0.0
  71
7
  72
1
   1
\T1.000000;溶融亜鉛メッキ
   7
GMM006
  44
 0.79999984000003
   0
MTEXT
   5
2E7
 100
AcDbEntity
   8
LEVEL001
 370
13
  62
1
 100
AcDbMText
  10
 7423.5307120303
  20
 1918.7421470217
  30
0.0
  40
 80.000000000000
  41
0.0
  71
7
  72
1
   1
\T1.000000;溶融亜鉛メッキ
   7
GMM006
  44
 0.79999984000003
   0
MTEXT
   5
2E9
 100
AcDbEntity
   8
LEVEL001
 370
13
  62
1
 100
AcDbMText
  10
 7423.5307120303
  20
 2048.7421470217
  30
0.0
  40
 80.000000000000
  41
0.0
  71
7
  72
1
   1
\T1.000000;溶融亜鉛メッキ
   7
GMM006
  44
 0.79999984000003
   0
MTEXT
   5
2EB
 100
AcDbEntity
   8
LEVEL001
 370
13
  62
1
 100
AcDbMText
  10
 7423.5307120303
  20
 2178.7421470217
  30
0.0
  40
 80.000000000000
  41
0.0
  71
7
  72
1
   1
\T1.000000;溶融亜鉛メッキ
   7
GMM006
  44
 0.79999984000003
   0
MTEXT
   5
2ED
 100
AcDbEntity
   8
LEVEL001
 370
13
  62
1
 100
AcDbMText
  10
 7423.5307120303
  20
 2698.7421470217
  30
0.0
  40
 80.000000000000
  41
0.0
  71
7
  72
1
   1
\T1.000000;ＳＭＣ成型
   7
GMM006
  44
 0.79999984000003
   0
LINE
   5
2EE
 100
AcDbEntity
   8
LEVEL001
 370
13
 100
AcDbLine
   6
CONTINUOUS
  62
6
  10
 5603.5307120303
  20
 3335.1685393258
  30
0.0
  11
 8119.2884912384
  21
 3335.1685393258
  31
0.0
   0
LINE
   5
2EF
 100
AcDbEntity
   8
LEVEL001
 370
13
 100
AcDbLine
   6
CONTINUOUS
  62
6
  10
 5603.5307120303
  20
 3635.1685393258
  30
0.0
  11
 8119.2884912384
  21
 3635.1685393258
  31
0.0
   0
MTEXT
   5
2F1
 100
AcDbEntity
   8
LEVEL001
 370
13
  62
1
 100
AcDbMText
  10
 5774.5096857843
  20
 3088.7421470217
  30
0.0
  40
 80.000000000000
  41
0.0
  71
9
  72
1
   1
\T1.000000;１
   7
GMM005
  44
 0.79999984000003
   0
MTEXT
   5
2F3
 100
AcDbEntity
   8
LEVEL001
 370
13
  62
1
 100
AcDbMText
  10
 6824.5096857843
  20
 3088.7421470217
  30
0.0
  40
 80.000000000000
  41
0.0
  71
9
  72
1
   1
\T1.000000;１
   7
GMM006
  44
 0.79999984000003
   0
MTEXT
   5
2F5
 100
AcDbEntity
   8
LEVEL001
 370
13
  62
1
 100
AcDbMText
  10
 6753.5307120303
  20
 3265.1685393258
  30
0.0
  40
 80.000000000000
  41
0.0
  71
5
  72
1
   1
\T1.000000;個数
   7
GMM006
  44
 0.79999984000003
   0
MTEXT
   5
2F7
 100
AcDbEntity
   8
LEVEL001
 370
13
  62
1
 100
AcDbMText
  10
 7103.5307120303
  20
 3265.1685393258
  30
0.0
  40
 80.000000000000
  41
0.0
  71
5
  72
1
   1
\T1.000000;材　　質
   7
GMM006
  44
 0.79999984000003
   0
MTEXT
   5
2F9
 100
AcDbEntity
   8
LEVEL001
 370
13
  62
1
 100
AcDbMText
  10
 6228.5307120303
  20
 3265.1685393258
  30
0.0
  40
 80.000000000000
  41
0.0
  71
5
  72
1
   1
\T1.000000;名　　称
   7
GMM006
  44
 0.79999984000003
   0
MTEXT
   5
2FB
 100
AcDbEntity
   8
LEVEL001
 370
13
  62
1
 100
AcDbMText
  10
 5853.5307120303
  20
 3088.7421470217
  30
0.0
  40
 80.000000000000
  41
0.0
  71
7
  72
1
   1
\T1.000000;鏡面　Ｒ＝３０００
   7
GMM006
  44
 0.79999984000003
   0
MTEXT
   5
2FD
 100
AcDbEntity
   8
LEVEL001
 370
13
  62
1
 100
AcDbMText
  10
 5768.9585695059
  20
 3377.3230790852
  30
0.0
  40
 80.000000000000
  41
0.0
  71
7
  72
1
   1
%%c\T1.000000;８００（シングル）
   7
GMM001
  44
 0.79999984000003
   0
LINE
   5
2FE
 100
AcDbEntity
   8
LEVEL001
 370
13
 100
AcDbLine
   6
CONTINUOUS
  62
6
  10
 5603.5307120303
  20
 3195.1685393258
  30
0.0
  11
 8119.2884912384
  21
 3195.1685393258
  31
0.0
   0
MTEXT
   5
300
 100
AcDbEntity
   8
LEVEL001
 370
13
  62
1
 100
AcDbMText
  10
 7756.4096016343
  20
 3265.1685393258
  30
0.0
  40
 80.000000000000
  41
0.0
  71
5
  72
1
   1
\T1.000000;規格仕様
   7
GMM006
  44
 0.79999984000003
   0
MTEXT
   5
302
 100
AcDbEntity
   8
LEVEL001
 370
13
  62
1
 100
AcDbMText
  10
 5768.9585695059
  20
 3514.6753699136
  30
0.0
  40
 80.000000000000
  41
0.0
  71
7
  72
1
   1
\T1.000000;アクリーン＜Ｆタイプ＞
   7
GMM001
  44
 0.79999984000003
   0
MTEXT
   5
304
 100
AcDbEntity
   8
LEVEL001
 370
13
  62
1
 100
AcDbMText
  10
 6903.5307120303
  20
 3088.7421470217
  30
0.0
  40
 80.000000000000
  41
0.0
  71
4
  72
1
   1
{\W0.900000;\T1.000000;ＰＭＭＡ}\P{\W0.450000;\T1.000000;(\W0.900000;\T1.000000;アクリル\W0.450000;\T1.000000;)}
   7
GMM006
  44
 0.79999984000003
   0
MTEXT
   5
306
 100
AcDbEntity
   8
LEVEL001
 370
13
  62
1
 100
AcDbMText
  10
 7423.5307120303
  20
 3168.7421470217
  30
0.0
  40
 80.000000000000
  41
0.0
  71
1
  72
1
   1
{\W0.325000;\T1.000000;t=3.0mm}\P{\W0.650000;\T1.000000;裏面：真空蒸着}\P{\W0.650000;\T1.000000;表面：超親水性コーティング}
   7
GMM007
  44
 0.79999984000003
   0
MTEXT
   5
308
 100
AcDbEntity
   8
LEVEL001
 370
13
  62
1
 100
AcDbMText
  10
 6423.5307120303
  20
 699.81365304159
  30
0.0
  40
 66.000000000000
  41
0.0
  71
5
  72
1
   1
\T1.000000;ＭＦ０８０Ｓ
   7
GMM002
  44
 0.79999984000003
   0
MTEXT
   5
309
 100
AcDbEntity
   8
LEVEL001
 370
13
  62
1
 100
AcDbMText
  10
 5626.4571189567
  20
 798.95350956394
  30
0.0
  40
 37.142857142857
  41
0.0
  71
7
  72
1
   1
\T1.269231;図面番号
   7
GMM008
  44
 0.79999984000003
   0
MTEXT
   5
30B
 100
AcDbEntity
   8
LEVEL001
 370
13
  62
1
 100
AcDbMText
  10
 1737.2809491127
  20
 2666.6552077810
  30
0.0
  40
 66.000000000000
  41
0.0
  71
1
  72
1
   1
{\W0.787879;\T1.000000;支柱}\P%%c{\W0.787879;\T1.000000;７６\W0.393939;\T1.000000;.\W0.787879;\T1.000000;３ｘ３\W0.393939;\T1.000000;.\W0.787879;\T1.000000;２ｔ}\P{\W0.787879;\T1.000000;ｘ４０００Ｌ}
   7
GMM002
  44
 0.79999984000003
   0
LINE
   5
30C
 100
AcDbEntity
   8
LEVEL001
 370
13
 100
AcDbLine
   6
CONTINUOUS
  62
6
  10
 7373.5307120303
  20
 3335.1685393258
  30
0.0
  11
 7373.5307120303
  21
 855.16853932584
  31
0.0
   0
LINE
   5
30D
 100
AcDbEntity
   8
LEVEL001
 370
13
 100
AcDbLine
   6
CONTINUOUS
  62
6
  10
 6853.5307120303
  20
 3335.1685393258
  30
0.0
  11
 6853.5307120303
  21
 855.16853932584
  31
0.0
   0
MTEXT
   5
30F
 100
AcDbEntity
   8
LEVEL001
 370
13
  62
1
 100
AcDbMText
  10
 6824.5096857843
  20
 1008.7421470217
  30
0.0
  40
 80.000000000000
  41
0.0
  71
9
  72
1
   1
\T1.000000;１式
   7
GMM006
  44
 0.79999984000003
   0
MTEXT
   5
311
 100
AcDbEntity
   8
LEVEL001
 370
13
  62
1
 100
AcDbMText
  10
 6824.5096857843
  20
 878.74214702173
  30
0.0
  40
 80.000000000000
  41
0.0
  71
9
  72
1
   1
\T1.000000;１式
   7
GMM006
  44
 0.79999984000003
   0
MTEXT
   5
313
 100
AcDbEntity
   8
LEVEL001
 370
13
  62
1
 100
AcDbMText
  10
 6903.5307120303
  20
 1008.7421470217
  30
0.0
  40
 80.000000000000
  41
0.0
  71
7
  72
1
   1
\T1.000000;―
   7
GMM006
  44
 0.79999984000003
   0
MTEXT
   5
315
 100
AcDbEntity
   8
LEVEL001
 370
13
  62
1
 100
AcDbMText
  10
 6903.5307120303
  20
 878.74214702173
  30
0.0
  40
 80.000000000000
  41
0.0
  71
7
  72
1
   1
\T1.000000;―
   7
GMM006
  44
 0.79999984000003
   0
MTEXT
   5
317
 100
AcDbEntity
   8
LEVEL001
 370
13
  62
1
 100
AcDbMText
  10
 7423.5307120303
  20
 1008.7421470217
  30
0.0
  40
 80.000000000000
  41
0.0
  71
7
  72
1
   1
\T1.000000;―
   7
GMM006
  44
 0.79999984000003
   0
MTEXT
   5
319
 100
AcDbEntity
   8
LEVEL001
 370
13
  62
1
 100
AcDbMText
  10
 7423.5307120303
  20
 878.74214702173
  30
0.0
  40
 80.000000000000
  41
0.0
  71
7
  72
1
   1
\T1.000000;―
   7
GMM006
  44
 0.79999984000003
   0
LINE
   5
31A
 100
AcDbEntity
   8
LEVEL001
 370
13
 100
AcDbLine
   6
CONTINUOUS
  62
6
  10
 5603.5307120303
  20
 855.16853932584
  30
0.0
  11
 8119.2884912384
  21
 855.16853932584
  31
0.0
   0
MTEXT
   5
31C
 100
AcDbEntity
   8
LEVEL001
 370
13
  62
1
 100
AcDbMText
  10
 6903.5307120303
  20
 1138.7421470217
  30
0.0
  40
 80.000000000000
  41
0.0
  71
7
  72
1
   1
\T1.000000;―
   7
GMM006
  44
 0.79999984000003
   0
MTEXT
   5
31E
 100
AcDbEntity
   8
LEVEL001
 370
13
  62
1
 100
AcDbMText
  10
 7423.5307120303
  20
 1138.7421470217
  30
0.0
  40
 80.000000000000
  41
0.0
  71
7
  72
1
   1
\T1.000000;―
   7
GMM006
  44
 0.79999984000003
   0
MTEXT
   5
320
 100
AcDbEntity
   8
LEVEL001
 370
13
  62
1
 100
AcDbMText
  10
 6824.5096857843
  20
 1528.7421470217
  30
0.0
  40
 80.000000000000
  41
0.0
  71
9
  72
1
   1
\T1.000000;１
   7
GMM006
  44
 0.79999984000003
   0
MTEXT
   5
322
 100
AcDbEntity
   8
LEVEL001
 370
13
  62
1
 100
AcDbMText
  10
 6903.5307120303
  20
 1528.7421470217
  30
0.0
  40
 80.000000000000
  41
0.0
  71
7
  72
1
   1
\T1.000000;ＳＴＫ４００
   7
GMM006
  44
 0.79999984000003
   0
MTEXT
   5
324
 100
AcDbEntity
   8
LEVEL001
 370
13
  62
1
 100
AcDbMText
  10
 7423.5307120303
  20
 1570.1685393258
  30
0.0
  40
 44.000000000000
  41
0.0
  71
4
  72
1
   1
{\T1.000000;下地亜鉛メッキ}\P{\T1.000000;＋静電粉体塗装}
   7
GMM009
  44
 0.79999984000003
   0
LINE
   5
325
 100
AcDbEntity
   8
LEVEL001
 370
13
 100
AcDbLine
   6
CONTINUOUS
  62
6
  10
 5603.5307120303
  20
 3635.1685393258
  30
0.0
  11
 5603.5307120303
  21
 855.16853932584
  31
0.0
   0
LINE
   5
326
 100
AcDbEntity
   8
LEVEL001
 370
13
 100
AcDbLine
   6
CONTINUOUS
  62
6
  10
 5803.5307120303
  20
 3335.1685393258
  30
0.0
  11
 5803.5307120303
  21
 855.16853932584
  31
0.0
   0
LINE
   5
327
 100
AcDbEntity
   8
LEVEL001
 370
13
 100
AcDbLine
   6
CONTINUOUS
  62
6
  10
 6653.5307120303
  20
 3335.1685393258
  30
0.0
  11
 6653.5307120303
  21
 855.16853932584
  31
0.0
   0
LINE
   5
328
 100
AcDbEntity
   8
LEVEL001
 370
13
 100
AcDbLine
   6
CONTINUOUS
  62
6
  10
 8119.2884912384
  20
 855.16853932584
  30
0.0
  11
 8119.2884912384
  21
 3635.1685393258
  31
0.0
   0
MTEXT
   5
32A
 100
AcDbEntity
   8
LEVEL001
 370
13
  62
1
 100
AcDbMText
  10
 5659.9369446865
  20
 3879.4798946372
  30
0.0
  40
 80.000000000000
  41
0.0
  71
4
  72
1
   1
{\T1.000000;※構成部材は改良のため、変更する場合があります。}\P{\T1.000000;※本図は道路反射鏡ハンドブックに基づいています。}
   7
GMM006
  44
 0.94999981000004
   0
LINE
   5
32B
 100
AcDbEntity
   8
LEVEL001
 370
13
 100
AcDbLine
   6
CONTINUOUS
  62
6
  10
 6653.5307120303
  20
 1635.1685393258
  30
0.0
  11
 8119.2884912384
  21
 1635.1685393258
  31
0.0
   0
MTEXT
   5
32D
 100
AcDbEntity
   8
LEVEL001
 370
13
  62
1
 100
AcDbMText
  10
 5853.5307120303
  20
 1138.7421470217
  30
0.0
  40
 80.000000000000
  41
0.0
  71
7
  72
1
   1
\T1.000000;注意板
   7
GMM006
  44
 0.79999984000003
   0
ENDSEC
  0
SECTION
  2
OBJECTS
  0
DICTIONARY
  5
C
100
AcDbDictionary
  3
ACAD_GROUP
350
D
  3
ACAD_MLINESTYLE
350
1B
  3
DWGPROPS
350
1C
  0
DICTIONARY
  5
D
102
{ACAD_REACTORS
330
C
102
}
100
AcDbDictionary
  0
DICTIONARY
  5
1B
102
{ACAD_REACTORS
330
C
102
}
100
AcDbDictionary
  3
STANDARD
350
1D
  0
MLINESTYLE
  5
1D
102
{ACAD_REACTORS
330
1B
102
}
100
AcDbMlineStyle
  2
STANDARD
 70
     0
  3

 62
   256
 51
90.0
 52
90.0
 71
     2
 49
0.5
 62
   256
  6
BYLAYER
 49
-0.5
 62
   256
  6
BYLAYER
   0
XRECORD
   5
1C
 102
{ACAD_REACTORS
 330
C
 102
}
 330
C
 100
AcDbXrecord
 280
1
   1
DWGPROPS COOKIE
   2
 
   3
 
   4
 
   6
 
   7
MF080S
   8
 
   9

 300
 = 
 301
 = 
 302
 = 
 303
 = 
 304
 = 
 305
 = 
 306
 = 
 307
 = 
 308
 = 
 309
 = 
  40
0.0
  41
 2460327.5000000
  42
 2460327.5000000
   1

  90
10
   0
ENDSEC
   0
EOF
