   0
SECTION
   2
HEADER
   9
$ACADVER
   1
AC1015
   9
$DWGCODEPAGE
   3
ANSI_932
   9
$LIMMIN
  10
0.0
  20
0.0
   9
$LIMMAX
  10
 8400.0000000000
  20
 5940.0000000000
   9
$EXTMIN
  10
0.0
  20
0.0
  30
0.0
   9
$EXTMAX
  10
 8400.0000000000
  20
 5940.0000000000
  30
0.0
   9
$LTSCALE
  40
 168.00000000000
   9
$HANDSEED
   5
3C0
   0
ENDSEC
   0
SECTION
   2
TABLES
  0
TABLE
  2
VPORT
  5
8
100
AcDbSymbolTable
 70
     1
  0
VPORT
  5
3BF
100
AcDbSymbolTableRecord
100
AcDbViewportTableRecord
  2
*ACTIVE
 70
     0
 10
0.0
 20
0.0
 11
1.0
 21
1.0
  12
 4200.0000000000
  22
 2970.0000000000
 13
0.0
 23
0.0
 14
1.0
 24
1.0
 15
0.0
 25
0.0
 16
0.0
 26
0.0
 36
1.0
 17
0.0
 27
0.0
 37
0.0
  40
 8400.0000000000
  41
 1.4787878787879
 42
50.0
 43
0.0
 44
0.0
 50
0.0
 51
0.0
 71
     0
 72
   100
 73
     1
 74
     1
 75
     0
 76
     0
 77
     0
 78
     0
  0
ENDTAB
  0
TABLE
  2
LTYPE
  5
5
100
AcDbSymbolTable
 70
    25
  0
LTYPE
  5
12
100
AcDbSymbolTableRecord
100
AcDbLinetypeTableRecord
  2
BYBLOCK
 70
     0
  3

 72
    65
 73
     0
 40
0.0
  0
LTYPE
  5
13
100
AcDbSymbolTableRecord
100
AcDbLinetypeTableRecord
  2
BYLAYER
 70
     0
  3

 72
    65
 73
     0
 40
0.0
  0
LTYPE
  5
14
100
AcDbSymbolTableRecord
100
AcDbLinetypeTableRecord
  2
CONTINUOUS
 70
     0
  3
Solid line
 72
    65
 73
     0
 40
0.0
  0
LTYPE
  5
20
100
AcDbSymbolTableRecord
100
AcDbLinetypeTableRecord
  2
BORDER
 70
     0
  3
__ __ . __ __ . __ __ . __ __ . __ __ . __ __ .
 72
    65
 73
     6
 40
1.75
 49
0.5
 74
     0
 49
-0.25
 74
     0
 49
0.5
 74
     0
 49
-0.25
 74
     0
 49
0.0
 74
     0
 49
-0.25
 74
     0
  0
LTYPE
  5
21
100
AcDbSymbolTableRecord
100
AcDbLinetypeTableRecord
  2
BORDER2
 70
     0
  3
__.__.__.__.__.__.__.__.__.__.__.__.__.__.__.__
 72
    65
 73
     6
 40
0.875
 49
0.25
 74
     0
 49
-0.125
 74
     0
 49
0.25
 74
     0
 49
-0.125
 74
     0
 49
0.0
 74
     0
 49
-0.125
 74
     0
  0
LTYPE
  5
22
100
AcDbSymbolTableRecord
100
AcDbLinetypeTableRecord
  2
BORDERX2
 70
     0
  3
____  ____  .  ____  ____  .  ____  ____  .  __
 72
    65
 73
     6
 40
3.5
 49
1.0
 74
     0
 49
-0.5
 74
     0
 49
1.0
 74
     0
 49
-0.5
 74
     0
 49
0.0
 74
     0
 49
-0.5
 74
     0
  0
LTYPE
  5
23
100
AcDbSymbolTableRecord
100
AcDbLinetypeTableRecord
  2
CENTER
 70
     0
  3
____ _ ____ _ ____ _ ____ _ ____ _ ____ _ ____ 
 72
    65
 73
     4
 40
2.0
 49
1.25
 74
     0
 49
-0.25
 74
     0
 49
0.25
 74
     0
 49
-0.25
 74
     0
  0
LTYPE
  5
24
100
AcDbSymbolTableRecord
100
AcDbLinetypeTableRecord
  2
CENTER2
 70
     0
  3
___ _ ___ _ ___ _ ___ _ ___ _ ___ _ ___ _ ___ _
 72
    65
 73
     4
 40
1.125
 49
0.75
 74
     0
 49
-0.125
 74
     0
 49
0.125
 74
     0
 49
-0.125
 74
     0
  0
LTYPE
  5
25
100
AcDbSymbolTableRecord
100
AcDbLinetypeTableRecord
  2
CENTERX2
 70
     0
  3
________  __  ________  __  ________  __  _____
 72
    65
 73
     4
 40
4.0
 49
2.5
 74
     0
 49
-0.5
 74
     0
 49
0.5
 74
     0
 49
-0.5
 74
     0
  0
LTYPE
  5
26
100
AcDbSymbolTableRecord
100
AcDbLinetypeTableRecord
  2
DASHDOT
 70
     0
  3
__ . __ . __ . __ . __ . __ . __ . __ . __ . __
 72
    65
 73
     4
 40
1.0
 49
0.5
 74
     0
 49
-0.25
 74
     0
 49
0.0
 74
     0
 49
-0.25
 74
     0
  0
LTYPE
  5
27
100
AcDbSymbolTableRecord
100
AcDbLinetypeTableRecord
  2
DASHDOT2
 70
     0
  3
_._._._._._._._._._._._._._._._._._._._._._._._
 72
    65
 73
     4
 40
0.5
 49
0.25
 74
     0
 49
-0.125
 74
     0
 49
0.0
 74
     0
 49
-0.125
 74
     0
  0
LTYPE
  5
28
100
AcDbSymbolTableRecord
100
AcDbLinetypeTableRecord
  2
DASHDOTX2
 70
     0
  3
____  .  ____  .  ____  .  ____  .  ____  .  __
 72
    65
 73
     4
 40
2.0
 49
1.0
 74
     0
 49
-0.5
 74
     0
 49
0.0
 74
     0
 49
-0.5
 74
     0
  0
LTYPE
  5
29
100
AcDbSymbolTableRecord
100
AcDbLinetypeTableRecord
  2
DASHED
 70
     0
  3
__ __ __ __ __ __ __ __ __ __ __ __ __ __ __ __
 72
    65
 73
     2
 40
0.75
 49
0.5
 74
     0
 49
-0.25
 74
     0
  0
LTYPE
  5
2A
100
AcDbSymbolTableRecord
100
AcDbLinetypeTableRecord
  2
DASHED2
 70
     0
  3
_ _ _ _ _ _ _ _ _ _ _ _ _ _ _ _ _ _ _ _ _ _ _ _
 72
    65
 73
     2
 40
0.375
 49
0.25
 74
     0
 49
-0.125
 74
     0
  0
LTYPE
  5
2B
100
AcDbSymbolTableRecord
100
AcDbLinetypeTableRecord
  2
DASHEDX2
 70
     0
  3
____  ____  ____  ____  ____  ____  ____  ____ 
 72
    65
 73
     2
 40
1.5
 49
1.0
 74
     0
 49
-0.5
 74
     0
  0
LTYPE
  5
2C
100
AcDbSymbolTableRecord
100
AcDbLinetypeTableRecord
  2
DIVIDE
 70
     0
  3
____ . . ____ . . ____ . . ____ . . ____ . . __
 72
    65
 73
     6
 40
1.25
 49
0.5
 74
     0
 49
-0.25
 74
     0
 49
0.0
 74
     0
 49
-0.25
 74
     0
 49
0.0
 74
     0
 49
-0.25
 74
     0
  0
LTYPE
  5
2D
100
AcDbSymbolTableRecord
100
AcDbLinetypeTableRecord
  2
DIVIDE2
 70
     0
  3
__..__..__..__..__..__..__..__..__..__..__..__.
 72
    65
 73
     6
 40
0.625
 49
0.25
 74
     0
 49
-0.125
 74
     0
 49
0.0
 74
     0
 49
-0.125
 74
     0
 49
0.0
 74
     0
 49
-0.125
 74
     0
  0
LTYPE
  5
2E
100
AcDbSymbolTableRecord
100
AcDbLinetypeTableRecord
  2
DIVIDEX2
 70
     0
  3
________  .  .  ________  .  .  ________  .  . 
 72
    65
 73
     6
 40
2.5
 49
1.0
 74
     0
 49
-0.5
 74
     0
 49
0.0
 74
     0
 49
-0.5
 74
     0
 49
0.0
 74
     0
 49
-0.5
 74
     0
  0
LTYPE
  5
2F
100
AcDbSymbolTableRecord
100
AcDbLinetypeTableRecord
  2
DOT
 70
     0
  3
. . . . . . . . . . . . . . . . . . . . . . . .
 72
    65
 73
     2
 40
0.25
 49
0.0
 74
     0
 49
-0.25
 74
     0
  0
LTYPE
  5
30
100
AcDbSymbolTableRecord
100
AcDbLinetypeTableRecord
  2
DOT2
 70
     0
  3
...............................................
 72
    65
 73
     2
 40
0.125
 49
0.0
 74
     0
 49
-0.125
 74
     0
  0
LTYPE
  5
31
100
AcDbSymbolTableRecord
100
AcDbLinetypeTableRecord
  2
DOTX2
 70
     0
  3
.  .  .  .  .  .  .  .  .  .  .  .  .  .  .  . 
 72
    65
 73
     2
 40
0.5
 49
0.0
 74
     0
 49
-0.5
 74
     0
  0
LTYPE
  5
32
100
AcDbSymbolTableRecord
100
AcDbLinetypeTableRecord
  2
HIDDEN
 70
     0
  3
__ __ __ __ __ __ __ __ __ __ __ __ __ __ __ __
 72
    65
 73
     2
 40
0.375
 49
0.25
 74
     0
 49
-0.125
 74
     0
  0
LTYPE
  5
33
100
AcDbSymbolTableRecord
100
AcDbLinetypeTableRecord
  2
HIDDEN2
 70
     0
  3
_ _ _ _ _ _ _ _ _ _ _ _ _ _ _ _ _ _ _ _ _ _ _ _
 72
    65
 73
     2
 40
0.1875
 49
0.125
 74
     0
 49
-0.0625
 74
     0
  0
LTYPE
  5
34
100
AcDbSymbolTableRecord
100
AcDbLinetypeTableRecord
  2
HIDDENX2
 70
     0
  3
____ ____ ____ ____ ____ ____ ____ ____ ____ __
 72
    65
 73
     2
 40
0.75
 49
0.5
 74
     0
 49
-0.25
 74
     0
  0
LTYPE
  5
35
100
AcDbSymbolTableRecord
100
AcDbLinetypeTableRecord
  2
PHANTOM
 70
     0
  3
______  __  __  ______  __  __  ______  __  __ 
 72
    65
 73
     6
 40
2.5
 49
1.25
 74
     0
 49
-0.25
 74
     0
 49
0.25
 74
     0
 49
-0.25
 74
     0
 49
0.25
 74
     0
 49
-0.25
 74
     0
  0
LTYPE
  5
36
100
AcDbSymbolTableRecord
100
AcDbLinetypeTableRecord
  2
PHANTOM2
 70
     0
  3
___ _ _ ___ _ _ ___ _ _ ___ _ _ ___ _ _ ___ _ _
 72
    65
 73
     6
 40
1.25
 49
0.625
 74
     0
 49
-0.125
 74
     0
 49
0.125
 74
     0
 49
-0.125
 74
     0
 49
0.125
 74
     0
 49
-0.125
 74
     0
  0
LTYPE
  5
37
100
AcDbSymbolTableRecord
100
AcDbLinetypeTableRecord
  2
PHANTOMX2
 70
     0
  3
____________    ____    ____    ____________   
 72
    65
 73
     6
 40
5.0
 49
2.5
 74
     0
 49
-0.5
 74
     0
 49
0.5
 74
     0
 49
-0.5
 74
     0
 49
0.5
 74
     0
 49
-0.5
 74
     0
  0
ENDTAB
   0
TABLE
   2
LAYER
   5
2
 100
AcDbSymbolTable
  70
3
   0
LAYER
   5
E
 100
AcDbSymbolTableRecord
 100
AcDbLayerTableRecord
   2
0
  70
0
  62
7
   6
CONTINUOUS
 390
30
   0
LAYER
   5
39
 100
AcDbSymbolTableRecord
 100
AcDbLayerTableRecord
   2
LEVEL001
  70
0
  62
7
   6
CONTINUOUS
 390
30
   0
LAYER
   5
3A
 100
AcDbSymbolTableRecord
 100
AcDbLayerTableRecord
   2
LEVEL002
  70
0
  62
7
   6
CONTINUOUS
 390
30
   0
ENDTAB
  0
TABLE
  2
STYLE
  5
3
100
AcDbSymbolTable
  70
11
  0
STYLE
  5
F
100
AcDbSymbolTableRecord
100
AcDbTextStyleTableRecord
  2
STANDARD
 70
     0
 40
0.0
 41
1.0
 50
0.0
 71
     0
 42
0.2
  3
TXT
  4
BIGFONT
  0
STYLE
  5
38
100
AcDbSymbolTableRecord
100
AcDbTextStyleTableRecord
  2
STANDARD1
 70
     4
 40
0.0
 41
1.0
 50
0.0
 71
     0
 42
0.2
  3
TXT
  4
BIGFONT
   0
STYLE
   5
3B
 100
AcDbSymbolTableRecord
 100
AcDbTextStyleTableRecord
   2
GMM001
  70
0
  40
0.0
  41
 0.78787878787879
  50
0.0
  71
     0
  42
1.0
   3
txt.shx
   4
bigfont.shx
   0
STYLE
   5
3C
 100
AcDbSymbolTableRecord
 100
AcDbTextStyleTableRecord
   2
GMM002
  70
0
  40
0.0
  41
 1.0000000000000
  50
0.0
  71
     0
  42
1.0
   3
txt.shx
   4
bigfont.shx
   0
STYLE
   5
3D
 100
AcDbSymbolTableRecord
 100
AcDbTextStyleTableRecord
   2
GMM003
  70
0
  40
0.0
  41
 0.75000000000000
  50
0.0
  71
     0
  42
1.0
   3
txt.shx
   4
bigfont.shx
   0
STYLE
   5
3E
 100
AcDbSymbolTableRecord
 100
AcDbTextStyleTableRecord
   2
GMM004
  70
0
  40
0.0
  41
 0.90000000000000
  50
0.0
  71
     0
  42
1.0
   3

   4

1001
ACAD
1000
ＭＳ 明朝
1071
33587217
   0
STYLE
   5
3F
 100
AcDbSymbolTableRecord
 100
AcDbTextStyleTableRecord
   2
GMM005
  70
0
  40
0.0
  41
 0.87500000000000
  50
0.0
  71
     0
  42
1.0
   3
txt.shx
   4
bigfont.shx
   0
STYLE
   5
40
 100
AcDbSymbolTableRecord
 100
AcDbTextStyleTableRecord
   2
GMM006
  70
0
  40
0.0
  41
 0.90000000000000
  50
0.0
  71
     0
  42
1.0
   3
txt.shx
   4
bigfont.shx
   0
STYLE
   5
41
 100
AcDbSymbolTableRecord
 100
AcDbTextStyleTableRecord
   2
GMM007
  70
0
  40
0.0
  41
 0.65000000000000
  50
0.0
  71
     0
  42
1.0
   3
txt.shx
   4
bigfont.shx
   0
STYLE
   5
42
 100
AcDbSymbolTableRecord
 100
AcDbTextStyleTableRecord
   2
GMM008
  70
0
  40
0.0
  41
 1.6363636363636
  50
0.0
  71
     0
  42
1.0
   3
txt.shx
   4
bigfont.shx
   0
STYLE
   5
43
 100
AcDbSymbolTableRecord
 100
AcDbTextStyleTableRecord
   2
GMM009
  70
0
  40
0.0
  41
 1.0000000000000
  50
0.0
  71
     0
  42
1.0
   3

   4

1001
ACAD
1000
ＭＳ 明朝
1071
32785
   0
ENDTAB
  0
TABLE
  2
VIEW
  5
6
100
AcDbSymbolTable
 70
     0
  0
ENDTAB
  0
TABLE
  2
UCS
  5
7
100
AcDbSymbolTable
 70
     0
  0
ENDTAB
  0
TABLE
  2
APPID
  5
9
100
AcDbSymbolTable
 70
     1
  0
APPID
  5
10
100
AcDbSymbolTableRecord
100
AcDbRegAppTableRecord
  2
ACAD
 70
     0
  0
ENDTAB
   0
TABLE
   2
DIMSTYLE
   5
A
 100
AcDbSymbolTable
  70
12
 100
AcDbDimStyleTable
  0
DIMSTYLE
105
1D
100
AcDbSymbolTableRecord
100
AcDbDimStyleTableRecord
  2
STANDARD
 70
     0
  3

  4

  5

  6

  7

 40
1.0
 41
0.18
 42
0.0625
 43
0.38
 44
0.18
 45
0.0
 46
0.0
 47
0.0
 48
0.0
140
0.18
141
0.09
142
0.0
143
25.4
144
1.0
145
0.0
146
1.0
147
0.09
 71
     0
 72
     0
 73
     1
 74
     1
 75
     0
 76
     0
 77
     0
 78
     0
170
     0
171
     2
172
     0
173
     0
174
     0
175
     0
176
     0
177
     0
178
     0
270
     2
271
     4
272
     4
273
     2
274
     2
340
F
275
     0
280
     0
281
     0
282
     0
283
     1
284
     0
285
     0
286
     0
287
     3
288
     0
   0
DIMSTYLE
 105
44
 100
AcDbSymbolTableRecord
 100
AcDbDimStyleTableRecord
   2
GMM001
  70
0
   3
%%c<>
   4

   5

   6
_OPEN
   7
_OPEN
  40
 1.0000000000000
  41
 30.000000000000
  42
 30.000000000000
  43
 160.00000000000
  44
 30.000000000000
  45
0.0
  46
 37.500000000000
  47
0.0
  48
0.0
 140
 66.000000000000
 141
 20.000000000000
 142
0.0
 143
 0.39400000000000E-1
 144
 1.0000000000000
 145
0.0
 146
 0.62500000000000
 147
 28.285714285714
  71
0
  72
0
  73
0
  74
0
  75
1
  76
1
  77
1
  78
8
 170
0
 171
2
 172
1
 173
1
 174
0
 175
0
 176
6
 177
6
 178
1
 270
2
 271
1
 272
0
 273
2
 274
2
 340
3B
 275
0
 280
0
 281
0
 282
0
 283
1
 284
0
 285
0
 286
0
 287
0
 288
0
   0
DIMSTYLE
 105
45
 100
AcDbSymbolTableRecord
 100
AcDbDimStyleTableRecord
   2
GMM002
  70
0
   3

   4

   5

   6
_OPEN
   7
_OPEN
  40
 1.0000000000000
  41
 30.000000000000
  42
 30.000000000000
  43
 160.00000000000
  44
 30.000000000000
  45
0.0
  46
 37.500000000000
  47
0.0
  48
0.0
 140
 66.000000000000
 141
 20.000000000000
 142
0.0
 143
 0.39400000000000E-1
 144
 1.0000000000000
 145
0.0
 146
 0.62500000000000
 147
0.0
  71
0
  72
0
  73
0
  74
0
  75
1
  76
1
  77
0
  78
8
 170
0
 171
2
 172
1
 173
1
 174
0
 175
0
 176
1
 177
1
 178
1
 270
2
 271
1
 272
0
 273
2
 274
2
 340
F
 275
0
 280
0
 281
0
 282
0
 283
1
 284
0
 285
0
 286
0
 287
3
 288
0
   0
DIMSTYLE
 105
46
 100
AcDbSymbolTableRecord
 100
AcDbDimStyleTableRecord
   2
GMM003
  70
0
   3

   4

   5

   6
_OPEN
   7
_OPEN
  40
 1.0000000000000
  41
 30.000000000000
  42
 30.000000000000
  43
 160.00000000000
  44
 30.000000000000
  45
0.0
  46
 37.500000000000
  47
0.0
  48
0.0
 140
 66.000000000000
 141
 20.000000000000
 142
0.0
 143
 0.39400000000000E-1
 144
 1.0000000000000
 145
0.0
 146
 0.62500000000000
 147
 28.285714285714
  71
0
  72
0
  73
0
  74
0
  75
0
  76
1
  77
1
  78
8
 170
0
 171
2
 172
1
 173
1
 174
0
 175
0
 176
6
 177
6
 178
1
 270
2
 271
1
 272
0
 273
2
 274
2
 340
3B
 275
0
 280
0
 281
0
 282
0
 283
1
 284
0
 285
0
 286
0
 287
3
 288
0
   0
DIMSTYLE
 105
47
 100
AcDbSymbolTableRecord
 100
AcDbDimStyleTableRecord
   2
GMM004
  70
0
   3
<>(標準設置高さ
   4

   5

   6
_OPEN
   7
_OPEN
  40
 1.0000000000000
  41
 30.000000000000
  42
 30.000000000000
  43
 160.00000000000
  44
 30.000000000000
  45
0.0
  46
 37.500000000000
  47
0.0
  48
0.0
 140
 66.000000000000
 141
 20.000000000000
 142
0.0
 143
 0.39400000000000E-1
 144
 1.0000000000000
 145
0.0
 146
 0.62500000000000
 147
 28.285714285714
  71
0
  72
0
  73
0
  74
0
  75
0
  76
0
  77
1
  78
8
 170
0
 171
2
 172
1
 173
1
 174
0
 175
0
 176
6
 177
6
 178
1
 270
2
 271
1
 272
0
 273
2
 274
2
 340
3B
 275
0
 280
0
 281
0
 282
0
 283
1
 284
0
 285
0
 286
0
 287
3
 288
0
   0
DIMSTYLE
 105
48
 100
AcDbSymbolTableRecord
 100
AcDbDimStyleTableRecord
   2
GMM005
  70
0
   3

   4

   5

   6
_OPEN
   7
_OPEN
  40
 1.0000000000000
  41
 30.000000000000
  42
 30.000000000000
  43
 160.00000000000
  44
 30.000000000000
  45
0.0
  46
 37.500000000000
  47
0.0
  48
0.0
 140
 66.000000000000
 141
 20.000000000000
 142
0.0
 143
 0.39400000000000E-1
 144
 1.0000000000000
 145
0.0
 146
 0.62500000000000
 147
0.0
  71
0
  72
0
  73
0
  74
0
  75
1
  76
1
  77
0
  78
8
 170
0
 171
2
 172
1
 173
1
 174
0
 175
0
 176
1
 177
1
 178
1
 270
2
 271
1
 272
0
 273
2
 274
2
 340
F
 275
0
 280
0
 281
0
 282
0
 283
1
 284
0
 285
0
 286
0
 287
3
 288
0
   0
DIMSTYLE
 105
49
 100
AcDbSymbolTableRecord
 100
AcDbDimStyleTableRecord
   2
GMM006
  70
0
   3
□<>
   4

   5

   6
_OPEN
   7
_OPEN
  40
 1.0000000000000
  41
 30.000000000000
  42
 30.000000000000
  43
 160.00000000000
  44
 30.000000000000
  45
0.0
  46
 37.500000000000
  47
0.0
  48
0.0
 140
 66.000000000000
 141
 20.000000000000
 142
0.0
 143
 0.39400000000000E-1
 144
 1.0000000000000
 145
0.0
 146
 0.62500000000000
 147
 28.285714285714
  71
0
  72
0
  73
0
  74
0
  75
0
  76
0
  77
1
  78
8
 170
0
 171
2
 172
1
 173
1
 174
0
 175
0
 176
6
 177
6
 178
1
 270
2
 271
1
 272
0
 273
2
 274
2
 340
3B
 275
0
 280
0
 281
0
 282
0
 283
1
 284
0
 285
0
 286
0
 287
3
 288
0
   0
DIMSTYLE
 105
4A
 100
AcDbSymbolTableRecord
 100
AcDbDimStyleTableRecord
   2
GMM007
  70
0
   3

   4

   5

   6
_OPEN
   7
_OPEN
  40
 1.0000000000000
  41
 30.000000000000
  42
 30.000000000000
  43
 160.00000000000
  44
 30.000000000000
  45
0.0
  46
 37.500000000000
  47
0.0
  48
0.0
 140
 66.000000000000
 141
 20.000000000000
 142
0.0
 143
 0.39400000000000E-1
 144
 1.0000000000000
 145
0.0
 146
 0.62500000000000
 147
0.0
  71
0
  72
0
  73
0
  74
0
  75
1
  76
1
  77
0
  78
8
 170
0
 171
2
 172
1
 173
1
 174
0
 175
0
 176
1
 177
1
 178
1
 270
2
 271
1
 272
0
 273
2
 274
2
 340
F
 275
0
 280
0
 281
0
 282
0
 283
1
 284
0
 285
0
 286
0
 287
3
 288
0
   0
DIMSTYLE
 105
4B
 100
AcDbSymbolTableRecord
 100
AcDbDimStyleTableRecord
   2
GMM008
  70
0
   3
□<>
   4

   5

   6
_OPEN
   7
_OPEN
  40
 1.0000000000000
  41
 30.000000000000
  42
 30.000000000000
  43
 160.00000000000
  44
 30.000000000000
  45
0.0
  46
 37.500000000000
  47
0.0
  48
0.0
 140
 66.000000000000
 141
 20.000000000000
 142
0.0
 143
 0.39400000000000E-1
 144
 1.0000000000000
 145
0.0
 146
 0.62500000000000
 147
 28.285714285714
  71
0
  72
0
  73
0
  74
0
  75
0
  76
0
  77
1
  78
8
 170
0
 171
2
 172
1
 173
1
 174
0
 175
0
 176
6
 177
6
 178
1
 270
2
 271
1
 272
0
 273
2
 274
2
 340
3B
 275
0
 280
0
 281
0
 282
0
 283
1
 284
0
 285
0
 286
0
 287
3
 288
0
   0
DIMSTYLE
 105
4C
 100
AcDbSymbolTableRecord
 100
AcDbDimStyleTableRecord
   2
GMM009
  70
0
   3

   4

   5

   6
_OPEN
   7
_OPEN
  40
 1.0000000000000
  41
 30.000000000000
  42
 30.000000000000
  43
 160.00000000000
  44
 30.000000000000
  45
0.0
  46
 37.500000000000
  47
0.0
  48
0.0
 140
 66.000000000000
 141
 20.000000000000
 142
0.0
 143
 0.39400000000000E-1
 144
 1.0000000000000
 145
0.0
 146
 0.62500000000000
 147
 28.285714285714
  71
0
  72
0
  73
0
  74
0
  75
1
  76
0
  77
1
  78
8
 170
0
 171
2
 172
1
 173
1
 174
0
 175
0
 176
6
 177
6
 178
1
 270
2
 271
1
 272
0
 273
2
 274
2
 340
3B
 275
0
 280
0
 281
0
 282
0
 283
1
 284
0
 285
0
 286
0
 287
3
 288
0
   0
DIMSTYLE
 105
4D
 100
AcDbSymbolTableRecord
 100
AcDbDimStyleTableRecord
   2
GMM010
  70
0
   3

   4

   5

   6
_OPEN
   7
_OPEN
  40
 1.0000000000000
  41
 40.000000000000
  42
 40.000000000000
  43
 160.00000000000
  44
 40.000000000000
  45
0.0
  46
 50.000000000000
  47
0.0
  48
0.0
 140
 66.000000000000
 141
 20.000000000000
 142
0.0
 143
 0.39400000000000E-1
 144
 1.0000000000000
 145
0.0
 146
 0.62500000000000
 147
0.0
  71
0
  72
0
  73
0
  74
0
  75
1
  76
1
  77
1
  78
0
 170
0
 171
2
 172
1
 173
1
 174
0
 175
0
 176
6
 177
6
 178
1
 270
2
 271
0
 272
0
 273
2
 274
2
 340
3B
 275
1
 280
0
 281
0
 282
0
 283
1
 284
0
 285
0
 286
0
 287
3
 288
0
   0
ENDTAB
  0
TABLE
  2
BLOCK_RECORD
  5
1
100
AcDbSymbolTable
 70
     0
  0
BLOCK_RECORD
  5
18
100
AcDbSymbolTableRecord
100
AcDbBlockTableRecord
  2
*MODEL_SPACE
  0
BLOCK_RECORD
  5
15
100
AcDbSymbolTableRecord
100
AcDbBlockTableRecord
  2
*PAPER_SPACE
   0
BLOCK_RECORD
   5
4E
 100
AcDbSymbolTableRecord
 100
AcDbBlockTableRecord
   2
*D1
   0
BLOCK_RECORD
   5
4F
 100
AcDbSymbolTableRecord
 100
AcDbBlockTableRecord
   2
*D2
   0
BLOCK_RECORD
   5
50
 100
AcDbSymbolTableRecord
 100
AcDbBlockTableRecord
   2
*D13
   0
BLOCK_RECORD
   5
51
 100
AcDbSymbolTableRecord
 100
AcDbBlockTableRecord
   2
*D14
   0
BLOCK_RECORD
   5
52
 100
AcDbSymbolTableRecord
 100
AcDbBlockTableRecord
   2
*D15
   0
BLOCK_RECORD
   5
53
 100
AcDbSymbolTableRecord
 100
AcDbBlockTableRecord
   2
*D20
   0
BLOCK_RECORD
   5
54
 100
AcDbSymbolTableRecord
 100
AcDbBlockTableRecord
   2
*D22
   0
BLOCK_RECORD
   5
55
 100
AcDbSymbolTableRecord
 100
AcDbBlockTableRecord
   2
*D23
   0
BLOCK_RECORD
   5
56
 100
AcDbSymbolTableRecord
 100
AcDbBlockTableRecord
   2
_ARCHTICK
   0
BLOCK_RECORD
   5
57
 100
AcDbSymbolTableRecord
 100
AcDbBlockTableRecord
   2
_BOXBLANK
   0
BLOCK_RECORD
   5
58
 100
AcDbSymbolTableRecord
 100
AcDbBlockTableRecord
   2
_BOXFILLED
   0
BLOCK_RECORD
   5
59
 100
AcDbSymbolTableRecord
 100
AcDbBlockTableRecord
   2
_CLOSED
   0
BLOCK_RECORD
   5
5A
 100
AcDbSymbolTableRecord
 100
AcDbBlockTableRecord
   2
_CLOSEDBLANK
   0
BLOCK_RECORD
   5
5B
 100
AcDbSymbolTableRecord
 100
AcDbBlockTableRecord
   2
_DATUMBLANK
   0
BLOCK_RECORD
   5
5C
 100
AcDbSymbolTableRecord
 100
AcDbBlockTableRecord
   2
_DATUMFILLED
   0
BLOCK_RECORD
   5
5D
 100
AcDbSymbolTableRecord
 100
AcDbBlockTableRecord
   2
_DOT
   0
BLOCK_RECORD
   5
5E
 100
AcDbSymbolTableRecord
 100
AcDbBlockTableRecord
   2
_DOTBLANK
   0
BLOCK_RECORD
   5
5F
 100
AcDbSymbolTableRecord
 100
AcDbBlockTableRecord
   2
_DOTSMALL
   0
BLOCK_RECORD
   5
60
 100
AcDbSymbolTableRecord
 100
AcDbBlockTableRecord
   2
_INTEGRAL
   0
BLOCK_RECORD
   5
61
 100
AcDbSymbolTableRecord
 100
AcDbBlockTableRecord
   2
_NONE
   0
BLOCK_RECORD
   5
62
 100
AcDbSymbolTableRecord
 100
AcDbBlockTableRecord
   2
_OBLIQUE
   0
BLOCK_RECORD
   5
63
 100
AcDbSymbolTableRecord
 100
AcDbBlockTableRecord
   2
_OPEN
   0
BLOCK_RECORD
   5
64
 100
AcDbSymbolTableRecord
 100
AcDbBlockTableRecord
   2
_OPEN30
   0
BLOCK_RECORD
   5
65
 100
AcDbSymbolTableRecord
 100
AcDbBlockTableRecord
   2
_OPEN90
   0
BLOCK_RECORD
   5
66
 100
AcDbSymbolTableRecord
 100
AcDbBlockTableRecord
   2
_ORIGIN
   0
ENDTAB
   0
ENDSEC
  0
SECTION
  2
BLOCKS
  0
BLOCK
  5
19
100
AcDbEntity
  8
0
100
AcDbBlockBegin
  2
*MODEL_SPACE
 70
     0
 10
0.0
 20
0.0
 30
0.0
  3
*MODEL_SPACE
  1

  0
ENDBLK
  5
1A
100
AcDbEntity
  8
0
100
AcDbBlockEnd
  0
BLOCK
  5
16
100
AcDbEntity
 67
     1
  8
0
100
AcDbBlockBegin
  2
*PAPER_SPACE
 70
     0
 10
0.0
 20
0.0
 30
0.0
  3
*PAPER_SPACE
  1

  0
ENDBLK
  5
17
100
AcDbEntity
 67
     1
  8
0
100
AcDbBlockEnd
   0
BLOCK
   5
67
 100
AcDbEntity
   8
0
 100
AcDbBlockBegin
   2
_ARCHTICK
  70
0
  10
0.0
  20
0.0
  30
0.0
   3
_ARCHTICK
   0
POLYLINE
   5
68
 100
AcDbEntity
   8
0
 370
-2
   6
BYBLOCK
  62
0
 100
AcDb2dPolyline
  66
1
  10
0.0
  20
0.0
  30
0.0
  70
1
  40
 0.15000000000000
  41
 0.15000000000000
   0
VERTEX
   5
69
 100
AcDbEntity
   8
0
   6
BYBLOCK
  62
0
 100
AcDbVertex
 100
AcDb2dVertex
  10
-0.50000000000000
  20
-0.50000000000000
  30
0.0
  40
 0.15000000000000
  41
 0.15000000000000
   0
VERTEX
   5
6A
 100
AcDbEntity
   8
0
   6
BYBLOCK
  62
0
 100
AcDbVertex
 100
AcDb2dVertex
  10
 0.50000000000000
  20
 0.50000000000000
  30
0.0
  40
 0.15000000000000
  41
 0.15000000000000
   0
SEQEND
   5
6B
 100
AcDbEntity
   8
0
   6
BYBLOCK
  62
0
   0
ENDBLK
   5
6C
 100
AcDbEntity
   8
0
 100
AcDbBlockEnd
   0
BLOCK
   5
6D
 100
AcDbEntity
   8
0
 100
AcDbBlockBegin
   2
_OBLIQUE
  70
0
  10
0.0
  20
0.0
  30
0.0
   3
_OBLIQUE
   0
LINE
   5
6E
 100
AcDbEntity
   8
0
 370
-2
 100
AcDbLine
   6
BYBLOCK
  62
0
  10
-0.50000000000000
  20
-0.50000000000000
  30
0.0
  11
 0.50000000000000
  21
 0.50000000000000
  31
0.0
   0
ENDBLK
   5
6F
 100
AcDbEntity
   8
0
 100
AcDbBlockEnd
   0
BLOCK
   5
70
 100
AcDbEntity
   8
0
 100
AcDbBlockBegin
   2
_BOXBLANK
  70
0
  10
0.0
  20
0.0
  30
0.0
   3
_BOXBLANK
   0
LINE
   5
71
 100
AcDbEntity
   8
0
 370
-2
 100
AcDbLine
   6
BYBLOCK
  62
0
  10
-0.50000000000000
  20
-0.50000000000000
  30
0.0
  11
 0.50000000000000
  21
-0.50000000000000
  31
0.0
   0
LINE
   5
72
 100
AcDbEntity
   8
0
 370
-2
 100
AcDbLine
   6
BYBLOCK
  62
0
  10
 0.50000000000000
  20
-0.50000000000000
  30
0.0
  11
 0.50000000000000
  21
 0.50000000000000
  31
0.0
   0
LINE
   5
73
 100
AcDbEntity
   8
0
 370
-2
 100
AcDbLine
   6
BYBLOCK
  62
0
  10
 0.50000000000000
  20
 0.50000000000000
  30
0.0
  11
-0.50000000000000
  21
 0.50000000000000
  31
0.0
   0
LINE
   5
74
 100
AcDbEntity
   8
0
 370
-2
 100
AcDbLine
   6
BYBLOCK
  62
0
  10
-0.50000000000000
  20
 0.50000000000000
  30
0.0
  11
-0.50000000000000
  21
-0.50000000000000
  31
0.0
   0
LINE
   5
75
 100
AcDbEntity
   8
0
 370
-2
 100
AcDbLine
   6
BYBLOCK
  62
0
  10
-0.50000000000000
  20
0.0
  30
0.0
  11
-1.0000000000000
  21
0.0
  31
0.0
   0
ENDBLK
   5
76
 100
AcDbEntity
   8
0
 100
AcDbBlockEnd
   0
BLOCK
   5
77
 100
AcDbEntity
   8
0
 100
AcDbBlockBegin
   2
_BOXFILLED
  70
0
  10
0.0
  20
0.0
  30
0.0
   3
_BOXFILLED
   0
SOLID
   5
78
 100
AcDbEntity
   8
0
 100
AcDbTrace
   6
BYBLOCK
  62
0
  10
-0.50000000000000
  20
 0.50000000000000
  30
0.0
  11
 0.50000000000000
  21
 0.50000000000000
  31
0.0
  12
-0.50000000000000
  22
-0.50000000000000
  32
0.0
  13
 0.50000000000000
  23
-0.50000000000000
  33
0.0
   0
LINE
   5
79
 100
AcDbEntity
   8
0
 370
-2
 100
AcDbLine
   6
BYBLOCK
  62
0
  10
-0.50000000000000
  20
0.0
  30
0.0
  11
-1.0000000000000
  21
0.0
  31
0.0
   0
ENDBLK
   5
7A
 100
AcDbEntity
   8
0
 100
AcDbBlockEnd
   0
BLOCK
   5
7B
 100
AcDbEntity
   8
0
 100
AcDbBlockBegin
   2
_CLOSED
  70
0
  10
0.0
  20
0.0
  30
0.0
   3
_CLOSED
   0
LINE
   5
7C
 100
AcDbEntity
   8
0
 370
-2
 100
AcDbLine
   6
BYBLOCK
  62
0
  10
-1.0000000000000
  20
 0.16666666666667
  30
0.0
  11
0.0
  21
0.0
  31
0.0
   0
LINE
   5
7D
 100
AcDbEntity
   8
0
 370
-2
 100
AcDbLine
   6
BYBLOCK
  62
0
  10
0.0
  20
0.0
  30
0.0
  11
-1.0000000000000
  21
-0.16666666666667
  31
0.0
   0
LINE
   5
7E
 100
AcDbEntity
   8
0
 370
-2
 100
AcDbLine
   6
BYBLOCK
  62
0
  10
-1.0000000000000
  20
 0.16666666666667
  30
0.0
  11
-1.0000000000000
  21
-0.16666666666667
  31
0.0
   0
LINE
   5
7F
 100
AcDbEntity
   8
0
 370
-2
 100
AcDbLine
   6
BYBLOCK
  62
0
  10
0.0
  20
0.0
  30
0.0
  11
-1.0000000000000
  21
0.0
  31
0.0
   0
ENDBLK
   5
80
 100
AcDbEntity
   8
0
 100
AcDbBlockEnd
   0
BLOCK
   5
81
 100
AcDbEntity
   8
0
 100
AcDbBlockBegin
   2
_OPEN
  70
0
  10
0.0
  20
0.0
  30
0.0
   3
_OPEN
   0
LINE
   5
82
 100
AcDbEntity
   8
0
 370
-2
 100
AcDbLine
   6
BYBLOCK
  62
0
  10
-1.0000000000000
  20
 0.16666666666667
  30
0.0
  11
0.0
  21
0.0
  31
0.0
   0
LINE
   5
83
 100
AcDbEntity
   8
0
 370
-2
 100
AcDbLine
   6
BYBLOCK
  62
0
  10
0.0
  20
0.0
  30
0.0
  11
-1.0000000000000
  21
-0.16666666666667
  31
0.0
   0
LINE
   5
84
 100
AcDbEntity
   8
0
 370
-2
 100
AcDbLine
   6
BYBLOCK
  62
0
  10
0.0
  20
0.0
  30
0.0
  11
-1.0000000000000
  21
0.0
  31
0.0
   0
ENDBLK
   5
85
 100
AcDbEntity
   8
0
 100
AcDbBlockEnd
   0
BLOCK
   5
86
 100
AcDbEntity
   8
0
 100
AcDbBlockBegin
   2
_OPEN30
  70
0
  10
0.0
  20
0.0
  30
0.0
   3
_OPEN30
   0
LINE
   5
87
 100
AcDbEntity
   8
0
 370
-2
 100
AcDbLine
   6
BYBLOCK
  62
0
  10
-1.0000000000000
  20
 0.26794919243110
  30
0.0
  11
0.0
  21
0.0
  31
0.0
   0
LINE
   5
88
 100
AcDbEntity
   8
0
 370
-2
 100
AcDbLine
   6
BYBLOCK
  62
0
  10
0.0
  20
0.0
  30
0.0
  11
-1.0000000000000
  21
-0.26794919243110
  31
0.0
   0
LINE
   5
89
 100
AcDbEntity
   8
0
 370
-2
 100
AcDbLine
   6
BYBLOCK
  62
0
  10
0.0
  20
0.0
  30
0.0
  11
-1.0000000000000
  21
0.0
  31
0.0
   0
ENDBLK
   5
8A
 100
AcDbEntity
   8
0
 100
AcDbBlockEnd
   0
BLOCK
   5
8B
 100
AcDbEntity
   8
0
 100
AcDbBlockBegin
   2
_OPEN90
  70
0
  10
0.0
  20
0.0
  30
0.0
   3
_OPEN90
   0
LINE
   5
8C
 100
AcDbEntity
   8
0
 370
-2
 100
AcDbLine
   6
BYBLOCK
  62
0
  10
-0.50000000000000
  20
 0.50000000000000
  30
0.0
  11
0.0
  21
0.0
  31
0.0
   0
LINE
   5
8D
 100
AcDbEntity
   8
0
 370
-2
 100
AcDbLine
   6
BYBLOCK
  62
0
  10
0.0
  20
0.0
  30
0.0
  11
-0.50000000000000
  21
-0.50000000000000
  31
0.0
   0
LINE
   5
8E
 100
AcDbEntity
   8
0
 370
-2
 100
AcDbLine
   6
BYBLOCK
  62
0
  10
0.0
  20
0.0
  30
0.0
  11
-1.0000000000000
  21
0.0
  31
0.0
   0
ENDBLK
   5
8F
 100
AcDbEntity
   8
0
 100
AcDbBlockEnd
   0
BLOCK
   5
90
 100
AcDbEntity
   8
0
 100
AcDbBlockBegin
   2
_CLOSEDBLANK
  70
0
  10
0.0
  20
0.0
  30
0.0
   3
_CLOSEDBLANK
   0
LINE
   5
91
 100
AcDbEntity
   8
0
 370
-2
 100
AcDbLine
   6
BYBLOCK
  62
0
  10
-1.0000000000000
  20
 0.16666666666667
  30
0.0
  11
0.0
  21
0.0
  31
0.0
   0
LINE
   5
92
 100
AcDbEntity
   8
0
 370
-2
 100
AcDbLine
   6
BYBLOCK
  62
0
  10
0.0
  20
0.0
  30
0.0
  11
-1.0000000000000
  21
-0.16666666666667
  31
0.0
   0
LINE
   5
93
 100
AcDbEntity
   8
0
 370
-2
 100
AcDbLine
   6
BYBLOCK
  62
0
  10
-1.0000000000000
  20
 0.16666666666667
  30
0.0
  11
-1.0000000000000
  21
-0.16666666666667
  31
0.0
   0
ENDBLK
   5
94
 100
AcDbEntity
   8
0
 100
AcDbBlockEnd
   0
BLOCK
   5
95
 100
AcDbEntity
   8
0
 100
AcDbBlockBegin
   2
_DOT
  70
0
  10
0.0
  20
0.0
  30
0.0
   3
_DOT
   0
POLYLINE
   5
96
 100
AcDbEntity
   8
0
 370
-2
   6
BYBLOCK
  62
0
 100
AcDb2dPolyline
  66
1
  10
0.0
  20
0.0
  30
0.0
  70
1
  40
 0.50000000000000
  41
 0.50000000000000
   0
VERTEX
   5
97
 100
AcDbEntity
   8
0
   6
BYBLOCK
  62
0
 100
AcDbVertex
 100
AcDb2dVertex
  10
-0.25000000000000
  20
0.0
  30
0.0
  42
 1.0000000000000
  40
 0.50000000000000
  41
 0.50000000000000
   0
VERTEX
   5
98
 100
AcDbEntity
   8
0
   6
BYBLOCK
  62
0
 100
AcDbVertex
 100
AcDb2dVertex
  10
 0.25000000000000
  20
0.0
  30
0.0
  42
 1.0000000000000
  40
 0.50000000000000
  41
 0.50000000000000
   0
SEQEND
   5
99
 100
AcDbEntity
   8
0
   6
BYBLOCK
  62
0
   0
LINE
   5
9A
 100
AcDbEntity
   8
0
 370
-2
 100
AcDbLine
   6
BYBLOCK
  62
0
  10
-0.50000000000000
  20
0.0
  30
0.0
  11
-1.0000000000000
  21
0.0
  31
0.0
   0
ENDBLK
   5
9B
 100
AcDbEntity
   8
0
 100
AcDbBlockEnd
   0
BLOCK
   5
9C
 100
AcDbEntity
   8
0
 100
AcDbBlockBegin
   2
_DOTSMALL
  70
0
  10
0.0
  20
0.0
  30
0.0
   3
_DOTSMALL
   0
POLYLINE
   5
9D
 100
AcDbEntity
   8
0
 370
-2
   6
BYBLOCK
  62
0
 100
AcDb2dPolyline
  66
1
  10
0.0
  20
0.0
  30
0.0
  70
1
  40
 0.50000000000000
  41
 0.50000000000000
   0
VERTEX
   5
9E
 100
AcDbEntity
   8
0
   6
BYBLOCK
  62
0
 100
AcDbVertex
 100
AcDb2dVertex
  10
-0.62500000000000E-1
  20
0.0
  30
0.0
  42
 1.0000000000000
  40
 0.50000000000000
  41
 0.50000000000000
   0
VERTEX
   5
9F
 100
AcDbEntity
   8
0
   6
BYBLOCK
  62
0
 100
AcDbVertex
 100
AcDb2dVertex
  10
 0.62500000000000E-1
  20
0.0
  30
0.0
  42
 1.0000000000000
  40
 0.50000000000000
  41
 0.50000000000000
   0
SEQEND
   5
A0
 100
AcDbEntity
   8
0
   6
BYBLOCK
  62
0
   0
ENDBLK
   5
A1
 100
AcDbEntity
   8
0
 100
AcDbBlockEnd
   0
BLOCK
   5
A2
 100
AcDbEntity
   8
0
 100
AcDbBlockBegin
   2
_DATUMBLANK
  70
0
  10
0.0
  20
0.0
  30
0.0
   3
_DATUMBLANK
   0
LINE
   5
A3
 100
AcDbEntity
   8
0
 370
-2
 100
AcDbLine
   6
BYBLOCK
  62
0
  10
0.0
  20
 0.57735027000000
  30
0.0
  11
-1.0000000000000
  21
0.0
  31
0.0
   0
LINE
   5
A4
 100
AcDbEntity
   8
0
 370
-2
 100
AcDbLine
   6
BYBLOCK
  62
0
  10
-1.0000000000000
  20
0.0
  30
0.0
  11
0.0
  21
-0.57735027000000
  31
0.0
   0
LINE
   5
A5
 100
AcDbEntity
   8
0
 370
-2
 100
AcDbLine
   6
BYBLOCK
  62
0
  10
0.0
  20
-0.57735027000000
  30
0.0
  11
0.0
  21
 0.57735027000000
  31
0.0
   0
ENDBLK
   5
A6
 100
AcDbEntity
   8
0
 100
AcDbBlockEnd
   0
BLOCK
   5
A7
 100
AcDbEntity
   8
0
 100
AcDbBlockBegin
   2
_DATUMFILLED
  70
0
  10
0.0
  20
0.0
  30
0.0
   3
_DATUMFILLED
   0
SOLID
   5
A8
 100
AcDbEntity
   8
0
 100
AcDbTrace
   6
BYBLOCK
  62
0
  10
0.0
  20
 0.57735027000000
  30
0.0
  11
-1.0000000000000
  21
0.0
  31
0.0
  12
0.0
  22
-0.57735027000000
  32
0.0
  13
0.0
  23
-0.57735027000000
  33
0.0
   0
ENDBLK
   5
A9
 100
AcDbEntity
   8
0
 100
AcDbBlockEnd
   0
BLOCK
   5
AA
 100
AcDbEntity
   8
0
 100
AcDbBlockBegin
   2
_ORIGIN
  70
0
  10
0.0
  20
0.0
  30
0.0
   3
_ORIGIN
   0
CIRCLE
   5
AB
 100
AcDbEntity
   8
0
 370
-2
 100
AcDbCircle
   6
BYBLOCK
  62
0
  10
0.0
  20
0.0
  30
0.0
  40
 0.50000000000000
   0
LINE
   5
AC
 100
AcDbEntity
   8
0
 370
-2
 100
AcDbLine
   6
BYBLOCK
  62
0
  10
0.0
  20
0.0
  30
0.0
  11
-1.0000000000000
  21
0.0
  31
0.0
   0
ENDBLK
   5
AD
 100
AcDbEntity
   8
0
 100
AcDbBlockEnd
   0
BLOCK
   5
AE
 100
AcDbEntity
   8
0
 100
AcDbBlockBegin
   2
_NONE
  70
0
  10
0.0
  20
0.0
  30
0.0
   3
_NONE
   0
CIRCLE
   5
AF
 100
AcDbEntity
   8
0
 370
-2
 100
AcDbCircle
   6
BYBLOCK
  62
0
  10
0.0
  20
0.0
  30
0.0
  40
 0.25000000000000
   0
ENDBLK
   5
B0
 100
AcDbEntity
   8
0
 100
AcDbBlockEnd
   0
BLOCK
   5
B1
 100
AcDbEntity
   8
0
 100
AcDbBlockBegin
   2
_DOTBLANK
  70
0
  10
0.0
  20
0.0
  30
0.0
   3
_DOTBLANK
   0
CIRCLE
   5
B2
 100
AcDbEntity
   8
0
 370
-2
 100
AcDbCircle
   6
BYBLOCK
  62
0
  10
0.0
  20
0.0
  30
0.0
  40
 0.50000000000000
   0
LINE
   5
B3
 100
AcDbEntity
   8
0
 370
-2
 100
AcDbLine
   6
BYBLOCK
  62
0
  10
-0.50000000000000
  20
0.0
  30
0.0
  11
-1.0000000000000
  21
0.0
  31
0.0
   0
ENDBLK
   5
B4
 100
AcDbEntity
   8
0
 100
AcDbBlockEnd
   0
BLOCK
   5
B5
 100
AcDbEntity
   8
0
 100
AcDbBlockBegin
   2
_INTEGRAL
  70
0
  10
0.0
  20
0.0
  30
0.0
   3
_INTEGRAL
   0
ARC
   5
B6
 100
AcDbEntity
   8
0
 370
-2
   6
BYBLOCK
  62
0
 100
AcDbCircle
  10
 0.44488800000000
  20
-0.91335000000000E-1
  30
0.0
  40
 0.45416700000000
 100
AcDbArc
  50
 102.00000000000
  51
 168.00000000000
   0
ARC
   5
B7
 100
AcDbEntity
   8
0
 370
-2
   6
BYBLOCK
  62
0
 100
AcDbCircle
  10
-0.44488800000000
  20
 0.91335000000000E-1
  30
0.0
  40
 0.45416700000000
 100
AcDbArc
  50
 282.00000000000
  51
 348.00000000000
   0
ENDBLK
   5
B8
 100
AcDbEntity
   8
0
 100
AcDbBlockEnd
   0
BLOCK
   5
B9
 100
AcDbEntity
   8
0
 100
AcDbBlockBegin
   2
*D1
  70
65
  10
0.0
  20
0.0
  30
0.0
   3
*D1
   0
LINE
   5
BA
 100
AcDbEntity
   8
LEVEL001
 370
13
 100
AcDbLine
   6
CONTINUOUS
  62
6
  10
 1217.2045231554
  20
 4738.5393258427
  30
0.0
  11
 697.58928088473
  21
 4438.5393258427
  31
0.0
   0
INSERT
   5
BB
 100
AcDbEntity
   8
LEVEL001
   6
CONTINUOUS
  62
6
 100
AcDbBlockReference
   2
_OPEN
  10
 1217.2045231554
  20
 4738.5393258427
  30
0.0
  41
 30.000000000000
  42
 30.000000000000
  43
 30.000000000000
  50
 30.000000000001
   0
INSERT
   5
BC
 100
AcDbEntity
   8
LEVEL001
   6
CONTINUOUS
  62
6
 100
AcDbBlockReference
   2
_OPEN
  10
 697.58928088473
  20
 4438.5393258427
  30
0.0
  41
 30.000000000000
  42
 30.000000000000
  43
 30.000000000000
  50
 210.00000000000
   0
MTEXT
   5
BD
 100
AcDbEntity
   8
LEVEL001
 370
13
  62
1
 100
AcDbMText
  10
 943.25404487720
  20
 4613.0354729783
  30
0.0
  40
 66.000000000000
  41
0.0
  71
8
  72
1
   1
\A1;%%c600
   7
GMM001
  11
 0.86602540378443
  21
 0.50000000000001
  31
0.0
   0
ENDBLK
   5
BE
 100
AcDbEntity
   8
0
 100
AcDbBlockEnd
   0
BLOCK
   5
BF
 100
AcDbEntity
   8
0
 100
AcDbBlockBegin
   2
*D2
  70
65
  10
0.0
  20
0.0
  30
0.0
   3
*D2
   0
LINE
   5
C0
 100
AcDbEntity
   8
LEVEL001
 370
13
 100
AcDbLine
   6
CONTINUOUS
  62
6
  10
 2017.2045231554
  20
 4738.5393258427
  30
0.0
  11
 1497.5892808847
  21
 4438.5393258427
  31
0.0
   0
INSERT
   5
C1
 100
AcDbEntity
   8
LEVEL001
   6
CONTINUOUS
  62
6
 100
AcDbBlockReference
   2
_OPEN
  10
 2017.2045231554
  20
 4738.5393258427
  30
0.0
  41
 30.000000000000
  42
 30.000000000000
  43
 30.000000000000
  50
 30.000000000004
   0
INSERT
   5
C2
 100
AcDbEntity
   8
LEVEL001
   6
CONTINUOUS
  62
6
 100
AcDbBlockReference
   2
_OPEN
  10
 1497.5892808847
  20
 4438.5393258427
  30
0.0
  41
 30.000000000000
  42
 30.000000000000
  43
 30.000000000000
  50
 210.00000000000
   0
MTEXT
   5
C3
 100
AcDbEntity
   8
LEVEL001
 370
13
  62
1
 100
AcDbMText
  10
 1743.2540448772
  20
 4613.0354729783
  30
0.0
  40
 66.000000000000
  41
0.0
  71
8
  72
1
   1
\A1;%%c600
   7
GMM001
  11
 0.86602540378441
  21
 0.50000000000006
  31
0.0
   0
ENDBLK
   5
C4
 100
AcDbEntity
   8
0
 100
AcDbBlockEnd
   0
BLOCK
   5
C5
 100
AcDbEntity
   8
0
 100
AcDbBlockBegin
   2
*D13
  70
65
  10
0.0
  20
0.0
  30
0.0
   3
*D13
   0
LINE
   5
C6
 100
AcDbEntity
   8
LEVEL001
 370
13
 100
AcDbLine
   6
CONTINUOUS
  62
6
  10
 1077.3969020201
  20
 688.53932584365
  30
0.0
  11
 577.39690202006
  21
 688.53932584365
  31
0.0
   0
LINE
   5
C7
 100
AcDbEntity
   8
LEVEL001
 370
13
 100
AcDbLine
   6
CONTINUOUS
  62
6
  10
 1077.3969020201
  20
 788.53932584365
  30
0.0
  11
 577.39690202006
  21
 788.53932584365
  31
0.0
   0
LINE
   5
C8
 100
AcDbEntity
   8
LEVEL001
 370
13
 100
AcDbLine
   6
CONTINUOUS
  62
6
  10
 607.39690202006
  20
 688.53932584365
  30
0.0
  11
 607.39690202006
  21
 788.53932584365
  31
0.0
   0
INSERT
   5
C9
 100
AcDbEntity
   8
LEVEL001
   6
CONTINUOUS
  62
6
 100
AcDbBlockReference
   2
_OPEN
  10
 607.39690202006
  20
 688.53932584365
  30
0.0
  41
 30.000000000000
  42
 30.000000000000
  43
 30.000000000000
  50
 270.00000000000
   0
INSERT
   5
CA
 100
AcDbEntity
   8
LEVEL001
   6
CONTINUOUS
  62
6
 100
AcDbBlockReference
   2
_OPEN
  10
 607.39690202006
  20
 788.53932584365
  30
0.0
  41
 30.000000000000
  42
 30.000000000000
  43
 30.000000000000
  50
 90.000000000000
   0
MTEXT
   5
CB
 100
AcDbEntity
   8
LEVEL001
 370
13
  62
1
 100
AcDbMText
  10
 579.11118773434
  20
 738.53932584365
  30
0.0
  40
 66.000000000000
  41
0.0
  71
8
  72
1
   1
\A1;100
   7
GMM001
  11
0.0
  21
 1.0000000000000
  31
0.0
   0
ENDBLK
   5
CC
 100
AcDbEntity
   8
0
 100
AcDbBlockEnd
   0
BLOCK
   5
CD
 100
AcDbEntity
   8
0
 100
AcDbBlockBegin
   2
*D14
  70
65
  10
0.0
  20
0.0
  30
0.0
   3
*D14
   0
LINE
   5
CE
 100
AcDbEntity
   8
LEVEL001
 370
13
 100
AcDbLine
   6
CONTINUOUS
  62
6
  10
 1077.3969020201
  20
 788.53932584365
  30
0.0
  11
 577.39690202006
  21
 788.53932584365
  31
0.0
   0
LINE
   5
CF
 100
AcDbEntity
   8
LEVEL001
 370
13
 100
AcDbLine
   6
CONTINUOUS
  62
6
  10
 777.39696725502
  20
 1788.5393258436
  30
0.0
  11
 577.39690202006
  21
 1788.5393258436
  31
0.0
   0
LINE
   5
D0
 100
AcDbEntity
   8
LEVEL001
 370
13
 100
AcDbLine
   6
CONTINUOUS
  62
6
  10
 607.39690202006
  20
 788.53932584365
  30
0.0
  11
 607.39690202006
  21
 1788.5393258436
  31
0.0
   0
INSERT
   5
D1
 100
AcDbEntity
   8
LEVEL001
   6
CONTINUOUS
  62
6
 100
AcDbBlockReference
   2
_OPEN
  10
 607.39690202006
  20
 788.53932584365
  30
0.0
  41
 30.000000000000
  42
 30.000000000000
  43
 30.000000000000
  50
 270.00000000000
   0
INSERT
   5
D2
 100
AcDbEntity
   8
LEVEL001
   6
CONTINUOUS
  62
6
 100
AcDbBlockReference
   2
_OPEN
  10
 607.39690202006
  20
 1788.5393258436
  30
0.0
  41
 30.000000000000
  42
 30.000000000000
  43
 30.000000000000
  50
 90.000000000000
   0
MTEXT
   5
D3
 100
AcDbEntity
   8
LEVEL001
 370
13
  62
1
 100
AcDbMText
  10
 579.11118773434
  20
 1288.5393258436
  30
0.0
  40
 66.000000000000
  41
0.0
  71
8
  72
1
   1
\A1;1000
   7
GMM001
  11
0.0
  21
 1.0000000000000
  31
0.0
   0
ENDBLK
   5
D4
 100
AcDbEntity
   8
0
 100
AcDbBlockEnd
   0
BLOCK
   5
D5
 100
AcDbEntity
   8
0
 100
AcDbBlockBegin
   2
*D15
  70
65
  10
0.0
  20
0.0
  30
0.0
   3
*D15
   0
LINE
   5
D6
 100
AcDbEntity
   8
LEVEL001
 370
13
 100
AcDbLine
   6
CONTINUOUS
  62
6
  10
 777.39696725502
  20
 1788.5393258436
  30
0.0
  11
 577.39690202006
  21
 1788.5393258436
  31
0.0
   0
LINE
   5
D7
 100
AcDbEntity
   8
LEVEL001
 370
13
 100
AcDbLine
   6
CONTINUOUS
  62
6
  10
 927.39690202012
  20
 4288.5393258377
  30
0.0
  11
 577.39690202006
  21
 4288.5393258377
  31
0.0
   0
LINE
   5
D8
 100
AcDbEntity
   8
LEVEL001
 370
13
 100
AcDbLine
   6
CONTINUOUS
  62
6
  10
 607.39690202006
  20
 1788.5393258436
  30
0.0
  11
 607.39690202006
  21
 4288.5393258377
  31
0.0
   0
INSERT
   5
D9
 100
AcDbEntity
   8
LEVEL001
   6
CONTINUOUS
  62
6
 100
AcDbBlockReference
   2
_OPEN
  10
 607.39690202006
  20
 1788.5393258436
  30
0.0
  41
 30.000000000000
  42
 30.000000000000
  43
 30.000000000000
  50
 270.00000000000
   0
INSERT
   5
DA
 100
AcDbEntity
   8
LEVEL001
   6
CONTINUOUS
  62
6
 100
AcDbBlockReference
   2
_OPEN
  10
 607.39690202006
  20
 4288.5393258377
  30
0.0
  41
 30.000000000000
  42
 30.000000000000
  43
 30.000000000000
  50
 90.000000000000
   0
MTEXT
   5
DB
 100
AcDbEntity
   8
LEVEL001
 370
13
  62
1
 100
AcDbMText
  10
 579.11118773434
  20
 3038.5393258407
  30
0.0
  40
 66.000000000000
  41
0.0
  71
8
  72
1
   1
\A1;2500(標準設置高さ)
   7
GMM001
  11
0.0
  21
 1.0000000000000
  31
0.0
   0
ENDBLK
   5
DC
 100
AcDbEntity
   8
0
 100
AcDbBlockEnd
   0
BLOCK
   5
DD
 100
AcDbEntity
   8
0
 100
AcDbBlockBegin
   2
*D20
  70
65
  10
0.0
  20
0.0
  30
0.0
   3
*D20
   0
LINE
   5
DE
 100
AcDbEntity
   8
LEVEL001
 370
13
 100
AcDbLine
   6
CONTINUOUS
  62
6
  10
 1107.3969020201
  20
 658.53932584365
  30
0.0
  11
 1107.3969020201
  21
 408.53932584365
  31
0.0
   0
LINE
   5
DF
 100
AcDbEntity
   8
LEVEL001
 370
13
 100
AcDbLine
   6
CONTINUOUS
  62
6
  10
 1607.3969020201
  20
 658.53932584365
  30
0.0
  11
 1607.3969020201
  21
 408.53932584365
  31
0.0
   0
LINE
   5
E0
 100
AcDbEntity
   8
LEVEL001
 370
13
 100
AcDbLine
   6
CONTINUOUS
  62
6
  10
 1107.3969020201
  20
 438.53932584365
  30
0.0
  11
 1607.3969020201
  21
 438.53932584365
  31
0.0
   0
INSERT
   5
E1
 100
AcDbEntity
   8
LEVEL001
   6
CONTINUOUS
  62
6
 100
AcDbBlockReference
   2
_OPEN
  10
 1107.3969020201
  20
 438.53932584365
  30
0.0
  41
 30.000000000000
  42
 30.000000000000
  43
 30.000000000000
  50
 180.00000000000
   0
INSERT
   5
E2
 100
AcDbEntity
   8
LEVEL001
   6
CONTINUOUS
  62
6
 100
AcDbBlockReference
   2
_OPEN
  10
 1607.3969020201
  20
 438.53932584365
  30
0.0
  41
 30.000000000000
  42
 30.000000000000
  43
 30.000000000000
  50
0.0
   0
MTEXT
   5
E3
 100
AcDbEntity
   8
LEVEL001
 370
13
  62
1
 100
AcDbMText
  10
 1357.3969020201
  20
 466.82504012936
  30
0.0
  40
 66.000000000000
  41
0.0
  71
8
  72
1
   1
\A1;□500
   7
GMM001
   0
ENDBLK
   5
E4
 100
AcDbEntity
   8
0
 100
AcDbBlockEnd
   0
BLOCK
   5
E5
 100
AcDbEntity
   8
0
 100
AcDbBlockBegin
   2
*D22
  70
65
  10
0.0
  20
0.0
  30
0.0
   3
*D22
   0
LINE
   5
E6
 100
AcDbEntity
   8
LEVEL001
 370
13
 100
AcDbLine
   6
CONTINUOUS
  62
6
  10
 2257.3969020201
  20
 658.53932584365
  30
0.0
  11
 2257.3969020201
  21
 408.53932584365
  31
0.0
   0
LINE
   5
E7
 100
AcDbEntity
   8
LEVEL001
 370
13
 100
AcDbLine
   6
CONTINUOUS
  62
6
  10
 2757.3969020201
  20
 658.53932584365
  30
0.0
  11
 2757.3969020201
  21
 408.53932584365
  31
0.0
   0
LINE
   5
E8
 100
AcDbEntity
   8
LEVEL001
 370
13
 100
AcDbLine
   6
CONTINUOUS
  62
6
  10
 2257.3969020201
  20
 438.53932584365
  30
0.0
  11
 2757.3969020201
  21
 438.53932584365
  31
0.0
   0
INSERT
   5
E9
 100
AcDbEntity
   8
LEVEL001
   6
CONTINUOUS
  62
6
 100
AcDbBlockReference
   2
_OPEN
  10
 2257.3969020201
  20
 438.53932584365
  30
0.0
  41
 30.000000000000
  42
 30.000000000000
  43
 30.000000000000
  50
 180.00000000000
   0
INSERT
   5
EA
 100
AcDbEntity
   8
LEVEL001
   6
CONTINUOUS
  62
6
 100
AcDbBlockReference
   2
_OPEN
  10
 2757.3969020201
  20
 438.53932584365
  30
0.0
  41
 30.000000000000
  42
 30.000000000000
  43
 30.000000000000
  50
0.0
   0
MTEXT
   5
EB
 100
AcDbEntity
   8
LEVEL001
 370
13
  62
1
 100
AcDbMText
  10
 2507.3969020201
  20
 466.82504012936
  30
0.0
  40
 66.000000000000
  41
0.0
  71
8
  72
1
   1
\A1;□500
   7
GMM001
   0
ENDBLK
   5
EC
 100
AcDbEntity
   8
0
 100
AcDbBlockEnd
   0
BLOCK
   5
ED
 100
AcDbEntity
   8
0
 100
AcDbBlockBegin
   2
*D23
  70
65
  10
0.0
  20
0.0
  30
0.0
   3
*D23
   0
LINE
   5
EE
 100
AcDbEntity
   8
LEVEL001
 370
13
 100
AcDbLine
   6
CONTINUOUS
  62
6
  10
 2857.3969020201
  20
 2438.5393258436
  30
0.0
  11
 2857.3969020201
  21
 2438.5393258436
  31
0.0
   0
LINE
   5
EF
 100
AcDbEntity
   8
LEVEL001
 370
13
 100
AcDbLine
   6
CONTINUOUS
  62
6
  10
 2507.3969020201
  20
 1502.5174401333
  30
0.0
  11
 2507.3969020201
  21
 2468.5393258436
  31
0.0
   0
LINE
   5
F0
 100
AcDbEntity
   8
LEVEL001
 370
13
 100
AcDbLine
   6
CONTINUOUS
  62
6
  10
 2857.3969020201
  20
 2438.5393258436
  30
0.0
  11
 2507.3969020201
  21
 2438.5393258436
  31
0.0
   0
INSERT
   5
F1
 100
AcDbEntity
   8
LEVEL001
   6
CONTINUOUS
  62
6
 100
AcDbBlockReference
   2
_OPEN
  10
 2857.3969020201
  20
 2438.5393258436
  30
0.0
  41
 30.000000000000
  42
 30.000000000000
  43
 30.000000000000
  50
0.0
   0
INSERT
   5
F2
 100
AcDbEntity
   8
LEVEL001
   6
CONTINUOUS
  62
6
 100
AcDbBlockReference
   2
_OPEN
  10
 2507.3969020201
  20
 2438.5393258436
  30
0.0
  41
 30.000000000000
  42
 30.000000000000
  43
 30.000000000000
  50
 180.00000000000
   0
MTEXT
   5
F3
 100
AcDbEntity
   8
LEVEL001
 370
13
  62
1
 100
AcDbMText
  10
 2682.3969020201
  20
 2466.8250401294
  30
0.0
  40
 66.000000000000
  41
0.0
  71
8
  72
1
   1
\A1;350
   7
GMM001
   0
ENDBLK
   5
F4
 100
AcDbEntity
   8
0
 100
AcDbBlockEnd
   0
ENDSEC
   0
SECTION
   2
ENTITIES
   0
ARC
   5
F5
 100
AcDbEntity
   8
LEVEL002
 370
13
   6
CONTINUOUS
  62
7
 100
AcDbCircle
  10
 1302.3969020202
  20
 4068.5393258436
  30
0.0
  40
 20.000000000000
 100
AcDbArc
  50
 90.000000000000
  51
 180.00000000000
   0
LINE
   5
F6
 100
AcDbEntity
   8
LEVEL002
 370
13
 100
AcDbLine
   6
CONTINUOUS
  62
7
  10
 1282.3969020202
  20
 4068.5393258436
  30
0.0
  11
 1282.3969020202
  21
 3708.5393258436
  31
0.0
   0
LINE
   5
F7
 100
AcDbEntity
   8
LEVEL002
 370
13
 100
AcDbLine
   6
CONTINUOUS
  62
7
  10
 1412.3969020202
  20
 4088.5393258436
  30
0.0
  11
 1302.3969020202
  21
 4088.5393258436
  31
0.0
   0
ARC
   5
F8
 100
AcDbEntity
   8
LEVEL002
 370
13
   6
CONTINUOUS
  62
7
 100
AcDbCircle
  10
 1412.3969020202
  20
 4068.5393258436
  30
0.0
  40
 20.000000000000
 100
AcDbArc
  50
0.0
  51
 90.000000000000
   0
LINE
   5
F9
 100
AcDbEntity
   8
LEVEL002
 370
13
 100
AcDbLine
   6
CONTINUOUS
  62
7
  10
 1432.3969020202
  20
 3708.5393258436
  30
0.0
  11
 1432.3969020202
  21
 4068.5393258436
  31
0.0
   0
ARC
   5
FA
 100
AcDbEntity
   8
LEVEL002
 370
13
   6
CONTINUOUS
  62
7
 100
AcDbCircle
  10
 1302.3969020202
  20
 4068.5393258436
  30
0.0
  40
 20.000000000000
 100
AcDbArc
  50
 90.000000000000
  51
 180.00000000000
   0
LINE
   5
FB
 100
AcDbEntity
   8
LEVEL002
 370
13
 100
AcDbLine
   6
CONTINUOUS
  62
7
  10
 1282.3969020202
  20
 4068.5393258436
  30
0.0
  11
 1282.3969020202
  21
 3708.5393258436
  31
0.0
   0
LINE
   5
FC
 100
AcDbEntity
   8
LEVEL002
 370
13
 100
AcDbLine
   6
CONTINUOUS
  62
7
  10
 1412.3969020202
  20
 4088.5393258436
  30
0.0
  11
 1302.3969020202
  21
 4088.5393258436
  31
0.0
   0
LINE
   5
FD
 100
AcDbEntity
   8
LEVEL002
 370
13
 100
AcDbLine
   6
CONTINUOUS
  62
7
  10
 1432.3969020202
  20
 3708.5393258436
  30
0.0
  11
 1432.3969020202
  21
 4068.5393258436
  31
0.0
   0
ARC
   5
FE
 100
AcDbEntity
   8
LEVEL002
 370
13
   6
CONTINUOUS
  62
7
 100
AcDbCircle
  10
 1412.3969020202
  20
 4068.5393258436
  30
0.0
  40
 20.000000000000
 100
AcDbArc
  50
0.0
  51
 90.000000000000
   0
LWPOLYLINE
   5
FF
 100
AcDbEntity
   8
LEVEL001
 370
13
   6
CONTINUOUS
  62
7
 100
AcDbPolyline
  90
4
  70
1
  10
 1405.3968942461
  20
 4646.5392843144
  10
 1419.3968942461
  20
 4646.5392843144
  10
 1419.3968942461
  20
 4660.5392843144
  10
 1405.3968942461
  20
 4660.5392843144
   0
LWPOLYLINE
   5
100
 100
AcDbEntity
   8
LEVEL001
 370
13
   6
CONTINUOUS
  62
7
 100
AcDbPolyline
  90
4
  70
1
  10
 1405.3968942461
  20
 4586.5392843144
  10
 1419.3968942461
  20
 4586.5392843144
  10
 1419.3968942461
  20
 4600.5392843144
  10
 1405.3968942461
  20
 4600.5392843144
   0
LINE
   5
101
 100
AcDbEntity
   8
LEVEL001
 370
13
 100
AcDbLine
   6
CONTINUOUS
  62
6
  10
 1392.7518033417
  20
 4616.1015469935
  30
0.0
  11
 1392.7518033417
  21
 4573.5392843144
  31
0.0
   0
LINE
   5
102
 100
AcDbEntity
   8
LEVEL001
 370
13
 100
AcDbLine
   6
CONTINUOUS
  62
6
  10
 1392.7518033417
  20
 4630.9770216352
  30
0.0
  11
 1392.7518033417
  21
 4673.5392843144
  31
0.0
   0
LWPOLYLINE
   5
103
 100
AcDbEntity
   8
LEVEL001
 370
13
   6
CONTINUOUS
  62
7
 100
AcDbPolyline
  90
4
  70
1
  10
 1309.3969097940
  20
 4536.5392843144
  10
 1295.3969097940
  20
 4536.5392843144
  10
 1295.3969097940
  20
 4550.5392843144
  10
 1309.3969097940
  20
 4550.5392843144
   0
LWPOLYLINE
   5
104
 100
AcDbEntity
   8
LEVEL001
 370
13
   6
CONTINUOUS
  62
7
 100
AcDbPolyline
  90
4
  70
1
  10
 1309.3969097940
  20
 4476.5392843144
  10
 1295.3969097940
  20
 4476.5392843144
  10
 1295.3969097940
  20
 4490.5392843144
  10
 1309.3969097940
  20
 4490.5392843144
   0
LINE
   5
105
 100
AcDbEntity
   8
LEVEL001
 370
13
 100
AcDbLine
   6
CONTINUOUS
  62
6
  10
 1322.0420006984
  20
 4506.1015469935
  30
0.0
  11
 1322.0420006984
  21
 4463.5392843144
  31
0.0
   0
LINE
   5
106
 100
AcDbEntity
   8
LEVEL001
 370
13
 100
AcDbLine
   6
CONTINUOUS
  62
6
  10
 1322.0420006984
  20
 4520.9770216352
  30
0.0
  11
 1322.0420006984
  21
 4563.5392843144
  31
0.0
   0
CIRCLE
   5
107
 100
AcDbEntity
   8
LEVEL001
 370
13
 100
AcDbCircle
   6
CONTINUOUS
  62
7
  10
 957.39690202006
  20
 4588.5393258427
  30
0.0
  40
 300.00000000000
   0
ARC
   5
108
 100
AcDbEntity
   8
LEVEL001
 370
13
   6
CONTINUOUS
  62
1
 100
AcDbCircle
  10
 1062.3970860211
  20
 4877.0249604239
  30
0.0
  40
 7.5000000000000
 100
AcDbArc
  50
 339.30011558146
  51
 160.69988441851
   0
ARC
   5
109
 100
AcDbEntity
   8
LEVEL001
 370
13
   6
CONTINUOUS
  62
1
 100
AcDbCircle
  10
 852.39671801903
  20
 4877.0249604240
  30
0.0
  40
 7.5000000000000
 100
AcDbArc
  50
 19.300115581188
  51
 200.69988441883
   0
ARC
   5
10A
 100
AcDbEntity
   8
LEVEL001
 370
13
   6
CONTINUOUS
  62
7
 100
AcDbCircle
  10
 957.39690202006
  20
 4588.5393258427
  30
0.0
  40
 307.00000000000
 100
AcDbArc
  50
 17.242522646568
  51
 162.75747735343
   0
CIRCLE
   5
10B
 100
AcDbEntity
   8
LEVEL001
 370
13
 100
AcDbCircle
   6
CONTINUOUS
  62
2
  10
 957.39690202006
  20
 4588.5393258427
  30
0.0
  40
 285.00000000000
   0
LINE
   5
10C
 100
AcDbEntity
   8
LEVEL001
 370
13
 100
AcDbLine
   6
CONTINUOUS
  62
7
  10
 664.19390067116
  20
 4679.5393258427
  30
0.0
  11
 671.53154910019
  21
 4679.5393258427
  31
0.0
   0
ARC
   5
10D
 100
AcDbEntity
   8
LEVEL001
 370
13
   6
CONTINUOUS
  62
1
 100
AcDbCircle
  10
 679.16041139985
  20
 4718.2831321971
  30
0.0
  40
 7.5000000000000
 100
AcDbArc
  50
 64.300115581546
  51
 245.69988441846
   0
ARC
   5
10E
 100
AcDbEntity
   8
LEVEL001
 370
13
   6
CONTINUOUS
  62
1
 100
AcDbCircle
  10
 702.98247317324
  20
 4429.5635465727
  30
0.0
  40
 7.5000000000000
 100
AcDbArc
  50
 121.28378410419
  51
 302.71621589584
   0
DIMENSION
   5
10F
 100
AcDbEntity
   8
LEVEL001
 370
13
   6
CONTINUOUS
  62
6
 100
AcDbDimension
   2
*D1
  10
 1217.2045231554
  20
 4738.5393258427
  30
0.0
  11
 943.25404487720
  21
 4613.0354729783
  31
0.0
  70
3
   3
GMM001
 100
AcDbDiametricDimension
  15
 697.58928088473
  25
 4438.5393258427
  35
0.0
   0
ARC
   5
110
 100
AcDbEntity
   8
LEVEL001
 370
13
   6
CONTINUOUS
  62
1
 100
AcDbCircle
  10
 957.39690202006
  20
 4288.5393258427
  30
0.0
  40
 7.5000000000000
 100
AcDbArc
  50
 179.28378410391
  51
 0.71621589609071
   0
ARC
   5
111
 100
AcDbEntity
   8
LEVEL001
 370
13
   6
CONTINUOUS
  62
1
 100
AcDbCircle
  10
 1211.8113308669
  20
 4429.5635465727
  30
0.0
  40
 7.5000000000000
 100
AcDbArc
  50
 237.28378410416
  51
 58.716215895805
   0
LINE
   5
112
 100
AcDbEntity
   8
LEVEL001
 370
13
 100
AcDbLine
   6
CONTINUOUS
  62
7
  10
 1250.5999033690
  20
 4679.5393258427
  30
0.0
  11
 1243.2622549399
  21
 4679.5393258427
  31
0.0
   0
ARC
   5
113
 100
AcDbEntity
   8
LEVEL001
 370
13
   6
CONTINUOUS
  62
1
 100
AcDbCircle
  10
 1235.6333926403
  20
 4718.2831321971
  30
0.0
  40
 7.5000000000000
 100
AcDbArc
  50
 294.30011558157
  51
 115.69988441842
   0
LWPOLYLINE
   5
114
 100
AcDbEntity
   8
LEVEL001
 370
13
   6
CONTINUOUS
  62
7
 100
AcDbPolyline
  90
6
  70
0
  10
 1398.7469020201
  20
 4533.5392843144
  10
 1398.7469020201
  20
 4568.5392843144
  10
 1282.3969097940
  20
 4568.5392843144
  10
 1282.3969097940
  20
 4458.5392843144
  10
 1398.7469020201
  20
 4458.5392843144
  10
 1398.7469020201
  20
 4473.5392843144
   0
LINE
   5
115
 100
AcDbEntity
   8
LEVEL001
 370
13
 100
AcDbLine
   6
CONTINUOUS
  62
7
  10
 1282.3969097940
  20
 4566.2374405307
  30
0.0
  11
 1254.7770490049
  21
 4548.9786360196
  31
0.0
   0
LWPOLYLINE
   5
116
 100
AcDbEntity
   8
LEVEL001
 370
13
   6
CONTINUOUS
  62
7
 100
AcDbPolyline
  90
4
  70
0
  10
 1255.7096430795
  20
 4620.3120896764
  10
 1318.0455043320
  20
 4659.2638588980
  10
 1318.0455043320
  20
 4588.5131546962
  10
 1286.0806298814
  20
 4568.5392843144
   0
CIRCLE
   5
117
 100
AcDbEntity
   8
LEVEL001
 370
13
 100
AcDbCircle
   6
CONTINUOUS
  62
7
  10
 1757.3969020201
  20
 4588.5393258427
  30
0.0
  40
 300.00000000000
   0
ARC
   5
118
 100
AcDbEntity
   8
LEVEL001
 370
13
   6
CONTINUOUS
  62
7
 100
AcDbCircle
  10
 1757.3969020201
  20
 4588.5393258427
  30
0.0
  40
 307.00000000000
 100
AcDbArc
  50
 17.242522646568
  51
 162.75747735343
   0
CIRCLE
   5
119
 100
AcDbEntity
   8
LEVEL001
 370
13
 100
AcDbCircle
   6
CONTINUOUS
  62
2
  10
 1757.3969020201
  20
 4588.5393258427
  30
0.0
  40
 285.00000000000
   0
DIMENSION
   5
11A
 100
AcDbEntity
   8
LEVEL001
 370
13
   6
CONTINUOUS
  62
6
 100
AcDbDimension
   2
*D2
  10
 2017.2045231554
  20
 4738.5393258427
  30
0.0
  11
 1743.2540448772
  21
 4613.0354729783
  31
0.0
  70
3
   3
GMM001
 100
AcDbDiametricDimension
  15
 1497.5892808847
  25
 4438.5393258427
  35
0.0
   0
LINE
   5
11B
 100
AcDbEntity
   8
LEVEL001
 370
13
 100
AcDbLine
   6
CONTINUOUS
  62
7
  10
 2050.5999033690
  20
 4679.5393258427
  30
0.0
  11
 2043.2622549399
  21
 4679.5393258427
  31
0.0
   0
ARC
   5
11C
 100
AcDbEntity
   8
LEVEL001
 370
13
   6
CONTINUOUS
  62
1
 100
AcDbCircle
  10
 2035.6333926403
  20
 4718.2831321971
  30
0.0
  40
 7.5000000000000
 100
AcDbArc
  50
 294.30011558157
  51
 115.69988441842
   0
ARC
   5
11D
 100
AcDbEntity
   8
LEVEL001
 370
13
   6
CONTINUOUS
  62
1
 100
AcDbCircle
  10
 1862.3970860211
  20
 4877.0249604239
  30
0.0
  40
 7.5000000000000
 100
AcDbArc
  50
 339.30011558126
  51
 160.69988441871
   0
ARC
   5
11E
 100
AcDbEntity
   8
LEVEL001
 370
13
   6
CONTINUOUS
  62
1
 100
AcDbCircle
  10
 1652.3967180190
  20
 4877.0249604239
  30
0.0
  40
 7.5000000000000
 100
AcDbArc
  50
 19.300115581290
  51
 200.69988441872
   0
ARC
   5
11F
 100
AcDbEntity
   8
LEVEL001
 370
13
   6
CONTINUOUS
  62
1
 100
AcDbCircle
  10
 1757.3969020201
  20
 4288.5393258427
  30
0.0
  40
 7.5000000000000
 100
AcDbArc
  50
 179.28378410398
  51
 0.71621589602122
   0
ARC
   5
120
 100
AcDbEntity
   8
LEVEL001
 370
13
   6
CONTINUOUS
  62
1
 100
AcDbCircle
  10
 2011.8113308669
  20
 4429.5635465726
  30
0.0
  40
 7.5000000000000
 100
AcDbArc
  50
 237.28378410408
  51
 58.716215895882
   0
LINE
   5
121
 100
AcDbEntity
   8
LEVEL001
 370
13
 100
AcDbLine
   6
CONTINUOUS
  62
7
  10
 1464.1939006712
  20
 4679.5393258427
  30
0.0
  11
 1471.5315491002
  21
 4679.5393258427
  31
0.0
   0
ARC
   5
122
 100
AcDbEntity
   8
LEVEL001
 370
13
   6
CONTINUOUS
  62
1
 100
AcDbCircle
  10
 1479.1604113999
  20
 4718.2831321971
  30
0.0
  40
 7.5000000000000
 100
AcDbArc
  50
 64.300115581606
  51
 245.69988441839
   0
ARC
   5
123
 100
AcDbEntity
   8
LEVEL001
 370
13
   6
CONTINUOUS
  62
1
 100
AcDbCircle
  10
 1502.9824731732
  20
 4429.5635465727
  30
0.0
  40
 7.5000000000000
 100
AcDbArc
  50
 121.28378410419
  51
 302.71621589584
   0
LWPOLYLINE
   5
124
 100
AcDbEntity
   8
LEVEL001
 370
13
   6
CONTINUOUS
  62
7
 100
AcDbPolyline
  90
6
  70
0
  10
 1316.0469020201
  20
 4587.2642893648
  10
 1316.0469020201
  20
 4568.5392843144
  10
 1432.3968942461
  20
 4568.5392843144
  10
 1432.3968942461
  20
 4678.5392843144
  10
 1316.0469020201
  20
 4678.5392843144
  10
 1316.0469020201
  20
 4658.0149935666
   0
LWPOLYLINE
   5
125
 100
AcDbEntity
   8
LEVEL001
 370
13
   6
CONTINUOUS
  62
7
 100
AcDbPolyline
  90
4
  70
0
  10
 1462.4816677037
  20
 4533.5392843144
  10
 1396.7482997081
  20
 4533.5392843144
  10
 1396.7482997081
  20
 4473.5392843144
  10
 1480.3138992059
  20
 4473.5392843144
   0
LINE
   5
126
 100
AcDbEntity
   8
LEVEL001
 370
13
 100
AcDbLine
   6
DASHDOT
  62
6
  10
 2087.3969020201
  20
 4588.5393258427
  30
0.0
  11
 1427.3969020201
  21
 4588.5393258427
  31
0.0
   0
LINE
   5
127
 100
AcDbEntity
   8
LEVEL001
 370
13
 100
AcDbLine
   6
DASHDOT
  62
6
  10
 1757.3969020201
  20
 4918.5393258427
  30
0.0
  11
 1757.3969020201
  21
 4258.5393258427
  31
0.0
   0
LINE
   5
128
 100
AcDbEntity
   8
LEVEL001
 370
13
 100
AcDbLine
   6
DASHDOT
  62
6
  10
 1287.3969020201
  20
 4588.5393258427
  30
0.0
  11
 627.39690202006
  21
 4588.5393258427
  31
0.0
   0
LINE
   5
129
 100
AcDbEntity
   8
LEVEL001
 370
13
 100
AcDbLine
   6
DASHDOT
  62
6
  10
 957.39690202006
  20
 4918.5393258427
  30
0.0
  11
 957.39690202006
  21
 4258.5393258427
  31
0.0
   0
LINE
   5
12A
 100
AcDbEntity
   8
LEVEL001
 370
13
 100
AcDbLine
   6
CONTINUOUS
  62
7
  10
 1319.2469020201
  20
 4458.5392843144
  30
0.0
  11
 1319.2469020201
  21
 4088.5393258436
  31
0.0
   0
LINE
   5
12B
 100
AcDbEntity
   8
LEVEL001
 370
13
 100
AcDbLine
   6
CONTINUOUS
  62
7
  10
 1395.5469020201
  20
 4088.5393258436
  30
0.0
  11
 1395.5469020201
  21
 4458.5392843144
  31
0.0
   0
LINE
   5
12C
 100
AcDbEntity
   8
LEVEL002
 370
13
 100
AcDbLine
   6
CONTINUOUS
  62
7
  10
 2805.5458040796
  20
 4088.5393258445
  30
0.0
  11
 2802.8318973160
  21
 4081.7545589356
  31
0.0
   0
ARC
   5
12D
 100
AcDbEntity
   8
LEVEL002
 370
13
   6
CONTINUOUS
  62
7
 100
AcDbCircle
  10
 2807.4742807705
  20
 4079.8976055538
  30
0.0
  40
 5.0000000000000
 100
AcDbArc
  50
 158.19859051363
  51
 179.99999999999
   0
ARC
   5
12E
 100
AcDbEntity
   8
LEVEL002
 370
13
   6
CONTINUOUS
  62
7
 100
AcDbCircle
  10
 2801.4742807705
  20
 4072.6916793854
  30
0.0
  40
 5.0000000000000
 100
AcDbArc
  50
 359.99999999999
  51
 21.801409486328
   0
LINE
   5
12F
 100
AcDbEntity
   8
LEVEL002
 370
13
 100
AcDbLine
   6
CONTINUOUS
  62
7
  10
 2804.3143933702
  20
 4079.0543099039
  30
0.0
  11
 2806.1166642249
  21
 4074.5486327671
  31
0.0
   0
ARC
   5
130
 100
AcDbEntity
   8
LEVEL002
 370
13
   6
CONTINUOUS
  62
7
 100
AcDbCircle
  10
 2808.9567768246
  20
 4080.9112632857
  30
0.0
  40
 5.0000000000000
 100
AcDbArc
  50
 158.19859051366
  51
 201.80140948635
   0
LWPOLYLINE
   5
131
 100
AcDbEntity
   8
LEVEL002
 370
13
   6
CONTINUOUS
  62
7
 100
AcDbPolyline
  90
3
  70
0
  10
 2805.5458040796
  20
 4088.5393258445
  10
 2806.4742807705
  20
 4088.1679351681
  10
 2804.3143933702
  20
 4082.7682166674
   0
LINE
   5
132
 100
AcDbEntity
   8
LEVEL002
 370
13
 100
AcDbLine
   6
CONTINUOUS
  62
7
  10
 2802.4742807705
  20
 4079.8976055538
  30
0.0
  11
 2802.4742807705
  21
 3697.1810461335
  31
0.0
   0
LINE
   5
133
 100
AcDbEntity
   8
LEVEL002
 370
13
 100
AcDbLine
   6
CONTINUOUS
  62
7
  10
 2806.4742807705
  20
 4072.6916793854
  30
0.0
  11
 2806.4742807705
  21
 3704.3869723019
  31
0.0
   0
LINE
   5
134
 100
AcDbEntity
   8
LEVEL002
 370
13
 100
AcDbLine
   6
CONTINUOUS
  62
7
  10
 2805.5458040796
  20
 4088.5393258445
  30
0.0
  11
 2802.8318973160
  21
 4081.7545589356
  31
0.0
   0
ARC
   5
135
 100
AcDbEntity
   8
LEVEL002
 370
13
   6
CONTINUOUS
  62
7
 100
AcDbCircle
  10
 2807.4742807705
  20
 4079.8976055538
  30
0.0
  40
 5.0000000000000
 100
AcDbArc
  50
 158.19859051363
  51
 179.99999999999
   0
ARC
   5
136
 100
AcDbEntity
   8
LEVEL002
 370
13
   6
CONTINUOUS
  62
7
 100
AcDbCircle
  10
 2801.4742807705
  20
 4072.6916793854
  30
0.0
  40
 5.0000000000000
 100
AcDbArc
  50
 359.99999999999
  51
 21.801409486328
   0
LINE
   5
137
 100
AcDbEntity
   8
LEVEL002
 370
13
 100
AcDbLine
   6
CONTINUOUS
  62
7
  10
 2804.3143933702
  20
 4079.0543099039
  30
0.0
  11
 2806.1166642249
  21
 4074.5486327671
  31
0.0
   0
ARC
   5
138
 100
AcDbEntity
   8
LEVEL002
 370
13
   6
CONTINUOUS
  62
7
 100
AcDbCircle
  10
 2808.9567768246
  20
 4080.9112632857
  30
0.0
  40
 5.0000000000000
 100
AcDbArc
  50
 158.19859051366
  51
 201.80140948635
   0
LWPOLYLINE
   5
139
 100
AcDbEntity
   8
LEVEL002
 370
13
   6
CONTINUOUS
  62
7
 100
AcDbPolyline
  90
3
  70
0
  10
 2805.5458040796
  20
 4088.5393258445
  10
 2806.4742807705
  20
 4088.1679351681
  10
 2804.3143933702
  20
 4082.7682166674
   0
LINE
   5
13A
 100
AcDbEntity
   8
LEVEL002
 370
13
 100
AcDbLine
   6
CONTINUOUS
  62
7
  10
 2802.4742807705
  20
 4079.8976055538
  30
0.0
  11
 2802.4742807705
  21
 3697.1810461335
  31
0.0
   0
LINE
   5
13B
 100
AcDbEntity
   8
LEVEL002
 370
13
 100
AcDbLine
   6
CONTINUOUS
  62
7
  10
 2806.4742807705
  20
 4072.6916793854
  30
0.0
  11
 2806.4742807705
  21
 3704.3869723019
  31
0.0
   0
LWPOLYLINE
   5
13C
 100
AcDbEntity
   8
LEVEL001
 370
13
   6
CONTINUOUS
  62
7
 100
AcDbPolyline
  90
4
  70
1
  10
 2905.3968942461
  20
 4646.5393258427
  10
 2919.3968942461
  20
 4646.5393258427
  10
 2919.3968942461
  20
 4660.5393258427
  10
 2905.3968942461
  20
 4660.5393258427
   0
LWPOLYLINE
   5
13D
 100
AcDbEntity
   8
LEVEL001
 370
13
   6
CONTINUOUS
  62
7
 100
AcDbPolyline
  90
4
  70
1
  10
 2905.3968942461
  20
 4586.5393258427
  10
 2919.3968942461
  20
 4586.5393258427
  10
 2919.3968942461
  20
 4600.5393258427
  10
 2905.3968942461
  20
 4600.5393258427
   0
LINE
   5
13E
 100
AcDbEntity
   8
LEVEL001
 370
13
 100
AcDbLine
   6
CONTINUOUS
  62
6
  10
 2892.7518033417
  20
 4616.1015885219
  30
0.0
  11
 2892.7518033417
  21
 4573.5393258427
  31
0.0
   0
LWPOLYLINE
   5
13F
 100
AcDbEntity
   8
LEVEL001
 370
13
   6
CONTINUOUS
  62
7
 100
AcDbPolyline
  90
4
  70
1
  10
 2809.3969097940
  20
 4536.5393258427
  10
 2795.3969097940
  20
 4536.5393258427
  10
 2795.3969097940
  20
 4550.5393258427
  10
 2809.3969097940
  20
 4550.5393258427
   0
LWPOLYLINE
   5
140
 100
AcDbEntity
   8
LEVEL001
 370
13
   6
CONTINUOUS
  62
7
 100
AcDbPolyline
  90
4
  70
1
  10
 2809.3969097940
  20
 4476.5393258427
  10
 2795.3969097940
  20
 4476.5393258427
  10
 2795.3969097940
  20
 4490.5393258427
  10
 2809.3969097940
  20
 4490.5393258427
   0
LINE
   5
141
 100
AcDbEntity
   8
LEVEL001
 370
13
 100
AcDbLine
   6
CONTINUOUS
  62
6
  10
 2822.0420006984
  20
 4506.1015885219
  30
0.0
  11
 2822.0420006984
  21
 4463.5393258427
  31
0.0
   0
LWPOLYLINE
   5
142
 100
AcDbEntity
   8
LEVEL001
 370
13
   6
CONTINUOUS
  62
7
 100
AcDbPolyline
  90
4
  70
1
  10
 2818.0455043320
  20
 4659.2639004263
  10
 2818.0455043320
  20
 4588.5131962245
  10
 2618.0455043320
  20
 4463.5393258427
  10
 2618.0455043320
  20
 4534.2900300444
   0
LWPOLYLINE
   5
143
 100
AcDbEntity
   8
LEVEL001
 370
13
   6
CONTINUOUS
  62
7
 100
AcDbPolyline
  90
6
  70
0
  10
 2816.0469020201
  20
 4587.2643308931
  10
 2816.0469020201
  20
 4568.5393258427
  10
 2932.3968942461
  20
 4568.5393258427
  10
 2932.3968942461
  20
 4678.5393258427
  10
 2816.0469020201
  20
 4678.5393258427
  10
 2816.0469020201
  20
 4658.0150350949
   0
LWPOLYLINE
   5
144
 100
AcDbEntity
   8
LEVEL001
 370
13
   6
CONTINUOUS
  62
7
 100
AcDbPolyline
  90
4
  70
1
  10
 3096.7482997081
  20
 4533.5393258427
  10
 2896.7482997081
  20
 4533.5393258427
  10
 2896.7482997081
  20
 4473.5393258427
  10
 3096.7482997081
  20
 4473.5393258427
   0
LWPOLYLINE
   5
145
 100
AcDbEntity
   8
LEVEL001
 370
13
   6
CONTINUOUS
  62
7
 100
AcDbPolyline
  90
6
  70
0
  10
 2898.7469020201
  20
 4473.5393258427
  10
 2898.7469020201
  20
 4458.5393258427
  10
 2782.3969097940
  20
 4458.5393258427
  10
 2782.3969097940
  20
 4568.5393258427
  10
 2898.7469020201
  20
 4568.5393258427
  10
 2898.7469020201
  20
 4533.5393258427
   0
LINE
   5
146
 100
AcDbEntity
   8
LEVEL001
 370
13
 100
AcDbLine
   6
DASHDOT
  62
6
  10
 3040.5183470459
  20
 4588.5393258427
  30
0.0
  11
 3405.4658459352
  21
 4588.5393258427
  31
0.0
   0
LWPOLYLINE
   5
147
 100
AcDbEntity
   8
LEVEL001
 370
13
   6
CONTINUOUS
  62
7
 100
AcDbPolyline
  90
4
  70
1
  10
 3251.2979571924
  20
 4611.5393258427
  10
 3237.2979571924
  20
 4611.5393258427
  10
 3237.2979571924
  20
 4625.5393258427
  10
 3251.2979571924
  20
 4625.5393258427
   0
LWPOLYLINE
   5
148
 100
AcDbEntity
   8
LEVEL001
 370
13
   6
CONTINUOUS
  62
7
 100
AcDbPolyline
  90
4
  70
1
  10
 3251.2979571924
  20
 4551.5393258427
  10
 3237.2979571924
  20
 4551.5393258427
  10
 3237.2979571924
  20
 4565.5393258427
  10
 3251.2979571924
  20
 4565.5393258427
   0
LINE
   5
149
 100
AcDbEntity
   8
LEVEL001
 370
13
 100
AcDbLine
   6
DASHDOT
  62
6
  10
 3132.7223528575
  20
 4678.5393258427
  30
0.0
  11
 3132.7223528575
  21
 4438.5393258427
  31
0.0
   0
ARC
   5
14A
 100
AcDbEntity
   8
LEVEL001
 370
13
   6
CONTINUOUS
  62
7
 100
AcDbCircle
  10
 3201.3565680644
  20
 4584.1247396616
  30
0.0
  40
 8.0000000000000
 100
AcDbArc
  50
 35.000000000005
  51
 215.00000000000
   0
LWPOLYLINE
   5
14B
 100
AcDbEntity
   8
LEVEL001
 370
13
   6
CONTINUOUS
  62
7
 100
AcDbPolyline
  90
4
  70
0
  10
 3219.2979571924
  20
 4533.5393258427
  10
 3057.7223357549
  20
 4533.5393258427
  10
 3057.7223357549
  20
 4643.5393258427
  10
 3219.2979571924
  20
 4643.5393258427
   0
ARC
   5
14C
 100
AcDbEntity
   8
LEVEL001
 370
13
   6
CONTINUOUS
  62
7
 100
AcDbCircle
  10
 3250.5056907218
  20
 4618.5393258427
  30
0.0
  40
 52.000000000000
 100
AcDbArc
  50
 215.00000000000
  51
 233.11945020300
   0
ARC
   5
14D
 100
AcDbEntity
   8
LEVEL001
 370
13
   6
CONTINUOUS
  62
7
 100
AcDbCircle
  10
 3250.5056907218
  20
 4618.5393258427
  30
0.0
  40
 68.000000000000
 100
AcDbArc
  50
 215.00000000000
  51
 242.68144807228
   0
LWPOLYLINE
   5
14E
 100
AcDbEntity
   8
LEVEL001
 370
13
   6
CONTINUOUS
  62
7
 100
AcDbPolyline
  90
4
  70
1
  10
 3084.7223357549
  20
 4611.5393258427
  10
 3070.7223357549
  20
 4611.5393258427
  10
 3070.7223357549
  20
 4625.5393258427
  10
 3084.7223357549
  20
 4625.5393258427
   0
LINE
   5
14F
 100
AcDbEntity
   8
LEVEL001
 370
13
 100
AcDbLine
   6
CONTINUOUS
  62
6
  10
 3097.2943262010
  20
 4638.5393258427
  30
0.0
  11
 3097.2943262010
  21
 4538.5393258427
  31
0.0
   0
LINE
   5
150
 100
AcDbEntity
   8
LEVEL001
 370
13
 100
AcDbLine
   6
CONTINUOUS
  62
6
  10
 3170.5056907218
  20
 4538.5393258427
  30
0.0
  11
 3170.5056907218
  21
 4638.5393258427
  31
0.0
   0
LWPOLYLINE
   5
151
 100
AcDbEntity
   8
LEVEL001
 370
13
   6
CONTINUOUS
  62
7
 100
AcDbPolyline
  90
4
  70
1
  10
 3084.7223357549
  20
 4551.5393258427
  10
 3070.7223357549
  20
 4551.5393258427
  10
 3070.7223357549
  20
 4565.5393258427
  10
 3084.7223357549
  20
 4565.5393258427
   0
LWPOLYLINE
   5
152
 100
AcDbEntity
   8
LEVEL001
 370
13
   6
CONTINUOUS
  62
7
 100
AcDbPolyline
  90
4
  70
0
  10
 3094.5723528575
  20
 4473.5393258427
  10
 3094.5723528575
  20
 4458.5393258427
  10
 3170.8723528575
  20
 4458.5393258427
  10
 3170.8723528575
  20
 4533.5393258427
   0
LWPOLYLINE
   5
153
 100
AcDbEntity
   8
LEVEL001
 370
13
   6
CONTINUOUS
  62
7
 100
AcDbPolyline
  90
4
  70
0
  10
 3170.8723528575
  20
 4643.5393258427
  10
 3170.8723528575
  20
 4658.5393258427
  10
 3094.5723528575
  20
 4658.5393258427
  10
 3094.5723528575
  20
 4643.5393258427
   0
LINE
   5
154
 100
AcDbEntity
   8
LEVEL001
 370
13
 100
AcDbLine
   6
DASHDOT
  62
6
  10
 2582.0714511826
  20
 4678.5393258427
  30
0.0
  11
 2582.0714511826
  21
 4438.5393258427
  31
0.0
   0
LINE
   5
155
 100
AcDbEntity
   8
LEVEL001
 370
13
 100
AcDbLine
   6
DASHDOT
  62
6
  10
 2674.2754569942
  20
 4588.5393258427
  30
0.0
  11
 2309.3279581049
  21
 4588.5393258427
  31
0.0
   0
LWPOLYLINE
   5
156
 100
AcDbEntity
   8
LEVEL001
 370
13
   6
CONTINUOUS
  62
7
 100
AcDbPolyline
  90
4
  70
1
  10
 2463.4958468477
  20
 4611.5393258427
  10
 2477.4958468477
  20
 4611.5393258427
  10
 2477.4958468477
  20
 4625.5393258427
  10
 2463.4958468477
  20
 4625.5393258427
   0
LWPOLYLINE
   5
157
 100
AcDbEntity
   8
LEVEL001
 370
13
   6
CONTINUOUS
  62
7
 100
AcDbPolyline
  90
4
  70
1
  10
 2463.4958468477
  20
 4551.5393258427
  10
 2477.4958468477
  20
 4551.5393258427
  10
 2477.4958468477
  20
 4565.5393258427
  10
 2463.4958468477
  20
 4565.5393258427
   0
ARC
   5
158
 100
AcDbEntity
   8
LEVEL001
 370
13
   6
CONTINUOUS
  62
7
 100
AcDbCircle
  10
 2513.4372359757
  20
 4584.1247396616
  30
0.0
  40
 8.0000000000000
 100
AcDbArc
  50
 325.00000000000
  51
 145.00000000000
   0
LWPOLYLINE
   5
159
 100
AcDbEntity
   8
LEVEL001
 370
13
   6
CONTINUOUS
  62
7
 100
AcDbPolyline
  90
4
  70
0
  10
 2495.4958468477
  20
 4533.5393258427
  10
 2657.0714682852
  20
 4533.5393258427
  10
 2657.0714682852
  20
 4643.5393258427
  10
 2495.4958468477
  20
 4643.5393258427
   0
ARC
   5
15A
 100
AcDbEntity
   8
LEVEL001
 370
13
   6
CONTINUOUS
  62
7
 100
AcDbCircle
  10
 2464.2881133183
  20
 4618.5393258427
  30
0.0
  40
 52.000000000000
 100
AcDbArc
  50
 306.88054979700
  51
 325.00000000000
   0
ARC
   5
15B
 100
AcDbEntity
   8
LEVEL001
 370
13
   6
CONTINUOUS
  62
7
 100
AcDbCircle
  10
 2464.2881133183
  20
 4618.5393258427
  30
0.0
  40
 68.000000000000
 100
AcDbArc
  50
 297.31855192772
  51
 325.00000000000
   0
LWPOLYLINE
   5
15C
 100
AcDbEntity
   8
LEVEL001
 370
13
   6
CONTINUOUS
  62
7
 100
AcDbPolyline
  90
4
  70
1
  10
 2630.0714682852
  20
 4611.5393258427
  10
 2644.0714682852
  20
 4611.5393258427
  10
 2644.0714682852
  20
 4625.5393258427
  10
 2630.0714682852
  20
 4625.5393258427
   0
LINE
   5
15D
 100
AcDbEntity
   8
LEVEL001
 370
13
 100
AcDbLine
   6
CONTINUOUS
  62
6
  10
 2617.4994778391
  20
 4638.5393258427
  30
0.0
  11
 2617.4994778391
  21
 4538.5393258427
  31
0.0
   0
LINE
   5
15E
 100
AcDbEntity
   8
LEVEL001
 370
13
 100
AcDbLine
   6
CONTINUOUS
  62
6
  10
 2544.2881133183
  20
 4538.5393258427
  30
0.0
  11
 2544.2881133183
  21
 4638.5393258427
  31
0.0
   0
LWPOLYLINE
   5
15F
 100
AcDbEntity
   8
LEVEL001
 370
13
   6
CONTINUOUS
  62
7
 100
AcDbPolyline
  90
4
  70
1
  10
 2630.0714682852
  20
 4551.5393258427
  10
 2644.0714682852
  20
 4551.5393258427
  10
 2644.0714682852
  20
 4565.5393258427
  10
 2630.0714682852
  20
 4565.5393258427
   0
LINE
   5
160
 100
AcDbEntity
   8
LEVEL001
 370
13
 100
AcDbLine
   6
CONTINUOUS
  62
7
  10
 2620.2214511826
  20
 4535.6497125427
  30
0.0
  11
 2620.2214511826
  21
 4535.5388953758
  31
0.0
   0
LWPOLYLINE
   5
161
 100
AcDbEntity
   8
LEVEL001
 370
13
   6
CONTINUOUS
  62
7
 100
AcDbPolyline
  90
4
  70
0
  10
 2620.2214511826
  20
 4464.7881911741
  10
 2620.2214511826
  20
 4458.5393258427
  10
 2543.9214511826
  20
 4458.5393258427
  10
 2543.9214511826
  20
 4533.5393258427
   0
LWPOLYLINE
   5
162
 100
AcDbEntity
   8
LEVEL001
 370
13
   6
CONTINUOUS
  62
7
 100
AcDbPolyline
  90
4
  70
0
  10
 2543.9214511826
  20
 4643.5393258427
  10
 2543.9214511826
  20
 4658.5393258427
  10
 2620.2214511826
  20
 4658.5393258427
  10
 2620.2214511826
  20
 4643.5393258427
   0
CIRCLE
   5
163
 100
AcDbEntity
   8
LEVEL001
 370
13
 100
AcDbCircle
   6
CONTINUOUS
  62
1
  10
 2396.8872652962
  20
 4718.2831321971
  30
0.0
  40
 7.5000000000000
   0
CIRCLE
   5
164
 100
AcDbEntity
   8
LEVEL001
 370
13
 100
AcDbCircle
   6
CONTINUOUS
  62
1
  10
 2396.8872652962
  20
 4877.0249604239
  30
0.0
  40
 7.5000000000000
   0
ARC
   5
165
 100
AcDbEntity
   8
LEVEL001
 370
13
   6
CONTINUOUS
  62
1
 100
AcDbCircle
  10
 2396.8872652962
  20
 4289.0393258427
  30
0.0
  40
 7.5000000000000
 100
AcDbArc
  50
 180.00000000000
  51
0.0
   0
CIRCLE
   5
166
 100
AcDbEntity
   8
LEVEL001
 370
13
 100
AcDbCircle
   6
CONTINUOUS
  62
1
  10
 2396.8872652962
  20
 4429.5635465726
  30
0.0
  40
 7.5000000000000
   0
LWPOLYLINE
   5
167
 100
AcDbEntity
   8
LEVEL001
 370
13
   6
CONTINUOUS
  62
7
 100
AcDbPolyline
  90
4
  70
0
  10
 2408.8872652962
  20
 4533.5393258427
  10
 2495.4958468477
  20
 4533.5393258427
  10
 2495.4958468477
  20
 4643.5393258427
  10
 2408.8872652962
  20
 4643.5393258427
   0
CIRCLE
   5
168
 100
AcDbEntity
   8
LEVEL001
 370
13
 100
AcDbCircle
   6
CONTINUOUS
  62
1
  10
 3317.9065387439
  20
 4718.2831321971
  30
0.0
  40
 7.5000000000000
   0
CIRCLE
   5
169
 100
AcDbEntity
   8
LEVEL001
 370
13
 100
AcDbCircle
   6
CONTINUOUS
  62
1
  10
 3317.9065387439
  20
 4877.0249604239
  30
0.0
  40
 7.5000000000000
   0
ARC
   5
16A
 100
AcDbEntity
   8
LEVEL001
 370
13
   6
CONTINUOUS
  62
1
 100
AcDbCircle
  10
 3317.9065387439
  20
 4289.0393258427
  30
0.0
  40
 7.5000000000000
 100
AcDbArc
  50
 180.00000000000
  51
0.0
   0
CIRCLE
   5
16B
 100
AcDbEntity
   8
LEVEL001
 370
13
 100
AcDbCircle
   6
CONTINUOUS
  62
1
  10
 3317.9065387439
  20
 4429.5635465726
  30
0.0
  40
 7.5000000000000
   0
LWPOLYLINE
   5
16C
 100
AcDbEntity
   8
LEVEL001
 370
13
   6
CONTINUOUS
  62
7
 100
AcDbPolyline
  90
4
  70
0
  10
 3305.9065387439
  20
 4533.5393258427
  10
 3219.2979571924
  20
 4533.5393258427
  10
 3219.2979571924
  20
 4643.5393258427
  10
 3305.9065387439
  20
 4643.5393258427
   0
CIRCLE
   5
16D
 100
AcDbEntity
   8
LEVEL001
 370
13
 100
AcDbCircle
   6
CONTINUOUS
  62
1
  10
 3686.2919758521
  20
 4266.2491045886
  30
0.0
  40
 69.999997913838
   0
LEADER
   5
16E
 100
AcDbEntity
   8
LEVEL001
 370
13
   6
CONTINUOUS
  62
1
 100
AcDbLeader
   3
GMM002
  73
3
  74
1
  75
0
  40
 66.000000000000
  41
0.0
  76
2
  10
 3903.4795063599
  20
 4391.6423837921
  30
0.0
  10
 3746.9137523103
  20
 4301.2491035456
  30
0.0
  77
1
   0
MTEXT
   5
170
 100
AcDbEntity
   8
LEVEL001
 370
13
  62
7
 100
AcDbMText
  10
 3686.2919758521
  20
 4266.2491045886
  30
0.0
  40
 66.000000000000
  41
0.0
  71
5
  72
1
   1
\T1.000000;２
   7
GMM001
  44
 0.79999984000003
   0
CIRCLE
   5
171
 100
AcDbEntity
   8
LEVEL001
 370
13
 100
AcDbCircle
   6
CONTINUOUS
  62
7
  10
 4107.3969020201
  20
 4588.5393258427
  30
0.0
  40
 300.00000000000
   0
LINE
   5
172
 100
AcDbEntity
   8
LEVEL001
 370
13
 100
AcDbLine
   6
CONTINUOUS
  62
7
  10
 3814.1939006712
  20
 4679.5393258427
  30
0.0
  11
 3821.5315491002
  21
 4679.5393258427
  31
0.0
   0
LINE
   5
173
 100
AcDbEntity
   8
LEVEL001
 370
13
 100
AcDbLine
   6
CONTINUOUS
  62
7
  10
 4400.5999033690
  20
 4679.5393258427
  30
0.0
  11
 4393.2622549399
  21
 4679.5393258427
  31
0.0
   0
ARC
   5
174
 100
AcDbEntity
   8
LEVEL001
 370
13
   6
CONTINUOUS
  62
1
 100
AcDbCircle
  10
 3829.1604113998
  20
 4718.2831321971
  30
0.0
  40
 7.5000000000000
 100
AcDbArc
  50
 64.300115581256
  51
 245.69988441875
   0
ARC
   5
175
 100
AcDbEntity
   8
LEVEL001
 370
13
   6
CONTINUOUS
  62
1
 100
AcDbCircle
  10
 4385.6333926403
  20
 4718.2831321971
  30
0.0
  40
 7.5000000000000
 100
AcDbArc
  50
 294.30011558132
  51
 115.69988441868
   0
ARC
   5
176
 100
AcDbEntity
   8
LEVEL001
 370
13
   6
CONTINUOUS
  62
1
 100
AcDbCircle
  10
 4002.3967180190
  20
 4877.0249604240
  30
0.0
  40
 7.5000000000000
 100
AcDbArc
  50
 19.300115580790
  51
 200.69988441922
   0
ARC
   5
177
 100
AcDbEntity
   8
LEVEL001
 370
13
   6
CONTINUOUS
  62
1
 100
AcDbCircle
  10
 4212.3970860211
  20
 4877.0249604240
  30
0.0
  40
 7.5000000000000
 100
AcDbArc
  50
 339.30011558096
  51
 160.69988441904
   0
ARC
   5
178
 100
AcDbEntity
   8
LEVEL001
 370
13
   6
CONTINUOUS
  62
1
 100
AcDbCircle
  10
 4361.8113308669
  20
 4429.5635465726
  30
0.0
  40
 7.5000000000000
 100
AcDbArc
  50
 237.28378410385
  51
 58.716215896115
   0
ARC
   5
179
 100
AcDbEntity
   8
LEVEL001
 370
13
   6
CONTINUOUS
  62
1
 100
AcDbCircle
  10
 3852.9824731732
  20
 4429.5635465726
  30
0.0
  40
 7.5000000000000
 100
AcDbArc
  50
 121.28378410396
  51
 302.71621589608
   0
ARC
   5
17A
 100
AcDbEntity
   8
LEVEL001
 370
13
   6
CONTINUOUS
  62
7
 100
AcDbCircle
  10
 4107.3969020201
  20
 4588.5393258427
  30
0.0
  40
 307.00000000000
 100
AcDbArc
  50
 17.242522646568
  51
 162.75747735343
   0
ARC
   5
17B
 100
AcDbEntity
   8
LEVEL001
 370
13
   6
CONTINUOUS
  62
2
 100
AcDbCircle
  10
 4168.9611807521
  20
 4705.3035170850
  30
0.0
  40
 14.999999551465
 100
AcDbArc
  50
 242.19997303132
  51
 310.03934226670
   0
LINE
   5
17C
 100
AcDbEntity
   8
LEVEL001
 370
13
 100
AcDbLine
   6
CONTINUOUS
  62
2
  10
 4178.6108824255
  20
 4693.8194740618
  30
0.0
  11
 4277.2247710783
  21
 4776.6829359394
  31
0.0
   0
LINE
   5
17D
 100
AcDbEntity
   8
LEVEL001
 370
13
 100
AcDbLine
   6
CONTINUOUS
  62
2
  10
 4002.1167470781
  20
 4659.7533129710
  30
0.0
  11
 3919.2529800247
  21
 4758.3672016238
  31
0.0
   0
LINE
   5
17E
 100
AcDbEntity
   8
LEVEL001
 370
13
 100
AcDbLine
   6
CONTINUOUS
  62
2
  10
 4036.1829081688
  20
 4693.8194740618
  30
0.0
  11
 3937.5690195160
  21
 4776.6829359394
  31
0.0
   0
ARC
   5
17F
 100
AcDbEntity
   8
LEVEL001
 370
13
   6
CONTINUOUS
  62
2
 100
AcDbCircle
  10
 3929.2060252053
  20
 4766.7300301000
  30
0.0
  40
 13.000000326526
 100
AcDbArc
  50
 49.961123640766
  51
 220.03792170801
   0
ARC
   5
180
 100
AcDbEntity
   8
LEVEL001
 370
13
   6
CONTINUOUS
  62
2
 100
AcDbCircle
  10
 4045.8328451638
  20
 4705.3033193471
  30
0.0
  40
 14.999999551465
 100
AcDbArc
  50
 229.95948366515
  51
 297.80164640215
   0
ARC
   5
181
 100
AcDbEntity
   8
LEVEL001
 370
13
   6
CONTINUOUS
  62
2
 100
AcDbCircle
  10
 3990.6328029224
  20
 4650.1034936374
  30
0.0
  40
 14.999999551465
 100
AcDbArc
  50
 332.19916331550
  51
 40.039929295818
   0
ARC
   5
182
 100
AcDbEntity
   8
LEVEL001
 370
13
   6
CONTINUOUS
  62
2
 100
AcDbCircle
  10
 4107.3972004729
  20
 4588.5393325656
  30
0.0
  40
 116.99999459408
 100
AcDbArc
  50
 62.199479478546
  51
 117.80052052145
   0
CIRCLE
   5
183
 100
AcDbEntity
   8
LEVEL001
 370
13
 100
AcDbCircle
   6
CONTINUOUS
  62
2
  10
 4107.3968952972
  20
 4588.5393258427
  30
0.0
  40
 99.999997009768
   0
LINE
   5
184
 100
AcDbEntity
   8
LEVEL001
 370
13
 100
AcDbLine
   6
CONTINUOUS
  62
2
  10
 4002.1167470781
  20
 4517.3253387143
  30
0.0
  11
 3919.2529800247
  21
 4418.7114500616
  31
0.0
   0
LINE
   5
185
 100
AcDbEntity
   8
LEVEL001
 370
13
 100
AcDbLine
   6
CONTINUOUS
  62
2
  10
 4036.1829081688
  20
 4483.2591776236
  30
0.0
  11
 3937.5690195160
  21
 4400.3957157460
  31
0.0
   0
ARC
   5
186
 100
AcDbEntity
   8
LEVEL001
 370
13
   6
CONTINUOUS
  62
2
 100
AcDbCircle
  10
 3929.2060252053
  20
 4410.3486215854
  30
0.0
  40
 13.000000326526
 100
AcDbArc
  50
 139.96207829194
  51
 310.03887635928
   0
ARC
   5
187
 100
AcDbEntity
   8
LEVEL001
 370
13
   6
CONTINUOUS
  62
2
 100
AcDbCircle
  10
 3990.6328029224
  20
 4526.9751580480
  30
0.0
  40
 14.999999551465
 100
AcDbArc
  50
 319.96007070418
  51
 27.800836684497
   0
ARC
   5
188
 100
AcDbEntity
   8
LEVEL001
 370
13
   6
CONTINUOUS
  62
2
 100
AcDbCircle
  10
 4045.8328451638
  20
 4471.7753323383
  30
0.0
  40
 14.999999551465
 100
AcDbArc
  50
 62.198353597850
  51
 130.04051633485
   0
ARC
   5
189
 100
AcDbEntity
   8
LEVEL001
 370
13
   6
CONTINUOUS
  62
2
 100
AcDbCircle
  10
 4107.3972004729
  20
 4588.5393191198
  30
0.0
  40
 116.99999459408
 100
AcDbArc
  50
 242.19947947855
  51
 297.80052052145
   0
ARC
   5
18A
 100
AcDbEntity
   8
LEVEL001
 370
13
   6
CONTINUOUS
  62
2
 100
AcDbCircle
  10
 4168.9611807521
  20
 4471.7751346004
  30
0.0
  40
 14.999999551465
 100
AcDbArc
  50
 49.960657733301
  51
 117.80002696868
   0
LINE
   5
18B
 100
AcDbEntity
   8
LEVEL001
 370
13
 100
AcDbLine
   6
CONTINUOUS
  62
2
  10
 4178.6108824255
  20
 4483.2591776236
  30
0.0
  11
 4277.2247710783
  21
 4400.3957157460
  31
0.0
   0
ARC
   5
18C
 100
AcDbEntity
   8
LEVEL001
 370
13
   6
CONTINUOUS
  62
2
 100
AcDbCircle
  10
 4107.3968885743
  20
 4588.5393258427
  30
0.0
  40
 116.99999459408
 100
AcDbArc
  50
 152.19947947855
  51
 207.80052052145
   0
ARC
   5
18D
 100
AcDbEntity
   8
LEVEL001
 370
13
   6
CONTINUOUS
  62
2
 100
AcDbCircle
  10
 4224.1609876719
  20
 4650.1034936374
  30
0.0
  40
 14.999999551465
 100
AcDbArc
  50
 139.96007070418
  51
 207.80083668450
   0
LINE
   5
18E
 100
AcDbEntity
   8
LEVEL001
 370
13
 100
AcDbLine
   6
CONTINUOUS
  62
2
  10
 4212.6770435162
  20
 4659.7533129710
  30
0.0
  11
 4295.5408105697
  21
 4758.3672016238
  31
0.0
   0
ARC
   5
18F
 100
AcDbEntity
   8
LEVEL001
 370
13
   6
CONTINUOUS
  62
2
 100
AcDbCircle
  10
 4285.5877653890
  20
 4766.7300301000
  30
0.0
  40
 13.000000326526
 100
AcDbArc
  50
 319.96207829201
  51
 130.03887635921
   0
ARC
   5
190
 100
AcDbEntity
   8
LEVEL001
 370
13
   6
CONTINUOUS
  62
2
 100
AcDbCircle
  10
 4285.5877653891
  20
 4410.3486215854
  30
0.0
  40
 13.000000326526
 100
AcDbArc
  50
 229.96112364075
  51
 40.037921708043
   0
LINE
   5
191
 100
AcDbEntity
   8
LEVEL001
 370
13
 100
AcDbLine
   6
CONTINUOUS
  62
2
  10
 4212.6770435162
  20
 4517.3253387143
  30
0.0
  11
 4295.5408105697
  21
 4418.7114500616
  31
0.0
   0
ARC
   5
192
 100
AcDbEntity
   8
LEVEL001
 370
13
   6
CONTINUOUS
  62
2
 100
AcDbCircle
  10
 4224.1609876719
  20
 4526.9751580480
  30
0.0
  40
 14.999999551465
 100
AcDbArc
  50
 152.19916331550
  51
 220.03992929582
   0
ARC
   5
193
 100
AcDbEntity
   8
LEVEL001
 370
13
   6
CONTINUOUS
  62
2
 100
AcDbCircle
  10
 4107.3969020201
  20
 4588.5393258427
  30
0.0
  40
 116.99999459408
 100
AcDbArc
  50
 332.19947947855
  51
 27.800520521455
   0
LINE
   5
194
 100
AcDbEntity
   8
LEVEL001
 370
13
 100
AcDbLine
   6
CONTINUOUS
  62
6
  10
 4018.7231918940
  20
 4661.5068529577
  30
0.0
  11
 3952.5946538324
  21
 4740.2046655458
  31
0.0
   0
LINE
   5
195
 100
AcDbEntity
   8
LEVEL001
 370
13
 100
AcDbLine
   6
CONTINUOUS
  62
6
  10
 4034.4293681822
  20
 4677.2133344216
  30
0.0
  11
 3955.7312504183
  21
 4743.3418724833
  31
0.0
   0
LINE
   5
196
 100
AcDbEntity
   8
LEVEL001
 370
13
 100
AcDbLine
   6
CONTINUOUS
  62
6
  10
 4180.3644224121
  20
 4677.2133344216
  30
0.0
  11
 4259.0625401761
  21
 4743.3418724833
  31
0.0
   0
LINE
   5
197
 100
AcDbEntity
   8
LEVEL001
 370
13
 100
AcDbLine
   6
CONTINUOUS
  62
6
  10
 4018.7231918940
  20
 4515.5717987277
  30
0.0
  11
 3952.5946538324
  21
 4436.8739861396
  31
0.0
   0
LINE
   5
198
 100
AcDbEntity
   8
LEVEL001
 370
13
 100
AcDbLine
   6
CONTINUOUS
  62
6
  10
 4034.4293681822
  20
 4499.8653172638
  30
0.0
  11
 3955.7312504183
  21
 4433.7367792021
  31
0.0
   0
LINE
   5
199
 100
AcDbEntity
   8
LEVEL001
 370
13
 100
AcDbLine
   6
CONTINUOUS
  62
6
  10
 4180.3644224121
  20
 4499.8653172638
  30
0.0
  11
 4259.0625401761
  21
 4433.7367792021
  31
0.0
   0
LINE
   5
19A
 100
AcDbEntity
   8
LEVEL001
 370
13
 100
AcDbLine
   6
CONTINUOUS
  62
6
  10
 4196.0712090518
  20
 4661.5068529577
  30
0.0
  11
 4262.1997471135
  21
 4740.2046655458
  31
0.0
   0
LINE
   5
19B
 100
AcDbEntity
   8
LEVEL001
 370
13
 100
AcDbLine
   6
CONTINUOUS
  62
6
  10
 4196.0712090518
  20
 4515.5717987277
  30
0.0
  11
 4262.1997471135
  21
 4436.8739861396
  31
0.0
   0
CIRCLE
   5
19C
 100
AcDbEntity
   8
LEVEL001
 370
13
 100
AcDbCircle
   6
CONTINUOUS
  62
7
  10
 4067.3969020201
  20
 4623.5393258427
  30
0.0
  40
 7.0000000000000
   0
LINE
   5
19D
 100
AcDbEntity
   8
LEVEL001
 370
13
 100
AcDbLine
   6
DASHDOT
  62
6
  10
 4067.3969020201
  20
 4603.5393258427
  30
0.0
  11
 4067.3969020201
  21
 4643.5393258427
  31
0.0
   0
LINE
   5
19E
 100
AcDbEntity
   8
LEVEL001
 370
13
 100
AcDbLine
   6
DASHDOT
  62
6
  10
 4087.3969020201
  20
 4623.5393258427
  30
0.0
  11
 4047.3969020201
  21
 4623.5393258427
  31
0.0
   0
CIRCLE
   5
19F
 100
AcDbEntity
   8
LEVEL001
 370
13
 100
AcDbCircle
   6
CONTINUOUS
  62
7
  10
 4147.3969020201
  20
 4623.5393258427
  30
0.0
  40
 7.0000000000000
   0
LINE
   5
1A0
 100
AcDbEntity
   8
LEVEL001
 370
13
 100
AcDbLine
   6
DASHDOT
  62
6
  10
 4127.3969020201
  20
 4623.5393258427
  30
0.0
  11
 4167.3969020201
  21
 4623.5393258427
  31
0.0
   0
LINE
   5
1A1
 100
AcDbEntity
   8
LEVEL001
 370
13
 100
AcDbLine
   6
DASHDOT
  62
6
  10
 4147.3969020201
  20
 4603.5393258427
  30
0.0
  11
 4147.3969020201
  21
 4643.5393258427
  31
0.0
   0
CIRCLE
   5
1A2
 100
AcDbEntity
   8
LEVEL001
 370
13
 100
AcDbCircle
   6
CONTINUOUS
  62
7
  10
 4147.3969020201
  20
 4553.5393258427
  30
0.0
  40
 7.0000000000000
   0
LINE
   5
1A3
 100
AcDbEntity
   8
LEVEL001
 370
13
 100
AcDbLine
   6
DASHDOT
  62
6
  10
 4147.3969020201
  20
 4573.5393258427
  30
0.0
  11
 4147.3969020201
  21
 4533.5393258427
  31
0.0
   0
LINE
   5
1A4
 100
AcDbEntity
   8
LEVEL001
 370
13
 100
AcDbLine
   6
DASHDOT
  62
6
  10
 4127.3969020201
  20
 4553.5393258427
  30
0.0
  11
 4167.3969020201
  21
 4553.5393258427
  31
0.0
   0
CIRCLE
   5
1A5
 100
AcDbEntity
   8
LEVEL001
 370
13
 100
AcDbCircle
   6
CONTINUOUS
  62
7
  10
 4067.3969020201
  20
 4553.5393258427
  30
0.0
  40
 7.0000000000000
   0
LINE
   5
1A6
 100
AcDbEntity
   8
LEVEL001
 370
13
 100
AcDbLine
   6
DASHDOT
  62
6
  10
 4087.3969020201
  20
 4553.5393258427
  30
0.0
  11
 4047.3969020201
  21
 4553.5393258427
  31
0.0
   0
LINE
   5
1A7
 100
AcDbEntity
   8
LEVEL001
 370
13
 100
AcDbLine
   6
DASHDOT
  62
6
  10
 4067.3969020201
  20
 4573.5393258427
  30
0.0
  11
 4067.3969020201
  21
 4533.5393258427
  31
0.0
   0
ARC
   5
1A8
 100
AcDbEntity
   8
LEVEL001
 370
13
   6
CONTINUOUS
  62
1
 100
AcDbCircle
  10
 4107.3969020201
  20
 4288.5393258427
  30
0.0
  40
 7.5000000000000
 100
AcDbArc
  50
 179.28378410363
  51
 0.71621589636870
   0
LINE
   5
1A9
 100
AcDbEntity
   8
LEVEL001
 370
13
 100
AcDbLine
   6
DASHDOT
  62
6
  10
 4107.3969020201
  20
 4258.5393258427
  30
0.0
  11
 4107.3969020201
  21
 4918.5393258427
  31
0.0
   0
LINE
   5
1AA
 100
AcDbEntity
   8
LEVEL001
 370
13
 100
AcDbLine
   6
DASHDOT
  62
6
  10
 3777.3969020201
  20
 4588.5393258427
  30
0.0
  11
 4437.3969020201
  21
 4588.5393258427
  31
0.0
   0
CIRCLE
   5
1AB
 100
AcDbEntity
   8
LEVEL001
 370
13
 100
AcDbCircle
   6
CONTINUOUS
  62
1
  10
 2107.3969020201
  20
 4913.5393258436
  30
0.0
  40
 69.999997913838
   0
MTEXT
   5
1AD
 100
AcDbEntity
   8
LEVEL001
 370
13
  62
7
 100
AcDbMText
  10
 2107.3969020201
  20
 4913.5393258436
  30
0.0
  40
 66.000000000000
  41
0.0
  71
5
  72
1
   1
\T1.000000;３
   7
GMM001
  44
 0.79999984000003
   0
CIRCLE
   5
1AE
 100
AcDbEntity
   8
LEVEL001
 370
13
 100
AcDbCircle
   6
CONTINUOUS
  62
1
  10
 2107.3969020201
  20
 4288.5393258436
  30
0.0
  40
 69.999997913838
   0
MTEXT
   5
1B0
 100
AcDbEntity
   8
LEVEL001
 370
13
  62
7
 100
AcDbMText
  10
 2107.3969020201
  20
 4288.5393258436
  30
0.0
  40
 66.000000000000
  41
0.0
  71
5
  72
1
   1
\T1.000000;１
   7
GMM001
  44
 0.79999984000003
   0
LEADER
   5
1B1
 100
AcDbEntity
   8
LEVEL001
 370
13
   6
CONTINUOUS
  62
1
 100
AcDbLeader
   3
GMM002
  73
3
  74
1
  75
0
  40
 66.000000000000
  41
0.0
  76
2
  10
 1915.3558181039
  20
 4851.0393258436
  30
0.0
  10
 2040.8333529926
  20
 4891.8761393558
  30
0.0
  77
1
   0
LEADER
   5
1B2
 100
AcDbEntity
   8
LEVEL001
 370
13
   6
CONTINUOUS
  62
1
 100
AcDbLeader
   3
GMM002
  73
3
  74
1
  75
0
  40
 66.000000000000
  41
0.0
  76
2
  10
 2358.1962779746
  20
 4413.9390138209
  30
0.0
  10
 2170.0068035241
  20
 4319.8442765957
  30
0.0
  77
1
   0
LEADER
   5
1B3
 100
AcDbEntity
   8
LEVEL001
 370
13
   6
CONTINUOUS
  62
1
 100
AcDbLeader
   3
GMM002
  73
3
  74
1
  75
0
  40
 66.000000000000
  41
0.0
  76
2
  10
 1857.3969020201
  20
 4413.5393258436
  30
0.0
  10
 2044.7870005160
  20
 4319.8442765957
  30
0.0
  77
1
   0
CIRCLE
   5
1B4
 100
AcDbEntity
   8
LEVEL001
 370
13
 100
AcDbCircle
   6
CONTINUOUS
  62
1
  10
 1982.3969020201
  20
 4038.5393258436
  30
0.0
  40
 69.999997913838
   0
MTEXT
   5
1B6
 100
AcDbEntity
   8
LEVEL001
 370
13
  62
7
 100
AcDbMText
  10
 1982.3969020201
  20
 4038.5393258436
  30
0.0
  40
 66.000000000000
  41
0.0
  71
5
  72
1
   1
\T1.000000;４
   7
GMM001
  44
 0.79999984000003
   0
LEADER
   5
1B7
 100
AcDbEntity
   8
LEVEL001
 370
13
   6
CONTINUOUS
  62
1
 100
AcDbLeader
   3
GMM002
  73
3
  74
1
  75
0
  40
 66.000000000000
  41
0.0
  76
2
  10
 1850.0618936347
  20
 4303.2093426144
  30
0.0
  10
 1951.0919512680
  20
 4101.1492273477
  30
0.0
  77
1
   0
CIRCLE
   5
1B8
 100
AcDbEntity
   8
LEVEL001
 370
13
 100
AcDbCircle
   6
CONTINUOUS
  62
1
  10
 857.39690202006
  20
 4050.8120531164
  30
0.0
  40
 69.999997913838
   0
MTEXT
   5
1BA
 100
AcDbEntity
   8
LEVEL001
 370
13
  62
7
 100
AcDbMText
  10
 857.39690202006
  20
 4050.8120531164
  30
0.0
  40
 66.000000000000
  41
0.0
  71
5
  72
1
   1
\T1.000000;５
   7
GMM001
  44
 0.79999984000003
   0
LEADER
   5
1BB
 100
AcDbEntity
   8
LEVEL001
 370
13
   6
CONTINUOUS
  62
1
 100
AcDbLeader
   3
GMM002
  73
3
  74
1
  75
0
  40
 66.000000000000
  41
0.0
  76
2
  10
 953.64690202014
  20
 4282.0441353127
  30
0.0
  10
 884.29694830167
  20
 4115.4370267565
  30
0.0
  77
1
   0
CIRCLE
   5
1BC
 100
AcDbEntity
   8
LEVEL001
 370
13
 100
AcDbCircle
   6
CONTINUOUS
  62
1
  10
 3107.3969020201
  20
 5038.5393258436
  30
0.0
  40
 70.000000000000
   0
MTEXT
   5
1BE
 100
AcDbEntity
   8
LEVEL001
 370
13
  62
7
 100
AcDbMText
  10
 3107.3969020201
  20
 5038.5393258436
  30
0.0
  40
 66.000000000000
  41
0.0
  71
5
  72
1
   1
\T1.000000;１４
   7
GMM001
  44
 0.79999984000003
   0
CIRCLE
   5
1BF
 100
AcDbEntity
   8
LEVEL001
 370
13
 100
AcDbCircle
   6
CONTINUOUS
  62
1
  10
 3107.3969020201
  20
 4163.5393258436
  30
0.0
  40
 69.999997913838
   0
CIRCLE
   5
1C0
 100
AcDbEntity
   8
LEVEL001
 370
13
 100
AcDbCircle
   6
CONTINUOUS
  62
1
  10
 3247.3968999339
  20
 4163.5393258436
  30
0.0
  40
 70.000000000000
   0
MTEXT
   5
1C2
 100
AcDbEntity
   8
LEVEL001
 370
13
  62
7
 100
AcDbMText
  10
 3107.3969020201
  20
 4163.5393258436
  30
0.0
  40
 66.000000000000
  41
0.0
  71
5
  72
1
   1
\T1.000000;１０
   7
GMM001
  44
 0.79999984000003
   0
MTEXT
   5
1C4
 100
AcDbEntity
   8
LEVEL001
 370
13
  62
7
 100
AcDbMText
  10
 3247.3968999339
  20
 4163.5393258436
  30
0.0
  40
 66.000000000000
  41
0.0
  71
5
  72
1
   1
\T1.000000;１１
   7
GMM001
  44
 0.79999984000003
   0
LEADER
   5
1C5
 100
AcDbEntity
   8
LEVEL001
 370
13
   6
CONTINUOUS
  62
1
 100
AcDbLeader
   3
GMM002
  73
3
  74
1
  75
0
  40
 66.000000000000
  41
0.0
  76
2
  10
 2967.4475314485
  20
 4473.5393258427
  30
0.0
  10
 3078.5944872536
  20
 4227.3391738964
  30
0.0
  77
1
   0
MTEXT
   5
1C7
 100
AcDbEntity
   8
LEVEL001
 370
13
  62
1
 100
AcDbMText
  10
 1357.3969020201
  20
 5538.5393258436
  30
0.0
  40
 80.000000000000
  41
0.0
  71
5
  72
1
   1
\T1.000000;正　面　図
   7
GMM002
  44
 0.79999984000003
   0
MTEXT
   5
1C9
 100
AcDbEntity
   8
LEVEL001
 370
13
  62
1
 100
AcDbMText
  10
 2857.3969020201
  20
 5538.5393258436
  30
0.0
  40
 80.000000000000
  41
0.0
  71
5
  72
1
   1
\T1.000000;側　面　図
   7
GMM002
  44
 0.79999984000003
   0
MTEXT
   5
1CB
 100
AcDbEntity
   8
LEVEL001
 370
13
  62
1
 100
AcDbMText
  10
 4107.3969020201
  20
 5538.5393258436
  30
0.0
  40
 80.000000000000
  41
0.0
  71
5
  72
1
   1
\T1.000000;背　面　図
   7
GMM002
  44
 0.79999984000003
   0
CIRCLE
   5
1CC
 100
AcDbEntity
   8
LEVEL001
 370
13
 100
AcDbCircle
   6
CONTINUOUS
  62
1
  10
 2482.3969020201
  20
 5163.5393258436
  30
0.0
  40
 69.999997913838
   0
CIRCLE
   5
1CD
 100
AcDbEntity
   8
LEVEL001
 370
13
 100
AcDbCircle
   6
CONTINUOUS
  62
1
  10
 2622.3968978477
  20
 5163.5393258436
  30
0.0
  40
 69.999997913838
   0
MTEXT
   5
1CF
 100
AcDbEntity
   8
LEVEL001
 370
13
  62
7
 100
AcDbMText
  10
 2482.3969020201
  20
 5163.5393258436
  30
0.0
  40
 66.000000000000
  41
0.0
  71
5
  72
1
   1
\T1.000000;６
   7
GMM001
  44
 0.79999984000003
   0
MTEXT
   5
1D1
 100
AcDbEntity
   8
LEVEL001
 370
13
  62
7
 100
AcDbMText
  10
 2622.3968978477
  20
 5163.5393258436
  30
0.0
  40
 66.000000000000
  41
0.0
  71
5
  72
1
   1
\T1.000000;８
   7
GMM001
  44
 0.79999984000003
   0
CIRCLE
   5
1D2
 100
AcDbEntity
   8
LEVEL001
 370
13
 100
AcDbCircle
   6
CONTINUOUS
  62
1
  10
 2732.3969020201
  20
 5038.5393258436
  30
0.0
  40
 69.999997913838
   0
CIRCLE
   5
1D3
 100
AcDbEntity
   8
LEVEL001
 370
13
 100
AcDbCircle
   6
CONTINUOUS
  62
1
  10
 2872.3968978477
  20
 5038.5393258436
  30
0.0
  40
 69.999997913838
   0
MTEXT
   5
1D5
 100
AcDbEntity
   8
LEVEL001
 370
13
  62
7
 100
AcDbMText
  10
 2732.3969020201
  20
 5038.5393258436
  30
0.0
  40
 66.000000000000
  41
0.0
  71
5
  72
1
   1
\T1.000000;７
   7
GMM001
  44
 0.79999984000003
   0
MTEXT
   5
1D7
 100
AcDbEntity
   8
LEVEL001
 370
13
  62
7
 100
AcDbMText
  10
 2872.3968978477
  20
 5038.5393258436
  30
0.0
  40
 66.000000000000
  41
0.0
  71
5
  72
1
   1
\T1.000000;９
   7
GMM001
  44
 0.79999984000003
   0
LEADER
   5
1D8
 100
AcDbEntity
   8
LEVEL001
 370
13
   6
CONTINUOUS
  62
1
 100
AcDbLeader
   3
GMM002
  73
3
  74
1
  75
0
  40
 66.000000000000
  41
0.0
  76
2
  10
 2419.8969020201
  20
 4643.5393258427
  30
0.0
  10
 2474.0435613590
  20
 5094.0395315437
  30
0.0
  77
1
   0
LEADER
   5
1D9
 100
AcDbEntity
   8
LEVEL001
 370
13
   6
CONTINUOUS
  62
1
 100
AcDbLeader
   3
GMM002
  73
3
  74
1
  75
0
  40
 66.000000000000
  41
0.0
  76
2
  10
 2657.0714682852
  20
 4643.5393258427
  30
0.0
  10
 2719.2843837221
  20
 4969.7784243674
  30
0.0
  77
1
   0
LINE
   5
1DA
 100
AcDbEntity
   8
LEVEL001
 370
13
 100
AcDbLine
   6
CONTINUOUS
  62
7
  10
 2895.5469020201
  20
 4458.5393258427
  30
0.0
  11
 2895.5469020201
  21
 3907.0393258436
  31
0.0
   0
LINE
   5
1DB
 100
AcDbEntity
   8
LEVEL001
 370
13
 100
AcDbLine
   6
CONTINUOUS
  62
7
  10
 2819.2469020201
  20
 3907.0393258436
  30
0.0
  11
 2819.2469020201
  21
 4458.5393258427
  31
0.0
   0
LINE
   5
1DC
 100
AcDbEntity
   8
LEVEL001
 370
13
 100
AcDbLine
   6
CONTINUOUS
  62
6
  10
 1322.0420006984
  20
 4463.5392843144
  30
0.0
  11
 1322.0420006984
  21
 4563.5392843144
  31
0.0
   0
LINE
   5
1DD
 100
AcDbEntity
   8
LEVEL001
 370
13
 100
AcDbLine
   6
CONTINUOUS
  62
6
  10
 1392.7518033417
  20
 4573.5392843144
  30
0.0
  11
 1392.7518033417
  21
 4673.5392843144
  31
0.0
   0
LINE
   5
1DE
 100
AcDbEntity
   8
LEVEL001
 370
13
 100
AcDbLine
   6
CONTINUOUS
  62
6
  10
 2822.0420006984
  20
 4463.5393258427
  30
0.0
  11
 2822.0420006984
  21
 4563.5392843144
  31
0.0
   0
LINE
   5
1DF
 100
AcDbEntity
   8
LEVEL001
 370
13
 100
AcDbLine
   6
CONTINUOUS
  62
6
  10
 2892.7518033417
  20
 4573.5393258427
  30
0.0
  11
 2892.7518033417
  21
 4673.5392843144
  31
0.0
   0
LWPOLYLINE
   5
1E0
 100
AcDbEntity
   8
LEVEL001
 370
13
   6
CONTINUOUS
  62
3
 100
AcDbPolyline
  90
5
  70
0
  10
 2408.8872652962
  20
 4892.2893258427
  10
 2348.8872652962
  20
 4892.2893258427
  10
 2348.8872652962
  20
 4735.2876144758
  10
 2388.8872652962
  20
 4679.5028301927
  10
 2408.8872652962
  20
 4679.5028301927
   0
LINE
   5
1E1
 100
AcDbEntity
   8
LEVEL001
 370
13
 100
AcDbLine
   6
CONTINUOUS
  62
7
  10
 2408.8872652962
  20
 4892.2893258427
  30
0.0
  11
 2408.8872652962
  21
 4679.5393258427
  31
0.0
   0
ARC
   5
1E2
 100
AcDbEntity
   8
LEVEL001
 370
13
   6
DOT
  62
2
 100
AcDbCircle
  10
 3523.4883533968
  20
 4588.5393258427
  30
0.0
  40
 1178.3000000000
 100
AcDbArc
  50
 165.27501303924
  51
 173.16508510128
   0
LWPOLYLINE
   5
1E3
 100
AcDbEntity
   8
LEVEL001
 370
13
   6
DOT
  62
2
 100
AcDbPolyline
  90
4
  70
0
  10
 2408.8872652962
  20
 4679.5393258427
  10
 2408.8872652962
  20
 4888.0393258427
  10
 2383.8872652962
  20
 4888.0393258427
  10
 2383.8872652962
  20
 4686.4759282281
   0
LWPOLYLINE
   5
1E4
 100
AcDbEntity
   8
LEVEL001
 370
13
   6
CONTINUOUS
  62
7
 100
AcDbPolyline
  90
4
  70
0
  10
 2383.8872652962
  20
 4686.4759282281
  10
 2383.8872652962
  20
 4289.0393258427
  10
 2408.8872652962
  20
 4289.0393258427
  10
 2408.8872652962
  20
 4679.5393258427
   0
ARC
   5
1E5
 100
AcDbEntity
   8
LEVEL001
 370
13
   6
CONTINUOUS
  62
7
 100
AcDbCircle
  10
 3523.4883533968
  20
 4588.5393258427
  30
0.0
  40
 1178.3000000000
 100
AcDbArc
  50
 173.16508510128
  51
 194.72498696076
   0
LEADER
   5
1E6
 100
AcDbEntity
   8
LEVEL001
 370
13
   6
CONTINUOUS
  62
1
 100
AcDbLeader
   3
GMM002
  73
3
  74
1
  75
0
  40
 66.000000000000
  41
0.0
  76
2
  10
 2348.8872652962
  20
 4851.0393258436
  30
0.0
  10
 2175.1130470206
  20
 4895.8045178604
  30
0.0
  77
1
   0
LWPOLYLINE
   5
1E7
 100
AcDbEntity
   8
LEVEL001
 370
13
   6
CONTINUOUS
  62
3
 100
AcDbPolyline
  90
5
  70
0
  10
 3305.9065387439
  20
 4892.2893258427
  10
 3365.9065387439
  20
 4892.2893258427
  10
 3365.9065387439
  20
 4735.2876144758
  10
 3325.9065387439
  20
 4679.5028301927
  10
 3305.9065387439
  20
 4679.5028301927
   0
LINE
   5
1E8
 100
AcDbEntity
   8
LEVEL001
 370
13
 100
AcDbLine
   6
CONTINUOUS
  62
7
  10
 3305.9065387439
  20
 4892.2893258427
  30
0.0
  11
 3305.9065387439
  21
 4679.5393258427
  31
0.0
   0
LWPOLYLINE
   5
1E9
 100
AcDbEntity
   8
LEVEL001
 370
13
   6
DOT
  62
2
 100
AcDbPolyline
  90
4
  70
0
  10
 3305.9065387439
  20
 4679.5393258427
  10
 3305.9065387439
  20
 4888.0393258427
  10
 3330.9065387439
  20
 4888.0393258427
  10
 3330.9065387439
  20
 4686.4759282281
   0
ARC
   5
1EA
 100
AcDbEntity
   8
LEVEL001
 370
13
   6
DOT
  62
2
 100
AcDbCircle
  10
 2191.3054506433
  20
 4588.5393258427
  30
0.0
  40
 1178.3000000000
 100
AcDbArc
  50
 6.8349148987209
  51
 14.724986960761
   0
ARC
   5
1EB
 100
AcDbEntity
   8
LEVEL001
 370
13
   6
CONTINUOUS
  62
7
 100
AcDbCircle
  10
 2191.3054506433
  20
 4588.5393258427
  30
0.0
  40
 1178.3000000000
 100
AcDbArc
  50
 345.27501303924
  51
 6.8349148987209
   0
LWPOLYLINE
   5
1EC
 100
AcDbEntity
   8
LEVEL001
 370
13
   6
CONTINUOUS
  62
7
 100
AcDbPolyline
  90
4
  70
0
  10
 3330.9065387439
  20
 4686.4759282281
  10
 3330.9065387439
  20
 4289.0393258427
  10
 3305.9065387439
  20
 4289.0393258427
  10
 3305.9065387439
  20
 4679.5393258427
   0
LWPOLYLINE
   5
1ED
 100
AcDbEntity
   8
LEVEL001
 370
13
   6
CONTINUOUS
  62
7
 100
AcDbPolyline
  90
4
  70
0
  10
 1395.5469020201
  20
 4678.5392843144
  10
 1395.5469020201
  20
 4788.5393258436
  10
 1319.2469020201
  20
 4788.5393258436
  10
 1319.2469020201
  20
 4678.5392843144
   0
LINE
   5
1EE
 100
AcDbEntity
   8
LEVEL001
 370
13
 100
AcDbLine
   6
DASHDOT
  62
6
  10
 1357.3969020201
  20
 4844.7353701461
  30
0.0
  11
 1357.3969020201
  21
 671.92970061828
  31
0.0
   0
DIMENSION
   5
1EF
 100
AcDbEntity
   8
LEVEL001
 370
13
   6
CONTINUOUS
  62
6
 100
AcDbDimension
   2
*D13
  10
 607.39690202006
  20
 788.53932584365
  30
0.0
  11
 607.39690202006
  21
 738.53932584365
  31
0.0
  70
0
   3
GMM003
 100
AcDbAlignedDimension
  13
 1107.3969020201
  23
 688.53932584365
  33
0.0
  14
 1107.3969020201
  24
 788.53932584365
  34
0.0
  50
 90.000000000000
 100
AcDbRotatedDimension
   0
DIMENSION
   5
1F0
 100
AcDbEntity
   8
LEVEL001
 370
13
   6
CONTINUOUS
  62
6
 100
AcDbDimension
   2
*D14
  10
 607.39690202006
  20
 1788.5393258436
  30
0.0
  11
 607.39690202006
  21
 1288.5393258436
  31
0.0
  70
0
   3
GMM003
 100
AcDbAlignedDimension
  13
 1107.3969020201
  23
 788.53932584365
  33
0.0
  14
 807.39696725502
  24
 1788.5393258436
  34
0.0
  50
 90.000000000000
 100
AcDbRotatedDimension
   0
DIMENSION
   5
1F1
 100
AcDbEntity
   8
LEVEL001
 370
13
   6
CONTINUOUS
  62
6
 100
AcDbDimension
   2
*D15
  10
 607.39690202006
  20
 4288.5393258377
  30
0.0
  11
 607.39690202006
  21
 3038.5393258407
  31
0.0
  70
0
   1
\A1;2500(標準設置高さ)
   3
GMM004
 100
AcDbAlignedDimension
  13
 807.39696725502
  23
 1788.5393258436
  33
0.0
  14
 957.39690202012
  24
 4288.5393258377
  34
0.0
  50
 90.000000000000
 100
AcDbRotatedDimension
   0
LINE
   5
1F2
 100
AcDbEntity
   8
LEVEL001
 370
13
 100
AcDbLine
   6
DASHDOT
  62
6
  10
 2857.3969020201
  20
 4838.5393258436
  30
0.0
  11
 2857.3969020201
  21
 2154.5612115540
  31
0.0
   0
LWPOLYLINE
   5
1F3
 100
AcDbEntity
   8
LEVEL001
 370
13
   6
CONTINUOUS
  62
7
 100
AcDbPolyline
  90
4
  70
0
  10
 2819.2469020201
  20
 4678.5393258427
  10
 2819.2469020201
  20
 4788.5393258436
  10
 2895.5469020201
  20
 4788.5393258436
  10
 2895.5469020201
  20
 4678.5393258427
   0
LEADER
   5
1F4
 100
AcDbEntity
   8
LEVEL001
 370
13
   6
CONTINUOUS
  62
1
 100
AcDbLeader
   3
GMM005
  73
3
  74
1
  75
0
  40
 66.000000000000
  41
0.0
  76
2
  10
 2857.3969020201
  20
 4792.5393258436
  30
0.0
  10
 3057.7546605218
  20
 4989.1870426236
  30
0.0
  77
1
   0
ARC
   5
1F5
 100
AcDbEntity
   8
LEVEL002
 370
13
   6
CONTINUOUS
  62
7
 100
AcDbCircle
  10
 1412.3969020202
  20
 3708.5393258436
  30
0.0
  40
 20.000000000000
 100
AcDbArc
  50
 270.00000000000
  51
 360.00000000000
   0
LINE
   5
1F6
 100
AcDbEntity
   8
LEVEL002
 370
13
 100
AcDbLine
   6
CONTINUOUS
  62
7
  10
 1302.3969020202
  20
 3688.5393258436
  30
0.0
  11
 1412.3969020202
  21
 3688.5393258436
  31
0.0
   0
ARC
   5
1F7
 100
AcDbEntity
   8
LEVEL002
 370
13
   6
CONTINUOUS
  62
7
 100
AcDbCircle
  10
 1302.3969020202
  20
 3708.5393258436
  30
0.0
  40
 20.000000000000
 100
AcDbArc
  50
 180.00000000000
  51
 270.00000000000
   0
LWPOLYLINE
   5
1F8
 100
AcDbEntity
   8
LEVEL002
 370
13
   6
CONTINUOUS
  62
5
 100
AcDbPolyline
  90
7
  70
1
  10
 1357.3969020202
  20
 4048.5393258436
  10
 1321.0969031020
  20
 4002.3393272205
  10
 1340.8969025120
  20
 4002.3393272205
  10
 1340.8969025120
  20
 3982.5393278106
  10
 1373.8969015285
  20
 3982.5393278106
  10
 1373.8969015285
  20
 4002.3393272205
  10
 1393.6969009384
  20
 4002.3393272205
   0
LWPOLYLINE
   5
1F9
 100
AcDbEntity
   8
LEVEL002
 370
13
   6
CONTINUOUS
  62
5
 100
AcDbPolyline
  90
7
  70
1
  10
 1357.3969020202
  20
 4048.5393258436
  10
 1321.0969031020
  20
 4002.3393272205
  10
 1340.8969025120
  20
 4002.3393272205
  10
 1340.8969025120
  20
 3982.5393278106
  10
 1373.8969015285
  20
 3982.5393278106
  10
 1373.8969015285
  20
 4002.3393272205
  10
 1393.6969009384
  20
 4002.3393272205
   0
ARC
   5
1FA
 100
AcDbEntity
   8
LEVEL002
 370
13
   6
CONTINUOUS
  62
7
 100
AcDbCircle
  10
 1412.3969020202
  20
 3708.5393258436
  30
0.0
  40
 20.000000000000
 100
AcDbArc
  50
 270.00000000000
  51
 360.00000000000
   0
ARC
   5
1FB
 100
AcDbEntity
   8
LEVEL002
 370
13
   6
CONTINUOUS
  62
7
 100
AcDbCircle
  10
 1302.3969020202
  20
 3708.5393258436
  30
0.0
  40
 20.000000000000
 100
AcDbArc
  50
 180.00000000000
  51
 270.00000000000
   0
LINE
   5
1FC
 100
AcDbEntity
   8
LEVEL002
 370
13
 100
AcDbLine
   6
CONTINUOUS
  62
7
  10
 1302.3969020202
  20
 3688.5393258436
  30
0.0
  11
 1412.3969020202
  21
 3688.5393258436
  31
0.0
   0
LINE
   5
1FD
 100
AcDbEntity
   8
LEVEL002
 370
13
 100
AcDbLine
   6
CONTINUOUS
  62
6
  10
 2809.4742807705
  20
 3923.5393866018
  30
0.0
  11
 2809.4742807705
  21
 3924.5393255627
  31
0.0
   0
LINE
   5
1FE
 100
AcDbEntity
   8
LEVEL002
 370
13
 100
AcDbLine
   6
CONTINUOUS
  62
7
  10
 2809.9297595496
  20
 3909.5389594103
  30
0.0
  11
 2809.9302173135
  21
 3867.5390511269
  31
0.0
   0
LINE
   5
1FF
 100
AcDbEntity
   8
LEVEL002
 370
13
 100
AcDbLine
   6
CONTINUOUS
  62
7
  10
 2809.4742807705
  20
 3924.5393255627
  30
0.0
  11
 2806.4742807705
  21
 3924.5393255627
  31
0.0
   0
LINE
   5
200
 100
AcDbEntity
   8
LEVEL002
 370
13
 100
AcDbLine
   6
CONTINUOUS
  62
6
  10
 2806.4742807705
  20
 3923.5393866018
  30
0.0
  11
 2809.4742807705
  21
 3923.5393866018
  31
0.0
   0
LWPOLYLINE
   5
201
 100
AcDbEntity
   8
LEVEL002
 370
13
   6
CONTINUOUS
  62
6
 100
AcDbPolyline
  90
3
  70
0
  10
 2809.4742807705
  20
 3852.5393258437
  10
 2809.4742807705
  20
 3853.5393563573
  10
 2806.4742807705
  20
 3853.5393563573
   0
ELLIPSE
   5
202
 100
AcDbEntity
   8
LEVEL002
 370
13
   6
CONTINUOUS
  62
7
 100
AcDbEllipse
  10
 2805.9302147624
  20
 3867.5391122794
  30
0.0
  11
 4.0000025516047
  21
0.0
  31
0.0
  40
 0.99999938800000
  41
-1.4343569865528
  42
-0.15288126351787E-4
   0
LINE
   5
203
 100
AcDbEntity
   8
LEVEL002
 370
13
 100
AcDbLine
   6
CONTINUOUS
  62
7
  10
 2806.4742807705
  20
 3852.5393258437
  30
0.0
  11
 2809.4742807705
  21
 3852.5393258437
  31
0.0
   0
ELLIPSE
   5
204
 100
AcDbEntity
   8
LEVEL002
 370
13
   6
CONTINUOUS
  62
7
 100
AcDbEllipse
  10
 2805.9297569998
  20
 3909.5390813616
  30
0.0
  11
 4.0000025516047
  21
0.0
  31
0.0
  40
 0.99999938800000
  41
-0.30487804348912E-4
  42
 1.4342414715499
   0
LWPOLYLINE
   5
205
 100
AcDbEntity
   8
LEVEL002
 370
13
   6
CONTINUOUS
  62
7
 100
AcDbPolyline
  90
4
  70
0
  10
 2809.9297867935
  20
 3907.0393258436
  10
 2915.4742807705
  20
 3907.0393258436
  10
 2915.4742807705
  20
 3870.0393258436
  10
 2809.9301900626
  20
 3870.0393258436
   0
LINE
   5
206
 100
AcDbEntity
   8
LEVEL002
 370
13
 100
AcDbLine
   6
CONTINUOUS
  62
6
  10
 2894.3022817700
  20
 3905.0393258436
  30
0.0
  11
 2894.3022817700
  21
 3896.0393258436
  31
0.0
   0
LINE
   5
207
 100
AcDbEntity
   8
LEVEL002
 370
13
 100
AcDbLine
   6
CONTINUOUS
  62
6
  10
 2894.3022817700
  20
 3881.0393258436
  30
0.0
  11
 2894.3022817700
  21
 3872.0393258436
  31
0.0
   0
LINE
   5
208
 100
AcDbEntity
   8
LEVEL002
 370
13
 100
AcDbLine
   6
CONTINUOUS
  62
6
  10
 2896.6208068114
  20
 3895.0393258436
  30
0.0
  11
 2896.6208068114
  21
 3882.0393258436
  31
0.0
   0
LINE
   5
209
 100
AcDbEntity
   8
LEVEL002
 370
13
 100
AcDbLine
   6
CONTINUOUS
  62
6
  10
 2894.3022817700
  20
 3882.0393258436
  30
0.0
  11
 2822.1831099444
  21
 3882.0393258436
  31
0.0
   0
LINE
   5
20A
 100
AcDbEntity
   8
LEVEL002
 370
13
 100
AcDbLine
   6
CONTINUOUS
  62
6
  10
 2822.1831099444
  20
 3895.0393258436
  30
0.0
  11
 2894.3022817700
  21
 3895.0393258436
  31
0.0
   0
LWPOLYLINE
   5
20B
 100
AcDbEntity
   8
LEVEL002
 370
13
   6
CONTINUOUS
  62
7
 100
AcDbPolyline
  90
4
  70
1
  10
 2900.4742807705
  20
 3883.5393258436
  10
 2910.4742807705
  20
 3883.5393258436
  10
 2910.4742807705
  20
 3893.5393258436
  10
 2900.4742807705
  20
 3893.5393258436
   0
LINE
   5
20C
 100
AcDbEntity
   8
LEVEL002
 370
13
 100
AcDbLine
   6
CONTINUOUS
  62
6
  10
 2820.9222153748
  20
 3894.0393258436
  30
0.0
  11
 2820.9222153748
  21
 3883.0393258436
  31
0.0
   0
LINE
   5
20D
 100
AcDbEntity
   8
LEVEL002
 370
13
 100
AcDbLine
   6
CONTINUOUS
  62
6
  10
 2820.9222153748
  20
 3881.0393258436
  30
0.0
  11
 2820.9222153748
  21
 3872.0393258436
  31
0.0
   0
LINE
   5
20E
 100
AcDbEntity
   8
LEVEL002
 370
13
 100
AcDbLine
   6
CONTINUOUS
  62
6
  10
 2820.9222153748
  20
 3905.0393258436
  30
0.0
  11
 2820.9222153748
  21
 3896.0393258436
  31
0.0
   0
ARC
   5
20F
 100
AcDbEntity
   8
LEVEL002
 370
13
   6
CONTINUOUS
  62
7
 100
AcDbCircle
  10
 2807.4742807705
  20
 3697.1810461335
  30
0.0
  40
 5.0000000000000
 100
AcDbArc
  50
 180.00000000001
  51
 201.80140948637
   0
LINE
   5
210
 100
AcDbEntity
   8
LEVEL002
 370
13
 100
AcDbLine
   6
CONTINUOUS
  62
7
  10
 2805.5458040796
  20
 3688.5393258428
  30
0.0
  11
 2802.8318973160
  21
 3695.3240927517
  31
0.0
   0
ARC
   5
211
 100
AcDbEntity
   8
LEVEL002
 370
13
   6
CONTINUOUS
  62
7
 100
AcDbCircle
  10
 2801.4742807705
  20
 3704.3869723019
  30
0.0
  40
 5.0000000000000
 100
AcDbArc
  50
 338.19859051367
  51
 0.26055103950549E-10
   0
LINE
   5
212
 100
AcDbEntity
   8
LEVEL002
 370
13
 100
AcDbLine
   6
CONTINUOUS
  62
7
  10
 2804.3143933702
  20
 3698.0243417834
  30
0.0
  11
 2806.1166642249
  21
 3702.5300189201
  31
0.0
   0
ARC
   5
213
 100
AcDbEntity
   8
LEVEL002
 370
13
   6
CONTINUOUS
  62
7
 100
AcDbCircle
  10
 2808.9567768246
  20
 3696.1673884016
  30
0.0
  40
 5.0000000000000
 100
AcDbArc
  50
 158.19859051365
  51
 201.80140948634
   0
LWPOLYLINE
   5
214
 100
AcDbEntity
   8
LEVEL002
 370
13
   6
CONTINUOUS
  62
7
 100
AcDbPolyline
  90
3
  70
0
  10
 2805.5458040796
  20
 3688.5393258428
  10
 2806.4742807705
  20
 3688.9107165192
  10
 2804.3143933702
  20
 3694.3104350199
   0
ARC
   5
215
 100
AcDbEntity
   8
LEVEL002
 370
13
   6
CONTINUOUS
  62
7
 100
AcDbCircle
  10
 2807.4742807705
  20
 3697.1810461335
  30
0.0
  40
 5.0000000000000
 100
AcDbArc
  50
 180.00000000001
  51
 201.80140948637
   0
LINE
   5
216
 100
AcDbEntity
   8
LEVEL002
 370
13
 100
AcDbLine
   6
CONTINUOUS
  62
7
  10
 2805.5458040796
  20
 3688.5393258428
  30
0.0
  11
 2802.8318973160
  21
 3695.3240927517
  31
0.0
   0
ARC
   5
217
 100
AcDbEntity
   8
LEVEL002
 370
13
   6
CONTINUOUS
  62
7
 100
AcDbCircle
  10
 2801.4742807705
  20
 3704.3869723019
  30
0.0
  40
 5.0000000000000
 100
AcDbArc
  50
 338.19859051367
  51
 0.26055103950549E-10
   0
LINE
   5
218
 100
AcDbEntity
   8
LEVEL002
 370
13
 100
AcDbLine
   6
CONTINUOUS
  62
7
  10
 2804.3143933702
  20
 3698.0243417834
  30
0.0
  11
 2806.1166642249
  21
 3702.5300189201
  31
0.0
   0
ARC
   5
219
 100
AcDbEntity
   8
LEVEL002
 370
13
   6
CONTINUOUS
  62
7
 100
AcDbCircle
  10
 2808.9567768246
  20
 3696.1673884016
  30
0.0
  40
 5.0000000000000
 100
AcDbArc
  50
 158.19859051365
  51
 201.80140948634
   0
LWPOLYLINE
   5
21A
 100
AcDbEntity
   8
LEVEL002
 370
13
   6
CONTINUOUS
  62
7
 100
AcDbPolyline
  90
3
  70
0
  10
 2805.5458040796
  20
 3688.5393258428
  10
 2806.4742807705
  20
 3688.9107165192
  10
 2804.3143933702
  20
 3694.3104350199
   0
LINE
   5
21B
 100
AcDbEntity
   8
LEVEL002
 370
13
 100
AcDbLine
   6
CONTINUOUS
  62
6
  10
 2809.4742807705
  20
 3923.5393866018
  30
0.0
  11
 2809.4742807705
  21
 3924.5393255627
  31
0.0
   0
LINE
   5
21C
 100
AcDbEntity
   8
LEVEL002
 370
13
 100
AcDbLine
   6
CONTINUOUS
  62
7
  10
 2809.9297595496
  20
 3909.5389594103
  30
0.0
  11
 2809.9302173135
  21
 3867.5390511269
  31
0.0
   0
LINE
   5
21D
 100
AcDbEntity
   8
LEVEL002
 370
13
 100
AcDbLine
   6
CONTINUOUS
  62
7
  10
 2809.4742807705
  20
 3924.5393255627
  30
0.0
  11
 2806.4742807705
  21
 3924.5393255627
  31
0.0
   0
LINE
   5
21E
 100
AcDbEntity
   8
LEVEL002
 370
13
 100
AcDbLine
   6
CONTINUOUS
  62
6
  10
 2806.4742807705
  20
 3923.5393866018
  30
0.0
  11
 2809.4742807705
  21
 3923.5393866018
  31
0.0
   0
LWPOLYLINE
   5
21F
 100
AcDbEntity
   8
LEVEL002
 370
13
   6
CONTINUOUS
  62
6
 100
AcDbPolyline
  90
3
  70
0
  10
 2809.4742807705
  20
 3852.5393258437
  10
 2809.4742807705
  20
 3853.5393563573
  10
 2806.4742807705
  20
 3853.5393563573
   0
ELLIPSE
   5
220
 100
AcDbEntity
   8
LEVEL002
 370
13
   6
CONTINUOUS
  62
7
 100
AcDbEllipse
  10
 2805.9302147624
  20
 3867.5391122794
  30
0.0
  11
 4.0000025516047
  21
0.0
  31
0.0
  40
 0.99999938800000
  41
-1.4343569865528
  42
-0.15288126351787E-4
   0
LINE
   5
221
 100
AcDbEntity
   8
LEVEL002
 370
13
 100
AcDbLine
   6
CONTINUOUS
  62
7
  10
 2806.4742807705
  20
 3852.5393258437
  30
0.0
  11
 2809.4742807705
  21
 3852.5393258437
  31
0.0
   0
ELLIPSE
   5
222
 100
AcDbEntity
   8
LEVEL002
 370
13
   6
CONTINUOUS
  62
7
 100
AcDbEllipse
  10
 2805.9297569998
  20
 3909.5390813616
  30
0.0
  11
 4.0000025516047
  21
0.0
  31
0.0
  40
 0.99999938800000
  41
-0.30487804348912E-4
  42
 1.4342414715499
   0
LWPOLYLINE
   5
223
 100
AcDbEntity
   8
LEVEL002
 370
13
   6
CONTINUOUS
  62
7
 100
AcDbPolyline
  90
4
  70
0
  10
 2809.9297867935
  20
 3907.0393258436
  10
 2915.4742807705
  20
 3907.0393258436
  10
 2915.4742807705
  20
 3870.0393258436
  10
 2809.9301900626
  20
 3870.0393258436
   0
LINE
   5
224
 100
AcDbEntity
   8
LEVEL002
 370
13
 100
AcDbLine
   6
CONTINUOUS
  62
6
  10
 2820.9222153748
  20
 3894.0393258436
  30
0.0
  11
 2820.9222153748
  21
 3883.0393258436
  31
0.0
   0
LINE
   5
225
 100
AcDbEntity
   8
LEVEL002
 370
13
 100
AcDbLine
   6
CONTINUOUS
  62
6
  10
 2820.9222153748
  20
 3881.0393258436
  30
0.0
  11
 2820.9222153748
  21
 3872.0393258436
  31
0.0
   0
LINE
   5
226
 100
AcDbEntity
   8
LEVEL002
 370
13
 100
AcDbLine
   6
CONTINUOUS
  62
6
  10
 2820.9222153748
  20
 3905.0393258436
  30
0.0
  11
 2820.9222153748
  21
 3896.0393258436
  31
0.0
   0
LINE
   5
227
 100
AcDbEntity
   8
LEVEL002
 370
13
 100
AcDbLine
   6
CONTINUOUS
  62
6
  10
 2894.3022817700
  20
 3882.0393258436
  30
0.0
  11
 2822.1831099444
  21
 3882.0393258436
  31
0.0
   0
LINE
   5
228
 100
AcDbEntity
   8
LEVEL002
 370
13
 100
AcDbLine
   6
CONTINUOUS
  62
6
  10
 2822.1831099444
  20
 3895.0393258436
  30
0.0
  11
 2894.3022817700
  21
 3895.0393258436
  31
0.0
   0
LINE
   5
229
 100
AcDbEntity
   8
LEVEL002
 370
13
 100
AcDbLine
   6
CONTINUOUS
  62
6
  10
 2894.3022817700
  20
 3905.0393258436
  30
0.0
  11
 2894.3022817700
  21
 3896.0393258436
  31
0.0
   0
LINE
   5
22A
 100
AcDbEntity
   8
LEVEL002
 370
13
 100
AcDbLine
   6
CONTINUOUS
  62
6
  10
 2894.3022817700
  20
 3881.0393258436
  30
0.0
  11
 2894.3022817700
  21
 3872.0393258436
  31
0.0
   0
LINE
   5
22B
 100
AcDbEntity
   8
LEVEL002
 370
13
 100
AcDbLine
   6
CONTINUOUS
  62
6
  10
 2896.6208068114
  20
 3895.0393258436
  30
0.0
  11
 2896.6208068114
  21
 3882.0393258436
  31
0.0
   0
LWPOLYLINE
   5
22C
 100
AcDbEntity
   8
LEVEL002
 370
13
   6
CONTINUOUS
  62
7
 100
AcDbPolyline
  90
4
  70
1
  10
 2900.4742807705
  20
 3883.5393258436
  10
 2910.4742807705
  20
 3883.5393258436
  10
 2910.4742807705
  20
 3893.5393258436
  10
 2900.4742807705
  20
 3893.5393258436
   0
CIRCLE
   5
22D
 100
AcDbEntity
   8
LEVEL002
 370
13
 100
AcDbCircle
   6
CONTINUOUS
  62
1
  10
 1607.3969020201
  20
 3763.5393258436
  30
0.0
  40
 69.999997913838
   0
MTEXT
   5
22F
 100
AcDbEntity
   8
LEVEL002
 370
13
  62
7
 100
AcDbMText
  10
 1607.3969020201
  20
 3763.5393258436
  30
0.0
  40
 66.000000000000
  41
0.0
  71
5
  72
1
   1
\T1.000000;１５
   7
GMM001
  44
 0.79999984000003
   0
CIRCLE
   5
230
 100
AcDbEntity
   8
LEVEL002
 370
13
 100
AcDbCircle
   6
CONTINUOUS
  62
1
  10
 1607.3969020201
  20
 3763.5393258436
  30
0.0
  40
 69.999997913838
   0
MTEXT
   5
232
 100
AcDbEntity
   8
LEVEL002
 370
13
  62
7
 100
AcDbMText
  10
 1607.3969020201
  20
 3763.5393258436
  30
0.0
  40
 66.000000000000
  41
0.0
  71
5
  72
1
   1
\T1.000000;１５
   7
GMM001
  44
 0.79999984000003
   0
LEADER
   5
233
 100
AcDbEntity
   8
LEVEL002
 370
13
   6
CONTINUOUS
  62
1
 100
AcDbLeader
   3
GMM002
  73
3
  74
1
  75
0
  40
 66.000000000000
  41
0.0
  76
2
  10
 1432.3969020202
  20
 3888.5393258436
  30
0.0
  10
 1550.4355607332
  20
 3804.2259981915
  30
0.0
  77
1
   0
CIRCLE
   5
234
 100
AcDbEntity
   8
LEVEL001
 370
13
 100
AcDbCircle
   6
CONTINUOUS
  62
1
  10
 1607.3969020201
  20
 2913.5393258436
  30
0.0
  40
 70.000000000000
   0
MTEXT
   5
236
 100
AcDbEntity
   8
LEVEL001
 370
13
  62
7
 100
AcDbMText
  10
 1607.3969020201
  20
 2913.5393258436
  30
0.0
  40
 66.000000000000
  41
0.0
  71
5
  72
1
   1
\T1.000000;１２
   7
GMM001
  44
 0.79999984000003
   0
LEADER
   5
237
 100
AcDbEntity
   8
LEVEL001
 370
13
   6
CONTINUOUS
  62
1
 100
AcDbLeader
   3
GMM002
  73
3
  74
1
  75
0
  40
 66.000000000000
  41
0.0
  76
2
  10
 1395.5469020201
  20
 2788.5393258436
  30
0.0
  10
 1547.1091126589
  20
 2877.9671112100
  30
0.0
  77
1
   0
CIRCLE
   5
238
 100
AcDbEntity
   8
LEVEL002
 370
13
 100
AcDbCircle
   6
CONTINUOUS
  62
1
  10
 3107.3969020201
  20
 3788.5393258436
  30
0.0
  40
 70.000000000000
   0
CIRCLE
   5
239
 100
AcDbEntity
   8
LEVEL002
 370
13
 100
AcDbCircle
   6
CONTINUOUS
  62
1
  10
 3247.3969020201
  20
 3788.5393258436
  30
0.0
  40
 70.000000000000
   0
MTEXT
   5
23B
 100
AcDbEntity
   8
LEVEL002
 370
13
  62
7
 100
AcDbMText
  10
 3107.3969020201
  20
 3788.5393258436
  30
0.0
  40
 66.000000000000
  41
0.0
  71
5
  72
1
   1
\T1.000000;１６
   7
GMM001
  44
 0.79999984000003
   0
MTEXT
   5
23D
 100
AcDbEntity
   8
LEVEL002
 370
13
  62
7
 100
AcDbMText
  10
 3247.3969020201
  20
 3788.5393258436
  30
0.0
  40
 66.000000000000
  41
0.0
  71
5
  72
1
   1
\T1.000000;１７
   7
GMM001
  44
 0.79999984000003
   0
CIRCLE
   5
23E
 100
AcDbEntity
   8
LEVEL002
 370
13
 100
AcDbCircle
   6
CONTINUOUS
  62
1
  10
 3107.3969020201
  20
 3788.5393258436
  30
0.0
  40
 70.000000000000
   0
CIRCLE
   5
23F
 100
AcDbEntity
   8
LEVEL002
 370
13
 100
AcDbCircle
   6
CONTINUOUS
  62
1
  10
 3247.3969020201
  20
 3788.5393258436
  30
0.0
  40
 70.000000000000
   0
MTEXT
   5
241
 100
AcDbEntity
   8
LEVEL002
 370
13
  62
7
 100
AcDbMText
  10
 3107.3969020201
  20
 3788.5393258436
  30
0.0
  40
 66.000000000000
  41
0.0
  71
5
  72
1
   1
\T1.000000;１６
   7
GMM001
  44
 0.79999984000003
   0
MTEXT
   5
243
 100
AcDbEntity
   8
LEVEL002
 370
13
  62
7
 100
AcDbMText
  10
 3247.3969020201
  20
 3788.5393258436
  30
0.0
  40
 66.000000000000
  41
0.0
  71
5
  72
1
   1
\T1.000000;１７
   7
GMM001
  44
 0.79999984000003
   0
LEADER
   5
244
 100
AcDbEntity
   8
LEVEL002
 370
13
   6
CONTINUOUS
  62
1
 100
AcDbLeader
   3
GMM002
  73
3
  74
1
  75
0
  40
 66.000000000000
  41
0.0
  76
2
  10
 2915.4742807705
  20
 3870.0393258436
  30
0.0
  10
 3042.9656298083
  20
 3815.9000853574
  30
0.0
  77
1
   0
LINE
   5
245
 100
AcDbEntity
   8
LEVEL001
 370
13
 100
AcDbLine
   6
CONTINUOUS
  62
5
  10
 952.39690201987
  20
 1736.0393258436
  30
0.0
  11
 1004.8969020199
  21
 1788.5393258436
  31
0.0
   0
LINE
   5
246
 100
AcDbEntity
   8
LEVEL001
 370
13
 100
AcDbLine
   6
CONTINUOUS
  62
5
  10
 936.48699944302
  20
 1751.9492284204
  30
0.0
  11
 973.07709686623
  21
 1788.5393258436
  31
0.0
   0
LINE
   5
247
 100
AcDbEntity
   8
LEVEL001
 370
13
 100
AcDbLine
   6
CONTINUOUS
  62
5
  10
 988.98699944384
  20
 1788.5393258436
  30
0.0
  11
 944.44195073184
  21
 1743.9942771317
  31
0.0
   0
LINE
   5
248
 100
AcDbEntity
   8
LEVEL001
 370
13
 100
AcDbLine
   6
CONTINUOUS
  62
5
  10
 1009.6671942905
  20
 1736.0393258436
  30
0.0
  11
 981.03204815517
  21
 1764.6744719789
  31
0.0
   0
LINE
   5
249
 100
AcDbEntity
   8
LEVEL001
 370
13
 100
AcDbLine
   6
CONTINUOUS
  62
5
  10
 988.98699944338
  20
 1772.6294232672
  30
0.0
  11
 1025.5770968669
  21
 1736.0393258436
  31
0.0
   0
LINE
   5
24A
 100
AcDbEntity
   8
LEVEL001
 370
13
 100
AcDbLine
   6
CONTINUOUS
  62
5
  10
 1041.4869994433
  20
 1736.0393258436
  30
0.0
  11
 996.94195073160
  21
 1780.5843745554
  31
0.0
   0
LINE
   5
24B
 100
AcDbEntity
   8
LEVEL001
 370
13
 100
AcDbLine
   6
CONTINUOUS
  62
5
  10
 1004.8969020199
  20
 1788.5393258436
  30
0.0
  11
 1057.3969020201
  21
 1736.0393258436
  31
0.0
   0
LINE
   5
24C
 100
AcDbEntity
   8
LEVEL001
 370
13
 100
AcDbLine
   6
CONTINUOUS
  62
5
  10
 852.16719429001
  20
 1788.5393258436
  30
0.0
  11
 799.66719429001
  21
 1736.0393258436
  31
0.0
   0
LINE
   5
24D
 100
AcDbEntity
   8
LEVEL001
 370
13
 100
AcDbLine
   6
CONTINUOUS
  62
5
  10
 815.57709686604
  20
 1736.0393258436
  30
0.0
  11
 868.07709686604
  21
 1788.5393258436
  31
0.0
   0
LINE
   5
24E
 100
AcDbEntity
   8
LEVEL001
 370
13
 100
AcDbLine
   6
CONTINUOUS
  62
5
  10
 883.98699944365
  20
 1788.5393258436
  30
0.0
  11
 831.48699944365
  21
 1736.0393258436
  31
0.0
   0
LINE
   5
24F
 100
AcDbEntity
   8
LEVEL001
 370
13
 100
AcDbLine
   6
CONTINUOUS
  62
5
  10
 847.39690201969
  20
 1736.0393258436
  30
0.0
  11
 899.89690201969
  21
 1788.5393258436
  31
0.0
   0
LINE
   5
250
 100
AcDbEntity
   8
LEVEL001
 370
13
 100
AcDbLine
   6
CONTINUOUS
  62
5
  10
 904.66719429028
  20
 1736.0393258436
  30
0.0
  11
 876.03204815498
  21
 1764.6744719789
  31
0.0
   0
LINE
   5
251
 100
AcDbEntity
   8
LEVEL001
 370
13
 100
AcDbLine
   6
CONTINUOUS
  62
5
  10
 883.98699944320
  20
 1772.6294232672
  30
0.0
  11
 920.57709686671
  21
 1736.0393258436
  31
0.0
   0
LINE
   5
252
 100
AcDbEntity
   8
LEVEL001
 370
13
 100
AcDbLine
   6
CONTINUOUS
  62
5
  10
 936.48699944314
  20
 1736.0393258436
  30
0.0
  11
 891.94195073141
  21
 1780.5843745554
  31
0.0
   0
LINE
   5
253
 100
AcDbEntity
   8
LEVEL001
 370
13
 100
AcDbLine
   6
CONTINUOUS
  62
5
  10
 899.89690201969
  20
 1788.5393258436
  30
0.0
  11
 952.39690201987
  21
 1736.0393258436
  31
0.0
   0
LINE
   5
254
 100
AcDbEntity
   8
LEVEL001
 370
13
 100
AcDbLine
   6
CONTINUOUS
  62
5
  10
 957.16719429019
  20
 1788.5393258436
  30
0.0
  11
 928.53204815499
  21
 1759.9041797084
  31
0.0
   0
MTEXT
   5
256
 100
AcDbEntity
   8
LEVEL001
 370
13
  62
1
 100
AcDbMText
  10
 928.04557246450
  20
 1797.2692628840
  30
0.0
  40
 40.000000000000
  41
0.0
  71
7
  72
1
   1
\T1.000000;ＧＬ
   7
GMM003
  44
 0.79999984000003
   0
LWPOLYLINE
   5
257
 100
AcDbEntity
   8
LEVEL001
 370
13
   6
CONTINUOUS
  62
1
 100
AcDbPolyline
  90
3
  70
1
  10
 899.89690201969
  20
 1788.5393258436
  10
 874.89690201969
  20
 1838.5393258436
  10
 924.89690201969
  20
 1838.5393258436
   0
LINE
   5
258
 100
AcDbEntity
   8
LEVEL001
 370
13
 100
AcDbLine
   6
CONTINUOUS
  62
5
  10
 1709.8969020201
  20
 1788.5393258436
  30
0.0
  11
 1657.3969020201
  21
 1736.0393258436
  31
0.0
   0
LINE
   5
259
 100
AcDbEntity
   8
LEVEL001
 370
13
 100
AcDbLine
   6
CONTINUOUS
  62
5
  10
 1673.3068045961
  20
 1736.0393258436
  30
0.0
  11
 1725.8068045961
  21
 1788.5393258436
  31
0.0
   0
LINE
   5
25A
 100
AcDbEntity
   8
LEVEL001
 370
13
 100
AcDbLine
   6
CONTINUOUS
  62
5
  10
 1741.7167071737
  20
 1788.5393258436
  30
0.0
  11
 1689.2167071737
  21
 1736.0393258436
  31
0.0
   0
LINE
   5
25B
 100
AcDbEntity
   8
LEVEL001
 370
13
 100
AcDbLine
   6
CONTINUOUS
  62
5
  10
 1705.1266097497
  20
 1736.0393258436
  30
0.0
  11
 1757.6266097497
  21
 1788.5393258436
  31
0.0
   0
LINE
   5
25C
 100
AcDbEntity
   8
LEVEL001
 370
13
 100
AcDbLine
   6
CONTINUOUS
  62
5
  10
 1762.3969020203
  20
 1736.0393258436
  30
0.0
  11
 1733.7617558850
  21
 1764.6744719789
  31
0.0
   0
LINE
   5
25D
 100
AcDbEntity
   8
LEVEL001
 370
13
 100
AcDbLine
   6
CONTINUOUS
  62
5
  10
 1741.7167071732
  20
 1772.6294232672
  30
0.0
  11
 1778.3068045968
  21
 1736.0393258436
  31
0.0
   0
LINE
   5
25E
 100
AcDbEntity
   8
LEVEL001
 370
13
 100
AcDbLine
   6
CONTINUOUS
  62
5
  10
 1794.2167071732
  20
 1736.0393258436
  30
0.0
  11
 1749.6716584615
  21
 1780.5843745554
  31
0.0
   0
LINE
   5
25F
 100
AcDbEntity
   8
LEVEL001
 370
13
 100
AcDbLine
   6
CONTINUOUS
  62
5
  10
 1757.6266097497
  20
 1788.5393258436
  30
0.0
  11
 1810.1266097499
  21
 1736.0393258436
  31
0.0
   0
LINE
   5
260
 100
AcDbEntity
   8
LEVEL001
 370
13
 100
AcDbLine
   6
CONTINUOUS
  62
5
  10
 1810.1266097499
  20
 1736.0393258436
  30
0.0
  11
 1862.6266097499
  21
 1788.5393258436
  31
0.0
   0
LINE
   5
261
 100
AcDbEntity
   8
LEVEL001
 370
13
 100
AcDbLine
   6
CONTINUOUS
  62
5
  10
 1814.8969020202
  20
 1788.5393258436
  30
0.0
  11
 1786.2617558850
  21
 1759.9041797084
  31
0.0
   0
LINE
   5
262
 100
AcDbEntity
   8
LEVEL001
 370
13
 100
AcDbLine
   6
CONTINUOUS
  62
5
  10
 1794.2167071731
  20
 1751.9492284204
  30
0.0
  11
 1830.8068045963
  21
 1788.5393258436
  31
0.0
   0
LINE
   5
263
 100
AcDbEntity
   8
LEVEL001
 370
13
 100
AcDbLine
   6
CONTINUOUS
  62
5
  10
 1846.7167071739
  20
 1788.5393258436
  30
0.0
  11
 1802.1716584619
  21
 1743.9942771317
  31
0.0
   0
LINE
   5
264
 100
AcDbEntity
   8
LEVEL001
 370
13
 100
AcDbLine
   6
CONTINUOUS
  62
5
  10
 1867.3969020205
  20
 1736.0393258436
  30
0.0
  11
 1838.7617558852
  21
 1764.6744719789
  31
0.0
   0
LINE
   5
265
 100
AcDbEntity
   8
LEVEL001
 370
13
 100
AcDbLine
   6
CONTINUOUS
  62
5
  10
 1846.7167071734
  20
 1772.6294232672
  30
0.0
  11
 1883.3068045969
  21
 1736.0393258436
  31
0.0
   0
LINE
   5
266
 100
AcDbEntity
   8
LEVEL001
 370
13
 100
AcDbLine
   6
CONTINUOUS
  62
5
  10
 1899.2167071734
  20
 1736.0393258436
  30
0.0
  11
 1854.6716584616
  21
 1780.5843745554
  31
0.0
   0
LINE
   5
267
 100
AcDbEntity
   8
LEVEL001
 370
13
 100
AcDbLine
   6
CONTINUOUS
  62
5
  10
 1862.6266097499
  20
 1788.5393258436
  30
0.0
  11
 1915.1266097501
  21
 1736.0393258436
  31
0.0
   0
LINE
   5
268
 100
AcDbEntity
   8
LEVEL001
 370
13
 100
AcDbLine
   6
CONTINUOUS
  62
5
  10
 1107.3969020201
  20
 1788.5393258436
  30
0.0
  11
 807.39696725502
  21
 1788.5393258436
  31
0.0
   0
LINE
   5
269
 100
AcDbEntity
   8
LEVEL001
 370
13
 100
AcDbLine
   6
CONTINUOUS
  62
5
  10
 1607.3969020201
  20
 1788.5393258436
  30
0.0
  11
 1907.3969672550
  21
 1788.5393258436
  31
0.0
   0
LINE
   5
26A
 100
AcDbEntity
   8
LEVEL001
 370
13
 100
AcDbLine
   6
CONTINUOUS
  62
5
  10
 2102.3969020199
  20
 1736.0393258436
  30
0.0
  11
 2154.8969020199
  21
 1788.5393258436
  31
0.0
   0
LINE
   5
26B
 100
AcDbEntity
   8
LEVEL001
 370
13
 100
AcDbLine
   6
CONTINUOUS
  62
5
  10
 2086.4869994430
  20
 1751.9492284204
  30
0.0
  11
 2123.0770968662
  21
 1788.5393258436
  31
0.0
   0
LINE
   5
26C
 100
AcDbEntity
   8
LEVEL001
 370
13
 100
AcDbLine
   6
CONTINUOUS
  62
5
  10
 2138.9869994438
  20
 1788.5393258436
  30
0.0
  11
 2094.4419507318
  21
 1743.9942771317
  31
0.0
   0
LINE
   5
26D
 100
AcDbEntity
   8
LEVEL001
 370
13
 100
AcDbLine
   6
CONTINUOUS
  62
5
  10
 2159.6671942905
  20
 1736.0393258436
  30
0.0
  11
 2131.0320481552
  21
 1764.6744719789
  31
0.0
   0
LINE
   5
26E
 100
AcDbEntity
   8
LEVEL001
 370
13
 100
AcDbLine
   6
CONTINUOUS
  62
5
  10
 2138.9869994434
  20
 1772.6294232672
  30
0.0
  11
 2175.5770968669
  21
 1736.0393258436
  31
0.0
   0
LINE
   5
26F
 100
AcDbEntity
   8
LEVEL001
 370
13
 100
AcDbLine
   6
CONTINUOUS
  62
5
  10
 2191.4869994433
  20
 1736.0393258436
  30
0.0
  11
 2146.9419507316
  21
 1780.5843745554
  31
0.0
   0
LINE
   5
270
 100
AcDbEntity
   8
LEVEL001
 370
13
 100
AcDbLine
   6
CONTINUOUS
  62
5
  10
 2154.8969020199
  20
 1788.5393258436
  30
0.0
  11
 2207.3969020201
  21
 1736.0393258436
  31
0.0
   0
LINE
   5
271
 100
AcDbEntity
   8
LEVEL001
 370
13
 100
AcDbLine
   6
CONTINUOUS
  62
5
  10
 2002.1671942900
  20
 1788.5393258436
  30
0.0
  11
 1949.6671942900
  21
 1736.0393258436
  31
0.0
   0
LINE
   5
272
 100
AcDbEntity
   8
LEVEL001
 370
13
 100
AcDbLine
   6
CONTINUOUS
  62
5
  10
 1965.5770968660
  20
 1736.0393258436
  30
0.0
  11
 2018.0770968660
  21
 1788.5393258436
  31
0.0
   0
LINE
   5
273
 100
AcDbEntity
   8
LEVEL001
 370
13
 100
AcDbLine
   6
CONTINUOUS
  62
5
  10
 2033.9869994437
  20
 1788.5393258436
  30
0.0
  11
 1981.4869994437
  21
 1736.0393258436
  31
0.0
   0
LINE
   5
274
 100
AcDbEntity
   8
LEVEL001
 370
13
 100
AcDbLine
   6
CONTINUOUS
  62
5
  10
 1997.3969020197
  20
 1736.0393258436
  30
0.0
  11
 2049.8969020197
  21
 1788.5393258436
  31
0.0
   0
LINE
   5
275
 100
AcDbEntity
   8
LEVEL001
 370
13
 100
AcDbLine
   6
CONTINUOUS
  62
5
  10
 2054.6671942903
  20
 1736.0393258436
  30
0.0
  11
 2026.0320481550
  21
 1764.6744719789
  31
0.0
   0
LINE
   5
276
 100
AcDbEntity
   8
LEVEL001
 370
13
 100
AcDbLine
   6
CONTINUOUS
  62
5
  10
 2033.9869994432
  20
 1772.6294232672
  30
0.0
  11
 2070.5770968667
  21
 1736.0393258436
  31
0.0
   0
LINE
   5
277
 100
AcDbEntity
   8
LEVEL001
 370
13
 100
AcDbLine
   6
CONTINUOUS
  62
5
  10
 2086.4869994431
  20
 1736.0393258436
  30
0.0
  11
 2041.9419507314
  21
 1780.5843745554
  31
0.0
   0
LINE
   5
278
 100
AcDbEntity
   8
LEVEL001
 370
13
 100
AcDbLine
   6
CONTINUOUS
  62
5
  10
 2049.8969020197
  20
 1788.5393258436
  30
0.0
  11
 2102.3969020199
  21
 1736.0393258436
  31
0.0
   0
LINE
   5
279
 100
AcDbEntity
   8
LEVEL001
 370
13
 100
AcDbLine
   6
CONTINUOUS
  62
5
  10
 2107.1671942902
  20
 1788.5393258436
  30
0.0
  11
 2078.5320481550
  21
 1759.9041797084
  31
0.0
   0
LINE
   5
27A
 100
AcDbEntity
   8
LEVEL001
 370
13
 100
AcDbLine
   6
CONTINUOUS
  62
5
  10
 2859.8969020201
  20
 1788.5393258436
  30
0.0
  11
 2807.3969020201
  21
 1736.0393258436
  31
0.0
   0
LINE
   5
27B
 100
AcDbEntity
   8
LEVEL001
 370
13
 100
AcDbLine
   6
CONTINUOUS
  62
5
  10
 2823.3068045961
  20
 1736.0393258436
  30
0.0
  11
 2875.8068045961
  21
 1788.5393258436
  31
0.0
   0
LINE
   5
27C
 100
AcDbEntity
   8
LEVEL001
 370
13
 100
AcDbLine
   6
CONTINUOUS
  62
5
  10
 2891.7167071737
  20
 1788.5393258436
  30
0.0
  11
 2839.2167071737
  21
 1736.0393258436
  31
0.0
   0
LINE
   5
27D
 100
AcDbEntity
   8
LEVEL001
 370
13
 100
AcDbLine
   6
CONTINUOUS
  62
5
  10
 2855.1266097497
  20
 1736.0393258436
  30
0.0
  11
 2907.6266097497
  21
 1788.5393258436
  31
0.0
   0
LINE
   5
27E
 100
AcDbEntity
   8
LEVEL001
 370
13
 100
AcDbLine
   6
CONTINUOUS
  62
5
  10
 2912.3969020203
  20
 1736.0393258436
  30
0.0
  11
 2883.7617558850
  21
 1764.6744719789
  31
0.0
   0
LINE
   5
27F
 100
AcDbEntity
   8
LEVEL001
 370
13
 100
AcDbLine
   6
CONTINUOUS
  62
5
  10
 2891.7167071732
  20
 1772.6294232672
  30
0.0
  11
 2928.3068045968
  21
 1736.0393258436
  31
0.0
   0
LINE
   5
280
 100
AcDbEntity
   8
LEVEL001
 370
13
 100
AcDbLine
   6
CONTINUOUS
  62
5
  10
 2944.2167071732
  20
 1736.0393258436
  30
0.0
  11
 2899.6716584615
  21
 1780.5843745554
  31
0.0
   0
LINE
   5
281
 100
AcDbEntity
   8
LEVEL001
 370
13
 100
AcDbLine
   6
CONTINUOUS
  62
5
  10
 2907.6266097497
  20
 1788.5393258436
  30
0.0
  11
 2960.1266097499
  21
 1736.0393258436
  31
0.0
   0
LINE
   5
282
 100
AcDbEntity
   8
LEVEL001
 370
13
 100
AcDbLine
   6
CONTINUOUS
  62
5
  10
 2960.1266097499
  20
 1736.0393258436
  30
0.0
  11
 3012.6266097499
  21
 1788.5393258436
  31
0.0
   0
LINE
   5
283
 100
AcDbEntity
   8
LEVEL001
 370
13
 100
AcDbLine
   6
CONTINUOUS
  62
5
  10
 2964.8969020202
  20
 1788.5393258436
  30
0.0
  11
 2936.2617558850
  21
 1759.9041797084
  31
0.0
   0
LINE
   5
284
 100
AcDbEntity
   8
LEVEL001
 370
13
 100
AcDbLine
   6
CONTINUOUS
  62
5
  10
 2944.2167071731
  20
 1751.9492284204
  30
0.0
  11
 2980.8068045963
  21
 1788.5393258436
  31
0.0
   0
LINE
   5
285
 100
AcDbEntity
   8
LEVEL001
 370
13
 100
AcDbLine
   6
CONTINUOUS
  62
5
  10
 2996.7167071739
  20
 1788.5393258436
  30
0.0
  11
 2952.1716584619
  21
 1743.9942771317
  31
0.0
   0
LINE
   5
286
 100
AcDbEntity
   8
LEVEL001
 370
13
 100
AcDbLine
   6
CONTINUOUS
  62
5
  10
 3017.3969020205
  20
 1736.0393258436
  30
0.0
  11
 2988.7617558852
  21
 1764.6744719789
  31
0.0
   0
LINE
   5
287
 100
AcDbEntity
   8
LEVEL001
 370
13
 100
AcDbLine
   6
CONTINUOUS
  62
5
  10
 2996.7167071734
  20
 1772.6294232672
  30
0.0
  11
 3033.3068045969
  21
 1736.0393258436
  31
0.0
   0
LINE
   5
288
 100
AcDbEntity
   8
LEVEL001
 370
13
 100
AcDbLine
   6
CONTINUOUS
  62
5
  10
 3049.2167071734
  20
 1736.0393258436
  30
0.0
  11
 3004.6716584616
  21
 1780.5843745554
  31
0.0
   0
LINE
   5
289
 100
AcDbEntity
   8
LEVEL001
 370
13
 100
AcDbLine
   6
CONTINUOUS
  62
5
  10
 3012.6266097499
  20
 1788.5393258436
  30
0.0
  11
 3065.1266097501
  21
 1736.0393258436
  31
0.0
   0
MTEXT
   5
28B
 100
AcDbEntity
   8
LEVEL001
 370
13
  62
1
 100
AcDbMText
  10
 2078.0455724645
  20
 1797.2692628840
  30
0.0
  40
 40.000000000000
  41
0.0
  71
7
  72
1
   1
\T1.000000;ＧＬ
   7
GMM003
  44
 0.79999984000003
   0
LWPOLYLINE
   5
28C
 100
AcDbEntity
   8
LEVEL001
 370
13
   6
CONTINUOUS
  62
1
 100
AcDbPolyline
  90
3
  70
1
  10
 2049.8969020197
  20
 1788.5393258436
  10
 2024.8969020197
  20
 1838.5393258436
  10
 2074.8969020197
  20
 1838.5393258436
   0
MTEXT
   5
28D
 100
AcDbEntity
   8
LEVEL001
 370
13
  62
1
 100
AcDbMText
  10
 1306.2094020202
  20
 3841.7893258436
  30
0.0
  40
 80.000000000000
  41
0.0
  71
4
  72
1
   1
{\T1.000000;注}\P{\T1.000000;意}
   7
GMM004
  44
 0.79999984000003
   0
LWPOLYLINE
   5
28E
 100
AcDbEntity
   8
LEVEL001
 370
13
   6
CONTINUOUS
  62
7
 100
AcDbPolyline
  90
4
  70
0
  10
 1319.2469020201
  20
 3688.5393258436
  10
 1319.2469020201
  20
 788.53932584365
  10
 1395.5469020201
  20
 788.53932584365
  10
 1395.5469020201
  20
 3688.5393258436
   0
LWPOLYLINE
   5
28F
 100
AcDbEntity
   8
LEVEL001
 370
13
   6
CONTINUOUS
  62
5
 100
AcDbPolyline
  90
6
  70
0
  10
 1319.2469020201
  20
 1788.5393258436
  10
 1107.3969020201
  20
 1788.5393258436
  10
 1107.3969020201
  20
 788.53932584365
  10
 1607.3969020201
  20
 788.53932584365
  10
 1607.3969020201
  20
 1788.5393258436
  10
 1395.5469020201
  20
 1788.5393258436
   0
LINE
   5
290
 100
AcDbEntity
   8
LEVEL001
 370
13
 100
AcDbLine
   6
CONTINUOUS
  62
5
  10
 1257.3969020201
  20
 788.53932584365
  30
0.0
  11
 1207.3969020201
  21
 688.53932584365
  31
0.0
   0
LINE
   5
291
 100
AcDbEntity
   8
LEVEL001
 370
13
 100
AcDbLine
   6
CONTINUOUS
  62
5
  10
 1207.3969020201
  20
 788.53932584365
  30
0.0
  11
 1247.3969020201
  21
 768.53932584365
  31
0.0
   0
LINE
   5
292
 100
AcDbEntity
   8
LEVEL001
 370
13
 100
AcDbLine
   6
CONTINUOUS
  62
5
  10
 1207.3969020201
  20
 788.53932584365
  30
0.0
  11
 1157.3969020201
  21
 688.53932584365
  31
0.0
   0
LINE
   5
293
 100
AcDbEntity
   8
LEVEL001
 370
13
 100
AcDbLine
   6
CONTINUOUS
  62
5
  10
 1157.3969020201
  20
 788.53932584365
  30
0.0
  11
 1197.3969020201
  21
 768.53932584365
  31
0.0
   0
LINE
   5
294
 100
AcDbEntity
   8
LEVEL001
 370
13
 100
AcDbLine
   6
CONTINUOUS
  62
5
  10
 1157.3969020201
  20
 788.53932584365
  30
0.0
  11
 1107.3969020201
  21
 688.53932584365
  31
0.0
   0
LINE
   5
295
 100
AcDbEntity
   8
LEVEL001
 370
13
 100
AcDbLine
   6
CONTINUOUS
  62
5
  10
 1107.3969020201
  20
 788.53932584365
  30
0.0
  11
 1147.3969020201
  21
 768.53932584365
  31
0.0
   0
LINE
   5
296
 100
AcDbEntity
   8
LEVEL001
 370
13
 100
AcDbLine
   6
CONTINUOUS
  62
5
  10
 1257.3969020201
  20
 688.53932584365
  30
0.0
  11
 1217.3969020201
  21
 708.53932584365
  31
0.0
   0
LINE
   5
297
 100
AcDbEntity
   8
LEVEL001
 370
13
 100
AcDbLine
   6
CONTINUOUS
  62
5
  10
 1207.3969020201
  20
 688.53932584365
  30
0.0
  11
 1167.3969020201
  21
 708.53932584365
  31
0.0
   0
LINE
   5
298
 100
AcDbEntity
   8
LEVEL001
 370
13
 100
AcDbLine
   6
CONTINUOUS
  62
5
  10
 1157.3969020201
  20
 688.53932584365
  30
0.0
  11
 1117.3969020201
  21
 708.53932584365
  31
0.0
   0
LINE
   5
299
 100
AcDbEntity
   8
LEVEL001
 370
13
 100
AcDbLine
   6
CONTINUOUS
  62
5
  10
 1607.3969020201
  20
 788.53932584365
  30
0.0
  11
 1557.3969020201
  21
 688.53932584365
  31
0.0
   0
LINE
   5
29A
 100
AcDbEntity
   8
LEVEL001
 370
13
 100
AcDbLine
   6
CONTINUOUS
  62
5
  10
 1557.3969020201
  20
 788.53932584365
  30
0.0
  11
 1597.3969020201
  21
 768.53932584365
  31
0.0
   0
LINE
   5
29B
 100
AcDbEntity
   8
LEVEL001
 370
13
 100
AcDbLine
   6
CONTINUOUS
  62
5
  10
 1557.3969020201
  20
 788.53932584365
  30
0.0
  11
 1507.3969020201
  21
 688.53932584365
  31
0.0
   0
LINE
   5
29C
 100
AcDbEntity
   8
LEVEL001
 370
13
 100
AcDbLine
   6
CONTINUOUS
  62
5
  10
 1507.3969020201
  20
 788.53932584365
  30
0.0
  11
 1547.3969020201
  21
 768.53932584365
  31
0.0
   0
LINE
   5
29D
 100
AcDbEntity
   8
LEVEL001
 370
13
 100
AcDbLine
   6
CONTINUOUS
  62
5
  10
 1607.3969020201
  20
 688.53932584365
  30
0.0
  11
 1567.3969020201
  21
 708.53932584365
  31
0.0
   0
LINE
   5
29E
 100
AcDbEntity
   8
LEVEL001
 370
13
 100
AcDbLine
   6
CONTINUOUS
  62
5
  10
 1557.3969020201
  20
 688.53932584365
  30
0.0
  11
 1517.3969020201
  21
 708.53932584365
  31
0.0
   0
LINE
   5
29F
 100
AcDbEntity
   8
LEVEL001
 370
13
 100
AcDbLine
   6
CONTINUOUS
  62
5
  10
 1507.3969020201
  20
 788.53932584365
  30
0.0
  11
 1457.3969020201
  21
 688.53932584365
  31
0.0
   0
LINE
   5
2A0
 100
AcDbEntity
   8
LEVEL001
 370
13
 100
AcDbLine
   6
CONTINUOUS
  62
5
  10
 1457.3969020201
  20
 788.53932584365
  30
0.0
  11
 1497.3969020201
  21
 768.53932584365
  31
0.0
   0
LINE
   5
2A1
 100
AcDbEntity
   8
LEVEL001
 370
13
 100
AcDbLine
   6
CONTINUOUS
  62
5
  10
 1507.3969020201
  20
 688.53932584365
  30
0.0
  11
 1467.3969020201
  21
 708.53932584365
  31
0.0
   0
LWPOLYLINE
   5
2A2
 100
AcDbEntity
   8
LEVEL001
 370
13
   6
CONTINUOUS
  62
5
 100
AcDbPolyline
  90
4
  70
1
  10
 1607.3969020201
  20
 788.53932584365
  10
 1107.3969020201
  20
 788.53932584365
  10
 1107.3969020201
  20
 688.53932584365
  10
 1607.3969020201
  20
 688.53932584365
   0
LINE
   5
2A3
 100
AcDbEntity
   8
LEVEL001
 370
13
 100
AcDbLine
   6
DASHDOT
  62
6
  10
 1297.3968839344
  20
 1188.5393258436
  30
0.0
  11
 1417.3968839344
  21
 1188.5393258436
  31
0.0
   0
CIRCLE
   5
2A4
 100
AcDbEntity
   8
LEVEL001
 370
13
 100
AcDbCircle
   6
CONTINUOUS
  62
7
  10
 1357.3968682180
  20
 1088.5393258436
  30
0.0
  40
 7.5000000000000
   0
LINE
   5
2A5
 100
AcDbEntity
   8
LEVEL001
 370
13
 100
AcDbLine
   6
DASHDOT
  62
6
  10
 1327.3968682180
  20
 1088.5393258436
  30
0.0
  11
 1387.3968682180
  21
 1088.5393258436
  31
0.0
   0
DIMENSION
   5
2A6
 100
AcDbEntity
   8
LEVEL001
 370
13
   6
CONTINUOUS
  62
6
 100
AcDbDimension
   2
*D20
  10
 1607.3969020201
  20
 438.53932584365
  30
0.0
  11
 1357.3969020201
  21
 438.53932584365
  31
0.0
  70
0
   3
GMM006
 100
AcDbAlignedDimension
  13
 1107.3969020201
  23
 688.53932584365
  33
0.0
  14
 1607.3969020201
  24
 688.53932584365
  34
0.0
 100
AcDbRotatedDimension
   0
LINE
   5
2A7
 100
AcDbEntity
   8
LEVEL001
 370
13
 100
AcDbLine
   6
CONTINUOUS
  62
5
  10
 1607.3969020201
  20
 1523.8946649032
  30
0.0
  11
 1395.5469020201
  21
 1312.0446649032
  31
0.0
   0
LINE
   5
2A8
 100
AcDbEntity
   8
LEVEL001
 370
13
 100
AcDbLine
   6
CONTINUOUS
  62
5
  10
 1395.5469020201
  20
 1276.6893258439
  30
0.0
  11
 1607.3969020201
  21
 1488.5393258439
  31
0.0
   0
LINE
   5
2A9
 100
AcDbEntity
   8
LEVEL001
 370
13
 100
AcDbLine
   6
CONTINUOUS
  62
5
  10
 1607.3969020201
  20
 1453.1839867846
  30
0.0
  11
 1395.5469020201
  21
 1241.3339867846
  31
0.0
   0
LINE
   5
2AA
 100
AcDbEntity
   8
LEVEL001
 370
13
 100
AcDbLine
   6
CONTINUOUS
  62
5
  10
 1319.2469020201
  20
 1165.0339867846
  30
0.0
  11
 1107.3969020201
  21
 953.18398678455
  31
0.0
   0
LINE
   5
2AB
 100
AcDbEntity
   8
LEVEL001
 370
13
 100
AcDbLine
   6
CONTINUOUS
  62
5
  10
 2407.3969020201
  20
 788.53932584365
  30
0.0
  11
 2357.3969020201
  21
 688.53932584365
  31
0.0
   0
LINE
   5
2AC
 100
AcDbEntity
   8
LEVEL001
 370
13
 100
AcDbLine
   6
CONTINUOUS
  62
5
  10
 2357.3969020201
  20
 788.53932584365
  30
0.0
  11
 2397.3969020201
  21
 768.53932584365
  31
0.0
   0
LINE
   5
2AD
 100
AcDbEntity
   8
LEVEL001
 370
13
 100
AcDbLine
   6
CONTINUOUS
  62
5
  10
 2357.3969020201
  20
 788.53932584365
  30
0.0
  11
 2307.3969020201
  21
 688.53932584365
  31
0.0
   0
LINE
   5
2AE
 100
AcDbEntity
   8
LEVEL001
 370
13
 100
AcDbLine
   6
CONTINUOUS
  62
5
  10
 2307.3969020201
  20
 788.53932584365
  30
0.0
  11
 2347.3969020201
  21
 768.53932584365
  31
0.0
   0
LINE
   5
2AF
 100
AcDbEntity
   8
LEVEL001
 370
13
 100
AcDbLine
   6
CONTINUOUS
  62
5
  10
 2307.3969020201
  20
 788.53932584365
  30
0.0
  11
 2257.3969020201
  21
 688.53932584365
  31
0.0
   0
LINE
   5
2B0
 100
AcDbEntity
   8
LEVEL001
 370
13
 100
AcDbLine
   6
CONTINUOUS
  62
5
  10
 2257.3969020201
  20
 788.53932584365
  30
0.0
  11
 2297.3969020201
  21
 768.53932584365
  31
0.0
   0
LINE
   5
2B1
 100
AcDbEntity
   8
LEVEL001
 370
13
 100
AcDbLine
   6
CONTINUOUS
  62
5
  10
 2407.3969020201
  20
 688.53932584365
  30
0.0
  11
 2367.3969020201
  21
 708.53932584365
  31
0.0
   0
LINE
   5
2B2
 100
AcDbEntity
   8
LEVEL001
 370
13
 100
AcDbLine
   6
CONTINUOUS
  62
5
  10
 2357.3969020201
  20
 688.53932584365
  30
0.0
  11
 2317.3969020201
  21
 708.53932584365
  31
0.0
   0
LINE
   5
2B3
 100
AcDbEntity
   8
LEVEL001
 370
13
 100
AcDbLine
   6
CONTINUOUS
  62
5
  10
 2307.3969020201
  20
 688.53932584365
  30
0.0
  11
 2267.3969020201
  21
 708.53932584365
  31
0.0
   0
LINE
   5
2B4
 100
AcDbEntity
   8
LEVEL001
 370
13
 100
AcDbLine
   6
CONTINUOUS
  62
5
  10
 2757.3969020201
  20
 788.53932584365
  30
0.0
  11
 2707.3969020201
  21
 688.53932584365
  31
0.0
   0
LINE
   5
2B5
 100
AcDbEntity
   8
LEVEL001
 370
13
 100
AcDbLine
   6
CONTINUOUS
  62
5
  10
 2707.3969020201
  20
 788.53932584365
  30
0.0
  11
 2747.3969020201
  21
 768.53932584365
  31
0.0
   0
LINE
   5
2B6
 100
AcDbEntity
   8
LEVEL001
 370
13
 100
AcDbLine
   6
CONTINUOUS
  62
5
  10
 2707.3969020201
  20
 788.53932584365
  30
0.0
  11
 2657.3969020201
  21
 688.53932584365
  31
0.0
   0
LINE
   5
2B7
 100
AcDbEntity
   8
LEVEL001
 370
13
 100
AcDbLine
   6
CONTINUOUS
  62
5
  10
 2657.3969020201
  20
 788.53932584365
  30
0.0
  11
 2697.3969020201
  21
 768.53932584365
  31
0.0
   0
LINE
   5
2B8
 100
AcDbEntity
   8
LEVEL001
 370
13
 100
AcDbLine
   6
CONTINUOUS
  62
5
  10
 2757.3969020201
  20
 688.53932584365
  30
0.0
  11
 2717.3969020201
  21
 708.53932584365
  31
0.0
   0
LINE
   5
2B9
 100
AcDbEntity
   8
LEVEL001
 370
13
 100
AcDbLine
   6
CONTINUOUS
  62
5
  10
 2707.3969020201
  20
 688.53932584365
  30
0.0
  11
 2667.3969020201
  21
 708.53932584365
  31
0.0
   0
LINE
   5
2BA
 100
AcDbEntity
   8
LEVEL001
 370
13
 100
AcDbLine
   6
CONTINUOUS
  62
5
  10
 2657.3969020201
  20
 788.53932584365
  30
0.0
  11
 2607.3969020201
  21
 688.53932584365
  31
0.0
   0
LINE
   5
2BB
 100
AcDbEntity
   8
LEVEL001
 370
13
 100
AcDbLine
   6
CONTINUOUS
  62
5
  10
 2607.3969020201
  20
 788.53932584365
  30
0.0
  11
 2647.3969020201
  21
 768.53932584365
  31
0.0
   0
LINE
   5
2BC
 100
AcDbEntity
   8
LEVEL001
 370
13
 100
AcDbLine
   6
CONTINUOUS
  62
5
  10
 2657.3969020201
  20
 688.53932584365
  30
0.0
  11
 2617.3969020201
  21
 708.53932584365
  31
0.0
   0
LWPOLYLINE
   5
2BD
 100
AcDbEntity
   8
LEVEL001
 370
13
   6
CONTINUOUS
  62
5
 100
AcDbPolyline
  90
4
  70
1
  10
 2757.3969020201
  20
 788.53932584365
  10
 2257.3969020201
  20
 788.53932584365
  10
 2257.3969020201
  20
 688.53932584365
  10
 2757.3969020201
  20
 688.53932584365
   0
LWPOLYLINE
   5
2BE
 100
AcDbEntity
   8
LEVEL001
 370
13
   6
CONTINUOUS
  62
7
 100
AcDbPolyline
  90
4
  70
0
  10
 2469.2469020201
  20
 1096.0393258436
  10
 2397.3968839344
  20
 1096.0393258436
  10
 2397.3968839344
  20
 1081.0393258436
  10
 2469.2469020201
  20
 1081.0393258436
   0
LWPOLYLINE
   5
2BF
 100
AcDbEntity
   8
LEVEL001
 370
13
   6
CONTINUOUS
  62
7
 100
AcDbPolyline
  90
4
  70
0
  10
 2545.5469020201
  20
 1096.0393258436
  10
 2617.3968839344
  20
 1096.0393258436
  10
 2617.3968839344
  20
 1081.0393258436
  10
 2545.5469020201
  20
 1081.0393258436
   0
CIRCLE
   5
2C0
 100
AcDbEntity
   8
LEVEL001
 370
13
 100
AcDbCircle
   6
CONTINUOUS
  62
1
  10
 2132.3969020201
  20
 938.53932584365
  30
0.0
  40
 69.999997913838
   0
MTEXT
   5
2C2
 100
AcDbEntity
   8
LEVEL001
 370
13
  62
7
 100
AcDbMText
  10
 2132.3969020201
  20
 938.53932584365
  30
0.0
  40
 66.000000000000
  41
0.0
  71
5
  72
1
   1
\T1.000000;１３
   7
GMM001
  44
 0.79999984000003
   0
LEADER
   5
2C3
 100
AcDbEntity
   8
LEVEL001
 370
13
   6
CONTINUOUS
  62
1
 100
AcDbLeader
   3
GMM007
  73
3
  74
1
  75
0
  40
 66.000000000000
  41
0.0
  76
2
  10
 2397.3968839344
  20
 1081.0393258436
  30
0.0
  10
 2194.0485423227
  20
 971.69162525003
  30
0.0
  77
1
   0
DIMENSION
   5
2C4
 100
AcDbEntity
   8
LEVEL001
 370
13
   6
CONTINUOUS
  62
6
 100
AcDbDimension
   2
*D22
  10
 2757.3969020201
  20
 438.53932584365
  30
0.0
  11
 2507.3969020201
  21
 438.53932584365
  31
0.0
  70
0
   3
GMM008
 100
AcDbAlignedDimension
  13
 2257.3969020201
  23
 688.53932584365
  33
0.0
  14
 2757.3969020201
  24
 688.53932584365
  34
0.0
 100
AcDbRotatedDimension
   0
LINE
   5
2C5
 100
AcDbEntity
   8
LEVEL001
 370
13
 100
AcDbLine
   6
CONTINUOUS
  62
5
  10
 2757.3969020201
  20
 1523.8946649032
  30
0.0
  11
 2545.5469020201
  21
 1312.0446649032
  31
0.0
   0
LINE
   5
2C6
 100
AcDbEntity
   8
LEVEL001
 370
13
 100
AcDbLine
   6
CONTINUOUS
  62
5
  10
 2469.2469020201
  20
 1235.7446649032
  30
0.0
  11
 2257.3969020201
  21
 1023.8946649032
  31
0.0
   0
LINE
   5
2C7
 100
AcDbEntity
   8
LEVEL001
 370
13
 100
AcDbLine
   6
CONTINUOUS
  62
5
  10
 2545.5469020201
  20
 1276.6893258439
  30
0.0
  11
 2757.3969020201
  21
 1488.5393258439
  31
0.0
   0
LINE
   5
2C8
 100
AcDbEntity
   8
LEVEL001
 370
13
 100
AcDbLine
   6
CONTINUOUS
  62
5
  10
 2257.3969020201
  20
 988.53932584388
  30
0.0
  11
 2469.2469020201
  21
 1200.3893258439
  31
0.0
   0
LINE
   5
2C9
 100
AcDbEntity
   8
LEVEL001
 370
13
 100
AcDbLine
   6
CONTINUOUS
  62
5
  10
 2757.3969020201
  20
 1453.1839867846
  30
0.0
  11
 2545.5469020201
  21
 1241.3339867846
  31
0.0
   0
LINE
   5
2CA
 100
AcDbEntity
   8
LEVEL001
 370
13
 100
AcDbLine
   6
CONTINUOUS
  62
5
  10
 2469.2469020201
  20
 1165.0339867846
  30
0.0
  11
 2257.3969020201
  21
 953.18398678455
  31
0.0
   0
ARC
   5
2CB
 100
AcDbEntity
   8
LEVEL001
 370
13
   6
CONTINUOUS
  62
7
 100
AcDbCircle
  10
 2519.2469020201
  20
 2154.5612115540
  30
0.0
  40
 300.00000000000
 100
AcDbArc
  50
 322.12501634890
  51
0.0
   0
ARC
   5
2CC
 100
AcDbEntity
   8
LEVEL001
 370
13
   6
CONTINUOUS
  62
7
 100
AcDbCircle
  10
 2845.5469020201
  20
 1472.5174401332
  30
0.0
  40
 300.00000000000
 100
AcDbArc
  50
 142.12501634890
  51
 180.00000000000
   0
ARC
   5
2CD
 100
AcDbEntity
   8
LEVEL001
 370
13
   6
DASHDOT
  62
6
 100
AcDbCircle
  10
 2519.2469020201
  20
 2154.5612115540
  30
0.0
  40
 338.15000000000
 100
AcDbArc
  50
 322.12501634890
  51
0.0
   0
LINE
   5
2CE
 100
AcDbEntity
   8
LEVEL001
 370
13
 100
AcDbLine
   6
DASHDOT
  62
6
  10
 2578.6274497143
  20
 1680.1214585933
  30
0.0
  11
 2786.1663543259
  21
 1946.9571930940
  31
0.0
   0
ARC
   5
2CF
 100
AcDbEntity
   8
LEVEL001
 370
13
   6
DASHDOT
  62
6
 100
AcDbCircle
  10
 2845.5469020201
  20
 1472.5174401333
  30
0.0
  40
 338.15000000000
 100
AcDbArc
  50
 142.12501634890
  51
 180.00000000000
   0
ARC
   5
2D0
 100
AcDbEntity
   8
LEVEL001
 370
13
   6
CONTINUOUS
  62
7
 100
AcDbCircle
  10
 2845.5469020201
  20
 1472.5174401332
  30
0.0
  40
 376.30000000000
 100
AcDbArc
  50
 142.12501634890
  51
 180.00000000000
   0
LINE
   5
2D1
 100
AcDbEntity
   8
LEVEL001
 370
13
 100
AcDbLine
   6
CONTINUOUS
  62
7
  10
 2756.0525672330
  20
 1970.3790274995
  30
0.0
  11
 2548.5136626213
  21
 1703.5432929989
  31
0.0
   0
LINE
   5
2D2
 100
AcDbEntity
   8
LEVEL001
 370
13
 100
AcDbLine
   6
CONTINUOUS
  62
7
  10
 2608.7412368072
  20
 1656.6996241877
  30
0.0
  11
 2816.2801414188
  21
 1923.5353586883
  31
0.0
   0
ARC
   5
2D3
 100
AcDbEntity
   8
LEVEL001
 370
13
   6
CONTINUOUS
  62
7
 100
AcDbCircle
  10
 2519.2469020201
  20
 2154.5612115540
  30
0.0
  40
 376.30000000000
 100
AcDbArc
  50
 322.12501634890
  51
0.0
   0
LWPOLYLINE
   5
2D4
 100
AcDbEntity
   8
LEVEL001
 370
13
   6
CONTINUOUS
  62
7
 100
AcDbPolyline
  90
4
  70
0
  10
 2469.2469020201
  20
 1472.5174401332
  10
 2469.2469020201
  20
 788.53932584365
  10
 2545.5469020201
  20
 788.53932584365
  10
 2545.5469020201
  20
 1472.5174401332
   0
CIRCLE
   5
2D5
 100
AcDbEntity
   8
LEVEL001
 370
13
 100
AcDbCircle
   6
CONTINUOUS
  62
7
  10
 2507.3969020201
  20
 1188.5393258436
  30
0.0
  40
 7.5000000000000
   0
LINE
   5
2D6
 100
AcDbEntity
   8
LEVEL001
 370
13
 100
AcDbLine
   6
DASHDOT
  62
6
  10
 2477.3969020201
  20
 1188.5393258436
  30
0.0
  11
 2537.3969020201
  21
 1188.5393258436
  31
0.0
   0
LINE
   5
2D7
 100
AcDbEntity
   8
LEVEL001
 370
13
 100
AcDbLine
   6
DASHDOT
  62
6
  10
 2447.3969020201
  20
 1088.5393258436
  30
0.0
  11
 2567.3969020201
  21
 1088.5393258436
  31
0.0
   0
DIMENSION
   5
2D8
 100
AcDbEntity
   8
LEVEL001
 370
13
   6
CONTINUOUS
  62
6
 100
AcDbDimension
   2
*D23
  10
 2507.3969020201
  20
 2438.5393258436
  30
0.0
  11
 2682.3969020201
  21
 2438.5393258436
  31
0.0
  70
0
   3
GMM009
 100
AcDbAlignedDimension
  13
 2857.3969020201
  23
 2438.5393258436
  33
0.0
  14
 2507.3969020201
  24
 1472.5174401333
  34
0.0
  50
 180.00000000000
 100
AcDbRotatedDimension
   0
LINE
   5
2D9
 100
AcDbEntity
   8
LEVEL001
 370
13
 100
AcDbLine
   6
CONTINUOUS
  62
7
  10
 2895.5469020201
  20
 3870.0393258436
  30
0.0
  11
 2895.5469020201
  21
 2154.5612115540
  31
0.0
   0
LINE
   5
2DA
 100
AcDbEntity
   8
LEVEL001
 370
13
 100
AcDbLine
   6
CONTINUOUS
  62
7
  10
 2819.2469020201
  20
 2154.5612115540
  30
0.0
  11
 2819.2469020201
  21
 3870.0393258436
  31
0.0
   0
LINE
   5
2DB
 100
AcDbEntity
   8
LEVEL001
 370
13
 100
AcDbLine
   6
CONTINUOUS
  62
5
  10
 1319.2469020201
  20
 1235.7446649032
  30
0.0
  11
 1107.3969020201
  21
 1023.8946649032
  31
0.0
   0
LINE
   5
2DC
 100
AcDbEntity
   8
LEVEL001
 370
13
 100
AcDbLine
   6
CONTINUOUS
  62
5
  10
 1107.3969020201
  20
 988.53932584388
  30
0.0
  11
 1319.2469020201
  21
 1200.3893258439
  31
0.0
   0
LINE
   5
2DD
 100
AcDbEntity
   8
LEVEL001
 370
13
 100
AcDbLine
   6
DASHDOT
  62
6
  10
 2507.3969020201
  20
 1472.5174401333
  30
0.0
  11
 2507.3969020201
  21
 671.92970061828
  31
0.0
   0
LWPOLYLINE
   5
2DE
 100
AcDbEntity
   8
LEVEL001
 370
13
   6
CONTINUOUS
  62
5
 100
AcDbPolyline
  90
4
  70
0
  10
 2257.3969020201
  20
 1788.5393258436
  10
 2257.3969020201
  20
 788.53932584365
  10
 2757.3969020201
  20
 788.53932584365
  10
 2757.3969020201
  20
 1788.5393258436
   0
LINE
   5
2DF
 100
AcDbEntity
   8
LEVEL001
 370
13
 100
AcDbLine
   6
CONTINUOUS
  62
5
  10
 2711.2832269840
  20
 1788.5393258436
  30
0.0
  11
 3057.3969672550
  21
 1788.5393258436
  31
0.0
   0
LINE
   5
2E0
 100
AcDbEntity
   8
LEVEL001
 370
13
 100
AcDbLine
   6
CONTINUOUS
  62
5
  10
 2614.6216881673
  20
 1788.5393258436
  30
0.0
  11
 1957.3969672550
  21
 1788.5393258436
  31
0.0
   0
LWPOLYLINE
   5
2E1
 100
AcDbEntity
   8
LEVEL001
 370
13
   6
CONTINUOUS
  62
1
 100
AcDbPolyline
  90
4
  70
1
  10
 2895.5469020201
  20
 4792.5393258436
  10
 2819.2469020201
  20
 4792.5393258436
  10
 2819.2469020201
  20
 4789.5393258436
  10
 2895.5469020201
  20
 4789.5393258436
   0
LWPOLYLINE
   5
2E2
 100
AcDbEntity
   8
LEVEL001
 370
13
   6
DOT
  62
6
 100
AcDbPolyline
  90
4
  70
0
  10
 2890.5469020201
  20
 4789.5393258436
  10
 2890.5469020201
  20
 4762.5393258436
  10
 2824.2469020201
  20
 4762.5393258436
  10
 2824.2469020201
  20
 4789.5393258436
   0
LWPOLYLINE
   5
2E3
 100
AcDbEntity
   8
LEVEL001
 370
13
   6
DOT
  62
6
 100
AcDbPolyline
  90
4
  70
0
  10
 1390.5469020201
  20
 4789.5393258436
  10
 1390.5469020201
  20
 4762.5393258436
  10
 1324.2469020201
  20
 4762.5393258436
  10
 1324.2469020201
  20
 4789.5393258436
   0
LWPOLYLINE
   5
2E4
 100
AcDbEntity
   8
LEVEL001
 370
13
   6
CONTINUOUS
  62
1
 100
AcDbPolyline
  90
4
  70
1
  10
 1395.5469020201
  20
 4792.5393258436
  10
 1319.2469020201
  20
 4792.5393258436
  10
 1319.2469020201
  20
 4789.5393258436
  10
 1395.5469020201
  20
 4789.5393258436
   0
LINE
   5
2E5
 100
AcDbEntity
   8
LEVEL001
 370
13
 100
AcDbLine
   6
DOT
  62
1
  10
 2545.5469020201
  20
 1081.0393258436
  30
0.0
  11
 2469.2469020201
  21
 1081.0393258436
  31
0.0
   0
LINE
   5
2E6
 100
AcDbEntity
   8
LEVEL001
 370
13
 100
AcDbLine
   6
DOT
  62
1
  10
 2469.2469020201
  20
 1096.0393258436
  30
0.0
  11
 2545.5469020201
  21
 1096.0393258436
  31
0.0
   0
LWPOLYLINE
   5
2E7
 100
AcDbEntity
   8
LEVEL001
 370
13
   6
CONTINUOUS
  62
7
 100
AcDbPolyline
  90
4
  70
1
  10
 297.39690202006
  20
 188.53932584270
  10
 297.39690202006
  20
 5788.5393258427
  10
 8084.0637721372
  20
 5788.5393258427
  10
 8084.0637721372
  20
 188.53932584270
   0
LINE
   5
2E8
 100
AcDbEntity
   8
LEVEL001
 370
13
 100
AcDbLine
   6
CONTINUOUS
  62
1
  10
 5568.3059929291
  20
 668.53932584270
  30
0.0
  11
 7208.3059929291
  21
 668.53932584270
  31
0.0
   0
MTEXT
   5
2EA
 100
AcDbEntity
   8
LEVEL001
 370
13
  62
1
 100
AcDbMText
  10
 5739.2849666832
  20
 1432.1129335386
  30
0.0
  40
 80.000000000000
  41
0.0
  71
9
  72
1
   1
\T1.000000;１３
   7
GMM005
  44
 0.79999984000003
   0
LINE
   5
2EB
 100
AcDbEntity
   8
LEVEL001
 370
13
 100
AcDbLine
   6
CONTINUOUS
  62
6
  10
 5568.3059929291
  20
 1148.5393258427
  30
0.0
  11
 8084.0637721372
  21
 1148.5393258427
  31
0.0
   0
LINE
   5
2EC
 100
AcDbEntity
   8
LEVEL001
 370
13
 100
AcDbLine
   6
CONTINUOUS
  62
6
  10
 5568.3059929291
  20
 1278.5393258427
  30
0.0
  11
 8084.0637721372
  21
 1278.5393258427
  31
0.0
   0
LINE
   5
2ED
 100
AcDbEntity
   8
LEVEL001
 370
13
 100
AcDbLine
   6
CONTINUOUS
  62
6
  10
 5568.3059929291
  20
 1408.5393258427
  30
0.0
  11
 8084.0637721372
  21
 1408.5393258427
  31
0.0
   0
LINE
   5
2EE
 100
AcDbEntity
   8
LEVEL001
 370
13
 100
AcDbLine
   6
CONTINUOUS
  62
6
  10
 5568.3059929291
  20
 1538.5393258427
  30
0.0
  11
 8084.0637721372
  21
 1538.5393258427
  31
0.0
   0
MTEXT
   5
2F0
 100
AcDbEntity
   8
LEVEL001
 370
13
  62
1
 100
AcDbMText
  10
 5739.2849666832
  20
 1302.1129335386
  30
0.0
  40
 80.000000000000
  41
0.0
  71
9
  72
1
   1
\T1.000000;１４
   7
GMM005
  44
 0.79999984000003
   0
MTEXT
   5
2F2
 100
AcDbEntity
   8
LEVEL001
 370
13
  62
1
 100
AcDbMText
  10
 5739.2849666832
  20
 1172.1129335386
  30
0.0
  40
 80.000000000000
  41
0.0
  71
9
  72
1
   1
\T1.000000;１５
   7
GMM005
  44
 0.79999984000003
   0
LINE
   5
2F3
 100
AcDbEntity
   8
LEVEL001
 370
13
 100
AcDbLine
   6
CONTINUOUS
  62
6
  10
 5568.3059929291
  20
 1018.5393258427
  30
0.0
  11
 8084.0637721372
  21
 1018.5393258427
  31
0.0
   0
MTEXT
   5
2F5
 100
AcDbEntity
   8
LEVEL001
 370
13
  62
1
 100
AcDbMText
  10
 5818.3059929291
  20
 912.11293353858
  30
0.0
  40
 80.000000000000
  41
0.0
  71
7
  72
1
   1
\T1.000000;同上ボルトナット
   7
GMM006
  44
 0.79999984000003
   0
MTEXT
   5
2F7
 100
AcDbEntity
   8
LEVEL001
 370
13
  62
1
 100
AcDbMText
  10
 5818.3059929291
  20
 1042.1129335386
  30
0.0
  40
 80.000000000000
  41
0.0
  71
7
  72
1
   1
\T1.000000;注意板取付バンド
   7
GMM006
  44
 0.79999984000003
   0
MTEXT
   5
2F9
 100
AcDbEntity
   8
LEVEL001
 370
13
  62
1
 100
AcDbMText
  10
 6789.2849666832
  20
 1172.1129335386
  30
0.0
  40
 80.000000000000
  41
0.0
  71
9
  72
1
   1
\T1.000000;１
   7
GMM006
  44
 0.79999984000003
   0
MTEXT
   5
2FB
 100
AcDbEntity
   8
LEVEL001
 370
13
  62
1
 100
AcDbMText
  10
 5818.3059929291
  20
 1302.1129335386
  30
0.0
  40
 80.000000000000
  41
0.0
  71
7
  72
1
   1
\T1.000000;キャップ
   7
GMM006
  44
 0.79999984000003
   0
MTEXT
   5
2FD
 100
AcDbEntity
   8
LEVEL001
 370
13
  62
1
 100
AcDbMText
  10
 6789.2849666832
  20
 1302.1129335386
  30
0.0
  40
 80.000000000000
  41
0.0
  71
9
  72
1
   1
\T1.000000;１
   7
GMM006
  44
 0.79999984000003
   0
MTEXT
   5
2FF
 100
AcDbEntity
   8
LEVEL001
 370
13
  62
1
 100
AcDbMText
  10
 6868.3059929291
  20
 1302.1129335386
  30
0.0
  40
 80.000000000000
  41
0.0
  71
7
  72
1
   1
\T1.000000;ＰＥ
   7
GMM006
  44
 0.79999984000003
   0
MTEXT
   5
301
 100
AcDbEntity
   8
LEVEL001
 370
13
  62
1
 100
AcDbMText
  10
 5818.3059929291
  20
 1432.1129335386
  30
0.0
  40
 80.000000000000
  41
0.0
  71
7
  72
1
   1
\T1.000000;根入れ鉄筋
   7
GMM006
  44
 0.79999984000003
   0
MTEXT
   5
303
 100
AcDbEntity
   8
LEVEL001
 370
13
  62
1
 100
AcDbMText
  10
 5739.2849666832
  20
 1042.1129335386
  30
0.0
  40
 80.000000000000
  41
0.0
  71
9
  72
1
   1
\T1.000000;１６
   7
GMM005
  44
 0.79999984000003
   0
MTEXT
   5
305
 100
AcDbEntity
   8
LEVEL001
 370
13
  62
1
 100
AcDbMText
  10
 5739.2849666832
  20
 912.11293353858
  30
0.0
  40
 80.000000000000
  41
0.0
  71
9
  72
1
   1
\T1.000000;１７
   7
GMM005
  44
 0.79999984000003
   0
MTEXT
   5
307
 100
AcDbEntity
   8
LEVEL001
 370
13
  62
1
 100
AcDbMText
  10
 6789.2849666832
  20
 1432.1129335386
  30
0.0
  40
 80.000000000000
  41
0.0
  71
9
  72
1
   1
\T1.000000;１
   7
GMM006
  44
 0.79999984000003
   0
MTEXT
   5
309
 100
AcDbEntity
   8
LEVEL001
 370
13
  62
1
 100
AcDbMText
  10
 6868.3059929291
  20
 1432.1129335386
  30
0.0
  40
 80.000000000000
  41
0.0
  71
7
  72
1
   1
\T1.000000;ＳＤ２９５Ａ
   7
GMM006
  44
 0.79999984000003
   0
MTEXT
   5
30B
 100
AcDbEntity
   8
LEVEL001
 370
13
  62
1
 100
AcDbMText
  10
 7711.1848825332
  20
 3428.5393258427
  30
0.0
  40
 80.000000000000
  41
0.0
  71
5
  72
1
   1
\T1.000000;規格仕様
   7
GMM006
  44
 0.79999984000003
   0
LEADER
   5
30C
 100
AcDbEntity
   8
LEVEL001
 370
13
   6
CONTINUOUS
  62
6
 100
AcDbLeader
   3
GMM010
  73
0
  74
0
  75
0
  40
 66.000000000000
  41
 676.00000000000
  76
2
  10
 1689.0701196094
  20
 4349.1739649485
  30
0.0
  10
 1875.9566527857
  20
 3836.8849975358
  30
0.0
  77
6
 340
30D
 213
0.0
 223
-28.285714285714
 233
0.0
   0
MTEXT
   5
30D
 102
{ACAD_REACTORS
 330
30C
 102
}
 100
AcDbEntity
   8
LEVEL001
 370
13
  62
1
 100
AcDbMText
  10
 1875.9566527857
  20
 3865.1707118215
  30
0.0
  40
 66.000000000000
  41
0.0
  71
7
  72
1
   1
\A1;表面：超親水性コーティング
   7
GMM001
   0
MTEXT
   5
30F
 100
AcDbEntity
   8
LEVEL001
 370
13
  62
1
 100
AcDbMText
  10
 5739.2849666832
  20
 1692.1129335386
  30
0.0
  40
 80.000000000000
  41
0.0
  71
9
  72
1
   1
\T1.000000;１２
   7
GMM005
  44
 0.79999984000003
   0
MTEXT
   5
311
 100
AcDbEntity
   8
LEVEL001
 370
13
  62
1
 100
AcDbMText
  10
 5739.2849666832
  20
 1822.1129335386
  30
0.0
  40
 80.000000000000
  41
0.0
  71
9
  72
1
   1
\T1.000000;１１
   7
GMM005
  44
 0.79999984000003
   0
MTEXT
   5
313
 100
AcDbEntity
   8
LEVEL001
 370
13
  62
1
 100
AcDbMText
  10
 5739.2849666832
  20
 1952.1129335386
  30
0.0
  40
 80.000000000000
  41
0.0
  71
9
  72
1
   1
\T1.000000;１０
   7
GMM005
  44
 0.79999984000003
   0
MTEXT
   5
315
 100
AcDbEntity
   8
LEVEL001
 370
13
  62
1
 100
AcDbMText
  10
 5739.2849666832
  20
 2082.1129335386
  30
0.0
  40
 80.000000000000
  41
0.0
  71
9
  72
1
   1
\T1.000000;９
   7
GMM005
  44
 0.79999984000003
   0
MTEXT
   5
317
 100
AcDbEntity
   8
LEVEL001
 370
13
  62
1
 100
AcDbMText
  10
 5739.2849666832
  20
 2212.1129335386
  30
0.0
  40
 80.000000000000
  41
0.0
  71
9
  72
1
   1
\T1.000000;８
   7
GMM005
  44
 0.79999984000003
   0
MTEXT
   5
319
 100
AcDbEntity
   8
LEVEL001
 370
13
  62
1
 100
AcDbMText
  10
 5739.2849666832
  20
 2342.1129335386
  30
0.0
  40
 80.000000000000
  41
0.0
  71
9
  72
1
   1
\T1.000000;７
   7
GMM005
  44
 0.79999984000003
   0
MTEXT
   5
31B
 100
AcDbEntity
   8
LEVEL001
 370
13
  62
1
 100
AcDbMText
  10
 5739.2849666832
  20
 2472.1129335386
  30
0.0
  40
 80.000000000000
  41
0.0
  71
9
  72
1
   1
\T1.000000;６
   7
GMM005
  44
 0.79999984000003
   0
MTEXT
   5
31D
 100
AcDbEntity
   8
LEVEL001
 370
13
  62
1
 100
AcDbMText
  10
 5739.2849666832
  20
 2602.1129335386
  30
0.0
  40
 80.000000000000
  41
0.0
  71
9
  72
1
   1
\T1.000000;５
   7
GMM005
  44
 0.79999984000003
   0
MTEXT
   5
31F
 100
AcDbEntity
   8
LEVEL001
 370
13
  62
1
 100
AcDbMText
  10
 5739.2849666832
  20
 2732.1129335386
  30
0.0
  40
 80.000000000000
  41
0.0
  71
9
  72
1
   1
\T1.000000;４
   7
GMM005
  44
 0.79999984000003
   0
MTEXT
   5
321
 100
AcDbEntity
   8
LEVEL001
 370
13
  62
1
 100
AcDbMText
  10
 5739.2849666832
  20
 2862.1129335386
  30
0.0
  40
 80.000000000000
  41
0.0
  71
9
  72
1
   1
\T1.000000;３
   7
GMM005
  44
 0.79999984000003
   0
MTEXT
   5
323
 100
AcDbEntity
   8
LEVEL001
 370
13
  62
1
 100
AcDbMText
  10
 5818.3059929291
  20
 2862.1129335386
  30
0.0
  40
 80.000000000000
  41
0.0
  71
7
  72
1
   1
\T1.000000;フード
   7
GMM006
  44
 0.79999984000003
   0
MTEXT
   5
325
 100
AcDbEntity
   8
LEVEL001
 370
13
  62
1
 100
AcDbMText
  10
 5739.2849666832
  20
 2992.1129335386
  30
0.0
  40
 80.000000000000
  41
0.0
  71
9
  72
1
   1
\T1.000000;２
   7
GMM005
  44
 0.79999984000003
   0
MTEXT
   5
327
 100
AcDbEntity
   8
LEVEL001
 370
13
  62
1
 100
AcDbMText
  10
 5818.3059929291
  20
 2992.1129335386
  30
0.0
  40
 80.000000000000
  41
0.0
  71
7
  72
1
   1
\T1.000000;バックプレート
   7
GMM006
  44
 0.79999984000003
   0
LINE
   5
328
 100
AcDbEntity
   8
LEVEL001
 370
13
 100
AcDbLine
   6
CONTINUOUS
  62
6
  10
 5568.3059929291
  20
 1798.5393258427
  30
0.0
  11
 8084.0637721372
  21
 1798.5393258427
  31
0.0
   0
LINE
   5
329
 100
AcDbEntity
   8
LEVEL001
 370
13
 100
AcDbLine
   6
CONTINUOUS
  62
6
  10
 5568.3059929291
  20
 1928.5393258427
  30
0.0
  11
 8084.0637721372
  21
 1928.5393258427
  31
0.0
   0
LINE
   5
32A
 100
AcDbEntity
   8
LEVEL001
 370
13
 100
AcDbLine
   6
CONTINUOUS
  62
6
  10
 5568.3059929291
  20
 2058.5393258427
  30
0.0
  11
 8084.0637721372
  21
 2058.5393258427
  31
0.0
   0
LINE
   5
32B
 100
AcDbEntity
   8
LEVEL001
 370
13
 100
AcDbLine
   6
CONTINUOUS
  62
6
  10
 5568.3059929291
  20
 2188.5393258427
  30
0.0
  11
 8084.0637721372
  21
 2188.5393258427
  31
0.0
   0
LINE
   5
32C
 100
AcDbEntity
   8
LEVEL001
 370
13
 100
AcDbLine
   6
CONTINUOUS
  62
6
  10
 5568.3059929291
  20
 2318.5393258427
  30
0.0
  11
 8084.0637721372
  21
 2318.5393258427
  31
0.0
   0
LINE
   5
32D
 100
AcDbEntity
   8
LEVEL001
 370
13
 100
AcDbLine
   6
CONTINUOUS
  62
6
  10
 5568.3059929291
  20
 2448.5393258427
  30
0.0
  11
 8084.0637721372
  21
 2448.5393258427
  31
0.0
   0
LINE
   5
32E
 100
AcDbEntity
   8
LEVEL001
 370
13
 100
AcDbLine
   6
CONTINUOUS
  62
6
  10
 5568.3059929291
  20
 2578.5393258427
  30
0.0
  11
 8084.0637721372
  21
 2578.5393258427
  31
0.0
   0
LINE
   5
32F
 100
AcDbEntity
   8
LEVEL001
 370
13
 100
AcDbLine
   6
CONTINUOUS
  62
6
  10
 5568.3059929291
  20
 2708.5393258427
  30
0.0
  11
 8084.0637721372
  21
 2708.5393258427
  31
0.0
   0
LINE
   5
330
 100
AcDbEntity
   8
LEVEL001
 370
13
 100
AcDbLine
   6
CONTINUOUS
  62
6
  10
 5568.3059929291
  20
 2838.5393258427
  30
0.0
  11
 8084.0637721372
  21
 2838.5393258427
  31
0.0
   0
LINE
   5
331
 100
AcDbEntity
   8
LEVEL001
 370
13
 100
AcDbLine
   6
CONTINUOUS
  62
6
  10
 5568.3059929291
  20
 2968.5393258427
  30
0.0
  11
 8084.0637721372
  21
 2968.5393258427
  31
0.0
   0
LINE
   5
332
 100
AcDbEntity
   8
LEVEL001
 370
13
 100
AcDbLine
   6
CONTINUOUS
  62
6
  10
 5568.3059929291
  20
 3098.5393258427
  30
0.0
  11
 8084.0637721372
  21
 3098.5393258427
  31
0.0
   0
MTEXT
   5
334
 100
AcDbEntity
   8
LEVEL001
 370
13
  62
1
 100
AcDbMText
  10
 6789.2849666832
  20
 2992.1129335386
  30
0.0
  40
 80.000000000000
  41
0.0
  71
9
  72
1
   1
\T1.000000;２
   7
GMM006
  44
 0.79999984000003
   0
MTEXT
   5
336
 100
AcDbEntity
   8
LEVEL001
 370
13
  62
1
 100
AcDbMText
  10
 6789.2849666832
  20
 2862.1129335386
  30
0.0
  40
 80.000000000000
  41
0.0
  71
9
  72
1
   1
\T1.000000;２
   7
GMM006
  44
 0.79999984000003
   0
MTEXT
   5
338
 100
AcDbEntity
   8
LEVEL001
 370
13
  62
1
 100
AcDbMText
  10
 6868.3059929291
  20
 2082.1129335386
  30
0.0
  40
 80.000000000000
  41
0.0
  71
7
  72
1
   1
\T1.000000;ＳＳ４００
   7
GMM006
  44
 0.79999984000003
   0
MTEXT
   5
33A
 100
AcDbEntity
   8
LEVEL001
 370
13
  62
1
 100
AcDbMText
  10
 5818.3059929291
  20
 2082.1129335386
  30
0.0
  40
 80.000000000000
  41
0.0
  71
7
  72
1
   1
\T1.000000;金具締付ボルトナット
   7
GMM006
  44
 0.79999984000003
   0
MTEXT
   5
33C
 100
AcDbEntity
   8
LEVEL001
 370
13
  62
1
 100
AcDbMText
  10
 6868.3059929291
  20
 2212.1129335386
  30
0.0
  40
 80.000000000000
  41
0.0
  71
7
  72
1
   1
\T1.000000;ＳＳ４００
   7
GMM006
  44
 0.79999984000003
   0
MTEXT
   5
33E
 100
AcDbEntity
   8
LEVEL001
 370
13
  62
1
 100
AcDbMText
  10
 5818.3059929291
  20
 2212.1129335386
  30
0.0
  40
 80.000000000000
  41
0.0
  71
7
  72
1
   1
\T1.000000;裏板金具取付ボルト
   7
GMM006
  44
 0.79999984000003
   0
MTEXT
   5
340
 100
AcDbEntity
   8
LEVEL001
 370
13
  62
1
 100
AcDbMText
  10
 6868.3059929291
  20
 2342.1129335386
  30
0.0
  40
 80.000000000000
  41
0.0
  71
7
  72
1
   1
\T1.000000;ＳＳ４００
   7
GMM006
  44
 0.79999984000003
   0
MTEXT
   5
342
 100
AcDbEntity
   8
LEVEL001
 370
13
  62
1
 100
AcDbMText
  10
 5818.3059929291
  20
 2342.1129335386
  30
0.0
  40
 80.000000000000
  41
0.0
  71
7
  72
1
   1
\T1.000000;支柱取付金具
   7
GMM006
  44
 0.79999984000003
   0
MTEXT
   5
344
 100
AcDbEntity
   8
LEVEL001
 370
13
  62
1
 100
AcDbMText
  10
 5818.3059929291
  20
 2472.1129335386
  30
0.0
  40
 80.000000000000
  41
0.0
  71
7
  72
1
   1
\T1.000000;裏板取付金具
   7
GMM006
  44
 0.79999984000003
   0
MTEXT
   5
346
 100
AcDbEntity
   8
LEVEL001
 370
13
  62
1
 100
AcDbMText
  10
 6868.3059929291
  20
 2472.1129335386
  30
0.0
  40
 80.000000000000
  41
0.0
  71
7
  72
1
   1
\T1.000000;ＳＳ４００
   7
GMM006
  44
 0.79999984000003
   0
MTEXT
   5
348
 100
AcDbEntity
   8
LEVEL001
 370
13
  62
1
 100
AcDbMText
  10
 6789.2849666832
  20
 2212.1129335386
  30
0.0
  40
 80.000000000000
  41
0.0
  71
9
  72
1
   1
\T1.000000;８
   7
GMM006
  44
 0.79999984000003
   0
MTEXT
   5
34A
 100
AcDbEntity
   8
LEVEL001
 370
13
  62
1
 100
AcDbMText
  10
 5818.3059929291
  20
 1692.1129335386
  30
0.0
  40
 80.000000000000
  41
0.0
  71
7
  72
1
   1
\T1.000000;支柱
   7
GMM006
  44
 0.79999984000003
   0
MTEXT
   5
34C
 100
AcDbEntity
   8
LEVEL001
 370
13
  62
1
 100
AcDbMText
  10
 6789.2849666832
  20
 1692.1129335386
  30
0.0
  40
 80.000000000000
  41
0.0
  71
9
  72
1
   1
\T1.000000;１
   7
GMM006
  44
 0.79999984000003
   0
MTEXT
   5
34E
 100
AcDbEntity
   8
LEVEL001
 370
13
  62
1
 100
AcDbMText
  10
 6868.3059929291
  20
 1692.1129335386
  30
0.0
  40
 80.000000000000
  41
0.0
  71
7
  72
1
   1
\T1.000000;ＳＴＫ４００
   7
GMM006
  44
 0.79999984000003
   0
MTEXT
   5
350
 100
AcDbEntity
   8
LEVEL001
 370
13
  62
1
 100
AcDbMText
  10
 5818.3059929291
  20
 1822.1129335386
  30
0.0
  40
 80.000000000000
  41
0.0
  71
7
  72
1
   1
\T1.000000;同上ボルトナット
   7
GMM006
  44
 0.79999984000003
   0
MTEXT
   5
352
 100
AcDbEntity
   8
LEVEL001
 370
13
  62
1
 100
AcDbMText
  10
 6868.3059929291
  20
 1952.1129335386
  30
0.0
  40
 80.000000000000
  41
0.0
  71
7
  72
1
   1
\T1.000000;ＳＳ４００
   7
GMM006
  44
 0.79999984000003
   0
MTEXT
   5
354
 100
AcDbEntity
   8
LEVEL001
 370
13
  62
1
 100
AcDbMText
  10
 6868.3059929291
  20
 1822.1129335386
  30
0.0
  40
 80.000000000000
  41
0.0
  71
7
  72
1
   1
\T1.000000;ＳＳ４００
   7
GMM006
  44
 0.79999984000003
   0
MTEXT
   5
356
 100
AcDbEntity
   8
LEVEL001
 370
13
  62
1
 100
AcDbMText
  10
 5818.3059929291
  20
 1952.1129335386
  30
0.0
  40
 80.000000000000
  41
0.0
  71
7
  72
1
   1
\T1.000000;二面鏡用取付腕木
   7
GMM006
  44
 0.79999984000003
   0
MTEXT
   5
358
 100
AcDbEntity
   8
LEVEL001
 370
13
  62
1
 100
AcDbMText
  10
 6789.2849666832
  20
 2082.1129335386
  30
0.0
  40
 80.000000000000
  41
0.0
  71
9
  72
1
   1
\T1.000000;８
   7
GMM006
  44
 0.79999984000003
   0
MTEXT
   5
35A
 100
AcDbEntity
   8
LEVEL001
 370
13
  62
1
 100
AcDbMText
  10
 6789.2849666832
  20
 2732.1129335386
  30
0.0
  40
 80.000000000000
  41
0.0
  71
9
  72
1
   1
\T1.000000;２
   7
GMM006
  44
 0.79999984000003
   0
MTEXT
   5
35C
 100
AcDbEntity
   8
LEVEL001
 370
13
  62
1
 100
AcDbMText
  10
 5818.3059929291
  20
 2732.1129335386
  30
0.0
  40
 80.000000000000
  41
0.0
  71
7
  72
1
   1
\T1.000000;取付枠
   7
GMM006
  44
 0.79999984000003
   0
MTEXT
   5
35E
 100
AcDbEntity
   8
LEVEL001
 370
13
  62
1
 100
AcDbMText
  10
 5818.3059929291
  20
 2602.1129335386
  30
0.0
  40
 80.000000000000
  41
0.0
  71
7
  72
1
   1
\T1.000000;取付枠取付リベット
   7
GMM006
  44
 0.79999984000003
   0
MTEXT
   5
360
 100
AcDbEntity
   8
LEVEL001
 370
13
  62
1
 100
AcDbMText
  10
 6868.3059929291
  20
 2992.1129335386
  30
0.0
  40
 80.000000000000
  41
0.0
  71
7
  72
1
   1
\T1.000000;ＦＲＰ
   7
GMM006
  44
 0.79999984000003
   0
MTEXT
   5
362
 100
AcDbEntity
   8
LEVEL001
 370
13
  62
1
 100
AcDbMText
  10
 6868.3059929291
  20
 2862.1129335386
  30
0.0
  40
 80.000000000000
  41
0.0
  71
7
  72
1
   1
\T1.000000;ＰＣ
   7
GMM006
  44
 0.79999984000003
   0
MTEXT
   5
364
 100
AcDbEntity
   8
LEVEL001
 370
13
  62
1
 100
AcDbMText
  10
 6868.3059929291
  20
 2732.1129335386
  30
0.0
  40
 80.000000000000
  41
0.0
  71
7
  72
1
   1
\T1.000000;アルミニウム
   7
GMM006
  44
 0.79999984000003
   0
MTEXT
   5
366
 100
AcDbEntity
   8
LEVEL001
 370
13
  62
1
 100
AcDbMText
  10
 6868.3059929291
  20
 2602.1129335386
  30
0.0
  40
 80.000000000000
  41
0.0
  71
7
  72
1
   1
\T1.000000;アルミニウム
   7
GMM006
  44
 0.79999984000003
   0
MTEXT
   5
368
 100
AcDbEntity
   8
LEVEL001
 370
13
  62
1
 100
AcDbMText
  10
 6789.2849666832
  20
 2602.1129335386
  30
0.0
  40
 80.000000000000
  41
0.0
  71
9
  72
1
   1
\T1.000000;１４
   7
GMM006
  44
 0.79999984000003
   0
MTEXT
   5
36A
 100
AcDbEntity
   8
LEVEL001
 370
13
  62
1
 100
AcDbMText
  10
 6789.2849666832
  20
 2472.1129335386
  30
0.0
  40
 80.000000000000
  41
0.0
  71
9
  72
1
   1
\T1.000000;２
   7
GMM006
  44
 0.79999984000003
   0
MTEXT
   5
36C
 100
AcDbEntity
   8
LEVEL001
 370
13
  62
1
 100
AcDbMText
  10
 6789.2849666832
  20
 2342.1129335386
  30
0.0
  40
 80.000000000000
  41
0.0
  71
9
  72
1
   1
\T1.000000;２
   7
GMM006
  44
 0.79999984000003
   0
MTEXT
   5
36E
 100
AcDbEntity
   8
LEVEL001
 370
13
  62
1
 100
AcDbMText
  10
 6789.2849666832
  20
 1952.1129335386
  30
0.0
  40
 80.000000000000
  41
0.0
  71
9
  72
1
   1
\T1.000000;１
   7
GMM006
  44
 0.79999984000003
   0
MTEXT
   5
370
 100
AcDbEntity
   8
LEVEL001
 370
13
  62
1
 100
AcDbMText
  10
 6789.2849666832
  20
 1822.1129335386
  30
0.0
  40
 80.000000000000
  41
0.0
  71
9
  72
1
   1
\T1.000000;４
   7
GMM006
  44
 0.79999984000003
   0
MTEXT
   5
372
 100
AcDbEntity
   8
LEVEL001
 370
13
  62
1
 100
AcDbMText
  10
 5739.2849666832
  20
 3382.1129335386
  30
0.0
  40
 80.000000000000
  41
0.0
  71
9
  72
1
   1
\T1.000000;１
   7
GMM005
  44
 0.79999984000003
   0
MTEXT
   5
374
 100
AcDbEntity
   8
LEVEL001
 370
13
  62
1
 100
AcDbMText
  10
 5818.3059929291
  20
 3382.1129335386
  30
0.0
  40
 80.000000000000
  41
0.0
  71
7
  72
1
   1
\T1.000000;鏡面　Ｒ＝２２００
   7
GMM006
  44
 0.79999984000003
   0
MTEXT
   5
376
 100
AcDbEntity
   8
LEVEL001
 370
13
  62
1
 100
AcDbMText
  10
 6718.3059929291
  20
 3558.5393258427
  30
0.0
  40
 80.000000000000
  41
0.0
  71
5
  72
1
   1
\T1.000000;個数
   7
GMM006
  44
 0.79999984000003
   0
MTEXT
   5
378
 100
AcDbEntity
   8
LEVEL001
 370
13
  62
1
 100
AcDbMText
  10
 6193.3059929291
  20
 3558.5393258427
  30
0.0
  40
 80.000000000000
  41
0.0
  71
5
  72
1
   1
\T1.000000;名　　称
   7
GMM006
  44
 0.79999984000003
   0
LINE
   5
379
 100
AcDbEntity
   8
LEVEL001
 370
13
 100
AcDbLine
   6
CONTINUOUS
  62
6
  10
 5568.3059929291
  20
 3488.5393258427
  30
0.0
  11
 8084.0637721372
  21
 3488.5393258427
  31
0.0
   0
LINE
   5
37A
 100
AcDbEntity
   8
LEVEL001
 370
13
 100
AcDbLine
   6
CONTINUOUS
  62
6
  10
 5568.3059929291
  20
 3628.5393258427
  30
0.0
  11
 8084.0637721372
  21
 3628.5393258427
  31
0.0
   0
LINE
   5
37B
 100
AcDbEntity
   8
LEVEL001
 370
13
 100
AcDbLine
   6
CONTINUOUS
  62
6
  10
 5568.3059929291
  20
 3928.5393258427
  30
0.0
  11
 8084.0637721372
  21
 3928.5393258427
  31
0.0
   0
MTEXT
   5
37D
 100
AcDbEntity
   8
LEVEL001
 370
13
  62
1
 100
AcDbMText
  10
 5733.7338504048
  20
 3670.6938656020
  30
0.0
  40
 80.000000000000
  41
0.0
  71
7
  72
1
   1
%%c\T1.000000;６００（ダブル）
   7
GMM002
  44
 0.79999984000003
   0
MTEXT
   5
37F
 100
AcDbEntity
   8
LEVEL001
 370
13
  62
1
 100
AcDbMText
  10
 6789.2849666832
  20
 3382.1129335386
  30
0.0
  40
 80.000000000000
  41
0.0
  71
9
  72
1
   1
\T1.000000;２
   7
GMM006
  44
 0.79999984000003
   0
MTEXT
   5
381
 100
AcDbEntity
   8
LEVEL001
 370
13
  62
1
 100
AcDbMText
  10
 6868.3059929291
  20
 3382.1129335386
  30
0.0
  40
 80.000000000000
  41
0.0
  71
4
  72
1
   1
{\W0.900000;\T1.000000;ＰＭＭＡ}\P{\W0.450000;\T1.000000;(\W0.900000;\T1.000000;アクリル\W0.450000;\T1.000000;)}
   7
GMM006
  44
 0.79999984000003
   0
MTEXT
   5
383
 100
AcDbEntity
   8
LEVEL001
 370
13
  62
1
 100
AcDbMText
  10
 5733.7338504048
  20
 3808.0461564305
  30
0.0
  40
 80.000000000000
  41
0.0
  71
7
  72
1
   1
\T1.000000;アクリーン＜Ｆタイプ＞
   7
GMM002
  44
 0.79999984000003
   0
MTEXT
   5
385
 100
AcDbEntity
   8
LEVEL001
 370
13
  62
1
 100
AcDbMText
  10
 7388.3059929291
  20
 2082.1129335386
  30
0.0
  40
 80.000000000000
  41
0.0
  71
7
  72
1
   1
\T1.000000;溶融亜鉛メッキ
   7
GMM006
  44
 0.79999984000003
   0
MTEXT
   5
387
 100
AcDbEntity
   8
LEVEL001
 370
13
  62
1
 100
AcDbMText
  10
 7388.3059929291
  20
 2212.1129335386
  30
0.0
  40
 80.000000000000
  41
0.0
  71
7
  72
1
   1
\T1.000000;溶融亜鉛メッキ
   7
GMM006
  44
 0.79999984000003
   0
MTEXT
   5
389
 100
AcDbEntity
   8
LEVEL001
 370
13
  62
1
 100
AcDbMText
  10
 7388.3059929291
  20
 2342.1129335386
  30
0.0
  40
 80.000000000000
  41
0.0
  71
7
  72
1
   1
\T1.000000;溶融亜鉛メッキ
   7
GMM006
  44
 0.79999984000003
   0
MTEXT
   5
38B
 100
AcDbEntity
   8
LEVEL001
 370
13
  62
1
 100
AcDbMText
  10
 7388.3059929291
  20
 2472.1129335386
  30
0.0
  40
 80.000000000000
  41
0.0
  71
7
  72
1
   1
\T1.000000;溶融亜鉛メッキ
   7
GMM006
  44
 0.79999984000003
   0
MTEXT
   5
38D
 100
AcDbEntity
   8
LEVEL001
 370
13
  62
1
 100
AcDbMText
  10
 7388.3059929291
  20
 1692.1129335386
  30
0.0
  40
 80.000000000000
  41
0.0
  71
7
  72
1
   1
\T1.000000;静電粉体塗装
   7
GMM006
  44
 0.79999984000003
   0
MTEXT
   5
38F
 100
AcDbEntity
   8
LEVEL001
 370
13
  62
1
 100
AcDbMText
  10
 7388.3059929291
  20
 1952.1129335386
  30
0.0
  40
 80.000000000000
  41
0.0
  71
7
  72
1
   1
\T1.000000;溶融亜鉛メッキ
   7
GMM006
  44
 0.79999984000003
   0
MTEXT
   5
391
 100
AcDbEntity
   8
LEVEL001
 370
13
  62
1
 100
AcDbMText
  10
 7388.3059929291
  20
 1822.1129335386
  30
0.0
  40
 80.000000000000
  41
0.0
  71
7
  72
1
   1
\T1.000000;溶融亜鉛メッキ
   7
GMM006
  44
 0.79999984000003
   0
MTEXT
   5
393
 100
AcDbEntity
   8
LEVEL001
 370
13
  62
1
 100
AcDbMText
  10
 7388.3059929291
  20
 2992.1129335386
  30
0.0
  40
 80.000000000000
  41
0.0
  71
7
  72
1
   1
\T1.000000;ＳＭＣ成型
   7
GMM006
  44
 0.79999984000003
   0
MTEXT
   5
395
 100
AcDbEntity
   8
LEVEL001
 370
13
  62
1
 100
AcDbMText
  10
 7388.3059929291
  20
 3462.1129335386
  30
0.0
  40
 80.000000000000
  41
0.0
  71
1
  72
1
   1
{\W0.325000;\T1.000000;t=3.0mm}\P{\W0.650000;\T1.000000;裏面：真空蒸着}\P{\W0.650000;\T1.000000;表面：超親水性コーティング}
   7
GMM007
  44
 0.79999984000003
   0
MTEXT
   5
397
 100
AcDbEntity
   8
LEVEL001
 370
13
  62
1
 100
AcDbMText
  10
 7078.3059929291
  20
 3558.5393258427
  30
0.0
  40
 80.000000000000
  41
0.0
  71
5
  72
1
   1
\T1.000000;材　　質
   7
GMM006
  44
 0.79999984000003
   0
MTEXT
   5
399
 100
AcDbEntity
   8
LEVEL001
 370
13
  62
1
 100
AcDbMText
  10
 6789.2849666832
  20
 1042.1129335386
  30
0.0
  40
 80.000000000000
  41
0.0
  71
9
  72
1
   1
\T1.000000;１式
   7
GMM006
  44
 0.79999984000003
   0
MTEXT
   5
39B
 100
AcDbEntity
   8
LEVEL001
 370
13
  62
1
 100
AcDbMText
  10
 6789.2849666832
  20
 912.11293353858
  30
0.0
  40
 80.000000000000
  41
0.0
  71
9
  72
1
   1
\T1.000000;１式
   7
GMM006
  44
 0.79999984000003
   0
MTEXT
   5
39D
 100
AcDbEntity
   8
LEVEL001
 370
13
  62
1
 100
AcDbMText
  10
 6868.3059929291
  20
 1042.1129335386
  30
0.0
  40
 80.000000000000
  41
0.0
  71
7
  72
1
   1
\T1.000000;―
   7
GMM006
  44
 0.79999984000003
   0
MTEXT
   5
39F
 100
AcDbEntity
   8
LEVEL001
 370
13
  62
1
 100
AcDbMText
  10
 6868.3059929291
  20
 1172.1129335386
  30
0.0
  40
 80.000000000000
  41
0.0
  71
7
  72
1
   1
\T1.000000;―
   7
GMM006
  44
 0.79999984000003
   0
MTEXT
   5
3A1
 100
AcDbEntity
   8
LEVEL001
 370
13
  62
1
 100
AcDbMText
  10
 6868.3059929291
  20
 912.11293353858
  30
0.0
  40
 80.000000000000
  41
0.0
  71
7
  72
1
   1
\T1.000000;―
   7
GMM006
  44
 0.79999984000003
   0
MTEXT
   5
3A3
 100
AcDbEntity
   8
LEVEL001
 370
13
  62
1
 100
AcDbMText
  10
 7368.3059929291
  20
 912.11293353858
  30
0.0
  40
 80.000000000000
  41
0.0
  71
7
  72
1
   1
\T1.000000;―
   7
GMM006
  44
 0.79999984000003
   0
MTEXT
   5
3A5
 100
AcDbEntity
   8
LEVEL001
 370
13
  62
1
 100
AcDbMText
  10
 7368.3059929291
  20
 1042.1129335386
  30
0.0
  40
 80.000000000000
  41
0.0
  71
7
  72
1
   1
\T1.000000;―
   7
GMM006
  44
 0.79999984000003
   0
MTEXT
   5
3A7
 100
AcDbEntity
   8
LEVEL001
 370
13
  62
1
 100
AcDbMText
  10
 7368.3059929291
  20
 1172.1129335386
  30
0.0
  40
 80.000000000000
  41
0.0
  71
7
  72
1
   1
\T1.000000;―
   7
GMM006
  44
 0.79999984000003
   0
LINE
   5
3A8
 100
AcDbEntity
   8
LEVEL001
 370
13
 100
AcDbLine
   6
CONTINUOUS
  62
6
  10
 6818.3059929291
  20
 3628.5393258427
  30
0.0
  11
 6818.3059929291
  21
 888.53932584270
  31
0.0
   0
LINE
   5
3A9
 100
AcDbEntity
   8
LEVEL001
 370
13
 100
AcDbLine
   6
CONTINUOUS
  62
6
  10
 7338.3059929291
  20
 3628.5393258427
  30
0.0
  11
 7338.3059929291
  21
 888.53932584270
  31
0.0
   0
MTEXT
   5
3AB
 100
AcDbEntity
   8
LEVEL001
 370
13
  62
1
 100
AcDbMText
  10
 7368.3059929291
  20
 1605.4056301727
  30
0.0
  40
 44.000000000000
  41
0.0
  71
4
  72
1
   1
{\T1.000000;下地亜鉛メッキ}\P{\T1.000000;＋静電粉体塗装}
   7
GMM008
  44
 0.79999984000003
   0
MTEXT
   5
3AD
 100
AcDbEntity
   8
LEVEL001
 370
13
  62
1
 100
AcDbMText
  10
 6868.3059929291
  20
 1562.1129335386
  30
0.0
  40
 80.000000000000
  41
0.0
  71
7
  72
1
   1
\T1.000000;ＳＴＫ４００
   7
GMM006
  44
 0.79999984000003
   0
MTEXT
   5
3AF
 100
AcDbEntity
   8
LEVEL001
 370
13
  62
1
 100
AcDbMText
  10
 6789.2849666832
  20
 1562.1129335386
  30
0.0
  40
 80.000000000000
  41
0.0
  71
9
  72
1
   1
\T1.000000;１
   7
GMM006
  44
 0.79999984000003
   0
LINE
   5
3B0
 100
AcDbEntity
   8
LEVEL001
 370
13
 100
AcDbLine
   6
CONTINUOUS
  62
6
  10
 6618.3059929291
  20
 1668.5393258427
  30
0.0
  11
 8084.0637721372
  21
 1668.5393258427
  31
0.0
   0
LINE
   5
3B1
 100
AcDbEntity
   8
LEVEL001
 370
13
 100
AcDbLine
   6
CONTINUOUS
  62
6
  10
 5568.3059929291
  20
 3928.5393258427
  30
0.0
  11
 5568.3059929291
  21
 888.53932584270
  31
0.0
   0
LINE
   5
3B2
 100
AcDbEntity
   8
LEVEL001
 370
13
 100
AcDbLine
   6
CONTINUOUS
  62
6
  10
 5768.3059929291
  20
 3628.5393258427
  30
0.0
  11
 5768.3059929291
  21
 888.53932584270
  31
0.0
   0
LINE
   5
3B3
 100
AcDbEntity
   8
LEVEL001
 370
13
 100
AcDbLine
   6
CONTINUOUS
  62
6
  10
 6618.3059929291
  20
 3628.5393258427
  30
0.0
  11
 6618.3059929291
  21
 888.53932584270
  31
0.0
   0
MTEXT
   5
3B5
 100
AcDbEntity
   8
LEVEL001
 370
13
  62
1
 100
AcDbMText
  10
 5624.7122255854
  20
 4172.8506811541
  30
0.0
  40
 80.000000000000
  41
0.0
  71
4
  72
1
   1
{\T1.000000;※構成部材は改良のため、変更する場合があります。}\P{\T1.000000;※本図は道路反射鏡ハンドブックに基づいています。}
   7
GMM006
  44
 0.94999981000004
   0
LINE
   5
3B6
 100
AcDbEntity
   8
LEVEL001
 370
13
 100
AcDbLine
   6
CONTINUOUS
  62
6
  10
 8084.0637721372
  20
 3928.5393258427
  30
0.0
  11
 8084.0637721372
  21
 888.53932584270
  31
0.0
   0
MTEXT
   5
3B8
 100
AcDbEntity
   8
LEVEL001
 370
13
  62
1
 100
AcDbMText
  10
 5818.3059929291
  20
 1172.1129335386
  30
0.0
  40
 80.000000000000
  41
0.0
  71
7
  72
1
   1
\T1.000000;注意板
   7
GMM006
  44
 0.79999984000003
   0
MTEXT
   5
3BA
 100
AcDbEntity
   8
LEVEL001
 370
13
  62
1
 100
AcDbMText
  10
 6388.3059929291
  20
 733.71942548185
  30
0.0
  40
 66.000000000000
  41
0.0
  71
5
  72
1
   1
\T1.000000;ＭＦ０６０ＷＣＰ
   7
GMM001
  44
 0.79999984000003
   0
MTEXT
   5
3BB
 100
AcDbEntity
   8
LEVEL001
 370
13
  62
1
 100
AcDbMText
  10
 5591.2323998556
  20
 832.32429608079
  30
0.0
  40
 37.142860000000
  41
0.0
  71
7
  72
1
   1
\T1.269231;図面番号
   7
GMM009
  44
 0.79999984000003
   0
MTEXT
   5
3BD
 100
AcDbEntity
   8
LEVEL001
 370
13
  62
1
 100
AcDbMText
  10
 1702.0562300116
  20
 2950.0267788433
  30
0.0
  40
 66.000000000000
  41
0.0
  71
1
  72
1
   1
{\W0.787879;\T1.000000;支柱}\P%%c{\W0.787879;\T1.000000;７６\W0.393939;\T1.000000;.\W0.787879;\T1.000000;３ｘ３\W0.393939;\T1.000000;.\W0.787879;\T1.000000;２ｔ}\P{\W0.787879;\T1.000000;ｘ４０００Ｌ}
   7
GMM001
  44
 0.79999984000003
   0
LINE
   5
3BE
 100
AcDbEntity
   8
LEVEL001
 370
13
 100
AcDbLine
   6
CONTINUOUS
  62
6
  10
 8084.0637721372
  20
 888.53932584270
  30
0.0
  11
 5568.3059929291
  21
 888.53932584270
  31
0.0
   0
ENDSEC
  0
SECTION
  2
OBJECTS
  0
DICTIONARY
  5
C
100
AcDbDictionary
  3
ACAD_GROUP
350
D
  3
ACAD_MLINESTYLE
350
1B
  3
DWGPROPS
350
1C
  0
DICTIONARY
  5
D
102
{ACAD_REACTORS
330
C
102
}
100
AcDbDictionary
  0
DICTIONARY
  5
1B
102
{ACAD_REACTORS
330
C
102
}
100
AcDbDictionary
  3
STANDARD
350
1D
  0
MLINESTYLE
  5
1D
102
{ACAD_REACTORS
330
1B
102
}
100
AcDbMlineStyle
  2
STANDARD
 70
     0
  3

 62
   256
 51
90.0
 52
90.0
 71
     2
 49
0.5
 62
   256
  6
BYLAYER
 49
-0.5
 62
   256
  6
BYLAYER
   0
XRECORD
   5
1C
 102
{ACAD_REACTORS
 330
C
 102
}
 330
C
 100
AcDbXrecord
 280
1
   1
DWGPROPS COOKIE
   2
 
   3
 
   4
 
   6
 
   7
MF060WCP
   8
 
   9

 300
 = 
 301
 = 
 302
 = 
 303
 = 
 304
 = 
 305
 = 
 306
 = 
 307
 = 
 308
 = 
 309
 = 
  40
0.0
  41
 2460327.5000000
  42
 2460327.5000000
   1

  90
10
   0
ENDSEC
   0
EOF
