   0
SECTION
   2
HEADER
   9
$ACADVER
   1
AC1015
   9
$DWGCODEPAGE
   3
ANSI_932
   9
$LIMMIN
  10
0.0
  20
0.0
   9
$LIMMAX
  10
 8400.0000000000
  20
 5940.0000000000
   9
$EXTMIN
  10
0.0
  20
0.0
  30
0.0
   9
$EXTMAX
  10
 8400.0000000000
  20
 5940.0000000000
  30
0.0
   9
$LTSCALE
  40
 168.00000000000
   9
$HANDSEED
   5
322
   0
ENDSEC
   0
SECTION
   2
TABLES
  0
TABLE
  2
VPORT
  5
8
100
AcDbSymbolTable
 70
     1
  0
VPORT
  5
321
100
AcDbSymbolTableRecord
100
AcDbViewportTableRecord
  2
*ACTIVE
 70
     0
 10
0.0
 20
0.0
 11
1.0
 21
1.0
  12
 4200.0000000000
  22
 2970.0000000000
 13
0.0
 23
0.0
 14
1.0
 24
1.0
 15
0.0
 25
0.0
 16
0.0
 26
0.0
 36
1.0
 17
0.0
 27
0.0
 37
0.0
  40
 8400.0000000000
  41
 1.4787878787879
 42
50.0
 43
0.0
 44
0.0
 50
0.0
 51
0.0
 71
     0
 72
   100
 73
     1
 74
     1
 75
     0
 76
     0
 77
     0
 78
     0
  0
ENDTAB
  0
TABLE
  2
LTYPE
  5
5
100
AcDbSymbolTable
 70
    25
  0
LTYPE
  5
12
100
AcDbSymbolTableRecord
100
AcDbLinetypeTableRecord
  2
BYBLOCK
 70
     0
  3

 72
    65
 73
     0
 40
0.0
  0
LTYPE
  5
13
100
AcDbSymbolTableRecord
100
AcDbLinetypeTableRecord
  2
BYLAYER
 70
     0
  3

 72
    65
 73
     0
 40
0.0
  0
LTYPE
  5
14
100
AcDbSymbolTableRecord
100
AcDbLinetypeTableRecord
  2
CONTINUOUS
 70
     0
  3
Solid line
 72
    65
 73
     0
 40
0.0
  0
LTYPE
  5
20
100
AcDbSymbolTableRecord
100
AcDbLinetypeTableRecord
  2
BORDER
 70
     0
  3
__ __ . __ __ . __ __ . __ __ . __ __ . __ __ .
 72
    65
 73
     6
 40
1.75
 49
0.5
 74
     0
 49
-0.25
 74
     0
 49
0.5
 74
     0
 49
-0.25
 74
     0
 49
0.0
 74
     0
 49
-0.25
 74
     0
  0
LTYPE
  5
21
100
AcDbSymbolTableRecord
100
AcDbLinetypeTableRecord
  2
BORDER2
 70
     0
  3
__.__.__.__.__.__.__.__.__.__.__.__.__.__.__.__
 72
    65
 73
     6
 40
0.875
 49
0.25
 74
     0
 49
-0.125
 74
     0
 49
0.25
 74
     0
 49
-0.125
 74
     0
 49
0.0
 74
     0
 49
-0.125
 74
     0
  0
LTYPE
  5
22
100
AcDbSymbolTableRecord
100
AcDbLinetypeTableRecord
  2
BORDERX2
 70
     0
  3
____  ____  .  ____  ____  .  ____  ____  .  __
 72
    65
 73
     6
 40
3.5
 49
1.0
 74
     0
 49
-0.5
 74
     0
 49
1.0
 74
     0
 49
-0.5
 74
     0
 49
0.0
 74
     0
 49
-0.5
 74
     0
  0
LTYPE
  5
23
100
AcDbSymbolTableRecord
100
AcDbLinetypeTableRecord
  2
CENTER
 70
     0
  3
____ _ ____ _ ____ _ ____ _ ____ _ ____ _ ____ 
 72
    65
 73
     4
 40
2.0
 49
1.25
 74
     0
 49
-0.25
 74
     0
 49
0.25
 74
     0
 49
-0.25
 74
     0
  0
LTYPE
  5
24
100
AcDbSymbolTableRecord
100
AcDbLinetypeTableRecord
  2
CENTER2
 70
     0
  3
___ _ ___ _ ___ _ ___ _ ___ _ ___ _ ___ _ ___ _
 72
    65
 73
     4
 40
1.125
 49
0.75
 74
     0
 49
-0.125
 74
     0
 49
0.125
 74
     0
 49
-0.125
 74
     0
  0
LTYPE
  5
25
100
AcDbSymbolTableRecord
100
AcDbLinetypeTableRecord
  2
CENTERX2
 70
     0
  3
________  __  ________  __  ________  __  _____
 72
    65
 73
     4
 40
4.0
 49
2.5
 74
     0
 49
-0.5
 74
     0
 49
0.5
 74
     0
 49
-0.5
 74
     0
  0
LTYPE
  5
26
100
AcDbSymbolTableRecord
100
AcDbLinetypeTableRecord
  2
DASHDOT
 70
     0
  3
__ . __ . __ . __ . __ . __ . __ . __ . __ . __
 72
    65
 73
     4
 40
1.0
 49
0.5
 74
     0
 49
-0.25
 74
     0
 49
0.0
 74
     0
 49
-0.25
 74
     0
  0
LTYPE
  5
27
100
AcDbSymbolTableRecord
100
AcDbLinetypeTableRecord
  2
DASHDOT2
 70
     0
  3
_._._._._._._._._._._._._._._._._._._._._._._._
 72
    65
 73
     4
 40
0.5
 49
0.25
 74
     0
 49
-0.125
 74
     0
 49
0.0
 74
     0
 49
-0.125
 74
     0
  0
LTYPE
  5
28
100
AcDbSymbolTableRecord
100
AcDbLinetypeTableRecord
  2
DASHDOTX2
 70
     0
  3
____  .  ____  .  ____  .  ____  .  ____  .  __
 72
    65
 73
     4
 40
2.0
 49
1.0
 74
     0
 49
-0.5
 74
     0
 49
0.0
 74
     0
 49
-0.5
 74
     0
  0
LTYPE
  5
29
100
AcDbSymbolTableRecord
100
AcDbLinetypeTableRecord
  2
DASHED
 70
     0
  3
__ __ __ __ __ __ __ __ __ __ __ __ __ __ __ __
 72
    65
 73
     2
 40
0.75
 49
0.5
 74
     0
 49
-0.25
 74
     0
  0
LTYPE
  5
2A
100
AcDbSymbolTableRecord
100
AcDbLinetypeTableRecord
  2
DASHED2
 70
     0
  3
_ _ _ _ _ _ _ _ _ _ _ _ _ _ _ _ _ _ _ _ _ _ _ _
 72
    65
 73
     2
 40
0.375
 49
0.25
 74
     0
 49
-0.125
 74
     0
  0
LTYPE
  5
2B
100
AcDbSymbolTableRecord
100
AcDbLinetypeTableRecord
  2
DASHEDX2
 70
     0
  3
____  ____  ____  ____  ____  ____  ____  ____ 
 72
    65
 73
     2
 40
1.5
 49
1.0
 74
     0
 49
-0.5
 74
     0
  0
LTYPE
  5
2C
100
AcDbSymbolTableRecord
100
AcDbLinetypeTableRecord
  2
DIVIDE
 70
     0
  3
____ . . ____ . . ____ . . ____ . . ____ . . __
 72
    65
 73
     6
 40
1.25
 49
0.5
 74
     0
 49
-0.25
 74
     0
 49
0.0
 74
     0
 49
-0.25
 74
     0
 49
0.0
 74
     0
 49
-0.25
 74
     0
  0
LTYPE
  5
2D
100
AcDbSymbolTableRecord
100
AcDbLinetypeTableRecord
  2
DIVIDE2
 70
     0
  3
__..__..__..__..__..__..__..__..__..__..__..__.
 72
    65
 73
     6
 40
0.625
 49
0.25
 74
     0
 49
-0.125
 74
     0
 49
0.0
 74
     0
 49
-0.125
 74
     0
 49
0.0
 74
     0
 49
-0.125
 74
     0
  0
LTYPE
  5
2E
100
AcDbSymbolTableRecord
100
AcDbLinetypeTableRecord
  2
DIVIDEX2
 70
     0
  3
________  .  .  ________  .  .  ________  .  . 
 72
    65
 73
     6
 40
2.5
 49
1.0
 74
     0
 49
-0.5
 74
     0
 49
0.0
 74
     0
 49
-0.5
 74
     0
 49
0.0
 74
     0
 49
-0.5
 74
     0
  0
LTYPE
  5
2F
100
AcDbSymbolTableRecord
100
AcDbLinetypeTableRecord
  2
DOT
 70
     0
  3
. . . . . . . . . . . . . . . . . . . . . . . .
 72
    65
 73
     2
 40
0.25
 49
0.0
 74
     0
 49
-0.25
 74
     0
  0
LTYPE
  5
30
100
AcDbSymbolTableRecord
100
AcDbLinetypeTableRecord
  2
DOT2
 70
     0
  3
...............................................
 72
    65
 73
     2
 40
0.125
 49
0.0
 74
     0
 49
-0.125
 74
     0
  0
LTYPE
  5
31
100
AcDbSymbolTableRecord
100
AcDbLinetypeTableRecord
  2
DOTX2
 70
     0
  3
.  .  .  .  .  .  .  .  .  .  .  .  .  .  .  . 
 72
    65
 73
     2
 40
0.5
 49
0.0
 74
     0
 49
-0.5
 74
     0
  0
LTYPE
  5
32
100
AcDbSymbolTableRecord
100
AcDbLinetypeTableRecord
  2
HIDDEN
 70
     0
  3
__ __ __ __ __ __ __ __ __ __ __ __ __ __ __ __
 72
    65
 73
     2
 40
0.375
 49
0.25
 74
     0
 49
-0.125
 74
     0
  0
LTYPE
  5
33
100
AcDbSymbolTableRecord
100
AcDbLinetypeTableRecord
  2
HIDDEN2
 70
     0
  3
_ _ _ _ _ _ _ _ _ _ _ _ _ _ _ _ _ _ _ _ _ _ _ _
 72
    65
 73
     2
 40
0.1875
 49
0.125
 74
     0
 49
-0.0625
 74
     0
  0
LTYPE
  5
34
100
AcDbSymbolTableRecord
100
AcDbLinetypeTableRecord
  2
HIDDENX2
 70
     0
  3
____ ____ ____ ____ ____ ____ ____ ____ ____ __
 72
    65
 73
     2
 40
0.75
 49
0.5
 74
     0
 49
-0.25
 74
     0
  0
LTYPE
  5
35
100
AcDbSymbolTableRecord
100
AcDbLinetypeTableRecord
  2
PHANTOM
 70
     0
  3
______  __  __  ______  __  __  ______  __  __ 
 72
    65
 73
     6
 40
2.5
 49
1.25
 74
     0
 49
-0.25
 74
     0
 49
0.25
 74
     0
 49
-0.25
 74
     0
 49
0.25
 74
     0
 49
-0.25
 74
     0
  0
LTYPE
  5
36
100
AcDbSymbolTableRecord
100
AcDbLinetypeTableRecord
  2
PHANTOM2
 70
     0
  3
___ _ _ ___ _ _ ___ _ _ ___ _ _ ___ _ _ ___ _ _
 72
    65
 73
     6
 40
1.25
 49
0.625
 74
     0
 49
-0.125
 74
     0
 49
0.125
 74
     0
 49
-0.125
 74
     0
 49
0.125
 74
     0
 49
-0.125
 74
     0
  0
LTYPE
  5
37
100
AcDbSymbolTableRecord
100
AcDbLinetypeTableRecord
  2
PHANTOMX2
 70
     0
  3
____________    ____    ____    ____________   
 72
    65
 73
     6
 40
5.0
 49
2.5
 74
     0
 49
-0.5
 74
     0
 49
0.5
 74
     0
 49
-0.5
 74
     0
 49
0.5
 74
     0
 49
-0.5
 74
     0
  0
ENDTAB
   0
TABLE
   2
LAYER
   5
2
 100
AcDbSymbolTable
  70
2
   0
LAYER
   5
E
 100
AcDbSymbolTableRecord
 100
AcDbLayerTableRecord
   2
0
  70
0
  62
7
   6
CONTINUOUS
 390
30
   0
LAYER
   5
39
 100
AcDbSymbolTableRecord
 100
AcDbLayerTableRecord
   2
LEVEL001
  70
0
  62
7
   6
CONTINUOUS
 390
30
   0
ENDTAB
  0
TABLE
  2
STYLE
  5
3
100
AcDbSymbolTable
  70
11
  0
STYLE
  5
F
100
AcDbSymbolTableRecord
100
AcDbTextStyleTableRecord
  2
STANDARD
 70
     0
 40
0.0
 41
1.0
 50
0.0
 71
     0
 42
0.2
  3
TXT
  4
BIGFONT
  0
STYLE
  5
38
100
AcDbSymbolTableRecord
100
AcDbTextStyleTableRecord
  2
STANDARD1
 70
     4
 40
0.0
 41
1.0
 50
0.0
 71
     0
 42
0.2
  3
TXT
  4
BIGFONT
   0
STYLE
   5
3A
 100
AcDbSymbolTableRecord
 100
AcDbTextStyleTableRecord
   2
GMM001
  70
0
  40
0.0
  41
 0.78787878787879
  50
0.0
  71
     0
  42
1.0
   3
txt.shx
   4
bigfont.shx
   0
STYLE
   5
3B
 100
AcDbSymbolTableRecord
 100
AcDbTextStyleTableRecord
   2
GMM002
  70
0
  40
0.0
  41
 0.75000000000000
  50
0.0
  71
     0
  42
1.0
   3
txt.shx
   4
bigfont.shx
   0
STYLE
   5
3C
 100
AcDbSymbolTableRecord
 100
AcDbTextStyleTableRecord
   2
GMM003
  70
0
  40
0.0
  41
 0.90000000000000
  50
0.0
  71
     0
  42
1.0
   3

   4

1001
ACAD
1000
ＭＳ 明朝
1071
33587217
   0
STYLE
   5
3D
 100
AcDbSymbolTableRecord
 100
AcDbTextStyleTableRecord
   2
GMM004
  70
0
  40
0.0
  41
 1.0000000000000
  50
0.0
  71
     0
  42
1.0
   3
txt.shx
   4
bigfont.shx
   0
STYLE
   5
3E
 100
AcDbSymbolTableRecord
 100
AcDbTextStyleTableRecord
   2
GMM005
  70
0
  40
0.0
  41
 0.87500000000000
  50
0.0
  71
     0
  42
1.0
   3
txt.shx
   4
bigfont.shx
   0
STYLE
   5
3F
 100
AcDbSymbolTableRecord
 100
AcDbTextStyleTableRecord
   2
GMM006
  70
0
  40
0.0
  41
 0.90000000000000
  50
0.0
  71
     0
  42
1.0
   3
txt.shx
   4
bigfont.shx
   0
STYLE
   5
40
 100
AcDbSymbolTableRecord
 100
AcDbTextStyleTableRecord
   2
GMM007
  70
0
  40
0.0
  41
 0.65000000000000
  50
0.0
  71
     0
  42
1.0
   3
txt.shx
   4
bigfont.shx
   0
STYLE
   5
41
 100
AcDbSymbolTableRecord
 100
AcDbTextStyleTableRecord
   2
GMM008
  70
0
  40
0.0
  41
 1.6363636363636
  50
0.0
  71
     0
  42
1.0
   3
txt.shx
   4
bigfont.shx
   0
STYLE
   5
42
 100
AcDbSymbolTableRecord
 100
AcDbTextStyleTableRecord
   2
GMM009
  70
0
  40
0.0
  41
 1.0000000000000
  50
0.0
  71
     0
  42
1.0
   3

   4

1001
ACAD
1000
ＭＳ 明朝
1071
32785
   0
ENDTAB
  0
TABLE
  2
VIEW
  5
6
100
AcDbSymbolTable
 70
     0
  0
ENDTAB
  0
TABLE
  2
UCS
  5
7
100
AcDbSymbolTable
 70
     0
  0
ENDTAB
  0
TABLE
  2
APPID
  5
9
100
AcDbSymbolTable
 70
     1
  0
APPID
  5
10
100
AcDbSymbolTableRecord
100
AcDbRegAppTableRecord
  2
ACAD
 70
     0
  0
ENDTAB
   0
TABLE
   2
DIMSTYLE
   5
A
 100
AcDbSymbolTable
  70
11
 100
AcDbDimStyleTable
  0
DIMSTYLE
105
1D
100
AcDbSymbolTableRecord
100
AcDbDimStyleTableRecord
  2
STANDARD
 70
     0
  3

  4

  5

  6

  7

 40
1.0
 41
0.18
 42
0.0625
 43
0.38
 44
0.18
 45
0.0
 46
0.0
 47
0.0
 48
0.0
140
0.18
141
0.09
142
0.0
143
25.4
144
1.0
145
0.0
146
1.0
147
0.09
 71
     0
 72
     0
 73
     1
 74
     1
 75
     0
 76
     0
 77
     0
 78
     0
170
     0
171
     2
172
     0
173
     0
174
     0
175
     0
176
     0
177
     0
178
     0
270
     2
271
     4
272
     4
273
     2
274
     2
340
F
275
     0
280
     0
281
     0
282
     0
283
     1
284
     0
285
     0
286
     0
287
     3
288
     0
   0
DIMSTYLE
 105
43
 100
AcDbSymbolTableRecord
 100
AcDbDimStyleTableRecord
   2
GMM001
  70
0
   3
%%c<>
   4

   5

   6
_OPEN
   7
_OPEN
  40
 1.0000000000000
  41
 30.000000000000
  42
 30.000000000000
  43
 160.00000000000
  44
 30.000000000000
  45
0.0
  46
 37.500000000000
  47
0.0
  48
0.0
 140
 66.000000000000
 141
 20.000000000000
 142
0.0
 143
 0.39400000000000E-1
 144
 1.0000000000000
 145
0.0
 146
 0.62500000000000
 147
 28.285714285714
  71
0
  72
0
  73
0
  74
0
  75
1
  76
1
  77
1
  78
8
 170
0
 171
2
 172
1
 173
1
 174
0
 175
0
 176
6
 177
6
 178
1
 270
2
 271
1
 272
0
 273
2
 274
2
 340
3A
 275
0
 280
0
 281
0
 282
0
 283
1
 284
0
 285
0
 286
0
 287
0
 288
0
   0
DIMSTYLE
 105
44
 100
AcDbSymbolTableRecord
 100
AcDbDimStyleTableRecord
   2
GMM002
  70
0
   3

   4

   5

   6
_OPEN
   7
_OPEN
  40
 1.0000000000000
  41
 30.000000000000
  42
 30.000000000000
  43
 160.00000000000
  44
 30.000000000000
  45
0.0
  46
 37.500000000000
  47
0.0
  48
0.0
 140
 66.000000000000
 141
 20.000000000000
 142
0.0
 143
 0.39400000000000E-1
 144
 1.0000000000000
 145
0.0
 146
 0.62500000000000
 147
0.0
  71
0
  72
0
  73
0
  74
0
  75
1
  76
1
  77
0
  78
8
 170
0
 171
2
 172
1
 173
1
 174
0
 175
0
 176
1
 177
1
 178
1
 270
2
 271
1
 272
0
 273
2
 274
2
 340
F
 275
0
 280
0
 281
0
 282
0
 283
1
 284
0
 285
0
 286
0
 287
3
 288
0
   0
DIMSTYLE
 105
45
 100
AcDbSymbolTableRecord
 100
AcDbDimStyleTableRecord
   2
GMM003
  70
0
   3

   4

   5

   6
_OPEN
   7
_OPEN
  40
 1.0000000000000
  41
 30.000000000000
  42
 30.000000000000
  43
 160.00000000000
  44
 30.000000000000
  45
0.0
  46
 37.500000000000
  47
0.0
  48
0.0
 140
 66.000000000000
 141
 20.000000000000
 142
0.0
 143
 0.39400000000000E-1
 144
 1.0000000000000
 145
0.0
 146
 0.62500000000000
 147
 28.285714285714
  71
0
  72
0
  73
0
  74
0
  75
0
  76
1
  77
1
  78
8
 170
0
 171
2
 172
1
 173
1
 174
0
 175
0
 176
6
 177
6
 178
1
 270
2
 271
1
 272
0
 273
2
 274
2
 340
3A
 275
0
 280
0
 281
0
 282
0
 283
1
 284
0
 285
0
 286
0
 287
3
 288
0
   0
DIMSTYLE
 105
46
 100
AcDbSymbolTableRecord
 100
AcDbDimStyleTableRecord
   2
GMM004
  70
0
   3
<>(標準設置高さ
   4

   5

   6
_OPEN
   7
_OPEN
  40
 1.0000000000000
  41
 30.000000000000
  42
 30.000000000000
  43
 160.00000000000
  44
 30.000000000000
  45
0.0
  46
 37.500000000000
  47
0.0
  48
0.0
 140
 66.000000000000
 141
 20.000000000000
 142
0.0
 143
 0.39400000000000E-1
 144
 1.0000000000000
 145
0.0
 146
 0.62500000000000
 147
 28.285714285714
  71
0
  72
0
  73
0
  74
0
  75
0
  76
0
  77
1
  78
8
 170
0
 171
2
 172
1
 173
1
 174
0
 175
0
 176
6
 177
6
 178
1
 270
2
 271
1
 272
0
 273
2
 274
2
 340
3A
 275
0
 280
0
 281
0
 282
0
 283
1
 284
0
 285
0
 286
0
 287
3
 288
0
   0
DIMSTYLE
 105
47
 100
AcDbSymbolTableRecord
 100
AcDbDimStyleTableRecord
   2
GMM005
  70
0
   3

   4

   5

   6
_OPEN
   7
_OPEN
  40
 1.0000000000000
  41
 30.000000000000
  42
 30.000000000000
  43
 160.00000000000
  44
 30.000000000000
  45
0.0
  46
 37.500000000000
  47
0.0
  48
0.0
 140
 66.000000000000
 141
 20.000000000000
 142
0.0
 143
 0.39400000000000E-1
 144
 1.0000000000000
 145
0.0
 146
 0.62500000000000
 147
 28.285714285714
  71
0
  72
0
  73
0
  74
0
  75
1
  76
0
  77
1
  78
8
 170
0
 171
2
 172
1
 173
1
 174
0
 175
0
 176
6
 177
6
 178
1
 270
2
 271
1
 272
0
 273
2
 274
2
 340
3A
 275
0
 280
0
 281
0
 282
0
 283
1
 284
0
 285
0
 286
0
 287
3
 288
0
   0
DIMSTYLE
 105
48
 100
AcDbSymbolTableRecord
 100
AcDbDimStyleTableRecord
   2
GMM006
  70
0
   3

   4

   5

   6
_OPEN
   7
_OPEN
  40
 1.0000000000000
  41
 30.000000000000
  42
 30.000000000000
  43
 160.00000000000
  44
 30.000000000000
  45
0.0
  46
 37.500000000000
  47
0.0
  48
0.0
 140
 66.000000000000
 141
 20.000000000000
 142
0.0
 143
 0.39400000000000E-1
 144
 1.0000000000000
 145
0.0
 146
 0.62500000000000
 147
0.0
  71
0
  72
0
  73
0
  74
0
  75
1
  76
1
  77
0
  78
8
 170
0
 171
2
 172
1
 173
1
 174
0
 175
0
 176
1
 177
1
 178
1
 270
2
 271
1
 272
0
 273
2
 274
2
 340
F
 275
0
 280
0
 281
0
 282
0
 283
1
 284
0
 285
0
 286
0
 287
3
 288
0
   0
DIMSTYLE
 105
49
 100
AcDbSymbolTableRecord
 100
AcDbDimStyleTableRecord
   2
GMM007
  70
0
   3
□<>
   4

   5

   6
_OPEN
   7
_OPEN
  40
 1.0000000000000
  41
 30.000000000000
  42
 30.000000000000
  43
 160.00000000000
  44
 30.000000000000
  45
0.0
  46
 37.500000000000
  47
0.0
  48
0.0
 140
 66.000000000000
 141
 20.000000000000
 142
0.0
 143
 0.39400000000000E-1
 144
 1.0000000000000
 145
0.0
 146
 0.62500000000000
 147
 28.285714285714
  71
0
  72
0
  73
0
  74
0
  75
0
  76
0
  77
1
  78
8
 170
0
 171
2
 172
1
 173
1
 174
0
 175
0
 176
6
 177
6
 178
1
 270
2
 271
1
 272
0
 273
2
 274
2
 340
3A
 275
0
 280
0
 281
0
 282
0
 283
1
 284
0
 285
0
 286
0
 287
3
 288
0
   0
DIMSTYLE
 105
4A
 100
AcDbSymbolTableRecord
 100
AcDbDimStyleTableRecord
   2
GMM008
  70
0
   3

   4

   5

   6
_OPEN
   7
_OPEN
  40
 1.0000000000000
  41
 30.000000000000
  42
 30.000000000000
  43
 160.00000000000
  44
 30.000000000000
  45
0.0
  46
 37.500000000000
  47
0.0
  48
0.0
 140
 66.000000000000
 141
 20.000000000000
 142
0.0
 143
 0.39400000000000E-1
 144
 1.0000000000000
 145
0.0
 146
 0.62500000000000
 147
0.0
  71
0
  72
0
  73
0
  74
0
  75
1
  76
1
  77
0
  78
8
 170
0
 171
2
 172
1
 173
1
 174
0
 175
0
 176
1
 177
1
 178
1
 270
2
 271
1
 272
0
 273
2
 274
2
 340
F
 275
0
 280
0
 281
0
 282
0
 283
1
 284
0
 285
0
 286
0
 287
3
 288
0
   0
DIMSTYLE
 105
4B
 100
AcDbSymbolTableRecord
 100
AcDbDimStyleTableRecord
   2
GMM009
  70
0
   3

   4

   5

   6
_OPEN
   7
_OPEN
  40
 1.0000000000000
  41
 40.000000000000
  42
 40.000000000000
  43
 160.00000000000
  44
 40.000000000000
  45
0.0
  46
 50.000000000000
  47
0.0
  48
0.0
 140
 66.000000000000
 141
 20.000000000000
 142
0.0
 143
 0.39400000000000E-1
 144
 1.0000000000000
 145
0.0
 146
 0.62500000000000
 147
0.0
  71
0
  72
0
  73
0
  74
0
  75
1
  76
1
  77
1
  78
0
 170
0
 171
2
 172
1
 173
1
 174
0
 175
0
 176
6
 177
6
 178
1
 270
2
 271
0
 272
0
 273
2
 274
2
 340
3A
 275
1
 280
0
 281
0
 282
0
 283
1
 284
0
 285
0
 286
0
 287
3
 288
0
   0
ENDTAB
  0
TABLE
  2
BLOCK_RECORD
  5
1
100
AcDbSymbolTable
 70
     0
  0
BLOCK_RECORD
  5
18
100
AcDbSymbolTableRecord
100
AcDbBlockTableRecord
  2
*MODEL_SPACE
  0
BLOCK_RECORD
  5
15
100
AcDbSymbolTableRecord
100
AcDbBlockTableRecord
  2
*PAPER_SPACE
   0
BLOCK_RECORD
   5
4C
 100
AcDbSymbolTableRecord
 100
AcDbBlockTableRecord
   2
*D1
   0
BLOCK_RECORD
   5
4D
 100
AcDbSymbolTableRecord
 100
AcDbBlockTableRecord
   2
*D11
   0
BLOCK_RECORD
   5
4E
 100
AcDbSymbolTableRecord
 100
AcDbBlockTableRecord
   2
*D12
   0
BLOCK_RECORD
   5
4F
 100
AcDbSymbolTableRecord
 100
AcDbBlockTableRecord
   2
*D13
   0
BLOCK_RECORD
   5
50
 100
AcDbSymbolTableRecord
 100
AcDbBlockTableRecord
   2
*D14
   0
BLOCK_RECORD
   5
51
 100
AcDbSymbolTableRecord
 100
AcDbBlockTableRecord
   2
*D17
   0
BLOCK_RECORD
   5
52
 100
AcDbSymbolTableRecord
 100
AcDbBlockTableRecord
   2
*D18
   0
BLOCK_RECORD
   5
53
 100
AcDbSymbolTableRecord
 100
AcDbBlockTableRecord
   2
_ARCHTICK
   0
BLOCK_RECORD
   5
54
 100
AcDbSymbolTableRecord
 100
AcDbBlockTableRecord
   2
_BOXBLANK
   0
BLOCK_RECORD
   5
55
 100
AcDbSymbolTableRecord
 100
AcDbBlockTableRecord
   2
_BOXFILLED
   0
BLOCK_RECORD
   5
56
 100
AcDbSymbolTableRecord
 100
AcDbBlockTableRecord
   2
_CLOSED
   0
BLOCK_RECORD
   5
57
 100
AcDbSymbolTableRecord
 100
AcDbBlockTableRecord
   2
_CLOSEDBLANK
   0
BLOCK_RECORD
   5
58
 100
AcDbSymbolTableRecord
 100
AcDbBlockTableRecord
   2
_DATUMBLANK
   0
BLOCK_RECORD
   5
59
 100
AcDbSymbolTableRecord
 100
AcDbBlockTableRecord
   2
_DATUMFILLED
   0
BLOCK_RECORD
   5
5A
 100
AcDbSymbolTableRecord
 100
AcDbBlockTableRecord
   2
_DOT
   0
BLOCK_RECORD
   5
5B
 100
AcDbSymbolTableRecord
 100
AcDbBlockTableRecord
   2
_DOTBLANK
   0
BLOCK_RECORD
   5
5C
 100
AcDbSymbolTableRecord
 100
AcDbBlockTableRecord
   2
_DOTSMALL
   0
BLOCK_RECORD
   5
5D
 100
AcDbSymbolTableRecord
 100
AcDbBlockTableRecord
   2
_INTEGRAL
   0
BLOCK_RECORD
   5
5E
 100
AcDbSymbolTableRecord
 100
AcDbBlockTableRecord
   2
_NONE
   0
BLOCK_RECORD
   5
5F
 100
AcDbSymbolTableRecord
 100
AcDbBlockTableRecord
   2
_OBLIQUE
   0
BLOCK_RECORD
   5
60
 100
AcDbSymbolTableRecord
 100
AcDbBlockTableRecord
   2
_OPEN
   0
BLOCK_RECORD
   5
61
 100
AcDbSymbolTableRecord
 100
AcDbBlockTableRecord
   2
_OPEN30
   0
BLOCK_RECORD
   5
62
 100
AcDbSymbolTableRecord
 100
AcDbBlockTableRecord
   2
_OPEN90
   0
BLOCK_RECORD
   5
63
 100
AcDbSymbolTableRecord
 100
AcDbBlockTableRecord
   2
_ORIGIN
   0
ENDTAB
   0
ENDSEC
  0
SECTION
  2
BLOCKS
  0
BLOCK
  5
19
100
AcDbEntity
  8
0
100
AcDbBlockBegin
  2
*MODEL_SPACE
 70
     0
 10
0.0
 20
0.0
 30
0.0
  3
*MODEL_SPACE
  1

  0
ENDBLK
  5
1A
100
AcDbEntity
  8
0
100
AcDbBlockEnd
  0
BLOCK
  5
16
100
AcDbEntity
 67
     1
  8
0
100
AcDbBlockBegin
  2
*PAPER_SPACE
 70
     0
 10
0.0
 20
0.0
 30
0.0
  3
*PAPER_SPACE
  1

  0
ENDBLK
  5
17
100
AcDbEntity
 67
     1
  8
0
100
AcDbBlockEnd
   0
BLOCK
   5
64
 100
AcDbEntity
   8
0
 100
AcDbBlockBegin
   2
_ARCHTICK
  70
0
  10
0.0
  20
0.0
  30
0.0
   3
_ARCHTICK
   0
POLYLINE
   5
65
 100
AcDbEntity
   8
0
 370
-2
   6
BYBLOCK
  62
0
 100
AcDb2dPolyline
  66
1
  10
0.0
  20
0.0
  30
0.0
  70
1
  40
 0.15000000000000
  41
 0.15000000000000
   0
VERTEX
   5
66
 100
AcDbEntity
   8
0
   6
BYBLOCK
  62
0
 100
AcDbVertex
 100
AcDb2dVertex
  10
-0.50000000000000
  20
-0.50000000000000
  30
0.0
  40
 0.15000000000000
  41
 0.15000000000000
   0
VERTEX
   5
67
 100
AcDbEntity
   8
0
   6
BYBLOCK
  62
0
 100
AcDbVertex
 100
AcDb2dVertex
  10
 0.50000000000000
  20
 0.50000000000000
  30
0.0
  40
 0.15000000000000
  41
 0.15000000000000
   0
SEQEND
   5
68
 100
AcDbEntity
   8
0
   6
BYBLOCK
  62
0
   0
ENDBLK
   5
69
 100
AcDbEntity
   8
0
 100
AcDbBlockEnd
   0
BLOCK
   5
6A
 100
AcDbEntity
   8
0
 100
AcDbBlockBegin
   2
_OBLIQUE
  70
0
  10
0.0
  20
0.0
  30
0.0
   3
_OBLIQUE
   0
LINE
   5
6B
 100
AcDbEntity
   8
0
 370
-2
 100
AcDbLine
   6
BYBLOCK
  62
0
  10
-0.50000000000000
  20
-0.50000000000000
  30
0.0
  11
 0.50000000000000
  21
 0.50000000000000
  31
0.0
   0
ENDBLK
   5
6C
 100
AcDbEntity
   8
0
 100
AcDbBlockEnd
   0
BLOCK
   5
6D
 100
AcDbEntity
   8
0
 100
AcDbBlockBegin
   2
_BOXBLANK
  70
0
  10
0.0
  20
0.0
  30
0.0
   3
_BOXBLANK
   0
LINE
   5
6E
 100
AcDbEntity
   8
0
 370
-2
 100
AcDbLine
   6
BYBLOCK
  62
0
  10
-0.50000000000000
  20
-0.50000000000000
  30
0.0
  11
 0.50000000000000
  21
-0.50000000000000
  31
0.0
   0
LINE
   5
6F
 100
AcDbEntity
   8
0
 370
-2
 100
AcDbLine
   6
BYBLOCK
  62
0
  10
 0.50000000000000
  20
-0.50000000000000
  30
0.0
  11
 0.50000000000000
  21
 0.50000000000000
  31
0.0
   0
LINE
   5
70
 100
AcDbEntity
   8
0
 370
-2
 100
AcDbLine
   6
BYBLOCK
  62
0
  10
 0.50000000000000
  20
 0.50000000000000
  30
0.0
  11
-0.50000000000000
  21
 0.50000000000000
  31
0.0
   0
LINE
   5
71
 100
AcDbEntity
   8
0
 370
-2
 100
AcDbLine
   6
BYBLOCK
  62
0
  10
-0.50000000000000
  20
 0.50000000000000
  30
0.0
  11
-0.50000000000000
  21
-0.50000000000000
  31
0.0
   0
LINE
   5
72
 100
AcDbEntity
   8
0
 370
-2
 100
AcDbLine
   6
BYBLOCK
  62
0
  10
-0.50000000000000
  20
0.0
  30
0.0
  11
-1.0000000000000
  21
0.0
  31
0.0
   0
ENDBLK
   5
73
 100
AcDbEntity
   8
0
 100
AcDbBlockEnd
   0
BLOCK
   5
74
 100
AcDbEntity
   8
0
 100
AcDbBlockBegin
   2
_BOXFILLED
  70
0
  10
0.0
  20
0.0
  30
0.0
   3
_BOXFILLED
   0
SOLID
   5
75
 100
AcDbEntity
   8
0
 100
AcDbTrace
   6
BYBLOCK
  62
0
  10
-0.50000000000000
  20
 0.50000000000000
  30
0.0
  11
 0.50000000000000
  21
 0.50000000000000
  31
0.0
  12
-0.50000000000000
  22
-0.50000000000000
  32
0.0
  13
 0.50000000000000
  23
-0.50000000000000
  33
0.0
   0
LINE
   5
76
 100
AcDbEntity
   8
0
 370
-2
 100
AcDbLine
   6
BYBLOCK
  62
0
  10
-0.50000000000000
  20
0.0
  30
0.0
  11
-1.0000000000000
  21
0.0
  31
0.0
   0
ENDBLK
   5
77
 100
AcDbEntity
   8
0
 100
AcDbBlockEnd
   0
BLOCK
   5
78
 100
AcDbEntity
   8
0
 100
AcDbBlockBegin
   2
_CLOSED
  70
0
  10
0.0
  20
0.0
  30
0.0
   3
_CLOSED
   0
LINE
   5
79
 100
AcDbEntity
   8
0
 370
-2
 100
AcDbLine
   6
BYBLOCK
  62
0
  10
-1.0000000000000
  20
 0.16666666666667
  30
0.0
  11
0.0
  21
0.0
  31
0.0
   0
LINE
   5
7A
 100
AcDbEntity
   8
0
 370
-2
 100
AcDbLine
   6
BYBLOCK
  62
0
  10
0.0
  20
0.0
  30
0.0
  11
-1.0000000000000
  21
-0.16666666666667
  31
0.0
   0
LINE
   5
7B
 100
AcDbEntity
   8
0
 370
-2
 100
AcDbLine
   6
BYBLOCK
  62
0
  10
-1.0000000000000
  20
 0.16666666666667
  30
0.0
  11
-1.0000000000000
  21
-0.16666666666667
  31
0.0
   0
LINE
   5
7C
 100
AcDbEntity
   8
0
 370
-2
 100
AcDbLine
   6
BYBLOCK
  62
0
  10
0.0
  20
0.0
  30
0.0
  11
-1.0000000000000
  21
0.0
  31
0.0
   0
ENDBLK
   5
7D
 100
AcDbEntity
   8
0
 100
AcDbBlockEnd
   0
BLOCK
   5
7E
 100
AcDbEntity
   8
0
 100
AcDbBlockBegin
   2
_OPEN
  70
0
  10
0.0
  20
0.0
  30
0.0
   3
_OPEN
   0
LINE
   5
7F
 100
AcDbEntity
   8
0
 370
-2
 100
AcDbLine
   6
BYBLOCK
  62
0
  10
-1.0000000000000
  20
 0.16666666666667
  30
0.0
  11
0.0
  21
0.0
  31
0.0
   0
LINE
   5
80
 100
AcDbEntity
   8
0
 370
-2
 100
AcDbLine
   6
BYBLOCK
  62
0
  10
0.0
  20
0.0
  30
0.0
  11
-1.0000000000000
  21
-0.16666666666667
  31
0.0
   0
LINE
   5
81
 100
AcDbEntity
   8
0
 370
-2
 100
AcDbLine
   6
BYBLOCK
  62
0
  10
0.0
  20
0.0
  30
0.0
  11
-1.0000000000000
  21
0.0
  31
0.0
   0
ENDBLK
   5
82
 100
AcDbEntity
   8
0
 100
AcDbBlockEnd
   0
BLOCK
   5
83
 100
AcDbEntity
   8
0
 100
AcDbBlockBegin
   2
_OPEN30
  70
0
  10
0.0
  20
0.0
  30
0.0
   3
_OPEN30
   0
LINE
   5
84
 100
AcDbEntity
   8
0
 370
-2
 100
AcDbLine
   6
BYBLOCK
  62
0
  10
-1.0000000000000
  20
 0.26794919243110
  30
0.0
  11
0.0
  21
0.0
  31
0.0
   0
LINE
   5
85
 100
AcDbEntity
   8
0
 370
-2
 100
AcDbLine
   6
BYBLOCK
  62
0
  10
0.0
  20
0.0
  30
0.0
  11
-1.0000000000000
  21
-0.26794919243110
  31
0.0
   0
LINE
   5
86
 100
AcDbEntity
   8
0
 370
-2
 100
AcDbLine
   6
BYBLOCK
  62
0
  10
0.0
  20
0.0
  30
0.0
  11
-1.0000000000000
  21
0.0
  31
0.0
   0
ENDBLK
   5
87
 100
AcDbEntity
   8
0
 100
AcDbBlockEnd
   0
BLOCK
   5
88
 100
AcDbEntity
   8
0
 100
AcDbBlockBegin
   2
_OPEN90
  70
0
  10
0.0
  20
0.0
  30
0.0
   3
_OPEN90
   0
LINE
   5
89
 100
AcDbEntity
   8
0
 370
-2
 100
AcDbLine
   6
BYBLOCK
  62
0
  10
-0.50000000000000
  20
 0.50000000000000
  30
0.0
  11
0.0
  21
0.0
  31
0.0
   0
LINE
   5
8A
 100
AcDbEntity
   8
0
 370
-2
 100
AcDbLine
   6
BYBLOCK
  62
0
  10
0.0
  20
0.0
  30
0.0
  11
-0.50000000000000
  21
-0.50000000000000
  31
0.0
   0
LINE
   5
8B
 100
AcDbEntity
   8
0
 370
-2
 100
AcDbLine
   6
BYBLOCK
  62
0
  10
0.0
  20
0.0
  30
0.0
  11
-1.0000000000000
  21
0.0
  31
0.0
   0
ENDBLK
   5
8C
 100
AcDbEntity
   8
0
 100
AcDbBlockEnd
   0
BLOCK
   5
8D
 100
AcDbEntity
   8
0
 100
AcDbBlockBegin
   2
_CLOSEDBLANK
  70
0
  10
0.0
  20
0.0
  30
0.0
   3
_CLOSEDBLANK
   0
LINE
   5
8E
 100
AcDbEntity
   8
0
 370
-2
 100
AcDbLine
   6
BYBLOCK
  62
0
  10
-1.0000000000000
  20
 0.16666666666667
  30
0.0
  11
0.0
  21
0.0
  31
0.0
   0
LINE
   5
8F
 100
AcDbEntity
   8
0
 370
-2
 100
AcDbLine
   6
BYBLOCK
  62
0
  10
0.0
  20
0.0
  30
0.0
  11
-1.0000000000000
  21
-0.16666666666667
  31
0.0
   0
LINE
   5
90
 100
AcDbEntity
   8
0
 370
-2
 100
AcDbLine
   6
BYBLOCK
  62
0
  10
-1.0000000000000
  20
 0.16666666666667
  30
0.0
  11
-1.0000000000000
  21
-0.16666666666667
  31
0.0
   0
ENDBLK
   5
91
 100
AcDbEntity
   8
0
 100
AcDbBlockEnd
   0
BLOCK
   5
92
 100
AcDbEntity
   8
0
 100
AcDbBlockBegin
   2
_DOT
  70
0
  10
0.0
  20
0.0
  30
0.0
   3
_DOT
   0
POLYLINE
   5
93
 100
AcDbEntity
   8
0
 370
-2
   6
BYBLOCK
  62
0
 100
AcDb2dPolyline
  66
1
  10
0.0
  20
0.0
  30
0.0
  70
1
  40
 0.50000000000000
  41
 0.50000000000000
   0
VERTEX
   5
94
 100
AcDbEntity
   8
0
   6
BYBLOCK
  62
0
 100
AcDbVertex
 100
AcDb2dVertex
  10
-0.25000000000000
  20
0.0
  30
0.0
  42
 1.0000000000000
  40
 0.50000000000000
  41
 0.50000000000000
   0
VERTEX
   5
95
 100
AcDbEntity
   8
0
   6
BYBLOCK
  62
0
 100
AcDbVertex
 100
AcDb2dVertex
  10
 0.25000000000000
  20
0.0
  30
0.0
  42
 1.0000000000000
  40
 0.50000000000000
  41
 0.50000000000000
   0
SEQEND
   5
96
 100
AcDbEntity
   8
0
   6
BYBLOCK
  62
0
   0
LINE
   5
97
 100
AcDbEntity
   8
0
 370
-2
 100
AcDbLine
   6
BYBLOCK
  62
0
  10
-0.50000000000000
  20
0.0
  30
0.0
  11
-1.0000000000000
  21
0.0
  31
0.0
   0
ENDBLK
   5
98
 100
AcDbEntity
   8
0
 100
AcDbBlockEnd
   0
BLOCK
   5
99
 100
AcDbEntity
   8
0
 100
AcDbBlockBegin
   2
_DOTSMALL
  70
0
  10
0.0
  20
0.0
  30
0.0
   3
_DOTSMALL
   0
POLYLINE
   5
9A
 100
AcDbEntity
   8
0
 370
-2
   6
BYBLOCK
  62
0
 100
AcDb2dPolyline
  66
1
  10
0.0
  20
0.0
  30
0.0
  70
1
  40
 0.50000000000000
  41
 0.50000000000000
   0
VERTEX
   5
9B
 100
AcDbEntity
   8
0
   6
BYBLOCK
  62
0
 100
AcDbVertex
 100
AcDb2dVertex
  10
-0.62500000000000E-1
  20
0.0
  30
0.0
  42
 1.0000000000000
  40
 0.50000000000000
  41
 0.50000000000000
   0
VERTEX
   5
9C
 100
AcDbEntity
   8
0
   6
BYBLOCK
  62
0
 100
AcDbVertex
 100
AcDb2dVertex
  10
 0.62500000000000E-1
  20
0.0
  30
0.0
  42
 1.0000000000000
  40
 0.50000000000000
  41
 0.50000000000000
   0
SEQEND
   5
9D
 100
AcDbEntity
   8
0
   6
BYBLOCK
  62
0
   0
ENDBLK
   5
9E
 100
AcDbEntity
   8
0
 100
AcDbBlockEnd
   0
BLOCK
   5
9F
 100
AcDbEntity
   8
0
 100
AcDbBlockBegin
   2
_DATUMBLANK
  70
0
  10
0.0
  20
0.0
  30
0.0
   3
_DATUMBLANK
   0
LINE
   5
A0
 100
AcDbEntity
   8
0
 370
-2
 100
AcDbLine
   6
BYBLOCK
  62
0
  10
0.0
  20
 0.57735027000000
  30
0.0
  11
-1.0000000000000
  21
0.0
  31
0.0
   0
LINE
   5
A1
 100
AcDbEntity
   8
0
 370
-2
 100
AcDbLine
   6
BYBLOCK
  62
0
  10
-1.0000000000000
  20
0.0
  30
0.0
  11
0.0
  21
-0.57735027000000
  31
0.0
   0
LINE
   5
A2
 100
AcDbEntity
   8
0
 370
-2
 100
AcDbLine
   6
BYBLOCK
  62
0
  10
0.0
  20
-0.57735027000000
  30
0.0
  11
0.0
  21
 0.57735027000000
  31
0.0
   0
ENDBLK
   5
A3
 100
AcDbEntity
   8
0
 100
AcDbBlockEnd
   0
BLOCK
   5
A4
 100
AcDbEntity
   8
0
 100
AcDbBlockBegin
   2
_DATUMFILLED
  70
0
  10
0.0
  20
0.0
  30
0.0
   3
_DATUMFILLED
   0
SOLID
   5
A5
 100
AcDbEntity
   8
0
 100
AcDbTrace
   6
BYBLOCK
  62
0
  10
0.0
  20
 0.57735027000000
  30
0.0
  11
-1.0000000000000
  21
0.0
  31
0.0
  12
0.0
  22
-0.57735027000000
  32
0.0
  13
0.0
  23
-0.57735027000000
  33
0.0
   0
ENDBLK
   5
A6
 100
AcDbEntity
   8
0
 100
AcDbBlockEnd
   0
BLOCK
   5
A7
 100
AcDbEntity
   8
0
 100
AcDbBlockBegin
   2
_ORIGIN
  70
0
  10
0.0
  20
0.0
  30
0.0
   3
_ORIGIN
   0
CIRCLE
   5
A8
 100
AcDbEntity
   8
0
 370
-2
 100
AcDbCircle
   6
BYBLOCK
  62
0
  10
0.0
  20
0.0
  30
0.0
  40
 0.50000000000000
   0
LINE
   5
A9
 100
AcDbEntity
   8
0
 370
-2
 100
AcDbLine
   6
BYBLOCK
  62
0
  10
0.0
  20
0.0
  30
0.0
  11
-1.0000000000000
  21
0.0
  31
0.0
   0
ENDBLK
   5
AA
 100
AcDbEntity
   8
0
 100
AcDbBlockEnd
   0
BLOCK
   5
AB
 100
AcDbEntity
   8
0
 100
AcDbBlockBegin
   2
_NONE
  70
0
  10
0.0
  20
0.0
  30
0.0
   3
_NONE
   0
CIRCLE
   5
AC
 100
AcDbEntity
   8
0
 370
-2
 100
AcDbCircle
   6
BYBLOCK
  62
0
  10
0.0
  20
0.0
  30
0.0
  40
 0.25000000000000
   0
ENDBLK
   5
AD
 100
AcDbEntity
   8
0
 100
AcDbBlockEnd
   0
BLOCK
   5
AE
 100
AcDbEntity
   8
0
 100
AcDbBlockBegin
   2
_DOTBLANK
  70
0
  10
0.0
  20
0.0
  30
0.0
   3
_DOTBLANK
   0
CIRCLE
   5
AF
 100
AcDbEntity
   8
0
 370
-2
 100
AcDbCircle
   6
BYBLOCK
  62
0
  10
0.0
  20
0.0
  30
0.0
  40
 0.50000000000000
   0
LINE
   5
B0
 100
AcDbEntity
   8
0
 370
-2
 100
AcDbLine
   6
BYBLOCK
  62
0
  10
-0.50000000000000
  20
0.0
  30
0.0
  11
-1.0000000000000
  21
0.0
  31
0.0
   0
ENDBLK
   5
B1
 100
AcDbEntity
   8
0
 100
AcDbBlockEnd
   0
BLOCK
   5
B2
 100
AcDbEntity
   8
0
 100
AcDbBlockBegin
   2
_INTEGRAL
  70
0
  10
0.0
  20
0.0
  30
0.0
   3
_INTEGRAL
   0
ARC
   5
B3
 100
AcDbEntity
   8
0
 370
-2
   6
BYBLOCK
  62
0
 100
AcDbCircle
  10
 0.44488800000000
  20
-0.91335000000000E-1
  30
0.0
  40
 0.45416700000000
 100
AcDbArc
  50
 102.00000000000
  51
 168.00000000000
   0
ARC
   5
B4
 100
AcDbEntity
   8
0
 370
-2
   6
BYBLOCK
  62
0
 100
AcDbCircle
  10
-0.44488800000000
  20
 0.91335000000000E-1
  30
0.0
  40
 0.45416700000000
 100
AcDbArc
  50
 282.00000000000
  51
 348.00000000000
   0
ENDBLK
   5
B5
 100
AcDbEntity
   8
0
 100
AcDbBlockEnd
   0
BLOCK
   5
B6
 100
AcDbEntity
   8
0
 100
AcDbBlockBegin
   2
*D1
  70
65
  10
0.0
  20
0.0
  30
0.0
   3
*D1
   0
LINE
   5
B7
 100
AcDbEntity
   8
LEVEL001
 370
13
 100
AcDbLine
   6
CONTINUOUS
  62
6
  10
 1632.0359838295
  20
 4734.8314606742
  30
0.0
  11
 1112.4207415589
  21
 4434.8314606741
  31
0.0
   0
INSERT
   5
B8
 100
AcDbEntity
   8
LEVEL001
   6
CONTINUOUS
  62
6
 100
AcDbBlockReference
   2
_OPEN
  10
 1632.0359838295
  20
 4734.8314606742
  30
0.0
  41
 30.000000000000
  42
 30.000000000000
  43
 30.000000000000
  50
 30.000000000004
   0
INSERT
   5
B9
 100
AcDbEntity
   8
LEVEL001
   6
CONTINUOUS
  62
6
 100
AcDbBlockReference
   2
_OPEN
  10
 1112.4207415589
  20
 4434.8314606741
  30
0.0
  41
 30.000000000000
  42
 30.000000000000
  43
 30.000000000000
  50
 210.00000000000
   0
MTEXT
   5
BA
 100
AcDbEntity
   8
LEVEL001
 370
13
  62
1
 100
AcDbMText
  10
 1358.0855055514
  20
 4609.3276078098
  30
0.0
  40
 66.000000000000
  41
0.0
  71
8
  72
1
   1
\A1;%%c600
   7
GMM001
  11
 0.86602540378441
  21
 0.50000000000006
  31
0.0
   0
ENDBLK
   5
BB
 100
AcDbEntity
   8
0
 100
AcDbBlockEnd
   0
BLOCK
   5
BC
 100
AcDbEntity
   8
0
 100
AcDbBlockBegin
   2
*D11
  70
65
  10
0.0
  20
0.0
  30
0.0
   3
*D11
   0
LINE
   5
BD
 100
AcDbEntity
   8
LEVEL001
 370
13
 100
AcDbLine
   6
CONTINUOUS
  62
6
  10
 1092.2287722828
  20
 884.83146067502
  30
0.0
  11
 592.22836269421
  21
 884.83146067502
  31
0.0
   0
LINE
   5
BE
 100
AcDbEntity
   8
LEVEL001
 370
13
 100
AcDbLine
   6
CONTINUOUS
  62
6
  10
 1092.2287722828
  20
 984.83146067502
  30
0.0
  11
 592.22836269421
  21
 984.83146067502
  31
0.0
   0
LINE
   5
BF
 100
AcDbEntity
   8
LEVEL001
 370
13
 100
AcDbLine
   6
CONTINUOUS
  62
6
  10
 622.22836269421
  20
 884.83146067502
  30
0.0
  11
 622.22836269421
  21
 984.83146067502
  31
0.0
   0
INSERT
   5
C0
 100
AcDbEntity
   8
LEVEL001
   6
CONTINUOUS
  62
6
 100
AcDbBlockReference
   2
_OPEN
  10
 622.22836269421
  20
 884.83146067502
  30
0.0
  41
 30.000000000000
  42
 30.000000000000
  43
 30.000000000000
  50
 270.00000000000
   0
INSERT
   5
C1
 100
AcDbEntity
   8
LEVEL001
   6
CONTINUOUS
  62
6
 100
AcDbBlockReference
   2
_OPEN
  10
 622.22836269421
  20
 984.83146067502
  30
0.0
  41
 30.000000000000
  42
 30.000000000000
  43
 30.000000000000
  50
 90.000000000000
   0
MTEXT
   5
C2
 100
AcDbEntity
   8
LEVEL001
 370
13
  62
1
 100
AcDbMText
  10
 593.94264840850
  20
 934.83146067502
  30
0.0
  40
 66.000000000000
  41
0.0
  71
8
  72
1
   1
\A1;100
   7
GMM001
  11
0.0
  21
 1.0000000000000
  31
0.0
   0
ENDBLK
   5
C3
 100
AcDbEntity
   8
0
 100
AcDbBlockEnd
   0
BLOCK
   5
C4
 100
AcDbEntity
   8
0
 100
AcDbBlockBegin
   2
*D12
  70
65
  10
0.0
  20
0.0
  30
0.0
   3
*D12
   0
LINE
   5
C5
 100
AcDbEntity
   8
LEVEL001
 370
13
 100
AcDbLine
   6
CONTINUOUS
  62
6
  10
 1092.2287722828
  20
 984.83146067502
  30
0.0
  11
 592.22836269421
  21
 984.83146067502
  31
0.0
   0
LINE
   5
C6
 100
AcDbEntity
   8
LEVEL001
 370
13
 100
AcDbLine
   6
CONTINUOUS
  62
6
  10
 792.22883751777
  20
 1784.8314606750
  30
0.0
  11
 592.22836269421
  21
 1784.8314606750
  31
0.0
   0
LINE
   5
C7
 100
AcDbEntity
   8
LEVEL001
 370
13
 100
AcDbLine
   6
CONTINUOUS
  62
6
  10
 622.22836269421
  20
 984.83146067502
  30
0.0
  11
 622.22836269421
  21
 1784.8314606750
  31
0.0
   0
INSERT
   5
C8
 100
AcDbEntity
   8
LEVEL001
   6
CONTINUOUS
  62
6
 100
AcDbBlockReference
   2
_OPEN
  10
 622.22836269421
  20
 984.83146067502
  30
0.0
  41
 30.000000000000
  42
 30.000000000000
  43
 30.000000000000
  50
 270.00000000000
   0
INSERT
   5
C9
 100
AcDbEntity
   8
LEVEL001
   6
CONTINUOUS
  62
6
 100
AcDbBlockReference
   2
_OPEN
  10
 622.22836269421
  20
 1784.8314606750
  30
0.0
  41
 30.000000000000
  42
 30.000000000000
  43
 30.000000000000
  50
 90.000000000000
   0
MTEXT
   5
CA
 100
AcDbEntity
   8
LEVEL001
 370
13
  62
1
 100
AcDbMText
  10
 593.94264840850
  20
 1384.8314606750
  30
0.0
  40
 66.000000000000
  41
0.0
  71
8
  72
1
   1
\A1;800
   7
GMM001
  11
0.0
  21
 1.0000000000000
  31
0.0
   0
ENDBLK
   5
CB
 100
AcDbEntity
   8
0
 100
AcDbBlockEnd
   0
BLOCK
   5
CC
 100
AcDbEntity
   8
0
 100
AcDbBlockBegin
   2
*D13
  70
65
  10
0.0
  20
0.0
  30
0.0
   3
*D13
   0
LINE
   5
CD
 100
AcDbEntity
   8
LEVEL001
 370
13
 100
AcDbLine
   6
CONTINUOUS
  62
6
  10
 792.22883751777
  20
 1784.8314606750
  30
0.0
  11
 592.22836269421
  21
 1784.8314606750
  31
0.0
   0
LINE
   5
CE
 100
AcDbEntity
   8
LEVEL001
 370
13
 100
AcDbLine
   6
CONTINUOUS
  62
6
  10
 1342.2283626942
  20
 4284.8314606750
  30
0.0
  11
 592.22836269421
  21
 4284.8314606750
  31
0.0
   0
LINE
   5
CF
 100
AcDbEntity
   8
LEVEL001
 370
13
 100
AcDbLine
   6
CONTINUOUS
  62
6
  10
 622.22836269421
  20
 1784.8314606750
  30
0.0
  11
 622.22836269421
  21
 4284.8314606750
  31
0.0
   0
INSERT
   5
D0
 100
AcDbEntity
   8
LEVEL001
   6
CONTINUOUS
  62
6
 100
AcDbBlockReference
   2
_OPEN
  10
 622.22836269421
  20
 1784.8314606750
  30
0.0
  41
 30.000000000000
  42
 30.000000000000
  43
 30.000000000000
  50
 270.00000000000
   0
INSERT
   5
D1
 100
AcDbEntity
   8
LEVEL001
   6
CONTINUOUS
  62
6
 100
AcDbBlockReference
   2
_OPEN
  10
 622.22836269421
  20
 4284.8314606750
  30
0.0
  41
 30.000000000000
  42
 30.000000000000
  43
 30.000000000000
  50
 90.000000000000
   0
MTEXT
   5
D2
 100
AcDbEntity
   8
LEVEL001
 370
13
  62
1
 100
AcDbMText
  10
 593.94264840850
  20
 3034.8314606750
  30
0.0
  40
 66.000000000000
  41
0.0
  71
8
  72
1
   1
\A1;2500(標準設置高さ)
   7
GMM001
  11
0.0
  21
 1.0000000000000
  31
0.0
   0
ENDBLK
   5
D3
 100
AcDbEntity
   8
0
 100
AcDbBlockEnd
   0
BLOCK
   5
D4
 100
AcDbEntity
   8
0
 100
AcDbBlockBegin
   2
*D14
  70
65
  10
0.0
  20
0.0
  30
0.0
   3
*D14
   0
LINE
   5
D5
 100
AcDbEntity
   8
LEVEL001
 370
13
 100
AcDbLine
   6
CONTINUOUS
  62
6
  10
 2522.2283626942
  20
 3034.8314606750
  30
0.0
  11
 2522.2283626942
  21
 3034.8314606750
  31
0.0
   0
LINE
   5
D6
 100
AcDbEntity
   8
LEVEL001
 370
13
 100
AcDbLine
   6
CONTINUOUS
  62
6
  10
 2872.2283626942
  20
 4270.8533463854
  30
0.0
  11
 2872.2283626942
  21
 3004.8314606750
  31
0.0
   0
LINE
   5
D7
 100
AcDbEntity
   8
LEVEL001
 370
13
 100
AcDbLine
   6
CONTINUOUS
  62
6
  10
 2522.2283626942
  20
 3034.8314606750
  30
0.0
  11
 2872.2283626942
  21
 3034.8314606750
  31
0.0
   0
INSERT
   5
D8
 100
AcDbEntity
   8
LEVEL001
   6
CONTINUOUS
  62
6
 100
AcDbBlockReference
   2
_OPEN
  10
 2522.2283626942
  20
 3034.8314606750
  30
0.0
  41
 30.000000000000
  42
 30.000000000000
  43
 30.000000000000
  50
 180.00000000000
   0
INSERT
   5
D9
 100
AcDbEntity
   8
LEVEL001
   6
CONTINUOUS
  62
6
 100
AcDbBlockReference
   2
_OPEN
  10
 2872.2283626942
  20
 3034.8314606750
  30
0.0
  41
 30.000000000000
  42
 30.000000000000
  43
 30.000000000000
  50
0.0
   0
MTEXT
   5
DA
 100
AcDbEntity
   8
LEVEL001
 370
13
  62
1
 100
AcDbMText
  10
 2697.2283626942
  20
 3063.1171749607
  30
0.0
  40
 66.000000000000
  41
0.0
  71
8
  72
1
   1
\A1;350
   7
GMM001
   0
ENDBLK
   5
DB
 100
AcDbEntity
   8
0
 100
AcDbBlockEnd
   0
BLOCK
   5
DC
 100
AcDbEntity
   8
0
 100
AcDbBlockBegin
   2
*D17
  70
65
  10
0.0
  20
0.0
  30
0.0
   3
*D17
   0
LINE
   5
DD
 100
AcDbEntity
   8
LEVEL001
 370
13
 100
AcDbLine
   6
CONTINUOUS
  62
6
  10
 1122.2287722828
  20
 854.83146067502
  30
0.0
  11
 1122.2287722828
  21
 554.83146067503
  31
0.0
   0
LINE
   5
DE
 100
AcDbEntity
   8
LEVEL001
 370
13
 100
AcDbLine
   6
CONTINUOUS
  62
6
  10
 1622.2287722828
  20
 854.83146067502
  30
0.0
  11
 1622.2287722828
  21
 554.83146067503
  31
0.0
   0
LINE
   5
DF
 100
AcDbEntity
   8
LEVEL001
 370
13
 100
AcDbLine
   6
CONTINUOUS
  62
6
  10
 1122.2287722828
  20
 584.83146067503
  30
0.0
  11
 1622.2287722828
  21
 584.83146067503
  31
0.0
   0
INSERT
   5
E0
 100
AcDbEntity
   8
LEVEL001
   6
CONTINUOUS
  62
6
 100
AcDbBlockReference
   2
_OPEN
  10
 1122.2287722828
  20
 584.83146067503
  30
0.0
  41
 30.000000000000
  42
 30.000000000000
  43
 30.000000000000
  50
 180.00000000000
   0
INSERT
   5
E1
 100
AcDbEntity
   8
LEVEL001
   6
CONTINUOUS
  62
6
 100
AcDbBlockReference
   2
_OPEN
  10
 1622.2287722828
  20
 584.83146067503
  30
0.0
  41
 30.000000000000
  42
 30.000000000000
  43
 30.000000000000
  50
0.0
   0
MTEXT
   5
E2
 100
AcDbEntity
   8
LEVEL001
 370
13
  62
1
 100
AcDbMText
  10
 1372.2287722828
  20
 613.11717496074
  30
0.0
  40
 66.000000000000
  41
0.0
  71
8
  72
1
   1
\A1;□500
   7
GMM001
   0
ENDBLK
   5
E3
 100
AcDbEntity
   8
0
 100
AcDbBlockEnd
   0
BLOCK
   5
E4
 100
AcDbEntity
   8
0
 100
AcDbBlockBegin
   2
*D18
  70
65
  10
0.0
  20
0.0
  30
0.0
   3
*D18
   0
LINE
   5
E5
 100
AcDbEntity
   8
LEVEL001
 370
13
 100
AcDbLine
   6
CONTINUOUS
  62
6
  10
 2272.2283626942
  20
 854.83146067502
  30
0.0
  11
 2272.2283626942
  21
 554.83146067503
  31
0.0
   0
LINE
   5
E6
 100
AcDbEntity
   8
LEVEL001
 370
13
 100
AcDbLine
   6
CONTINUOUS
  62
6
  10
 2772.2283626942
  20
 854.83146067502
  30
0.0
  11
 2772.2283626942
  21
 554.83146067503
  31
0.0
   0
LINE
   5
E7
 100
AcDbEntity
   8
LEVEL001
 370
13
 100
AcDbLine
   6
CONTINUOUS
  62
6
  10
 2272.2283626942
  20
 584.83146067503
  30
0.0
  11
 2772.2283626942
  21
 584.83146067503
  31
0.0
   0
INSERT
   5
E8
 100
AcDbEntity
   8
LEVEL001
   6
CONTINUOUS
  62
6
 100
AcDbBlockReference
   2
_OPEN
  10
 2272.2283626942
  20
 584.83146067503
  30
0.0
  41
 30.000000000000
  42
 30.000000000000
  43
 30.000000000000
  50
 180.00000000000
   0
INSERT
   5
E9
 100
AcDbEntity
   8
LEVEL001
   6
CONTINUOUS
  62
6
 100
AcDbBlockReference
   2
_OPEN
  10
 2772.2283626942
  20
 584.83146067503
  30
0.0
  41
 30.000000000000
  42
 30.000000000000
  43
 30.000000000000
  50
0.0
   0
MTEXT
   5
EA
 100
AcDbEntity
   8
LEVEL001
 370
13
  62
1
 100
AcDbMText
  10
 2522.2283626942
  20
 613.11717496074
  30
0.0
  40
 66.000000000000
  41
0.0
  71
8
  72
1
   1
\A1;□500
   7
GMM001
   0
ENDBLK
   5
EB
 100
AcDbEntity
   8
0
 100
AcDbBlockEnd
   0
ENDSEC
   0
SECTION
   2
ENTITIES
   0
LWPOLYLINE
   5
EC
 100
AcDbEntity
   8
LEVEL001
 370
13
   6
CONTINUOUS
  62
7
 100
AcDbPolyline
  90
4
  70
1
  10
 312.22836269421
  20
 184.83146067416
  10
 312.22836269421
  20
 5784.8314606742
  10
 8098.8952328114
  20
 5784.8314606742
  10
 8098.8952328114
  20
 184.83146067416
   0
LINE
   5
ED
 100
AcDbEntity
   8
LEVEL001
 370
13
 100
AcDbLine
   6
CONTINUOUS
  62
1
  10
 5583.1374536033
  20
 664.83146067416
  30
0.0
  11
 7223.1374536033
  21
 664.83146067416
  31
0.0
   0
CIRCLE
   5
EE
 100
AcDbEntity
   8
LEVEL001
 370
13
 100
AcDbCircle
   6
CONTINUOUS
  62
1
  10
 2122.2283626942
  20
 4284.8314606750
  30
0.0
  40
 69.999997913838
   0
MTEXT
   5
F0
 100
AcDbEntity
   8
LEVEL001
 370
13
  62
7
 100
AcDbMText
  10
 2122.2283626942
  20
 4284.8314606750
  30
0.0
  40
 66.000000000000
  41
0.0
  71
5
  72
1
   1
\T1.000000;１
   7
GMM001
  44
 0.79999984000003
   0
CIRCLE
   5
F1
 100
AcDbEntity
   8
LEVEL001
 370
13
 100
AcDbCircle
   6
CONTINUOUS
  62
1
  10
 2122.2283626942
  20
 4909.8314606750
  30
0.0
  40
 69.999997913838
   0
MTEXT
   5
F3
 100
AcDbEntity
   8
LEVEL001
 370
13
  62
7
 100
AcDbMText
  10
 2122.2283626942
  20
 4909.8314606750
  30
0.0
  40
 66.000000000000
  41
0.0
  71
5
  72
1
   1
\T1.000000;３
   7
GMM001
  44
 0.79999984000003
   0
CIRCLE
   5
F4
 100
AcDbEntity
   8
LEVEL001
 370
13
 100
AcDbCircle
   6
CONTINUOUS
  62
1
  10
 1122.2283626942
  20
 4159.8314606750
  30
0.0
  40
 69.999997913838
   0
MTEXT
   5
F6
 100
AcDbEntity
   8
LEVEL001
 370
13
  62
7
 100
AcDbMText
  10
 1122.2283626942
  20
 4159.8314606750
  30
0.0
  40
 66.000000000000
  41
0.0
  71
5
  72
1
   1
\T1.000000;５
   7
GMM001
  44
 0.79999984000003
   0
CIRCLE
   5
F7
 100
AcDbEntity
   8
LEVEL001
 370
13
 100
AcDbCircle
   6
CONTINUOUS
  62
1
  10
 1622.2283626942
  20
 4159.8314606750
  30
0.0
  40
 69.999997913838
   0
MTEXT
   5
F9
 100
AcDbEntity
   8
LEVEL001
 370
13
  62
7
 100
AcDbMText
  10
 1622.2283626942
  20
 4159.8314606750
  30
0.0
  40
 66.000000000000
  41
0.0
  71
5
  72
1
   1
\T1.000000;４
   7
GMM001
  44
 0.79999984000003
   0
CIRCLE
   5
FA
 100
AcDbEntity
   8
LEVEL001
 370
13
 100
AcDbCircle
   6
CONTINUOUS
  62
1
  10
 2997.2283626942
  20
 4909.8314606750
  30
0.0
  40
 69.999997913838
   0
MTEXT
   5
FC
 100
AcDbEntity
   8
LEVEL001
 370
13
  62
7
 100
AcDbMText
  10
 2997.2283626942
  20
 4909.8314606750
  30
0.0
  40
 66.000000000000
  41
0.0
  71
5
  72
1
   1
\T1.000000;１２
   7
GMM001
  44
 0.79999984000003
   0
CIRCLE
   5
FD
 100
AcDbEntity
   8
LEVEL001
 370
13
 100
AcDbCircle
   6
CONTINUOUS
  62
1
  10
 3872.2283626942
  20
 4159.8314606750
  30
0.0
  40
 69.999997913838
   0
MTEXT
   5
FF
 100
AcDbEntity
   8
LEVEL001
 370
13
  62
7
 100
AcDbMText
  10
 3872.2283626942
  20
 4159.8314606750
  30
0.0
  40
 66.000000000000
  41
0.0
  71
5
  72
1
   1
\T1.000000;２
   7
GMM001
  44
 0.79999984000003
   0
CIRCLE
   5
100
 100
AcDbEntity
   8
LEVEL001
 370
13
 100
AcDbCircle
   6
CONTINUOUS
  62
1
  10
 3122.2283626942
  20
 4784.8314606750
  30
0.0
  40
 69.999997913838
   0
CIRCLE
   5
101
 100
AcDbEntity
   8
LEVEL001
 370
13
 100
AcDbCircle
   6
CONTINUOUS
  62
1
  10
 3262.2283585219
  20
 4784.8314606750
  30
0.0
  40
 69.999997913838
   0
MTEXT
   5
103
 100
AcDbEntity
   8
LEVEL001
 370
13
  62
7
 100
AcDbMText
  10
 3122.2283626942
  20
 4784.8314606750
  30
0.0
  40
 66.000000000000
  41
0.0
  71
5
  72
1
   1
\T1.000000;７
   7
GMM001
  44
 0.79999984000003
   0
MTEXT
   5
105
 100
AcDbEntity
   8
LEVEL001
 370
13
  62
7
 100
AcDbMText
  10
 3262.2283585219
  20
 4784.8314606750
  30
0.0
  40
 66.000000000000
  41
0.0
  71
5
  72
1
   1
\T1.000000;９
   7
GMM001
  44
 0.79999984000003
   0
CIRCLE
   5
106
 100
AcDbEntity
   8
LEVEL001
 370
13
 100
AcDbCircle
   6
CONTINUOUS
  62
1
  10
 2872.2283626942
  20
 5097.3314606750
  30
0.0
  40
 69.999997913838
   0
CIRCLE
   5
107
 100
AcDbEntity
   8
LEVEL001
 370
13
 100
AcDbCircle
   6
CONTINUOUS
  62
1
  10
 3012.2283585219
  20
 5097.3314606750
  30
0.0
  40
 69.999997913838
   0
MTEXT
   5
109
 100
AcDbEntity
   8
LEVEL001
 370
13
  62
7
 100
AcDbMText
  10
 2872.2283626942
  20
 5097.3314606750
  30
0.0
  40
 66.000000000000
  41
0.0
  71
5
  72
1
   1
\T1.000000;６
   7
GMM001
  44
 0.79999984000003
   0
MTEXT
   5
10B
 100
AcDbEntity
   8
LEVEL001
 370
13
  62
7
 100
AcDbMText
  10
 3012.2283585219
  20
 5097.3314606750
  30
0.0
  40
 66.000000000000
  41
0.0
  71
5
  72
1
   1
\T1.000000;８
   7
GMM001
  44
 0.79999984000003
   0
CIRCLE
   5
10C
 100
AcDbEntity
   8
LEVEL001
 370
13
 100
AcDbCircle
   6
CONTINUOUS
  62
7
  10
 1372.2283626942
  20
 4584.8314606742
  30
0.0
  40
 300.00000000000
   0
LINE
   5
10D
 100
AcDbEntity
   8
LEVEL001
 370
13
 100
AcDbLine
   6
CONTINUOUS
  62
7
  10
 1665.4313640431
  20
 4675.8314606742
  30
0.0
  11
 1658.0937156141
  21
 4675.8314606742
  31
0.0
   0
LINE
   5
10E
 100
AcDbEntity
   8
LEVEL001
 370
13
 100
AcDbLine
   6
CONTINUOUS
  62
7
  10
 1079.0253613453
  20
 4675.8314606742
  30
0.0
  11
 1086.3630097743
  21
 4675.8314606742
  31
0.0
   0
ARC
   5
10F
 100
AcDbEntity
   8
LEVEL001
 370
13
   6
CONTINUOUS
  62
1
 100
AcDbCircle
  10
 1650.4648533144
  20
 4714.5752670285
  30
0.0
  40
 7.5000000000000
 100
AcDbArc
  50
 294.30011558161
  51
 115.69988441839
   0
ARC
   5
110
 100
AcDbEntity
   8
LEVEL001
 370
13
   6
CONTINUOUS
  62
1
 100
AcDbCircle
  10
 1093.9918720740
  20
 4714.5752670285
  30
0.0
  40
 7.5000000000000
 100
AcDbArc
  50
 64.300115581635
  51
 245.69988441836
   0
ARC
   5
111
 100
AcDbEntity
   8
LEVEL001
 370
13
   6
CONTINUOUS
  62
1
 100
AcDbCircle
  10
 1372.2283626942
  20
 4284.8314606742
  30
0.0
  40
 7.5000000000000
 100
AcDbArc
  50
 179.28378410398
  51
 0.71621589602122
   0
ARC
   5
112
 100
AcDbEntity
   8
LEVEL001
 370
13
   6
CONTINUOUS
  62
1
 100
AcDbCircle
  10
 1477.2285466952
  20
 4873.3170952554
  30
0.0
  40
 7.5000000000000
 100
AcDbArc
  50
 339.30011558096
  51
 160.69988441904
   0
ARC
   5
113
 100
AcDbEntity
   8
LEVEL001
 370
13
   6
CONTINUOUS
  62
1
 100
AcDbCircle
  10
 1267.2281786932
  20
 4873.3170952554
  30
0.0
  40
 7.5000000000000
 100
AcDbArc
  50
 19.300115581357
  51
 200.69988441867
   0
ARC
   5
114
 100
AcDbEntity
   8
LEVEL001
 370
13
   6
CONTINUOUS
  62
1
 100
AcDbCircle
  10
 1117.8139338474
  20
 4425.8556814041
  30
0.0
  40
 7.5000000000000
 100
AcDbArc
  50
 121.28378410396
  51
 302.71621589608
   0
ARC
   5
115
 100
AcDbEntity
   8
LEVEL001
 370
13
   6
CONTINUOUS
  62
1
 100
AcDbCircle
  10
 1626.6427915411
  20
 4425.8556814041
  30
0.0
  40
 7.5000000000000
 100
AcDbArc
  50
 237.28378410392
  51
 58.716215896037
   0
ARC
   5
116
 100
AcDbEntity
   8
LEVEL001
 370
13
   6
CONTINUOUS
  62
7
 100
AcDbCircle
  10
 1372.2283626942
  20
 4584.8314606742
  30
0.0
  40
 307.00000000000
 100
AcDbArc
  50
 17.242522646568
  51
 162.75747735343
   0
CIRCLE
   5
117
 100
AcDbEntity
   8
LEVEL001
 370
13
 100
AcDbCircle
   6
CONTINUOUS
  62
2
  10
 1372.2283626942
  20
 4584.8314606742
  30
0.0
  40
 285.00000000000
   0
LINE
   5
118
 100
AcDbEntity
   8
LEVEL001
 370
13
 100
AcDbLine
   6
DASHDOT
  62
6
  10
 1702.2283626942
  20
 4584.8314606742
  30
0.0
  11
 1042.2283626942
  21
 4584.8314606742
  31
0.0
   0
DIMENSION
   5
119
 100
AcDbEntity
   8
LEVEL001
 370
13
   6
CONTINUOUS
  62
6
 100
AcDbDimension
   2
*D1
  10
 1632.0359838295
  20
 4734.8314606742
  30
0.0
  11
 1358.0855055514
  21
 4609.3276078098
  31
0.0
  70
3
   3
GMM001
 100
AcDbDiametricDimension
  15
 1112.4207415589
  25
 4434.8314606741
  35
0.0
   0
LINE
   5
11A
 100
AcDbEntity
   8
LEVEL001
 370
13
 100
AcDbLine
   6
DASHDOT
  62
6
  10
 2965.6157063701
  20
 4584.8314606742
  30
0.0
  11
 2600.6682074808
  21
 4584.8314606742
  31
0.0
   0
LWPOLYLINE
   5
11B
 100
AcDbEntity
   8
LEVEL001
 370
13
   6
CONTINUOUS
  62
7
 100
AcDbPolyline
  90
4
  70
1
  10
 2754.8360962235
  20
 4607.8314606742
  10
 2768.8360962235
  20
 4607.8314606742
  10
 2768.8360962235
  20
 4621.8314606742
  10
 2754.8360962235
  20
 4621.8314606742
   0
LWPOLYLINE
   5
11C
 100
AcDbEntity
   8
LEVEL001
 370
13
   6
CONTINUOUS
  62
7
 100
AcDbPolyline
  90
4
  70
1
  10
 2754.8360962235
  20
 4547.8314606742
  10
 2768.8360962235
  20
 4547.8314606742
  10
 2768.8360962235
  20
 4561.8314606742
  10
 2754.8360962235
  20
 4561.8314606742
   0
ARC
   5
11D
 100
AcDbEntity
   8
LEVEL001
 370
13
   6
CONTINUOUS
  62
7
 100
AcDbCircle
  10
 2804.7774853516
  20
 4580.4168744931
  30
0.0
  40
 8.0000000000000
 100
AcDbArc
  50
 325.00000000000
  51
 145.00000000000
   0
LWPOLYLINE
   5
11E
 100
AcDbEntity
   8
LEVEL001
 370
13
   6
CONTINUOUS
  62
7
 100
AcDbPolyline
  90
4
  70
0
  10
 2786.8360962235
  20
 4529.8314606742
  10
 2948.4117176610
  20
 4529.8314606742
  10
 2948.4117176610
  20
 4639.8314606742
  10
 2786.8360962235
  20
 4639.8314606742
   0
ARC
   5
11F
 100
AcDbEntity
   8
LEVEL001
 370
13
   6
CONTINUOUS
  62
7
 100
AcDbCircle
  10
 2755.6283626942
  20
 4614.8314606742
  30
0.0
  40
 52.000000000000
 100
AcDbArc
  50
 306.88054979701
  51
 325.00000000001
   0
ARC
   5
120
 100
AcDbEntity
   8
LEVEL001
 370
13
   6
CONTINUOUS
  62
7
 100
AcDbCircle
  10
 2755.6283626942
  20
 4614.8314606742
  30
0.0
  40
 68.000000000000
 100
AcDbArc
  50
 297.31855192773
  51
 325.00000000000
   0
CIRCLE
   5
121
 100
AcDbEntity
   8
LEVEL001
 370
13
 100
AcDbCircle
   6
CONTINUOUS
  62
1
  10
 2688.2275146721
  20
 4714.5752670286
  30
0.0
  40
 7.5000000000000
   0
CIRCLE
   5
122
 100
AcDbEntity
   8
LEVEL001
 370
13
 100
AcDbCircle
   6
CONTINUOUS
  62
1
  10
 2688.2275146721
  20
 4873.3170952554
  30
0.0
  40
 7.5000000000000
   0
ARC
   5
123
 100
AcDbEntity
   8
LEVEL001
 370
13
   6
CONTINUOUS
  62
1
 100
AcDbCircle
  10
 2688.2275146721
  20
 4285.3314606742
  30
0.0
  40
 7.5000000000000
 100
AcDbArc
  50
 180.00000000000
  51
0.0
   0
CIRCLE
   5
124
 100
AcDbEntity
   8
LEVEL001
 370
13
 100
AcDbCircle
   6
CONTINUOUS
  62
1
  10
 2688.2275146721
  20
 4425.8556814041
  30
0.0
  40
 7.5000000000000
   0
LINE
   5
125
 100
AcDbEntity
   8
LEVEL001
 370
13
 100
AcDbLine
   6
CONTINUOUS
  62
1
  10
 2703.6360494360
  20
 4579.8314591136
  30
0.0
  11
 2703.6360535975
  21
 4579.8314606742
  31
0.0
   0
ARC
   5
126
 100
AcDbEntity
   8
LEVEL001
 370
13
   6
CONTINUOUS
  62
1
 100
AcDbCircle
  10
 2698.8371796880
  20
 4584.8314606742
  30
0.0
  40
 4.7988739094943
 100
AcDbArc
  50
 303.26696871547
  51
 56.733031284531
   0
LINE
   5
127
 100
AcDbEntity
   8
LEVEL001
 370
13
 100
AcDbLine
   6
CONTINUOUS
  62
1
  10
 2701.4695582051
  20
 4588.8439130592
  30
0.0
  11
 2700.2275146721
  21
 4589.0868090896
  31
0.0
   0
LINE
   5
128
 100
AcDbEntity
   8
LEVEL001
 370
13
 100
AcDbLine
   6
CONTINUOUS
  62
1
  10
 2701.4695582051
  20
 4580.8190082891
  30
0.0
  11
 2700.2275146721
  21
 4580.5761124288
  31
0.0
   0
LINE
   5
129
 100
AcDbEntity
   8
LEVEL001
 370
13
 100
AcDbLine
   6
CONTINUOUS
  62
1
  10
 2700.2275146721
  20
 4584.8314606742
  30
0.0
  11
 2701.4695582051
  21
 4584.8314606742
  31
0.0
   0
LWPOLYLINE
   5
12A
 100
AcDbEntity
   8
LEVEL001
 370
13
   6
CONTINUOUS
  62
7
 100
AcDbPolyline
  90
4
  70
0
  10
 2700.2275146721
  20
 4529.8314606742
  10
 2786.8360962235
  20
 4529.8314606742
  10
 2786.8360962235
  20
 4639.8314606742
  10
 2700.2275146721
  20
 4639.8314606742
   0
LINE
   5
12B
 100
AcDbEntity
   8
LEVEL001
 370
13
 100
AcDbLine
   6
CONTINUOUS
  62
6
  10
 2835.6283626942
  20
 4534.8314606742
  30
0.0
  11
 2835.6283626942
  21
 4634.8314606742
  31
0.0
   0
LWPOLYLINE
   5
12C
 100
AcDbEntity
   8
LEVEL001
 370
13
   6
CONTINUOUS
  62
7
 100
AcDbPolyline
  90
4
  70
1
  10
 2921.4117176610
  20
 4607.8314606742
  10
 2935.4117176610
  20
 4607.8314606742
  10
 2935.4117176610
  20
 4621.8314606742
  10
 2921.4117176610
  20
 4621.8314606742
   0
LWPOLYLINE
   5
12D
 100
AcDbEntity
   8
LEVEL001
 370
13
   6
CONTINUOUS
  62
7
 100
AcDbPolyline
  90
4
  70
1
  10
 2921.4117176610
  20
 4547.8314606742
  10
 2935.4117176610
  20
 4547.8314606742
  10
 2935.4117176610
  20
 4561.8314606742
  10
 2921.4117176610
  20
 4561.8314606742
   0
LINE
   5
12E
 100
AcDbEntity
   8
LEVEL001
 370
13
 100
AcDbLine
   6
CONTINUOUS
  62
6
  10
 2908.8397272150
  20
 4634.8314606742
  30
0.0
  11
 2908.8397272150
  21
 4534.8314606742
  31
0.0
   0
CIRCLE
   5
12F
 100
AcDbEntity
   8
LEVEL001
 370
13
 100
AcDbCircle
   6
CONTINUOUS
  62
7
  10
 4122.2283626942
  20
 4584.8314606742
  30
0.0
  40
 300.00000000000
   0
LINE
   5
130
 100
AcDbEntity
   8
LEVEL001
 370
13
 100
AcDbLine
   6
CONTINUOUS
  62
7
  10
 3829.0253613453
  20
 4675.8314606742
  30
0.0
  11
 3836.3630097743
  21
 4675.8314606742
  31
0.0
   0
LINE
   5
131
 100
AcDbEntity
   8
LEVEL001
 370
13
 100
AcDbLine
   6
CONTINUOUS
  62
7
  10
 4415.4313640431
  20
 4675.8314606742
  30
0.0
  11
 4408.0937156141
  21
 4675.8314606742
  31
0.0
   0
ARC
   5
132
 100
AcDbEntity
   8
LEVEL001
 370
13
   6
CONTINUOUS
  62
1
 100
AcDbCircle
  10
 3843.9918720740
  20
 4714.5752670285
  30
0.0
  40
 7.5000000000000
 100
AcDbArc
  50
 64.300115581517
  51
 245.69988441849
   0
ARC
   5
133
 100
AcDbEntity
   8
LEVEL001
 370
13
   6
CONTINUOUS
  62
1
 100
AcDbCircle
  10
 4400.4648533144
  20
 4714.5752670285
  30
0.0
  40
 7.5000000000000
 100
AcDbArc
  50
 294.30011558157
  51
 115.69988441843
   0
ARC
   5
134
 100
AcDbEntity
   8
LEVEL001
 370
13
   6
CONTINUOUS
  62
1
 100
AcDbCircle
  10
 4122.2283626942
  20
 4284.8314606742
  30
0.0
  40
 7.5000000000000
 100
AcDbArc
  50
 179.28378410391
  51
 0.71621589609071
   0
ARC
   5
135
 100
AcDbEntity
   8
LEVEL001
 370
13
   6
CONTINUOUS
  62
1
 100
AcDbCircle
  10
 4017.2281786932
  20
 4873.3170952554
  30
0.0
  40
 7.5000000000000
 100
AcDbArc
  50
 19.300115581621
  51
 200.69988441840
   0
ARC
   5
136
 100
AcDbEntity
   8
LEVEL001
 370
13
   6
CONTINUOUS
  62
1
 100
AcDbCircle
  10
 4227.2285466952
  20
 4873.3170952554
  30
0.0
  40
 7.5000000000000
 100
AcDbArc
  50
 339.30011558131
  51
 160.69988441868
   0
ARC
   5
137
 100
AcDbEntity
   8
LEVEL001
 370
13
   6
CONTINUOUS
  62
1
 100
AcDbCircle
  10
 4376.6427915410
  20
 4425.8556814041
  30
0.0
  40
 7.5000000000000
 100
AcDbArc
  50
 237.28378410423
  51
 58.716215895726
   0
ARC
   5
138
 100
AcDbEntity
   8
LEVEL001
 370
13
   6
CONTINUOUS
  62
1
 100
AcDbCircle
  10
 3867.8139338474
  20
 4425.8556814041
  30
0.0
  40
 7.5000000000000
 100
AcDbArc
  50
 121.28378410420
  51
 302.71621589584
   0
ARC
   5
139
 100
AcDbEntity
   8
LEVEL001
 370
13
   6
CONTINUOUS
  62
7
 100
AcDbCircle
  10
 4122.2283626942
  20
 4584.8314606742
  30
0.0
  40
 307.00000000000
 100
AcDbArc
  50
 17.242522646568
  51
 162.75747735343
   0
ARC
   5
13A
 100
AcDbEntity
   8
LEVEL001
 370
13
   6
CONTINUOUS
  62
2
 100
AcDbCircle
  10
 4183.7926414263
  20
 4701.5956519164
  30
0.0
  40
 14.999999551465
 100
AcDbArc
  50
 242.19997303132
  51
 310.03934226670
   0
LINE
   5
13B
 100
AcDbEntity
   8
LEVEL001
 370
13
 100
AcDbLine
   6
CONTINUOUS
  62
2
  10
 4193.4423430997
  20
 4690.1116088932
  30
0.0
  11
 4292.0562317524
  21
 4772.9750707709
  31
0.0
   0
LINE
   5
13C
 100
AcDbEntity
   8
LEVEL001
 370
13
 100
AcDbLine
   6
CONTINUOUS
  62
2
  10
 4016.9482077523
  20
 4656.0454478025
  30
0.0
  11
 3934.0844406988
  21
 4754.6593364553
  31
0.0
   0
LINE
   5
13D
 100
AcDbEntity
   8
LEVEL001
 370
13
 100
AcDbLine
   6
CONTINUOUS
  62
2
  10
 4051.0143688430
  20
 4690.1116088932
  30
0.0
  11
 3952.4004801902
  21
 4772.9750707709
  31
0.0
   0
ARC
   5
13E
 100
AcDbEntity
   8
LEVEL001
 370
13
   6
CONTINUOUS
  62
2
 100
AcDbCircle
  10
 3944.0374858794
  20
 4763.0221649315
  30
0.0
  40
 13.000000326526
 100
AcDbArc
  50
 49.961123640752
  51
 220.03792170803
   0
ARC
   5
13F
 100
AcDbEntity
   8
LEVEL001
 370
13
   6
CONTINUOUS
  62
2
 100
AcDbCircle
  10
 4060.6643058379
  20
 4701.5954541786
  30
0.0
  40
 14.999999551465
 100
AcDbArc
  50
 229.95948366515
  51
 297.80164640215
   0
ARC
   5
140
 100
AcDbEntity
   8
LEVEL001
 370
13
   6
CONTINUOUS
  62
2
 100
AcDbCircle
  10
 4005.4642635965
  20
 4646.3956284688
  30
0.0
  40
 14.999999551465
 100
AcDbArc
  50
 332.19916331550
  51
 40.039929295816
   0
ARC
   5
141
 100
AcDbEntity
   8
LEVEL001
 370
13
   6
CONTINUOUS
  62
2
 100
AcDbCircle
  10
 4122.2286611471
  20
 4584.8314673971
  30
0.0
  40
 116.99999459408
 100
AcDbArc
  50
 62.199479478545
  51
 117.80052052146
   0
CIRCLE
   5
142
 100
AcDbEntity
   8
LEVEL001
 370
13
 100
AcDbCircle
   6
CONTINUOUS
  62
2
  10
 4122.2283559713
  20
 4584.8314606742
  30
0.0
  40
 99.999997009768
   0
LINE
   5
143
 100
AcDbEntity
   8
LEVEL001
 370
13
 100
AcDbLine
   6
CONTINUOUS
  62
2
  10
 4016.9482077523
  20
 4513.6174735458
  30
0.0
  11
 3934.0844406988
  21
 4415.0035848930
  31
0.0
   0
LINE
   5
144
 100
AcDbEntity
   8
LEVEL001
 370
13
 100
AcDbLine
   6
CONTINUOUS
  62
2
  10
 4051.0143688430
  20
 4479.5513124551
  30
0.0
  11
 3952.4004801902
  21
 4396.6878505774
  31
0.0
   0
ARC
   5
145
 100
AcDbEntity
   8
LEVEL001
 370
13
   6
CONTINUOUS
  62
2
 100
AcDbCircle
  10
 3944.0374858794
  20
 4406.6407564168
  30
0.0
  40
 13.000000326526
 100
AcDbArc
  50
 139.96207829197
  51
 310.03887635925
   0
ARC
   5
146
 100
AcDbEntity
   8
LEVEL001
 370
13
   6
CONTINUOUS
  62
2
 100
AcDbCircle
  10
 4005.4642635965
  20
 4523.2672928795
  30
0.0
  40
 14.999999551465
 100
AcDbArc
  50
 319.96007070418
  51
 27.800836684501
   0
ARC
   5
147
 100
AcDbEntity
   8
LEVEL001
 370
13
   6
CONTINUOUS
  62
2
 100
AcDbCircle
  10
 4060.6643058379
  20
 4468.0674671698
  30
0.0
  40
 14.999999551465
 100
AcDbArc
  50
 62.198353597854
  51
 130.04051633485
   0
ARC
   5
148
 100
AcDbEntity
   8
LEVEL001
 370
13
   6
CONTINUOUS
  62
2
 100
AcDbCircle
  10
 4122.2286611471
  20
 4584.8314539513
  30
0.0
  40
 116.99999459408
 100
AcDbArc
  50
 242.19947947854
  51
 297.80052052146
   0
ARC
   5
149
 100
AcDbEntity
   8
LEVEL001
 370
13
   6
CONTINUOUS
  62
2
 100
AcDbCircle
  10
 4183.7926414263
  20
 4468.0672694319
  30
0.0
  40
 14.999999551465
 100
AcDbArc
  50
 49.960657733298
  51
 117.80002696868
   0
LINE
   5
14A
 100
AcDbEntity
   8
LEVEL001
 370
13
 100
AcDbLine
   6
CONTINUOUS
  62
2
  10
 4193.4423430997
  20
 4479.5513124551
  30
0.0
  11
 4292.0562317524
  21
 4396.6878505774
  31
0.0
   0
ARC
   5
14B
 100
AcDbEntity
   8
LEVEL001
 370
13
   6
CONTINUOUS
  62
2
 100
AcDbCircle
  10
 4122.2283492484
  20
 4584.8314606742
  30
0.0
  40
 116.99999459408
 100
AcDbArc
  50
 152.19947947855
  51
 207.80052052145
   0
ARC
   5
14C
 100
AcDbEntity
   8
LEVEL001
 370
13
   6
CONTINUOUS
  62
2
 100
AcDbCircle
  10
 4238.9924483461
  20
 4646.3956284688
  30
0.0
  40
 14.999999551465
 100
AcDbArc
  50
 139.96007070418
  51
 207.80083668449
   0
LINE
   5
14D
 100
AcDbEntity
   8
LEVEL001
 370
13
 100
AcDbLine
   6
CONTINUOUS
  62
2
  10
 4227.5085041904
  20
 4656.0454478025
  30
0.0
  11
 4310.3722712438
  21
 4754.6593364553
  31
0.0
   0
ARC
   5
14E
 100
AcDbEntity
   8
LEVEL001
 370
13
   6
CONTINUOUS
  62
2
 100
AcDbCircle
  10
 4300.4192260632
  20
 4763.0221649315
  30
0.0
  40
 13.000000326526
 100
AcDbArc
  50
 319.96207829198
  51
 130.03887635924
   0
ARC
   5
14F
 100
AcDbEntity
   8
LEVEL001
 370
13
   6
CONTINUOUS
  62
2
 100
AcDbCircle
  10
 4300.4192260632
  20
 4406.6407564168
  30
0.0
  40
 13.000000326526
 100
AcDbArc
  50
 229.96112364076
  51
 40.037921708021
   0
LINE
   5
150
 100
AcDbEntity
   8
LEVEL001
 370
13
 100
AcDbLine
   6
CONTINUOUS
  62
2
  10
 4227.5085041904
  20
 4513.6174735458
  30
0.0
  11
 4310.3722712438
  21
 4415.0035848930
  31
0.0
   0
ARC
   5
151
 100
AcDbEntity
   8
LEVEL001
 370
13
   6
CONTINUOUS
  62
2
 100
AcDbCircle
  10
 4238.9924483461
  20
 4523.2672928795
  30
0.0
  40
 14.999999551465
 100
AcDbArc
  50
 152.19916331551
  51
 220.03992929582
   0
ARC
   5
152
 100
AcDbEntity
   8
LEVEL001
 370
13
   6
CONTINUOUS
  62
2
 100
AcDbCircle
  10
 4122.2283626942
  20
 4584.8314606742
  30
0.0
  40
 116.99999459408
 100
AcDbArc
  50
 332.19947947855
  51
 27.800520521455
   0
LINE
   5
153
 100
AcDbEntity
   8
LEVEL001
 370
13
 100
AcDbLine
   6
CONTINUOUS
  62
6
  10
 4033.5546525682
  20
 4657.7989877891
  30
0.0
  11
 3967.4261145065
  21
 4736.4968003773
  31
0.0
   0
LINE
   5
154
 100
AcDbEntity
   8
LEVEL001
 370
13
 100
AcDbLine
   6
CONTINUOUS
  62
6
  10
 4049.2608288563
  20
 4673.5054692531
  30
0.0
  11
 3970.5627110924
  21
 4739.6340073147
  31
0.0
   0
LINE
   5
155
 100
AcDbEntity
   8
LEVEL001
 370
13
 100
AcDbLine
   6
CONTINUOUS
  62
6
  10
 4195.1958830863
  20
 4673.5054692531
  30
0.0
  11
 4273.8940008502
  21
 4739.6340073147
  31
0.0
   0
LINE
   5
156
 100
AcDbEntity
   8
LEVEL001
 370
13
 100
AcDbLine
   6
CONTINUOUS
  62
6
  10
 4033.5546525682
  20
 4511.8639335592
  30
0.0
  11
 3967.4261145065
  21
 4433.1661209710
  31
0.0
   0
LINE
   5
157
 100
AcDbEntity
   8
LEVEL001
 370
13
 100
AcDbLine
   6
CONTINUOUS
  62
6
  10
 4049.2608288563
  20
 4496.1574520952
  30
0.0
  11
 3970.5627110924
  21
 4430.0289140336
  31
0.0
   0
LINE
   5
158
 100
AcDbEntity
   8
LEVEL001
 370
13
 100
AcDbLine
   6
CONTINUOUS
  62
6
  10
 4195.1958830863
  20
 4496.1574520952
  30
0.0
  11
 4273.8940008502
  21
 4430.0289140336
  31
0.0
   0
LINE
   5
159
 100
AcDbEntity
   8
LEVEL001
 370
13
 100
AcDbLine
   6
CONTINUOUS
  62
6
  10
 4210.9026697260
  20
 4657.7989877891
  30
0.0
  11
 4277.0312077877
  21
 4736.4968003773
  31
0.0
   0
LINE
   5
15A
 100
AcDbEntity
   8
LEVEL001
 370
13
 100
AcDbLine
   6
CONTINUOUS
  62
6
  10
 4210.9026697260
  20
 4511.8639335592
  30
0.0
  11
 4277.0312077877
  21
 4433.1661209710
  31
0.0
   0
CIRCLE
   5
15B
 100
AcDbEntity
   8
LEVEL001
 370
13
 100
AcDbCircle
   6
CONTINUOUS
  62
7
  10
 4082.2283626942
  20
 4619.8314606742
  30
0.0
  40
 7.0000000000000
   0
LINE
   5
15C
 100
AcDbEntity
   8
LEVEL001
 370
13
 100
AcDbLine
   6
DASHDOT
  62
6
  10
 4082.2283626942
  20
 4599.8314606742
  30
0.0
  11
 4082.2283626942
  21
 4639.8314606742
  31
0.0
   0
LINE
   5
15D
 100
AcDbEntity
   8
LEVEL001
 370
13
 100
AcDbLine
   6
DASHDOT
  62
6
  10
 4102.2283626942
  20
 4619.8314606742
  30
0.0
  11
 4062.2283626942
  21
 4619.8314606742
  31
0.0
   0
CIRCLE
   5
15E
 100
AcDbEntity
   8
LEVEL001
 370
13
 100
AcDbCircle
   6
CONTINUOUS
  62
7
  10
 4162.2283626942
  20
 4619.8314606742
  30
0.0
  40
 7.0000000000000
   0
LINE
   5
15F
 100
AcDbEntity
   8
LEVEL001
 370
13
 100
AcDbLine
   6
DASHDOT
  62
6
  10
 4142.2283626942
  20
 4619.8314606742
  30
0.0
  11
 4182.2283626942
  21
 4619.8314606742
  31
0.0
   0
LINE
   5
160
 100
AcDbEntity
   8
LEVEL001
 370
13
 100
AcDbLine
   6
DASHDOT
  62
6
  10
 4162.2283626942
  20
 4599.8314606742
  30
0.0
  11
 4162.2283626942
  21
 4639.8314606742
  31
0.0
   0
CIRCLE
   5
161
 100
AcDbEntity
   8
LEVEL001
 370
13
 100
AcDbCircle
   6
CONTINUOUS
  62
7
  10
 4162.2283626942
  20
 4549.8314606742
  30
0.0
  40
 7.0000000000000
   0
LINE
   5
162
 100
AcDbEntity
   8
LEVEL001
 370
13
 100
AcDbLine
   6
DASHDOT
  62
6
  10
 4162.2283626942
  20
 4569.8314606742
  30
0.0
  11
 4162.2283626942
  21
 4529.8314606742
  31
0.0
   0
LINE
   5
163
 100
AcDbEntity
   8
LEVEL001
 370
13
 100
AcDbLine
   6
DASHDOT
  62
6
  10
 4142.2283626942
  20
 4549.8314606742
  30
0.0
  11
 4182.2283626942
  21
 4549.8314606742
  31
0.0
   0
CIRCLE
   5
164
 100
AcDbEntity
   8
LEVEL001
 370
13
 100
AcDbCircle
   6
CONTINUOUS
  62
7
  10
 4082.2283626942
  20
 4549.8314606742
  30
0.0
  40
 7.0000000000000
   0
LINE
   5
165
 100
AcDbEntity
   8
LEVEL001
 370
13
 100
AcDbLine
   6
DASHDOT
  62
6
  10
 4102.2283626942
  20
 4549.8314606742
  30
0.0
  11
 4062.2283626942
  21
 4549.8314606742
  31
0.0
   0
LINE
   5
166
 100
AcDbEntity
   8
LEVEL001
 370
13
 100
AcDbLine
   6
DASHDOT
  62
6
  10
 4082.2283626942
  20
 4569.8314606742
  30
0.0
  11
 4082.2283626942
  21
 4529.8314606742
  31
0.0
   0
LINE
   5
167
 100
AcDbEntity
   8
LEVEL001
 370
13
 100
AcDbLine
   6
DASHDOT
  62
6
  10
 4122.2283626942
  20
 4254.8314606742
  30
0.0
  11
 4122.2283626942
  21
 4914.8314606742
  31
0.0
   0
LINE
   5
168
 100
AcDbEntity
   8
LEVEL001
 370
13
 100
AcDbLine
   6
DASHDOT
  62
6
  10
 3792.2283626942
  20
 4584.8314606742
  30
0.0
  11
 4452.2283626942
  21
 4584.8314606742
  31
0.0
   0
LEADER
   5
169
 100
AcDbEntity
   8
LEVEL001
 370
13
   6
CONTINUOUS
  62
1
 100
AcDbLeader
   3
GMM002
  73
3
  74
1
  75
0
  40
 66.000000000000
  41
0.0
  76
2
  10
 1604.7122331025
  20
 4785.3314606742
  30
0.0
  10
 2054.1850794223
  20
 4893.8963972575
  30
0.0
  77
1
   0
LEADER
   5
16A
 100
AcDbEntity
   8
LEVEL001
 370
13
   6
CONTINUOUS
  62
1
 100
AcDbLeader
   3
GMM002
  73
3
  74
1
  75
0
  40
 66.000000000000
  41
0.0
  76
2
  10
 2649.5215016187
  20
 4410.3314606742
  30
0.0
  10
 2190.3406542259
  20
 4301.4781461001
  30
0.0
  77
1
   0
LEADER
   5
16B
 100
AcDbEntity
   8
LEVEL001
 370
13
   6
CONTINUOUS
  62
1
 100
AcDbLeader
   3
GMM002
  73
3
  74
1
  75
0
  40
 66.000000000000
  41
0.0
  76
2
  10
 1497.2283626942
  20
 4410.3314606742
  30
0.0
  10
 2053.5877174415
  20
 4299.0595897247
  30
0.0
  77
1
   0
LEADER
   5
16C
 100
AcDbEntity
   8
LEVEL001
 370
13
   6
CONTINUOUS
  62
1
 100
AcDbLeader
   3
GMM002
  73
3
  74
1
  75
0
  40
 66.000000000000
  41
0.0
  76
2
  10
 1365.5147965090
  20
 4281.4881047129
  30
0.0
  10
 1184.8883118888
  20
 4191.5361153728
  30
0.0
  77
1
   0
LEADER
   5
16D
 100
AcDbEntity
   8
LEVEL001
 370
13
   6
CONTINUOUS
  62
1
 100
AcDbLeader
   3
GMM002
  73
3
  74
1
  75
0
  40
 66.000000000000
  41
0.0
  76
2
  10
 1478.3366764539
  20
 4304.2231469144
  30
0.0
  10
 1572.7308894863
  20
 4209.8289338820
  30
0.0
  77
1
   0
LEADER
   5
16E
 100
AcDbEntity
   8
LEVEL001
 370
13
   6
CONTINUOUS
  62
1
 100
AcDbLeader
   3
GMM002
  73
3
  74
1
  75
0
  40
 66.000000000000
  41
0.0
  76
2
  10
 3997.2283626942
  20
 4410.3314606741
  30
0.0
  10
 3903.5333134463
  20
 4222.9413621782
  30
0.0
  77
1
   0
LEADER
   5
16F
 100
AcDbEntity
   8
LEVEL001
 370
13
   6
CONTINUOUS
  62
1
 100
AcDbLeader
   3
GMM002
  73
3
  74
1
  75
0
  40
 66.000000000000
  41
0.0
  76
2
  10
 2747.2283626942
  20
 4639.8314606739
  30
0.0
  10
 2853.0921729875
  20
 5030.4979181308
  30
0.0
  77
1
   0
LEADER
   5
170
 100
AcDbEntity
   8
LEVEL001
 370
13
   6
CONTINUOUS
  62
1
 100
AcDbLeader
   3
GMM002
  73
3
  74
1
  75
0
  40
 66.000000000000
  41
0.0
  76
2
  10
 2948.4117176610
  20
 4639.8314606742
  30
0.0
  10
 3068.5521486964
  20
 4740.3996928611
  30
0.0
  77
1
   0
LWPOLYLINE
   5
171
 100
AcDbEntity
   8
LEVEL001
 370
13
   6
CONTINUOUS
  62
3
 100
AcDbPolyline
  90
5
  70
0
  10
 2700.2275146721
  20
 4888.5814606742
  10
 2640.2275146721
  20
 4888.5814606742
  10
 2640.2275146721
  20
 4731.5797493073
  10
 2680.2275146721
  20
 4675.7949650242
  10
 2700.2275146721
  20
 4675.7949650242
   0
LINE
   5
172
 100
AcDbEntity
   8
LEVEL001
 370
13
 100
AcDbLine
   6
CONTINUOUS
  62
7
  10
 2700.2275146721
  20
 4888.5814606742
  30
0.0
  11
 2700.2275146721
  21
 4675.8314606742
  31
0.0
   0
ARC
   5
173
 100
AcDbEntity
   8
LEVEL001
 370
13
   6
DOT
  62
2
 100
AcDbCircle
  10
 3814.8286027727
  20
 4584.8314606742
  30
0.0
  40
 1178.3000000000
 100
AcDbArc
  50
 165.27501303924
  51
 173.16508510128
   0
LWPOLYLINE
   5
174
 100
AcDbEntity
   8
LEVEL001
 370
13
   6
DOT
  62
2
 100
AcDbPolyline
  90
4
  70
0
  10
 2700.2275146721
  20
 4675.8314606742
  10
 2700.2275146721
  20
 4884.3314606742
  10
 2675.2275146721
  20
 4884.3314606742
  10
 2675.2275146721
  20
 4682.7680630596
   0
LWPOLYLINE
   5
175
 100
AcDbEntity
   8
LEVEL001
 370
13
   6
CONTINUOUS
  62
7
 100
AcDbPolyline
  90
4
  70
0
  10
 2675.2275146721
  20
 4682.4944805209
  10
 2675.2275146721
  20
 4285.3314606742
  10
 2700.2275146721
  20
 4285.3314606742
  10
 2700.2275146721
  20
 4675.8314606742
   0
ARC
   5
176
 100
AcDbEntity
   8
LEVEL001
 370
13
   6
CONTINUOUS
  62
7
 100
AcDbCircle
  10
 3814.8286027727
  20
 4584.8314606742
  30
0.0
  40
 1178.3000000000
 100
AcDbArc
  50
 173.16508510128
  51
 194.72498696076
   0
LEADER
   5
177
 100
AcDbEntity
   8
LEVEL001
 370
13
   6
CONTINUOUS
  62
1
 100
AcDbLeader
   3
GMM002
  73
3
  74
1
  75
0
  40
 66.000000000000
  41
0.0
  76
2
  10
 2640.2275146721
  20
 4784.8314606750
  30
0.0
  10
 2190.3795403834
  20
 4893.8496995857
  30
0.0
  77
1
   0
DIMENSION
   5
178
 100
AcDbEntity
   8
LEVEL001
 370
13
   6
CONTINUOUS
  62
6
 100
AcDbDimension
   2
*D11
  10
 622.22836269421
  20
 984.83146067502
  30
0.0
  11
 622.22836269421
  21
 934.83146067502
  31
0.0
  70
0
   3
GMM003
 100
AcDbAlignedDimension
  13
 1122.2287722828
  23
 884.83146067502
  33
0.0
  14
 1122.2287722828
  24
 984.83146067502
  34
0.0
  50
 90.000000000000
 100
AcDbRotatedDimension
   0
DIMENSION
   5
179
 100
AcDbEntity
   8
LEVEL001
 370
13
   6
CONTINUOUS
  62
6
 100
AcDbDimension
   2
*D12
  10
 622.22836269421
  20
 1784.8314606750
  30
0.0
  11
 622.22836269421
  21
 1384.8314606750
  31
0.0
  70
0
   3
GMM003
 100
AcDbAlignedDimension
  13
 1122.2287722828
  23
 984.83146067502
  33
0.0
  14
 822.22883751777
  24
 1784.8314606750
  34
0.0
  50
 90.000000000000
 100
AcDbRotatedDimension
   0
DIMENSION
   5
17A
 100
AcDbEntity
   8
LEVEL001
 370
13
   6
CONTINUOUS
  62
6
 100
AcDbDimension
   2
*D13
  10
 622.22836269421
  20
 4284.8314606750
  30
0.0
  11
 622.22836269421
  21
 3034.8314606750
  31
0.0
  70
0
   1
\A1;2500(標準設置高さ)
   3
GMM004
 100
AcDbAlignedDimension
  13
 822.22883751777
  23
 1784.8314606750
  33
0.0
  14
 1372.2283626942
  24
 4284.8314606750
  34
0.0
  50
 90.000000000000
 100
AcDbRotatedDimension
   0
LINE
   5
17B
 100
AcDbEntity
   8
LEVEL001
 370
13
 100
AcDbLine
   6
DASHDOT
  62
6
  10
 2593.4589103884
  20
 3826.4135934247
  30
0.0
  11
 2800.9978150000
  21
 4093.2493279253
  31
0.0
   0
LINE
   5
17C
 100
AcDbEntity
   8
LEVEL001
 370
13
 100
AcDbLine
   6
CONTINUOUS
  62
7
  10
 2770.8840279071
  20
 4116.6711623309
  30
0.0
  11
 2563.3451232955
  21
 3849.8354278303
  31
0.0
   0
LINE
   5
17D
 100
AcDbEntity
   8
LEVEL001
 370
13
 100
AcDbLine
   6
CONTINUOUS
  62
7
  10
 2623.5726974813
  20
 3802.9917590191
  30
0.0
  11
 2831.1116020929
  21
 4069.8274935197
  31
0.0
   0
LINE
   5
17E
 100
AcDbEntity
   8
LEVEL001
 370
13
 100
AcDbLine
   6
DASHDOT
  62
6
  10
 2872.2283626942
  20
 4734.8314606750
  30
0.0
  11
 2872.2283626942
  21
 4300.8533463854
  31
0.0
   0
DIMENSION
   5
17F
 100
AcDbEntity
   8
LEVEL001
 370
13
   6
CONTINUOUS
  62
6
 100
AcDbDimension
   2
*D14
  10
 2872.2283626942
  20
 3034.8314606750
  30
0.0
  11
 2697.2283626942
  21
 3034.8314606750
  31
0.0
  70
0
   3
GMM005
 100
AcDbAlignedDimension
  13
 2522.2283626942
  23
 3034.8314606750
  33
0.0
  14
 2872.2283626942
  24
 4300.8533463854
  34
0.0
 100
AcDbRotatedDimension
   0
ARC
   5
180
 100
AcDbEntity
   8
LEVEL001
 370
13
   6
CONTINUOUS
  62
7
 100
AcDbCircle
  10
 2534.0783626942
  20
 4301.3533463845
  30
0.0
  40
 300.00000000000
 100
AcDbArc
  50
 322.12501634890
  51
 360.00000000000
   0
ARC
   5
181
 100
AcDbEntity
   8
LEVEL001
 370
13
   6
DASHDOT
  62
6
 100
AcDbCircle
  10
 2534.0783626942
  20
 4301.3533463845
  30
0.0
  40
 338.15000000000
 100
AcDbArc
  50
 322.12501634890
  51
0.0
   0
ARC
   5
182
 100
AcDbEntity
   8
LEVEL001
 370
13
   6
CONTINUOUS
  62
7
 100
AcDbCircle
  10
 2534.0783626942
  20
 4301.3533463845
  30
0.0
  40
 376.30000000000
 100
AcDbArc
  50
 322.12501634890
  51
0.0
   0
LINE
   5
183
 100
AcDbEntity
   8
LEVEL001
 370
13
 100
AcDbLine
   6
CONTINUOUS
  62
7
  10
 1410.3783626942
  20
 3800.3095749638
  30
0.0
  11
 1410.3783626942
  21
 4287.5219097434
  31
0.0
   0
LINE
   5
184
 100
AcDbEntity
   8
LEVEL001
 370
13
 100
AcDbLine
   6
CONTINUOUS
  62
7
  10
 1334.0783626942
  20
 4287.5218153653
  30
0.0
  11
 1334.0783626942
  21
 3800.3095749638
  31
0.0
   0
LINE
   5
185
 100
AcDbEntity
   8
LEVEL001
 370
13
 100
AcDbLine
   6
CONTINUOUS
  62
7
  10
 2910.3783626942
  20
 4529.8314606742
  30
0.0
  11
 2910.3783626942
  21
 4300.8533463854
  31
0.0
   0
LWPOLYLINE
   5
186
 100
AcDbEntity
   8
LEVEL001
 370
13
   6
CONTINUOUS
  62
7
 100
AcDbPolyline
  90
4
  70
0
  10
 2834.0783626942
  20
 4639.8314606742
  10
 2834.0783626942
  20
 4684.8314606750
  10
 2910.3783626942
  20
 4684.8314606750
  10
 2910.3783626942
  20
 4639.8314606742
   0
LINE
   5
187
 100
AcDbEntity
   8
LEVEL001
 370
13
 100
AcDbLine
   6
CONTINUOUS
  62
7
  10
 2834.0783626942
  20
 4300.8533463854
  30
0.0
  11
 2834.0783626942
  21
 4529.8314606742
  31
0.0
   0
LEADER
   5
188
 100
AcDbEntity
   8
LEVEL001
 370
13
   6
CONTINUOUS
  62
1
 100
AcDbLeader
   3
GMM006
  73
3
  74
1
  75
0
  40
 66.000000000000
  41
0.0
  76
2
  10
 2872.2283626942
  20
 4688.8314606750
  30
0.0
  10
 2964.6358971854
  20
 4847.8820385632
  30
0.0
  77
1
   0
LINE
   5
189
 100
AcDbEntity
   8
LEVEL001
 370
13
 100
AcDbLine
   6
DASHDOT
  62
6
  10
 1372.2283626942
  20
 4914.8314606742
  30
0.0
  11
 1372.2283626942
  21
 884.83146067502
  31
0.0
   0
LWPOLYLINE
   5
18A
 100
AcDbEntity
   8
LEVEL001
 370
13
   6
CONTINUOUS
  62
1
 100
AcDbPolyline
  90
4
  70
1
  10
 2910.3783626942
  20
 4688.8314606750
  10
 2834.0783626942
  20
 4688.8314606750
  10
 2834.0783626942
  20
 4685.8314606750
  10
 2910.3783626942
  20
 4685.8314606750
   0
LWPOLYLINE
   5
18B
 100
AcDbEntity
   8
LEVEL001
 370
13
   6
DOT
  62
6
 100
AcDbPolyline
  90
4
  70
0
  10
 2905.3783626942
  20
 4685.8314606750
  10
 2905.3783626942
  20
 4658.8314606750
  10
 2839.0783626942
  20
 4658.8314606750
  10
 2839.0783626942
  20
 4685.8314606750
   0
LINE
   5
18C
 100
AcDbEntity
   8
LEVEL001
 370
13
 100
AcDbLine
   6
CONTINUOUS
  62
5
  10
 967.22877228263
  20
 1732.3314606750
  30
0.0
  11
 1019.7287722826
  21
 1784.8314606750
  31
0.0
   0
LINE
   5
18D
 100
AcDbEntity
   8
LEVEL001
 370
13
 100
AcDbLine
   6
CONTINUOUS
  62
5
  10
 951.31886970578
  20
 1748.2413632518
  30
0.0
  11
 987.90896712898
  21
 1784.8314606750
  31
0.0
   0
LINE
   5
18E
 100
AcDbEntity
   8
LEVEL001
 370
13
 100
AcDbLine
   6
CONTINUOUS
  62
5
  10
 1003.8188697066
  20
 1784.8314606750
  30
0.0
  11
 959.27382099460
  21
 1740.2864119630
  31
0.0
   0
LINE
   5
18F
 100
AcDbEntity
   8
LEVEL001
 370
13
 100
AcDbLine
   6
CONTINUOUS
  62
5
  10
 1024.4990645532
  20
 1732.3314606750
  30
0.0
  11
 995.86391841792
  21
 1760.9666068103
  31
0.0
   0
LINE
   5
190
 100
AcDbEntity
   8
LEVEL001
 370
13
 100
AcDbLine
   6
CONTINUOUS
  62
5
  10
 1003.8188697061
  20
 1768.9215580985
  30
0.0
  11
 1040.4089671296
  21
 1732.3314606750
  31
0.0
   0
LINE
   5
191
 100
AcDbEntity
   8
LEVEL001
 370
13
 100
AcDbLine
   6
CONTINUOUS
  62
5
  10
 1056.3188697061
  20
 1732.3314606750
  30
0.0
  11
 1011.7738209944
  21
 1776.8765093867
  31
0.0
   0
LINE
   5
192
 100
AcDbEntity
   8
LEVEL001
 370
13
 100
AcDbLine
   6
CONTINUOUS
  62
5
  10
 1019.7287722826
  20
 1784.8314606750
  30
0.0
  11
 1072.2287722828
  21
 1732.3314606750
  31
0.0
   0
LINE
   5
193
 100
AcDbEntity
   8
LEVEL001
 370
13
 100
AcDbLine
   6
CONTINUOUS
  62
5
  10
 866.99906455276
  20
 1784.8314606750
  30
0.0
  11
 814.49906455276
  21
 1732.3314606750
  31
0.0
   0
LINE
   5
194
 100
AcDbEntity
   8
LEVEL001
 370
13
 100
AcDbLine
   6
CONTINUOUS
  62
5
  10
 830.40896712880
  20
 1732.3314606750
  30
0.0
  11
 882.90896712880
  21
 1784.8314606750
  31
0.0
   0
LINE
   5
195
 100
AcDbEntity
   8
LEVEL001
 370
13
 100
AcDbLine
   6
CONTINUOUS
  62
5
  10
 898.81886970641
  20
 1784.8314606750
  30
0.0
  11
 846.31886970641
  21
 1732.3314606750
  31
0.0
   0
LINE
   5
196
 100
AcDbEntity
   8
LEVEL001
 370
13
 100
AcDbLine
   6
CONTINUOUS
  62
5
  10
 862.22877228244
  20
 1732.3314606750
  30
0.0
  11
 914.72877228244
  21
 1784.8314606750
  31
0.0
   0
LINE
   5
197
 100
AcDbEntity
   8
LEVEL001
 370
13
 100
AcDbLine
   6
CONTINUOUS
  62
5
  10
 919.49906455303
  20
 1732.3314606750
  30
0.0
  11
 890.86391841774
  21
 1760.9666068103
  31
0.0
   0
LINE
   5
198
 100
AcDbEntity
   8
LEVEL001
 370
13
 100
AcDbLine
   6
CONTINUOUS
  62
5
  10
 898.81886970595
  20
 1768.9215580985
  30
0.0
  11
 935.40896712946
  21
 1732.3314606750
  31
0.0
   0
LINE
   5
199
 100
AcDbEntity
   8
LEVEL001
 370
13
 100
AcDbLine
   6
CONTINUOUS
  62
5
  10
 951.31886970589
  20
 1732.3314606750
  30
0.0
  11
 906.77382099417
  21
 1776.8765093867
  31
0.0
   0
LINE
   5
19A
 100
AcDbEntity
   8
LEVEL001
 370
13
 100
AcDbLine
   6
CONTINUOUS
  62
5
  10
 914.72877228244
  20
 1784.8314606750
  30
0.0
  11
 967.22877228263
  21
 1732.3314606750
  31
0.0
   0
LINE
   5
19B
 100
AcDbEntity
   8
LEVEL001
 370
13
 100
AcDbLine
   6
CONTINUOUS
  62
5
  10
 971.99906455295
  20
 1784.8314606750
  30
0.0
  11
 943.36391841775
  21
 1756.1963145398
  31
0.0
   0
MTEXT
   5
19D
 100
AcDbEntity
   8
LEVEL001
 370
13
  62
1
 100
AcDbMText
  10
 942.87744272726
  20
 1793.5613977153
  30
0.0
  40
 40.000000000000
  41
0.0
  71
7
  72
1
   1
\T1.000000;ＧＬ
   7
GMM002
  44
 0.79999984000003
   0
LWPOLYLINE
   5
19E
 100
AcDbEntity
   8
LEVEL001
 370
13
   6
CONTINUOUS
  62
1
 100
AcDbPolyline
  90
3
  70
1
  10
 914.72877228244
  20
 1784.8314606750
  10
 889.72877228244
  20
 1834.8314606750
  10
 939.72877228244
  20
 1834.8314606750
   0
LINE
   5
19F
 100
AcDbEntity
   8
LEVEL001
 370
13
 100
AcDbLine
   6
CONTINUOUS
  62
5
  10
 1724.7287722828
  20
 1784.8314606750
  30
0.0
  11
 1672.2287722828
  21
 1732.3314606750
  31
0.0
   0
LINE
   5
1A0
 100
AcDbEntity
   8
LEVEL001
 370
13
 100
AcDbLine
   6
CONTINUOUS
  62
5
  10
 1688.1386748589
  20
 1732.3314606750
  30
0.0
  11
 1740.6386748589
  21
 1784.8314606750
  31
0.0
   0
LINE
   5
1A1
 100
AcDbEntity
   8
LEVEL001
 370
13
 100
AcDbLine
   6
CONTINUOUS
  62
5
  10
 1756.5485774365
  20
 1784.8314606750
  30
0.0
  11
 1704.0485774365
  21
 1732.3314606750
  31
0.0
   0
LINE
   5
1A2
 100
AcDbEntity
   8
LEVEL001
 370
13
 100
AcDbLine
   6
CONTINUOUS
  62
5
  10
 1719.9584800125
  20
 1732.3314606750
  30
0.0
  11
 1772.4584800125
  21
 1784.8314606750
  31
0.0
   0
LINE
   5
1A3
 100
AcDbEntity
   8
LEVEL001
 370
13
 100
AcDbLine
   6
CONTINUOUS
  62
5
  10
 1777.2287722831
  20
 1732.3314606750
  30
0.0
  11
 1748.5936261478
  21
 1760.9666068103
  31
0.0
   0
LINE
   5
1A4
 100
AcDbEntity
   8
LEVEL001
 370
13
 100
AcDbLine
   6
CONTINUOUS
  62
5
  10
 1756.5485774360
  20
 1768.9215580985
  30
0.0
  11
 1793.1386748595
  21
 1732.3314606750
  31
0.0
   0
LINE
   5
1A5
 100
AcDbEntity
   8
LEVEL001
 370
13
 100
AcDbLine
   6
CONTINUOUS
  62
5
  10
 1809.0485774359
  20
 1732.3314606750
  30
0.0
  11
 1764.5035287242
  21
 1776.8765093867
  31
0.0
   0
LINE
   5
1A6
 100
AcDbEntity
   8
LEVEL001
 370
13
 100
AcDbLine
   6
CONTINUOUS
  62
5
  10
 1772.4584800125
  20
 1784.8314606750
  30
0.0
  11
 1824.9584800127
  21
 1732.3314606750
  31
0.0
   0
LINE
   5
1A7
 100
AcDbEntity
   8
LEVEL001
 370
13
 100
AcDbLine
   6
CONTINUOUS
  62
5
  10
 1824.9584800127
  20
 1732.3314606750
  30
0.0
  11
 1877.4584800127
  21
 1784.8314606750
  31
0.0
   0
LINE
   5
1A8
 100
AcDbEntity
   8
LEVEL001
 370
13
 100
AcDbLine
   6
CONTINUOUS
  62
5
  10
 1829.7287722830
  20
 1784.8314606750
  30
0.0
  11
 1801.0936261478
  21
 1756.1963145398
  31
0.0
   0
LINE
   5
1A9
 100
AcDbEntity
   8
LEVEL001
 370
13
 100
AcDbLine
   6
CONTINUOUS
  62
5
  10
 1809.0485774358
  20
 1748.2413632518
  30
0.0
  11
 1845.6386748590
  21
 1784.8314606750
  31
0.0
   0
LINE
   5
1AA
 100
AcDbEntity
   8
LEVEL001
 370
13
 100
AcDbLine
   6
CONTINUOUS
  62
5
  10
 1861.5485774366
  20
 1784.8314606750
  30
0.0
  11
 1817.0035287246
  21
 1740.2864119630
  31
0.0
   0
LINE
   5
1AB
 100
AcDbEntity
   8
LEVEL001
 370
13
 100
AcDbLine
   6
CONTINUOUS
  62
5
  10
 1882.2287722833
  20
 1732.3314606750
  30
0.0
  11
 1853.5936261480
  21
 1760.9666068103
  31
0.0
   0
LINE
   5
1AC
 100
AcDbEntity
   8
LEVEL001
 370
13
 100
AcDbLine
   6
CONTINUOUS
  62
5
  10
 1861.5485774362
  20
 1768.9215580985
  30
0.0
  11
 1898.1386748597
  21
 1732.3314606750
  31
0.0
   0
LINE
   5
1AD
 100
AcDbEntity
   8
LEVEL001
 370
13
 100
AcDbLine
   6
CONTINUOUS
  62
5
  10
 1914.0485774361
  20
 1732.3314606750
  30
0.0
  11
 1869.5035287244
  21
 1776.8765093867
  31
0.0
   0
LINE
   5
1AE
 100
AcDbEntity
   8
LEVEL001
 370
13
 100
AcDbLine
   6
CONTINUOUS
  62
5
  10
 1877.4584800127
  20
 1784.8314606750
  30
0.0
  11
 1929.9584800129
  21
 1732.3314606750
  31
0.0
   0
LINE
   5
1AF
 100
AcDbEntity
   8
LEVEL001
 370
13
 100
AcDbLine
   6
CONTINUOUS
  62
5
  10
 1622.2287722828
  20
 1784.8314606750
  30
0.0
  11
 1922.2288375178
  21
 1784.8314606750
  31
0.0
   0
LINE
   5
1B0
 100
AcDbEntity
   8
LEVEL001
 370
13
 100
AcDbLine
   6
CONTINUOUS
  62
5
  10
 1122.2287722828
  20
 1784.8314606750
  30
0.0
  11
 822.22883751777
  21
 1784.8314606750
  31
0.0
   0
CIRCLE
   5
1B1
 100
AcDbEntity
   8
LEVEL001
 370
13
 100
AcDbCircle
   6
CONTINUOUS
  62
1
  10
 1622.2283626942
  20
 2659.8314606750
  30
0.0
  40
 69.999997913838
   0
MTEXT
   5
1B3
 100
AcDbEntity
   8
LEVEL001
 370
13
  62
7
 100
AcDbMText
  10
 1622.2283626942
  20
 2659.8314606750
  30
0.0
  40
 66.000000000000
  41
0.0
  71
5
  72
1
   1
\T1.000000;１０
   7
GMM001
  44
 0.79999984000003
   0
LEADER
   5
1B4
 100
AcDbEntity
   8
LEVEL001
 370
13
   6
CONTINUOUS
  62
1
 100
AcDbLeader
   3
GMM002
  73
3
  74
1
  75
0
  40
 66.000000000000
  41
0.0
  76
2
  10
 1410.3783626942
  20
 2534.8314606750
  30
0.0
  10
 1561.9405751298
  20
 2624.2592471014
  30
0.0
  77
1
   0
MTEXT
   5
1B6
 100
AcDbEntity
   8
LEVEL001
 370
13
  62
1
 100
AcDbMText
  10
 2142.8769679037
  20
 1793.5613977153
  30
0.0
  40
 40.000000000000
  41
0.0
  71
7
  72
1
   1
\T1.000000;ＧＬ
   7
GMM002
  44
 0.79999984000003
   0
LINE
   5
1B7
 100
AcDbEntity
   8
LEVEL001
 370
13
 100
AcDbLine
   6
CONTINUOUS
  62
5
  10
 2153.8184601175
  20
 1768.9215580985
  30
0.0
  11
 2190.4085575410
  21
 1732.3314606750
  31
0.0
   0
LINE
   5
1B8
 100
AcDbEntity
   8
LEVEL001
 370
13
 100
AcDbLine
   6
CONTINUOUS
  62
5
  10
 2206.3184601175
  20
 1732.3314606750
  30
0.0
  11
 2161.7734114058
  21
 1776.8765093867
  31
0.0
   0
LINE
   5
1B9
 100
AcDbEntity
   8
LEVEL001
 370
13
 100
AcDbLine
   6
CONTINUOUS
  62
5
  10
 2169.7283626940
  20
 1784.8314606750
  30
0.0
  11
 2222.2283626942
  21
 1732.3314606750
  31
0.0
   0
LINE
   5
1BA
 100
AcDbEntity
   8
LEVEL001
 370
13
 100
AcDbLine
   6
CONTINUOUS
  62
5
  10
 2434.0784279292
  20
 1784.8314606750
  30
0.0
  11
 1972.2284279292
  21
 1784.8314606750
  31
0.0
   0
LWPOLYLINE
   5
1BB
 100
AcDbEntity
   8
LEVEL001
 370
13
   6
CONTINUOUS
  62
1
 100
AcDbPolyline
  90
3
  70
1
  10
 2114.7282974589
  20
 1784.8314606750
  10
 2089.7282974589
  20
 1834.8314606750
  10
 2139.7282974589
  20
 1834.8314606750
   0
LINE
   5
1BC
 100
AcDbEntity
   8
LEVEL001
 370
13
 100
AcDbLine
   6
CONTINUOUS
  62
5
  10
 2117.2283626940
  20
 1732.3314606750
  30
0.0
  11
 2169.7283626940
  21
 1784.8314606750
  31
0.0
   0
LINE
   5
1BD
 100
AcDbEntity
   8
LEVEL001
 370
13
 100
AcDbLine
   6
CONTINUOUS
  62
5
  10
 2101.3184601172
  20
 1748.2413632518
  30
0.0
  11
 2137.9085575404
  21
 1784.8314606750
  31
0.0
   0
LINE
   5
1BE
 100
AcDbEntity
   8
LEVEL001
 370
13
 100
AcDbLine
   6
CONTINUOUS
  62
5
  10
 2153.8184601180
  20
 1784.8314606750
  30
0.0
  11
 2109.2734114060
  21
 1740.2864119630
  31
0.0
   0
LINE
   5
1BF
 100
AcDbEntity
   8
LEVEL001
 370
13
 100
AcDbLine
   6
CONTINUOUS
  62
5
  10
 2174.4986549646
  20
 1732.3314606750
  30
0.0
  11
 2145.8635088293
  21
 1760.9666068103
  31
0.0
   0
LINE
   5
1C0
 100
AcDbEntity
   8
LEVEL001
 370
13
 100
AcDbLine
   6
CONTINUOUS
  62
5
  10
 2101.3184601173
  20
 1732.3314606750
  30
0.0
  11
 2056.7734114056
  21
 1776.8765093867
  31
0.0
   0
LINE
   5
1C1
 100
AcDbEntity
   8
LEVEL001
 370
13
 100
AcDbLine
   6
CONTINUOUS
  62
5
  10
 2064.7283626938
  20
 1784.8314606750
  30
0.0
  11
 2117.2283626940
  21
 1732.3314606750
  31
0.0
   0
LINE
   5
1C2
 100
AcDbEntity
   8
LEVEL001
 370
13
 100
AcDbLine
   6
CONTINUOUS
  62
5
  10
 2121.9986549643
  20
 1784.8314606750
  30
0.0
  11
 2093.3635088291
  21
 1756.1963145398
  31
0.0
   0
LINE
   5
1C3
 100
AcDbEntity
   8
LEVEL001
 370
13
 100
AcDbLine
   6
CONTINUOUS
  62
5
  10
 2016.9986549642
  20
 1784.8314606750
  30
0.0
  11
 1964.4986549642
  21
 1732.3314606750
  31
0.0
   0
LINE
   5
1C4
 100
AcDbEntity
   8
LEVEL001
 370
13
 100
AcDbLine
   6
CONTINUOUS
  62
5
  10
 1980.4085575402
  20
 1732.3314606750
  30
0.0
  11
 2032.9085575402
  21
 1784.8314606750
  31
0.0
   0
LINE
   5
1C5
 100
AcDbEntity
   8
LEVEL001
 370
13
 100
AcDbLine
   6
CONTINUOUS
  62
5
  10
 2048.8184601178
  20
 1784.8314606750
  30
0.0
  11
 1996.3184601178
  21
 1732.3314606750
  31
0.0
   0
LINE
   5
1C6
 100
AcDbEntity
   8
LEVEL001
 370
13
 100
AcDbLine
   6
CONTINUOUS
  62
5
  10
 2012.2283626938
  20
 1732.3314606750
  30
0.0
  11
 2064.7283626938
  21
 1784.8314606750
  31
0.0
   0
LINE
   5
1C7
 100
AcDbEntity
   8
LEVEL001
 370
13
 100
AcDbLine
   6
CONTINUOUS
  62
5
  10
 2069.4986549644
  20
 1732.3314606750
  30
0.0
  11
 2040.8635088291
  21
 1760.9666068103
  31
0.0
   0
LINE
   5
1C8
 100
AcDbEntity
   8
LEVEL001
 370
13
 100
AcDbLine
   6
CONTINUOUS
  62
5
  10
 2048.8184601174
  20
 1768.9215580985
  30
0.0
  11
 2085.4085575409
  21
 1732.3314606750
  31
0.0
   0
LINE
   5
1C9
 100
AcDbEntity
   8
LEVEL001
 370
13
 100
AcDbLine
   6
CONTINUOUS
  62
5
  10
 2874.7283626942
  20
 1784.8314606750
  30
0.0
  11
 2822.2283626942
  21
 1732.3314606750
  31
0.0
   0
LINE
   5
1CA
 100
AcDbEntity
   8
LEVEL001
 370
13
 100
AcDbLine
   6
CONTINUOUS
  62
5
  10
 2838.1382652703
  20
 1732.3314606750
  30
0.0
  11
 2890.6382652703
  21
 1784.8314606750
  31
0.0
   0
LINE
   5
1CB
 100
AcDbEntity
   8
LEVEL001
 370
13
 100
AcDbLine
   6
CONTINUOUS
  62
5
  10
 2906.5481678479
  20
 1784.8314606750
  30
0.0
  11
 2854.0481678479
  21
 1732.3314606750
  31
0.0
   0
LINE
   5
1CC
 100
AcDbEntity
   8
LEVEL001
 370
13
 100
AcDbLine
   6
CONTINUOUS
  62
5
  10
 2869.9580704239
  20
 1732.3314606750
  30
0.0
  11
 2922.4580704239
  21
 1784.8314606750
  31
0.0
   0
LINE
   5
1CD
 100
AcDbEntity
   8
LEVEL001
 370
13
 100
AcDbLine
   6
CONTINUOUS
  62
5
  10
 2927.2283626945
  20
 1732.3314606750
  30
0.0
  11
 2898.5932165592
  21
 1760.9666068103
  31
0.0
   0
LINE
   5
1CE
 100
AcDbEntity
   8
LEVEL001
 370
13
 100
AcDbLine
   6
CONTINUOUS
  62
5
  10
 2906.5481678474
  20
 1768.9215580985
  30
0.0
  11
 2943.1382652709
  21
 1732.3314606750
  31
0.0
   0
LINE
   5
1CF
 100
AcDbEntity
   8
LEVEL001
 370
13
 100
AcDbLine
   6
CONTINUOUS
  62
5
  10
 2959.0481678473
  20
 1732.3314606750
  30
0.0
  11
 2914.5031191356
  21
 1776.8765093867
  31
0.0
   0
LINE
   5
1D0
 100
AcDbEntity
   8
LEVEL001
 370
13
 100
AcDbLine
   6
CONTINUOUS
  62
5
  10
 2922.4580704239
  20
 1784.8314606750
  30
0.0
  11
 2974.9580704241
  21
 1732.3314606750
  31
0.0
   0
LINE
   5
1D1
 100
AcDbEntity
   8
LEVEL001
 370
13
 100
AcDbLine
   6
CONTINUOUS
  62
5
  10
 2974.9580704241
  20
 1732.3314606750
  30
0.0
  11
 3027.4580704241
  21
 1784.8314606750
  31
0.0
   0
LINE
   5
1D2
 100
AcDbEntity
   8
LEVEL001
 370
13
 100
AcDbLine
   6
CONTINUOUS
  62
5
  10
 2979.7283626944
  20
 1784.8314606750
  30
0.0
  11
 2951.0932165592
  21
 1756.1963145398
  31
0.0
   0
LINE
   5
1D3
 100
AcDbEntity
   8
LEVEL001
 370
13
 100
AcDbLine
   6
CONTINUOUS
  62
5
  10
 2959.0481678472
  20
 1748.2413632518
  30
0.0
  11
 2995.6382652704
  21
 1784.8314606750
  31
0.0
   0
LINE
   5
1D4
 100
AcDbEntity
   8
LEVEL001
 370
13
 100
AcDbLine
   6
CONTINUOUS
  62
5
  10
 3011.5481678480
  20
 1784.8314606750
  30
0.0
  11
 2967.0031191360
  21
 1740.2864119630
  31
0.0
   0
LINE
   5
1D5
 100
AcDbEntity
   8
LEVEL001
 370
13
 100
AcDbLine
   6
CONTINUOUS
  62
5
  10
 2610.3784279292
  20
 1784.8314606750
  30
0.0
  11
 3072.2284279292
  21
 1784.8314606750
  31
0.0
   0
LINE
   5
1D6
 100
AcDbEntity
   8
LEVEL001
 370
13
 100
AcDbLine
   6
CONTINUOUS
  62
5
  10
 3032.2283626947
  20
 1732.3314606750
  30
0.0
  11
 3003.5932165594
  21
 1760.9666068103
  31
0.0
   0
LINE
   5
1D7
 100
AcDbEntity
   8
LEVEL001
 370
13
 100
AcDbLine
   6
CONTINUOUS
  62
5
  10
 3011.5481678476
  20
 1768.9215580985
  30
0.0
  11
 3048.1382652711
  21
 1732.3314606750
  31
0.0
   0
LINE
   5
1D8
 100
AcDbEntity
   8
LEVEL001
 370
13
 100
AcDbLine
   6
CONTINUOUS
  62
5
  10
 3064.0481678475
  20
 1732.3314606750
  30
0.0
  11
 3019.5031191358
  21
 1776.8765093867
  31
0.0
   0
LINE
   5
1D9
 100
AcDbEntity
   8
LEVEL001
 370
13
 100
AcDbLine
   6
CONTINUOUS
  62
5
  10
 3027.4580704241
  20
 1784.8314606750
  30
0.0
  11
 3079.9580704243
  21
 1732.3314606750
  31
0.0
   0
LWPOLYLINE
   5
1DA
 100
AcDbEntity
   8
LEVEL001
 370
13
   6
CONTINUOUS
  62
5
 100
AcDbPolyline
  90
6
  70
0
  10
 1334.0787722828
  20
 1784.8314606750
  10
 1122.2287722828
  20
 1784.8314606750
  10
 1122.2287722828
  20
 984.83146067502
  10
 1622.2287722828
  20
 984.83146067502
  10
 1622.2287722828
  20
 1784.8314606750
  10
 1410.3787722828
  20
 1784.8314606750
   0
LINE
   5
1DB
 100
AcDbEntity
   8
LEVEL001
 370
13
 100
AcDbLine
   6
CONTINUOUS
  62
5
  10
 1272.2287722828
  20
 984.83146067502
  30
0.0
  11
 1222.2287722828
  21
 884.83146067502
  31
0.0
   0
LINE
   5
1DC
 100
AcDbEntity
   8
LEVEL001
 370
13
 100
AcDbLine
   6
CONTINUOUS
  62
5
  10
 1222.2287722828
  20
 984.83146067502
  30
0.0
  11
 1262.2287722828
  21
 964.83146067502
  31
0.0
   0
LINE
   5
1DD
 100
AcDbEntity
   8
LEVEL001
 370
13
 100
AcDbLine
   6
CONTINUOUS
  62
5
  10
 1222.2287722828
  20
 984.83146067502
  30
0.0
  11
 1172.2287722828
  21
 884.83146067502
  31
0.0
   0
LINE
   5
1DE
 100
AcDbEntity
   8
LEVEL001
 370
13
 100
AcDbLine
   6
CONTINUOUS
  62
5
  10
 1172.2287722828
  20
 984.83146067502
  30
0.0
  11
 1212.2287722828
  21
 964.83146067502
  31
0.0
   0
LINE
   5
1DF
 100
AcDbEntity
   8
LEVEL001
 370
13
 100
AcDbLine
   6
CONTINUOUS
  62
5
  10
 1172.2287722828
  20
 984.83146067502
  30
0.0
  11
 1122.2287722828
  21
 884.83146067502
  31
0.0
   0
LINE
   5
1E0
 100
AcDbEntity
   8
LEVEL001
 370
13
 100
AcDbLine
   6
CONTINUOUS
  62
5
  10
 1122.2287722828
  20
 984.83146067502
  30
0.0
  11
 1162.2287722828
  21
 964.83146067502
  31
0.0
   0
LINE
   5
1E1
 100
AcDbEntity
   8
LEVEL001
 370
13
 100
AcDbLine
   6
CONTINUOUS
  62
5
  10
 1272.2287722828
  20
 884.83146067502
  30
0.0
  11
 1232.2287722828
  21
 904.83146067502
  31
0.0
   0
LINE
   5
1E2
 100
AcDbEntity
   8
LEVEL001
 370
13
 100
AcDbLine
   6
CONTINUOUS
  62
5
  10
 1222.2287722828
  20
 884.83146067502
  30
0.0
  11
 1182.2287722828
  21
 904.83146067502
  31
0.0
   0
LINE
   5
1E3
 100
AcDbEntity
   8
LEVEL001
 370
13
 100
AcDbLine
   6
CONTINUOUS
  62
5
  10
 1172.2287722828
  20
 884.83146067502
  30
0.0
  11
 1132.2287722828
  21
 904.83146067502
  31
0.0
   0
LINE
   5
1E4
 100
AcDbEntity
   8
LEVEL001
 370
13
 100
AcDbLine
   6
CONTINUOUS
  62
5
  10
 1622.2287722828
  20
 984.83146067502
  30
0.0
  11
 1572.2287722828
  21
 884.83146067502
  31
0.0
   0
LINE
   5
1E5
 100
AcDbEntity
   8
LEVEL001
 370
13
 100
AcDbLine
   6
CONTINUOUS
  62
5
  10
 1572.2287722828
  20
 984.83146067502
  30
0.0
  11
 1612.2287722828
  21
 964.83146067502
  31
0.0
   0
LINE
   5
1E6
 100
AcDbEntity
   8
LEVEL001
 370
13
 100
AcDbLine
   6
CONTINUOUS
  62
5
  10
 1572.2287722828
  20
 984.83146067502
  30
0.0
  11
 1522.2287722828
  21
 884.83146067502
  31
0.0
   0
LINE
   5
1E7
 100
AcDbEntity
   8
LEVEL001
 370
13
 100
AcDbLine
   6
CONTINUOUS
  62
5
  10
 1522.2287722828
  20
 984.83146067502
  30
0.0
  11
 1562.2287722828
  21
 964.83146067502
  31
0.0
   0
LINE
   5
1E8
 100
AcDbEntity
   8
LEVEL001
 370
13
 100
AcDbLine
   6
CONTINUOUS
  62
5
  10
 1522.2287722828
  20
 984.83146067502
  30
0.0
  11
 1472.2287722828
  21
 884.83146067502
  31
0.0
   0
LINE
   5
1E9
 100
AcDbEntity
   8
LEVEL001
 370
13
 100
AcDbLine
   6
CONTINUOUS
  62
5
  10
 1472.2287722828
  20
 984.83146067502
  30
0.0
  11
 1512.2287722828
  21
 964.83146067502
  31
0.0
   0
LINE
   5
1EA
 100
AcDbEntity
   8
LEVEL001
 370
13
 100
AcDbLine
   6
CONTINUOUS
  62
5
  10
 1622.2287722828
  20
 884.83146067502
  30
0.0
  11
 1582.2287722828
  21
 904.83146067502
  31
0.0
   0
LINE
   5
1EB
 100
AcDbEntity
   8
LEVEL001
 370
13
 100
AcDbLine
   6
CONTINUOUS
  62
5
  10
 1572.2287722828
  20
 884.83146067502
  30
0.0
  11
 1532.2287722828
  21
 904.83146067502
  31
0.0
   0
LINE
   5
1EC
 100
AcDbEntity
   8
LEVEL001
 370
13
 100
AcDbLine
   6
CONTINUOUS
  62
5
  10
 1522.2287722828
  20
 884.83146067502
  30
0.0
  11
 1482.2287722828
  21
 904.83146067502
  31
0.0
   0
LWPOLYLINE
   5
1ED
 100
AcDbEntity
   8
LEVEL001
 370
13
   6
CONTINUOUS
  62
5
 100
AcDbPolyline
  90
4
  70
1
  10
 1122.2287722828
  20
 984.83146067502
  10
 1122.2287722828
  20
 884.83146067502
  10
 1622.2287722828
  20
 884.83146067502
  10
 1622.2287722828
  20
 984.83146067502
   0
LWPOLYLINE
   5
1EE
 100
AcDbEntity
   8
LEVEL001
 370
13
   6
CONTINUOUS
  62
5
 100
AcDbPolyline
  90
6
  70
0
  10
 2484.0783626942
  20
 1784.8314606750
  10
 2272.2283626942
  20
 1784.8314606750
  10
 2272.2283626942
  20
 984.83146067502
  10
 2772.2283626942
  20
 984.83146067502
  10
 2772.2283626942
  20
 1784.8314606750
  10
 2560.3783626942
  20
 1784.8314606750
   0
LINE
   5
1EF
 100
AcDbEntity
   8
LEVEL001
 370
13
 100
AcDbLine
   6
CONTINUOUS
  62
5
  10
 2422.2283626942
  20
 984.83146067502
  30
0.0
  11
 2372.2283626942
  21
 884.83146067502
  31
0.0
   0
LINE
   5
1F0
 100
AcDbEntity
   8
LEVEL001
 370
13
 100
AcDbLine
   6
CONTINUOUS
  62
5
  10
 2372.2283626942
  20
 984.83146067502
  30
0.0
  11
 2412.2283626942
  21
 964.83146067502
  31
0.0
   0
LINE
   5
1F1
 100
AcDbEntity
   8
LEVEL001
 370
13
 100
AcDbLine
   6
CONTINUOUS
  62
5
  10
 2372.2283626942
  20
 984.83146067502
  30
0.0
  11
 2322.2283626942
  21
 884.83146067502
  31
0.0
   0
LINE
   5
1F2
 100
AcDbEntity
   8
LEVEL001
 370
13
 100
AcDbLine
   6
CONTINUOUS
  62
5
  10
 2322.2283626942
  20
 984.83146067502
  30
0.0
  11
 2362.2283626942
  21
 964.83146067502
  31
0.0
   0
LINE
   5
1F3
 100
AcDbEntity
   8
LEVEL001
 370
13
 100
AcDbLine
   6
CONTINUOUS
  62
5
  10
 2322.2283626942
  20
 984.83146067502
  30
0.0
  11
 2272.2283626942
  21
 884.83146067502
  31
0.0
   0
LINE
   5
1F4
 100
AcDbEntity
   8
LEVEL001
 370
13
 100
AcDbLine
   6
CONTINUOUS
  62
5
  10
 2272.2283626942
  20
 984.83146067502
  30
0.0
  11
 2312.2283626942
  21
 964.83146067502
  31
0.0
   0
LINE
   5
1F5
 100
AcDbEntity
   8
LEVEL001
 370
13
 100
AcDbLine
   6
CONTINUOUS
  62
5
  10
 2422.2283626942
  20
 884.83146067502
  30
0.0
  11
 2382.2283626942
  21
 904.83146067502
  31
0.0
   0
LINE
   5
1F6
 100
AcDbEntity
   8
LEVEL001
 370
13
 100
AcDbLine
   6
CONTINUOUS
  62
5
  10
 2372.2283626942
  20
 884.83146067502
  30
0.0
  11
 2332.2283626942
  21
 904.83146067502
  31
0.0
   0
LINE
   5
1F7
 100
AcDbEntity
   8
LEVEL001
 370
13
 100
AcDbLine
   6
CONTINUOUS
  62
5
  10
 2322.2283626942
  20
 884.83146067502
  30
0.0
  11
 2282.2283626942
  21
 904.83146067502
  31
0.0
   0
LWPOLYLINE
   5
1F8
 100
AcDbEntity
   8
LEVEL001
 370
13
   6
CONTINUOUS
  62
5
 100
AcDbPolyline
  90
4
  70
1
  10
 2272.2283626942
  20
 984.83146067502
  10
 2272.2283626942
  20
 884.83146067502
  10
 2772.2283626942
  20
 884.83146067502
  10
 2772.2283626942
  20
 984.83146067502
   0
LINE
   5
1F9
 100
AcDbEntity
   8
LEVEL001
 370
13
 100
AcDbLine
   6
CONTINUOUS
  62
5
  10
 2772.2283626942
  20
 984.83146067502
  30
0.0
  11
 2722.2283626942
  21
 884.83146067502
  31
0.0
   0
LINE
   5
1FA
 100
AcDbEntity
   8
LEVEL001
 370
13
 100
AcDbLine
   6
CONTINUOUS
  62
5
  10
 2722.2283626942
  20
 984.83146067502
  30
0.0
  11
 2762.2283626942
  21
 964.83146067502
  31
0.0
   0
LINE
   5
1FB
 100
AcDbEntity
   8
LEVEL001
 370
13
 100
AcDbLine
   6
CONTINUOUS
  62
5
  10
 2722.2283626942
  20
 984.83146067502
  30
0.0
  11
 2672.2283626942
  21
 884.83146067502
  31
0.0
   0
LINE
   5
1FC
 100
AcDbEntity
   8
LEVEL001
 370
13
 100
AcDbLine
   6
CONTINUOUS
  62
5
  10
 2672.2283626942
  20
 984.83146067502
  30
0.0
  11
 2712.2283626942
  21
 964.83146067502
  31
0.0
   0
LINE
   5
1FD
 100
AcDbEntity
   8
LEVEL001
 370
13
 100
AcDbLine
   6
CONTINUOUS
  62
5
  10
 2672.2283626942
  20
 984.83146067502
  30
0.0
  11
 2622.2283626942
  21
 884.83146067502
  31
0.0
   0
LINE
   5
1FE
 100
AcDbEntity
   8
LEVEL001
 370
13
 100
AcDbLine
   6
CONTINUOUS
  62
5
  10
 2622.2283626942
  20
 984.83146067502
  30
0.0
  11
 2662.2283626942
  21
 964.83146067502
  31
0.0
   0
LINE
   5
1FF
 100
AcDbEntity
   8
LEVEL001
 370
13
 100
AcDbLine
   6
CONTINUOUS
  62
5
  10
 2772.2283626942
  20
 884.83146067502
  30
0.0
  11
 2732.2283626942
  21
 904.83146067502
  31
0.0
   0
LINE
   5
200
 100
AcDbEntity
   8
LEVEL001
 370
13
 100
AcDbLine
   6
CONTINUOUS
  62
5
  10
 2722.2283626942
  20
 884.83146067502
  30
0.0
  11
 2682.2283626942
  21
 904.83146067502
  31
0.0
   0
LINE
   5
201
 100
AcDbEntity
   8
LEVEL001
 370
13
 100
AcDbLine
   6
CONTINUOUS
  62
5
  10
 2672.2283626942
  20
 884.83146067502
  30
0.0
  11
 2632.2283626942
  21
 904.83146067502
  31
0.0
   0
DIMENSION
   5
202
 100
AcDbEntity
   8
LEVEL001
 370
13
   6
CONTINUOUS
  62
6
 100
AcDbDimension
   2
*D17
  10
 1622.2287722828
  20
 584.83146067503
  30
0.0
  11
 1372.2287722828
  21
 584.83146067503
  31
0.0
  70
0
   3
GMM007
 100
AcDbAlignedDimension
  13
 1122.2287722828
  23
 884.83146067502
  33
0.0
  14
 1622.2287722828
  24
 884.83146067502
  34
0.0
 100
AcDbRotatedDimension
   0
DIMENSION
   5
203
 100
AcDbEntity
   8
LEVEL001
 370
13
   6
CONTINUOUS
  62
6
 100
AcDbDimension
   2
*D18
  10
 2772.2283626942
  20
 584.83146067503
  30
0.0
  11
 2522.2283626942
  21
 584.83146067503
  31
0.0
  70
0
   3
GMM007
 100
AcDbAlignedDimension
  13
 2272.2283626942
  23
 884.83146067502
  33
0.0
  14
 2772.2283626942
  24
 884.83146067502
  34
0.0
 100
AcDbRotatedDimension
   0
ARC
   5
204
 100
AcDbEntity
   8
LEVEL001
 370
13
   6
CONTINUOUS
  62
7
 100
AcDbCircle
  10
 1427.2283626944
  20
 3780.3095749638
  30
0.0
  40
 20.000000000000
 100
AcDbArc
  50
0.0
  51
 90.000000000000
   0
ARC
   5
205
 100
AcDbEntity
   8
LEVEL001
 370
13
   6
CONTINUOUS
  62
7
 100
AcDbCircle
  10
 1317.2283626944
  20
 3780.3095749638
  30
0.0
  40
 20.000000000000
 100
AcDbArc
  50
 90.000000000000
  51
 180.00000000000
   0
LINE
   5
206
 100
AcDbEntity
   8
LEVEL001
 370
13
 100
AcDbLine
   6
CONTINUOUS
  62
7
  10
 1297.2283626944
  20
 3780.3095749638
  30
0.0
  11
 1297.2283626944
  21
 3420.3095749638
  31
0.0
   0
ARC
   5
207
 100
AcDbEntity
   8
LEVEL001
 370
13
   6
CONTINUOUS
  62
7
 100
AcDbCircle
  10
 1317.2283626944
  20
 3420.3095749638
  30
0.0
  40
 20.000000000000
 100
AcDbArc
  50
 180.00000000000
  51
 270.00000000000
   0
LINE
   5
208
 100
AcDbEntity
   8
LEVEL001
 370
13
 100
AcDbLine
   6
CONTINUOUS
  62
7
  10
 1317.2283626944
  20
 3400.3095749638
  30
0.0
  11
 1427.2283626944
  21
 3400.3095749638
  31
0.0
   0
LINE
   5
209
 100
AcDbEntity
   8
LEVEL001
 370
13
 100
AcDbLine
   6
CONTINUOUS
  62
7
  10
 1447.2283626944
  20
 3420.3095749638
  30
0.0
  11
 1447.2283626944
  21
 3780.3095749638
  31
0.0
   0
ARC
   5
20A
 100
AcDbEntity
   8
LEVEL001
 370
13
   6
CONTINUOUS
  62
7
 100
AcDbCircle
  10
 1427.2283626944
  20
 3420.3095749638
  30
0.0
  40
 20.000000000000
 100
AcDbArc
  50
 270.00000000000
  51
 360.00000000000
   0
LINE
   5
20B
 100
AcDbEntity
   8
LEVEL001
 370
13
 100
AcDbLine
   6
CONTINUOUS
  62
7
  10
 1427.2283626944
  20
 3800.3095749638
  30
0.0
  11
 1317.2283626944
  21
 3800.3095749638
  31
0.0
   0
LWPOLYLINE
   5
20C
 100
AcDbEntity
   8
LEVEL001
 370
13
   6
CONTINUOUS
  62
5
 100
AcDbPolyline
  90
7
  70
1
  10
 1372.2283626944
  20
 3760.3095749638
  10
 1335.9283637762
  20
 3714.1095763407
  10
 1355.7283631861
  20
 3714.1095763407
  10
 1355.7283631861
  20
 3694.3095769307
  10
 1388.7283622026
  20
 3694.3095769307
  10
 1388.7283622026
  20
 3714.1095763407
  10
 1408.5283616125
  20
 3714.1095763407
   0
LWPOLYLINE
   5
20D
 100
AcDbEntity
   8
LEVEL001
 370
13
   6
CONTINUOUS
  62
7
 100
AcDbPolyline
  90
4
  70
0
  10
 1334.0783626942
  20
 3400.3095749638
  10
 1334.0783626942
  20
 1084.8314606750
  10
 1410.3783626942
  20
 1084.8314606750
  10
 1410.3783626942
  20
 3400.3095749638
   0
CIRCLE
   5
20E
 100
AcDbEntity
   8
LEVEL001
 370
13
 100
AcDbCircle
   6
CONTINUOUS
  62
1
  10
 1622.2283626942
  20
 3500.3095749638
  30
0.0
  40
 69.999997913838
   0
MTEXT
   5
210
 100
AcDbEntity
   8
LEVEL001
 370
13
  62
7
 100
AcDbMText
  10
 1622.2283626942
  20
 3500.3095749638
  30
0.0
  40
 66.000000000000
  41
0.0
  71
5
  72
1
   1
\T1.000000;１３
   7
GMM001
  44
 0.79999984000003
   0
LEADER
   5
211
 100
AcDbEntity
   8
LEVEL001
 370
13
   6
CONTINUOUS
  62
1
 100
AcDbLeader
   3
GMM008
  73
3
  74
1
  75
0
  40
 66.000000000000
  41
0.0
  76
2
  10
 1447.2283626944
  20
 3600.3095749638
  30
0.0
  10
 1561.6065862360
  20
 3535.3095739208
  30
0.0
  77
1
   0
ARC
   5
212
 100
AcDbEntity
   8
LEVEL001
 370
13
   6
CONTINUOUS
  62
7
 100
AcDbCircle
  10
 2860.3783626942
  20
 3618.8095749646
  30
0.0
  40
 300.00000000000
 100
AcDbArc
  50
 142.12501634890
  51
 180.00000000000
   0
ARC
   5
213
 100
AcDbEntity
   8
LEVEL001
 370
13
   6
DASHDOT
  62
6
 100
AcDbCircle
  10
 2860.3783626942
  20
 3618.8095749646
  30
0.0
  40
 338.15000000000
 100
AcDbArc
  50
 142.12501634890
  51
 180.00000000000
   0
ARC
   5
214
 100
AcDbEntity
   8
LEVEL001
 370
13
   6
CONTINUOUS
  62
7
 100
AcDbCircle
  10
 2860.3783626942
  20
 3618.8095749646
  30
0.0
  40
 376.30000000000
 100
AcDbArc
  50
 142.12501634890
  51
 180.00000000000
   0
ARC
   5
215
 100
AcDbEntity
   8
LEVEL001
 370
13
   6
CONTINUOUS
  62
7
 100
AcDbCircle
  10
 2472.3057414446
  20
 3408.9512952544
  30
0.0
  40
 5.0000000000000
 100
AcDbArc
  50
 179.99999999997
  51
 201.80140948633
   0
LINE
   5
216
 100
AcDbEntity
   8
LEVEL001
 370
13
 100
AcDbLine
   6
CONTINUOUS
  62
7
  10
 2470.3772647537
  20
 3400.3095749638
  30
0.0
  11
 2467.6633579902
  21
 3407.0943418726
  31
0.0
   0
ARC
   5
217
 100
AcDbEntity
   8
LEVEL001
 370
13
   6
CONTINUOUS
  62
7
 100
AcDbCircle
  10
 2466.3057414446
  20
 3416.1572214229
  30
0.0
  40
 5.0000000000000
 100
AcDbArc
  50
 338.19859051367
  51
 0.26055103950549E-10
   0
LINE
   5
218
 100
AcDbEntity
   8
LEVEL001
 370
13
 100
AcDbLine
   6
CONTINUOUS
  62
7
  10
 2469.1458540444
  20
 3409.7945909044
  30
0.0
  11
 2470.9481248991
  21
 3414.3002680411
  31
0.0
   0
ARC
   5
219
 100
AcDbEntity
   8
LEVEL001
 370
13
   6
CONTINUOUS
  62
7
 100
AcDbCircle
  10
 2473.7882374988
  20
 3407.9376375226
  30
0.0
  40
 5.0000000000000
 100
AcDbArc
  50
 158.19859051364
  51
 201.80140948636
   0
LWPOLYLINE
   5
21A
 100
AcDbEntity
   8
LEVEL001
 370
13
   6
CONTINUOUS
  62
7
 100
AcDbPolyline
  90
3
  70
0
  10
 2470.3772647537
  20
 3400.3095749638
  10
 2471.3057414446
  20
 3400.6809656402
  10
 2469.1458540444
  20
 3406.0806841408
   0
LINE
   5
21B
 100
AcDbEntity
   8
LEVEL001
 370
13
 100
AcDbLine
   6
CONTINUOUS
  62
7
  10
 2470.3772647537
  20
 3800.3095749654
  30
0.0
  11
 2467.6633579902
  21
 3793.5248080566
  31
0.0
   0
ARC
   5
21C
 100
AcDbEntity
   8
LEVEL001
 370
13
   6
CONTINUOUS
  62
7
 100
AcDbCircle
  10
 2472.3057414446
  20
 3791.6678546748
  30
0.0
  40
 5.0000000000000
 100
AcDbArc
  50
 158.19859051367
  51
 180.00000000003
   0
ARC
   5
21D
 100
AcDbEntity
   8
LEVEL001
 370
13
   6
CONTINUOUS
  62
7
 100
AcDbCircle
  10
 2466.3057414446
  20
 3784.4619285063
  30
0.0
  40
 5.0000000000000
 100
AcDbArc
  50
 359.99999999997
  51
 21.801409486328
   0
LINE
   5
21E
 100
AcDbEntity
   8
LEVEL001
 370
13
 100
AcDbLine
   6
CONTINUOUS
  62
7
  10
 2469.1458540444
  20
 3790.8245590248
  30
0.0
  11
 2470.9481248991
  21
 3786.3188818881
  31
0.0
   0
ARC
   5
21F
 100
AcDbEntity
   8
LEVEL001
 370
13
   6
CONTINUOUS
  62
7
 100
AcDbCircle
  10
 2473.7882374988
  20
 3792.6815124066
  30
0.0
  40
 5.0000000000000
 100
AcDbArc
  50
 158.19859051366
  51
 201.80140948634
   0
LWPOLYLINE
   5
220
 100
AcDbEntity
   8
LEVEL001
 370
13
   6
CONTINUOUS
  62
7
 100
AcDbPolyline
  90
3
  70
0
  10
 2470.3772647537
  20
 3800.3095749654
  10
 2471.3057414446
  20
 3799.9381842890
  10
 2469.1458540444
  20
 3794.5384657884
   0
LINE
   5
221
 100
AcDbEntity
   8
LEVEL001
 370
13
 100
AcDbLine
   6
CONTINUOUS
  62
7
  10
 2467.3057414446
  20
 3791.6678546748
  30
0.0
  11
 2467.3057414446
  21
 3408.9512952544
  31
0.0
   0
LINE
   5
222
 100
AcDbEntity
   8
LEVEL001
 370
13
 100
AcDbLine
   6
CONTINUOUS
  62
7
  10
 2471.3057414446
  20
 3784.4619285063
  30
0.0
  11
 2471.3057414446
  21
 3416.1572214229
  31
0.0
   0
LINE
   5
223
 100
AcDbEntity
   8
LEVEL001
 370
13
 100
AcDbLine
   6
CONTINUOUS
  62
6
  10
 2474.3057414446
  20
 3635.3096357228
  30
0.0
  11
 2474.3057414446
  21
 3636.3095746837
  31
0.0
   0
LINE
   5
224
 100
AcDbEntity
   8
LEVEL001
 370
13
 100
AcDbLine
   6
CONTINUOUS
  62
7
  10
 2474.7612202237
  20
 3621.3092085313
  30
0.0
  11
 2474.7616779877
  21
 3579.3093002479
  31
0.0
   0
LINE
   5
225
 100
AcDbEntity
   8
LEVEL001
 370
13
 100
AcDbLine
   6
CONTINUOUS
  62
7
  10
 2474.3057414446
  20
 3636.3095746837
  30
0.0
  11
 2471.3057414446
  21
 3636.3095746837
  31
0.0
   0
LINE
   5
226
 100
AcDbEntity
   8
LEVEL001
 370
13
 100
AcDbLine
   6
CONTINUOUS
  62
6
  10
 2471.3057414446
  20
 3635.3096357228
  30
0.0
  11
 2474.3057414446
  21
 3635.3096357228
  31
0.0
   0
LWPOLYLINE
   5
227
 100
AcDbEntity
   8
LEVEL001
 370
13
   6
CONTINUOUS
  62
6
 100
AcDbPolyline
  90
3
  70
0
  10
 2474.3057414446
  20
 3564.3095749646
  10
 2474.3057414446
  20
 3565.3096054783
  10
 2471.3057414446
  20
 3565.3096054783
   0
ELLIPSE
   5
228
 100
AcDbEntity
   8
LEVEL001
 370
13
   6
CONTINUOUS
  62
7
 100
AcDbEllipse
  10
 2470.7616754365
  20
 3579.3093614004
  30
0.0
  11
 4.0000025516047
  21
0.0
  31
0.0
  40
 0.99999938800000
  41
-1.4343569865528
  42
-0.15288126692848E-4
   0
LINE
   5
229
 100
AcDbEntity
   8
LEVEL001
 370
13
 100
AcDbLine
   6
CONTINUOUS
  62
7
  10
 2471.3057414446
  20
 3564.3095749646
  30
0.0
  11
 2474.3057414446
  21
 3564.3095749646
  31
0.0
   0
ELLIPSE
   5
22A
 100
AcDbEntity
   8
LEVEL001
 370
13
   6
CONTINUOUS
  62
7
 100
AcDbEllipse
  10
 2470.7612176740
  20
 3621.3093304825
  30
0.0
  11
 4.0000025516047
  21
0.0
  31
0.0
  40
 0.99999938800000
  41
-0.30487804348912E-4
  42
 1.4342414715503
   0
LWPOLYLINE
   5
22B
 100
AcDbEntity
   8
LEVEL001
 370
13
   6
CONTINUOUS
  62
7
 100
AcDbPolyline
  90
4
  70
0
  10
 2474.7612474676
  20
 3618.8095749646
  10
 2580.3057414446
  20
 3618.8095749646
  10
 2580.3057414446
  20
 3581.8095749646
  10
 2474.7616507368
  20
 3581.8095749646
   0
LINE
   5
22C
 100
AcDbEntity
   8
LEVEL001
 370
13
 100
AcDbLine
   6
CONTINUOUS
  62
6
  10
 2485.7536760490
  20
 3605.8095749646
  30
0.0
  11
 2485.7536760490
  21
 3594.8095749646
  31
0.0
   0
LINE
   5
22D
 100
AcDbEntity
   8
LEVEL001
 370
13
 100
AcDbLine
   6
CONTINUOUS
  62
6
  10
 2485.7536760490
  20
 3592.8095749646
  30
0.0
  11
 2485.7536760490
  21
 3583.8095749646
  31
0.0
   0
LINE
   5
22E
 100
AcDbEntity
   8
LEVEL001
 370
13
 100
AcDbLine
   6
CONTINUOUS
  62
6
  10
 2485.7536760490
  20
 3616.8095749646
  30
0.0
  11
 2485.7536760490
  21
 3607.8095749646
  31
0.0
   0
LINE
   5
22F
 100
AcDbEntity
   8
LEVEL001
 370
13
 100
AcDbLine
   6
CONTINUOUS
  62
6
  10
 2559.1337424442
  20
 3593.8095749646
  30
0.0
  11
 2487.0145706186
  21
 3593.8095749646
  31
0.0
   0
LINE
   5
230
 100
AcDbEntity
   8
LEVEL001
 370
13
 100
AcDbLine
   6
CONTINUOUS
  62
6
  10
 2487.0145706186
  20
 3606.8095749646
  30
0.0
  11
 2559.1337424442
  21
 3606.8095749646
  31
0.0
   0
LINE
   5
231
 100
AcDbEntity
   8
LEVEL001
 370
13
 100
AcDbLine
   6
CONTINUOUS
  62
6
  10
 2559.1337424442
  20
 3616.8095749646
  30
0.0
  11
 2559.1337424442
  21
 3607.8095749646
  31
0.0
   0
LINE
   5
232
 100
AcDbEntity
   8
LEVEL001
 370
13
 100
AcDbLine
   6
CONTINUOUS
  62
6
  10
 2559.1337424442
  20
 3592.8095749646
  30
0.0
  11
 2559.1337424442
  21
 3583.8095749646
  31
0.0
   0
LINE
   5
233
 100
AcDbEntity
   8
LEVEL001
 370
13
 100
AcDbLine
   6
CONTINUOUS
  62
6
  10
 2561.4522674855
  20
 3606.8095749646
  30
0.0
  11
 2561.4522674855
  21
 3593.8095749646
  31
0.0
   0
LWPOLYLINE
   5
234
 100
AcDbEntity
   8
LEVEL001
 370
13
   6
CONTINUOUS
  62
7
 100
AcDbPolyline
  90
4
  70
1
  10
 2565.3057414446
  20
 3595.3095749646
  10
 2575.3057414446
  20
 3595.3095749646
  10
 2575.3057414446
  20
 3605.3095749646
  10
 2565.3057414446
  20
 3605.3095749646
   0
LWPOLYLINE
   5
235
 100
AcDbEntity
   8
LEVEL001
 370
13
   6
CONTINUOUS
  62
7
 100
AcDbPolyline
  90
4
  70
0
  10
 2484.0783626942
  20
 3581.8095749646
  10
 2484.0783626942
  20
 1084.8314606750
  10
 2560.3783626942
  20
 1084.8314606750
  10
 2560.3783626942
  20
 3581.8095749646
   0
CIRCLE
   5
236
 100
AcDbEntity
   8
LEVEL001
 370
13
 100
AcDbCircle
   6
CONTINUOUS
  62
1
  10
 2997.2283626942
  20
 3684.8314606750
  30
0.0
  40
 69.999997913838
   0
CIRCLE
   5
237
 100
AcDbEntity
   8
LEVEL001
 370
13
 100
AcDbCircle
   6
CONTINUOUS
  62
1
  10
 3137.2283585219
  20
 3684.8314606750
  30
0.0
  40
 69.999997913838
   0
MTEXT
   5
239
 100
AcDbEntity
   8
LEVEL001
 370
13
  62
7
 100
AcDbMText
  10
 2997.2283626942
  20
 3684.8314606750
  30
0.0
  40
 66.000000000000
  41
0.0
  71
5
  72
1
   1
\T1.000000;１４
   7
GMM001
  44
 0.79999984000003
   0
MTEXT
   5
23B
 100
AcDbEntity
   8
LEVEL001
 370
13
  62
7
 100
AcDbMText
  10
 3137.2283585219
  20
 3684.8314606750
  30
0.0
  40
 66.000000000000
  41
0.0
  71
5
  72
1
   1
\T1.000000;１５
   7
GMM001
  44
 0.79999984000003
   0
LEADER
   5
23C
 100
AcDbEntity
   8
LEVEL001
 370
13
   6
CONTINUOUS
  62
1
 100
AcDbLeader
   3
GMM002
  73
3
  74
1
  75
0
  40
 66.000000000000
  41
0.0
  76
2
  10
 2580.3057414446
  20
 3618.8095749646
  30
0.0
  10
 2928.0898691105
  20
 3673.8830172735
  30
0.0
  77
1
   0
MTEXT
   5
23D
 100
AcDbEntity
   8
LEVEL001
 370
13
  62
1
 100
AcDbMText
  10
 1321.0408626944
  20
 3553.5595749638
  30
0.0
  40
 80.000000000000
  41
0.0
  71
4
  72
1
   1
{\T1.000000;注}\P{\T1.000000;意}
   7
GMM003
  44
 0.79999984000003
   0
LINE
   5
23E
 100
AcDbEntity
   8
LEVEL001
 370
13
 100
AcDbLine
   6
DASHDOT
  62
6
  10
 2522.2283626942
  20
 3618.8095749646
  30
0.0
  11
 2522.2283626942
  21
 884.83146067502
  31
0.0
   0
LINE
   5
23F
 100
AcDbEntity
   8
LEVEL001
 370
13
 100
AcDbLine
   6
DASHDOT
  62
6
  10
 1312.2287541972
  20
 1484.8314606750
  30
0.0
  11
 1432.2287541972
  21
 1484.8314606750
  31
0.0
   0
CIRCLE
   5
240
 100
AcDbEntity
   8
LEVEL001
 370
13
 100
AcDbCircle
   6
CONTINUOUS
  62
7
  10
 1372.2287384807
  20
 1384.8314606750
  30
0.0
  40
 7.5000000000000
   0
LINE
   5
241
 100
AcDbEntity
   8
LEVEL001
 370
13
 100
AcDbLine
   6
DASHDOT
  62
6
  10
 1342.2287384807
  20
 1384.8314606750
  30
0.0
  11
 1402.2287384807
  21
 1384.8314606750
  31
0.0
   0
LWPOLYLINE
   5
242
 100
AcDbEntity
   8
LEVEL001
 370
13
   6
CONTINUOUS
  62
7
 100
AcDbPolyline
  90
4
  70
0
  10
 2484.0783626942
  20
 1392.3314606750
  10
 2412.2283446086
  20
 1392.3314606750
  10
 2412.2283446086
  20
 1377.3314606750
  10
 2484.0783626942
  20
 1377.3314606750
   0
LWPOLYLINE
   5
243
 100
AcDbEntity
   8
LEVEL001
 370
13
   6
CONTINUOUS
  62
7
 100
AcDbPolyline
  90
4
  70
0
  10
 2560.3783626942
  20
 1392.3314606750
  10
 2632.2283446086
  20
 1392.3314606750
  10
 2632.2283446086
  20
 1377.3314606750
  10
 2560.3783626942
  20
 1377.3314606750
   0
CIRCLE
   5
244
 100
AcDbEntity
   8
LEVEL001
 370
13
 100
AcDbCircle
   6
CONTINUOUS
  62
1
  10
 2147.2283626942
  20
 1284.8314606750
  30
0.0
  40
 69.999997913838
   0
MTEXT
   5
246
 100
AcDbEntity
   8
LEVEL001
 370
13
  62
7
 100
AcDbMText
  10
 2147.2283626942
  20
 1284.8314606750
  30
0.0
  40
 66.000000000000
  41
0.0
  71
5
  72
1
   1
\T1.000000;１１
   7
GMM001
  44
 0.79999984000003
   0
LEADER
   5
247
 100
AcDbEntity
   8
LEVEL001
 370
13
   6
CONTINUOUS
  62
1
 100
AcDbLeader
   3
GMM002
  73
3
  74
1
  75
0
  40
 66.000000000000
  41
0.0
  76
2
  10
 2412.2283446086
  20
 1377.3314606750
  30
0.0
  10
 2213.3178623719
  20
 1307.9004385520
  30
0.0
  77
1
   0
CIRCLE
   5
248
 100
AcDbEntity
   8
LEVEL001
 370
13
 100
AcDbCircle
   6
CONTINUOUS
  62
7
  10
 2522.2283626942
  20
 1484.8314606750
  30
0.0
  40
 7.5000000000000
   0
LINE
   5
249
 100
AcDbEntity
   8
LEVEL001
 370
13
 100
AcDbLine
   6
DASHDOT
  62
6
  10
 2492.2283626942
  20
 1484.8314606750
  30
0.0
  11
 2552.2283626942
  21
 1484.8314606750
  31
0.0
   0
LINE
   5
24A
 100
AcDbEntity
   8
LEVEL001
 370
13
 100
AcDbLine
   6
DASHDOT
  62
6
  10
 2462.2283626942
  20
 1384.8314606750
  30
0.0
  11
 2582.2283626942
  21
 1384.8314606750
  31
0.0
   0
LINE
   5
24B
 100
AcDbEntity
   8
LEVEL001
 370
13
 100
AcDbLine
   6
DOT
  62
1
  10
 2560.3783626942
  20
 1377.3314606750
  30
0.0
  11
 2484.0783626942
  21
 1377.3314606750
  31
0.0
   0
LINE
   5
24C
 100
AcDbEntity
   8
LEVEL001
 370
13
 100
AcDbLine
   6
DOT
  62
1
  10
 2484.0783626942
  20
 1392.3314606750
  30
0.0
  11
 2560.3783626942
  21
 1392.3314606750
  31
0.0
   0
LINE
   5
24D
 100
AcDbEntity
   8
LEVEL001
 370
13
 100
AcDbLine
   6
CONTINUOUS
  62
5
  10
 1622.2287722828
  20
 1684.8314606750
  30
0.0
  11
 1410.3783626942
  21
 1472.9810510864
  31
0.0
   0
LINE
   5
24E
 100
AcDbEntity
   8
LEVEL001
 370
13
 100
AcDbLine
   6
CONTINUOUS
  62
5
  10
 1410.3783626942
  20
 1437.6257120271
  30
0.0
  11
 1622.2287722828
  21
 1649.4761216157
  31
0.0
   0
LINE
   5
24F
 100
AcDbEntity
   8
LEVEL001
 370
13
 100
AcDbLine
   6
CONTINUOUS
  62
5
  10
 1622.2287722828
  20
 1614.1207825564
  30
0.0
  11
 1410.3783626942
  21
 1402.2703729678
  31
0.0
   0
LINE
   5
250
 100
AcDbEntity
   8
LEVEL001
 370
13
 100
AcDbLine
   6
CONTINUOUS
  62
5
  10
 1122.2287722828
  20
 1149.4761216157
  30
0.0
  11
 1334.0783626942
  21
 1361.3257120271
  31
0.0
   0
LINE
   5
251
 100
AcDbEntity
   8
LEVEL001
 370
13
 100
AcDbLine
   6
CONTINUOUS
  62
5
  10
 1334.0783626942
  20
 1325.9703729678
  30
0.0
  11
 1122.2287722828
  21
 1114.1207825564
  31
0.0
   0
LINE
   5
252
 100
AcDbEntity
   8
LEVEL001
 370
13
 100
AcDbLine
   6
CONTINUOUS
  62
5
  10
 1334.0783626942
  20
 1396.6810510864
  30
0.0
  11
 1122.2287722828
  21
 1184.8314606750
  31
0.0
   0
LINE
   5
253
 100
AcDbEntity
   8
LEVEL001
 370
13
 100
AcDbLine
   6
CONTINUOUS
  62
5
  10
 2484.0783626942
  20
 1396.6810510864
  30
0.0
  11
 2272.2287722828
  21
 1184.8314606750
  31
0.0
   0
LINE
   5
254
 100
AcDbEntity
   8
LEVEL001
 370
13
 100
AcDbLine
   6
CONTINUOUS
  62
5
  10
 2484.0783626942
  20
 1325.9703729678
  30
0.0
  11
 2272.2287722828
  21
 1114.1207825564
  31
0.0
   0
LINE
   5
255
 100
AcDbEntity
   8
LEVEL001
 370
13
 100
AcDbLine
   6
CONTINUOUS
  62
5
  10
 2272.2287722828
  20
 1149.4761216157
  30
0.0
  11
 2484.0783626942
  21
 1361.3257120271
  31
0.0
   0
LINE
   5
256
 100
AcDbEntity
   8
LEVEL001
 370
13
 100
AcDbLine
   6
CONTINUOUS
  62
5
  10
 2772.2287722828
  20
 1684.8314606750
  30
0.0
  11
 2560.3783626942
  21
 1472.9810510864
  31
0.0
   0
LINE
   5
257
 100
AcDbEntity
   8
LEVEL001
 370
13
 100
AcDbLine
   6
CONTINUOUS
  62
5
  10
 2560.3783626942
  20
 1437.6257120271
  30
0.0
  11
 2772.2287722828
  21
 1649.4761216157
  31
0.0
   0
LINE
   5
258
 100
AcDbEntity
   8
LEVEL001
 370
13
 100
AcDbLine
   6
CONTINUOUS
  62
5
  10
 2772.2287722828
  20
 1614.1207825564
  30
0.0
  11
 2560.3783626942
  21
 1402.2703729678
  31
0.0
   0
MTEXT
   5
25A
 100
AcDbEntity
   8
LEVEL001
 370
13
  62
1
 100
AcDbMText
  10
 1372.2283626942
  20
 5534.8314606742
  30
0.0
  40
 80.000000000000
  41
0.0
  71
5
  72
1
   1
\T1.000000;正　面　図
   7
GMM004
  44
 0.79999984000003
   0
MTEXT
   5
25C
 100
AcDbEntity
   8
LEVEL001
 370
13
  62
1
 100
AcDbMText
  10
 2872.2283626942
  20
 5534.8314606742
  30
0.0
  40
 80.000000000000
  41
0.0
  71
5
  72
1
   1
\T1.000000;側　面　図
   7
GMM004
  44
 0.79999984000003
   0
MTEXT
   5
25E
 100
AcDbEntity
   8
LEVEL001
 370
13
  62
1
 100
AcDbMText
  10
 4122.2283626942
  20
 5534.8314606742
  30
0.0
  40
 80.000000000000
  41
0.0
  71
5
  72
1
   1
\T1.000000;背　面　図
   7
GMM004
  44
 0.79999984000003
   0
LEADER
   5
25F
 100
AcDbEntity
   8
LEVEL001
 370
13
   6
CONTINUOUS
  62
6
 100
AcDbLeader
   3
GMM009
  73
0
  74
0
  75
0
  40
 66.000000000000
  41
 676.00000000000
  76
2
  10
 1509.3308361924
  20
 4728.1530154445
  30
0.0
  10
 1659.0386737322
  20
 5029.8817628764
  30
0.0
  77
6
 340
260
 213
0.0
 223
-28.285714285715
 233
0.0
   0
MTEXT
   5
260
 102
{ACAD_REACTORS
 330
25F
 102
}
 100
AcDbEntity
   8
LEVEL001
 370
13
  62
1
 100
AcDbMText
  10
 1659.0386737322
  20
 5058.1674771621
  30
0.0
  40
 66.000000000000
  41
0.0
  71
7
  72
1
   1
\A1;表面：超親水性コーティング
   7
GMM001
   0
LINE
   5
261
 100
AcDbEntity
   8
LEVEL001
 370
13
 100
AcDbLine
   6
CONTINUOUS
  62
6
  10
 5583.1374536033
  20
 1534.8314606742
  30
0.0
  11
 8098.8952328114
  21
 1534.8314606742
  31
0.0
   0
LINE
   5
262
 100
AcDbEntity
   8
LEVEL001
 370
13
 100
AcDbLine
   6
CONTINUOUS
  62
6
  10
 5583.1374536033
  20
 1404.8314606742
  30
0.0
  11
 8098.8952328114
  21
 1404.8314606742
  31
0.0
   0
LINE
   5
263
 100
AcDbEntity
   8
LEVEL001
 370
13
 100
AcDbLine
   6
CONTINUOUS
  62
6
  10
 5583.1374536033
  20
 1274.8314606742
  30
0.0
  11
 8098.8952328114
  21
 1274.8314606742
  31
0.0
   0
LINE
   5
264
 100
AcDbEntity
   8
LEVEL001
 370
13
 100
AcDbLine
   6
CONTINUOUS
  62
6
  10
 5583.1374536033
  20
 1144.8314606742
  30
0.0
  11
 8098.8952328114
  21
 1144.8314606742
  31
0.0
   0
MTEXT
   5
266
 100
AcDbEntity
   8
LEVEL001
 370
13
  62
1
 100
AcDbMText
  10
 5754.1164273573
  20
 1168.4050683700
  30
0.0
  40
 80.000000000000
  41
0.0
  71
9
  72
1
   1
\T1.000000;１３
   7
GMM005
  44
 0.79999984000003
   0
MTEXT
   5
268
 100
AcDbEntity
   8
LEVEL001
 370
13
  62
1
 100
AcDbMText
  10
 5754.1164273573
  20
 1298.4050683700
  30
0.0
  40
 80.000000000000
  41
0.0
  71
9
  72
1
   1
\T1.000000;１２
   7
GMM005
  44
 0.79999984000003
   0
MTEXT
   5
26A
 100
AcDbEntity
   8
LEVEL001
 370
13
  62
1
 100
AcDbMText
  10
 5754.1164273573
  20
 1428.4050683700
  30
0.0
  40
 80.000000000000
  41
0.0
  71
9
  72
1
   1
\T1.000000;１１
   7
GMM005
  44
 0.79999984000003
   0
LINE
   5
26B
 100
AcDbEntity
   8
LEVEL001
 370
13
 100
AcDbLine
   6
CONTINUOUS
  62
6
  10
 5583.1374536033
  20
 1014.8314606742
  30
0.0
  11
 8098.8952328114
  21
 1014.8314606742
  31
0.0
   0
MTEXT
   5
26D
 100
AcDbEntity
   8
LEVEL001
 370
13
  62
1
 100
AcDbMText
  10
 5754.1164273573
  20
 1038.4050683700
  30
0.0
  40
 80.000000000000
  41
0.0
  71
9
  72
1
   1
\T1.000000;１４
   7
GMM005
  44
 0.79999984000003
   0
MTEXT
   5
26F
 100
AcDbEntity
   8
LEVEL001
 370
13
  62
1
 100
AcDbMText
  10
 5754.1164273573
  20
 908.40506837005
  30
0.0
  40
 80.000000000000
  41
0.0
  71
9
  72
1
   1
\T1.000000;１５
   7
GMM005
  44
 0.79999984000003
   0
MTEXT
   5
271
 100
AcDbEntity
   8
LEVEL001
 370
13
  62
1
 100
AcDbMText
  10
 5833.1374536033
  20
 908.40506837005
  30
0.0
  40
 80.000000000000
  41
0.0
  71
7
  72
1
   1
\T1.000000;同上ボルトナット
   7
GMM006
  44
 0.79999984000003
   0
MTEXT
   5
273
 100
AcDbEntity
   8
LEVEL001
 370
13
  62
1
 100
AcDbMText
  10
 5833.1374536033
  20
 1038.4050683700
  30
0.0
  40
 80.000000000000
  41
0.0
  71
7
  72
1
   1
\T1.000000;注意板取付バンド
   7
GMM006
  44
 0.79999984000003
   0
MTEXT
   5
275
 100
AcDbEntity
   8
LEVEL001
 370
13
  62
1
 100
AcDbMText
  10
 6804.1164273573
  20
 1168.4050683700
  30
0.0
  40
 80.000000000000
  41
0.0
  71
9
  72
1
   1
\T1.000000;１
   7
GMM006
  44
 0.79999984000003
   0
MTEXT
   5
277
 100
AcDbEntity
   8
LEVEL001
 370
13
  62
1
 100
AcDbMText
  10
 5833.1374536033
  20
 1298.4050683700
  30
0.0
  40
 80.000000000000
  41
0.0
  71
7
  72
1
   1
\T1.000000;キャップ
   7
GMM006
  44
 0.79999984000003
   0
MTEXT
   5
279
 100
AcDbEntity
   8
LEVEL001
 370
13
  62
1
 100
AcDbMText
  10
 6804.1164273573
  20
 1298.4050683700
  30
0.0
  40
 80.000000000000
  41
0.0
  71
9
  72
1
   1
\T1.000000;１
   7
GMM006
  44
 0.79999984000003
   0
MTEXT
   5
27B
 100
AcDbEntity
   8
LEVEL001
 370
13
  62
1
 100
AcDbMText
  10
 6883.1374536033
  20
 1298.4050683700
  30
0.0
  40
 80.000000000000
  41
0.0
  71
7
  72
1
   1
\T1.000000;ＰＥ
   7
GMM006
  44
 0.79999984000003
   0
MTEXT
   5
27D
 100
AcDbEntity
   8
LEVEL001
 370
13
  62
1
 100
AcDbMText
  10
 5833.1374536033
  20
 1428.4050683700
  30
0.0
  40
 80.000000000000
  41
0.0
  71
7
  72
1
   1
\T1.000000;根入れ鉄筋
   7
GMM006
  44
 0.79999984000003
   0
MTEXT
   5
27F
 100
AcDbEntity
   8
LEVEL001
 370
13
  62
1
 100
AcDbMText
  10
 6804.1164273573
  20
 1428.4050683700
  30
0.0
  40
 80.000000000000
  41
0.0
  71
9
  72
1
   1
\T1.000000;１
   7
GMM006
  44
 0.79999984000003
   0
MTEXT
   5
281
 100
AcDbEntity
   8
LEVEL001
 370
13
  62
1
 100
AcDbMText
  10
 6883.1374536033
  20
 1428.4050683700
  30
0.0
  40
 80.000000000000
  41
0.0
  71
7
  72
1
   1
\T1.000000;ＳＤ２９５Ａ
   7
GMM006
  44
 0.79999984000003
   0
LINE
   5
282
 100
AcDbEntity
   8
LEVEL001
 370
13
 100
AcDbLine
   6
CONTINUOUS
  62
6
  10
 5583.1374536033
  20
 1794.8314606742
  30
0.0
  11
 8098.8952328114
  21
 1794.8314606742
  31
0.0
   0
LINE
   5
283
 100
AcDbEntity
   8
LEVEL001
 370
13
 100
AcDbLine
   6
CONTINUOUS
  62
6
  10
 5583.1374536033
  20
 1924.8314606742
  30
0.0
  11
 8098.8952328114
  21
 1924.8314606742
  31
0.0
   0
LINE
   5
284
 100
AcDbEntity
   8
LEVEL001
 370
13
 100
AcDbLine
   6
CONTINUOUS
  62
6
  10
 5583.1374536033
  20
 2054.8314606742
  30
0.0
  11
 8098.8952328114
  21
 2054.8314606742
  31
0.0
   0
LINE
   5
285
 100
AcDbEntity
   8
LEVEL001
 370
13
 100
AcDbLine
   6
CONTINUOUS
  62
6
  10
 5583.1374536033
  20
 2184.8314606742
  30
0.0
  11
 8098.8952328114
  21
 2184.8314606742
  31
0.0
   0
LINE
   5
286
 100
AcDbEntity
   8
LEVEL001
 370
13
 100
AcDbLine
   6
CONTINUOUS
  62
6
  10
 5583.1374536033
  20
 2314.8314606742
  30
0.0
  11
 8098.8952328114
  21
 2314.8314606742
  31
0.0
   0
LINE
   5
287
 100
AcDbEntity
   8
LEVEL001
 370
13
 100
AcDbLine
   6
CONTINUOUS
  62
6
  10
 5583.1374536033
  20
 2444.8314606742
  30
0.0
  11
 8098.8952328114
  21
 2444.8314606742
  31
0.0
   0
LINE
   5
288
 100
AcDbEntity
   8
LEVEL001
 370
13
 100
AcDbLine
   6
CONTINUOUS
  62
6
  10
 5583.1374536033
  20
 2574.8314606742
  30
0.0
  11
 8098.8952328114
  21
 2574.8314606742
  31
0.0
   0
LINE
   5
289
 100
AcDbEntity
   8
LEVEL001
 370
13
 100
AcDbLine
   6
CONTINUOUS
  62
6
  10
 5583.1374536033
  20
 2704.8314606742
  30
0.0
  11
 8098.8952328114
  21
 2704.8314606742
  31
0.0
   0
LINE
   5
28A
 100
AcDbEntity
   8
LEVEL001
 370
13
 100
AcDbLine
   6
CONTINUOUS
  62
6
  10
 5583.1374536033
  20
 2834.8314606742
  30
0.0
  11
 8098.8952328114
  21
 2834.8314606742
  31
0.0
   0
MTEXT
   5
28C
 100
AcDbEntity
   8
LEVEL001
 370
13
  62
1
 100
AcDbMText
  10
 5754.1164273573
  20
 1688.4050683700
  30
0.0
  40
 80.000000000000
  41
0.0
  71
9
  72
1
   1
\T1.000000;１０
   7
GMM005
  44
 0.79999984000003
   0
MTEXT
   5
28E
 100
AcDbEntity
   8
LEVEL001
 370
13
  62
1
 100
AcDbMText
  10
 5754.1164273573
  20
 1818.4050683700
  30
0.0
  40
 80.000000000000
  41
0.0
  71
9
  72
1
   1
\T1.000000;９
   7
GMM005
  44
 0.79999984000003
   0
MTEXT
   5
290
 100
AcDbEntity
   8
LEVEL001
 370
13
  62
1
 100
AcDbMText
  10
 5754.1164273573
  20
 1948.4050683700
  30
0.0
  40
 80.000000000000
  41
0.0
  71
9
  72
1
   1
\T1.000000;８
   7
GMM005
  44
 0.79999984000003
   0
MTEXT
   5
292
 100
AcDbEntity
   8
LEVEL001
 370
13
  62
1
 100
AcDbMText
  10
 5754.1164273573
  20
 2078.4050683700
  30
0.0
  40
 80.000000000000
  41
0.0
  71
9
  72
1
   1
\T1.000000;７
   7
GMM005
  44
 0.79999984000003
   0
MTEXT
   5
294
 100
AcDbEntity
   8
LEVEL001
 370
13
  62
1
 100
AcDbMText
  10
 5754.1164273573
  20
 2208.4050683700
  30
0.0
  40
 80.000000000000
  41
0.0
  71
9
  72
1
   1
\T1.000000;６
   7
GMM005
  44
 0.79999984000003
   0
MTEXT
   5
296
 100
AcDbEntity
   8
LEVEL001
 370
13
  62
1
 100
AcDbMText
  10
 5754.1164273573
  20
 2338.4050683700
  30
0.0
  40
 80.000000000000
  41
0.0
  71
9
  72
1
   1
\T1.000000;５
   7
GMM005
  44
 0.79999984000003
   0
MTEXT
   5
298
 100
AcDbEntity
   8
LEVEL001
 370
13
  62
1
 100
AcDbMText
  10
 5754.1164273573
  20
 2468.4050683700
  30
0.0
  40
 80.000000000000
  41
0.0
  71
9
  72
1
   1
\T1.000000;４
   7
GMM005
  44
 0.79999984000003
   0
MTEXT
   5
29A
 100
AcDbEntity
   8
LEVEL001
 370
13
  62
1
 100
AcDbMText
  10
 5754.1164273573
  20
 2598.4050683700
  30
0.0
  40
 80.000000000000
  41
0.0
  71
9
  72
1
   1
\T1.000000;３
   7
GMM005
  44
 0.79999984000003
   0
MTEXT
   5
29C
 100
AcDbEntity
   8
LEVEL001
 370
13
  62
1
 100
AcDbMText
  10
 6804.1164273573
  20
 2598.4050683700
  30
0.0
  40
 80.000000000000
  41
0.0
  71
9
  72
1
   1
\T1.000000;１
   7
GMM006
  44
 0.79999984000003
   0
MTEXT
   5
29E
 100
AcDbEntity
   8
LEVEL001
 370
13
  62
1
 100
AcDbMText
  10
 5833.1374536033
  20
 2598.4050683700
  30
0.0
  40
 80.000000000000
  41
0.0
  71
7
  72
1
   1
\T1.000000;フード
   7
GMM006
  44
 0.79999984000003
   0
MTEXT
   5
2A0
 100
AcDbEntity
   8
LEVEL001
 370
13
  62
1
 100
AcDbMText
  10
 5754.1164273573
  20
 2728.4050683700
  30
0.0
  40
 80.000000000000
  41
0.0
  71
9
  72
1
   1
\T1.000000;２
   7
GMM005
  44
 0.79999984000003
   0
MTEXT
   5
2A2
 100
AcDbEntity
   8
LEVEL001
 370
13
  62
1
 100
AcDbMText
  10
 6804.1164273573
  20
 2728.4050683700
  30
0.0
  40
 80.000000000000
  41
0.0
  71
9
  72
1
   1
\T1.000000;１
   7
GMM006
  44
 0.79999984000003
   0
MTEXT
   5
2A4
 100
AcDbEntity
   8
LEVEL001
 370
13
  62
1
 100
AcDbMText
  10
 5833.1374536033
  20
 2728.4050683700
  30
0.0
  40
 80.000000000000
  41
0.0
  71
7
  72
1
   1
\T1.000000;バックプレート
   7
GMM006
  44
 0.79999984000003
   0
MTEXT
   5
2A6
 100
AcDbEntity
   8
LEVEL001
 370
13
  62
1
 100
AcDbMText
  10
 6883.1374536033
  20
 2728.4050683700
  30
0.0
  40
 80.000000000000
  41
0.0
  71
7
  72
1
   1
\T1.000000;ＦＲＰ
   7
GMM006
  44
 0.79999984000003
   0
MTEXT
   5
2A8
 100
AcDbEntity
   8
LEVEL001
 370
13
  62
1
 100
AcDbMText
  10
 6883.1374536033
  20
 2598.4050683700
  30
0.0
  40
 80.000000000000
  41
0.0
  71
7
  72
1
   1
\T1.000000;ＰＣ
   7
GMM006
  44
 0.79999984000003
   0
MTEXT
   5
2AA
 100
AcDbEntity
   8
LEVEL001
 370
13
  62
1
 100
AcDbMText
  10
 5833.1374536033
  20
 1688.4050683700
  30
0.0
  40
 80.000000000000
  41
0.0
  71
7
  72
1
   1
\T1.000000;支柱
   7
GMM006
  44
 0.79999984000003
   0
MTEXT
   5
2AC
 100
AcDbEntity
   8
LEVEL001
 370
13
  62
1
 100
AcDbMText
  10
 6804.1164273573
  20
 1688.4050683700
  30
0.0
  40
 80.000000000000
  41
0.0
  71
9
  72
1
   1
\T1.000000;１
   7
GMM006
  44
 0.79999984000003
   0
MTEXT
   5
2AE
 100
AcDbEntity
   8
LEVEL001
 370
13
  62
1
 100
AcDbMText
  10
 6883.1374536033
  20
 1688.4050683700
  30
0.0
  40
 80.000000000000
  41
0.0
  71
7
  72
1
   1
\T1.000000;ＳＴＫ４００
   7
GMM006
  44
 0.79999984000003
   0
MTEXT
   5
2B0
 100
AcDbEntity
   8
LEVEL001
 370
13
  62
1
 100
AcDbMText
  10
 6883.1374536033
  20
 1818.4050683700
  30
0.0
  40
 80.000000000000
  41
0.0
  71
7
  72
1
   1
\T1.000000;ＳＳ４００
   7
GMM006
  44
 0.79999984000003
   0
MTEXT
   5
2B2
 100
AcDbEntity
   8
LEVEL001
 370
13
  62
1
 100
AcDbMText
  10
 5833.1374536033
  20
 1818.4050683700
  30
0.0
  40
 80.000000000000
  41
0.0
  71
7
  72
1
   1
\T1.000000;金具締付ボルトナット
   7
GMM006
  44
 0.79999984000003
   0
MTEXT
   5
2B4
 100
AcDbEntity
   8
LEVEL001
 370
13
  62
1
 100
AcDbMText
  10
 6883.1374536033
  20
 1948.4050683700
  30
0.0
  40
 80.000000000000
  41
0.0
  71
7
  72
1
   1
\T1.000000;ＳＳ４００
   7
GMM006
  44
 0.79999984000003
   0
MTEXT
   5
2B6
 100
AcDbEntity
   8
LEVEL001
 370
13
  62
1
 100
AcDbMText
  10
 5833.1374536033
  20
 1948.4050683700
  30
0.0
  40
 80.000000000000
  41
0.0
  71
7
  72
1
   1
\T1.000000;裏板金具取付ボルト
   7
GMM006
  44
 0.79999984000003
   0
MTEXT
   5
2B8
 100
AcDbEntity
   8
LEVEL001
 370
13
  62
1
 100
AcDbMText
  10
 6804.1164273573
  20
 1948.4050683700
  30
0.0
  40
 80.000000000000
  41
0.0
  71
9
  72
1
   1
\T1.000000;４
   7
GMM006
  44
 0.79999984000003
   0
MTEXT
   5
2BA
 100
AcDbEntity
   8
LEVEL001
 370
13
  62
1
 100
AcDbMText
  10
 6883.1374536033
  20
 2078.4050683700
  30
0.0
  40
 80.000000000000
  41
0.0
  71
7
  72
1
   1
\T1.000000;ＳＳ４００
   7
GMM006
  44
 0.79999984000003
   0
MTEXT
   5
2BC
 100
AcDbEntity
   8
LEVEL001
 370
13
  62
1
 100
AcDbMText
  10
 5833.1374536033
  20
 2078.4050683700
  30
0.0
  40
 80.000000000000
  41
0.0
  71
7
  72
1
   1
\T1.000000;支柱取付金具
   7
GMM006
  44
 0.79999984000003
   0
MTEXT
   5
2BE
 100
AcDbEntity
   8
LEVEL001
 370
13
  62
1
 100
AcDbMText
  10
 5833.1374536033
  20
 2208.4050683700
  30
0.0
  40
 80.000000000000
  41
0.0
  71
7
  72
1
   1
\T1.000000;裏板取付金具
   7
GMM006
  44
 0.79999984000003
   0
MTEXT
   5
2C0
 100
AcDbEntity
   8
LEVEL001
 370
13
  62
1
 100
AcDbMText
  10
 6883.1374536033
  20
 2208.4050683700
  30
0.0
  40
 80.000000000000
  41
0.0
  71
7
  72
1
   1
\T1.000000;ＳＳ４００
   7
GMM006
  44
 0.79999984000003
   0
MTEXT
   5
2C2
 100
AcDbEntity
   8
LEVEL001
 370
13
  62
1
 100
AcDbMText
  10
 6804.1164273573
  20
 1818.4050683700
  30
0.0
  40
 80.000000000000
  41
0.0
  71
9
  72
1
   1
\T1.000000;４
   7
GMM006
  44
 0.79999984000003
   0
MTEXT
   5
2C4
 100
AcDbEntity
   8
LEVEL001
 370
13
  62
1
 100
AcDbMText
  10
 6804.1164273573
  20
 2468.4050683700
  30
0.0
  40
 80.000000000000
  41
0.0
  71
9
  72
1
   1
\T1.000000;１
   7
GMM006
  44
 0.79999984000003
   0
MTEXT
   5
2C6
 100
AcDbEntity
   8
LEVEL001
 370
13
  62
1
 100
AcDbMText
  10
 5833.1374536033
  20
 2468.4050683700
  30
0.0
  40
 80.000000000000
  41
0.0
  71
7
  72
1
   1
\T1.000000;取付枠
   7
GMM006
  44
 0.79999984000003
   0
MTEXT
   5
2C8
 100
AcDbEntity
   8
LEVEL001
 370
13
  62
1
 100
AcDbMText
  10
 6883.1374536033
  20
 2468.4050683700
  30
0.0
  40
 80.000000000000
  41
0.0
  71
7
  72
1
   1
\T1.000000;アルミニウム
   7
GMM006
  44
 0.79999984000003
   0
MTEXT
   5
2CA
 100
AcDbEntity
   8
LEVEL001
 370
13
  62
1
 100
AcDbMText
  10
 5833.1374536033
  20
 2338.4050683700
  30
0.0
  40
 80.000000000000
  41
0.0
  71
7
  72
1
   1
\T1.000000;取付枠付リベット
   7
GMM006
  44
 0.79999984000003
   0
MTEXT
   5
2CC
 100
AcDbEntity
   8
LEVEL001
 370
13
  62
1
 100
AcDbMText
  10
 6804.1164273573
  20
 2338.4050683700
  30
0.0
  40
 80.000000000000
  41
0.0
  71
9
  72
1
   1
\T1.000000;７
   7
GMM006
  44
 0.79999984000003
   0
MTEXT
   5
2CE
 100
AcDbEntity
   8
LEVEL001
 370
13
  62
1
 100
AcDbMText
  10
 6883.1374536033
  20
 2338.4050683700
  30
0.0
  40
 80.000000000000
  41
0.0
  71
7
  72
1
   1
\T1.000000;アルミニウム
   7
GMM006
  44
 0.79999984000003
   0
MTEXT
   5
2D0
 100
AcDbEntity
   8
LEVEL001
 370
13
  62
1
 100
AcDbMText
  10
 6804.1164273573
  20
 2208.4050683700
  30
0.0
  40
 80.000000000000
  41
0.0
  71
9
  72
1
   1
\T1.000000;１
   7
GMM006
  44
 0.79999984000003
   0
MTEXT
   5
2D2
 100
AcDbEntity
   8
LEVEL001
 370
13
  62
1
 100
AcDbMText
  10
 6804.1164273573
  20
 2078.4050683700
  30
0.0
  40
 80.000000000000
  41
0.0
  71
9
  72
1
   1
\T1.000000;１
   7
GMM006
  44
 0.79999984000003
   0
MTEXT
   5
2D4
 100
AcDbEntity
   8
LEVEL001
 370
13
  62
1
 100
AcDbMText
  10
 7403.1374536033
  20
 1688.4050683700
  30
0.0
  40
 80.000000000000
  41
0.0
  71
7
  72
1
   1
\T1.000000;静電粉体塗装
   7
GMM006
  44
 0.79999984000003
   0
MTEXT
   5
2D6
 100
AcDbEntity
   8
LEVEL001
 370
13
  62
1
 100
AcDbMText
  10
 7403.1374536033
  20
 1818.4050683700
  30
0.0
  40
 80.000000000000
  41
0.0
  71
7
  72
1
   1
\T1.000000;溶融亜鉛メッキ
   7
GMM006
  44
 0.79999984000003
   0
MTEXT
   5
2D8
 100
AcDbEntity
   8
LEVEL001
 370
13
  62
1
 100
AcDbMText
  10
 7403.1374536033
  20
 1948.4050683700
  30
0.0
  40
 80.000000000000
  41
0.0
  71
7
  72
1
   1
\T1.000000;溶融亜鉛メッキ
   7
GMM006
  44
 0.79999984000003
   0
MTEXT
   5
2DA
 100
AcDbEntity
   8
LEVEL001
 370
13
  62
1
 100
AcDbMText
  10
 7403.1374536033
  20
 2078.4050683700
  30
0.0
  40
 80.000000000000
  41
0.0
  71
7
  72
1
   1
\T1.000000;溶融亜鉛メッキ
   7
GMM006
  44
 0.79999984000003
   0
MTEXT
   5
2DC
 100
AcDbEntity
   8
LEVEL001
 370
13
  62
1
 100
AcDbMText
  10
 7403.1374536033
  20
 2208.4050683700
  30
0.0
  40
 80.000000000000
  41
0.0
  71
7
  72
1
   1
\T1.000000;溶融亜鉛メッキ
   7
GMM006
  44
 0.79999984000003
   0
MTEXT
   5
2DE
 100
AcDbEntity
   8
LEVEL001
 370
13
  62
1
 100
AcDbMText
  10
 7403.1374536033
  20
 2728.4050683700
  30
0.0
  40
 80.000000000000
  41
0.0
  71
7
  72
1
   1
\T1.000000;ＳＭＣ成型
   7
GMM006
  44
 0.79999984000003
   0
LINE
   5
2DF
 100
AcDbEntity
   8
LEVEL001
 370
13
 100
AcDbLine
   6
CONTINUOUS
  62
6
  10
 5583.1374536033
  20
 3364.8314606742
  30
0.0
  11
 8098.8952328114
  21
 3364.8314606742
  31
0.0
   0
LINE
   5
2E0
 100
AcDbEntity
   8
LEVEL001
 370
13
 100
AcDbLine
   6
CONTINUOUS
  62
6
  10
 5583.1374536033
  20
 3664.8314606742
  30
0.0
  11
 8098.8952328114
  21
 3664.8314606742
  31
0.0
   0
MTEXT
   5
2E2
 100
AcDbEntity
   8
LEVEL001
 370
13
  62
1
 100
AcDbMText
  10
 5754.1164273573
  20
 3118.4050683701
  30
0.0
  40
 80.000000000000
  41
0.0
  71
9
  72
1
   1
\T1.000000;１
   7
GMM005
  44
 0.79999984000003
   0
MTEXT
   5
2E4
 100
AcDbEntity
   8
LEVEL001
 370
13
  62
1
 100
AcDbMText
  10
 6804.1164273573
  20
 3118.4050683701
  30
0.0
  40
 80.000000000000
  41
0.0
  71
9
  72
1
   1
\T1.000000;１
   7
GMM006
  44
 0.79999984000003
   0
MTEXT
   5
2E6
 100
AcDbEntity
   8
LEVEL001
 370
13
  62
1
 100
AcDbMText
  10
 5833.1374536033
  20
 3118.4050683701
  30
0.0
  40
 80.000000000000
  41
0.0
  71
7
  72
1
   1
\T1.000000;鏡面　Ｒ＝２２００
   7
GMM006
  44
 0.79999984000003
   0
MTEXT
   5
2E8
 100
AcDbEntity
   8
LEVEL001
 370
13
  62
1
 100
AcDbMText
  10
 6733.1374536033
  20
 3294.8314606742
  30
0.0
  40
 80.000000000000
  41
0.0
  71
5
  72
1
   1
\T1.000000;個数
   7
GMM006
  44
 0.79999984000003
   0
MTEXT
   5
2EA
 100
AcDbEntity
   8
LEVEL001
 370
13
  62
1
 100
AcDbMText
  10
 6208.1374536033
  20
 3294.8314606742
  30
0.0
  40
 80.000000000000
  41
0.0
  71
5
  72
1
   1
\T1.000000;名　　称
   7
GMM006
  44
 0.79999984000003
   0
MTEXT
   5
2EC
 100
AcDbEntity
   8
LEVEL001
 370
13
  62
1
 100
AcDbMText
  10
 5748.5653110789
  20
 3406.9860004335
  30
0.0
  40
 80.000000000000
  41
0.0
  71
7
  72
1
   1
%%c\T1.000000;６００（シングル）
   7
GMM004
  44
 0.79999984000003
   0
LINE
   5
2ED
 100
AcDbEntity
   8
LEVEL001
 370
13
 100
AcDbLine
   6
CONTINUOUS
  62
6
  10
 5583.1374536033
  20
 3224.8314606742
  30
0.0
  11
 8098.8952328114
  21
 3224.8314606742
  31
0.0
   0
MTEXT
   5
2EF
 100
AcDbEntity
   8
LEVEL001
 370
13
  62
1
 100
AcDbMText
  10
 5748.5653110789
  20
 3544.3382912619
  30
0.0
  40
 80.000000000000
  41
0.0
  71
7
  72
1
   1
\T1.000000;アクリーン＜Ｆタイプ＞
   7
GMM004
  44
 0.79999984000003
   0
MTEXT
   5
2F1
 100
AcDbEntity
   8
LEVEL001
 370
13
  62
1
 100
AcDbMText
  10
 6883.1374536033
  20
 3118.4050683701
  30
0.0
  40
 80.000000000000
  41
0.0
  71
4
  72
1
   1
{\W0.900000;\T1.000000;ＰＭＭＡ}\P{\W0.450000;\T1.000000;(\W0.900000;\T1.000000;アクリル\W0.450000;\T1.000000;)}
   7
GMM006
  44
 0.79999984000003
   0
MTEXT
   5
2F3
 100
AcDbEntity
   8
LEVEL001
 370
13
  62
1
 100
AcDbMText
  10
 7093.1374536033
  20
 3294.8314606742
  30
0.0
  40
 80.000000000000
  41
0.0
  71
5
  72
1
   1
\T1.000000;材　　質
   7
GMM006
  44
 0.79999984000003
   0
MTEXT
   5
2F5
 100
AcDbEntity
   8
LEVEL001
 370
13
  62
1
 100
AcDbMText
  10
 7726.0163432074
  20
 3294.8314606742
  30
0.0
  40
 80.000000000000
  41
0.0
  71
5
  72
1
   1
\T1.000000;規格仕様
   7
GMM006
  44
 0.79999984000003
   0
MTEXT
   5
2F7
 100
AcDbEntity
   8
LEVEL001
 370
13
  62
1
 100
AcDbMText
  10
 7403.1374536033
  20
 3198.4050683701
  30
0.0
  40
 80.000000000000
  41
0.0
  71
1
  72
1
   1
{\W0.325000;\T1.000000;t=3.0mm}\P{\W0.650000;\T1.000000;裏面：真空蒸着}\P{\W0.650000;\T1.000000;表面：超親水性コーティング}
   7
GMM007
  44
 0.79999984000003
   0
MTEXT
   5
2F9
 100
AcDbEntity
   8
LEVEL001
 370
13
  62
1
 100
AcDbMText
  10
 6804.1164273573
  20
 1038.4050683700
  30
0.0
  40
 80.000000000000
  41
0.0
  71
9
  72
1
   1
\T1.000000;１式
   7
GMM006
  44
 0.79999984000003
   0
MTEXT
   5
2FB
 100
AcDbEntity
   8
LEVEL001
 370
13
  62
1
 100
AcDbMText
  10
 6804.1164273573
  20
 908.40506837005
  30
0.0
  40
 80.000000000000
  41
0.0
  71
9
  72
1
   1
\T1.000000;１式
   7
GMM006
  44
 0.79999984000003
   0
LINE
   5
2FC
 100
AcDbEntity
   8
LEVEL001
 370
13
 100
AcDbLine
   6
CONTINUOUS
  62
6
  10
 5583.1374536033
  20
 1144.8314606742
  30
0.0
  11
 8098.8952328114
  21
 1144.8314606742
  31
0.0
   0
LINE
   5
2FD
 100
AcDbEntity
   8
LEVEL001
 370
13
 100
AcDbLine
   6
CONTINUOUS
  62
6
  10
 5583.1374536033
  20
 1014.8314606742
  30
0.0
  11
 8098.8952328114
  21
 1014.8314606742
  31
0.0
   0
MTEXT
   5
2FF
 100
AcDbEntity
   8
LEVEL001
 370
13
  62
1
 100
AcDbMText
  10
 6883.1374536033
  20
 1168.4050683700
  30
0.0
  40
 80.000000000000
  41
0.0
  71
7
  72
1
   1
\T1.000000;―
   7
GMM006
  44
 0.79999984000003
   0
MTEXT
   5
301
 100
AcDbEntity
   8
LEVEL001
 370
13
  62
1
 100
AcDbMText
  10
 6883.1374536033
  20
 1038.4050683700
  30
0.0
  40
 80.000000000000
  41
0.0
  71
7
  72
1
   1
\T1.000000;―
   7
GMM006
  44
 0.79999984000003
   0
MTEXT
   5
303
 100
AcDbEntity
   8
LEVEL001
 370
13
  62
1
 100
AcDbMText
  10
 6883.1374536033
  20
 908.40506837005
  30
0.0
  40
 80.000000000000
  41
0.0
  71
7
  72
1
   1
\T1.000000;―
   7
GMM006
  44
 0.79999984000003
   0
MTEXT
   5
305
 100
AcDbEntity
   8
LEVEL001
 370
13
  62
1
 100
AcDbMText
  10
 7403.1374536033
  20
 1168.4050683700
  30
0.0
  40
 80.000000000000
  41
0.0
  71
7
  72
1
   1
\T1.000000;―
   7
GMM006
  44
 0.79999984000003
   0
MTEXT
   5
307
 100
AcDbEntity
   8
LEVEL001
 370
13
  62
1
 100
AcDbMText
  10
 7403.1374536033
  20
 1038.4050683700
  30
0.0
  40
 80.000000000000
  41
0.0
  71
7
  72
1
   1
\T1.000000;―
   7
GMM006
  44
 0.79999984000003
   0
MTEXT
   5
309
 100
AcDbEntity
   8
LEVEL001
 370
13
  62
1
 100
AcDbMText
  10
 7403.1374536033
  20
 908.40506837005
  30
0.0
  40
 80.000000000000
  41
0.0
  71
7
  72
1
   1
\T1.000000;―
   7
GMM006
  44
 0.79999984000003
   0
LINE
   5
30A
 100
AcDbEntity
   8
LEVEL001
 370
13
 100
AcDbLine
   6
CONTINUOUS
  62
6
  10
 7353.1374536033
  20
 3364.8314606742
  30
0.0
  11
 7353.1374536033
  21
 884.83146067416
  31
0.0
   0
LINE
   5
30B
 100
AcDbEntity
   8
LEVEL001
 370
13
 100
AcDbLine
   6
CONTINUOUS
  62
6
  10
 6833.1374536033
  20
 3364.8314606742
  30
0.0
  11
 6833.1374536033
  21
 884.83146067416
  31
0.0
   0
LINE
   5
30C
 100
AcDbEntity
   8
LEVEL001
 370
13
 100
AcDbLine
   6
CONTINUOUS
  62
6
  10
 6633.1374536033
  20
 3364.8314606742
  30
0.0
  11
 6633.1374536033
  21
 884.83146067416
  31
0.0
   0
LINE
   5
30D
 100
AcDbEntity
   8
LEVEL001
 370
13
 100
AcDbLine
   6
CONTINUOUS
  62
6
  10
 5783.1374536033
  20
 3364.8314606742
  30
0.0
  11
 5783.1374536033
  21
 884.83146067416
  31
0.0
   0
LINE
   5
30E
 100
AcDbEntity
   8
LEVEL001
 370
13
 100
AcDbLine
   6
CONTINUOUS
  62
6
  10
 5583.1374536033
  20
 3664.8314606742
  30
0.0
  11
 5583.1374536033
  21
 884.83146067416
  31
0.0
   0
LINE
   5
30F
 100
AcDbEntity
   8
LEVEL001
 370
13
 100
AcDbLine
   6
CONTINUOUS
  62
6
  10
 8098.8952328114
  20
 884.83146067416
  30
0.0
  11
 8098.8952328114
  21
 3664.8314606742
  31
0.0
   0
MTEXT
   5
311
 100
AcDbEntity
   8
LEVEL001
 370
13
  62
1
 100
AcDbMText
  10
 6883.1374536033
  20
 1558.4050683701
  30
0.0
  40
 80.000000000000
  41
0.0
  71
7
  72
1
   1
\T1.000000;ＳＴＫ４００
   7
GMM006
  44
 0.79999984000003
   0
MTEXT
   5
313
 100
AcDbEntity
   8
LEVEL001
 370
13
  62
1
 100
AcDbMText
  10
 7403.1374536033
  20
 1599.8314606742
  30
0.0
  40
 44.000000000000
  41
0.0
  71
4
  72
1
   1
{\T1.000000;下地亜鉛メッキ}\P{\T1.000000;＋静電粉体塗装}
   7
GMM008
  44
 0.79999984000003
   0
MTEXT
   5
315
 100
AcDbEntity
   8
LEVEL001
 370
13
  62
1
 100
AcDbMText
  10
 6804.1164273573
  20
 1558.4050683701
  30
0.0
  40
 80.000000000000
  41
0.0
  71
9
  72
1
   1
\T1.000000;１
   7
GMM006
  44
 0.79999984000003
   0
LINE
   5
316
 100
AcDbEntity
   8
LEVEL001
 370
13
 100
AcDbLine
   6
CONTINUOUS
  62
6
  10
 6633.1374536033
  20
 1664.8314606742
  30
0.0
  11
 8098.8952328114
  21
 1664.8314606742
  31
0.0
   0
MTEXT
   5
318
 100
AcDbEntity
   8
LEVEL001
 370
13
  62
1
 100
AcDbMText
  10
 5639.5436862595
  20
 3909.1428159855
  30
0.0
  40
 80.000000000000
  41
0.0
  71
4
  72
1
   1
{\T1.000000;※構成部材は改良のため、変更する場合があります。}\P{\T1.000000;※本図は道路反射鏡ハンドブックに基づいています。}
   7
GMM006
  44
 0.94999981000004
   0
MTEXT
   5
31A
 100
AcDbEntity
   8
LEVEL001
 370
13
  62
1
 100
AcDbMText
  10
 6403.1374536033
  20
 723.96438154969
  30
0.0
  40
 66.000000000000
  41
0.0
  71
5
  72
1
   1
\T1.000000;ＭＦ０６０ＳＵＰ
   7
GMM001
  44
 0.79999984000003
   0
MTEXT
   5
31C
 100
AcDbEntity
   8
LEVEL001
 370
13
  62
1
 100
AcDbMText
  10
 1716.8876906858
  20
 2696.3189136747
  30
0.0
  40
 66.000000000000
  41
0.0
  71
1
  72
1
   1
{\W0.787879;\T1.000000;支柱}\P%%c{\W0.787879;\T1.000000;７６\W0.393939;\T1.000000;.\W0.787879;\T1.000000;３ｘ３\W0.393939;\T1.000000;.\W0.787879;\T1.000000;２ｔ}\P{\W0.787879;\T1.000000;ｘ３６００Ｌ}
   7
GMM001
  44
 0.79999984000003
   0
MTEXT
   5
31D
 100
AcDbEntity
   8
LEVEL001
 370
13
  62
1
 100
AcDbMText
  10
 5606.0638605297
  20
 828.61643091225
  30
0.0
  40
 37.142860000000
  41
0.0
  71
7
  72
1
   1
\T1.269231;図面番号
   7
GMM009
  44
 0.79999984000003
   0
LINE
   5
31E
 100
AcDbEntity
   8
LEVEL001
 370
13
 100
AcDbLine
   6
CONTINUOUS
  62
6
  10
 5583.1374536033
  20
 884.83146067416
  30
0.0
  11
 8098.8952328114
  21
 884.83146067416
  31
0.0
   0
MTEXT
   5
320
 100
AcDbEntity
   8
LEVEL001
 370
13
  62
1
 100
AcDbMText
  10
 5833.1374536033
  20
 1168.4050683700
  30
0.0
  40
 80.000000000000
  41
0.0
  71
7
  72
1
   1
\T1.000000;注意板
   7
GMM006
  44
 0.79999984000003
   0
ENDSEC
  0
SECTION
  2
OBJECTS
  0
DICTIONARY
  5
C
100
AcDbDictionary
  3
ACAD_GROUP
350
D
  3
ACAD_MLINESTYLE
350
1B
  3
DWGPROPS
350
1C
  0
DICTIONARY
  5
D
102
{ACAD_REACTORS
330
C
102
}
100
AcDbDictionary
  0
DICTIONARY
  5
1B
102
{ACAD_REACTORS
330
C
102
}
100
AcDbDictionary
  3
STANDARD
350
1D
  0
MLINESTYLE
  5
1D
102
{ACAD_REACTORS
330
1B
102
}
100
AcDbMlineStyle
  2
STANDARD
 70
     0
  3

 62
   256
 51
90.0
 52
90.0
 71
     2
 49
0.5
 62
   256
  6
BYLAYER
 49
-0.5
 62
   256
  6
BYLAYER
   0
XRECORD
   5
1C
 102
{ACAD_REACTORS
 330
C
 102
}
 330
C
 100
AcDbXrecord
 280
1
   1
DWGPROPS COOKIE
   2
 
   3
 
   4
 
   6
 
   7
MF060SUP
   8
 
   9

 300
 = 
 301
 = 
 302
 = 
 303
 = 
 304
 = 
 305
 = 
 306
 = 
 307
 = 
 308
 = 
 309
 = 
  40
0.0
  41
 2460327.5000000
  42
 2460327.5000000
   1

  90
10
   0
ENDSEC
   0
EOF
