   0
SECTION
   2
HEADER
   9
$ACADVER
   1
AC1015
   9
$DWGCODEPAGE
   3
ANSI_932
   9
$LIMMIN
  10
0.0
  20
0.0
   9
$LIMMAX
  10
 8400.0000000000
  20
 5940.0000000000
   9
$EXTMIN
  10
0.0
  20
0.0
  30
0.0
   9
$EXTMAX
  10
 8400.0000000000
  20
 5940.0000000000
  30
0.0
   9
$LTSCALE
  40
 168.00000000000
   9
$HANDSEED
   5
326
   0
ENDSEC
   0
SECTION
   2
TABLES
  0
TABLE
  2
VPORT
  5
8
100
AcDbSymbolTable
 70
     1
  0
VPORT
  5
325
100
AcDbSymbolTableRecord
100
AcDbViewportTableRecord
  2
*ACTIVE
 70
     0
 10
0.0
 20
0.0
 11
1.0
 21
1.0
  12
 4200.0000000000
  22
 2970.0000000000
 13
0.0
 23
0.0
 14
1.0
 24
1.0
 15
0.0
 25
0.0
 16
0.0
 26
0.0
 36
1.0
 17
0.0
 27
0.0
 37
0.0
  40
 8400.0000000000
  41
 1.4787878787879
 42
50.0
 43
0.0
 44
0.0
 50
0.0
 51
0.0
 71
     0
 72
   100
 73
     1
 74
     1
 75
     0
 76
     0
 77
     0
 78
     0
  0
ENDTAB
  0
TABLE
  2
LTYPE
  5
5
100
AcDbSymbolTable
 70
    25
  0
LTYPE
  5
12
100
AcDbSymbolTableRecord
100
AcDbLinetypeTableRecord
  2
BYBLOCK
 70
     0
  3

 72
    65
 73
     0
 40
0.0
  0
LTYPE
  5
13
100
AcDbSymbolTableRecord
100
AcDbLinetypeTableRecord
  2
BYLAYER
 70
     0
  3

 72
    65
 73
     0
 40
0.0
  0
LTYPE
  5
14
100
AcDbSymbolTableRecord
100
AcDbLinetypeTableRecord
  2
CONTINUOUS
 70
     0
  3
Solid line
 72
    65
 73
     0
 40
0.0
  0
LTYPE
  5
20
100
AcDbSymbolTableRecord
100
AcDbLinetypeTableRecord
  2
BORDER
 70
     0
  3
__ __ . __ __ . __ __ . __ __ . __ __ . __ __ .
 72
    65
 73
     6
 40
1.75
 49
0.5
 74
     0
 49
-0.25
 74
     0
 49
0.5
 74
     0
 49
-0.25
 74
     0
 49
0.0
 74
     0
 49
-0.25
 74
     0
  0
LTYPE
  5
21
100
AcDbSymbolTableRecord
100
AcDbLinetypeTableRecord
  2
BORDER2
 70
     0
  3
__.__.__.__.__.__.__.__.__.__.__.__.__.__.__.__
 72
    65
 73
     6
 40
0.875
 49
0.25
 74
     0
 49
-0.125
 74
     0
 49
0.25
 74
     0
 49
-0.125
 74
     0
 49
0.0
 74
     0
 49
-0.125
 74
     0
  0
LTYPE
  5
22
100
AcDbSymbolTableRecord
100
AcDbLinetypeTableRecord
  2
BORDERX2
 70
     0
  3
____  ____  .  ____  ____  .  ____  ____  .  __
 72
    65
 73
     6
 40
3.5
 49
1.0
 74
     0
 49
-0.5
 74
     0
 49
1.0
 74
     0
 49
-0.5
 74
     0
 49
0.0
 74
     0
 49
-0.5
 74
     0
  0
LTYPE
  5
23
100
AcDbSymbolTableRecord
100
AcDbLinetypeTableRecord
  2
CENTER
 70
     0
  3
____ _ ____ _ ____ _ ____ _ ____ _ ____ _ ____ 
 72
    65
 73
     4
 40
2.0
 49
1.25
 74
     0
 49
-0.25
 74
     0
 49
0.25
 74
     0
 49
-0.25
 74
     0
  0
LTYPE
  5
24
100
AcDbSymbolTableRecord
100
AcDbLinetypeTableRecord
  2
CENTER2
 70
     0
  3
___ _ ___ _ ___ _ ___ _ ___ _ ___ _ ___ _ ___ _
 72
    65
 73
     4
 40
1.125
 49
0.75
 74
     0
 49
-0.125
 74
     0
 49
0.125
 74
     0
 49
-0.125
 74
     0
  0
LTYPE
  5
25
100
AcDbSymbolTableRecord
100
AcDbLinetypeTableRecord
  2
CENTERX2
 70
     0
  3
________  __  ________  __  ________  __  _____
 72
    65
 73
     4
 40
4.0
 49
2.5
 74
     0
 49
-0.5
 74
     0
 49
0.5
 74
     0
 49
-0.5
 74
     0
  0
LTYPE
  5
26
100
AcDbSymbolTableRecord
100
AcDbLinetypeTableRecord
  2
DASHDOT
 70
     0
  3
__ . __ . __ . __ . __ . __ . __ . __ . __ . __
 72
    65
 73
     4
 40
1.0
 49
0.5
 74
     0
 49
-0.25
 74
     0
 49
0.0
 74
     0
 49
-0.25
 74
     0
  0
LTYPE
  5
27
100
AcDbSymbolTableRecord
100
AcDbLinetypeTableRecord
  2
DASHDOT2
 70
     0
  3
_._._._._._._._._._._._._._._._._._._._._._._._
 72
    65
 73
     4
 40
0.5
 49
0.25
 74
     0
 49
-0.125
 74
     0
 49
0.0
 74
     0
 49
-0.125
 74
     0
  0
LTYPE
  5
28
100
AcDbSymbolTableRecord
100
AcDbLinetypeTableRecord
  2
DASHDOTX2
 70
     0
  3
____  .  ____  .  ____  .  ____  .  ____  .  __
 72
    65
 73
     4
 40
2.0
 49
1.0
 74
     0
 49
-0.5
 74
     0
 49
0.0
 74
     0
 49
-0.5
 74
     0
  0
LTYPE
  5
29
100
AcDbSymbolTableRecord
100
AcDbLinetypeTableRecord
  2
DASHED
 70
     0
  3
__ __ __ __ __ __ __ __ __ __ __ __ __ __ __ __
 72
    65
 73
     2
 40
0.75
 49
0.5
 74
     0
 49
-0.25
 74
     0
  0
LTYPE
  5
2A
100
AcDbSymbolTableRecord
100
AcDbLinetypeTableRecord
  2
DASHED2
 70
     0
  3
_ _ _ _ _ _ _ _ _ _ _ _ _ _ _ _ _ _ _ _ _ _ _ _
 72
    65
 73
     2
 40
0.375
 49
0.25
 74
     0
 49
-0.125
 74
     0
  0
LTYPE
  5
2B
100
AcDbSymbolTableRecord
100
AcDbLinetypeTableRecord
  2
DASHEDX2
 70
     0
  3
____  ____  ____  ____  ____  ____  ____  ____ 
 72
    65
 73
     2
 40
1.5
 49
1.0
 74
     0
 49
-0.5
 74
     0
  0
LTYPE
  5
2C
100
AcDbSymbolTableRecord
100
AcDbLinetypeTableRecord
  2
DIVIDE
 70
     0
  3
____ . . ____ . . ____ . . ____ . . ____ . . __
 72
    65
 73
     6
 40
1.25
 49
0.5
 74
     0
 49
-0.25
 74
     0
 49
0.0
 74
     0
 49
-0.25
 74
     0
 49
0.0
 74
     0
 49
-0.25
 74
     0
  0
LTYPE
  5
2D
100
AcDbSymbolTableRecord
100
AcDbLinetypeTableRecord
  2
DIVIDE2
 70
     0
  3
__..__..__..__..__..__..__..__..__..__..__..__.
 72
    65
 73
     6
 40
0.625
 49
0.25
 74
     0
 49
-0.125
 74
     0
 49
0.0
 74
     0
 49
-0.125
 74
     0
 49
0.0
 74
     0
 49
-0.125
 74
     0
  0
LTYPE
  5
2E
100
AcDbSymbolTableRecord
100
AcDbLinetypeTableRecord
  2
DIVIDEX2
 70
     0
  3
________  .  .  ________  .  .  ________  .  . 
 72
    65
 73
     6
 40
2.5
 49
1.0
 74
     0
 49
-0.5
 74
     0
 49
0.0
 74
     0
 49
-0.5
 74
     0
 49
0.0
 74
     0
 49
-0.5
 74
     0
  0
LTYPE
  5
2F
100
AcDbSymbolTableRecord
100
AcDbLinetypeTableRecord
  2
DOT
 70
     0
  3
. . . . . . . . . . . . . . . . . . . . . . . .
 72
    65
 73
     2
 40
0.25
 49
0.0
 74
     0
 49
-0.25
 74
     0
  0
LTYPE
  5
30
100
AcDbSymbolTableRecord
100
AcDbLinetypeTableRecord
  2
DOT2
 70
     0
  3
...............................................
 72
    65
 73
     2
 40
0.125
 49
0.0
 74
     0
 49
-0.125
 74
     0
  0
LTYPE
  5
31
100
AcDbSymbolTableRecord
100
AcDbLinetypeTableRecord
  2
DOTX2
 70
     0
  3
.  .  .  .  .  .  .  .  .  .  .  .  .  .  .  . 
 72
    65
 73
     2
 40
0.5
 49
0.0
 74
     0
 49
-0.5
 74
     0
  0
LTYPE
  5
32
100
AcDbSymbolTableRecord
100
AcDbLinetypeTableRecord
  2
HIDDEN
 70
     0
  3
__ __ __ __ __ __ __ __ __ __ __ __ __ __ __ __
 72
    65
 73
     2
 40
0.375
 49
0.25
 74
     0
 49
-0.125
 74
     0
  0
LTYPE
  5
33
100
AcDbSymbolTableRecord
100
AcDbLinetypeTableRecord
  2
HIDDEN2
 70
     0
  3
_ _ _ _ _ _ _ _ _ _ _ _ _ _ _ _ _ _ _ _ _ _ _ _
 72
    65
 73
     2
 40
0.1875
 49
0.125
 74
     0
 49
-0.0625
 74
     0
  0
LTYPE
  5
34
100
AcDbSymbolTableRecord
100
AcDbLinetypeTableRecord
  2
HIDDENX2
 70
     0
  3
____ ____ ____ ____ ____ ____ ____ ____ ____ __
 72
    65
 73
     2
 40
0.75
 49
0.5
 74
     0
 49
-0.25
 74
     0
  0
LTYPE
  5
35
100
AcDbSymbolTableRecord
100
AcDbLinetypeTableRecord
  2
PHANTOM
 70
     0
  3
______  __  __  ______  __  __  ______  __  __ 
 72
    65
 73
     6
 40
2.5
 49
1.25
 74
     0
 49
-0.25
 74
     0
 49
0.25
 74
     0
 49
-0.25
 74
     0
 49
0.25
 74
     0
 49
-0.25
 74
     0
  0
LTYPE
  5
36
100
AcDbSymbolTableRecord
100
AcDbLinetypeTableRecord
  2
PHANTOM2
 70
     0
  3
___ _ _ ___ _ _ ___ _ _ ___ _ _ ___ _ _ ___ _ _
 72
    65
 73
     6
 40
1.25
 49
0.625
 74
     0
 49
-0.125
 74
     0
 49
0.125
 74
     0
 49
-0.125
 74
     0
 49
0.125
 74
     0
 49
-0.125
 74
     0
  0
LTYPE
  5
37
100
AcDbSymbolTableRecord
100
AcDbLinetypeTableRecord
  2
PHANTOMX2
 70
     0
  3
____________    ____    ____    ____________   
 72
    65
 73
     6
 40
5.0
 49
2.5
 74
     0
 49
-0.5
 74
     0
 49
0.5
 74
     0
 49
-0.5
 74
     0
 49
0.5
 74
     0
 49
-0.5
 74
     0
  0
ENDTAB
   0
TABLE
   2
LAYER
   5
2
 100
AcDbSymbolTable
  70
5
   0
LAYER
   5
E
 100
AcDbSymbolTableRecord
 100
AcDbLayerTableRecord
   2
0
  70
0
  62
7
   6
CONTINUOUS
 390
30
   0
LAYER
   5
39
 100
AcDbSymbolTableRecord
 100
AcDbLayerTableRecord
   2
LEVEL001
  70
0
  62
7
   6
CONTINUOUS
 390
30
   0
LAYER
   5
3A
 100
AcDbSymbolTableRecord
 100
AcDbLayerTableRecord
   2
寸法
  70
0
  62
-7
   6
CONTINUOUS
 390
30
   0
LAYER
   5
3B
 100
AcDbSymbolTableRecord
 100
AcDbLayerTableRecord
   2
基礎（５００）
  70
0
  62
7
   6
CONTINUOUS
 390
30
   0
LAYER
   5
3C
 100
AcDbSymbolTableRecord
 100
AcDbLayerTableRecord
   2
基礎（４００）
  70
0
  62
7
   6
CONTINUOUS
 390
30
   0
ENDTAB
  0
TABLE
  2
STYLE
  5
3
100
AcDbSymbolTable
  70
11
  0
STYLE
  5
F
100
AcDbSymbolTableRecord
100
AcDbTextStyleTableRecord
  2
STANDARD
 70
     0
 40
0.0
 41
1.0
 50
0.0
 71
     0
 42
0.2
  3
TXT
  4
BIGFONT
  0
STYLE
  5
38
100
AcDbSymbolTableRecord
100
AcDbTextStyleTableRecord
  2
STANDARD1
 70
     4
 40
0.0
 41
1.0
 50
0.0
 71
     0
 42
0.2
  3
TXT
  4
BIGFONT
   0
STYLE
   5
3D
 100
AcDbSymbolTableRecord
 100
AcDbTextStyleTableRecord
   2
GMM001
  70
0
  40
0.0
  41
 1.0000000000000
  50
0.0
  71
     0
  42
1.0
   3
txt.shx
   4
bigfont.shx
   0
STYLE
   5
3E
 100
AcDbSymbolTableRecord
 100
AcDbTextStyleTableRecord
   2
GMM002
  70
0
  40
0.0
  41
 0.78787878787879
  50
0.0
  71
     0
  42
1.0
   3
txt.shx
   4
bigfont.shx
   0
STYLE
   5
3F
 100
AcDbSymbolTableRecord
 100
AcDbTextStyleTableRecord
   2
GMM003
  70
0
  40
0.0
  41
 0.75000000000000
  50
0.0
  71
     0
  42
1.0
   3
txt.shx
   4
bigfont.shx
   0
STYLE
   5
40
 100
AcDbSymbolTableRecord
 100
AcDbTextStyleTableRecord
   2
GMM004
  70
0
  40
0.0
  41
 0.90000000000000
  50
0.0
  71
     0
  42
1.0
   3

   4

1001
ACAD
1000
ＭＳ 明朝
1071
33587217
   0
STYLE
   5
41
 100
AcDbSymbolTableRecord
 100
AcDbTextStyleTableRecord
   2
GMM005
  70
0
  40
0.0
  41
 0.87500000000000
  50
0.0
  71
     0
  42
1.0
   3
txt.shx
   4
bigfont.shx
   0
STYLE
   5
42
 100
AcDbSymbolTableRecord
 100
AcDbTextStyleTableRecord
   2
GMM006
  70
0
  40
0.0
  41
 0.90000000000000
  50
0.0
  71
     0
  42
1.0
   3
txt.shx
   4
bigfont.shx
   0
STYLE
   5
43
 100
AcDbSymbolTableRecord
 100
AcDbTextStyleTableRecord
   2
GMM007
  70
0
  40
0.0
  41
 0.65000000000000
  50
0.0
  71
     0
  42
1.0
   3
txt.shx
   4
bigfont.shx
   0
STYLE
   5
44
 100
AcDbSymbolTableRecord
 100
AcDbTextStyleTableRecord
   2
GMM008
  70
0
  40
0.0
  41
 1.0000000000000
  50
0.0
  71
     0
  42
1.0
   3

   4

1001
ACAD
1000
ＭＳ 明朝
1071
32785
   0
STYLE
   5
45
 100
AcDbSymbolTableRecord
 100
AcDbTextStyleTableRecord
   2
GMM009
  70
0
  40
0.0
  41
 1.6363636363636
  50
0.0
  71
     0
  42
1.0
   3
txt.shx
   4
bigfont.shx
   0
ENDTAB
  0
TABLE
  2
VIEW
  5
6
100
AcDbSymbolTable
 70
     0
  0
ENDTAB
  0
TABLE
  2
UCS
  5
7
100
AcDbSymbolTable
 70
     0
  0
ENDTAB
  0
TABLE
  2
APPID
  5
9
100
AcDbSymbolTable
 70
     1
  0
APPID
  5
10
100
AcDbSymbolTableRecord
100
AcDbRegAppTableRecord
  2
ACAD
 70
     0
  0
ENDTAB
   0
TABLE
   2
DIMSTYLE
   5
A
 100
AcDbSymbolTable
  70
11
 100
AcDbDimStyleTable
  0
DIMSTYLE
105
1D
100
AcDbSymbolTableRecord
100
AcDbDimStyleTableRecord
  2
STANDARD
 70
     0
  3

  4

  5

  6

  7

 40
1.0
 41
0.18
 42
0.0625
 43
0.38
 44
0.18
 45
0.0
 46
0.0
 47
0.0
 48
0.0
140
0.18
141
0.09
142
0.0
143
25.4
144
1.0
145
0.0
146
1.0
147
0.09
 71
     0
 72
     0
 73
     1
 74
     1
 75
     0
 76
     0
 77
     0
 78
     0
170
     0
171
     2
172
     0
173
     0
174
     0
175
     0
176
     0
177
     0
178
     0
270
     2
271
     4
272
     4
273
     2
274
     2
340
F
275
     0
280
     0
281
     0
282
     0
283
     1
284
     0
285
     0
286
     0
287
     3
288
     0
   0
DIMSTYLE
 105
46
 100
AcDbSymbolTableRecord
 100
AcDbDimStyleTableRecord
   2
GMM001
  70
0
   3
%%c<>
   4

   5

   6
_OPEN
   7
_OPEN
  40
 1.0000000000000
  41
 30.000000000000
  42
 30.000000000000
  43
 160.00000000000
  44
 30.000000000000
  45
0.0
  46
 37.500000000000
  47
0.0
  48
0.0
 140
 66.000000000000
 141
 20.000000000000
 142
0.0
 143
 0.39400000000000E-1
 144
 1.0000000000000
 145
0.0
 146
 0.62500000000000
 147
 28.285714285714
  71
0
  72
0
  73
0
  74
0
  75
1
  76
1
  77
1
  78
8
 170
0
 171
2
 172
1
 173
1
 174
0
 175
0
 176
6
 177
6
 178
1
 270
2
 271
1
 272
0
 273
2
 274
2
 340
3E
 275
0
 280
0
 281
0
 282
0
 283
1
 284
0
 285
0
 286
0
 287
0
 288
0
   0
DIMSTYLE
 105
47
 100
AcDbSymbolTableRecord
 100
AcDbDimStyleTableRecord
   2
GMM002
  70
0
   3

   4

   5

   6
_OPEN
   7
_OPEN
  40
 1.0000000000000
  41
 30.000000000000
  42
 30.000000000000
  43
 160.00000000000
  44
 30.000000000000
  45
0.0
  46
 37.500000000000
  47
0.0
  48
0.0
 140
 66.000000000000
 141
 20.000000000000
 142
0.0
 143
 0.39400000000000E-1
 144
 1.0000000000000
 145
0.0
 146
 0.62500000000000
 147
0.0
  71
0
  72
0
  73
0
  74
0
  75
1
  76
1
  77
0
  78
8
 170
0
 171
2
 172
1
 173
1
 174
0
 175
0
 176
1
 177
1
 178
1
 270
2
 271
1
 272
0
 273
2
 274
2
 340
F
 275
0
 280
0
 281
0
 282
0
 283
1
 284
0
 285
0
 286
0
 287
3
 288
0
   0
DIMSTYLE
 105
48
 100
AcDbSymbolTableRecord
 100
AcDbDimStyleTableRecord
   2
GMM003
  70
0
   3

   4

   5

   6
_OPEN
   7
_OPEN
  40
 1.0000000000000
  41
 30.000000000000
  42
 30.000000000000
  43
 160.00000000000
  44
 30.000000000000
  45
0.0
  46
 37.500000000000
  47
0.0
  48
0.0
 140
 66.000000000000
 141
 20.000000000000
 142
0.0
 143
 0.39400000000000E-1
 144
 1.0000000000000
 145
0.0
 146
 0.62500000000000
 147
 28.285714285714
  71
0
  72
0
  73
0
  74
0
  75
0
  76
1
  77
1
  78
8
 170
0
 171
2
 172
1
 173
1
 174
0
 175
0
 176
6
 177
6
 178
1
 270
2
 271
1
 272
0
 273
2
 274
2
 340
3E
 275
0
 280
0
 281
0
 282
0
 283
1
 284
0
 285
0
 286
0
 287
3
 288
0
   0
DIMSTYLE
 105
49
 100
AcDbSymbolTableRecord
 100
AcDbDimStyleTableRecord
   2
GMM004
  70
0
   3
<>(標準設置高さ
   4

   5

   6
_OPEN
   7
_OPEN
  40
 1.0000000000000
  41
 30.000000000000
  42
 30.000000000000
  43
 160.00000000000
  44
 30.000000000000
  45
0.0
  46
 37.500000000000
  47
0.0
  48
0.0
 140
 66.000000000000
 141
 20.000000000000
 142
0.0
 143
 0.39400000000000E-1
 144
 1.0000000000000
 145
0.0
 146
 0.62500000000000
 147
 28.285714285714
  71
0
  72
0
  73
0
  74
0
  75
0
  76
0
  77
1
  78
8
 170
0
 171
2
 172
1
 173
1
 174
0
 175
0
 176
6
 177
6
 178
1
 270
2
 271
1
 272
0
 273
2
 274
2
 340
3E
 275
0
 280
0
 281
0
 282
0
 283
1
 284
0
 285
0
 286
0
 287
3
 288
0
   0
DIMSTYLE
 105
4A
 100
AcDbSymbolTableRecord
 100
AcDbDimStyleTableRecord
   2
GMM005
  70
0
   3

   4

   5

   6
_OPEN
   7
_OPEN
  40
 1.0000000000000
  41
 30.000000000000
  42
 30.000000000000
  43
 160.00000000000
  44
 30.000000000000
  45
0.0
  46
 37.500000000000
  47
0.0
  48
0.0
 140
 66.000000000000
 141
 20.000000000000
 142
0.0
 143
 0.39400000000000E-1
 144
 1.0000000000000
 145
0.0
 146
 0.62500000000000
 147
0.0
  71
0
  72
0
  73
0
  74
0
  75
1
  76
1
  77
0
  78
8
 170
0
 171
2
 172
1
 173
1
 174
0
 175
0
 176
1
 177
1
 178
1
 270
2
 271
1
 272
0
 273
2
 274
2
 340
F
 275
0
 280
0
 281
0
 282
0
 283
1
 284
0
 285
0
 286
0
 287
3
 288
0
   0
DIMSTYLE
 105
4B
 100
AcDbSymbolTableRecord
 100
AcDbDimStyleTableRecord
   2
GMM006
  70
0
   3
□<>
   4

   5

   6
_OPEN
   7
_OPEN
  40
 1.0000000000000
  41
 30.000000000000
  42
 30.000000000000
  43
 160.00000000000
  44
 30.000000000000
  45
0.0
  46
 37.500000000000
  47
0.0
  48
0.0
 140
 66.000000000000
 141
 20.000000000000
 142
0.0
 143
 0.39400000000000E-1
 144
 1.0000000000000
 145
0.0
 146
 0.62500000000000
 147
 28.285714285714
  71
0
  72
0
  73
0
  74
0
  75
0
  76
0
  77
1
  78
8
 170
0
 171
2
 172
1
 173
1
 174
0
 175
0
 176
6
 177
6
 178
1
 270
2
 271
1
 272
0
 273
2
 274
2
 340
3E
 275
0
 280
0
 281
0
 282
0
 283
1
 284
0
 285
0
 286
0
 287
3
 288
0
   0
DIMSTYLE
 105
4C
 100
AcDbSymbolTableRecord
 100
AcDbDimStyleTableRecord
   2
GMM007
  70
0
   3

   4

   5

   6
_OPEN
   7
_OPEN
  40
 1.0000000000000
  41
 30.000000000000
  42
 30.000000000000
  43
 160.00000000000
  44
 30.000000000000
  45
0.0
  46
 37.500000000000
  47
0.0
  48
0.0
 140
 66.000000000000
 141
 20.000000000000
 142
0.0
 143
 0.39400000000000E-1
 144
 1.0000000000000
 145
0.0
 146
 0.62500000000000
 147
0.0
  71
0
  72
0
  73
0
  74
0
  75
1
  76
1
  77
0
  78
8
 170
0
 171
2
 172
1
 173
1
 174
0
 175
0
 176
1
 177
1
 178
1
 270
2
 271
1
 272
0
 273
2
 274
2
 340
F
 275
0
 280
0
 281
0
 282
0
 283
1
 284
0
 285
0
 286
0
 287
3
 288
0
   0
DIMSTYLE
 105
4D
 100
AcDbSymbolTableRecord
 100
AcDbDimStyleTableRecord
   2
GMM008
  70
0
   3

   4

   5

   6
_OPEN30
   7
_OPEN30
  40
 1.0000000000000
  41
 30.000000000000
  42
 30.000000000000
  43
 160.00000000000
  44
 30.000000000000
  45
0.0
  46
 37.500000000000
  47
0.0
  48
0.0
 140
 66.000000000000
 141
 20.000000000000
 142
0.0
 143
 0.39400000000000E-1
 144
 1.0000000000000
 145
0.0
 146
 0.62500000000000
 147
 28.285714285714
  71
0
  72
0
  73
0
  74
0
  75
0
  76
1
  77
1
  78
8
 170
0
 171
2
 172
1
 173
1
 174
0
 175
0
 176
6
 177
6
 178
1
 270
2
 271
0
 272
0
 273
2
 274
2
 340
3E
 275
0
 280
0
 281
0
 282
0
 283
1
 284
0
 285
0
 286
0
 287
3
 288
0
   0
DIMSTYLE
 105
4E
 100
AcDbSymbolTableRecord
 100
AcDbDimStyleTableRecord
   2
GMM009
  70
0
   3

   4

   5

   6
_OPEN
   7
_OPEN
  40
 1.0000000000000
  41
 40.000000000000
  42
 40.000000000000
  43
 160.00000000000
  44
 40.000000000000
  45
0.0
  46
 50.000000000000
  47
0.0
  48
0.0
 140
 66.000000000000
 141
 20.000000000000
 142
0.0
 143
 0.39400000000000E-1
 144
 1.0000000000000
 145
0.0
 146
 0.62500000000000
 147
0.0
  71
0
  72
0
  73
0
  74
0
  75
1
  76
1
  77
1
  78
0
 170
0
 171
2
 172
1
 173
1
 174
0
 175
0
 176
6
 177
6
 178
1
 270
2
 271
0
 272
0
 273
2
 274
2
 340
3E
 275
1
 280
0
 281
0
 282
0
 283
1
 284
0
 285
0
 286
0
 287
3
 288
0
   0
ENDTAB
  0
TABLE
  2
BLOCK_RECORD
  5
1
100
AcDbSymbolTable
 70
     0
  0
BLOCK_RECORD
  5
18
100
AcDbSymbolTableRecord
100
AcDbBlockTableRecord
  2
*MODEL_SPACE
  0
BLOCK_RECORD
  5
15
100
AcDbSymbolTableRecord
100
AcDbBlockTableRecord
  2
*PAPER_SPACE
   0
BLOCK_RECORD
   5
4F
 100
AcDbSymbolTableRecord
 100
AcDbBlockTableRecord
   2
*D1
   0
BLOCK_RECORD
   5
50
 100
AcDbSymbolTableRecord
 100
AcDbBlockTableRecord
   2
*D11
   0
BLOCK_RECORD
   5
51
 100
AcDbSymbolTableRecord
 100
AcDbBlockTableRecord
   2
*D12
   0
BLOCK_RECORD
   5
52
 100
AcDbSymbolTableRecord
 100
AcDbBlockTableRecord
   2
*D13
   0
BLOCK_RECORD
   5
53
 100
AcDbSymbolTableRecord
 100
AcDbBlockTableRecord
   2
*D18
   0
BLOCK_RECORD
   5
54
 100
AcDbSymbolTableRecord
 100
AcDbBlockTableRecord
   2
*D19
   0
BLOCK_RECORD
   5
55
 100
AcDbSymbolTableRecord
 100
AcDbBlockTableRecord
   2
*D21
   0
BLOCK_RECORD
   5
56
 100
AcDbSymbolTableRecord
 100
AcDbBlockTableRecord
   2
_ARCHTICK
   0
BLOCK_RECORD
   5
57
 100
AcDbSymbolTableRecord
 100
AcDbBlockTableRecord
   2
_BOXBLANK
   0
BLOCK_RECORD
   5
58
 100
AcDbSymbolTableRecord
 100
AcDbBlockTableRecord
   2
_BOXFILLED
   0
BLOCK_RECORD
   5
59
 100
AcDbSymbolTableRecord
 100
AcDbBlockTableRecord
   2
_CLOSED
   0
BLOCK_RECORD
   5
5A
 100
AcDbSymbolTableRecord
 100
AcDbBlockTableRecord
   2
_CLOSEDBLANK
   0
BLOCK_RECORD
   5
5B
 100
AcDbSymbolTableRecord
 100
AcDbBlockTableRecord
   2
_DATUMBLANK
   0
BLOCK_RECORD
   5
5C
 100
AcDbSymbolTableRecord
 100
AcDbBlockTableRecord
   2
_DATUMFILLED
   0
BLOCK_RECORD
   5
5D
 100
AcDbSymbolTableRecord
 100
AcDbBlockTableRecord
   2
_DOT
   0
BLOCK_RECORD
   5
5E
 100
AcDbSymbolTableRecord
 100
AcDbBlockTableRecord
   2
_DOTBLANK
   0
BLOCK_RECORD
   5
5F
 100
AcDbSymbolTableRecord
 100
AcDbBlockTableRecord
   2
_DOTSMALL
   0
BLOCK_RECORD
   5
60
 100
AcDbSymbolTableRecord
 100
AcDbBlockTableRecord
   2
_INTEGRAL
   0
BLOCK_RECORD
   5
61
 100
AcDbSymbolTableRecord
 100
AcDbBlockTableRecord
   2
_NONE
   0
BLOCK_RECORD
   5
62
 100
AcDbSymbolTableRecord
 100
AcDbBlockTableRecord
   2
_OBLIQUE
   0
BLOCK_RECORD
   5
63
 100
AcDbSymbolTableRecord
 100
AcDbBlockTableRecord
   2
_OPEN
   0
BLOCK_RECORD
   5
64
 100
AcDbSymbolTableRecord
 100
AcDbBlockTableRecord
   2
_OPEN30
   0
BLOCK_RECORD
   5
65
 100
AcDbSymbolTableRecord
 100
AcDbBlockTableRecord
   2
_OPEN90
   0
BLOCK_RECORD
   5
66
 100
AcDbSymbolTableRecord
 100
AcDbBlockTableRecord
   2
_ORIGIN
   0
ENDTAB
   0
ENDSEC
  0
SECTION
  2
BLOCKS
  0
BLOCK
  5
19
100
AcDbEntity
  8
0
100
AcDbBlockBegin
  2
*MODEL_SPACE
 70
     0
 10
0.0
 20
0.0
 30
0.0
  3
*MODEL_SPACE
  1

  0
ENDBLK
  5
1A
100
AcDbEntity
  8
0
100
AcDbBlockEnd
  0
BLOCK
  5
16
100
AcDbEntity
 67
     1
  8
0
100
AcDbBlockBegin
  2
*PAPER_SPACE
 70
     0
 10
0.0
 20
0.0
 30
0.0
  3
*PAPER_SPACE
  1

  0
ENDBLK
  5
17
100
AcDbEntity
 67
     1
  8
0
100
AcDbBlockEnd
   0
BLOCK
   5
67
 100
AcDbEntity
   8
0
 100
AcDbBlockBegin
   2
_ARCHTICK
  70
0
  10
0.0
  20
0.0
  30
0.0
   3
_ARCHTICK
   0
POLYLINE
   5
68
 100
AcDbEntity
   8
0
 370
-2
   6
BYBLOCK
  62
0
 100
AcDb2dPolyline
  66
1
  10
0.0
  20
0.0
  30
0.0
  70
1
  40
 0.15000000000000
  41
 0.15000000000000
   0
VERTEX
   5
69
 100
AcDbEntity
   8
0
   6
BYBLOCK
  62
0
 100
AcDbVertex
 100
AcDb2dVertex
  10
-0.50000000000000
  20
-0.50000000000000
  30
0.0
  40
 0.15000000000000
  41
 0.15000000000000
   0
VERTEX
   5
6A
 100
AcDbEntity
   8
0
   6
BYBLOCK
  62
0
 100
AcDbVertex
 100
AcDb2dVertex
  10
 0.50000000000000
  20
 0.50000000000000
  30
0.0
  40
 0.15000000000000
  41
 0.15000000000000
   0
SEQEND
   5
6B
 100
AcDbEntity
   8
0
   6
BYBLOCK
  62
0
   0
ENDBLK
   5
6C
 100
AcDbEntity
   8
0
 100
AcDbBlockEnd
   0
BLOCK
   5
6D
 100
AcDbEntity
   8
0
 100
AcDbBlockBegin
   2
_OBLIQUE
  70
0
  10
0.0
  20
0.0
  30
0.0
   3
_OBLIQUE
   0
LINE
   5
6E
 100
AcDbEntity
   8
0
 370
-2
 100
AcDbLine
   6
BYBLOCK
  62
0
  10
-0.50000000000000
  20
-0.50000000000000
  30
0.0
  11
 0.50000000000000
  21
 0.50000000000000
  31
0.0
   0
ENDBLK
   5
6F
 100
AcDbEntity
   8
0
 100
AcDbBlockEnd
   0
BLOCK
   5
70
 100
AcDbEntity
   8
0
 100
AcDbBlockBegin
   2
_BOXBLANK
  70
0
  10
0.0
  20
0.0
  30
0.0
   3
_BOXBLANK
   0
LINE
   5
71
 100
AcDbEntity
   8
0
 370
-2
 100
AcDbLine
   6
BYBLOCK
  62
0
  10
-0.50000000000000
  20
-0.50000000000000
  30
0.0
  11
 0.50000000000000
  21
-0.50000000000000
  31
0.0
   0
LINE
   5
72
 100
AcDbEntity
   8
0
 370
-2
 100
AcDbLine
   6
BYBLOCK
  62
0
  10
 0.50000000000000
  20
-0.50000000000000
  30
0.0
  11
 0.50000000000000
  21
 0.50000000000000
  31
0.0
   0
LINE
   5
73
 100
AcDbEntity
   8
0
 370
-2
 100
AcDbLine
   6
BYBLOCK
  62
0
  10
 0.50000000000000
  20
 0.50000000000000
  30
0.0
  11
-0.50000000000000
  21
 0.50000000000000
  31
0.0
   0
LINE
   5
74
 100
AcDbEntity
   8
0
 370
-2
 100
AcDbLine
   6
BYBLOCK
  62
0
  10
-0.50000000000000
  20
 0.50000000000000
  30
0.0
  11
-0.50000000000000
  21
-0.50000000000000
  31
0.0
   0
LINE
   5
75
 100
AcDbEntity
   8
0
 370
-2
 100
AcDbLine
   6
BYBLOCK
  62
0
  10
-0.50000000000000
  20
0.0
  30
0.0
  11
-1.0000000000000
  21
0.0
  31
0.0
   0
ENDBLK
   5
76
 100
AcDbEntity
   8
0
 100
AcDbBlockEnd
   0
BLOCK
   5
77
 100
AcDbEntity
   8
0
 100
AcDbBlockBegin
   2
_BOXFILLED
  70
0
  10
0.0
  20
0.0
  30
0.0
   3
_BOXFILLED
   0
SOLID
   5
78
 100
AcDbEntity
   8
0
 100
AcDbTrace
   6
BYBLOCK
  62
0
  10
-0.50000000000000
  20
 0.50000000000000
  30
0.0
  11
 0.50000000000000
  21
 0.50000000000000
  31
0.0
  12
-0.50000000000000
  22
-0.50000000000000
  32
0.0
  13
 0.50000000000000
  23
-0.50000000000000
  33
0.0
   0
LINE
   5
79
 100
AcDbEntity
   8
0
 370
-2
 100
AcDbLine
   6
BYBLOCK
  62
0
  10
-0.50000000000000
  20
0.0
  30
0.0
  11
-1.0000000000000
  21
0.0
  31
0.0
   0
ENDBLK
   5
7A
 100
AcDbEntity
   8
0
 100
AcDbBlockEnd
   0
BLOCK
   5
7B
 100
AcDbEntity
   8
0
 100
AcDbBlockBegin
   2
_CLOSED
  70
0
  10
0.0
  20
0.0
  30
0.0
   3
_CLOSED
   0
LINE
   5
7C
 100
AcDbEntity
   8
0
 370
-2
 100
AcDbLine
   6
BYBLOCK
  62
0
  10
-1.0000000000000
  20
 0.16666666666667
  30
0.0
  11
0.0
  21
0.0
  31
0.0
   0
LINE
   5
7D
 100
AcDbEntity
   8
0
 370
-2
 100
AcDbLine
   6
BYBLOCK
  62
0
  10
0.0
  20
0.0
  30
0.0
  11
-1.0000000000000
  21
-0.16666666666667
  31
0.0
   0
LINE
   5
7E
 100
AcDbEntity
   8
0
 370
-2
 100
AcDbLine
   6
BYBLOCK
  62
0
  10
-1.0000000000000
  20
 0.16666666666667
  30
0.0
  11
-1.0000000000000
  21
-0.16666666666667
  31
0.0
   0
LINE
   5
7F
 100
AcDbEntity
   8
0
 370
-2
 100
AcDbLine
   6
BYBLOCK
  62
0
  10
0.0
  20
0.0
  30
0.0
  11
-1.0000000000000
  21
0.0
  31
0.0
   0
ENDBLK
   5
80
 100
AcDbEntity
   8
0
 100
AcDbBlockEnd
   0
BLOCK
   5
81
 100
AcDbEntity
   8
0
 100
AcDbBlockBegin
   2
_OPEN
  70
0
  10
0.0
  20
0.0
  30
0.0
   3
_OPEN
   0
LINE
   5
82
 100
AcDbEntity
   8
0
 370
-2
 100
AcDbLine
   6
BYBLOCK
  62
0
  10
-1.0000000000000
  20
 0.16666666666667
  30
0.0
  11
0.0
  21
0.0
  31
0.0
   0
LINE
   5
83
 100
AcDbEntity
   8
0
 370
-2
 100
AcDbLine
   6
BYBLOCK
  62
0
  10
0.0
  20
0.0
  30
0.0
  11
-1.0000000000000
  21
-0.16666666666667
  31
0.0
   0
LINE
   5
84
 100
AcDbEntity
   8
0
 370
-2
 100
AcDbLine
   6
BYBLOCK
  62
0
  10
0.0
  20
0.0
  30
0.0
  11
-1.0000000000000
  21
0.0
  31
0.0
   0
ENDBLK
   5
85
 100
AcDbEntity
   8
0
 100
AcDbBlockEnd
   0
BLOCK
   5
86
 100
AcDbEntity
   8
0
 100
AcDbBlockBegin
   2
_OPEN30
  70
0
  10
0.0
  20
0.0
  30
0.0
   3
_OPEN30
   0
LINE
   5
87
 100
AcDbEntity
   8
0
 370
-2
 100
AcDbLine
   6
BYBLOCK
  62
0
  10
-1.0000000000000
  20
 0.26794919243110
  30
0.0
  11
0.0
  21
0.0
  31
0.0
   0
LINE
   5
88
 100
AcDbEntity
   8
0
 370
-2
 100
AcDbLine
   6
BYBLOCK
  62
0
  10
0.0
  20
0.0
  30
0.0
  11
-1.0000000000000
  21
-0.26794919243110
  31
0.0
   0
LINE
   5
89
 100
AcDbEntity
   8
0
 370
-2
 100
AcDbLine
   6
BYBLOCK
  62
0
  10
0.0
  20
0.0
  30
0.0
  11
-1.0000000000000
  21
0.0
  31
0.0
   0
ENDBLK
   5
8A
 100
AcDbEntity
   8
0
 100
AcDbBlockEnd
   0
BLOCK
   5
8B
 100
AcDbEntity
   8
0
 100
AcDbBlockBegin
   2
_OPEN90
  70
0
  10
0.0
  20
0.0
  30
0.0
   3
_OPEN90
   0
LINE
   5
8C
 100
AcDbEntity
   8
0
 370
-2
 100
AcDbLine
   6
BYBLOCK
  62
0
  10
-0.50000000000000
  20
 0.50000000000000
  30
0.0
  11
0.0
  21
0.0
  31
0.0
   0
LINE
   5
8D
 100
AcDbEntity
   8
0
 370
-2
 100
AcDbLine
   6
BYBLOCK
  62
0
  10
0.0
  20
0.0
  30
0.0
  11
-0.50000000000000
  21
-0.50000000000000
  31
0.0
   0
LINE
   5
8E
 100
AcDbEntity
   8
0
 370
-2
 100
AcDbLine
   6
BYBLOCK
  62
0
  10
0.0
  20
0.0
  30
0.0
  11
-1.0000000000000
  21
0.0
  31
0.0
   0
ENDBLK
   5
8F
 100
AcDbEntity
   8
0
 100
AcDbBlockEnd
   0
BLOCK
   5
90
 100
AcDbEntity
   8
0
 100
AcDbBlockBegin
   2
_CLOSEDBLANK
  70
0
  10
0.0
  20
0.0
  30
0.0
   3
_CLOSEDBLANK
   0
LINE
   5
91
 100
AcDbEntity
   8
0
 370
-2
 100
AcDbLine
   6
BYBLOCK
  62
0
  10
-1.0000000000000
  20
 0.16666666666667
  30
0.0
  11
0.0
  21
0.0
  31
0.0
   0
LINE
   5
92
 100
AcDbEntity
   8
0
 370
-2
 100
AcDbLine
   6
BYBLOCK
  62
0
  10
0.0
  20
0.0
  30
0.0
  11
-1.0000000000000
  21
-0.16666666666667
  31
0.0
   0
LINE
   5
93
 100
AcDbEntity
   8
0
 370
-2
 100
AcDbLine
   6
BYBLOCK
  62
0
  10
-1.0000000000000
  20
 0.16666666666667
  30
0.0
  11
-1.0000000000000
  21
-0.16666666666667
  31
0.0
   0
ENDBLK
   5
94
 100
AcDbEntity
   8
0
 100
AcDbBlockEnd
   0
BLOCK
   5
95
 100
AcDbEntity
   8
0
 100
AcDbBlockBegin
   2
_DOT
  70
0
  10
0.0
  20
0.0
  30
0.0
   3
_DOT
   0
POLYLINE
   5
96
 100
AcDbEntity
   8
0
 370
-2
   6
BYBLOCK
  62
0
 100
AcDb2dPolyline
  66
1
  10
0.0
  20
0.0
  30
0.0
  70
1
  40
 0.50000000000000
  41
 0.50000000000000
   0
VERTEX
   5
97
 100
AcDbEntity
   8
0
   6
BYBLOCK
  62
0
 100
AcDbVertex
 100
AcDb2dVertex
  10
-0.25000000000000
  20
0.0
  30
0.0
  42
 1.0000000000000
  40
 0.50000000000000
  41
 0.50000000000000
   0
VERTEX
   5
98
 100
AcDbEntity
   8
0
   6
BYBLOCK
  62
0
 100
AcDbVertex
 100
AcDb2dVertex
  10
 0.25000000000000
  20
0.0
  30
0.0
  42
 1.0000000000000
  40
 0.50000000000000
  41
 0.50000000000000
   0
SEQEND
   5
99
 100
AcDbEntity
   8
0
   6
BYBLOCK
  62
0
   0
LINE
   5
9A
 100
AcDbEntity
   8
0
 370
-2
 100
AcDbLine
   6
BYBLOCK
  62
0
  10
-0.50000000000000
  20
0.0
  30
0.0
  11
-1.0000000000000
  21
0.0
  31
0.0
   0
ENDBLK
   5
9B
 100
AcDbEntity
   8
0
 100
AcDbBlockEnd
   0
BLOCK
   5
9C
 100
AcDbEntity
   8
0
 100
AcDbBlockBegin
   2
_DOTSMALL
  70
0
  10
0.0
  20
0.0
  30
0.0
   3
_DOTSMALL
   0
POLYLINE
   5
9D
 100
AcDbEntity
   8
0
 370
-2
   6
BYBLOCK
  62
0
 100
AcDb2dPolyline
  66
1
  10
0.0
  20
0.0
  30
0.0
  70
1
  40
 0.50000000000000
  41
 0.50000000000000
   0
VERTEX
   5
9E
 100
AcDbEntity
   8
0
   6
BYBLOCK
  62
0
 100
AcDbVertex
 100
AcDb2dVertex
  10
-0.62500000000000E-1
  20
0.0
  30
0.0
  42
 1.0000000000000
  40
 0.50000000000000
  41
 0.50000000000000
   0
VERTEX
   5
9F
 100
AcDbEntity
   8
0
   6
BYBLOCK
  62
0
 100
AcDbVertex
 100
AcDb2dVertex
  10
 0.62500000000000E-1
  20
0.0
  30
0.0
  42
 1.0000000000000
  40
 0.50000000000000
  41
 0.50000000000000
   0
SEQEND
   5
A0
 100
AcDbEntity
   8
0
   6
BYBLOCK
  62
0
   0
ENDBLK
   5
A1
 100
AcDbEntity
   8
0
 100
AcDbBlockEnd
   0
BLOCK
   5
A2
 100
AcDbEntity
   8
0
 100
AcDbBlockBegin
   2
_DATUMBLANK
  70
0
  10
0.0
  20
0.0
  30
0.0
   3
_DATUMBLANK
   0
LINE
   5
A3
 100
AcDbEntity
   8
0
 370
-2
 100
AcDbLine
   6
BYBLOCK
  62
0
  10
0.0
  20
 0.57735027000000
  30
0.0
  11
-1.0000000000000
  21
0.0
  31
0.0
   0
LINE
   5
A4
 100
AcDbEntity
   8
0
 370
-2
 100
AcDbLine
   6
BYBLOCK
  62
0
  10
-1.0000000000000
  20
0.0
  30
0.0
  11
0.0
  21
-0.57735027000000
  31
0.0
   0
LINE
   5
A5
 100
AcDbEntity
   8
0
 370
-2
 100
AcDbLine
   6
BYBLOCK
  62
0
  10
0.0
  20
-0.57735027000000
  30
0.0
  11
0.0
  21
 0.57735027000000
  31
0.0
   0
ENDBLK
   5
A6
 100
AcDbEntity
   8
0
 100
AcDbBlockEnd
   0
BLOCK
   5
A7
 100
AcDbEntity
   8
0
 100
AcDbBlockBegin
   2
_DATUMFILLED
  70
0
  10
0.0
  20
0.0
  30
0.0
   3
_DATUMFILLED
   0
SOLID
   5
A8
 100
AcDbEntity
   8
0
 100
AcDbTrace
   6
BYBLOCK
  62
0
  10
0.0
  20
 0.57735027000000
  30
0.0
  11
-1.0000000000000
  21
0.0
  31
0.0
  12
0.0
  22
-0.57735027000000
  32
0.0
  13
0.0
  23
-0.57735027000000
  33
0.0
   0
ENDBLK
   5
A9
 100
AcDbEntity
   8
0
 100
AcDbBlockEnd
   0
BLOCK
   5
AA
 100
AcDbEntity
   8
0
 100
AcDbBlockBegin
   2
_ORIGIN
  70
0
  10
0.0
  20
0.0
  30
0.0
   3
_ORIGIN
   0
CIRCLE
   5
AB
 100
AcDbEntity
   8
0
 370
-2
 100
AcDbCircle
   6
BYBLOCK
  62
0
  10
0.0
  20
0.0
  30
0.0
  40
 0.50000000000000
   0
LINE
   5
AC
 100
AcDbEntity
   8
0
 370
-2
 100
AcDbLine
   6
BYBLOCK
  62
0
  10
0.0
  20
0.0
  30
0.0
  11
-1.0000000000000
  21
0.0
  31
0.0
   0
ENDBLK
   5
AD
 100
AcDbEntity
   8
0
 100
AcDbBlockEnd
   0
BLOCK
   5
AE
 100
AcDbEntity
   8
0
 100
AcDbBlockBegin
   2
_NONE
  70
0
  10
0.0
  20
0.0
  30
0.0
   3
_NONE
   0
CIRCLE
   5
AF
 100
AcDbEntity
   8
0
 370
-2
 100
AcDbCircle
   6
BYBLOCK
  62
0
  10
0.0
  20
0.0
  30
0.0
  40
 0.25000000000000
   0
ENDBLK
   5
B0
 100
AcDbEntity
   8
0
 100
AcDbBlockEnd
   0
BLOCK
   5
B1
 100
AcDbEntity
   8
0
 100
AcDbBlockBegin
   2
_DOTBLANK
  70
0
  10
0.0
  20
0.0
  30
0.0
   3
_DOTBLANK
   0
CIRCLE
   5
B2
 100
AcDbEntity
   8
0
 370
-2
 100
AcDbCircle
   6
BYBLOCK
  62
0
  10
0.0
  20
0.0
  30
0.0
  40
 0.50000000000000
   0
LINE
   5
B3
 100
AcDbEntity
   8
0
 370
-2
 100
AcDbLine
   6
BYBLOCK
  62
0
  10
-0.50000000000000
  20
0.0
  30
0.0
  11
-1.0000000000000
  21
0.0
  31
0.0
   0
ENDBLK
   5
B4
 100
AcDbEntity
   8
0
 100
AcDbBlockEnd
   0
BLOCK
   5
B5
 100
AcDbEntity
   8
0
 100
AcDbBlockBegin
   2
_INTEGRAL
  70
0
  10
0.0
  20
0.0
  30
0.0
   3
_INTEGRAL
   0
ARC
   5
B6
 100
AcDbEntity
   8
0
 370
-2
   6
BYBLOCK
  62
0
 100
AcDbCircle
  10
 0.44488800000000
  20
-0.91335000000000E-1
  30
0.0
  40
 0.45416700000000
 100
AcDbArc
  50
 102.00000000000
  51
 168.00000000000
   0
ARC
   5
B7
 100
AcDbEntity
   8
0
 370
-2
   6
BYBLOCK
  62
0
 100
AcDbCircle
  10
-0.44488800000000
  20
 0.91335000000000E-1
  30
0.0
  40
 0.45416700000000
 100
AcDbArc
  50
 282.00000000000
  51
 348.00000000000
   0
ENDBLK
   5
B8
 100
AcDbEntity
   8
0
 100
AcDbBlockEnd
   0
BLOCK
   5
B9
 100
AcDbEntity
   8
0
 100
AcDbBlockBegin
   2
*D1
  70
65
  10
0.0
  20
0.0
  30
0.0
   3
*D1
   0
LINE
   5
BA
 100
AcDbEntity
   8
LEVEL001
 370
13
 100
AcDbLine
   6
CONTINUOUS
  62
6
  10
 1628.1536542841
  20
 4707.5755309759
  30
0.0
  11
 1108.5384120134
  21
 4407.5755309759
  31
0.0
   0
INSERT
   5
BB
 100
AcDbEntity
   8
LEVEL001
   6
CONTINUOUS
  62
6
 100
AcDbBlockReference
   2
_OPEN
  10
 1628.1536542841
  20
 4707.5755309759
  30
0.0
  41
 30.000000000000
  42
 30.000000000000
  43
 30.000000000000
  50
 30.000000000004
   0
INSERT
   5
BC
 100
AcDbEntity
   8
LEVEL001
   6
CONTINUOUS
  62
6
 100
AcDbBlockReference
   2
_OPEN
  10
 1108.5384120134
  20
 4407.5755309759
  30
0.0
  41
 30.000000000000
  42
 30.000000000000
  43
 30.000000000000
  50
 210.00000000000
   0
MTEXT
   5
BD
 100
AcDbEntity
   8
LEVEL001
 370
13
  62
1
 100
AcDbMText
  10
 1354.2031760059
  20
 4582.0716781115
  30
0.0
  40
 66.000000000000
  41
0.0
  71
8
  72
1
   1
\A1;%%c600
   7
GMM002
  11
 0.86602540378441
  21
 0.50000000000006
  31
0.0
   0
ENDBLK
   5
BE
 100
AcDbEntity
   8
0
 100
AcDbBlockEnd
   0
BLOCK
   5
BF
 100
AcDbEntity
   8
0
 100
AcDbBlockBegin
   2
*D11
  70
65
  10
0.0
  20
0.0
  30
0.0
   3
*D11
   0
LINE
   5
C0
 100
AcDbEntity
   8
LEVEL001
 370
13
 100
AcDbLine
   6
CONTINUOUS
  62
6
  10
 1088.3464427374
  20
 857.57553097679
  30
0.0
  11
 588.34603314875
  21
 857.57553097679
  31
0.0
   0
LINE
   5
C1
 100
AcDbEntity
   8
LEVEL001
 370
13
 100
AcDbLine
   6
CONTINUOUS
  62
6
  10
 1088.3464427374
  20
 957.57553097679
  30
0.0
  11
 588.34603314875
  21
 957.57553097679
  31
0.0
   0
LINE
   5
C2
 100
AcDbEntity
   8
LEVEL001
 370
13
 100
AcDbLine
   6
CONTINUOUS
  62
6
  10
 618.34603314875
  20
 857.57553097679
  30
0.0
  11
 618.34603314875
  21
 957.57553097679
  31
0.0
   0
INSERT
   5
C3
 100
AcDbEntity
   8
LEVEL001
   6
CONTINUOUS
  62
6
 100
AcDbBlockReference
   2
_OPEN
  10
 618.34603314875
  20
 857.57553097679
  30
0.0
  41
 30.000000000000
  42
 30.000000000000
  43
 30.000000000000
  50
 270.00000000000
   0
INSERT
   5
C4
 100
AcDbEntity
   8
LEVEL001
   6
CONTINUOUS
  62
6
 100
AcDbBlockReference
   2
_OPEN
  10
 618.34603314875
  20
 957.57553097679
  30
0.0
  41
 30.000000000000
  42
 30.000000000000
  43
 30.000000000000
  50
 90.000000000000
   0
MTEXT
   5
C5
 100
AcDbEntity
   8
LEVEL001
 370
13
  62
1
 100
AcDbMText
  10
 590.06031886304
  20
 907.57553097679
  30
0.0
  40
 66.000000000000
  41
0.0
  71
8
  72
1
   1
\A1;100
   7
GMM002
  11
0.0
  21
 1.0000000000000
  31
0.0
   0
ENDBLK
   5
C6
 100
AcDbEntity
   8
0
 100
AcDbBlockEnd
   0
BLOCK
   5
C7
 100
AcDbEntity
   8
0
 100
AcDbBlockBegin
   2
*D12
  70
65
  10
0.0
  20
0.0
  30
0.0
   3
*D12
   0
LINE
   5
C8
 100
AcDbEntity
   8
LEVEL001
 370
13
 100
AcDbLine
   6
CONTINUOUS
  62
6
  10
 1088.3464427374
  20
 957.57553097679
  30
0.0
  11
 588.34603314875
  21
 957.57553097679
  31
0.0
   0
LINE
   5
C9
 100
AcDbEntity
   8
LEVEL001
 370
13
 100
AcDbLine
   6
CONTINUOUS
  62
6
  10
 788.34650797231
  20
 1757.5755309768
  30
0.0
  11
 588.34603314875
  21
 1757.5755309768
  31
0.0
   0
LINE
   5
CA
 100
AcDbEntity
   8
LEVEL001
 370
13
 100
AcDbLine
   6
CONTINUOUS
  62
6
  10
 618.34603314875
  20
 957.57553097679
  30
0.0
  11
 618.34603314875
  21
 1757.5755309768
  31
0.0
   0
INSERT
   5
CB
 100
AcDbEntity
   8
LEVEL001
   6
CONTINUOUS
  62
6
 100
AcDbBlockReference
   2
_OPEN
  10
 618.34603314875
  20
 957.57553097679
  30
0.0
  41
 30.000000000000
  42
 30.000000000000
  43
 30.000000000000
  50
 270.00000000000
   0
INSERT
   5
CC
 100
AcDbEntity
   8
LEVEL001
   6
CONTINUOUS
  62
6
 100
AcDbBlockReference
   2
_OPEN
  10
 618.34603314875
  20
 1757.5755309768
  30
0.0
  41
 30.000000000000
  42
 30.000000000000
  43
 30.000000000000
  50
 90.000000000000
   0
MTEXT
   5
CD
 100
AcDbEntity
   8
LEVEL001
 370
13
  62
1
 100
AcDbMText
  10
 590.06031886304
  20
 1357.5755309768
  30
0.0
  40
 66.000000000000
  41
0.0
  71
8
  72
1
   1
\A1;800
   7
GMM002
  11
0.0
  21
 1.0000000000000
  31
0.0
   0
ENDBLK
   5
CE
 100
AcDbEntity
   8
0
 100
AcDbBlockEnd
   0
BLOCK
   5
CF
 100
AcDbEntity
   8
0
 100
AcDbBlockBegin
   2
*D13
  70
65
  10
0.0
  20
0.0
  30
0.0
   3
*D13
   0
LINE
   5
D0
 100
AcDbEntity
   8
LEVEL001
 370
13
 100
AcDbLine
   6
CONTINUOUS
  62
6
  10
 788.34650797231
  20
 1757.5755309768
  30
0.0
  11
 588.34603314875
  21
 1757.5755309768
  31
0.0
   0
LINE
   5
D1
 100
AcDbEntity
   8
LEVEL001
 370
13
 100
AcDbLine
   6
CONTINUOUS
  62
6
  10
 1338.3460331487
  20
 4257.5755309768
  30
0.0
  11
 588.34603314875
  21
 4257.5755309768
  31
0.0
   0
LINE
   5
D2
 100
AcDbEntity
   8
LEVEL001
 370
13
 100
AcDbLine
   6
CONTINUOUS
  62
6
  10
 618.34603314875
  20
 1757.5755309768
  30
0.0
  11
 618.34603314875
  21
 4257.5755309768
  31
0.0
   0
INSERT
   5
D3
 100
AcDbEntity
   8
LEVEL001
   6
CONTINUOUS
  62
6
 100
AcDbBlockReference
   2
_OPEN
  10
 618.34603314875
  20
 1757.5755309768
  30
0.0
  41
 30.000000000000
  42
 30.000000000000
  43
 30.000000000000
  50
 270.00000000000
   0
INSERT
   5
D4
 100
AcDbEntity
   8
LEVEL001
   6
CONTINUOUS
  62
6
 100
AcDbBlockReference
   2
_OPEN
  10
 618.34603314875
  20
 4257.5755309768
  30
0.0
  41
 30.000000000000
  42
 30.000000000000
  43
 30.000000000000
  50
 90.000000000000
   0
MTEXT
   5
D5
 100
AcDbEntity
   8
LEVEL001
 370
13
  62
1
 100
AcDbMText
  10
 590.06031886304
  20
 3007.5755309768
  30
0.0
  40
 66.000000000000
  41
0.0
  71
8
  72
1
   1
\A1;2500(標準設置高さ)
   7
GMM002
  11
0.0
  21
 1.0000000000000
  31
0.0
   0
ENDBLK
   5
D6
 100
AcDbEntity
   8
0
 100
AcDbBlockEnd
   0
BLOCK
   5
D7
 100
AcDbEntity
   8
0
 100
AcDbBlockBegin
   2
*D18
  70
65
  10
0.0
  20
0.0
  30
0.0
   3
*D18
   0
LINE
   5
D8
 100
AcDbEntity
   8
LEVEL001
 370
13
 100
AcDbLine
   6
CONTINUOUS
  62
6
  10
 1118.3464427374
  20
 827.57553097679
  30
0.0
  11
 1118.3464427374
  21
 527.57553097679
  31
0.0
   0
LINE
   5
D9
 100
AcDbEntity
   8
LEVEL001
 370
13
 100
AcDbLine
   6
CONTINUOUS
  62
6
  10
 1618.3464427374
  20
 827.57553097679
  30
0.0
  11
 1618.3464427374
  21
 527.57553097679
  31
0.0
   0
LINE
   5
DA
 100
AcDbEntity
   8
LEVEL001
 370
13
 100
AcDbLine
   6
CONTINUOUS
  62
6
  10
 1118.3464427374
  20
 557.57553097679
  30
0.0
  11
 1618.3464427374
  21
 557.57553097679
  31
0.0
   0
INSERT
   5
DB
 100
AcDbEntity
   8
LEVEL001
   6
CONTINUOUS
  62
6
 100
AcDbBlockReference
   2
_OPEN
  10
 1118.3464427374
  20
 557.57553097679
  30
0.0
  41
 30.000000000000
  42
 30.000000000000
  43
 30.000000000000
  50
 180.00000000000
   0
INSERT
   5
DC
 100
AcDbEntity
   8
LEVEL001
   6
CONTINUOUS
  62
6
 100
AcDbBlockReference
   2
_OPEN
  10
 1618.3464427374
  20
 557.57553097679
  30
0.0
  41
 30.000000000000
  42
 30.000000000000
  43
 30.000000000000
  50
0.0
   0
MTEXT
   5
DD
 100
AcDbEntity
   8
LEVEL001
 370
13
  62
1
 100
AcDbMText
  10
 1368.3464427374
  20
 585.86124526250
  30
0.0
  40
 66.000000000000
  41
0.0
  71
8
  72
1
   1
\A1;□500
   7
GMM002
   0
ENDBLK
   5
DE
 100
AcDbEntity
   8
0
 100
AcDbBlockEnd
   0
BLOCK
   5
DF
 100
AcDbEntity
   8
0
 100
AcDbBlockBegin
   2
*D19
  70
65
  10
0.0
  20
0.0
  30
0.0
   3
*D19
   0
LINE
   5
E0
 100
AcDbEntity
   8
LEVEL001
 370
13
 100
AcDbLine
   6
CONTINUOUS
  62
6
  10
 2268.3460331488
  20
 827.57553097679
  30
0.0
  11
 2268.3460331488
  21
 527.57553097679
  31
0.0
   0
LINE
   5
E1
 100
AcDbEntity
   8
LEVEL001
 370
13
 100
AcDbLine
   6
CONTINUOUS
  62
6
  10
 2768.3460331488
  20
 827.57553097679
  30
0.0
  11
 2768.3460331488
  21
 527.57553097679
  31
0.0
   0
LINE
   5
E2
 100
AcDbEntity
   8
LEVEL001
 370
13
 100
AcDbLine
   6
CONTINUOUS
  62
6
  10
 2268.3460331488
  20
 557.57553097679
  30
0.0
  11
 2768.3460331488
  21
 557.57553097679
  31
0.0
   0
INSERT
   5
E3
 100
AcDbEntity
   8
LEVEL001
   6
CONTINUOUS
  62
6
 100
AcDbBlockReference
   2
_OPEN
  10
 2268.3460331488
  20
 557.57553097679
  30
0.0
  41
 30.000000000000
  42
 30.000000000000
  43
 30.000000000000
  50
 180.00000000000
   0
INSERT
   5
E4
 100
AcDbEntity
   8
LEVEL001
   6
CONTINUOUS
  62
6
 100
AcDbBlockReference
   2
_OPEN
  10
 2768.3460331488
  20
 557.57553097679
  30
0.0
  41
 30.000000000000
  42
 30.000000000000
  43
 30.000000000000
  50
0.0
   0
MTEXT
   5
E5
 100
AcDbEntity
   8
LEVEL001
 370
13
  62
1
 100
AcDbMText
  10
 2518.3460331488
  20
 585.86124526250
  30
0.0
  40
 66.000000000000
  41
0.0
  71
8
  72
1
   1
\A1;□500
   7
GMM002
   0
ENDBLK
   5
E6
 100
AcDbEntity
   8
0
 100
AcDbBlockEnd
   0
BLOCK
   5
E7
 100
AcDbEntity
   8
0
 100
AcDbBlockBegin
   2
*D21
  70
65
  10
0.0
  20
0.0
  30
0.0
   3
*D21
   0
LINE
   5
E8
 100
AcDbEntity
   8
LEVEL001
 370
13
 100
AcDbLine
   6
CONTINUOUS
  62
6
  10
 2518.3460331488
  20
 1636.6483680773
  30
0.0
  11
 2518.3460331488
  21
 2687.5755309768
  31
0.0
   0
LINE
   5
E9
 100
AcDbEntity
   8
LEVEL001
 370
13
 100
AcDbLine
   6
CONTINUOUS
  62
6
  10
 2868.3460331488
  20
 2657.5755309768
  30
0.0
  11
 2868.3460331488
  21
 2657.5755309768
  31
0.0
   0
LINE
   5
EA
 100
AcDbEntity
   8
LEVEL001
 370
13
 100
AcDbLine
   6
CONTINUOUS
  62
6
  10
 2518.3460331488
  20
 2657.5755309768
  30
0.0
  11
 2868.3460331488
  21
 2657.5755309768
  31
0.0
   0
INSERT
   5
EB
 100
AcDbEntity
   8
LEVEL001
   6
CONTINUOUS
  62
6
 100
AcDbBlockReference
   2
_OPEN30
  10
 2518.3460331488
  20
 2657.5755309768
  30
0.0
  41
 30.000000000000
  42
 30.000000000000
  43
 30.000000000000
  50
 180.00000000000
   0
INSERT
   5
EC
 100
AcDbEntity
   8
LEVEL001
   6
CONTINUOUS
  62
6
 100
AcDbBlockReference
   2
_OPEN30
  10
 2868.3460331488
  20
 2657.5755309768
  30
0.0
  41
 30.000000000000
  42
 30.000000000000
  43
 30.000000000000
  50
0.0
   0
MTEXT
   5
ED
 100
AcDbEntity
   8
LEVEL001
 370
13
  62
1
 100
AcDbMText
  10
 2693.3460331488
  20
 2685.8612452625
  30
0.0
  40
 66.000000000000
  41
0.0
  71
8
  72
1
   1
\A1;350
   7
GMM002
   0
ENDBLK
   5
EE
 100
AcDbEntity
   8
0
 100
AcDbBlockEnd
   0
ENDSEC
   0
SECTION
   2
ENTITIES
   0
LWPOLYLINE
   5
EF
 100
AcDbEntity
   8
LEVEL001
 370
13
   6
CONTINUOUS
  62
7
 100
AcDbPolyline
  90
4
  70
1
  10
 308.34603314875
  20
 157.57553097592
  10
 308.34603314875
  20
 5757.5755309759
  10
 8095.0129032659
  20
 5757.5755309759
  10
 8095.0129032659
  20
 157.57553097592
   0
LINE
   5
F0
 100
AcDbEntity
   8
LEVEL001
 370
13
 100
AcDbLine
   6
CONTINUOUS
  62
1
  10
 5579.2551240578
  20
 637.57553097592
  30
0.0
  11
 7219.2551240578
  21
 637.57553097592
  31
0.0
   0
MTEXT
   5
F2
 100
AcDbEntity
   8
LEVEL001
 370
13
  62
1
 100
AcDbMText
  10
 1368.3460331488
  20
 5507.5755309759
  30
0.0
  40
 80.000000000000
  41
0.0
  71
5
  72
1
   1
\T1.000000;正　面　図
   7
GMM001
  44
 0.79999984000003
   0
MTEXT
   5
F4
 100
AcDbEntity
   8
LEVEL001
 370
13
  62
1
 100
AcDbMText
  10
 2868.3460331488
  20
 5507.5755309759
  30
0.0
  40
 80.000000000000
  41
0.0
  71
5
  72
1
   1
\T1.000000;側　面　図
   7
GMM001
  44
 0.79999984000003
   0
MTEXT
   5
F6
 100
AcDbEntity
   8
LEVEL001
 370
13
  62
1
 100
AcDbMText
  10
 4118.3460331488
  20
 5507.5755309759
  30
0.0
  40
 80.000000000000
  41
0.0
  71
5
  72
1
   1
\T1.000000;背　面　図
   7
GMM001
  44
 0.79999984000003
   0
CIRCLE
   5
F7
 100
AcDbEntity
   8
LEVEL001
 370
13
 100
AcDbCircle
   6
CONTINUOUS
  62
1
  10
 2993.3460331488
  20
 4882.5755309768
  30
0.0
  40
 69.999997913838
   0
MTEXT
   5
F9
 100
AcDbEntity
   8
LEVEL001
 370
13
  62
7
 100
AcDbMText
  10
 2993.3460331488
  20
 4882.5755309768
  30
0.0
  40
 66.000000000000
  41
0.0
  71
5
  72
1
   1
\T1.000000;１２
   7
GMM002
  44
 0.79999984000003
   0
CIRCLE
   5
FA
 100
AcDbEntity
   8
LEVEL001
 370
13
 100
AcDbCircle
   6
CONTINUOUS
  62
1
  10
 2868.3460331488
  20
 5070.0755309768
  30
0.0
  40
 69.999997913838
   0
CIRCLE
   5
FB
 100
AcDbEntity
   8
LEVEL001
 370
13
 100
AcDbCircle
   6
CONTINUOUS
  62
1
  10
 3008.3460289764
  20
 5070.0755309768
  30
0.0
  40
 69.999997913838
   0
MTEXT
   5
FD
 100
AcDbEntity
   8
LEVEL001
 370
13
  62
7
 100
AcDbMText
  10
 2868.3460331488
  20
 5070.0755309768
  30
0.0
  40
 66.000000000000
  41
0.0
  71
5
  72
1
   1
\T1.000000;６
   7
GMM002
  44
 0.79999984000003
   0
MTEXT
   5
FF
 100
AcDbEntity
   8
LEVEL001
 370
13
  62
7
 100
AcDbMText
  10
 3008.3460289764
  20
 5070.0755309768
  30
0.0
  40
 66.000000000000
  41
0.0
  71
5
  72
1
   1
\T1.000000;８
   7
GMM002
  44
 0.79999984000003
   0
CIRCLE
   5
100
 100
AcDbEntity
   8
LEVEL001
 370
13
 100
AcDbCircle
   6
CONTINUOUS
  62
7
  10
 1368.3460331488
  20
 4557.5755309759
  30
0.0
  40
 300.00000000000
   0
LINE
   5
101
 100
AcDbEntity
   8
LEVEL001
 370
13
 100
AcDbLine
   6
CONTINUOUS
  62
7
  10
 1661.5490344976
  20
 4648.5755309759
  30
0.0
  11
 1654.2113860686
  21
 4648.5755309759
  31
0.0
   0
LINE
   5
102
 100
AcDbEntity
   8
LEVEL001
 370
13
 100
AcDbLine
   6
CONTINUOUS
  62
7
  10
 1075.1430317999
  20
 4648.5755309759
  30
0.0
  11
 1082.4806802289
  21
 4648.5755309759
  31
0.0
   0
ARC
   5
103
 100
AcDbEntity
   8
LEVEL001
 370
13
   6
CONTINUOUS
  62
1
 100
AcDbCircle
  10
 1646.5825237690
  20
 4687.3193373303
  30
0.0
  40
 7.5000000000000
 100
AcDbArc
  50
 294.30011558161
  51
 115.69988441839
   0
ARC
   5
104
 100
AcDbEntity
   8
LEVEL001
 370
13
   6
CONTINUOUS
  62
1
 100
AcDbCircle
  10
 1090.1095425286
  20
 4687.3193373303
  30
0.0
  40
 7.5000000000000
 100
AcDbArc
  50
 64.300115581635
  51
 245.69988441836
   0
ARC
   5
105
 100
AcDbEntity
   8
LEVEL001
 370
13
   6
CONTINUOUS
  62
1
 100
AcDbCircle
  10
 1368.3460331488
  20
 4257.5755309759
  30
0.0
  40
 7.5000000000000
 100
AcDbArc
  50
 179.28378410398
  51
 0.71621589602122
   0
ARC
   5
106
 100
AcDbEntity
   8
LEVEL001
 370
13
   6
CONTINUOUS
  62
1
 100
AcDbCircle
  10
 1473.3462171498
  20
 4846.0611655572
  30
0.0
  40
 7.5000000000000
 100
AcDbArc
  50
 339.30011558096
  51
 160.69988441904
   0
ARC
   5
107
 100
AcDbEntity
   8
LEVEL001
 370
13
   6
CONTINUOUS
  62
1
 100
AcDbCircle
  10
 1263.3458491477
  20
 4846.0611655572
  30
0.0
  40
 7.5000000000000
 100
AcDbArc
  50
 19.300115581357
  51
 200.69988441867
   0
ARC
   5
108
 100
AcDbEntity
   8
LEVEL001
 370
13
   6
CONTINUOUS
  62
1
 100
AcDbCircle
  10
 1113.9316043019
  20
 4398.5997517059
  30
0.0
  40
 7.5000000000000
 100
AcDbArc
  50
 121.28378410396
  51
 302.71621589608
   0
ARC
   5
109
 100
AcDbEntity
   8
LEVEL001
 370
13
   6
CONTINUOUS
  62
1
 100
AcDbCircle
  10
 1622.7604619956
  20
 4398.5997517059
  30
0.0
  40
 7.5000000000000
 100
AcDbArc
  50
 237.28378410392
  51
 58.716215896037
   0
ARC
   5
10A
 100
AcDbEntity
   8
LEVEL001
 370
13
   6
CONTINUOUS
  62
7
 100
AcDbCircle
  10
 1368.3460331488
  20
 4557.5755309759
  30
0.0
  40
 307.00000000000
 100
AcDbArc
  50
 17.242522646568
  51
 162.75747735343
   0
CIRCLE
   5
10B
 100
AcDbEntity
   8
LEVEL001
 370
13
 100
AcDbCircle
   6
CONTINUOUS
  62
2
  10
 1368.3460331488
  20
 4557.5755309759
  30
0.0
  40
 285.00000000000
   0
LINE
   5
10C
 100
AcDbEntity
   8
LEVEL001
 370
13
 100
AcDbLine
   6
DASHDOT
  62
6
  10
 1698.3460331488
  20
 4557.5755309759
  30
0.0
  11
 1038.3460331488
  21
 4557.5755309759
  31
0.0
   0
DIMENSION
   5
10D
 100
AcDbEntity
   8
LEVEL001
 370
13
   6
CONTINUOUS
  62
6
 100
AcDbDimension
   2
*D1
  10
 1628.1536542841
  20
 4707.5755309759
  30
0.0
  11
 1354.2031760059
  21
 4582.0716781115
  31
0.0
  70
3
   3
GMM001
 100
AcDbDiametricDimension
  15
 1108.5384120134
  25
 4407.5755309759
  35
0.0
   0
LINE
   5
10E
 100
AcDbEntity
   8
LEVEL001
 370
13
 100
AcDbLine
   6
DASHDOT
  62
6
  10
 2961.7333768246
  20
 4557.5755309759
  30
0.0
  11
 2596.7858779353
  21
 4557.5755309759
  31
0.0
   0
LWPOLYLINE
   5
10F
 100
AcDbEntity
   8
LEVEL001
 370
13
   6
CONTINUOUS
  62
7
 100
AcDbPolyline
  90
4
  70
1
  10
 2750.9537666781
  20
 4580.5755309759
  10
 2764.9537666781
  20
 4580.5755309759
  10
 2764.9537666781
  20
 4594.5755309759
  10
 2750.9537666781
  20
 4594.5755309759
   0
LWPOLYLINE
   5
110
 100
AcDbEntity
   8
LEVEL001
 370
13
   6
CONTINUOUS
  62
7
 100
AcDbPolyline
  90
4
  70
1
  10
 2750.9537666781
  20
 4520.5755309759
  10
 2764.9537666781
  20
 4520.5755309759
  10
 2764.9537666781
  20
 4534.5755309759
  10
 2750.9537666781
  20
 4534.5755309759
   0
ARC
   5
111
 100
AcDbEntity
   8
LEVEL001
 370
13
   6
CONTINUOUS
  62
7
 100
AcDbCircle
  10
 2800.8951558061
  20
 4553.1609447949
  30
0.0
  40
 8.0000000000000
 100
AcDbArc
  50
 325.00000000000
  51
 145.00000000000
   0
LWPOLYLINE
   5
112
 100
AcDbEntity
   8
LEVEL001
 370
13
   6
CONTINUOUS
  62
7
 100
AcDbPolyline
  90
4
  70
0
  10
 2782.9537666781
  20
 4502.5755309759
  10
 2944.5293881156
  20
 4502.5755309759
  10
 2944.5293881156
  20
 4612.5755309759
  10
 2782.9537666781
  20
 4612.5755309759
   0
ARC
   5
113
 100
AcDbEntity
   8
LEVEL001
 370
13
   6
CONTINUOUS
  62
7
 100
AcDbCircle
  10
 2751.7460331488
  20
 4587.5755309759
  30
0.0
  40
 52.000000000000
 100
AcDbArc
  50
 306.88054979701
  51
 325.00000000001
   0
ARC
   5
114
 100
AcDbEntity
   8
LEVEL001
 370
13
   6
CONTINUOUS
  62
7
 100
AcDbCircle
  10
 2751.7460331488
  20
 4587.5755309759
  30
0.0
  40
 68.000000000000
 100
AcDbArc
  50
 297.31855192773
  51
 325.00000000000
   0
CIRCLE
   5
115
 100
AcDbEntity
   8
LEVEL001
 370
13
 100
AcDbCircle
   6
CONTINUOUS
  62
1
  10
 2684.3451851267
  20
 4687.3193373304
  30
0.0
  40
 7.5000000000000
   0
CIRCLE
   5
116
 100
AcDbEntity
   8
LEVEL001
 370
13
 100
AcDbCircle
   6
CONTINUOUS
  62
1
  10
 2684.3451851267
  20
 4846.0611655572
  30
0.0
  40
 7.5000000000000
   0
ARC
   5
117
 100
AcDbEntity
   8
LEVEL001
 370
13
   6
CONTINUOUS
  62
1
 100
AcDbCircle
  10
 2684.3451851267
  20
 4258.0755309759
  30
0.0
  40
 7.5000000000000
 100
AcDbArc
  50
 180.00000000000
  51
0.0
   0
CIRCLE
   5
118
 100
AcDbEntity
   8
LEVEL001
 370
13
 100
AcDbCircle
   6
CONTINUOUS
  62
1
  10
 2684.3451851267
  20
 4398.5997517059
  30
0.0
  40
 7.5000000000000
   0
LINE
   5
119
 100
AcDbEntity
   8
LEVEL001
 370
13
 100
AcDbLine
   6
CONTINUOUS
  62
1
  10
 2699.7537198906
  20
 4552.5755294154
  30
0.0
  11
 2699.7537240521
  21
 4552.5755309759
  31
0.0
   0
ARC
   5
11A
 100
AcDbEntity
   8
LEVEL001
 370
13
   6
CONTINUOUS
  62
1
 100
AcDbCircle
  10
 2694.9548501426
  20
 4557.5755309759
  30
0.0
  40
 4.7988739094943
 100
AcDbArc
  50
 303.26696871547
  51
 56.733031284531
   0
LINE
   5
11B
 100
AcDbEntity
   8
LEVEL001
 370
13
 100
AcDbLine
   6
CONTINUOUS
  62
1
  10
 2697.5872286596
  20
 4561.5879833610
  30
0.0
  11
 2696.3451851267
  21
 4561.8308793914
  31
0.0
   0
LINE
   5
11C
 100
AcDbEntity
   8
LEVEL001
 370
13
 100
AcDbLine
   6
CONTINUOUS
  62
1
  10
 2697.5872286596
  20
 4553.5630785909
  30
0.0
  11
 2696.3451851267
  21
 4553.3201827305
  31
0.0
   0
LINE
   5
11D
 100
AcDbEntity
   8
LEVEL001
 370
13
 100
AcDbLine
   6
CONTINUOUS
  62
1
  10
 2696.3451851267
  20
 4557.5755309759
  30
0.0
  11
 2697.5872286596
  21
 4557.5755309759
  31
0.0
   0
LWPOLYLINE
   5
11E
 100
AcDbEntity
   8
LEVEL001
 370
13
   6
CONTINUOUS
  62
7
 100
AcDbPolyline
  90
4
  70
0
  10
 2696.3451851267
  20
 4502.5755309759
  10
 2782.9537666781
  20
 4502.5755309759
  10
 2782.9537666781
  20
 4612.5755309759
  10
 2696.3451851267
  20
 4612.5755309759
   0
LINE
   5
11F
 100
AcDbEntity
   8
LEVEL001
 370
13
 100
AcDbLine
   6
CONTINUOUS
  62
6
  10
 2831.7460331488
  20
 4507.5755309759
  30
0.0
  11
 2831.7460331488
  21
 4607.5755309759
  31
0.0
   0
LWPOLYLINE
   5
120
 100
AcDbEntity
   8
LEVEL001
 370
13
   6
CONTINUOUS
  62
7
 100
AcDbPolyline
  90
4
  70
1
  10
 2917.5293881156
  20
 4580.5755309759
  10
 2931.5293881156
  20
 4580.5755309759
  10
 2931.5293881156
  20
 4594.5755309759
  10
 2917.5293881156
  20
 4594.5755309759
   0
LWPOLYLINE
   5
121
 100
AcDbEntity
   8
LEVEL001
 370
13
   6
CONTINUOUS
  62
7
 100
AcDbPolyline
  90
4
  70
1
  10
 2917.5293881156
  20
 4520.5755309759
  10
 2931.5293881156
  20
 4520.5755309759
  10
 2931.5293881156
  20
 4534.5755309759
  10
 2917.5293881156
  20
 4534.5755309759
   0
LINE
   5
122
 100
AcDbEntity
   8
LEVEL001
 370
13
 100
AcDbLine
   6
CONTINUOUS
  62
6
  10
 2904.9573976695
  20
 4607.5755309759
  30
0.0
  11
 2904.9573976695
  21
 4507.5755309759
  31
0.0
   0
CIRCLE
   5
123
 100
AcDbEntity
   8
LEVEL001
 370
13
 100
AcDbCircle
   6
CONTINUOUS
  62
7
  10
 4118.3460331488
  20
 4557.5755309759
  30
0.0
  40
 300.00000000000
   0
LINE
   5
124
 100
AcDbEntity
   8
LEVEL001
 370
13
 100
AcDbLine
   6
CONTINUOUS
  62
7
  10
 3825.1430317999
  20
 4648.5755309759
  30
0.0
  11
 3832.4806802289
  21
 4648.5755309759
  31
0.0
   0
LINE
   5
125
 100
AcDbEntity
   8
LEVEL001
 370
13
 100
AcDbLine
   6
CONTINUOUS
  62
7
  10
 4411.5490344976
  20
 4648.5755309759
  30
0.0
  11
 4404.2113860686
  21
 4648.5755309759
  31
0.0
   0
ARC
   5
126
 100
AcDbEntity
   8
LEVEL001
 370
13
   6
CONTINUOUS
  62
1
 100
AcDbCircle
  10
 3840.1095425285
  20
 4687.3193373303
  30
0.0
  40
 7.5000000000000
 100
AcDbArc
  50
 64.300115581517
  51
 245.69988441849
   0
ARC
   5
127
 100
AcDbEntity
   8
LEVEL001
 370
13
   6
CONTINUOUS
  62
1
 100
AcDbCircle
  10
 4396.5825237690
  20
 4687.3193373303
  30
0.0
  40
 7.5000000000000
 100
AcDbArc
  50
 294.30011558157
  51
 115.69988441843
   0
ARC
   5
128
 100
AcDbEntity
   8
LEVEL001
 370
13
   6
CONTINUOUS
  62
1
 100
AcDbCircle
  10
 4118.3460331488
  20
 4257.5755309759
  30
0.0
  40
 7.5000000000000
 100
AcDbArc
  50
 179.28378410391
  51
 0.71621589609071
   0
ARC
   5
129
 100
AcDbEntity
   8
LEVEL001
 370
13
   6
CONTINUOUS
  62
1
 100
AcDbCircle
  10
 4013.3458491478
  20
 4846.0611655571
  30
0.0
  40
 7.5000000000000
 100
AcDbArc
  50
 19.300115581621
  51
 200.69988441840
   0
ARC
   5
12A
 100
AcDbEntity
   8
LEVEL001
 370
13
   6
CONTINUOUS
  62
1
 100
AcDbCircle
  10
 4223.3462171498
  20
 4846.0611655572
  30
0.0
  40
 7.5000000000000
 100
AcDbArc
  50
 339.30011558131
  51
 160.69988441868
   0
ARC
   5
12B
 100
AcDbEntity
   8
LEVEL001
 370
13
   6
CONTINUOUS
  62
1
 100
AcDbCircle
  10
 4372.7604619956
  20
 4398.5997517059
  30
0.0
  40
 7.5000000000000
 100
AcDbArc
  50
 237.28378410423
  51
 58.716215895726
   0
ARC
   5
12C
 100
AcDbEntity
   8
LEVEL001
 370
13
   6
CONTINUOUS
  62
1
 100
AcDbCircle
  10
 3863.9316043019
  20
 4398.5997517059
  30
0.0
  40
 7.5000000000000
 100
AcDbArc
  50
 121.28378410420
  51
 302.71621589584
   0
ARC
   5
12D
 100
AcDbEntity
   8
LEVEL001
 370
13
   6
CONTINUOUS
  62
7
 100
AcDbCircle
  10
 4118.3460331488
  20
 4557.5755309759
  30
0.0
  40
 307.00000000000
 100
AcDbArc
  50
 17.242522646568
  51
 162.75747735343
   0
ARC
   5
12E
 100
AcDbEntity
   8
LEVEL001
 370
13
   6
CONTINUOUS
  62
2
 100
AcDbCircle
  10
 4179.9103118808
  20
 4674.3397222182
  30
0.0
  40
 14.999999551465
 100
AcDbArc
  50
 242.19997303132
  51
 310.03934226670
   0
LINE
   5
12F
 100
AcDbEntity
   8
LEVEL001
 370
13
 100
AcDbLine
   6
CONTINUOUS
  62
2
  10
 4189.5600135542
  20
 4662.8556791950
  30
0.0
  11
 4288.1739022070
  21
 4745.7191410726
  31
0.0
   0
LINE
   5
130
 100
AcDbEntity
   8
LEVEL001
 370
13
 100
AcDbLine
   6
CONTINUOUS
  62
2
  10
 4013.0658782068
  20
 4628.7895181043
  30
0.0
  11
 3930.2021111534
  21
 4727.4034067570
  31
0.0
   0
LINE
   5
131
 100
AcDbEntity
   8
LEVEL001
 370
13
 100
AcDbLine
   6
CONTINUOUS
  62
2
  10
 4047.1320392975
  20
 4662.8556791950
  30
0.0
  11
 3948.5181506447
  21
 4745.7191410726
  31
0.0
   0
ARC
   5
132
 100
AcDbEntity
   8
LEVEL001
 370
13
   6
CONTINUOUS
  62
2
 100
AcDbCircle
  10
 3940.1551563340
  20
 4735.7662352332
  30
0.0
  40
 13.000000326526
 100
AcDbArc
  50
 49.961123640752
  51
 220.03792170803
   0
ARC
   5
133
 100
AcDbEntity
   8
LEVEL001
 370
13
   6
CONTINUOUS
  62
2
 100
AcDbCircle
  10
 4056.7819762925
  20
 4674.3395244803
  30
0.0
  40
 14.999999551465
 100
AcDbArc
  50
 229.95948366515
  51
 297.80164640215
   0
ARC
   5
134
 100
AcDbEntity
   8
LEVEL001
 370
13
   6
CONTINUOUS
  62
2
 100
AcDbCircle
  10
 4001.5819340511
  20
 4619.1396987706
  30
0.0
  40
 14.999999551465
 100
AcDbArc
  50
 332.19916331550
  51
 40.039929295816
   0
ARC
   5
135
 100
AcDbEntity
   8
LEVEL001
 370
13
   6
CONTINUOUS
  62
2
 100
AcDbCircle
  10
 4118.3463316016
  20
 4557.5755376988
  30
0.0
  40
 116.99999459408
 100
AcDbArc
  50
 62.199479478545
  51
 117.80052052146
   0
CIRCLE
   5
136
 100
AcDbEntity
   8
LEVEL001
 370
13
 100
AcDbCircle
   6
CONTINUOUS
  62
2
  10
 4118.3460264259
  20
 4557.5755309759
  30
0.0
  40
 99.999997009768
   0
LINE
   5
137
 100
AcDbEntity
   8
LEVEL001
 370
13
 100
AcDbLine
   6
CONTINUOUS
  62
2
  10
 4013.0658782068
  20
 4486.3615438476
  30
0.0
  11
 3930.2021111534
  21
 4387.7476551948
  31
0.0
   0
LINE
   5
138
 100
AcDbEntity
   8
LEVEL001
 370
13
 100
AcDbLine
   6
CONTINUOUS
  62
2
  10
 4047.1320392975
  20
 4452.2953827568
  30
0.0
  11
 3948.5181506447
  21
 4369.4319208792
  31
0.0
   0
ARC
   5
139
 100
AcDbEntity
   8
LEVEL001
 370
13
   6
CONTINUOUS
  62
2
 100
AcDbCircle
  10
 3940.1551563340
  20
 4379.3848267186
  30
0.0
  40
 13.000000326526
 100
AcDbArc
  50
 139.96207829197
  51
 310.03887635925
   0
ARC
   5
13A
 100
AcDbEntity
   8
LEVEL001
 370
13
   6
CONTINUOUS
  62
2
 100
AcDbCircle
  10
 4001.5819340511
  20
 4496.0113631812
  30
0.0
  40
 14.999999551465
 100
AcDbArc
  50
 319.96007070418
  51
 27.800836684501
   0
ARC
   5
13B
 100
AcDbEntity
   8
LEVEL001
 370
13
   6
CONTINUOUS
  62
2
 100
AcDbCircle
  10
 4056.7819762925
  20
 4440.8115374715
  30
0.0
  40
 14.999999551465
 100
AcDbArc
  50
 62.198353597854
  51
 130.04051633485
   0
ARC
   5
13C
 100
AcDbEntity
   8
LEVEL001
 370
13
   6
CONTINUOUS
  62
2
 100
AcDbCircle
  10
 4118.3463316016
  20
 4557.5755242530
  30
0.0
  40
 116.99999459408
 100
AcDbArc
  50
 242.19947947854
  51
 297.80052052146
   0
ARC
   5
13D
 100
AcDbEntity
   8
LEVEL001
 370
13
   6
CONTINUOUS
  62
2
 100
AcDbCircle
  10
 4179.9103118808
  20
 4440.8113397336
  30
0.0
  40
 14.999999551465
 100
AcDbArc
  50
 49.960657733298
  51
 117.80002696868
   0
LINE
   5
13E
 100
AcDbEntity
   8
LEVEL001
 370
13
 100
AcDbLine
   6
CONTINUOUS
  62
2
  10
 4189.5600135542
  20
 4452.2953827568
  30
0.0
  11
 4288.1739022070
  21
 4369.4319208792
  31
0.0
   0
ARC
   5
13F
 100
AcDbEntity
   8
LEVEL001
 370
13
   6
CONTINUOUS
  62
2
 100
AcDbCircle
  10
 4118.3460197030
  20
 4557.5755309759
  30
0.0
  40
 116.99999459408
 100
AcDbArc
  50
 152.19947947855
  51
 207.80052052145
   0
ARC
   5
140
 100
AcDbEntity
   8
LEVEL001
 370
13
   6
CONTINUOUS
  62
2
 100
AcDbCircle
  10
 4235.1101188006
  20
 4619.1396987706
  30
0.0
  40
 14.999999551465
 100
AcDbArc
  50
 139.96007070418
  51
 207.80083668449
   0
LINE
   5
141
 100
AcDbEntity
   8
LEVEL001
 370
13
 100
AcDbLine
   6
CONTINUOUS
  62
2
  10
 4223.6261746449
  20
 4628.7895181043
  30
0.0
  11
 4306.4899416984
  21
 4727.4034067570
  31
0.0
   0
ARC
   5
142
 100
AcDbEntity
   8
LEVEL001
 370
13
   6
CONTINUOUS
  62
2
 100
AcDbCircle
  10
 4296.5368965177
  20
 4735.7662352332
  30
0.0
  40
 13.000000326526
 100
AcDbArc
  50
 319.96207829198
  51
 130.03887635924
   0
ARC
   5
143
 100
AcDbEntity
   8
LEVEL001
 370
13
   6
CONTINUOUS
  62
2
 100
AcDbCircle
  10
 4296.5368965177
  20
 4379.3848267186
  30
0.0
  40
 13.000000326526
 100
AcDbArc
  50
 229.96112364076
  51
 40.037921708021
   0
LINE
   5
144
 100
AcDbEntity
   8
LEVEL001
 370
13
 100
AcDbLine
   6
CONTINUOUS
  62
2
  10
 4223.6261746449
  20
 4486.3615438476
  30
0.0
  11
 4306.4899416984
  21
 4387.7476551948
  31
0.0
   0
ARC
   5
145
 100
AcDbEntity
   8
LEVEL001
 370
13
   6
CONTINUOUS
  62
2
 100
AcDbCircle
  10
 4235.1101188006
  20
 4496.0113631812
  30
0.0
  40
 14.999999551465
 100
AcDbArc
  50
 152.19916331551
  51
 220.03992929582
   0
ARC
   5
146
 100
AcDbEntity
   8
LEVEL001
 370
13
   6
CONTINUOUS
  62
2
 100
AcDbCircle
  10
 4118.3460331488
  20
 4557.5755309759
  30
0.0
  40
 116.99999459408
 100
AcDbArc
  50
 332.19947947855
  51
 27.800520521455
   0
LINE
   5
147
 100
AcDbEntity
   8
LEVEL001
 370
13
 100
AcDbLine
   6
CONTINUOUS
  62
6
  10
 4029.6723230227
  20
 4630.5430580909
  30
0.0
  11
 3963.5437849611
  21
 4709.2408706791
  31
0.0
   0
LINE
   5
148
 100
AcDbEntity
   8
LEVEL001
 370
13
 100
AcDbLine
   6
CONTINUOUS
  62
6
  10
 4045.3784993109
  20
 4646.2495395548
  30
0.0
  11
 3966.6803815470
  21
 4712.3780776165
  31
0.0
   0
LINE
   5
149
 100
AcDbEntity
   8
LEVEL001
 370
13
 100
AcDbLine
   6
CONTINUOUS
  62
6
  10
 4191.3135535408
  20
 4646.2495395548
  30
0.0
  11
 4270.0116713048
  21
 4712.3780776165
  31
0.0
   0
LINE
   5
14A
 100
AcDbEntity
   8
LEVEL001
 370
13
 100
AcDbLine
   6
CONTINUOUS
  62
6
  10
 4029.6723230227
  20
 4484.6080038609
  30
0.0
  11
 3963.5437849611
  21
 4405.9101912728
  31
0.0
   0
LINE
   5
14B
 100
AcDbEntity
   8
LEVEL001
 370
13
 100
AcDbLine
   6
CONTINUOUS
  62
6
  10
 4045.3784993109
  20
 4468.9015223970
  30
0.0
  11
 3966.6803815470
  21
 4402.7729843353
  31
0.0
   0
LINE
   5
14C
 100
AcDbEntity
   8
LEVEL001
 370
13
 100
AcDbLine
   6
CONTINUOUS
  62
6
  10
 4191.3135535408
  20
 4468.9015223970
  30
0.0
  11
 4270.0116713048
  21
 4402.7729843353
  31
0.0
   0
LINE
   5
14D
 100
AcDbEntity
   8
LEVEL001
 370
13
 100
AcDbLine
   6
CONTINUOUS
  62
6
  10
 4207.0203401805
  20
 4630.5430580909
  30
0.0
  11
 4273.1488782422
  21
 4709.2408706791
  31
0.0
   0
LINE
   5
14E
 100
AcDbEntity
   8
LEVEL001
 370
13
 100
AcDbLine
   6
CONTINUOUS
  62
6
  10
 4207.0203401805
  20
 4484.6080038609
  30
0.0
  11
 4273.1488782422
  21
 4405.9101912728
  31
0.0
   0
CIRCLE
   5
14F
 100
AcDbEntity
   8
LEVEL001
 370
13
 100
AcDbCircle
   6
CONTINUOUS
  62
7
  10
 4078.3460331488
  20
 4592.5755309759
  30
0.0
  40
 7.0000000000000
   0
LINE
   5
150
 100
AcDbEntity
   8
LEVEL001
 370
13
 100
AcDbLine
   6
DASHDOT
  62
6
  10
 4078.3460331488
  20
 4572.5755309759
  30
0.0
  11
 4078.3460331488
  21
 4612.5755309759
  31
0.0
   0
LINE
   5
151
 100
AcDbEntity
   8
LEVEL001
 370
13
 100
AcDbLine
   6
DASHDOT
  62
6
  10
 4098.3460331488
  20
 4592.5755309759
  30
0.0
  11
 4058.3460331488
  21
 4592.5755309759
  31
0.0
   0
CIRCLE
   5
152
 100
AcDbEntity
   8
LEVEL001
 370
13
 100
AcDbCircle
   6
CONTINUOUS
  62
7
  10
 4158.3460331488
  20
 4592.5755309759
  30
0.0
  40
 7.0000000000000
   0
LINE
   5
153
 100
AcDbEntity
   8
LEVEL001
 370
13
 100
AcDbLine
   6
DASHDOT
  62
6
  10
 4138.3460331488
  20
 4592.5755309759
  30
0.0
  11
 4178.3460331488
  21
 4592.5755309759
  31
0.0
   0
LINE
   5
154
 100
AcDbEntity
   8
LEVEL001
 370
13
 100
AcDbLine
   6
DASHDOT
  62
6
  10
 4158.3460331488
  20
 4572.5755309759
  30
0.0
  11
 4158.3460331488
  21
 4612.5755309759
  31
0.0
   0
CIRCLE
   5
155
 100
AcDbEntity
   8
LEVEL001
 370
13
 100
AcDbCircle
   6
CONTINUOUS
  62
7
  10
 4158.3460331488
  20
 4522.5755309759
  30
0.0
  40
 7.0000000000000
   0
LINE
   5
156
 100
AcDbEntity
   8
LEVEL001
 370
13
 100
AcDbLine
   6
DASHDOT
  62
6
  10
 4158.3460331488
  20
 4542.5755309759
  30
0.0
  11
 4158.3460331488
  21
 4502.5755309759
  31
0.0
   0
LINE
   5
157
 100
AcDbEntity
   8
LEVEL001
 370
13
 100
AcDbLine
   6
DASHDOT
  62
6
  10
 4138.3460331488
  20
 4522.5755309759
  30
0.0
  11
 4178.3460331488
  21
 4522.5755309759
  31
0.0
   0
CIRCLE
   5
158
 100
AcDbEntity
   8
LEVEL001
 370
13
 100
AcDbCircle
   6
CONTINUOUS
  62
7
  10
 4078.3460331488
  20
 4522.5755309759
  30
0.0
  40
 7.0000000000000
   0
LINE
   5
159
 100
AcDbEntity
   8
LEVEL001
 370
13
 100
AcDbLine
   6
DASHDOT
  62
6
  10
 4098.3460331488
  20
 4522.5755309759
  30
0.0
  11
 4058.3460331488
  21
 4522.5755309759
  31
0.0
   0
LINE
   5
15A
 100
AcDbEntity
   8
LEVEL001
 370
13
 100
AcDbLine
   6
DASHDOT
  62
6
  10
 4078.3460331488
  20
 4542.5755309759
  30
0.0
  11
 4078.3460331488
  21
 4502.5755309759
  31
0.0
   0
LINE
   5
15B
 100
AcDbEntity
   8
LEVEL001
 370
13
 100
AcDbLine
   6
DASHDOT
  62
6
  10
 4118.3460331488
  20
 4227.5755309759
  30
0.0
  11
 4118.3460331488
  21
 4887.5755309759
  31
0.0
   0
LINE
   5
15C
 100
AcDbEntity
   8
LEVEL001
 370
13
 100
AcDbLine
   6
DASHDOT
  62
6
  10
 3788.3460331488
  20
 4557.5755309759
  30
0.0
  11
 4448.3460331488
  21
 4557.5755309759
  31
0.0
   0
CIRCLE
   5
15D
 100
AcDbEntity
   8
LEVEL001
 370
13
 100
AcDbCircle
   6
CONTINUOUS
  62
1
  10
 2118.3460331488
  20
 4258.0755309759
  30
0.0
  40
 69.999997913838
   0
MTEXT
   5
15F
 100
AcDbEntity
   8
LEVEL001
 370
13
  62
7
 100
AcDbMText
  10
 2118.3460331488
  20
 4258.0755309759
  30
0.0
  40
 66.000000000000
  41
0.0
  71
5
  72
1
   1
\T1.000000;１
   7
GMM002
  44
 0.79999984000003
   0
CIRCLE
   5
160
 100
AcDbEntity
   8
LEVEL001
 370
13
 100
AcDbCircle
   6
CONTINUOUS
  62
1
  10
 2118.3460331488
  20
 4883.0755309759
  30
0.0
  40
 69.999997913838
   0
MTEXT
   5
162
 100
AcDbEntity
   8
LEVEL001
 370
13
  62
7
 100
AcDbMText
  10
 2118.3460331488
  20
 4883.0755309759
  30
0.0
  40
 66.000000000000
  41
0.0
  71
5
  72
1
   1
\T1.000000;３
   7
GMM002
  44
 0.79999984000003
   0
LEADER
   5
163
 100
AcDbEntity
   8
LEVEL001
 370
13
   6
CONTINUOUS
  62
1
 100
AcDbLeader
   3
GMM002
  73
3
  74
1
  75
0
  40
 66.000000000000
  41
0.0
  76
2
  10
 1600.8299035570
  20
 4758.0755309759
  30
0.0
  10
 2050.3027498768
  20
 4866.6404675592
  30
0.0
  77
1
   0
LEADER
   5
164
 100
AcDbEntity
   8
LEVEL001
 370
13
   6
CONTINUOUS
  62
1
 100
AcDbLeader
   3
GMM002
  73
3
  74
1
  75
0
  40
 66.000000000000
  41
0.0
  76
2
  10
 2645.6391720733
  20
 4383.0755309759
  30
0.0
  10
 2186.4583246804
  20
 4274.2222164018
  30
0.0
  77
1
   0
LEADER
   5
165
 100
AcDbEntity
   8
LEVEL001
 370
13
   6
CONTINUOUS
  62
1
 100
AcDbLeader
   3
GMM002
  73
3
  74
1
  75
0
  40
 66.000000000000
  41
0.0
  76
2
  10
 1493.3460331488
  20
 4383.0755309759
  30
0.0
  10
 2049.7053878960
  20
 4271.8036600265
  30
0.0
  77
1
   0
CIRCLE
   5
166
 100
AcDbEntity
   8
LEVEL001
 370
13
 100
AcDbCircle
   6
CONTINUOUS
  62
1
  10
 1118.3460331488
  20
 4133.0755309759
  30
0.0
  40
 69.999997913838
   0
MTEXT
   5
168
 100
AcDbEntity
   8
LEVEL001
 370
13
  62
7
 100
AcDbMText
  10
 1118.3460331488
  20
 4133.0755309759
  30
0.0
  40
 66.000000000000
  41
0.0
  71
5
  72
1
   1
\T1.000000;５
   7
GMM002
  44
 0.79999984000003
   0
CIRCLE
   5
169
 100
AcDbEntity
   8
LEVEL001
 370
13
 100
AcDbCircle
   6
CONTINUOUS
  62
1
  10
 1618.3460331488
  20
 4133.0755309759
  30
0.0
  40
 69.999997913838
   0
MTEXT
   5
16B
 100
AcDbEntity
   8
LEVEL001
 370
13
  62
7
 100
AcDbMText
  10
 1618.3460331488
  20
 4133.0755309759
  30
0.0
  40
 66.000000000000
  41
0.0
  71
5
  72
1
   1
\T1.000000;４
   7
GMM002
  44
 0.79999984000003
   0
LEADER
   5
16C
 100
AcDbEntity
   8
LEVEL001
 370
13
   6
CONTINUOUS
  62
1
 100
AcDbLeader
   3
GMM002
  73
3
  74
1
  75
0
  40
 66.000000000000
  41
0.0
  76
2
  10
 1361.6324669635
  20
 4254.2321750146
  30
0.0
  10
 1181.0059823434
  20
 4164.2801856746
  30
0.0
  77
1
   0
LEADER
   5
16D
 100
AcDbEntity
   8
LEVEL001
 370
13
   6
CONTINUOUS
  62
1
 100
AcDbLeader
   3
GMM002
  73
3
  74
1
  75
0
  40
 66.000000000000
  41
0.0
  76
2
  10
 1474.4543469084
  20
 4276.9672172162
  30
0.0
  10
 1568.8485599408
  20
 4182.5730041838
  30
0.0
  77
1
   0
CIRCLE
   5
16E
 100
AcDbEntity
   8
LEVEL001
 370
13
 100
AcDbCircle
   6
CONTINUOUS
  62
1
  10
 3868.3460331488
  20
 4133.0755309759
  30
0.0
  40
 69.999997913838
   0
MTEXT
   5
170
 100
AcDbEntity
   8
LEVEL001
 370
13
  62
7
 100
AcDbMText
  10
 3868.3460331488
  20
 4133.0755309759
  30
0.0
  40
 66.000000000000
  41
0.0
  71
5
  72
1
   1
\T1.000000;２
   7
GMM002
  44
 0.79999984000003
   0
LEADER
   5
171
 100
AcDbEntity
   8
LEVEL001
 370
13
   6
CONTINUOUS
  62
1
 100
AcDbLeader
   3
GMM002
  73
3
  74
1
  75
0
  40
 66.000000000000
  41
0.0
  76
2
  10
 3993.3460331488
  20
 4383.0755309759
  30
0.0
  10
 3899.6509839008
  20
 4195.6854324800
  30
0.0
  77
1
   0
CIRCLE
   5
172
 100
AcDbEntity
   8
LEVEL001
 370
13
 100
AcDbCircle
   6
CONTINUOUS
  62
1
  10
 3118.3460331488
  20
 4758.0755309759
  30
0.0
  40
 69.999997913838
   0
CIRCLE
   5
173
 100
AcDbEntity
   8
LEVEL001
 370
13
 100
AcDbCircle
   6
CONTINUOUS
  62
1
  10
 3258.3460289764
  20
 4758.0755309759
  30
0.0
  40
 69.999997913838
   0
MTEXT
   5
175
 100
AcDbEntity
   8
LEVEL001
 370
13
  62
7
 100
AcDbMText
  10
 3118.3460331488
  20
 4758.0755309759
  30
0.0
  40
 66.000000000000
  41
0.0
  71
5
  72
1
   1
\T1.000000;７
   7
GMM002
  44
 0.79999984000003
   0
MTEXT
   5
177
 100
AcDbEntity
   8
LEVEL001
 370
13
  62
7
 100
AcDbMText
  10
 3258.3460289764
  20
 4758.0755309759
  30
0.0
  40
 66.000000000000
  41
0.0
  71
5
  72
1
   1
\T1.000000;９
   7
GMM002
  44
 0.79999984000003
   0
LEADER
   5
178
 100
AcDbEntity
   8
LEVEL001
 370
13
   6
CONTINUOUS
  62
1
 100
AcDbLeader
   3
GMM002
  73
3
  74
1
  75
0
  40
 66.000000000000
  41
0.0
  76
2
  10
 2743.3460331488
  20
 4612.5755309757
  30
0.0
  10
 2849.2098434420
  20
 5003.2419884325
  30
0.0
  77
1
   0
LEADER
   5
179
 100
AcDbEntity
   8
LEVEL001
 370
13
   6
CONTINUOUS
  62
1
 100
AcDbLeader
   3
GMM002
  73
3
  74
1
  75
0
  40
 66.000000000000
  41
0.0
  76
2
  10
 2944.5293881156
  20
 4612.5755309759
  30
0.0
  10
 3064.6698191510
  20
 4713.1437631629
  30
0.0
  77
1
   0
LINE
   5
17A
 100
AcDbEntity
   8
LEVEL001
 370
13
 100
AcDbLine
   6
CONTINUOUS
  62
7
  10
 1406.4960331488
  20
 3957.5755309768
  30
0.0
  11
 1406.4960331488
  21
 4260.2659800451
  31
0.0
   0
LINE
   5
17B
 100
AcDbEntity
   8
LEVEL001
 370
13
 100
AcDbLine
   6
CONTINUOUS
  62
7
  10
 1330.1960331488
  20
 4260.2658856670
  30
0.0
  11
 1330.1960331488
  21
 3957.5755309768
  31
0.0
   0
LINE
   5
17C
 100
AcDbEntity
   8
LEVEL001
 370
13
 100
AcDbLine
   6
CONTINUOUS
  62
7
  10
 2830.1960331488
  20
 3776.0755309776
  30
0.0
  11
 2830.1960331488
  21
 4502.5755309759
  31
0.0
   0
LINE
   5
17D
 100
AcDbEntity
   8
LEVEL001
 370
13
 100
AcDbLine
   6
CONTINUOUS
  62
7
  10
 2906.4960331488
  20
 4502.5755309759
  30
0.0
  11
 2906.4960331488
  21
 3776.0755309776
  31
0.0
   0
LWPOLYLINE
   5
17E
 100
AcDbEntity
   8
LEVEL001
 370
13
   6
CONTINUOUS
  62
3
 100
AcDbPolyline
  90
5
  70
0
  10
 2696.3451851267
  20
 4861.3255309759
  10
 2636.3451851267
  20
 4861.3255309759
  10
 2636.3451851267
  20
 4704.3238196091
  10
 2676.3451851267
  20
 4648.5390353260
  10
 2696.3451851267
  20
 4648.5390353260
   0
LINE
   5
17F
 100
AcDbEntity
   8
LEVEL001
 370
13
 100
AcDbLine
   6
CONTINUOUS
  62
7
  10
 2696.3451851267
  20
 4861.3255309759
  30
0.0
  11
 2696.3451851267
  21
 4648.5755309759
  31
0.0
   0
LWPOLYLINE
   5
180
 100
AcDbEntity
   8
LEVEL001
 370
13
   6
DOT
  62
2
 100
AcDbPolyline
  90
4
  70
0
  10
 2696.3451851267
  20
 4648.5755309759
  10
 2696.3451851267
  20
 4857.0755309759
  10
 2671.3451851267
  20
 4857.0755309759
  10
 2671.3451851267
  20
 4655.5121333613
   0
ARC
   5
181
 100
AcDbEntity
   8
LEVEL001
 370
13
   6
DOT
  62
2
 100
AcDbCircle
  10
 3810.9462732272
  20
 4557.5755309759
  30
0.0
  40
 1178.3000000000
 100
AcDbArc
  50
 165.27501303924
  51
 173.16508510128
   0
ARC
   5
182
 100
AcDbEntity
   8
LEVEL001
 370
13
   6
CONTINUOUS
  62
7
 100
AcDbCircle
  10
 3810.9462732272
  20
 4557.5755309759
  30
0.0
  40
 1178.3000000000
 100
AcDbArc
  50
 173.16508510128
  51
 194.72498696076
   0
LWPOLYLINE
   5
183
 100
AcDbEntity
   8
LEVEL001
 370
13
   6
CONTINUOUS
  62
7
 100
AcDbPolyline
  90
4
  70
0
  10
 2671.3451851267
  20
 4655.5121333613
  10
 2671.3451851267
  20
 4258.0755309759
  10
 2696.3451851267
  20
 4258.0755309759
  10
 2696.3451851267
  20
 4648.5755309759
   0
LEADER
   5
184
 100
AcDbEntity
   8
LEVEL001
 370
13
   6
CONTINUOUS
  62
1
 100
AcDbLeader
   3
GMM002
  73
3
  74
1
  75
0
  40
 66.000000000000
  41
0.0
  76
2
  10
 2636.3451851267
  20
 4757.5755309768
  30
0.0
  10
 2185.7383379701
  20
 4864.1473255988
  30
0.0
  77
1
   0
DIMENSION
   5
185
 100
AcDbEntity
   8
LEVEL001
 370
13
   6
CONTINUOUS
  62
6
 100
AcDbDimension
   2
*D11
  10
 618.34603314875
  20
 957.57553097679
  30
0.0
  11
 618.34603314875
  21
 907.57553097679
  31
0.0
  70
0
   3
GMM003
 100
AcDbAlignedDimension
  13
 1118.3464427374
  23
 857.57553097679
  33
0.0
  14
 1118.3464427374
  24
 957.57553097679
  34
0.0
  50
 90.000000000000
 100
AcDbRotatedDimension
   0
DIMENSION
   5
186
 100
AcDbEntity
   8
LEVEL001
 370
13
   6
CONTINUOUS
  62
6
 100
AcDbDimension
   2
*D12
  10
 618.34603314875
  20
 1757.5755309768
  30
0.0
  11
 618.34603314875
  21
 1357.5755309768
  31
0.0
  70
0
   3
GMM003
 100
AcDbAlignedDimension
  13
 1118.3464427374
  23
 957.57553097679
  33
0.0
  14
 818.34650797231
  24
 1757.5755309768
  34
0.0
  50
 90.000000000000
 100
AcDbRotatedDimension
   0
DIMENSION
   5
187
 100
AcDbEntity
   8
LEVEL001
 370
13
   6
CONTINUOUS
  62
6
 100
AcDbDimension
   2
*D13
  10
 618.34603314875
  20
 4257.5755309768
  30
0.0
  11
 618.34603314875
  21
 3007.5755309768
  31
0.0
  70
0
   1
\A1;2500(標準設置高さ)
   3
GMM004
 100
AcDbAlignedDimension
  13
 818.34650797231
  23
 1757.5755309768
  33
0.0
  14
 1368.3460331487
  24
 4257.5755309768
  34
0.0
  50
 90.000000000000
 100
AcDbRotatedDimension
   0
LINE
   5
188
 100
AcDbEntity
   8
LEVEL001
 370
13
 100
AcDbLine
   6
DASHDOT
  62
6
  10
 1368.3460331488
  20
 4887.5755309759
  30
0.0
  11
 1368.3460331488
  21
 857.57553097679
  31
0.0
   0
LINE
   5
189
 100
AcDbEntity
   8
LEVEL001
 370
13
 100
AcDbLine
   6
DASHDOT
  62
6
  10
 2868.3460331488
  20
 4707.5755309768
  30
0.0
  11
 2868.3460331488
  21
 2123.5974166872
  31
0.0
   0
LWPOLYLINE
   5
18A
 100
AcDbEntity
   8
LEVEL001
 370
13
   6
CONTINUOUS
  62
7
 100
AcDbPolyline
  90
4
  70
0
  10
 2830.1960331488
  20
 4612.5755309759
  10
 2830.1960331488
  20
 4657.5755309768
  10
 2906.4960331488
  20
 4657.5755309768
  10
 2906.4960331488
  20
 4612.5755309759
   0
LEADER
   5
18B
 100
AcDbEntity
   8
LEVEL001
 370
13
   6
CONTINUOUS
  62
1
 100
AcDbLeader
   3
GMM005
  73
3
  74
1
  75
0
  40
 66.000000000000
  41
0.0
  76
2
  10
 2868.3460331488
  20
 4661.5755309768
  30
0.0
  10
 2960.0533275620
  20
 4820.9995984816
  30
0.0
  77
1
   0
LWPOLYLINE
   5
18C
 100
AcDbEntity
   8
LEVEL001
 370
13
   6
CONTINUOUS
  62
1
 100
AcDbPolyline
  90
4
  70
1
  10
 2906.4960331488
  20
 4661.5755309768
  10
 2830.1960331488
  20
 4661.5755309768
  10
 2830.1960331488
  20
 4658.5755309768
  10
 2906.4960331488
  20
 4658.5755309768
   0
LWPOLYLINE
   5
18D
 100
AcDbEntity
   8
LEVEL001
 370
13
   6
DOT
  62
6
 100
AcDbPolyline
  90
4
  70
0
  10
 2901.4960331488
  20
 4658.5755309768
  10
 2901.4960331488
  20
 4631.5755309768
  10
 2835.1960331488
  20
 4631.5755309768
  10
 2835.1960331488
  20
 4658.5755309768
   0
ARC
   5
18E
 100
AcDbEntity
   8
LEVEL001
 370
13
   6
CONTINUOUS
  62
7
 100
AcDbCircle
  10
 1423.3460331489
  20
 3937.5755309768
  30
0.0
  40
 20.000000000000
 100
AcDbArc
  50
0.0
  51
 90.000000000000
   0
ARC
   5
18F
 100
AcDbEntity
   8
LEVEL001
 370
13
   6
CONTINUOUS
  62
7
 100
AcDbCircle
  10
 1313.3460331489
  20
 3937.5755309768
  30
0.0
  40
 20.000000000000
 100
AcDbArc
  50
 90.000000000000
  51
 180.00000000000
   0
LINE
   5
190
 100
AcDbEntity
   8
LEVEL001
 370
13
 100
AcDbLine
   6
CONTINUOUS
  62
7
  10
 1423.3460331489
  20
 3957.5755309768
  30
0.0
  11
 1313.3460331489
  21
 3957.5755309768
  31
0.0
   0
LINE
   5
191
 100
AcDbEntity
   8
LEVEL001
 370
13
 100
AcDbLine
   6
CONTINUOUS
  62
7
  10
 2816.4949352083
  20
 3957.5755309784
  30
0.0
  11
 2813.7810284447
  21
 3950.7907640696
  31
0.0
   0
ARC
   5
192
 100
AcDbEntity
   8
LEVEL001
 370
13
   6
CONTINUOUS
  62
7
 100
AcDbCircle
  10
 2818.4234118992
  20
 3948.9338106878
  30
0.0
  40
 5.0000000000000
 100
AcDbArc
  50
 158.19859051367
  51
 180.00000000003
   0
ARC
   5
193
 100
AcDbEntity
   8
LEVEL001
 370
13
   6
CONTINUOUS
  62
7
 100
AcDbCircle
  10
 2812.4234118992
  20
 3941.7278845193
  30
0.0
  40
 5.0000000000000
 100
AcDbArc
  50
 359.99999999997
  51
 21.801409486328
   0
LINE
   5
194
 100
AcDbEntity
   8
LEVEL001
 370
13
 100
AcDbLine
   6
CONTINUOUS
  62
7
  10
 2815.2635244989
  20
 3948.0905150378
  30
0.0
  11
 2817.0657953536
  21
 3943.5848379011
  31
0.0
   0
ARC
   5
195
 100
AcDbEntity
   8
LEVEL001
 370
13
   6
CONTINUOUS
  62
7
 100
AcDbCircle
  10
 2819.9059079533
  20
 3949.9474684196
  30
0.0
  40
 5.0000000000000
 100
AcDbArc
  50
 158.19859051366
  51
 201.80140948634
   0
LWPOLYLINE
   5
196
 100
AcDbEntity
   8
LEVEL001
 370
13
   6
CONTINUOUS
  62
7
 100
AcDbPolyline
  90
3
  70
0
  10
 2816.4949352083
  20
 3957.5755309784
  10
 2817.4234118992
  20
 3957.2041403020
  10
 2815.2635244989
  20
 3951.8044218014
   0
LINE
   5
197
 100
AcDbEntity
   8
LEVEL001
 370
13
 100
AcDbLine
   6
CONTINUOUS
  62
7
  10
 2813.4234118992
  20
 3948.9338106878
  30
0.0
  11
 2813.4234118992
  21
 3566.2172512674
  31
0.0
   0
LINE
   5
198
 100
AcDbEntity
   8
LEVEL001
 370
13
 100
AcDbLine
   6
CONTINUOUS
  62
7
  10
 2817.4234118992
  20
 3941.7278845193
  30
0.0
  11
 2817.4234118992
  21
 3573.4231774359
  31
0.0
   0
CIRCLE
   5
199
 100
AcDbEntity
   8
LEVEL001
 370
13
 100
AcDbCircle
   6
CONTINUOUS
  62
1
  10
 3118.3460331488
  20
 3907.5755309768
  30
0.0
  40
 69.999997913838
   0
CIRCLE
   5
19A
 100
AcDbEntity
   8
LEVEL001
 370
13
 100
AcDbCircle
   6
CONTINUOUS
  62
1
  10
 3258.3460289764
  20
 3907.5755309768
  30
0.0
  40
 69.999997913838
   0
CIRCLE
   5
19B
 100
AcDbEntity
   8
LEVEL001
 370
13
 100
AcDbCircle
   6
CONTINUOUS
  62
1
  10
 1618.3460331488
  20
 2632.5755309768
  30
0.0
  40
 69.999997913838
   0
MTEXT
   5
19D
 100
AcDbEntity
   8
LEVEL001
 370
13
  62
7
 100
AcDbMText
  10
 1618.3460331488
  20
 2632.5755309768
  30
0.0
  40
 66.000000000000
  41
0.0
  71
5
  72
1
   1
\T1.000000;１０
   7
GMM002
  44
 0.79999984000003
   0
LEADER
   5
19E
 100
AcDbEntity
   8
LEVEL001
 370
13
   6
CONTINUOUS
  62
1
 100
AcDbLeader
   3
GMM002
  73
3
  74
1
  75
0
  40
 66.000000000000
  41
0.0
  76
2
  10
 1406.4960331488
  20
 2507.5755309768
  30
0.0
  10
 1558.0582455843
  20
 2597.0033174032
  30
0.0
  77
1
   0
LINE
   5
19F
 100
AcDbEntity
   8
LEVEL001
 370
13
 100
AcDbLine
   6
CONTINUOUS
  62
7
  10
 1293.3460331489
  20
 3937.5755309768
  30
0.0
  11
 1293.3460331489
  21
 3577.5755309768
  31
0.0
   0
ARC
   5
1A0
 100
AcDbEntity
   8
LEVEL001
 370
13
   6
CONTINUOUS
  62
7
 100
AcDbCircle
  10
 1313.3460331489
  20
 3577.5755309768
  30
0.0
  40
 20.000000000000
 100
AcDbArc
  50
 180.00000000000
  51
 270.00000000000
   0
LINE
   5
1A1
 100
AcDbEntity
   8
LEVEL001
 370
13
 100
AcDbLine
   6
CONTINUOUS
  62
7
  10
 1313.3460331489
  20
 3557.5755309768
  30
0.0
  11
 1423.3460331489
  21
 3557.5755309768
  31
0.0
   0
LINE
   5
1A2
 100
AcDbEntity
   8
LEVEL001
 370
13
 100
AcDbLine
   6
CONTINUOUS
  62
7
  10
 1443.3460331489
  20
 3577.5755309768
  30
0.0
  11
 1443.3460331489
  21
 3937.5755309768
  31
0.0
   0
ARC
   5
1A3
 100
AcDbEntity
   8
LEVEL001
 370
13
   6
CONTINUOUS
  62
7
 100
AcDbCircle
  10
 1423.3460331489
  20
 3577.5755309768
  30
0.0
  40
 20.000000000000
 100
AcDbArc
  50
 270.00000000000
  51
 360.00000000000
   0
LWPOLYLINE
   5
1A4
 100
AcDbEntity
   8
LEVEL001
 370
13
   6
CONTINUOUS
  62
5
 100
AcDbPolyline
  90
7
  70
1
  10
 1368.3460331489
  20
 3917.5755309768
  10
 1332.0460342307
  20
 3871.3755323537
  10
 1351.8460336407
  20
 3871.3755323537
  10
 1351.8460336407
  20
 3851.5755329437
  10
 1384.8460326572
  20
 3851.5755329437
  10
 1384.8460326572
  20
 3871.3755323537
  10
 1404.6460320671
  20
 3871.3755323537
   0
ARC
   5
1A5
 100
AcDbEntity
   8
LEVEL001
 370
13
   6
CONTINUOUS
  62
7
 100
AcDbCircle
  10
 2818.4234118992
  20
 3566.2172512674
  30
0.0
  40
 5.0000000000000
 100
AcDbArc
  50
 179.99999999997
  51
 201.80140948633
   0
LINE
   5
1A6
 100
AcDbEntity
   8
LEVEL001
 370
13
 100
AcDbLine
   6
CONTINUOUS
  62
7
  10
 2816.4949352083
  20
 3557.5755309768
  30
0.0
  11
 2813.7810284447
  21
 3564.3602978856
  31
0.0
   0
ARC
   5
1A7
 100
AcDbEntity
   8
LEVEL001
 370
13
   6
CONTINUOUS
  62
7
 100
AcDbCircle
  10
 2812.4234118992
  20
 3573.4231774359
  30
0.0
  40
 5.0000000000000
 100
AcDbArc
  50
 338.19859051367
  51
 0.26055103950549E-10
   0
LINE
   5
1A8
 100
AcDbEntity
   8
LEVEL001
 370
13
 100
AcDbLine
   6
CONTINUOUS
  62
7
  10
 2815.2635244989
  20
 3567.0605469174
  30
0.0
  11
 2817.0657953536
  21
 3571.5662240541
  31
0.0
   0
ARC
   5
1A9
 100
AcDbEntity
   8
LEVEL001
 370
13
   6
CONTINUOUS
  62
7
 100
AcDbCircle
  10
 2819.9059079533
  20
 3565.2035935356
  30
0.0
  40
 5.0000000000000
 100
AcDbArc
  50
 158.19859051364
  51
 201.80140948636
   0
LWPOLYLINE
   5
1AA
 100
AcDbEntity
   8
LEVEL001
 370
13
   6
CONTINUOUS
  62
7
 100
AcDbPolyline
  90
3
  70
0
  10
 2816.4949352083
  20
 3557.5755309768
  10
 2817.4234118992
  20
 3557.9469216532
  10
 2815.2635244989
  20
 3563.3466401538
   0
LINE
   5
1AB
 100
AcDbEntity
   8
LEVEL001
 370
13
 100
AcDbLine
   6
CONTINUOUS
  62
6
  10
 2820.4234118992
  20
 3792.5755917358
  30
0.0
  11
 2820.4234118992
  21
 3793.5755306967
  31
0.0
   0
LINE
   5
1AC
 100
AcDbEntity
   8
LEVEL001
 370
13
 100
AcDbLine
   6
CONTINUOUS
  62
7
  10
 2820.8788906783
  20
 3778.5751645443
  30
0.0
  11
 2820.8793484422
  21
 3736.5752562609
  31
0.0
   0
LINE
   5
1AD
 100
AcDbEntity
   8
LEVEL001
 370
13
 100
AcDbLine
   6
CONTINUOUS
  62
7
  10
 2820.4234118992
  20
 3793.5755306967
  30
0.0
  11
 2817.4234118992
  21
 3793.5755306967
  31
0.0
   0
LINE
   5
1AE
 100
AcDbEntity
   8
LEVEL001
 370
13
 100
AcDbLine
   6
CONTINUOUS
  62
6
  10
 2817.4234118992
  20
 3792.5755917358
  30
0.0
  11
 2820.4234118992
  21
 3792.5755917358
  31
0.0
   0
LWPOLYLINE
   5
1AF
 100
AcDbEntity
   8
LEVEL001
 370
13
   6
CONTINUOUS
  62
6
 100
AcDbPolyline
  90
3
  70
0
  10
 2820.4234118992
  20
 3721.5755309776
  10
 2820.4234118992
  20
 3722.5755614913
  10
 2817.4234118992
  20
 3722.5755614913
   0
ELLIPSE
   5
1B0
 100
AcDbEntity
   8
LEVEL001
 370
13
   6
CONTINUOUS
  62
7
 100
AcDbEllipse
  10
 2816.8793458911
  20
 3736.5753174134
  30
0.0
  11
 4.0000025516047
  21
0.0
  31
0.0
  40
 0.99999938800000
  41
-1.4343569865528
  42
-0.15288126579161E-4
   0
LINE
   5
1B1
 100
AcDbEntity
   8
LEVEL001
 370
13
 100
AcDbLine
   6
CONTINUOUS
  62
7
  10
 2817.4234118992
  20
 3721.5755309776
  30
0.0
  11
 2820.4234118992
  21
 3721.5755309776
  31
0.0
   0
ELLIPSE
   5
1B2
 100
AcDbEntity
   8
LEVEL001
 370
13
   6
CONTINUOUS
  62
7
 100
AcDbEllipse
  10
 2816.8788881285
  20
 3778.5752864955
  30
0.0
  11
 4.0000025516047
  21
0.0
  31
0.0
  40
 0.99999938800000
  41
-0.30487804348912E-4
  42
 1.4342414715503
   0
LWPOLYLINE
   5
1B3
 100
AcDbEntity
   8
LEVEL001
 370
13
   6
CONTINUOUS
  62
7
 100
AcDbPolyline
  90
4
  70
0
  10
 2820.8789179222
  20
 3776.0755309776
  10
 2926.4234118992
  20
 3776.0755309776
  10
 2926.4234118992
  20
 3739.0755309776
  10
 2820.8793211913
  20
 3739.0755309776
   0
LINE
   5
1B4
 100
AcDbEntity
   8
LEVEL001
 370
13
 100
AcDbLine
   6
CONTINUOUS
  62
6
  10
 2831.8713465035
  20
 3763.0755309776
  30
0.0
  11
 2831.8713465035
  21
 3752.0755309776
  31
0.0
   0
LINE
   5
1B5
 100
AcDbEntity
   8
LEVEL001
 370
13
 100
AcDbLine
   6
CONTINUOUS
  62
6
  10
 2831.8713465035
  20
 3750.0755309776
  30
0.0
  11
 2831.8713465035
  21
 3741.0755309776
  31
0.0
   0
LINE
   5
1B6
 100
AcDbEntity
   8
LEVEL001
 370
13
 100
AcDbLine
   6
CONTINUOUS
  62
6
  10
 2831.8713465035
  20
 3774.0755309776
  30
0.0
  11
 2831.8713465035
  21
 3765.0755309776
  31
0.0
   0
LINE
   5
1B7
 100
AcDbEntity
   8
LEVEL001
 370
13
 100
AcDbLine
   6
CONTINUOUS
  62
6
  10
 2905.2514128987
  20
 3751.0755309776
  30
0.0
  11
 2833.1322410731
  21
 3751.0755309776
  31
0.0
   0
LINE
   5
1B8
 100
AcDbEntity
   8
LEVEL001
 370
13
 100
AcDbLine
   6
CONTINUOUS
  62
6
  10
 2833.1322410731
  20
 3764.0755309776
  30
0.0
  11
 2905.2514128987
  21
 3764.0755309776
  31
0.0
   0
LINE
   5
1B9
 100
AcDbEntity
   8
LEVEL001
 370
13
 100
AcDbLine
   6
CONTINUOUS
  62
6
  10
 2905.2514128987
  20
 3774.0755309776
  30
0.0
  11
 2905.2514128987
  21
 3765.0755309776
  31
0.0
   0
LINE
   5
1BA
 100
AcDbEntity
   8
LEVEL001
 370
13
 100
AcDbLine
   6
CONTINUOUS
  62
6
  10
 2905.2514128987
  20
 3750.0755309776
  30
0.0
  11
 2905.2514128987
  21
 3741.0755309776
  31
0.0
   0
LINE
   5
1BB
 100
AcDbEntity
   8
LEVEL001
 370
13
 100
AcDbLine
   6
CONTINUOUS
  62
6
  10
 2907.5699379401
  20
 3764.0755309776
  30
0.0
  11
 2907.5699379401
  21
 3751.0755309776
  31
0.0
   0
LWPOLYLINE
   5
1BC
 100
AcDbEntity
   8
LEVEL001
 370
13
   6
CONTINUOUS
  62
7
 100
AcDbPolyline
  90
4
  70
1
  10
 2911.4234118992
  20
 3752.5755309776
  10
 2921.4234118992
  20
 3752.5755309776
  10
 2921.4234118992
  20
 3762.5755309776
  10
 2911.4234118992
  20
 3762.5755309776
   0
CIRCLE
   5
1BD
 100
AcDbEntity
   8
LEVEL001
 370
13
 100
AcDbCircle
   6
CONTINUOUS
  62
1
  10
 1618.3460331488
  20
 3657.5755309768
  30
0.0
  40
 69.999997913838
   0
MTEXT
   5
1BF
 100
AcDbEntity
   8
LEVEL001
 370
13
  62
7
 100
AcDbMText
  10
 1618.3460331488
  20
 3657.5755309768
  30
0.0
  40
 66.000000000000
  41
0.0
  71
5
  72
1
   1
\T1.000000;１３
   7
GMM002
  44
 0.79999984000003
   0
MTEXT
   5
1C1
 100
AcDbEntity
   8
LEVEL001
 370
13
  62
7
 100
AcDbMText
  10
 3118.3460331488
  20
 3907.5755309768
  30
0.0
  40
 66.000000000000
  41
0.0
  71
5
  72
1
   1
\T1.000000;１４
   7
GMM002
  44
 0.79999984000003
   0
MTEXT
   5
1C3
 100
AcDbEntity
   8
LEVEL001
 370
13
  62
7
 100
AcDbMText
  10
 3258.3460289764
  20
 3907.5755309768
  30
0.0
  40
 66.000000000000
  41
0.0
  71
5
  72
1
   1
\T1.000000;１５
   7
GMM002
  44
 0.79999984000003
   0
LEADER
   5
1C4
 100
AcDbEntity
   8
LEVEL001
 370
13
   6
CONTINUOUS
  62
1
 100
AcDbLeader
   3
GMM002
  73
3
  74
1
  75
0
  40
 66.000000000000
  41
0.0
  76
2
  10
 2926.4234118992
  20
 3776.0755309776
  30
0.0
  10
 3060.6004129155
  20
 3868.0098507500
  30
0.0
  77
1
   0
LEADER
   5
1C5
 100
AcDbEntity
   8
LEVEL001
 370
13
   6
CONTINUOUS
  62
1
 100
AcDbLeader
   3
GMM002
  73
3
  74
1
  75
0
  40
 66.000000000000
  41
0.0
  76
2
  10
 1443.3460331490
  20
 3757.5755309768
  30
0.0
  10
 1557.7242566906
  20
 3692.5755299338
  30
0.0
  77
1
   0
LINE
   5
1C6
 100
AcDbEntity
   8
基礎（５００）
 370
13
 100
AcDbLine
   6
CONTINUOUS
  62
5
  10
 963.34644273717
  20
 1705.0755309768
  30
0.0
  11
 1015.8464427372
  21
 1757.5755309768
  31
0.0
   0
LINE
   5
1C7
 100
AcDbEntity
   8
基礎（５００）
 370
13
 100
AcDbLine
   6
CONTINUOUS
  62
5
  10
 947.43654016032
  20
 1720.9854335536
  30
0.0
  11
 984.02663758352
  21
 1757.5755309768
  31
0.0
   0
LINE
   5
1C8
 100
AcDbEntity
   8
基礎（５００）
 370
13
 100
AcDbLine
   6
CONTINUOUS
  62
5
  10
 999.93654016113
  20
 1757.5755309768
  30
0.0
  11
 955.39149144914
  21
 1713.0304822648
  31
0.0
   0
LINE
   5
1C9
 100
AcDbEntity
   8
基礎（５００）
 370
13
 100
AcDbLine
   6
CONTINUOUS
  62
5
  10
 1020.6167350078
  20
 1705.0755309768
  30
0.0
  11
 991.98158887246
  21
 1733.7106771121
  31
0.0
   0
LINE
   5
1CA
 100
AcDbEntity
   8
基礎（５００）
 370
13
 100
AcDbLine
   6
CONTINUOUS
  62
5
  10
 999.93654016068
  20
 1741.6656284003
  30
0.0
  11
 1036.5266375842
  21
 1705.0755309768
  31
0.0
   0
LINE
   5
1CB
 100
AcDbEntity
   8
基礎（５００）
 370
13
 100
AcDbLine
   6
CONTINUOUS
  62
5
  10
 1052.4365401606
  20
 1705.0755309768
  30
0.0
  11
 1007.8914914489
  21
 1749.6205796885
  31
0.0
   0
LINE
   5
1CC
 100
AcDbEntity
   8
基礎（５００）
 370
13
 100
AcDbLine
   6
CONTINUOUS
  62
5
  10
 1015.8464427372
  20
 1757.5755309768
  30
0.0
  11
 1068.3464427374
  21
 1705.0755309768
  31
0.0
   0
LINE
   5
1CD
 100
AcDbEntity
   8
基礎（５００）
 370
13
 100
AcDbLine
   6
CONTINUOUS
  62
5
  10
 863.11673500730
  20
 1757.5755309768
  30
0.0
  11
 810.61673500730
  21
 1705.0755309768
  31
0.0
   0
LINE
   5
1CE
 100
AcDbEntity
   8
基礎（５００）
 370
13
 100
AcDbLine
   6
CONTINUOUS
  62
5
  10
 826.52663758334
  20
 1705.0755309768
  30
0.0
  11
 879.02663758334
  21
 1757.5755309768
  31
0.0
   0
LINE
   5
1CF
 100
AcDbEntity
   8
基礎（５００）
 370
13
 100
AcDbLine
   6
CONTINUOUS
  62
5
  10
 894.93654016095
  20
 1757.5755309768
  30
0.0
  11
 842.43654016095
  21
 1705.0755309768
  31
0.0
   0
LINE
   5
1D0
 100
AcDbEntity
   8
基礎（５００）
 370
13
 100
AcDbLine
   6
CONTINUOUS
  62
5
  10
 858.34644273698
  20
 1705.0755309768
  30
0.0
  11
 910.84644273698
  21
 1757.5755309768
  31
0.0
   0
LINE
   5
1D1
 100
AcDbEntity
   8
基礎（５００）
 370
13
 100
AcDbLine
   6
CONTINUOUS
  62
5
  10
 915.61673500757
  20
 1705.0755309768
  30
0.0
  11
 886.98158887228
  21
 1733.7106771121
  31
0.0
   0
LINE
   5
1D2
 100
AcDbEntity
   8
基礎（５００）
 370
13
 100
AcDbLine
   6
CONTINUOUS
  62
5
  10
 894.93654016049
  20
 1741.6656284003
  30
0.0
  11
 931.52663758400
  21
 1705.0755309768
  31
0.0
   0
LINE
   5
1D3
 100
AcDbEntity
   8
基礎（５００）
 370
13
 100
AcDbLine
   6
CONTINUOUS
  62
5
  10
 947.43654016043
  20
 1705.0755309768
  30
0.0
  11
 902.89149144871
  21
 1749.6205796885
  31
0.0
   0
LINE
   5
1D4
 100
AcDbEntity
   8
基礎（５００）
 370
13
 100
AcDbLine
   6
CONTINUOUS
  62
5
  10
 910.84644273698
  20
 1757.5755309768
  30
0.0
  11
 963.34644273717
  21
 1705.0755309768
  31
0.0
   0
LINE
   5
1D5
 100
AcDbEntity
   8
基礎（５００）
 370
13
 100
AcDbLine
   6
CONTINUOUS
  62
5
  10
 968.11673500749
  20
 1757.5755309768
  30
0.0
  11
 939.48158887229
  21
 1728.9403848416
  31
0.0
   0
LINE
   5
1D6
 100
AcDbEntity
   8
基礎（５００）
 370
13
 100
AcDbLine
   6
CONTINUOUS
  62
5
  10
 1720.8464427374
  20
 1757.5755309768
  30
0.0
  11
 1668.3464427374
  21
 1705.0755309768
  31
0.0
   0
LINE
   5
1D7
 100
AcDbEntity
   8
基礎（５００）
 370
13
 100
AcDbLine
   6
CONTINUOUS
  62
5
  10
 1684.2563453134
  20
 1705.0755309768
  30
0.0
  11
 1736.7563453134
  21
 1757.5755309768
  31
0.0
   0
LINE
   5
1D8
 100
AcDbEntity
   8
基礎（５００）
 370
13
 100
AcDbLine
   6
CONTINUOUS
  62
5
  10
 1752.6662478910
  20
 1757.5755309768
  30
0.0
  11
 1700.1662478910
  21
 1705.0755309768
  31
0.0
   0
LINE
   5
1D9
 100
AcDbEntity
   8
基礎（５００）
 370
13
 100
AcDbLine
   6
CONTINUOUS
  62
5
  10
 1716.0761504670
  20
 1705.0755309768
  30
0.0
  11
 1768.5761504670
  21
 1757.5755309768
  31
0.0
   0
LINE
   5
1DA
 100
AcDbEntity
   8
基礎（５００）
 370
13
 100
AcDbLine
   6
CONTINUOUS
  62
5
  10
 1773.3464427376
  20
 1705.0755309768
  30
0.0
  11
 1744.7112966023
  21
 1733.7106771121
  31
0.0
   0
LINE
   5
1DB
 100
AcDbEntity
   8
基礎（５００）
 370
13
 100
AcDbLine
   6
CONTINUOUS
  62
5
  10
 1752.6662478905
  20
 1741.6656284003
  30
0.0
  11
 1789.2563453141
  21
 1705.0755309768
  31
0.0
   0
LINE
   5
1DC
 100
AcDbEntity
   8
基礎（５００）
 370
13
 100
AcDbLine
   6
CONTINUOUS
  62
5
  10
 1805.1662478905
  20
 1705.0755309768
  30
0.0
  11
 1760.6211991788
  21
 1749.6205796885
  31
0.0
   0
LINE
   5
1DD
 100
AcDbEntity
   8
基礎（５００）
 370
13
 100
AcDbLine
   6
CONTINUOUS
  62
5
  10
 1768.5761504670
  20
 1757.5755309768
  30
0.0
  11
 1821.0761504672
  21
 1705.0755309768
  31
0.0
   0
LINE
   5
1DE
 100
AcDbEntity
   8
基礎（５００）
 370
13
 100
AcDbLine
   6
CONTINUOUS
  62
5
  10
 1821.0761504672
  20
 1705.0755309768
  30
0.0
  11
 1873.5761504672
  21
 1757.5755309768
  31
0.0
   0
LINE
   5
1DF
 100
AcDbEntity
   8
基礎（５００）
 370
13
 100
AcDbLine
   6
CONTINUOUS
  62
5
  10
 1825.8464427375
  20
 1757.5755309768
  30
0.0
  11
 1797.2112966023
  21
 1728.9403848416
  31
0.0
   0
LINE
   5
1E0
 100
AcDbEntity
   8
基礎（５００）
 370
13
 100
AcDbLine
   6
CONTINUOUS
  62
5
  10
 1805.1662478904
  20
 1720.9854335536
  30
0.0
  11
 1841.7563453136
  21
 1757.5755309768
  31
0.0
   0
LINE
   5
1E1
 100
AcDbEntity
   8
基礎（５００）
 370
13
 100
AcDbLine
   6
CONTINUOUS
  62
5
  10
 1857.6662478912
  20
 1757.5755309768
  30
0.0
  11
 1813.1211991792
  21
 1713.0304822648
  31
0.0
   0
LINE
   5
1E2
 100
AcDbEntity
   8
基礎（５００）
 370
13
 100
AcDbLine
   6
CONTINUOUS
  62
5
  10
 1878.3464427378
  20
 1705.0755309768
  30
0.0
  11
 1849.7112966025
  21
 1733.7106771121
  31
0.0
   0
LINE
   5
1E3
 100
AcDbEntity
   8
基礎（５００）
 370
13
 100
AcDbLine
   6
CONTINUOUS
  62
5
  10
 1857.6662478907
  20
 1741.6656284003
  30
0.0
  11
 1894.2563453142
  21
 1705.0755309768
  31
0.0
   0
LINE
   5
1E4
 100
AcDbEntity
   8
基礎（５００）
 370
13
 100
AcDbLine
   6
CONTINUOUS
  62
5
  10
 1910.1662478907
  20
 1705.0755309768
  30
0.0
  11
 1865.6211991789
  21
 1749.6205796885
  31
0.0
   0
LINE
   5
1E5
 100
AcDbEntity
   8
基礎（５００）
 370
13
 100
AcDbLine
   6
CONTINUOUS
  62
5
  10
 1873.5761504672
  20
 1757.5755309768
  30
0.0
  11
 1926.0761504674
  21
 1705.0755309768
  31
0.0
   0
LINE
   5
1E6
 100
AcDbEntity
   8
基礎（５００）
 370
13
 100
AcDbLine
   6
CONTINUOUS
  62
5
  10
 1618.3464427374
  20
 1757.5755309768
  30
0.0
  11
 1918.3465079723
  21
 1757.5755309768
  31
0.0
   0
LINE
   5
1E7
 100
AcDbEntity
   8
基礎（５００）
 370
13
 100
AcDbLine
   6
CONTINUOUS
  62
5
  10
 1118.3464427374
  20
 1757.5755309768
  30
0.0
  11
 818.34650797231
  21
 1757.5755309768
  31
0.0
   0
LINE
   5
1E8
 100
AcDbEntity
   8
基礎（５００）
 370
13
 100
AcDbLine
   6
CONTINUOUS
  62
5
  10
 2149.9361305721
  20
 1741.6656284003
  30
0.0
  11
 2186.5262279956
  21
 1705.0755309768
  31
0.0
   0
LINE
   5
1E9
 100
AcDbEntity
   8
基礎（５００）
 370
13
 100
AcDbLine
   6
CONTINUOUS
  62
5
  10
 2202.4361305720
  20
 1705.0755309768
  30
0.0
  11
 2157.8910818603
  21
 1749.6205796885
  31
0.0
   0
LINE
   5
1EA
 100
AcDbEntity
   8
基礎（５００）
 370
13
 100
AcDbLine
   6
CONTINUOUS
  62
5
  10
 2165.8460331486
  20
 1757.5755309768
  30
0.0
  11
 2218.3460331488
  21
 1705.0755309768
  31
0.0
   0
LINE
   5
1EB
 100
AcDbEntity
   8
基礎（５００）
 370
13
 100
AcDbLine
   6
CONTINUOUS
  62
5
  10
 2113.3460331486
  20
 1705.0755309768
  30
0.0
  11
 2165.8460331486
  21
 1757.5755309768
  31
0.0
   0
LINE
   5
1EC
 100
AcDbEntity
   8
基礎（５００）
 370
13
 100
AcDbLine
   6
CONTINUOUS
  62
5
  10
 2097.4361305717
  20
 1720.9854335536
  30
0.0
  11
 2134.0262279949
  21
 1757.5755309768
  31
0.0
   0
LINE
   5
1ED
 100
AcDbEntity
   8
基礎（５００）
 370
13
 100
AcDbLine
   6
CONTINUOUS
  62
5
  10
 2149.9361305725
  20
 1757.5755309768
  30
0.0
  11
 2105.3910818605
  21
 1713.0304822648
  31
0.0
   0
LINE
   5
1EE
 100
AcDbEntity
   8
基礎（５００）
 370
13
 100
AcDbLine
   6
CONTINUOUS
  62
5
  10
 2170.6163254192
  20
 1705.0755309768
  30
0.0
  11
 2141.9811792839
  21
 1733.7106771121
  31
0.0
   0
LINE
   5
1EF
 100
AcDbEntity
   8
基礎（５００）
 370
13
 100
AcDbLine
   6
CONTINUOUS
  62
5
  10
 2097.4361305718
  20
 1705.0755309768
  30
0.0
  11
 2052.8910818601
  21
 1749.6205796885
  31
0.0
   0
LINE
   5
1F0
 100
AcDbEntity
   8
基礎（５００）
 370
13
 100
AcDbLine
   6
CONTINUOUS
  62
5
  10
 2060.8460331484
  20
 1757.5755309768
  30
0.0
  11
 2113.3460331486
  21
 1705.0755309768
  31
0.0
   0
LINE
   5
1F1
 100
AcDbEntity
   8
基礎（５００）
 370
13
 100
AcDbLine
   6
CONTINUOUS
  62
5
  10
 2118.1163254189
  20
 1757.5755309768
  30
0.0
  11
 2089.4811792837
  21
 1728.9403848416
  31
0.0
   0
LINE
   5
1F2
 100
AcDbEntity
   8
基礎（５００）
 370
13
 100
AcDbLine
   6
CONTINUOUS
  62
5
  10
 2013.1163254187
  20
 1757.5755309768
  30
0.0
  11
 1960.6163254187
  21
 1705.0755309768
  31
0.0
   0
LINE
   5
1F3
 100
AcDbEntity
   8
基礎（５００）
 370
13
 100
AcDbLine
   6
CONTINUOUS
  62
5
  10
 1976.5262279947
  20
 1705.0755309768
  30
0.0
  11
 2029.0262279947
  21
 1757.5755309768
  31
0.0
   0
LINE
   5
1F4
 100
AcDbEntity
   8
基礎（５００）
 370
13
 100
AcDbLine
   6
CONTINUOUS
  62
5
  10
 2044.9361305724
  20
 1757.5755309768
  30
0.0
  11
 1992.4361305723
  21
 1705.0755309768
  31
0.0
   0
LINE
   5
1F5
 100
AcDbEntity
   8
基礎（５００）
 370
13
 100
AcDbLine
   6
CONTINUOUS
  62
5
  10
 2008.3460331484
  20
 1705.0755309768
  30
0.0
  11
 2060.8460331484
  21
 1757.5755309768
  31
0.0
   0
LINE
   5
1F6
 100
AcDbEntity
   8
基礎（５００）
 370
13
 100
AcDbLine
   6
CONTINUOUS
  62
5
  10
 2065.6163254190
  20
 1705.0755309768
  30
0.0
  11
 2036.9811792837
  21
 1733.7106771121
  31
0.0
   0
LINE
   5
1F7
 100
AcDbEntity
   8
基礎（５００）
 370
13
 100
AcDbLine
   6
CONTINUOUS
  62
5
  10
 2044.9361305719
  20
 1741.6656284003
  30
0.0
  11
 2081.5262279954
  21
 1705.0755309768
  31
0.0
   0
LINE
   5
1F8
 100
AcDbEntity
   8
基礎（５００）
 370
13
 100
AcDbLine
   6
CONTINUOUS
  62
5
  10
 2870.8460331488
  20
 1757.5755309768
  30
0.0
  11
 2818.3460331488
  21
 1705.0755309768
  31
0.0
   0
LINE
   5
1F9
 100
AcDbEntity
   8
基礎（５００）
 370
13
 100
AcDbLine
   6
CONTINUOUS
  62
5
  10
 2834.2559357248
  20
 1705.0755309768
  30
0.0
  11
 2886.7559357248
  21
 1757.5755309768
  31
0.0
   0
LINE
   5
1FA
 100
AcDbEntity
   8
基礎（５００）
 370
13
 100
AcDbLine
   6
CONTINUOUS
  62
5
  10
 2902.6658383024
  20
 1757.5755309768
  30
0.0
  11
 2850.1658383024
  21
 1705.0755309768
  31
0.0
   0
LINE
   5
1FB
 100
AcDbEntity
   8
基礎（５００）
 370
13
 100
AcDbLine
   6
CONTINUOUS
  62
5
  10
 2866.0757408784
  20
 1705.0755309768
  30
0.0
  11
 2918.5757408784
  21
 1757.5755309768
  31
0.0
   0
LINE
   5
1FC
 100
AcDbEntity
   8
基礎（５００）
 370
13
 100
AcDbLine
   6
CONTINUOUS
  62
5
  10
 2923.3460331490
  20
 1705.0755309768
  30
0.0
  11
 2894.7108870137
  21
 1733.7106771121
  31
0.0
   0
LINE
   5
1FD
 100
AcDbEntity
   8
基礎（５００）
 370
13
 100
AcDbLine
   6
CONTINUOUS
  62
5
  10
 2902.6658383019
  20
 1741.6656284003
  30
0.0
  11
 2939.2559357255
  21
 1705.0755309768
  31
0.0
   0
LINE
   5
1FE
 100
AcDbEntity
   8
基礎（５００）
 370
13
 100
AcDbLine
   6
CONTINUOUS
  62
5
  10
 2955.1658383019
  20
 1705.0755309768
  30
0.0
  11
 2910.6207895902
  21
 1749.6205796885
  31
0.0
   0
LINE
   5
1FF
 100
AcDbEntity
   8
基礎（５００）
 370
13
 100
AcDbLine
   6
CONTINUOUS
  62
5
  10
 2918.5757408784
  20
 1757.5755309768
  30
0.0
  11
 2971.0757408786
  21
 1705.0755309768
  31
0.0
   0
LINE
   5
200
 100
AcDbEntity
   8
基礎（５００）
 370
13
 100
AcDbLine
   6
CONTINUOUS
  62
5
  10
 2971.0757408786
  20
 1705.0755309768
  30
0.0
  11
 3023.5757408786
  21
 1757.5755309768
  31
0.0
   0
LINE
   5
201
 100
AcDbEntity
   8
基礎（５００）
 370
13
 100
AcDbLine
   6
CONTINUOUS
  62
5
  10
 2975.8460331489
  20
 1757.5755309768
  30
0.0
  11
 2947.2108870137
  21
 1728.9403848416
  31
0.0
   0
LINE
   5
202
 100
AcDbEntity
   8
基礎（５００）
 370
13
 100
AcDbLine
   6
CONTINUOUS
  62
5
  10
 2955.1658383018
  20
 1720.9854335536
  30
0.0
  11
 2991.7559357250
  21
 1757.5755309768
  31
0.0
   0
LINE
   5
203
 100
AcDbEntity
   8
基礎（５００）
 370
13
 100
AcDbLine
   6
CONTINUOUS
  62
5
  10
 3007.6658383026
  20
 1757.5755309768
  30
0.0
  11
 2963.1207895906
  21
 1713.0304822648
  31
0.0
   0
LINE
   5
204
 100
AcDbEntity
   8
基礎（５００）
 370
13
 100
AcDbLine
   6
CONTINUOUS
  62
5
  10
 3028.3460331492
  20
 1705.0755309768
  30
0.0
  11
 2999.7108870139
  21
 1733.7106771121
  31
0.0
   0
LINE
   5
205
 100
AcDbEntity
   8
基礎（５００）
 370
13
 100
AcDbLine
   6
CONTINUOUS
  62
5
  10
 3007.6658383021
  20
 1741.6656284003
  30
0.0
  11
 3044.2559357256
  21
 1705.0755309768
  31
0.0
   0
LINE
   5
206
 100
AcDbEntity
   8
基礎（５００）
 370
13
 100
AcDbLine
   6
CONTINUOUS
  62
5
  10
 3060.1658383021
  20
 1705.0755309768
  30
0.0
  11
 3015.6207895903
  21
 1749.6205796885
  31
0.0
   0
LINE
   5
207
 100
AcDbEntity
   8
基礎（５００）
 370
13
 100
AcDbLine
   6
CONTINUOUS
  62
5
  10
 3023.5757408786
  20
 1757.5755309768
  30
0.0
  11
 3076.0757408788
  21
 1705.0755309768
  31
0.0
   0
MTEXT
   5
209
 100
AcDbEntity
   8
基礎（５００）
 370
13
  62
1
 100
AcDbMText
  10
 2138.9946383582
  20
 1766.3054680171
  30
0.0
  40
 40.000000000000
  41
0.0
  71
7
  72
1
   1
\T1.000000;ＧＬ
   7
GMM003
  44
 0.79999984000003
   0
LWPOLYLINE
   5
20A
 100
AcDbEntity
   8
基礎（５００）
 370
13
   6
CONTINUOUS
  62
1
 100
AcDbPolyline
  90
3
  70
1
  10
 2110.8459679134
  20
 1757.5755309768
  10
 2085.8459679134
  20
 1807.5755309768
  10
 2135.8459679134
  20
 1807.5755309768
   0
MTEXT
   5
20C
 100
AcDbEntity
   8
基礎（５００）
 370
13
  62
1
 100
AcDbMText
  10
 938.99511318180
  20
 1766.3054680171
  30
0.0
  40
 40.000000000000
  41
0.0
  71
7
  72
1
   1
\T1.000000;ＧＬ
   7
GMM003
  44
 0.79999984000003
   0
LWPOLYLINE
   5
20D
 100
AcDbEntity
   8
基礎（５００）
 370
13
   6
CONTINUOUS
  62
1
 100
AcDbPolyline
  90
3
  70
1
  10
 910.84644273698
  20
 1757.5755309768
  10
 885.84644273698
  20
 1807.5755309768
  10
 935.84644273698
  20
 1807.5755309768
   0
MTEXT
   5
20E
 100
AcDbEntity
   8
LEVEL001
 370
13
  62
1
 100
AcDbMText
  10
 1317.1585331489
  20
 3710.8255309768
  30
0.0
  40
 80.000000000000
  41
0.0
  71
4
  72
1
   1
{\T1.000000;注}\P{\T1.000000;意}
   7
GMM004
  44
 0.79999984000003
   0
LWPOLYLINE
   5
20F
 100
AcDbEntity
   8
基礎（５００）
 370
13
   6
CONTINUOUS
  62
5
 100
AcDbPolyline
  90
6
  70
0
  10
 1330.1964427374
  20
 1757.5755309768
  10
 1118.3464427374
  20
 1757.5755309768
  10
 1118.3464427374
  20
 957.57553097679
  10
 1618.3464427374
  20
 957.57553097679
  10
 1618.3464427374
  20
 1757.5755309768
  10
 1406.4964427374
  20
 1757.5755309768
   0
LINE
   5
210
 100
AcDbEntity
   8
基礎（５００）
 370
13
 100
AcDbLine
   6
CONTINUOUS
  62
5
  10
 1268.3464427374
  20
 957.57553097679
  30
0.0
  11
 1218.3464427374
  21
 857.57553097679
  31
0.0
   0
LINE
   5
211
 100
AcDbEntity
   8
基礎（５００）
 370
13
 100
AcDbLine
   6
CONTINUOUS
  62
5
  10
 1218.3464427374
  20
 957.57553097679
  30
0.0
  11
 1258.3464427374
  21
 937.57553097679
  31
0.0
   0
LINE
   5
212
 100
AcDbEntity
   8
基礎（５００）
 370
13
 100
AcDbLine
   6
CONTINUOUS
  62
5
  10
 1218.3464427374
  20
 957.57553097679
  30
0.0
  11
 1168.3464427374
  21
 857.57553097679
  31
0.0
   0
LINE
   5
213
 100
AcDbEntity
   8
基礎（５００）
 370
13
 100
AcDbLine
   6
CONTINUOUS
  62
5
  10
 1168.3464427374
  20
 957.57553097679
  30
0.0
  11
 1208.3464427374
  21
 937.57553097679
  31
0.0
   0
LINE
   5
214
 100
AcDbEntity
   8
基礎（５００）
 370
13
 100
AcDbLine
   6
CONTINUOUS
  62
5
  10
 1168.3464427374
  20
 957.57553097679
  30
0.0
  11
 1118.3464427374
  21
 857.57553097679
  31
0.0
   0
LINE
   5
215
 100
AcDbEntity
   8
基礎（５００）
 370
13
 100
AcDbLine
   6
CONTINUOUS
  62
5
  10
 1118.3464427374
  20
 957.57553097679
  30
0.0
  11
 1158.3464427374
  21
 937.57553097679
  31
0.0
   0
LINE
   5
216
 100
AcDbEntity
   8
基礎（５００）
 370
13
 100
AcDbLine
   6
CONTINUOUS
  62
5
  10
 1268.3464427374
  20
 857.57553097679
  30
0.0
  11
 1228.3464427374
  21
 877.57553097679
  31
0.0
   0
LINE
   5
217
 100
AcDbEntity
   8
基礎（５００）
 370
13
 100
AcDbLine
   6
CONTINUOUS
  62
5
  10
 1218.3464427374
  20
 857.57553097679
  30
0.0
  11
 1178.3464427374
  21
 877.57553097679
  31
0.0
   0
LINE
   5
218
 100
AcDbEntity
   8
基礎（５００）
 370
13
 100
AcDbLine
   6
CONTINUOUS
  62
5
  10
 1168.3464427374
  20
 857.57553097679
  30
0.0
  11
 1128.3464427374
  21
 877.57553097679
  31
0.0
   0
LINE
   5
219
 100
AcDbEntity
   8
基礎（５００）
 370
13
 100
AcDbLine
   6
CONTINUOUS
  62
5
  10
 1618.3464427374
  20
 957.57553097679
  30
0.0
  11
 1568.3464427374
  21
 857.57553097679
  31
0.0
   0
LINE
   5
21A
 100
AcDbEntity
   8
基礎（５００）
 370
13
 100
AcDbLine
   6
CONTINUOUS
  62
5
  10
 1568.3464427374
  20
 957.57553097679
  30
0.0
  11
 1608.3464427374
  21
 937.57553097679
  31
0.0
   0
LINE
   5
21B
 100
AcDbEntity
   8
基礎（５００）
 370
13
 100
AcDbLine
   6
CONTINUOUS
  62
5
  10
 1568.3464427374
  20
 957.57553097679
  30
0.0
  11
 1518.3464427374
  21
 857.57553097679
  31
0.0
   0
LINE
   5
21C
 100
AcDbEntity
   8
基礎（５００）
 370
13
 100
AcDbLine
   6
CONTINUOUS
  62
5
  10
 1518.3464427374
  20
 957.57553097679
  30
0.0
  11
 1558.3464427374
  21
 937.57553097679
  31
0.0
   0
LINE
   5
21D
 100
AcDbEntity
   8
基礎（５００）
 370
13
 100
AcDbLine
   6
CONTINUOUS
  62
5
  10
 1518.3464427374
  20
 957.57553097679
  30
0.0
  11
 1468.3464427374
  21
 857.57553097679
  31
0.0
   0
LINE
   5
21E
 100
AcDbEntity
   8
基礎（５００）
 370
13
 100
AcDbLine
   6
CONTINUOUS
  62
5
  10
 1468.3464427374
  20
 957.57553097679
  30
0.0
  11
 1508.3464427374
  21
 937.57553097679
  31
0.0
   0
LINE
   5
21F
 100
AcDbEntity
   8
基礎（５００）
 370
13
 100
AcDbLine
   6
CONTINUOUS
  62
5
  10
 1618.3464427374
  20
 857.57553097679
  30
0.0
  11
 1578.3464427374
  21
 877.57553097679
  31
0.0
   0
LINE
   5
220
 100
AcDbEntity
   8
基礎（５００）
 370
13
 100
AcDbLine
   6
CONTINUOUS
  62
5
  10
 1568.3464427374
  20
 857.57553097679
  30
0.0
  11
 1528.3464427374
  21
 877.57553097679
  31
0.0
   0
LINE
   5
221
 100
AcDbEntity
   8
基礎（５００）
 370
13
 100
AcDbLine
   6
CONTINUOUS
  62
5
  10
 1518.3464427374
  20
 857.57553097679
  30
0.0
  11
 1478.3464427374
  21
 877.57553097679
  31
0.0
   0
LWPOLYLINE
   5
222
 100
AcDbEntity
   8
基礎（５００）
 370
13
   6
CONTINUOUS
  62
5
 100
AcDbPolyline
  90
4
  70
1
  10
 1118.3464427374
  20
 957.57553097679
  10
 1118.3464427374
  20
 857.57553097679
  10
 1618.3464427374
  20
 857.57553097679
  10
 1618.3464427374
  20
 957.57553097679
   0
LINE
   5
223
 100
AcDbEntity
   8
基礎（５００）
 370
13
 100
AcDbLine
   6
CONTINUOUS
  62
5
  10
 2418.3460331488
  20
 957.57553097679
  30
0.0
  11
 2368.3460331488
  21
 857.57553097679
  31
0.0
   0
LINE
   5
224
 100
AcDbEntity
   8
基礎（５００）
 370
13
 100
AcDbLine
   6
CONTINUOUS
  62
5
  10
 2368.3460331488
  20
 957.57553097679
  30
0.0
  11
 2408.3460331488
  21
 937.57553097679
  31
0.0
   0
LINE
   5
225
 100
AcDbEntity
   8
基礎（５００）
 370
13
 100
AcDbLine
   6
CONTINUOUS
  62
5
  10
 2368.3460331488
  20
 957.57553097679
  30
0.0
  11
 2318.3460331488
  21
 857.57553097679
  31
0.0
   0
LINE
   5
226
 100
AcDbEntity
   8
基礎（５００）
 370
13
 100
AcDbLine
   6
CONTINUOUS
  62
5
  10
 2318.3460331488
  20
 957.57553097679
  30
0.0
  11
 2358.3460331488
  21
 937.57553097679
  31
0.0
   0
LINE
   5
227
 100
AcDbEntity
   8
基礎（５００）
 370
13
 100
AcDbLine
   6
CONTINUOUS
  62
5
  10
 2318.3460331488
  20
 957.57553097679
  30
0.0
  11
 2268.3460331488
  21
 857.57553097679
  31
0.0
   0
LINE
   5
228
 100
AcDbEntity
   8
基礎（５００）
 370
13
 100
AcDbLine
   6
CONTINUOUS
  62
5
  10
 2268.3460331488
  20
 957.57553097679
  30
0.0
  11
 2308.3460331488
  21
 937.57553097679
  31
0.0
   0
LINE
   5
229
 100
AcDbEntity
   8
基礎（５００）
 370
13
 100
AcDbLine
   6
CONTINUOUS
  62
5
  10
 2418.3460331488
  20
 857.57553097679
  30
0.0
  11
 2378.3460331488
  21
 877.57553097679
  31
0.0
   0
LINE
   5
22A
 100
AcDbEntity
   8
基礎（５００）
 370
13
 100
AcDbLine
   6
CONTINUOUS
  62
5
  10
 2368.3460331488
  20
 857.57553097679
  30
0.0
  11
 2328.3460331488
  21
 877.57553097679
  31
0.0
   0
LINE
   5
22B
 100
AcDbEntity
   8
基礎（５００）
 370
13
 100
AcDbLine
   6
CONTINUOUS
  62
5
  10
 2318.3460331488
  20
 857.57553097679
  30
0.0
  11
 2278.3460331488
  21
 877.57553097679
  31
0.0
   0
LWPOLYLINE
   5
22C
 100
AcDbEntity
   8
基礎（５００）
 370
13
   6
CONTINUOUS
  62
5
 100
AcDbPolyline
  90
4
  70
1
  10
 2268.3460331488
  20
 957.57553097679
  10
 2268.3460331488
  20
 857.57553097679
  10
 2768.3460331488
  20
 857.57553097679
  10
 2768.3460331488
  20
 957.57553097679
   0
LINE
   5
22D
 100
AcDbEntity
   8
基礎（５００）
 370
13
 100
AcDbLine
   6
CONTINUOUS
  62
5
  10
 2768.3460331488
  20
 957.57553097679
  30
0.0
  11
 2718.3460331488
  21
 857.57553097679
  31
0.0
   0
LINE
   5
22E
 100
AcDbEntity
   8
基礎（５００）
 370
13
 100
AcDbLine
   6
CONTINUOUS
  62
5
  10
 2718.3460331488
  20
 957.57553097679
  30
0.0
  11
 2758.3460331488
  21
 937.57553097679
  31
0.0
   0
LINE
   5
22F
 100
AcDbEntity
   8
基礎（５００）
 370
13
 100
AcDbLine
   6
CONTINUOUS
  62
5
  10
 2718.3460331488
  20
 957.57553097679
  30
0.0
  11
 2668.3460331488
  21
 857.57553097679
  31
0.0
   0
LINE
   5
230
 100
AcDbEntity
   8
基礎（５００）
 370
13
 100
AcDbLine
   6
CONTINUOUS
  62
5
  10
 2668.3460331488
  20
 957.57553097679
  30
0.0
  11
 2708.3460331488
  21
 937.57553097679
  31
0.0
   0
LINE
   5
231
 100
AcDbEntity
   8
基礎（５００）
 370
13
 100
AcDbLine
   6
CONTINUOUS
  62
5
  10
 2668.3460331488
  20
 957.57553097679
  30
0.0
  11
 2618.3460331488
  21
 857.57553097679
  31
0.0
   0
LINE
   5
232
 100
AcDbEntity
   8
基礎（５００）
 370
13
 100
AcDbLine
   6
CONTINUOUS
  62
5
  10
 2618.3460331488
  20
 957.57553097679
  30
0.0
  11
 2658.3460331488
  21
 937.57553097679
  31
0.0
   0
LINE
   5
233
 100
AcDbEntity
   8
基礎（５００）
 370
13
 100
AcDbLine
   6
CONTINUOUS
  62
5
  10
 2768.3460331488
  20
 857.57553097679
  30
0.0
  11
 2728.3460331488
  21
 877.57553097679
  31
0.0
   0
LINE
   5
234
 100
AcDbEntity
   8
基礎（５００）
 370
13
 100
AcDbLine
   6
CONTINUOUS
  62
5
  10
 2718.3460331488
  20
 857.57553097679
  30
0.0
  11
 2678.3460331488
  21
 877.57553097679
  31
0.0
   0
LINE
   5
235
 100
AcDbEntity
   8
基礎（５００）
 370
13
 100
AcDbLine
   6
CONTINUOUS
  62
5
  10
 2668.3460331488
  20
 857.57553097679
  30
0.0
  11
 2628.3460331488
  21
 877.57553097679
  31
0.0
   0
DIMENSION
   5
236
 100
AcDbEntity
   8
LEVEL001
 370
13
   6
CONTINUOUS
  62
6
 100
AcDbDimension
   2
*D18
  10
 1618.3464427374
  20
 557.57553097679
  30
0.0
  11
 1368.3464427374
  21
 557.57553097679
  31
0.0
  70
0
   3
GMM006
 100
AcDbAlignedDimension
  13
 1118.3464427374
  23
 857.57553097679
  33
0.0
  14
 1618.3464427374
  24
 857.57553097679
  34
0.0
 100
AcDbRotatedDimension
   0
DIMENSION
   5
237
 100
AcDbEntity
   8
LEVEL001
 370
13
   6
CONTINUOUS
  62
6
 100
AcDbDimension
   2
*D19
  10
 2768.3460331488
  20
 557.57553097679
  30
0.0
  11
 2518.3460331488
  21
 557.57553097679
  31
0.0
  70
0
   3
GMM006
 100
AcDbAlignedDimension
  13
 2268.3460331488
  23
 857.57553097679
  33
0.0
  14
 2768.3460331488
  24
 857.57553097679
  34
0.0
 100
AcDbRotatedDimension
   0
LWPOLYLINE
   5
238
 100
AcDbEntity
   8
基礎（５００）
 370
13
   6
CONTINUOUS
  62
5
 100
AcDbPolyline
  90
4
  70
0
  10
 2268.3460331488
  20
 1757.5755309768
  10
 2268.3460331488
  20
 957.57553097679
  10
 2768.3460331488
  20
 957.57553097679
  10
 2768.3460331488
  20
 1757.5755309768
   0
LINE
   5
239
 100
AcDbEntity
   8
LEVEL001
 370
13
 100
AcDbLine
   6
DASHDOT
  62
6
  10
 1308.3464246517
  20
 1357.5755309768
  30
0.0
  11
 1428.3464246517
  21
 1357.5755309768
  31
0.0
   0
CIRCLE
   5
23A
 100
AcDbEntity
   8
LEVEL001
 370
13
 100
AcDbCircle
   6
CONTINUOUS
  62
7
  10
 1368.3464089353
  20
 1257.5755309768
  30
0.0
  40
 7.5000000000000
   0
LINE
   5
23B
 100
AcDbEntity
   8
LEVEL001
 370
13
 100
AcDbLine
   6
DASHDOT
  62
6
  10
 1338.3464089353
  20
 1257.5755309768
  30
0.0
  11
 1398.3464089353
  21
 1257.5755309768
  31
0.0
   0
LWPOLYLINE
   5
23C
 100
AcDbEntity
   8
LEVEL001
 370
13
   6
CONTINUOUS
  62
7
 100
AcDbPolyline
  90
4
  70
0
  10
 2480.1960331488
  20
 1265.0755309768
  10
 2408.3460150631
  20
 1265.0755309768
  10
 2408.3460150631
  20
 1250.0755309768
  10
 2480.1960331488
  20
 1250.0755309768
   0
LWPOLYLINE
   5
23D
 100
AcDbEntity
   8
LEVEL001
 370
13
   6
CONTINUOUS
  62
7
 100
AcDbPolyline
  90
4
  70
0
  10
 2556.4960331488
  20
 1265.0755309768
  10
 2628.3460150631
  20
 1265.0755309768
  10
 2628.3460150631
  20
 1250.0755309768
  10
 2556.4960331488
  20
 1250.0755309768
   0
CIRCLE
   5
23E
 100
AcDbEntity
   8
LEVEL001
 370
13
 100
AcDbCircle
   6
CONTINUOUS
  62
1
  10
 2143.3460331488
  20
 1157.5755309768
  30
0.0
  40
 69.999997913838
   0
MTEXT
   5
240
 100
AcDbEntity
   8
LEVEL001
 370
13
  62
7
 100
AcDbMText
  10
 2143.3460331488
  20
 1157.5755309768
  30
0.0
  40
 66.000000000000
  41
0.0
  71
5
  72
1
   1
\T1.000000;１１
   7
GMM002
  44
 0.79999984000003
   0
LEADER
   5
241
 100
AcDbEntity
   8
LEVEL001
 370
13
   6
CONTINUOUS
  62
1
 100
AcDbLeader
   3
GMM007
  73
3
  74
1
  75
0
  40
 66.000000000000
  41
0.0
  76
2
  10
 2408.3460150631
  20
 1250.0755309768
  30
0.0
  10
 2209.4355328265
  20
 1180.6445088538
  30
0.0
  77
1
   0
CIRCLE
   5
242
 100
AcDbEntity
   8
LEVEL001
 370
13
 100
AcDbCircle
   6
CONTINUOUS
  62
7
  10
 2518.3460331488
  20
 1357.5755309768
  30
0.0
  40
 7.5000000000000
   0
LINE
   5
243
 100
AcDbEntity
   8
LEVEL001
 370
13
 100
AcDbLine
   6
DASHDOT
  62
6
  10
 2488.3460331488
  20
 1357.5755309768
  30
0.0
  11
 2548.3460331488
  21
 1357.5755309768
  31
0.0
   0
LINE
   5
244
 100
AcDbEntity
   8
LEVEL001
 370
13
 100
AcDbLine
   6
DASHDOT
  62
6
  10
 2458.3460331488
  20
 1257.5755309768
  30
0.0
  11
 2578.3460331488
  21
 1257.5755309768
  31
0.0
   0
ARC
   5
245
 100
AcDbEntity
   8
LEVEL001
 370
13
   6
CONTINUOUS
  62
7
 100
AcDbCircle
  10
 2530.1960331488
  20
 2123.5974166872
  30
0.0
  40
 300.00000000000
 100
AcDbArc
  50
 322.12501634890
  51
 360.00000000000
   0
ARC
   5
246
 100
AcDbEntity
   8
LEVEL001
 370
13
   6
CONTINUOUS
  62
7
 100
AcDbCircle
  10
 2856.4960331488
  20
 1441.5536452664
  30
0.0
  40
 300.00000000000
 100
AcDbArc
  50
 142.12501634890
  51
 180.00000000000
   0
ARC
   5
247
 100
AcDbEntity
   8
LEVEL001
 370
13
   6
DASHDOT
  62
6
 100
AcDbCircle
  10
 2530.1960331488
  20
 2123.5974166872
  30
0.0
  40
 338.15000000000
 100
AcDbArc
  50
 322.12501634890
  51
 0.77051911727190E-13
   0
LINE
   5
248
 100
AcDbEntity
   8
LEVEL001
 370
13
 100
AcDbLine
   6
DASHDOT
  62
6
  10
 2589.5765808430
  20
 1649.1576637265
  30
0.0
  11
 2797.1154854546
  21
 1915.9933982271
  31
0.0
   0
ARC
   5
249
 100
AcDbEntity
   8
LEVEL001
 370
13
   6
DASHDOT
  62
6
 100
AcDbCircle
  10
 2856.4960331488
  20
 1441.5536452664
  30
0.0
  40
 338.15000000000
 100
AcDbArc
  50
 142.12501634890
  51
 180.00000000000
   0
ARC
   5
24A
 100
AcDbEntity
   8
LEVEL001
 370
13
   6
CONTINUOUS
  62
7
 100
AcDbCircle
  10
 2856.4960331488
  20
 1441.5536452664
  30
0.0
  40
 376.30000000000
 100
AcDbArc
  50
 142.12501634890
  51
 180.00000000000
   0
LINE
   5
24B
 100
AcDbEntity
   8
LEVEL001
 370
13
 100
AcDbLine
   6
CONTINUOUS
  62
7
  10
 2767.0016983617
  20
 1939.4152326327
  30
0.0
  11
 2559.4627937500
  21
 1672.5794981320
  31
0.0
   0
LINE
   5
24C
 100
AcDbEntity
   8
LEVEL001
 370
13
 100
AcDbLine
   6
CONTINUOUS
  62
7
  10
 2619.6903679359
  20
 1625.7358293208
  30
0.0
  11
 2827.2292725475
  21
 1892.5715638215
  31
0.0
   0
ARC
   5
24D
 100
AcDbEntity
   8
LEVEL001
 370
13
   6
CONTINUOUS
  62
7
 100
AcDbCircle
  10
 2530.1960331488
  20
 2123.5974166871
  30
0.0
  40
 376.30000000000
 100
AcDbArc
  50
 322.12501634890
  51
 0.69240244354369E-13
   0
LWPOLYLINE
   5
24E
 100
AcDbEntity
   8
LEVEL001
 370
13
   6
CONTINUOUS
  62
7
 100
AcDbPolyline
  90
4
  70
0
  10
 2480.1960331488
  20
 1441.5536452664
  10
 2480.1960331488
  20
 1057.5755309768
  10
 2556.4960331488
  20
 1057.5755309768
  10
 2556.4960331488
  20
 1441.5536452664
   0
DIMENSION
   5
24F
 100
AcDbEntity
   8
LEVEL001
 370
13
   6
CONTINUOUS
  62
6
 100
AcDbDimension
   2
*D21
  10
 2868.3460331488
  20
 2657.5755309768
  30
0.0
  11
 2693.3460331488
  21
 2657.5755309768
  31
0.0
  70
0
   3
GMM008
 100
AcDbAlignedDimension
  13
 2518.3460331488
  23
 1606.6483680773
  33
0.0
  14
 2868.3460331488
  24
 2657.5755309768
  34
0.0
 100
AcDbRotatedDimension
   0
LWPOLYLINE
   5
250
 100
AcDbEntity
   8
LEVEL001
 370
13
   6
CONTINUOUS
  62
7
 100
AcDbPolyline
  90
4
  70
0
  10
 1330.1960331488
  20
 3557.5755309768
  10
 1330.1960331488
  20
 1057.5755309768
  10
 1406.4960331488
  20
 1057.5755309768
  10
 1406.4960331488
  20
 3557.5755309768
   0
LINE
   5
251
 100
AcDbEntity
   8
LEVEL001
 370
13
 100
AcDbLine
   6
CONTINUOUS
  62
7
  10
 2830.1960331488
  20
 2123.5974166872
  30
0.0
  11
 2830.1960331488
  21
 3739.0755309776
  31
0.0
   0
LINE
   5
252
 100
AcDbEntity
   8
LEVEL001
 370
13
 100
AcDbLine
   6
CONTINUOUS
  62
7
  10
 2906.4960331488
  20
 3739.0755309776
  30
0.0
  11
 2906.4960331488
  21
 2123.5974166871
  31
0.0
   0
LINE
   5
253
 100
AcDbEntity
   8
LEVEL001
 370
13
 100
AcDbLine
   6
DASHDOT
  62
6
  10
 2518.3460331488
  20
 1441.5536452664
  30
0.0
  11
 2518.3460331488
  21
 857.57553097679
  31
0.0
   0
LINE
   5
254
 100
AcDbEntity
   8
基礎（５００）
 370
13
 100
AcDbLine
   6
CONTINUOUS
  62
5
  10
 2722.2323581127
  20
 1757.5755309768
  30
0.0
  11
 3068.3460983837
  21
 1757.5755309768
  31
0.0
   0
LINE
   5
255
 100
AcDbEntity
   8
基礎（５００）
 370
13
 100
AcDbLine
   6
CONTINUOUS
  62
5
  10
 2625.5708192960
  20
 1757.5755309768
  30
0.0
  11
 1968.3460983837
  21
 1757.5755309768
  31
0.0
   0
LINE
   5
256
 100
AcDbEntity
   8
LEVEL001
 370
13
 100
AcDbLine
   6
DOT
  62
1
  10
 2556.4960331488
  20
 1250.0755309768
  30
0.0
  11
 2480.1960331488
  21
 1250.0755309768
  31
0.0
   0
LINE
   5
257
 100
AcDbEntity
   8
LEVEL001
 370
13
 100
AcDbLine
   6
DOT
  62
1
  10
 2480.1960331488
  20
 1265.0755309768
  30
0.0
  11
 2556.4960331488
  21
 1265.0755309768
  31
0.0
   0
LINE
   5
258
 100
AcDbEntity
   8
基礎（５００）
 370
13
 100
AcDbLine
   6
CONTINUOUS
  62
5
  10
 2556.4960331488
  20
 1345.7251213881
  30
0.0
  11
 2768.3464427375
  21
 1557.5755309768
  31
0.0
   0
LINE
   5
259
 100
AcDbEntity
   8
基礎（５００）
 370
13
 100
AcDbLine
   6
CONTINUOUS
  62
5
  10
 2768.3464427375
  20
 1529.2912597293
  30
0.0
  11
 2556.4960331488
  21
 1317.4408501406
  31
0.0
   0
LINE
   5
25A
 100
AcDbEntity
   8
基礎（５００）
 370
13
 100
AcDbLine
   6
CONTINUOUS
  62
5
  10
 2556.4960331488
  20
 1289.1565788932
  30
0.0
  11
 2768.3464427375
  21
 1501.0069884819
  31
0.0
   0
LINE
   5
25B
 100
AcDbEntity
   8
基礎（５００）
 370
13
 100
AcDbLine
   6
CONTINUOUS
  62
5
  10
 2268.3464427375
  20
 1057.5755309768
  30
0.0
  11
 2480.1960331488
  21
 1269.4251213881
  31
0.0
   0
LINE
   5
25C
 100
AcDbEntity
   8
基礎（５００）
 370
13
 100
AcDbLine
   6
CONTINUOUS
  62
5
  10
 2268.3464427375
  20
 1001.0069884819
  30
0.0
  11
 2480.1960331488
  21
 1212.8565788932
  31
0.0
   0
LINE
   5
25D
 100
AcDbEntity
   8
基礎（５００）
 370
13
 100
AcDbLine
   6
CONTINUOUS
  62
5
  10
 2480.1960331488
  20
 1241.1408501406
  30
0.0
  11
 2268.3464427375
  21
 1029.2912597293
  31
0.0
   0
LINE
   5
25E
 100
AcDbEntity
   8
基礎（５００）
 370
13
 100
AcDbLine
   6
CONTINUOUS
  62
5
  10
 1406.4960331488
  20
 1345.7251213882
  30
0.0
  11
 1618.3464427374
  21
 1557.5755309768
  31
0.0
   0
LINE
   5
25F
 100
AcDbEntity
   8
基礎（５００）
 370
13
 100
AcDbLine
   6
CONTINUOUS
  62
5
  10
 1618.3464427374
  20
 1529.2912597293
  30
0.0
  11
 1406.4960331488
  21
 1317.4408501407
  31
0.0
   0
LINE
   5
260
 100
AcDbEntity
   8
基礎（５００）
 370
13
 100
AcDbLine
   6
CONTINUOUS
  62
5
  10
 1404.1303043961
  20
 1286.7908501406
  30
0.0
  11
 1618.3464427374
  21
 1501.0069884819
  31
0.0
   0
LINE
   5
261
 100
AcDbEntity
   8
基礎（５００）
 370
13
 100
AcDbLine
   6
CONTINUOUS
  62
5
  10
 1118.3464427374
  20
 1057.5755309768
  30
0.0
  11
 1332.5617619012
  21
 1271.7908501406
  31
0.0
   0
LINE
   5
262
 100
AcDbEntity
   8
基礎（５００）
 370
13
 100
AcDbLine
   6
CONTINUOUS
  62
5
  10
 1330.1960331488
  20
 1241.1408501407
  30
0.0
  11
 1118.3464427374
  21
 1029.2912597293
  31
0.0
   0
LINE
   5
263
 100
AcDbEntity
   8
基礎（５００）
 370
13
 100
AcDbLine
   6
CONTINUOUS
  62
5
  10
 1118.3464427374
  20
 1001.0069884819
  30
0.0
  11
 1330.1960331488
  21
 1212.8565788933
  31
0.0
   0
LEADER
   5
264
 100
AcDbEntity
   8
LEVEL001
 370
13
   6
CONTINUOUS
  62
6
 100
AcDbLeader
   3
GMM009
  73
0
  74
0
  75
0
  40
 66.000000000000
  41
 676.00000000000
  76
2
  10
 1505.4485066470
  20
 4700.8970857462
  30
0.0
  10
 1655.1563441868
  20
 5002.6258331781
  30
0.0
  77
6
 340
265
 213
0.0
 223
-28.285714285715
 233
0.0
   0
MTEXT
   5
265
 102
{ACAD_REACTORS
 330
264
 102
}
 100
AcDbEntity
   8
LEVEL001
 370
13
  62
1
 100
AcDbMText
  10
 1655.1563441868
  20
 5030.9115474638
  30
0.0
  40
 66.000000000000
  41
0.0
  71
7
  72
1
   1
\A1;表面：超親水性コーティング
   7
GMM002
   0
LINE
   5
266
 100
AcDbEntity
   8
LEVEL001
 370
13
 100
AcDbLine
   6
CONTINUOUS
  62
6
  10
 5579.2551240578
  20
 1507.5755309759
  30
0.0
  11
 8095.0129032659
  21
 1507.5755309759
  31
0.0
   0
LINE
   5
267
 100
AcDbEntity
   8
LEVEL001
 370
13
 100
AcDbLine
   6
CONTINUOUS
  62
6
  10
 5579.2551240578
  20
 1377.5755309759
  30
0.0
  11
 8095.0129032659
  21
 1377.5755309759
  31
0.0
   0
LINE
   5
268
 100
AcDbEntity
   8
LEVEL001
 370
13
 100
AcDbLine
   6
CONTINUOUS
  62
6
  10
 5579.2551240578
  20
 1247.5755309759
  30
0.0
  11
 8095.0129032659
  21
 1247.5755309759
  31
0.0
   0
LINE
   5
269
 100
AcDbEntity
   8
LEVEL001
 370
13
 100
AcDbLine
   6
CONTINUOUS
  62
6
  10
 5579.2551240578
  20
 1117.5755309759
  30
0.0
  11
 8095.0129032659
  21
 1117.5755309759
  31
0.0
   0
MTEXT
   5
26B
 100
AcDbEntity
   8
LEVEL001
 370
13
  62
1
 100
AcDbMText
  10
 5750.2340978119
  20
 1141.1491386718
  30
0.0
  40
 80.000000000000
  41
0.0
  71
9
  72
1
   1
\T1.000000;１３
   7
GMM005
  44
 0.79999984000003
   0
MTEXT
   5
26D
 100
AcDbEntity
   8
LEVEL001
 370
13
  62
1
 100
AcDbMText
  10
 5750.2340978119
  20
 1271.1491386718
  30
0.0
  40
 80.000000000000
  41
0.0
  71
9
  72
1
   1
\T1.000000;１２
   7
GMM005
  44
 0.79999984000003
   0
MTEXT
   5
26F
 100
AcDbEntity
   8
LEVEL001
 370
13
  62
1
 100
AcDbMText
  10
 5750.2340978119
  20
 1401.1491386718
  30
0.0
  40
 80.000000000000
  41
0.0
  71
9
  72
1
   1
\T1.000000;１１
   7
GMM005
  44
 0.79999984000003
   0
LINE
   5
270
 100
AcDbEntity
   8
LEVEL001
 370
13
 100
AcDbLine
   6
CONTINUOUS
  62
6
  10
 5579.2551240578
  20
 987.57553097592
  30
0.0
  11
 8095.0129032659
  21
 987.57553097592
  31
0.0
   0
MTEXT
   5
272
 100
AcDbEntity
   8
LEVEL001
 370
13
  62
1
 100
AcDbMText
  10
 5750.2340978119
  20
 1011.1491386718
  30
0.0
  40
 80.000000000000
  41
0.0
  71
9
  72
1
   1
\T1.000000;１４
   7
GMM005
  44
 0.79999984000003
   0
MTEXT
   5
274
 100
AcDbEntity
   8
LEVEL001
 370
13
  62
1
 100
AcDbMText
  10
 5750.2340978119
  20
 881.14913867181
  30
0.0
  40
 80.000000000000
  41
0.0
  71
9
  72
1
   1
\T1.000000;１５
   7
GMM005
  44
 0.79999984000003
   0
MTEXT
   5
276
 100
AcDbEntity
   8
LEVEL001
 370
13
  62
1
 100
AcDbMText
  10
 5829.2551240578
  20
 881.14913867181
  30
0.0
  40
 80.000000000000
  41
0.0
  71
7
  72
1
   1
\T1.000000;同上ボルトナット
   7
GMM006
  44
 0.79999984000003
   0
MTEXT
   5
278
 100
AcDbEntity
   8
LEVEL001
 370
13
  62
1
 100
AcDbMText
  10
 5829.2551240578
  20
 1011.1491386718
  30
0.0
  40
 80.000000000000
  41
0.0
  71
7
  72
1
   1
\T1.000000;注意板取付バンド
   7
GMM006
  44
 0.79999984000003
   0
MTEXT
   5
27A
 100
AcDbEntity
   8
LEVEL001
 370
13
  62
1
 100
AcDbMText
  10
 6800.2340978119
  20
 1141.1491386718
  30
0.0
  40
 80.000000000000
  41
0.0
  71
9
  72
1
   1
\T1.000000;１
   7
GMM006
  44
 0.79999984000003
   0
MTEXT
   5
27C
 100
AcDbEntity
   8
LEVEL001
 370
13
  62
1
 100
AcDbMText
  10
 5829.2551240578
  20
 1271.1491386718
  30
0.0
  40
 80.000000000000
  41
0.0
  71
7
  72
1
   1
\T1.000000;キャップ
   7
GMM006
  44
 0.79999984000003
   0
MTEXT
   5
27E
 100
AcDbEntity
   8
LEVEL001
 370
13
  62
1
 100
AcDbMText
  10
 6800.2340978119
  20
 1271.1491386718
  30
0.0
  40
 80.000000000000
  41
0.0
  71
9
  72
1
   1
\T1.000000;１
   7
GMM006
  44
 0.79999984000003
   0
MTEXT
   5
280
 100
AcDbEntity
   8
LEVEL001
 370
13
  62
1
 100
AcDbMText
  10
 6879.2551240578
  20
 1271.1491386718
  30
0.0
  40
 80.000000000000
  41
0.0
  71
7
  72
1
   1
\T1.000000;ＰＥ
   7
GMM006
  44
 0.79999984000003
   0
MTEXT
   5
282
 100
AcDbEntity
   8
LEVEL001
 370
13
  62
1
 100
AcDbMText
  10
 5829.2551240578
  20
 1401.1491386718
  30
0.0
  40
 80.000000000000
  41
0.0
  71
7
  72
1
   1
\T1.000000;根入れ鉄筋
   7
GMM006
  44
 0.79999984000003
   0
MTEXT
   5
284
 100
AcDbEntity
   8
LEVEL001
 370
13
  62
1
 100
AcDbMText
  10
 6800.2340978119
  20
 1401.1491386718
  30
0.0
  40
 80.000000000000
  41
0.0
  71
9
  72
1
   1
\T1.000000;１
   7
GMM006
  44
 0.79999984000003
   0
MTEXT
   5
286
 100
AcDbEntity
   8
LEVEL001
 370
13
  62
1
 100
AcDbMText
  10
 6879.2551240578
  20
 1401.1491386718
  30
0.0
  40
 80.000000000000
  41
0.0
  71
7
  72
1
   1
\T1.000000;ＳＤ２９５Ａ
   7
GMM006
  44
 0.79999984000003
   0
LINE
   5
287
 100
AcDbEntity
   8
LEVEL001
 370
13
 100
AcDbLine
   6
CONTINUOUS
  62
6
  10
 5579.2551240578
  20
 1767.5755309759
  30
0.0
  11
 8095.0129032659
  21
 1767.5755309759
  31
0.0
   0
LINE
   5
288
 100
AcDbEntity
   8
LEVEL001
 370
13
 100
AcDbLine
   6
CONTINUOUS
  62
6
  10
 5579.2551240578
  20
 1897.5755309759
  30
0.0
  11
 8095.0129032659
  21
 1897.5755309759
  31
0.0
   0
LINE
   5
289
 100
AcDbEntity
   8
LEVEL001
 370
13
 100
AcDbLine
   6
CONTINUOUS
  62
6
  10
 5579.2551240578
  20
 2027.5755309759
  30
0.0
  11
 8095.0129032659
  21
 2027.5755309759
  31
0.0
   0
LINE
   5
28A
 100
AcDbEntity
   8
LEVEL001
 370
13
 100
AcDbLine
   6
CONTINUOUS
  62
6
  10
 5579.2551240578
  20
 2157.5755309759
  30
0.0
  11
 8095.0129032659
  21
 2157.5755309759
  31
0.0
   0
LINE
   5
28B
 100
AcDbEntity
   8
LEVEL001
 370
13
 100
AcDbLine
   6
CONTINUOUS
  62
6
  10
 5579.2551240578
  20
 2287.5755309759
  30
0.0
  11
 8095.0129032659
  21
 2287.5755309759
  31
0.0
   0
LINE
   5
28C
 100
AcDbEntity
   8
LEVEL001
 370
13
 100
AcDbLine
   6
CONTINUOUS
  62
6
  10
 5579.2551240578
  20
 2417.5755309759
  30
0.0
  11
 8095.0129032659
  21
 2417.5755309759
  31
0.0
   0
LINE
   5
28D
 100
AcDbEntity
   8
LEVEL001
 370
13
 100
AcDbLine
   6
CONTINUOUS
  62
6
  10
 5579.2551240578
  20
 2547.5755309759
  30
0.0
  11
 8095.0129032659
  21
 2547.5755309759
  31
0.0
   0
LINE
   5
28E
 100
AcDbEntity
   8
LEVEL001
 370
13
 100
AcDbLine
   6
CONTINUOUS
  62
6
  10
 5579.2551240578
  20
 2677.5755309759
  30
0.0
  11
 8095.0129032659
  21
 2677.5755309759
  31
0.0
   0
LINE
   5
28F
 100
AcDbEntity
   8
LEVEL001
 370
13
 100
AcDbLine
   6
CONTINUOUS
  62
6
  10
 5579.2551240578
  20
 2807.5755309759
  30
0.0
  11
 8095.0129032659
  21
 2807.5755309759
  31
0.0
   0
MTEXT
   5
291
 100
AcDbEntity
   8
LEVEL001
 370
13
  62
1
 100
AcDbMText
  10
 5750.2340978119
  20
 1661.1491386718
  30
0.0
  40
 80.000000000000
  41
0.0
  71
9
  72
1
   1
\T1.000000;１０
   7
GMM005
  44
 0.79999984000003
   0
MTEXT
   5
293
 100
AcDbEntity
   8
LEVEL001
 370
13
  62
1
 100
AcDbMText
  10
 5750.2340978119
  20
 1791.1491386718
  30
0.0
  40
 80.000000000000
  41
0.0
  71
9
  72
1
   1
\T1.000000;９
   7
GMM005
  44
 0.79999984000003
   0
MTEXT
   5
295
 100
AcDbEntity
   8
LEVEL001
 370
13
  62
1
 100
AcDbMText
  10
 5750.2340978119
  20
 1921.1491386718
  30
0.0
  40
 80.000000000000
  41
0.0
  71
9
  72
1
   1
\T1.000000;８
   7
GMM005
  44
 0.79999984000003
   0
MTEXT
   5
297
 100
AcDbEntity
   8
LEVEL001
 370
13
  62
1
 100
AcDbMText
  10
 5750.2340978119
  20
 2051.1491386718
  30
0.0
  40
 80.000000000000
  41
0.0
  71
9
  72
1
   1
\T1.000000;７
   7
GMM005
  44
 0.79999984000003
   0
MTEXT
   5
299
 100
AcDbEntity
   8
LEVEL001
 370
13
  62
1
 100
AcDbMText
  10
 5750.2340978119
  20
 2181.1491386718
  30
0.0
  40
 80.000000000000
  41
0.0
  71
9
  72
1
   1
\T1.000000;６
   7
GMM005
  44
 0.79999984000003
   0
MTEXT
   5
29B
 100
AcDbEntity
   8
LEVEL001
 370
13
  62
1
 100
AcDbMText
  10
 5750.2340978119
  20
 2311.1491386718
  30
0.0
  40
 80.000000000000
  41
0.0
  71
9
  72
1
   1
\T1.000000;５
   7
GMM005
  44
 0.79999984000003
   0
MTEXT
   5
29D
 100
AcDbEntity
   8
LEVEL001
 370
13
  62
1
 100
AcDbMText
  10
 5750.2340978119
  20
 2441.1491386718
  30
0.0
  40
 80.000000000000
  41
0.0
  71
9
  72
1
   1
\T1.000000;４
   7
GMM005
  44
 0.79999984000003
   0
MTEXT
   5
29F
 100
AcDbEntity
   8
LEVEL001
 370
13
  62
1
 100
AcDbMText
  10
 5750.2340978119
  20
 2571.1491386718
  30
0.0
  40
 80.000000000000
  41
0.0
  71
9
  72
1
   1
\T1.000000;３
   7
GMM005
  44
 0.79999984000003
   0
MTEXT
   5
2A1
 100
AcDbEntity
   8
LEVEL001
 370
13
  62
1
 100
AcDbMText
  10
 6800.2340978119
  20
 2571.1491386718
  30
0.0
  40
 80.000000000000
  41
0.0
  71
9
  72
1
   1
\T1.000000;１
   7
GMM006
  44
 0.79999984000003
   0
MTEXT
   5
2A3
 100
AcDbEntity
   8
LEVEL001
 370
13
  62
1
 100
AcDbMText
  10
 5829.2551240578
  20
 2571.1491386718
  30
0.0
  40
 80.000000000000
  41
0.0
  71
7
  72
1
   1
\T1.000000;フード
   7
GMM006
  44
 0.79999984000003
   0
MTEXT
   5
2A5
 100
AcDbEntity
   8
LEVEL001
 370
13
  62
1
 100
AcDbMText
  10
 5750.2340978119
  20
 2701.1491386718
  30
0.0
  40
 80.000000000000
  41
0.0
  71
9
  72
1
   1
\T1.000000;２
   7
GMM005
  44
 0.79999984000003
   0
MTEXT
   5
2A7
 100
AcDbEntity
   8
LEVEL001
 370
13
  62
1
 100
AcDbMText
  10
 6800.2340978119
  20
 2701.1491386718
  30
0.0
  40
 80.000000000000
  41
0.0
  71
9
  72
1
   1
\T1.000000;１
   7
GMM006
  44
 0.79999984000003
   0
MTEXT
   5
2A9
 100
AcDbEntity
   8
LEVEL001
 370
13
  62
1
 100
AcDbMText
  10
 5829.2551240578
  20
 2701.1491386718
  30
0.0
  40
 80.000000000000
  41
0.0
  71
7
  72
1
   1
\T1.000000;バックプレート
   7
GMM006
  44
 0.79999984000003
   0
MTEXT
   5
2AB
 100
AcDbEntity
   8
LEVEL001
 370
13
  62
1
 100
AcDbMText
  10
 6879.2551240578
  20
 2701.1491386718
  30
0.0
  40
 80.000000000000
  41
0.0
  71
7
  72
1
   1
\T1.000000;ＦＲＰ
   7
GMM006
  44
 0.79999984000003
   0
MTEXT
   5
2AD
 100
AcDbEntity
   8
LEVEL001
 370
13
  62
1
 100
AcDbMText
  10
 6879.2551240578
  20
 2571.1491386718
  30
0.0
  40
 80.000000000000
  41
0.0
  71
7
  72
1
   1
\T1.000000;ＰＣ
   7
GMM006
  44
 0.79999984000003
   0
MTEXT
   5
2AF
 100
AcDbEntity
   8
LEVEL001
 370
13
  62
1
 100
AcDbMText
  10
 5829.2551240578
  20
 1661.1491386718
  30
0.0
  40
 80.000000000000
  41
0.0
  71
7
  72
1
   1
\T1.000000;支柱
   7
GMM006
  44
 0.79999984000003
   0
MTEXT
   5
2B1
 100
AcDbEntity
   8
LEVEL001
 370
13
  62
1
 100
AcDbMText
  10
 6800.2340978119
  20
 1661.1491386718
  30
0.0
  40
 80.000000000000
  41
0.0
  71
9
  72
1
   1
\T1.000000;１
   7
GMM006
  44
 0.79999984000003
   0
MTEXT
   5
2B3
 100
AcDbEntity
   8
LEVEL001
 370
13
  62
1
 100
AcDbMText
  10
 6879.2551240578
  20
 1661.1491386718
  30
0.0
  40
 80.000000000000
  41
0.0
  71
7
  72
1
   1
\T1.000000;ＳＴＫ４００
   7
GMM006
  44
 0.79999984000003
   0
MTEXT
   5
2B5
 100
AcDbEntity
   8
LEVEL001
 370
13
  62
1
 100
AcDbMText
  10
 6879.2551240578
  20
 1791.1491386718
  30
0.0
  40
 80.000000000000
  41
0.0
  71
7
  72
1
   1
\T1.000000;ＳＳ４００
   7
GMM006
  44
 0.79999984000003
   0
MTEXT
   5
2B7
 100
AcDbEntity
   8
LEVEL001
 370
13
  62
1
 100
AcDbMText
  10
 5829.2551240578
  20
 1791.1491386718
  30
0.0
  40
 80.000000000000
  41
0.0
  71
7
  72
1
   1
\T1.000000;金具締付ボルトナット
   7
GMM006
  44
 0.79999984000003
   0
MTEXT
   5
2B9
 100
AcDbEntity
   8
LEVEL001
 370
13
  62
1
 100
AcDbMText
  10
 6879.2551240578
  20
 1921.1491386718
  30
0.0
  40
 80.000000000000
  41
0.0
  71
7
  72
1
   1
\T1.000000;ＳＳ４００
   7
GMM006
  44
 0.79999984000003
   0
MTEXT
   5
2BB
 100
AcDbEntity
   8
LEVEL001
 370
13
  62
1
 100
AcDbMText
  10
 5829.2551240578
  20
 1921.1491386718
  30
0.0
  40
 80.000000000000
  41
0.0
  71
7
  72
1
   1
\T1.000000;裏板金具取付ボルト
   7
GMM006
  44
 0.79999984000003
   0
MTEXT
   5
2BD
 100
AcDbEntity
   8
LEVEL001
 370
13
  62
1
 100
AcDbMText
  10
 6800.2340978119
  20
 1921.1491386718
  30
0.0
  40
 80.000000000000
  41
0.0
  71
9
  72
1
   1
\T1.000000;４
   7
GMM006
  44
 0.79999984000003
   0
MTEXT
   5
2BF
 100
AcDbEntity
   8
LEVEL001
 370
13
  62
1
 100
AcDbMText
  10
 6879.2551240578
  20
 2051.1491386718
  30
0.0
  40
 80.000000000000
  41
0.0
  71
7
  72
1
   1
\T1.000000;ＳＳ４００
   7
GMM006
  44
 0.79999984000003
   0
MTEXT
   5
2C1
 100
AcDbEntity
   8
LEVEL001
 370
13
  62
1
 100
AcDbMText
  10
 5829.2551240578
  20
 2051.1491386718
  30
0.0
  40
 80.000000000000
  41
0.0
  71
7
  72
1
   1
\T1.000000;支柱取付金具
   7
GMM006
  44
 0.79999984000003
   0
MTEXT
   5
2C3
 100
AcDbEntity
   8
LEVEL001
 370
13
  62
1
 100
AcDbMText
  10
 5829.2551240578
  20
 2181.1491386718
  30
0.0
  40
 80.000000000000
  41
0.0
  71
7
  72
1
   1
\T1.000000;裏板取付金具
   7
GMM006
  44
 0.79999984000003
   0
MTEXT
   5
2C5
 100
AcDbEntity
   8
LEVEL001
 370
13
  62
1
 100
AcDbMText
  10
 6879.2551240578
  20
 2181.1491386718
  30
0.0
  40
 80.000000000000
  41
0.0
  71
7
  72
1
   1
\T1.000000;ＳＳ４００
   7
GMM006
  44
 0.79999984000003
   0
MTEXT
   5
2C7
 100
AcDbEntity
   8
LEVEL001
 370
13
  62
1
 100
AcDbMText
  10
 6800.2340978119
  20
 1791.1491386718
  30
0.0
  40
 80.000000000000
  41
0.0
  71
9
  72
1
   1
\T1.000000;４
   7
GMM006
  44
 0.79999984000003
   0
MTEXT
   5
2C9
 100
AcDbEntity
   8
LEVEL001
 370
13
  62
1
 100
AcDbMText
  10
 6800.2340978119
  20
 2441.1491386718
  30
0.0
  40
 80.000000000000
  41
0.0
  71
9
  72
1
   1
\T1.000000;１
   7
GMM006
  44
 0.79999984000003
   0
MTEXT
   5
2CB
 100
AcDbEntity
   8
LEVEL001
 370
13
  62
1
 100
AcDbMText
  10
 5829.2551240578
  20
 2441.1491386718
  30
0.0
  40
 80.000000000000
  41
0.0
  71
7
  72
1
   1
\T1.000000;取付枠
   7
GMM006
  44
 0.79999984000003
   0
MTEXT
   5
2CD
 100
AcDbEntity
   8
LEVEL001
 370
13
  62
1
 100
AcDbMText
  10
 6879.2551240578
  20
 2441.1491386718
  30
0.0
  40
 80.000000000000
  41
0.0
  71
7
  72
1
   1
\T1.000000;アルミニウム
   7
GMM006
  44
 0.79999984000003
   0
MTEXT
   5
2CF
 100
AcDbEntity
   8
LEVEL001
 370
13
  62
1
 100
AcDbMText
  10
 5829.2551240578
  20
 2311.1491386718
  30
0.0
  40
 80.000000000000
  41
0.0
  71
7
  72
1
   1
\T1.000000;取付枠付リベット
   7
GMM006
  44
 0.79999984000003
   0
MTEXT
   5
2D1
 100
AcDbEntity
   8
LEVEL001
 370
13
  62
1
 100
AcDbMText
  10
 6800.2340978119
  20
 2311.1491386718
  30
0.0
  40
 80.000000000000
  41
0.0
  71
9
  72
1
   1
\T1.000000;７
   7
GMM006
  44
 0.79999984000003
   0
MTEXT
   5
2D3
 100
AcDbEntity
   8
LEVEL001
 370
13
  62
1
 100
AcDbMText
  10
 6879.2551240578
  20
 2311.1491386718
  30
0.0
  40
 80.000000000000
  41
0.0
  71
7
  72
1
   1
\T1.000000;アルミニウム
   7
GMM006
  44
 0.79999984000003
   0
MTEXT
   5
2D5
 100
AcDbEntity
   8
LEVEL001
 370
13
  62
1
 100
AcDbMText
  10
 6800.2340978119
  20
 2181.1491386718
  30
0.0
  40
 80.000000000000
  41
0.0
  71
9
  72
1
   1
\T1.000000;１
   7
GMM006
  44
 0.79999984000003
   0
MTEXT
   5
2D7
 100
AcDbEntity
   8
LEVEL001
 370
13
  62
1
 100
AcDbMText
  10
 6800.2340978119
  20
 2051.1491386718
  30
0.0
  40
 80.000000000000
  41
0.0
  71
9
  72
1
   1
\T1.000000;１
   7
GMM006
  44
 0.79999984000003
   0
MTEXT
   5
2D9
 100
AcDbEntity
   8
LEVEL001
 370
13
  62
1
 100
AcDbMText
  10
 7399.2551240578
  20
 1661.1491386718
  30
0.0
  40
 80.000000000000
  41
0.0
  71
7
  72
1
   1
\T1.000000;静電粉体塗装
   7
GMM006
  44
 0.79999984000003
   0
MTEXT
   5
2DB
 100
AcDbEntity
   8
LEVEL001
 370
13
  62
1
 100
AcDbMText
  10
 7399.2551240578
  20
 1791.1491386718
  30
0.0
  40
 80.000000000000
  41
0.0
  71
7
  72
1
   1
\T1.000000;溶融亜鉛メッキ
   7
GMM006
  44
 0.79999984000003
   0
MTEXT
   5
2DD
 100
AcDbEntity
   8
LEVEL001
 370
13
  62
1
 100
AcDbMText
  10
 7399.2551240578
  20
 1921.1491386718
  30
0.0
  40
 80.000000000000
  41
0.0
  71
7
  72
1
   1
\T1.000000;溶融亜鉛メッキ
   7
GMM006
  44
 0.79999984000003
   0
MTEXT
   5
2DF
 100
AcDbEntity
   8
LEVEL001
 370
13
  62
1
 100
AcDbMText
  10
 7399.2551240578
  20
 2051.1491386718
  30
0.0
  40
 80.000000000000
  41
0.0
  71
7
  72
1
   1
\T1.000000;溶融亜鉛メッキ
   7
GMM006
  44
 0.79999984000003
   0
MTEXT
   5
2E1
 100
AcDbEntity
   8
LEVEL001
 370
13
  62
1
 100
AcDbMText
  10
 7399.2551240578
  20
 2181.1491386718
  30
0.0
  40
 80.000000000000
  41
0.0
  71
7
  72
1
   1
\T1.000000;溶融亜鉛メッキ
   7
GMM006
  44
 0.79999984000003
   0
MTEXT
   5
2E3
 100
AcDbEntity
   8
LEVEL001
 370
13
  62
1
 100
AcDbMText
  10
 7399.2551240578
  20
 2701.1491386718
  30
0.0
  40
 80.000000000000
  41
0.0
  71
7
  72
1
   1
\T1.000000;ＳＭＣ成型
   7
GMM006
  44
 0.79999984000003
   0
LINE
   5
2E4
 100
AcDbEntity
   8
LEVEL001
 370
13
 100
AcDbLine
   6
CONTINUOUS
  62
6
  10
 5579.2551240578
  20
 3337.5755309759
  30
0.0
  11
 8095.0129032659
  21
 3337.5755309759
  31
0.0
   0
LINE
   5
2E5
 100
AcDbEntity
   8
LEVEL001
 370
13
 100
AcDbLine
   6
CONTINUOUS
  62
6
  10
 5579.2551240578
  20
 3637.5755309759
  30
0.0
  11
 8095.0129032659
  21
 3637.5755309759
  31
0.0
   0
MTEXT
   5
2E7
 100
AcDbEntity
   8
LEVEL001
 370
13
  62
1
 100
AcDbMText
  10
 5750.2340978119
  20
 3091.1491386718
  30
0.0
  40
 80.000000000000
  41
0.0
  71
9
  72
1
   1
\T1.000000;１
   7
GMM005
  44
 0.79999984000003
   0
MTEXT
   5
2E9
 100
AcDbEntity
   8
LEVEL001
 370
13
  62
1
 100
AcDbMText
  10
 6800.2340978119
  20
 3091.1491386718
  30
0.0
  40
 80.000000000000
  41
0.0
  71
9
  72
1
   1
\T1.000000;１
   7
GMM006
  44
 0.79999984000003
   0
MTEXT
   5
2EB
 100
AcDbEntity
   8
LEVEL001
 370
13
  62
1
 100
AcDbMText
  10
 5829.2551240578
  20
 3091.1491386718
  30
0.0
  40
 80.000000000000
  41
0.0
  71
7
  72
1
   1
\T1.000000;鏡面　Ｒ＝２２００
   7
GMM006
  44
 0.79999984000003
   0
MTEXT
   5
2ED
 100
AcDbEntity
   8
LEVEL001
 370
13
  62
1
 100
AcDbMText
  10
 6729.2551240578
  20
 3267.5755309759
  30
0.0
  40
 80.000000000000
  41
0.0
  71
5
  72
1
   1
\T1.000000;個数
   7
GMM006
  44
 0.79999984000003
   0
MTEXT
   5
2EF
 100
AcDbEntity
   8
LEVEL001
 370
13
  62
1
 100
AcDbMText
  10
 6204.2551240578
  20
 3267.5755309759
  30
0.0
  40
 80.000000000000
  41
0.0
  71
5
  72
1
   1
\T1.000000;名　　称
   7
GMM006
  44
 0.79999984000003
   0
MTEXT
   5
2F1
 100
AcDbEntity
   8
LEVEL001
 370
13
  62
1
 100
AcDbMText
  10
 5744.6829815335
  20
 3379.7300707352
  30
0.0
  40
 80.000000000000
  41
0.0
  71
7
  72
1
   1
%%c\T1.000000;６００（シングル）
   7
GMM001
  44
 0.79999984000003
   0
LINE
   5
2F2
 100
AcDbEntity
   8
LEVEL001
 370
13
 100
AcDbLine
   6
CONTINUOUS
  62
6
  10
 5579.2551240578
  20
 3197.5755309759
  30
0.0
  11
 8095.0129032659
  21
 3197.5755309759
  31
0.0
   0
MTEXT
   5
2F4
 100
AcDbEntity
   8
LEVEL001
 370
13
  62
1
 100
AcDbMText
  10
 5744.6829815335
  20
 3517.0823615637
  30
0.0
  40
 80.000000000000
  41
0.0
  71
7
  72
1
   1
\T1.000000;アクリーン＜Ｆタイプ＞
   7
GMM001
  44
 0.79999984000003
   0
MTEXT
   5
2F6
 100
AcDbEntity
   8
LEVEL001
 370
13
  62
1
 100
AcDbMText
  10
 6879.2551240578
  20
 3091.1491386718
  30
0.0
  40
 80.000000000000
  41
0.0
  71
4
  72
1
   1
{\W0.900000;\T1.000000;ＰＭＭＡ}\P{\W0.450000;\T1.000000;(\W0.900000;\T1.000000;アクリル\W0.450000;\T1.000000;)}
   7
GMM006
  44
 0.79999984000003
   0
MTEXT
   5
2F8
 100
AcDbEntity
   8
LEVEL001
 370
13
  62
1
 100
AcDbMText
  10
 7089.2551240578
  20
 3267.5755309759
  30
0.0
  40
 80.000000000000
  41
0.0
  71
5
  72
1
   1
\T1.000000;材　　質
   7
GMM006
  44
 0.79999984000003
   0
MTEXT
   5
2FA
 100
AcDbEntity
   8
LEVEL001
 370
13
  62
1
 100
AcDbMText
  10
 7722.1340136619
  20
 3267.5755309759
  30
0.0
  40
 80.000000000000
  41
0.0
  71
5
  72
1
   1
\T1.000000;規格仕様
   7
GMM006
  44
 0.79999984000003
   0
MTEXT
   5
2FC
 100
AcDbEntity
   8
LEVEL001
 370
13
  62
1
 100
AcDbMText
  10
 7399.2551240578
  20
 3171.1491386718
  30
0.0
  40
 80.000000000000
  41
0.0
  71
1
  72
1
   1
{\W0.325000;\T1.000000;t=3.0mm}\P{\W0.650000;\T1.000000;裏面：真空蒸着}\P{\W0.650000;\T1.000000;表面：超親水性コーティング}
   7
GMM007
  44
 0.79999984000003
   0
MTEXT
   5
2FE
 100
AcDbEntity
   8
LEVEL001
 370
13
  62
1
 100
AcDbMText
  10
 5635.6613567141
  20
 3881.8868862873
  30
0.0
  40
 80.000000000000
  41
0.0
  71
4
  72
1
   1
{\T1.000000;※構成部材は改良のため、変更する場合があります。}\P{\T1.000000;※本図は道路反射鏡ハンドブックに基づいています。}
   7
GMM006
  44
 0.94999981000004
   0
LINE
   5
2FF
 100
AcDbEntity
   8
LEVEL001
 370
13
 100
AcDbLine
   6
CONTINUOUS
  62
6
  10
 5579.2551240578
  20
 3337.5755309759
  30
0.0
  11
 8095.0129032659
  21
 3337.5755309759
  31
0.0
   0
LINE
   5
300
 100
AcDbEntity
   8
LEVEL001
 370
13
 100
AcDbLine
   6
CONTINUOUS
  62
6
  10
 7349.2551240578
  20
 3337.5755309759
  30
0.0
  11
 7349.2551240578
  21
 857.57553097592
  31
0.0
   0
LINE
   5
301
 100
AcDbEntity
   8
LEVEL001
 370
13
 100
AcDbLine
   6
CONTINUOUS
  62
6
  10
 6829.2551240578
  20
 3337.5755309759
  30
0.0
  11
 6829.2551240578
  21
 857.57553097592
  31
0.0
   0
LINE
   5
302
 100
AcDbEntity
   8
LEVEL001
 370
13
 100
AcDbLine
   6
CONTINUOUS
  62
6
  10
 6629.2551240578
  20
 3337.5755309759
  30
0.0
  11
 6629.2551240578
  21
 857.57553097592
  31
0.0
   0
LINE
   5
303
 100
AcDbEntity
   8
LEVEL001
 370
13
 100
AcDbLine
   6
CONTINUOUS
  62
6
  10
 5779.2551240578
  20
 3337.5755309759
  30
0.0
  11
 5779.2551240578
  21
 857.57553097592
  31
0.0
   0
LINE
   5
304
 100
AcDbEntity
   8
LEVEL001
 370
13
 100
AcDbLine
   6
CONTINUOUS
  62
6
  10
 5579.2551240578
  20
 3637.5755309759
  30
0.0
  11
 5579.2551240578
  21
 857.57553097592
  31
0.0
   0
LINE
   5
305
 100
AcDbEntity
   8
LEVEL001
 370
13
 100
AcDbLine
   6
CONTINUOUS
  62
6
  10
 8095.0129032659
  20
 857.57553097592
  30
0.0
  11
 8095.0129032659
  21
 3637.5755309759
  31
0.0
   0
MTEXT
   5
307
 100
AcDbEntity
   8
LEVEL001
 370
13
  62
1
 100
AcDbMText
  10
 6879.2551240578
  20
 1141.1491386718
  30
0.0
  40
 80.000000000000
  41
0.0
  71
7
  72
1
   1
\T1.000000;―
   7
GMM006
  44
 0.79999984000003
   0
MTEXT
   5
309
 100
AcDbEntity
   8
LEVEL001
 370
13
  62
1
 100
AcDbMText
  10
 6879.2551240578
  20
 1011.1491386718
  30
0.0
  40
 80.000000000000
  41
0.0
  71
7
  72
1
   1
\T1.000000;―
   7
GMM006
  44
 0.79999984000003
   0
MTEXT
   5
30B
 100
AcDbEntity
   8
LEVEL001
 370
13
  62
1
 100
AcDbMText
  10
 6800.2340978119
  20
 1011.1491386718
  30
0.0
  40
 80.000000000000
  41
0.0
  71
9
  72
1
   1
\T1.000000;１式
   7
GMM006
  44
 0.79999984000003
   0
MTEXT
   5
30D
 100
AcDbEntity
   8
LEVEL001
 370
13
  62
1
 100
AcDbMText
  10
 6800.2340978119
  20
 881.14913867181
  30
0.0
  40
 80.000000000000
  41
0.0
  71
9
  72
1
   1
\T1.000000;１式
   7
GMM006
  44
 0.79999984000003
   0
MTEXT
   5
30F
 100
AcDbEntity
   8
LEVEL001
 370
13
  62
1
 100
AcDbMText
  10
 6879.2551240578
  20
 881.14913867181
  30
0.0
  40
 80.000000000000
  41
0.0
  71
7
  72
1
   1
\T1.000000;―
   7
GMM006
  44
 0.79999984000003
   0
MTEXT
   5
311
 100
AcDbEntity
   8
LEVEL001
 370
13
  62
1
 100
AcDbMText
  10
 7399.2551240578
  20
 881.14913867181
  30
0.0
  40
 80.000000000000
  41
0.0
  71
7
  72
1
   1
\T1.000000;―
   7
GMM006
  44
 0.79999984000003
   0
MTEXT
   5
313
 100
AcDbEntity
   8
LEVEL001
 370
13
  62
1
 100
AcDbMText
  10
 7399.2551240578
  20
 1011.1491386718
  30
0.0
  40
 80.000000000000
  41
0.0
  71
7
  72
1
   1
\T1.000000;―
   7
GMM006
  44
 0.79999984000003
   0
MTEXT
   5
315
 100
AcDbEntity
   8
LEVEL001
 370
13
  62
1
 100
AcDbMText
  10
 7399.2551240578
  20
 1141.1491386718
  30
0.0
  40
 80.000000000000
  41
0.0
  71
7
  72
1
   1
\T1.000000;―
   7
GMM006
  44
 0.79999984000003
   0
MTEXT
   5
317
 100
AcDbEntity
   8
LEVEL001
 370
13
  62
1
 100
AcDbMText
  10
 6800.2340978119
  20
 1531.1491386718
  30
0.0
  40
 80.000000000000
  41
0.0
  71
9
  72
1
   1
\T1.000000;１
   7
GMM006
  44
 0.79999984000003
   0
MTEXT
   5
319
 100
AcDbEntity
   8
LEVEL001
 370
13
  62
1
 100
AcDbMText
  10
 6879.2551240578
  20
 1531.1491386718
  30
0.0
  40
 80.000000000000
  41
0.0
  71
7
  72
1
   1
\T1.000000;ＳＴＫ４００
   7
GMM006
  44
 0.79999984000003
   0
LINE
   5
31A
 100
AcDbEntity
   8
LEVEL001
 370
13
 100
AcDbLine
   6
CONTINUOUS
  62
6
  10
 6629.2551240578
  20
 1637.5755309759
  30
0.0
  11
 8095.0129032659
  21
 1637.5755309759
  31
0.0
   0
MTEXT
   5
31C
 100
AcDbEntity
   8
LEVEL001
 370
13
  62
1
 100
AcDbMText
  10
 1713.0053611403
  20
 2669.0629839765
  30
0.0
  40
 66.000000000000
  41
0.0
  71
1
  72
1
   1
{\W0.787879;\T1.000000;支柱}\P%%c{\W0.787879;\T1.000000;７６\W0.393939;\T1.000000;.\W0.787879;\T1.000000;３ｘ３\W0.393939;\T1.000000;.\W0.787879;\T1.000000;２ｔ}\P{\W0.787879;\T1.000000;ｘ３６００Ｌ}
   7
GMM002
  44
 0.79999984000003
   0
MTEXT
   5
31D
 100
AcDbEntity
   8
LEVEL001
 370
13
  62
1
 100
AcDbMText
  10
 5602.1815309843
  20
 801.36050121401
  30
0.0
  40
 37.142860000000
  41
0.0
  71
7
  72
1
   1
\T1.269231;図面番号
   7
GMM008
  44
 0.79999984000003
   0
MTEXT
   5
31F
 100
AcDbEntity
   8
LEVEL001
 370
13
  62
1
 100
AcDbMText
  10
 6399.2551240578
  20
 703.11717500293
  30
0.0
  40
 66.000000000000
  41
0.0
  71
5
  72
1
   1
\T1.000000;ＭＦ０６０ＳＣＰ
   7
GMM002
  44
 0.79999984000003
   0
LINE
   5
320
 100
AcDbEntity
   8
LEVEL001
 370
13
 100
AcDbLine
   6
CONTINUOUS
  62
6
  10
 5579.2551240578
  20
 857.57553097592
  30
0.0
  11
 8095.0129032659
  21
 857.57553097592
  31
0.0
   0
MTEXT
   5
322
 100
AcDbEntity
   8
LEVEL001
 370
13
  62
1
 100
AcDbMText
  10
 7386.3762344538
  20
 1572.5755309759
  30
0.0
  40
 44.000000000000
  41
0.0
  71
4
  72
1
   1
{\T1.000000;下地亜鉛メッキ}\P{\T1.000000;＋静電粉体塗装}
   7
GMM009
  44
 0.79999984000003
   0
MTEXT
   5
324
 100
AcDbEntity
   8
LEVEL001
 370
13
  62
1
 100
AcDbMText
  10
 5829.2551240578
  20
 1141.1491386718
  30
0.0
  40
 80.000000000000
  41
0.0
  71
7
  72
1
   1
\T1.000000;注意板
   7
GMM006
  44
 0.79999984000003
   0
ENDSEC
  0
SECTION
  2
OBJECTS
  0
DICTIONARY
  5
C
100
AcDbDictionary
  3
ACAD_GROUP
350
D
  3
ACAD_MLINESTYLE
350
1B
  3
DWGPROPS
350
1C
  0
DICTIONARY
  5
D
102
{ACAD_REACTORS
330
C
102
}
100
AcDbDictionary
  0
DICTIONARY
  5
1B
102
{ACAD_REACTORS
330
C
102
}
100
AcDbDictionary
  3
STANDARD
350
1D
  0
MLINESTYLE
  5
1D
102
{ACAD_REACTORS
330
1B
102
}
100
AcDbMlineStyle
  2
STANDARD
 70
     0
  3

 62
   256
 51
90.0
 52
90.0
 71
     2
 49
0.5
 62
   256
  6
BYLAYER
 49
-0.5
 62
   256
  6
BYLAYER
   0
XRECORD
   5
1C
 102
{ACAD_REACTORS
 330
C
 102
}
 330
C
 100
AcDbXrecord
 280
1
   1
DWGPROPS COOKIE
   2
 
   3
 
   4
 
   6
 
   7
MF060SCP
   8
 
   9

 300
 = 
 301
 = 
 302
 = 
 303
 = 
 304
 = 
 305
 = 
 306
 = 
 307
 = 
 308
 = 
 309
 = 
  40
0.0
  41
 2460327.5000000
  42
 2460327.5000000
   1

  90
10
   0
ENDSEC
   0
EOF
