   0
SECTION
   2
HEADER
   9
$ACADVER
   1
AC1015
   9
$DWGCODEPAGE
   3
ANSI_932
   9
$LIMMIN
  10
0.0
  20
0.0
   9
$LIMMAX
  10
 8400.0000000000
  20
 5940.0000000000
   9
$EXTMIN
  10
0.0
  20
0.0
  30
0.0
   9
$EXTMAX
  10
 8400.0000000000
  20
 5940.0000000000
  30
0.0
   9
$LTSCALE
  40
 168.00000000000
   9
$HANDSEED
   5
30E
   0
ENDSEC
   0
SECTION
   2
TABLES
  0
TABLE
  2
VPORT
  5
8
100
AcDbSymbolTable
 70
     1
  0
VPORT
  5
30D
100
AcDbSymbolTableRecord
100
AcDbViewportTableRecord
  2
*ACTIVE
 70
     0
 10
0.0
 20
0.0
 11
1.0
 21
1.0
  12
 4200.0000000000
  22
 2970.0000000000
 13
0.0
 23
0.0
 14
1.0
 24
1.0
 15
0.0
 25
0.0
 16
0.0
 26
0.0
 36
1.0
 17
0.0
 27
0.0
 37
0.0
  40
 8400.0000000000
  41
 1.4787878787879
 42
50.0
 43
0.0
 44
0.0
 50
0.0
 51
0.0
 71
     0
 72
   100
 73
     1
 74
     1
 75
     0
 76
     0
 77
     0
 78
     0
  0
ENDTAB
  0
TABLE
  2
LTYPE
  5
5
100
AcDbSymbolTable
 70
    25
  0
LTYPE
  5
12
100
AcDbSymbolTableRecord
100
AcDbLinetypeTableRecord
  2
BYBLOCK
 70
     0
  3

 72
    65
 73
     0
 40
0.0
  0
LTYPE
  5
13
100
AcDbSymbolTableRecord
100
AcDbLinetypeTableRecord
  2
BYLAYER
 70
     0
  3

 72
    65
 73
     0
 40
0.0
  0
LTYPE
  5
14
100
AcDbSymbolTableRecord
100
AcDbLinetypeTableRecord
  2
CONTINUOUS
 70
     0
  3
Solid line
 72
    65
 73
     0
 40
0.0
  0
LTYPE
  5
20
100
AcDbSymbolTableRecord
100
AcDbLinetypeTableRecord
  2
BORDER
 70
     0
  3
__ __ . __ __ . __ __ . __ __ . __ __ . __ __ .
 72
    65
 73
     6
 40
1.75
 49
0.5
 74
     0
 49
-0.25
 74
     0
 49
0.5
 74
     0
 49
-0.25
 74
     0
 49
0.0
 74
     0
 49
-0.25
 74
     0
  0
LTYPE
  5
21
100
AcDbSymbolTableRecord
100
AcDbLinetypeTableRecord
  2
BORDER2
 70
     0
  3
__.__.__.__.__.__.__.__.__.__.__.__.__.__.__.__
 72
    65
 73
     6
 40
0.875
 49
0.25
 74
     0
 49
-0.125
 74
     0
 49
0.25
 74
     0
 49
-0.125
 74
     0
 49
0.0
 74
     0
 49
-0.125
 74
     0
  0
LTYPE
  5
22
100
AcDbSymbolTableRecord
100
AcDbLinetypeTableRecord
  2
BORDERX2
 70
     0
  3
____  ____  .  ____  ____  .  ____  ____  .  __
 72
    65
 73
     6
 40
3.5
 49
1.0
 74
     0
 49
-0.5
 74
     0
 49
1.0
 74
     0
 49
-0.5
 74
     0
 49
0.0
 74
     0
 49
-0.5
 74
     0
  0
LTYPE
  5
23
100
AcDbSymbolTableRecord
100
AcDbLinetypeTableRecord
  2
CENTER
 70
     0
  3
____ _ ____ _ ____ _ ____ _ ____ _ ____ _ ____ 
 72
    65
 73
     4
 40
2.0
 49
1.25
 74
     0
 49
-0.25
 74
     0
 49
0.25
 74
     0
 49
-0.25
 74
     0
  0
LTYPE
  5
24
100
AcDbSymbolTableRecord
100
AcDbLinetypeTableRecord
  2
CENTER2
 70
     0
  3
___ _ ___ _ ___ _ ___ _ ___ _ ___ _ ___ _ ___ _
 72
    65
 73
     4
 40
1.125
 49
0.75
 74
     0
 49
-0.125
 74
     0
 49
0.125
 74
     0
 49
-0.125
 74
     0
  0
LTYPE
  5
25
100
AcDbSymbolTableRecord
100
AcDbLinetypeTableRecord
  2
CENTERX2
 70
     0
  3
________  __  ________  __  ________  __  _____
 72
    65
 73
     4
 40
4.0
 49
2.5
 74
     0
 49
-0.5
 74
     0
 49
0.5
 74
     0
 49
-0.5
 74
     0
  0
LTYPE
  5
26
100
AcDbSymbolTableRecord
100
AcDbLinetypeTableRecord
  2
DASHDOT
 70
     0
  3
__ . __ . __ . __ . __ . __ . __ . __ . __ . __
 72
    65
 73
     4
 40
1.0
 49
0.5
 74
     0
 49
-0.25
 74
     0
 49
0.0
 74
     0
 49
-0.25
 74
     0
  0
LTYPE
  5
27
100
AcDbSymbolTableRecord
100
AcDbLinetypeTableRecord
  2
DASHDOT2
 70
     0
  3
_._._._._._._._._._._._._._._._._._._._._._._._
 72
    65
 73
     4
 40
0.5
 49
0.25
 74
     0
 49
-0.125
 74
     0
 49
0.0
 74
     0
 49
-0.125
 74
     0
  0
LTYPE
  5
28
100
AcDbSymbolTableRecord
100
AcDbLinetypeTableRecord
  2
DASHDOTX2
 70
     0
  3
____  .  ____  .  ____  .  ____  .  ____  .  __
 72
    65
 73
     4
 40
2.0
 49
1.0
 74
     0
 49
-0.5
 74
     0
 49
0.0
 74
     0
 49
-0.5
 74
     0
  0
LTYPE
  5
29
100
AcDbSymbolTableRecord
100
AcDbLinetypeTableRecord
  2
DASHED
 70
     0
  3
__ __ __ __ __ __ __ __ __ __ __ __ __ __ __ __
 72
    65
 73
     2
 40
0.75
 49
0.5
 74
     0
 49
-0.25
 74
     0
  0
LTYPE
  5
2A
100
AcDbSymbolTableRecord
100
AcDbLinetypeTableRecord
  2
DASHED2
 70
     0
  3
_ _ _ _ _ _ _ _ _ _ _ _ _ _ _ _ _ _ _ _ _ _ _ _
 72
    65
 73
     2
 40
0.375
 49
0.25
 74
     0
 49
-0.125
 74
     0
  0
LTYPE
  5
2B
100
AcDbSymbolTableRecord
100
AcDbLinetypeTableRecord
  2
DASHEDX2
 70
     0
  3
____  ____  ____  ____  ____  ____  ____  ____ 
 72
    65
 73
     2
 40
1.5
 49
1.0
 74
     0
 49
-0.5
 74
     0
  0
LTYPE
  5
2C
100
AcDbSymbolTableRecord
100
AcDbLinetypeTableRecord
  2
DIVIDE
 70
     0
  3
____ . . ____ . . ____ . . ____ . . ____ . . __
 72
    65
 73
     6
 40
1.25
 49
0.5
 74
     0
 49
-0.25
 74
     0
 49
0.0
 74
     0
 49
-0.25
 74
     0
 49
0.0
 74
     0
 49
-0.25
 74
     0
  0
LTYPE
  5
2D
100
AcDbSymbolTableRecord
100
AcDbLinetypeTableRecord
  2
DIVIDE2
 70
     0
  3
__..__..__..__..__..__..__..__..__..__..__..__.
 72
    65
 73
     6
 40
0.625
 49
0.25
 74
     0
 49
-0.125
 74
     0
 49
0.0
 74
     0
 49
-0.125
 74
     0
 49
0.0
 74
     0
 49
-0.125
 74
     0
  0
LTYPE
  5
2E
100
AcDbSymbolTableRecord
100
AcDbLinetypeTableRecord
  2
DIVIDEX2
 70
     0
  3
________  .  .  ________  .  .  ________  .  . 
 72
    65
 73
     6
 40
2.5
 49
1.0
 74
     0
 49
-0.5
 74
     0
 49
0.0
 74
     0
 49
-0.5
 74
     0
 49
0.0
 74
     0
 49
-0.5
 74
     0
  0
LTYPE
  5
2F
100
AcDbSymbolTableRecord
100
AcDbLinetypeTableRecord
  2
DOT
 70
     0
  3
. . . . . . . . . . . . . . . . . . . . . . . .
 72
    65
 73
     2
 40
0.25
 49
0.0
 74
     0
 49
-0.25
 74
     0
  0
LTYPE
  5
30
100
AcDbSymbolTableRecord
100
AcDbLinetypeTableRecord
  2
DOT2
 70
     0
  3
...............................................
 72
    65
 73
     2
 40
0.125
 49
0.0
 74
     0
 49
-0.125
 74
     0
  0
LTYPE
  5
31
100
AcDbSymbolTableRecord
100
AcDbLinetypeTableRecord
  2
DOTX2
 70
     0
  3
.  .  .  .  .  .  .  .  .  .  .  .  .  .  .  . 
 72
    65
 73
     2
 40
0.5
 49
0.0
 74
     0
 49
-0.5
 74
     0
  0
LTYPE
  5
32
100
AcDbSymbolTableRecord
100
AcDbLinetypeTableRecord
  2
HIDDEN
 70
     0
  3
__ __ __ __ __ __ __ __ __ __ __ __ __ __ __ __
 72
    65
 73
     2
 40
0.375
 49
0.25
 74
     0
 49
-0.125
 74
     0
  0
LTYPE
  5
33
100
AcDbSymbolTableRecord
100
AcDbLinetypeTableRecord
  2
HIDDEN2
 70
     0
  3
_ _ _ _ _ _ _ _ _ _ _ _ _ _ _ _ _ _ _ _ _ _ _ _
 72
    65
 73
     2
 40
0.1875
 49
0.125
 74
     0
 49
-0.0625
 74
     0
  0
LTYPE
  5
34
100
AcDbSymbolTableRecord
100
AcDbLinetypeTableRecord
  2
HIDDENX2
 70
     0
  3
____ ____ ____ ____ ____ ____ ____ ____ ____ __
 72
    65
 73
     2
 40
0.75
 49
0.5
 74
     0
 49
-0.25
 74
     0
  0
LTYPE
  5
35
100
AcDbSymbolTableRecord
100
AcDbLinetypeTableRecord
  2
PHANTOM
 70
     0
  3
______  __  __  ______  __  __  ______  __  __ 
 72
    65
 73
     6
 40
2.5
 49
1.25
 74
     0
 49
-0.25
 74
     0
 49
0.25
 74
     0
 49
-0.25
 74
     0
 49
0.25
 74
     0
 49
-0.25
 74
     0
  0
LTYPE
  5
36
100
AcDbSymbolTableRecord
100
AcDbLinetypeTableRecord
  2
PHANTOM2
 70
     0
  3
___ _ _ ___ _ _ ___ _ _ ___ _ _ ___ _ _ ___ _ _
 72
    65
 73
     6
 40
1.25
 49
0.625
 74
     0
 49
-0.125
 74
     0
 49
0.125
 74
     0
 49
-0.125
 74
     0
 49
0.125
 74
     0
 49
-0.125
 74
     0
  0
LTYPE
  5
37
100
AcDbSymbolTableRecord
100
AcDbLinetypeTableRecord
  2
PHANTOMX2
 70
     0
  3
____________    ____    ____    ____________   
 72
    65
 73
     6
 40
5.0
 49
2.5
 74
     0
 49
-0.5
 74
     0
 49
0.5
 74
     0
 49
-0.5
 74
     0
 49
0.5
 74
     0
 49
-0.5
 74
     0
  0
ENDTAB
   0
TABLE
   2
LAYER
   5
2
 100
AcDbSymbolTable
  70
5
   0
LAYER
   5
E
 100
AcDbSymbolTableRecord
 100
AcDbLayerTableRecord
   2
0
  70
0
  62
7
   6
CONTINUOUS
 390
30
   0
LAYER
   5
39
 100
AcDbSymbolTableRecord
 100
AcDbLayerTableRecord
   2
LEVEL001
  70
0
  62
7
   6
CONTINUOUS
 390
30
   0
LAYER
   5
3A
 100
AcDbSymbolTableRecord
 100
AcDbLayerTableRecord
   2
寸法
  70
0
  62
-7
   6
CONTINUOUS
 390
30
   0
LAYER
   5
3B
 100
AcDbSymbolTableRecord
 100
AcDbLayerTableRecord
   2
基礎（５００）
  70
0
  62
7
   6
CONTINUOUS
 390
30
   0
LAYER
   5
3C
 100
AcDbSymbolTableRecord
 100
AcDbLayerTableRecord
   2
基礎（４００）
  70
0
  62
7
   6
CONTINUOUS
 390
30
   0
ENDTAB
  0
TABLE
  2
STYLE
  5
3
100
AcDbSymbolTable
  70
11
  0
STYLE
  5
F
100
AcDbSymbolTableRecord
100
AcDbTextStyleTableRecord
  2
STANDARD
 70
     0
 40
0.0
 41
1.0
 50
0.0
 71
     0
 42
0.2
  3
TXT
  4
BIGFONT
  0
STYLE
  5
38
100
AcDbSymbolTableRecord
100
AcDbTextStyleTableRecord
  2
STANDARD1
 70
     4
 40
0.0
 41
1.0
 50
0.0
 71
     0
 42
0.2
  3
TXT
  4
BIGFONT
   0
STYLE
   5
3D
 100
AcDbSymbolTableRecord
 100
AcDbTextStyleTableRecord
   2
GMM001
  70
0
  40
0.0
  41
 1.0000000000000
  50
0.0
  71
     0
  42
1.0
   3
txt.shx
   4
bigfont.shx
   0
STYLE
   5
3E
 100
AcDbSymbolTableRecord
 100
AcDbTextStyleTableRecord
   2
GMM002
  70
0
  40
0.0
  41
 0.78787878787879
  50
0.0
  71
     0
  42
1.0
   3
txt.shx
   4
bigfont.shx
   0
STYLE
   5
3F
 100
AcDbSymbolTableRecord
 100
AcDbTextStyleTableRecord
   2
GMM003
  70
0
  40
0.0
  41
 0.75000000000000
  50
0.0
  71
     0
  42
1.0
   3
txt.shx
   4
bigfont.shx
   0
STYLE
   5
40
 100
AcDbSymbolTableRecord
 100
AcDbTextStyleTableRecord
   2
GMM004
  70
0
  40
0.0
  41
 0.90000000000000
  50
0.0
  71
     0
  42
1.0
   3

   4

1001
ACAD
1000
ＭＳ 明朝
1071
33587217
   0
STYLE
   5
41
 100
AcDbSymbolTableRecord
 100
AcDbTextStyleTableRecord
   2
GMM005
  70
0
  40
0.0
  41
 0.87500000000000
  50
0.0
  71
     0
  42
1.0
   3
txt.shx
   4
bigfont.shx
   0
STYLE
   5
42
 100
AcDbSymbolTableRecord
 100
AcDbTextStyleTableRecord
   2
GMM006
  70
0
  40
0.0
  41
 0.90000000000000
  50
0.0
  71
     0
  42
1.0
   3
txt.shx
   4
bigfont.shx
   0
STYLE
   5
43
 100
AcDbSymbolTableRecord
 100
AcDbTextStyleTableRecord
   2
GMM007
  70
0
  40
0.0
  41
 0.65000000000000
  50
0.0
  71
     0
  42
1.0
   3
txt.shx
   4
bigfont.shx
   0
STYLE
   5
44
 100
AcDbSymbolTableRecord
 100
AcDbTextStyleTableRecord
   2
GMM008
  70
0
  40
0.0
  41
 1.0000000000000
  50
0.0
  71
     0
  42
1.0
   3

   4

1001
ACAD
1000
ＭＳ 明朝
1071
32785
   0
STYLE
   5
45
 100
AcDbSymbolTableRecord
 100
AcDbTextStyleTableRecord
   2
GMM009
  70
0
  40
0.0
  41
 1.6363636363636
  50
0.0
  71
     0
  42
1.0
   3
txt.shx
   4
bigfont.shx
   0
ENDTAB
  0
TABLE
  2
VIEW
  5
6
100
AcDbSymbolTable
 70
     0
  0
ENDTAB
  0
TABLE
  2
UCS
  5
7
100
AcDbSymbolTable
 70
     0
  0
ENDTAB
  0
TABLE
  2
APPID
  5
9
100
AcDbSymbolTable
 70
     1
  0
APPID
  5
10
100
AcDbSymbolTableRecord
100
AcDbRegAppTableRecord
  2
ACAD
 70
     0
  0
ENDTAB
   0
TABLE
   2
DIMSTYLE
   5
A
 100
AcDbSymbolTable
  70
10
 100
AcDbDimStyleTable
  0
DIMSTYLE
105
1D
100
AcDbSymbolTableRecord
100
AcDbDimStyleTableRecord
  2
STANDARD
 70
     0
  3

  4

  5

  6

  7

 40
1.0
 41
0.18
 42
0.0625
 43
0.38
 44
0.18
 45
0.0
 46
0.0
 47
0.0
 48
0.0
140
0.18
141
0.09
142
0.0
143
25.4
144
1.0
145
0.0
146
1.0
147
0.09
 71
     0
 72
     0
 73
     1
 74
     1
 75
     0
 76
     0
 77
     0
 78
     0
170
     0
171
     2
172
     0
173
     0
174
     0
175
     0
176
     0
177
     0
178
     0
270
     2
271
     4
272
     4
273
     2
274
     2
340
F
275
     0
280
     0
281
     0
282
     0
283
     1
284
     0
285
     0
286
     0
287
     3
288
     0
   0
DIMSTYLE
 105
46
 100
AcDbSymbolTableRecord
 100
AcDbDimStyleTableRecord
   2
GMM001
  70
0
   3

   4

   5

   6
_OPEN
   7
_OPEN
  40
 1.0000000000000
  41
 30.000000000000
  42
 30.000000000000
  43
 160.00000000000
  44
 30.000000000000
  45
0.0
  46
 37.500000000000
  47
0.0
  48
0.0
 140
 66.000000000000
 141
 20.000000000000
 142
0.0
 143
 0.39400000000000E-1
 144
 1.0000000000000
 145
0.0
 146
 0.62500000000000
 147
0.0
  71
0
  72
0
  73
0
  74
0
  75
1
  76
1
  77
0
  78
8
 170
0
 171
2
 172
1
 173
1
 174
0
 175
0
 176
1
 177
1
 178
1
 270
2
 271
1
 272
0
 273
2
 274
2
 340
F
 275
0
 280
0
 281
0
 282
0
 283
1
 284
0
 285
0
 286
0
 287
3
 288
0
   0
DIMSTYLE
 105
47
 100
AcDbSymbolTableRecord
 100
AcDbDimStyleTableRecord
   2
GMM002
  70
0
   3
%%c<>
   4

   5

   6
_OPEN
   7
_OPEN
  40
 1.0000000000000
  41
 30.000000000000
  42
 30.000000000000
  43
 160.00000000000
  44
 30.000000000000
  45
0.0
  46
 37.500000000000
  47
0.0
  48
0.0
 140
 66.000000000000
 141
 20.000000000000
 142
0.0
 143
 0.39400000000000E-1
 144
 1.0000000000000
 145
0.0
 146
 0.62500000000000
 147
 28.285714285714
  71
0
  72
0
  73
0
  74
0
  75
1
  76
1
  77
1
  78
8
 170
0
 171
2
 172
1
 173
1
 174
0
 175
0
 176
6
 177
6
 178
1
 270
2
 271
1
 272
0
 273
2
 274
2
 340
3E
 275
0
 280
0
 281
0
 282
0
 283
1
 284
0
 285
0
 286
0
 287
0
 288
0
   0
DIMSTYLE
 105
48
 100
AcDbSymbolTableRecord
 100
AcDbDimStyleTableRecord
   2
GMM003
  70
0
   3

   4

   5

   6
_OPEN
   7
_OPEN
  40
 1.0000000000000
  41
 30.000000000000
  42
 30.000000000000
  43
 160.00000000000
  44
 30.000000000000
  45
0.0
  46
 37.500000000000
  47
0.0
  48
0.0
 140
 66.000000000000
 141
 20.000000000000
 142
0.0
 143
 0.39400000000000E-1
 144
 1.0000000000000
 145
0.0
 146
 0.62500000000000
 147
0.0
  71
0
  72
0
  73
0
  74
0
  75
1
  76
1
  77
0
  78
8
 170
0
 171
2
 172
1
 173
1
 174
0
 175
0
 176
1
 177
1
 178
1
 270
2
 271
1
 272
0
 273
2
 274
2
 340
F
 275
0
 280
0
 281
0
 282
0
 283
1
 284
0
 285
0
 286
0
 287
3
 288
0
   0
DIMSTYLE
 105
49
 100
AcDbSymbolTableRecord
 100
AcDbDimStyleTableRecord
   2
GMM004
  70
0
   3
□<>
   4

   5

   6
_OPEN
   7
_OPEN
  40
 1.0000000000000
  41
 30.000000000000
  42
 30.000000000000
  43
 160.00000000000
  44
 30.000000000000
  45
0.0
  46
 37.500000000000
  47
0.0
  48
0.0
 140
 66.000000000000
 141
 20.000000000000
 142
0.0
 143
 0.39400000000000E-1
 144
 1.0000000000000
 145
0.0
 146
 0.62500000000000
 147
 28.285714285714
  71
0
  72
0
  73
0
  74
0
  75
0
  76
0
  77
1
  78
8
 170
0
 171
2
 172
1
 173
1
 174
0
 175
0
 176
6
 177
6
 178
1
 270
2
 271
1
 272
0
 273
2
 274
2
 340
3E
 275
0
 280
0
 281
0
 282
0
 283
1
 284
0
 285
0
 286
0
 287
3
 288
0
   0
DIMSTYLE
 105
4A
 100
AcDbSymbolTableRecord
 100
AcDbDimStyleTableRecord
   2
GMM005
  70
0
   3

   4

   5

   6
_OPEN
   7
_OPEN
  40
 1.0000000000000
  41
 30.000000000000
  42
 30.000000000000
  43
 160.00000000000
  44
 30.000000000000
  45
0.0
  46
 37.500000000000
  47
0.0
  48
0.0
 140
 66.000000000000
 141
 20.000000000000
 142
0.0
 143
 0.39400000000000E-1
 144
 1.0000000000000
 145
0.0
 146
 0.62500000000000
 147
 28.285714285714
  71
0
  72
0
  73
0
  74
0
  75
0
  76
1
  77
1
  78
8
 170
0
 171
2
 172
1
 173
1
 174
0
 175
0
 176
6
 177
6
 178
1
 270
2
 271
1
 272
0
 273
2
 274
2
 340
3E
 275
0
 280
0
 281
0
 282
0
 283
1
 284
0
 285
0
 286
0
 287
3
 288
0
   0
DIMSTYLE
 105
4B
 100
AcDbSymbolTableRecord
 100
AcDbDimStyleTableRecord
   2
GMM006
  70
0
   3
<>(標準設置高さ
   4

   5

   6
_OPEN
   7
_OPEN
  40
 1.0000000000000
  41
 30.000000000000
  42
 30.000000000000
  43
 160.00000000000
  44
 30.000000000000
  45
0.0
  46
 37.500000000000
  47
0.0
  48
0.0
 140
 66.000000000000
 141
 20.000000000000
 142
0.0
 143
 0.39400000000000E-1
 144
 1.0000000000000
 145
0.0
 146
 0.62500000000000
 147
 28.285714285714
  71
0
  72
0
  73
0
  74
0
  75
0
  76
0
  77
1
  78
8
 170
0
 171
2
 172
1
 173
1
 174
0
 175
0
 176
6
 177
6
 178
1
 270
2
 271
1
 272
0
 273
2
 274
2
 340
3E
 275
0
 280
0
 281
0
 282
0
 283
1
 284
0
 285
0
 286
0
 287
3
 288
0
   0
DIMSTYLE
 105
4C
 100
AcDbSymbolTableRecord
 100
AcDbDimStyleTableRecord
   2
GMM007
  70
0
   3

   4

   5

   6
_OPEN
   7
_OPEN
  40
 1.0000000000000
  41
 30.000000000000
  42
 30.000000000000
  43
 160.00000000000
  44
 30.000000000000
  45
0.0
  46
 37.500000000000
  47
0.0
  48
0.0
 140
 66.000000000000
 141
 20.000000000000
 142
0.0
 143
 0.39400000000000E-1
 144
 1.0000000000000
 145
0.0
 146
 0.62500000000000
 147
0.0
  71
0
  72
0
  73
0
  74
0
  75
1
  76
1
  77
0
  78
8
 170
0
 171
2
 172
1
 173
1
 174
0
 175
0
 176
1
 177
1
 178
1
 270
2
 271
1
 272
0
 273
2
 274
2
 340
F
 275
0
 280
0
 281
0
 282
0
 283
1
 284
0
 285
0
 286
0
 287
3
 288
0
   0
DIMSTYLE
 105
4D
 100
AcDbSymbolTableRecord
 100
AcDbDimStyleTableRecord
   2
GMM008
  70
0
   3

   4

   5

   6
_OPEN
   7
_OPEN
  40
 1.0000000000000
  41
 40.000000000000
  42
 40.000000000000
  43
 160.00000000000
  44
 40.000000000000
  45
0.0
  46
 50.000000000000
  47
0.0
  48
0.0
 140
 66.000000000000
 141
 20.000000000000
 142
0.0
 143
 0.39400000000000E-1
 144
 1.0000000000000
 145
0.0
 146
 0.62500000000000
 147
0.0
  71
0
  72
0
  73
0
  74
0
  75
1
  76
1
  77
1
  78
0
 170
0
 171
2
 172
1
 173
1
 174
0
 175
0
 176
6
 177
6
 178
1
 270
2
 271
0
 272
0
 273
2
 274
2
 340
3E
 275
1
 280
0
 281
0
 282
0
 283
1
 284
0
 285
0
 286
0
 287
3
 288
0
   0
ENDTAB
  0
TABLE
  2
BLOCK_RECORD
  5
1
100
AcDbSymbolTable
 70
     0
  0
BLOCK_RECORD
  5
18
100
AcDbSymbolTableRecord
100
AcDbBlockTableRecord
  2
*MODEL_SPACE
  0
BLOCK_RECORD
  5
15
100
AcDbSymbolTableRecord
100
AcDbBlockTableRecord
  2
*PAPER_SPACE
   0
BLOCK_RECORD
   5
4E
 100
AcDbSymbolTableRecord
 100
AcDbBlockTableRecord
   2
*D2
   0
BLOCK_RECORD
   5
4F
 100
AcDbSymbolTableRecord
 100
AcDbBlockTableRecord
   2
*D14
   0
BLOCK_RECORD
   5
50
 100
AcDbSymbolTableRecord
 100
AcDbBlockTableRecord
   2
*D15
   0
BLOCK_RECORD
   5
51
 100
AcDbSymbolTableRecord
 100
AcDbBlockTableRecord
   2
*D16
   0
BLOCK_RECORD
   5
52
 100
AcDbSymbolTableRecord
 100
AcDbBlockTableRecord
   2
*D17
   0
BLOCK_RECORD
   5
53
 100
AcDbSymbolTableRecord
 100
AcDbBlockTableRecord
   2
*D18
   0
BLOCK_RECORD
   5
54
 100
AcDbSymbolTableRecord
 100
AcDbBlockTableRecord
   2
_ARCHTICK
   0
BLOCK_RECORD
   5
55
 100
AcDbSymbolTableRecord
 100
AcDbBlockTableRecord
   2
_BOXBLANK
   0
BLOCK_RECORD
   5
56
 100
AcDbSymbolTableRecord
 100
AcDbBlockTableRecord
   2
_BOXFILLED
   0
BLOCK_RECORD
   5
57
 100
AcDbSymbolTableRecord
 100
AcDbBlockTableRecord
   2
_CLOSED
   0
BLOCK_RECORD
   5
58
 100
AcDbSymbolTableRecord
 100
AcDbBlockTableRecord
   2
_CLOSEDBLANK
   0
BLOCK_RECORD
   5
59
 100
AcDbSymbolTableRecord
 100
AcDbBlockTableRecord
   2
_DATUMBLANK
   0
BLOCK_RECORD
   5
5A
 100
AcDbSymbolTableRecord
 100
AcDbBlockTableRecord
   2
_DATUMFILLED
   0
BLOCK_RECORD
   5
5B
 100
AcDbSymbolTableRecord
 100
AcDbBlockTableRecord
   2
_DOT
   0
BLOCK_RECORD
   5
5C
 100
AcDbSymbolTableRecord
 100
AcDbBlockTableRecord
   2
_DOTBLANK
   0
BLOCK_RECORD
   5
5D
 100
AcDbSymbolTableRecord
 100
AcDbBlockTableRecord
   2
_DOTSMALL
   0
BLOCK_RECORD
   5
5E
 100
AcDbSymbolTableRecord
 100
AcDbBlockTableRecord
   2
_INTEGRAL
   0
BLOCK_RECORD
   5
5F
 100
AcDbSymbolTableRecord
 100
AcDbBlockTableRecord
   2
_NONE
   0
BLOCK_RECORD
   5
60
 100
AcDbSymbolTableRecord
 100
AcDbBlockTableRecord
   2
_OBLIQUE
   0
BLOCK_RECORD
   5
61
 100
AcDbSymbolTableRecord
 100
AcDbBlockTableRecord
   2
_OPEN
   0
BLOCK_RECORD
   5
62
 100
AcDbSymbolTableRecord
 100
AcDbBlockTableRecord
   2
_OPEN30
   0
BLOCK_RECORD
   5
63
 100
AcDbSymbolTableRecord
 100
AcDbBlockTableRecord
   2
_OPEN90
   0
BLOCK_RECORD
   5
64
 100
AcDbSymbolTableRecord
 100
AcDbBlockTableRecord
   2
_ORIGIN
   0
ENDTAB
   0
ENDSEC
  0
SECTION
  2
BLOCKS
  0
BLOCK
  5
19
100
AcDbEntity
  8
0
100
AcDbBlockBegin
  2
*MODEL_SPACE
 70
     0
 10
0.0
 20
0.0
 30
0.0
  3
*MODEL_SPACE
  1

  0
ENDBLK
  5
1A
100
AcDbEntity
  8
0
100
AcDbBlockEnd
  0
BLOCK
  5
16
100
AcDbEntity
 67
     1
  8
0
100
AcDbBlockBegin
  2
*PAPER_SPACE
 70
     0
 10
0.0
 20
0.0
 30
0.0
  3
*PAPER_SPACE
  1

  0
ENDBLK
  5
17
100
AcDbEntity
 67
     1
  8
0
100
AcDbBlockEnd
   0
BLOCK
   5
65
 100
AcDbEntity
   8
0
 100
AcDbBlockBegin
   2
_ARCHTICK
  70
0
  10
0.0
  20
0.0
  30
0.0
   3
_ARCHTICK
   0
POLYLINE
   5
66
 100
AcDbEntity
   8
0
 370
-2
   6
BYBLOCK
  62
0
 100
AcDb2dPolyline
  66
1
  10
0.0
  20
0.0
  30
0.0
  70
1
  40
 0.15000000000000
  41
 0.15000000000000
   0
VERTEX
   5
67
 100
AcDbEntity
   8
0
   6
BYBLOCK
  62
0
 100
AcDbVertex
 100
AcDb2dVertex
  10
-0.50000000000000
  20
-0.50000000000000
  30
0.0
  40
 0.15000000000000
  41
 0.15000000000000
   0
VERTEX
   5
68
 100
AcDbEntity
   8
0
   6
BYBLOCK
  62
0
 100
AcDbVertex
 100
AcDb2dVertex
  10
 0.50000000000000
  20
 0.50000000000000
  30
0.0
  40
 0.15000000000000
  41
 0.15000000000000
   0
SEQEND
   5
69
 100
AcDbEntity
   8
0
   6
BYBLOCK
  62
0
   0
ENDBLK
   5
6A
 100
AcDbEntity
   8
0
 100
AcDbBlockEnd
   0
BLOCK
   5
6B
 100
AcDbEntity
   8
0
 100
AcDbBlockBegin
   2
_OBLIQUE
  70
0
  10
0.0
  20
0.0
  30
0.0
   3
_OBLIQUE
   0
LINE
   5
6C
 100
AcDbEntity
   8
0
 370
-2
 100
AcDbLine
   6
BYBLOCK
  62
0
  10
-0.50000000000000
  20
-0.50000000000000
  30
0.0
  11
 0.50000000000000
  21
 0.50000000000000
  31
0.0
   0
ENDBLK
   5
6D
 100
AcDbEntity
   8
0
 100
AcDbBlockEnd
   0
BLOCK
   5
6E
 100
AcDbEntity
   8
0
 100
AcDbBlockBegin
   2
_BOXBLANK
  70
0
  10
0.0
  20
0.0
  30
0.0
   3
_BOXBLANK
   0
LINE
   5
6F
 100
AcDbEntity
   8
0
 370
-2
 100
AcDbLine
   6
BYBLOCK
  62
0
  10
-0.50000000000000
  20
-0.50000000000000
  30
0.0
  11
 0.50000000000000
  21
-0.50000000000000
  31
0.0
   0
LINE
   5
70
 100
AcDbEntity
   8
0
 370
-2
 100
AcDbLine
   6
BYBLOCK
  62
0
  10
 0.50000000000000
  20
-0.50000000000000
  30
0.0
  11
 0.50000000000000
  21
 0.50000000000000
  31
0.0
   0
LINE
   5
71
 100
AcDbEntity
   8
0
 370
-2
 100
AcDbLine
   6
BYBLOCK
  62
0
  10
 0.50000000000000
  20
 0.50000000000000
  30
0.0
  11
-0.50000000000000
  21
 0.50000000000000
  31
0.0
   0
LINE
   5
72
 100
AcDbEntity
   8
0
 370
-2
 100
AcDbLine
   6
BYBLOCK
  62
0
  10
-0.50000000000000
  20
 0.50000000000000
  30
0.0
  11
-0.50000000000000
  21
-0.50000000000000
  31
0.0
   0
LINE
   5
73
 100
AcDbEntity
   8
0
 370
-2
 100
AcDbLine
   6
BYBLOCK
  62
0
  10
-0.50000000000000
  20
0.0
  30
0.0
  11
-1.0000000000000
  21
0.0
  31
0.0
   0
ENDBLK
   5
74
 100
AcDbEntity
   8
0
 100
AcDbBlockEnd
   0
BLOCK
   5
75
 100
AcDbEntity
   8
0
 100
AcDbBlockBegin
   2
_BOXFILLED
  70
0
  10
0.0
  20
0.0
  30
0.0
   3
_BOXFILLED
   0
SOLID
   5
76
 100
AcDbEntity
   8
0
 100
AcDbTrace
   6
BYBLOCK
  62
0
  10
-0.50000000000000
  20
 0.50000000000000
  30
0.0
  11
 0.50000000000000
  21
 0.50000000000000
  31
0.0
  12
-0.50000000000000
  22
-0.50000000000000
  32
0.0
  13
 0.50000000000000
  23
-0.50000000000000
  33
0.0
   0
LINE
   5
77
 100
AcDbEntity
   8
0
 370
-2
 100
AcDbLine
   6
BYBLOCK
  62
0
  10
-0.50000000000000
  20
0.0
  30
0.0
  11
-1.0000000000000
  21
0.0
  31
0.0
   0
ENDBLK
   5
78
 100
AcDbEntity
   8
0
 100
AcDbBlockEnd
   0
BLOCK
   5
79
 100
AcDbEntity
   8
0
 100
AcDbBlockBegin
   2
_CLOSED
  70
0
  10
0.0
  20
0.0
  30
0.0
   3
_CLOSED
   0
LINE
   5
7A
 100
AcDbEntity
   8
0
 370
-2
 100
AcDbLine
   6
BYBLOCK
  62
0
  10
-1.0000000000000
  20
 0.16666666666667
  30
0.0
  11
0.0
  21
0.0
  31
0.0
   0
LINE
   5
7B
 100
AcDbEntity
   8
0
 370
-2
 100
AcDbLine
   6
BYBLOCK
  62
0
  10
0.0
  20
0.0
  30
0.0
  11
-1.0000000000000
  21
-0.16666666666667
  31
0.0
   0
LINE
   5
7C
 100
AcDbEntity
   8
0
 370
-2
 100
AcDbLine
   6
BYBLOCK
  62
0
  10
-1.0000000000000
  20
 0.16666666666667
  30
0.0
  11
-1.0000000000000
  21
-0.16666666666667
  31
0.0
   0
LINE
   5
7D
 100
AcDbEntity
   8
0
 370
-2
 100
AcDbLine
   6
BYBLOCK
  62
0
  10
0.0
  20
0.0
  30
0.0
  11
-1.0000000000000
  21
0.0
  31
0.0
   0
ENDBLK
   5
7E
 100
AcDbEntity
   8
0
 100
AcDbBlockEnd
   0
BLOCK
   5
7F
 100
AcDbEntity
   8
0
 100
AcDbBlockBegin
   2
_OPEN
  70
0
  10
0.0
  20
0.0
  30
0.0
   3
_OPEN
   0
LINE
   5
80
 100
AcDbEntity
   8
0
 370
-2
 100
AcDbLine
   6
BYBLOCK
  62
0
  10
-1.0000000000000
  20
 0.16666666666667
  30
0.0
  11
0.0
  21
0.0
  31
0.0
   0
LINE
   5
81
 100
AcDbEntity
   8
0
 370
-2
 100
AcDbLine
   6
BYBLOCK
  62
0
  10
0.0
  20
0.0
  30
0.0
  11
-1.0000000000000
  21
-0.16666666666667
  31
0.0
   0
LINE
   5
82
 100
AcDbEntity
   8
0
 370
-2
 100
AcDbLine
   6
BYBLOCK
  62
0
  10
0.0
  20
0.0
  30
0.0
  11
-1.0000000000000
  21
0.0
  31
0.0
   0
ENDBLK
   5
83
 100
AcDbEntity
   8
0
 100
AcDbBlockEnd
   0
BLOCK
   5
84
 100
AcDbEntity
   8
0
 100
AcDbBlockBegin
   2
_OPEN30
  70
0
  10
0.0
  20
0.0
  30
0.0
   3
_OPEN30
   0
LINE
   5
85
 100
AcDbEntity
   8
0
 370
-2
 100
AcDbLine
   6
BYBLOCK
  62
0
  10
-1.0000000000000
  20
 0.26794919243110
  30
0.0
  11
0.0
  21
0.0
  31
0.0
   0
LINE
   5
86
 100
AcDbEntity
   8
0
 370
-2
 100
AcDbLine
   6
BYBLOCK
  62
0
  10
0.0
  20
0.0
  30
0.0
  11
-1.0000000000000
  21
-0.26794919243110
  31
0.0
   0
LINE
   5
87
 100
AcDbEntity
   8
0
 370
-2
 100
AcDbLine
   6
BYBLOCK
  62
0
  10
0.0
  20
0.0
  30
0.0
  11
-1.0000000000000
  21
0.0
  31
0.0
   0
ENDBLK
   5
88
 100
AcDbEntity
   8
0
 100
AcDbBlockEnd
   0
BLOCK
   5
89
 100
AcDbEntity
   8
0
 100
AcDbBlockBegin
   2
_OPEN90
  70
0
  10
0.0
  20
0.0
  30
0.0
   3
_OPEN90
   0
LINE
   5
8A
 100
AcDbEntity
   8
0
 370
-2
 100
AcDbLine
   6
BYBLOCK
  62
0
  10
-0.50000000000000
  20
 0.50000000000000
  30
0.0
  11
0.0
  21
0.0
  31
0.0
   0
LINE
   5
8B
 100
AcDbEntity
   8
0
 370
-2
 100
AcDbLine
   6
BYBLOCK
  62
0
  10
0.0
  20
0.0
  30
0.0
  11
-0.50000000000000
  21
-0.50000000000000
  31
0.0
   0
LINE
   5
8C
 100
AcDbEntity
   8
0
 370
-2
 100
AcDbLine
   6
BYBLOCK
  62
0
  10
0.0
  20
0.0
  30
0.0
  11
-1.0000000000000
  21
0.0
  31
0.0
   0
ENDBLK
   5
8D
 100
AcDbEntity
   8
0
 100
AcDbBlockEnd
   0
BLOCK
   5
8E
 100
AcDbEntity
   8
0
 100
AcDbBlockBegin
   2
_CLOSEDBLANK
  70
0
  10
0.0
  20
0.0
  30
0.0
   3
_CLOSEDBLANK
   0
LINE
   5
8F
 100
AcDbEntity
   8
0
 370
-2
 100
AcDbLine
   6
BYBLOCK
  62
0
  10
-1.0000000000000
  20
 0.16666666666667
  30
0.0
  11
0.0
  21
0.0
  31
0.0
   0
LINE
   5
90
 100
AcDbEntity
   8
0
 370
-2
 100
AcDbLine
   6
BYBLOCK
  62
0
  10
0.0
  20
0.0
  30
0.0
  11
-1.0000000000000
  21
-0.16666666666667
  31
0.0
   0
LINE
   5
91
 100
AcDbEntity
   8
0
 370
-2
 100
AcDbLine
   6
BYBLOCK
  62
0
  10
-1.0000000000000
  20
 0.16666666666667
  30
0.0
  11
-1.0000000000000
  21
-0.16666666666667
  31
0.0
   0
ENDBLK
   5
92
 100
AcDbEntity
   8
0
 100
AcDbBlockEnd
   0
BLOCK
   5
93
 100
AcDbEntity
   8
0
 100
AcDbBlockBegin
   2
_DOT
  70
0
  10
0.0
  20
0.0
  30
0.0
   3
_DOT
   0
POLYLINE
   5
94
 100
AcDbEntity
   8
0
 370
-2
   6
BYBLOCK
  62
0
 100
AcDb2dPolyline
  66
1
  10
0.0
  20
0.0
  30
0.0
  70
1
  40
 0.50000000000000
  41
 0.50000000000000
   0
VERTEX
   5
95
 100
AcDbEntity
   8
0
   6
BYBLOCK
  62
0
 100
AcDbVertex
 100
AcDb2dVertex
  10
-0.25000000000000
  20
0.0
  30
0.0
  42
 1.0000000000000
  40
 0.50000000000000
  41
 0.50000000000000
   0
VERTEX
   5
96
 100
AcDbEntity
   8
0
   6
BYBLOCK
  62
0
 100
AcDbVertex
 100
AcDb2dVertex
  10
 0.25000000000000
  20
0.0
  30
0.0
  42
 1.0000000000000
  40
 0.50000000000000
  41
 0.50000000000000
   0
SEQEND
   5
97
 100
AcDbEntity
   8
0
   6
BYBLOCK
  62
0
   0
LINE
   5
98
 100
AcDbEntity
   8
0
 370
-2
 100
AcDbLine
   6
BYBLOCK
  62
0
  10
-0.50000000000000
  20
0.0
  30
0.0
  11
-1.0000000000000
  21
0.0
  31
0.0
   0
ENDBLK
   5
99
 100
AcDbEntity
   8
0
 100
AcDbBlockEnd
   0
BLOCK
   5
9A
 100
AcDbEntity
   8
0
 100
AcDbBlockBegin
   2
_DOTSMALL
  70
0
  10
0.0
  20
0.0
  30
0.0
   3
_DOTSMALL
   0
POLYLINE
   5
9B
 100
AcDbEntity
   8
0
 370
-2
   6
BYBLOCK
  62
0
 100
AcDb2dPolyline
  66
1
  10
0.0
  20
0.0
  30
0.0
  70
1
  40
 0.50000000000000
  41
 0.50000000000000
   0
VERTEX
   5
9C
 100
AcDbEntity
   8
0
   6
BYBLOCK
  62
0
 100
AcDbVertex
 100
AcDb2dVertex
  10
-0.62500000000000E-1
  20
0.0
  30
0.0
  42
 1.0000000000000
  40
 0.50000000000000
  41
 0.50000000000000
   0
VERTEX
   5
9D
 100
AcDbEntity
   8
0
   6
BYBLOCK
  62
0
 100
AcDbVertex
 100
AcDb2dVertex
  10
 0.62500000000000E-1
  20
0.0
  30
0.0
  42
 1.0000000000000
  40
 0.50000000000000
  41
 0.50000000000000
   0
SEQEND
   5
9E
 100
AcDbEntity
   8
0
   6
BYBLOCK
  62
0
   0
ENDBLK
   5
9F
 100
AcDbEntity
   8
0
 100
AcDbBlockEnd
   0
BLOCK
   5
A0
 100
AcDbEntity
   8
0
 100
AcDbBlockBegin
   2
_DATUMBLANK
  70
0
  10
0.0
  20
0.0
  30
0.0
   3
_DATUMBLANK
   0
LINE
   5
A1
 100
AcDbEntity
   8
0
 370
-2
 100
AcDbLine
   6
BYBLOCK
  62
0
  10
0.0
  20
 0.57735027000000
  30
0.0
  11
-1.0000000000000
  21
0.0
  31
0.0
   0
LINE
   5
A2
 100
AcDbEntity
   8
0
 370
-2
 100
AcDbLine
   6
BYBLOCK
  62
0
  10
-1.0000000000000
  20
0.0
  30
0.0
  11
0.0
  21
-0.57735027000000
  31
0.0
   0
LINE
   5
A3
 100
AcDbEntity
   8
0
 370
-2
 100
AcDbLine
   6
BYBLOCK
  62
0
  10
0.0
  20
-0.57735027000000
  30
0.0
  11
0.0
  21
 0.57735027000000
  31
0.0
   0
ENDBLK
   5
A4
 100
AcDbEntity
   8
0
 100
AcDbBlockEnd
   0
BLOCK
   5
A5
 100
AcDbEntity
   8
0
 100
AcDbBlockBegin
   2
_DATUMFILLED
  70
0
  10
0.0
  20
0.0
  30
0.0
   3
_DATUMFILLED
   0
SOLID
   5
A6
 100
AcDbEntity
   8
0
 100
AcDbTrace
   6
BYBLOCK
  62
0
  10
0.0
  20
 0.57735027000000
  30
0.0
  11
-1.0000000000000
  21
0.0
  31
0.0
  12
0.0
  22
-0.57735027000000
  32
0.0
  13
0.0
  23
-0.57735027000000
  33
0.0
   0
ENDBLK
   5
A7
 100
AcDbEntity
   8
0
 100
AcDbBlockEnd
   0
BLOCK
   5
A8
 100
AcDbEntity
   8
0
 100
AcDbBlockBegin
   2
_ORIGIN
  70
0
  10
0.0
  20
0.0
  30
0.0
   3
_ORIGIN
   0
CIRCLE
   5
A9
 100
AcDbEntity
   8
0
 370
-2
 100
AcDbCircle
   6
BYBLOCK
  62
0
  10
0.0
  20
0.0
  30
0.0
  40
 0.50000000000000
   0
LINE
   5
AA
 100
AcDbEntity
   8
0
 370
-2
 100
AcDbLine
   6
BYBLOCK
  62
0
  10
0.0
  20
0.0
  30
0.0
  11
-1.0000000000000
  21
0.0
  31
0.0
   0
ENDBLK
   5
AB
 100
AcDbEntity
   8
0
 100
AcDbBlockEnd
   0
BLOCK
   5
AC
 100
AcDbEntity
   8
0
 100
AcDbBlockBegin
   2
_NONE
  70
0
  10
0.0
  20
0.0
  30
0.0
   3
_NONE
   0
CIRCLE
   5
AD
 100
AcDbEntity
   8
0
 370
-2
 100
AcDbCircle
   6
BYBLOCK
  62
0
  10
0.0
  20
0.0
  30
0.0
  40
 0.25000000000000
   0
ENDBLK
   5
AE
 100
AcDbEntity
   8
0
 100
AcDbBlockEnd
   0
BLOCK
   5
AF
 100
AcDbEntity
   8
0
 100
AcDbBlockBegin
   2
_DOTBLANK
  70
0
  10
0.0
  20
0.0
  30
0.0
   3
_DOTBLANK
   0
CIRCLE
   5
B0
 100
AcDbEntity
   8
0
 370
-2
 100
AcDbCircle
   6
BYBLOCK
  62
0
  10
0.0
  20
0.0
  30
0.0
  40
 0.50000000000000
   0
LINE
   5
B1
 100
AcDbEntity
   8
0
 370
-2
 100
AcDbLine
   6
BYBLOCK
  62
0
  10
-0.50000000000000
  20
0.0
  30
0.0
  11
-1.0000000000000
  21
0.0
  31
0.0
   0
ENDBLK
   5
B2
 100
AcDbEntity
   8
0
 100
AcDbBlockEnd
   0
BLOCK
   5
B3
 100
AcDbEntity
   8
0
 100
AcDbBlockBegin
   2
_INTEGRAL
  70
0
  10
0.0
  20
0.0
  30
0.0
   3
_INTEGRAL
   0
ARC
   5
B4
 100
AcDbEntity
   8
0
 370
-2
   6
BYBLOCK
  62
0
 100
AcDbCircle
  10
 0.44488800000000
  20
-0.91335000000000E-1
  30
0.0
  40
 0.45416700000000
 100
AcDbArc
  50
 102.00000000000
  51
 168.00000000000
   0
ARC
   5
B5
 100
AcDbEntity
   8
0
 370
-2
   6
BYBLOCK
  62
0
 100
AcDbCircle
  10
-0.44488800000000
  20
 0.91335000000000E-1
  30
0.0
  40
 0.45416700000000
 100
AcDbArc
  50
 282.00000000000
  51
 348.00000000000
   0
ENDBLK
   5
B6
 100
AcDbEntity
   8
0
 100
AcDbBlockEnd
   0
BLOCK
   5
B7
 100
AcDbEntity
   8
0
 100
AcDbBlockBegin
   2
*D2
  70
65
  10
0.0
  20
0.0
  30
0.0
   3
*D2
   0
LINE
   5
B8
 100
AcDbEntity
   8
LEVEL001
 370
13
 100
AcDbLine
   6
CONTINUOUS
  62
6
  10
 1608.6278458544
  20
 4421.2640449430
  30
0.0
  11
 1089.0126035838
  21
 4121.2640449429
  31
0.0
   0
INSERT
   5
B9
 100
AcDbEntity
   8
LEVEL001
   6
CONTINUOUS
  62
6
 100
AcDbBlockReference
   2
_OPEN
  10
 1608.6278458544
  20
 4421.2640449430
  30
0.0
  41
 30.000000000000
  42
 30.000000000000
  43
 30.000000000000
  50
 30.000000000004
   0
INSERT
   5
BA
 100
AcDbEntity
   8
LEVEL001
   6
CONTINUOUS
  62
6
 100
AcDbBlockReference
   2
_OPEN
  10
 1089.0126035838
  20
 4121.2640449429
  30
0.0
  41
 30.000000000000
  42
 30.000000000000
  43
 30.000000000000
  50
 210.00000000000
   0
MTEXT
   5
BB
 100
AcDbEntity
   8
LEVEL001
 370
13
  62
1
 100
AcDbMText
  10
 1334.6773675762
  20
 4295.7601920786
  30
0.0
  40
 66.000000000000
  41
0.0
  71
8
  72
1
   1
\A1;%%c600
   7
GMM002
  11
 0.86602540378441
  21
 0.50000000000006
  31
0.0
   0
ENDBLK
   5
BC
 100
AcDbEntity
   8
0
 100
AcDbBlockEnd
   0
BLOCK
   5
BD
 100
AcDbEntity
   8
0
 100
AcDbBlockBegin
   2
*D14
  70
65
  10
0.0
  20
0.0
  30
0.0
   3
*D14
   0
LINE
   5
BE
 100
AcDbEntity
   8
LEVEL001
 370
13
 100
AcDbLine
   6
CONTINUOUS
  62
6
  10
 1098.8206343077
  20
 541.26404494382
  30
0.0
  11
 1098.8206343077
  21
 241.26404494382
  31
0.0
   0
LINE
   5
BF
 100
AcDbEntity
   8
LEVEL001
 370
13
 100
AcDbLine
   6
CONTINUOUS
  62
6
  10
 1598.8206343077
  20
 541.26404494382
  30
0.0
  11
 1598.8206343077
  21
 241.26404494382
  31
0.0
   0
LINE
   5
C0
 100
AcDbEntity
   8
LEVEL001
 370
13
 100
AcDbLine
   6
CONTINUOUS
  62
6
  10
 1098.8206343077
  20
 271.26404494382
  30
0.0
  11
 1598.8206343077
  21
 271.26404494382
  31
0.0
   0
INSERT
   5
C1
 100
AcDbEntity
   8
LEVEL001
   6
CONTINUOUS
  62
6
 100
AcDbBlockReference
   2
_OPEN
  10
 1098.8206343077
  20
 271.26404494382
  30
0.0
  41
 30.000000000000
  42
 30.000000000000
  43
 30.000000000000
  50
 180.00000000000
   0
INSERT
   5
C2
 100
AcDbEntity
   8
LEVEL001
   6
CONTINUOUS
  62
6
 100
AcDbBlockReference
   2
_OPEN
  10
 1598.8206343077
  20
 271.26404494382
  30
0.0
  41
 30.000000000000
  42
 30.000000000000
  43
 30.000000000000
  50
0.0
   0
MTEXT
   5
C3
 100
AcDbEntity
   8
LEVEL001
 370
13
  62
1
 100
AcDbMText
  10
 1348.8206343077
  20
 299.54975922953
  30
0.0
  40
 66.000000000000
  41
0.0
  71
8
  72
1
   1
\A1;□500
   7
GMM002
   0
ENDBLK
   5
C4
 100
AcDbEntity
   8
0
 100
AcDbBlockEnd
   0
BLOCK
   5
C5
 100
AcDbEntity
   8
0
 100
AcDbBlockBegin
   2
*D15
  70
65
  10
0.0
  20
0.0
  30
0.0
   3
*D15
   0
LINE
   5
C6
 100
AcDbEntity
   8
LEVEL001
 370
13
 100
AcDbLine
   6
CONTINUOUS
  62
6
  10
 1068.8206343077
  20
 571.26404494382
  30
0.0
  11
 568.82022471909
  21
 571.26404494382
  31
0.0
   0
LINE
   5
C7
 100
AcDbEntity
   8
LEVEL001
 370
13
 100
AcDbLine
   6
CONTINUOUS
  62
6
  10
 1068.8206343077
  20
 671.26404494382
  30
0.0
  11
 568.82022471909
  21
 671.26404494382
  31
0.0
   0
LINE
   5
C8
 100
AcDbEntity
   8
LEVEL001
 370
13
 100
AcDbLine
   6
CONTINUOUS
  62
6
  10
 598.82022471909
  20
 571.26404494382
  30
0.0
  11
 598.82022471909
  21
 671.26404494382
  31
0.0
   0
INSERT
   5
C9
 100
AcDbEntity
   8
LEVEL001
   6
CONTINUOUS
  62
6
 100
AcDbBlockReference
   2
_OPEN
  10
 598.82022471909
  20
 571.26404494382
  30
0.0
  41
 30.000000000000
  42
 30.000000000000
  43
 30.000000000000
  50
 270.00000000000
   0
INSERT
   5
CA
 100
AcDbEntity
   8
LEVEL001
   6
CONTINUOUS
  62
6
 100
AcDbBlockReference
   2
_OPEN
  10
 598.82022471909
  20
 671.26404494382
  30
0.0
  41
 30.000000000000
  42
 30.000000000000
  43
 30.000000000000
  50
 90.000000000000
   0
MTEXT
   5
CB
 100
AcDbEntity
   8
LEVEL001
 370
13
  62
1
 100
AcDbMText
  10
 570.53451043338
  20
 621.26404494382
  30
0.0
  40
 66.000000000000
  41
0.0
  71
8
  72
1
   1
\A1;100
   7
GMM002
  11
0.0
  21
 1.0000000000000
  31
0.0
   0
ENDBLK
   5
CC
 100
AcDbEntity
   8
0
 100
AcDbBlockEnd
   0
BLOCK
   5
CD
 100
AcDbEntity
   8
0
 100
AcDbBlockBegin
   2
*D16
  70
65
  10
0.0
  20
0.0
  30
0.0
   3
*D16
   0
LINE
   5
CE
 100
AcDbEntity
   8
LEVEL001
 370
13
 100
AcDbLine
   6
CONTINUOUS
  62
6
  10
 1068.8206343077
  20
 671.26404494382
  30
0.0
  11
 568.82022471909
  21
 671.26404494382
  31
0.0
   0
LINE
   5
CF
 100
AcDbEntity
   8
LEVEL001
 370
13
 100
AcDbLine
   6
CONTINUOUS
  62
6
  10
 768.82069954265
  20
 1471.2640449438
  30
0.0
  11
 568.82022471909
  21
 1471.2640449438
  31
0.0
   0
LINE
   5
D0
 100
AcDbEntity
   8
LEVEL001
 370
13
 100
AcDbLine
   6
CONTINUOUS
  62
6
  10
 598.82022471909
  20
 671.26404494382
  30
0.0
  11
 598.82022471909
  21
 1471.2640449438
  31
0.0
   0
INSERT
   5
D1
 100
AcDbEntity
   8
LEVEL001
   6
CONTINUOUS
  62
6
 100
AcDbBlockReference
   2
_OPEN
  10
 598.82022471909
  20
 671.26404494382
  30
0.0
  41
 30.000000000000
  42
 30.000000000000
  43
 30.000000000000
  50
 270.00000000000
   0
INSERT
   5
D2
 100
AcDbEntity
   8
LEVEL001
   6
CONTINUOUS
  62
6
 100
AcDbBlockReference
   2
_OPEN
  10
 598.82022471909
  20
 1471.2640449438
  30
0.0
  41
 30.000000000000
  42
 30.000000000000
  43
 30.000000000000
  50
 90.000000000000
   0
MTEXT
   5
D3
 100
AcDbEntity
   8
LEVEL001
 370
13
  62
1
 100
AcDbMText
  10
 570.53451043338
  20
 1071.2640449438
  30
0.0
  40
 66.000000000000
  41
0.0
  71
8
  72
1
   1
\A1;800
   7
GMM002
  11
0.0
  21
 1.0000000000000
  31
0.0
   0
ENDBLK
   5
D4
 100
AcDbEntity
   8
0
 100
AcDbBlockEnd
   0
BLOCK
   5
D5
 100
AcDbEntity
   8
0
 100
AcDbBlockBegin
   2
*D17
  70
65
  10
0.0
  20
0.0
  30
0.0
   3
*D17
   0
LINE
   5
D6
 100
AcDbEntity
   8
LEVEL001
 370
13
 100
AcDbLine
   6
CONTINUOUS
  62
6
  10
 768.82069954265
  20
 1471.2640449438
  30
0.0
  11
 568.82022471909
  21
 1471.2640449438
  31
0.0
   0
LINE
   5
D7
 100
AcDbEntity
   8
LEVEL001
 370
13
 100
AcDbLine
   6
CONTINUOUS
  62
6
  10
 1318.8202247191
  20
 3971.2640449438
  30
0.0
  11
 568.82022471909
  21
 3971.2640449438
  31
0.0
   0
LINE
   5
D8
 100
AcDbEntity
   8
LEVEL001
 370
13
 100
AcDbLine
   6
CONTINUOUS
  62
6
  10
 598.82022471909
  20
 1471.2640449438
  30
0.0
  11
 598.82022471909
  21
 3971.2640449438
  31
0.0
   0
INSERT
   5
D9
 100
AcDbEntity
   8
LEVEL001
   6
CONTINUOUS
  62
6
 100
AcDbBlockReference
   2
_OPEN
  10
 598.82022471909
  20
 1471.2640449438
  30
0.0
  41
 30.000000000000
  42
 30.000000000000
  43
 30.000000000000
  50
 270.00000000000
   0
INSERT
   5
DA
 100
AcDbEntity
   8
LEVEL001
   6
CONTINUOUS
  62
6
 100
AcDbBlockReference
   2
_OPEN
  10
 598.82022471909
  20
 3971.2640449438
  30
0.0
  41
 30.000000000000
  42
 30.000000000000
  43
 30.000000000000
  50
 90.000000000000
   0
MTEXT
   5
DB
 100
AcDbEntity
   8
LEVEL001
 370
13
  62
1
 100
AcDbMText
  10
 570.53451043338
  20
 2721.2640449438
  30
0.0
  40
 66.000000000000
  41
0.0
  71
8
  72
1
   1
\A1;2500(標準設置高さ)
   7
GMM002
  11
0.0
  21
 1.0000000000000
  31
0.0
   0
ENDBLK
   5
DC
 100
AcDbEntity
   8
0
 100
AcDbBlockEnd
   0
BLOCK
   5
DD
 100
AcDbEntity
   8
0
 100
AcDbBlockBegin
   2
*D18
  70
65
  10
0.0
  20
0.0
  30
0.0
   3
*D18
   0
LINE
   5
DE
 100
AcDbEntity
   8
LEVEL001
 370
13
 100
AcDbLine
   6
CONTINUOUS
  62
6
  10
 2598.8202247191
  20
 541.26404494382
  30
0.0
  11
 2598.8202247191
  21
 241.26404494382
  31
0.0
   0
LINE
   5
DF
 100
AcDbEntity
   8
LEVEL001
 370
13
 100
AcDbLine
   6
CONTINUOUS
  62
6
  10
 3098.8202247191
  20
 541.26404494382
  30
0.0
  11
 3098.8202247191
  21
 241.26404494382
  31
0.0
   0
LINE
   5
E0
 100
AcDbEntity
   8
LEVEL001
 370
13
 100
AcDbLine
   6
CONTINUOUS
  62
6
  10
 2598.8202247191
  20
 271.26404494382
  30
0.0
  11
 3098.8202247191
  21
 271.26404494382
  31
0.0
   0
INSERT
   5
E1
 100
AcDbEntity
   8
LEVEL001
   6
CONTINUOUS
  62
6
 100
AcDbBlockReference
   2
_OPEN
  10
 2598.8202247191
  20
 271.26404494382
  30
0.0
  41
 30.000000000000
  42
 30.000000000000
  43
 30.000000000000
  50
 180.00000000000
   0
INSERT
   5
E2
 100
AcDbEntity
   8
LEVEL001
   6
CONTINUOUS
  62
6
 100
AcDbBlockReference
   2
_OPEN
  10
 3098.8202247191
  20
 271.26404494382
  30
0.0
  41
 30.000000000000
  42
 30.000000000000
  43
 30.000000000000
  50
0.0
   0
MTEXT
   5
E3
 100
AcDbEntity
   8
LEVEL001
 370
13
  62
1
 100
AcDbMText
  10
 2848.8202247191
  20
 299.54975922953
  30
0.0
  40
 66.000000000000
  41
0.0
  71
8
  72
1
   1
\A1;□500
   7
GMM002
   0
ENDBLK
   5
E4
 100
AcDbEntity
   8
0
 100
AcDbBlockEnd
   0
ENDSEC
   0
SECTION
   2
ENTITIES
   0
MTEXT
   5
E6
 100
AcDbEntity
   8
LEVEL001
 370
13
  62
1
 100
AcDbMText
  10
 1348.8202247191
  20
 5471.2640449438
  30
0.0
  40
 80.000000000000
  41
0.0
  71
5
  72
1
   1
\T1.000000;正　面　図
   7
GMM001
  44
 0.79999984000003
   0
MTEXT
   5
E8
 100
AcDbEntity
   8
LEVEL001
 370
13
  62
1
 100
AcDbMText
  10
 2848.8202247191
  20
 5471.2640449438
  30
0.0
  40
 80.000000000000
  41
0.0
  71
5
  72
1
   1
\T1.000000;側　面　図
   7
GMM001
  44
 0.79999984000003
   0
MTEXT
   5
EA
 100
AcDbEntity
   8
LEVEL001
 370
13
  62
1
 100
AcDbMText
  10
 4098.8202247191
  20
 5471.2640449438
  30
0.0
  40
 80.000000000000
  41
0.0
  71
5
  72
1
   1
\T1.000000;背　面　図
   7
GMM001
  44
 0.79999984000003
   0
CIRCLE
   5
EB
 100
AcDbEntity
   8
LEVEL001
 370
13
 100
AcDbCircle
   6
CONTINUOUS
  62
1
  10
 2973.8202247191
  20
 4596.2640449438
  30
0.0
  40
 69.999997913838
   0
MTEXT
   5
ED
 100
AcDbEntity
   8
LEVEL001
 370
13
  62
7
 100
AcDbMText
  10
 2973.8202247191
  20
 4596.2640449438
  30
0.0
  40
 66.000000000000
  41
0.0
  71
5
  72
1
   1
\T1.000000;１２
   7
GMM002
  44
 0.79999984000003
   0
CIRCLE
   5
EE
 100
AcDbEntity
   8
LEVEL001
 370
13
 100
AcDbCircle
   6
CONTINUOUS
  62
1
  10
 1598.8202247191
  20
 2346.2640449438
  30
0.0
  40
 69.999997913838
   0
MTEXT
   5
F0
 100
AcDbEntity
   8
LEVEL001
 370
13
  62
7
 100
AcDbMText
  10
 1598.8202247191
  20
 2346.2640449438
  30
0.0
  40
 66.000000000000
  41
0.0
  71
5
  72
1
   1
\T1.000000;１０
   7
GMM002
  44
 0.79999984000003
   0
LEADER
   5
F1
 100
AcDbEntity
   8
LEVEL001
 370
13
   6
CONTINUOUS
  62
1
 100
AcDbLeader
   3
GMM001
  73
3
  74
1
  75
0
  40
 66.000000000000
  41
0.0
  76
2
  10
 1386.9702247191
  20
 2221.2640449438
  30
0.0
  10
 1538.5324371547
  20
 2310.6918313702
  30
0.0
  77
1
   0
CIRCLE
   5
F2
 100
AcDbEntity
   8
LEVEL001
 370
13
 100
AcDbCircle
   6
CONTINUOUS
  62
1
  10
 2848.8202247191
  20
 4783.7640449438
  30
0.0
  40
 69.999997913838
   0
CIRCLE
   5
F3
 100
AcDbEntity
   8
LEVEL001
 370
13
 100
AcDbCircle
   6
CONTINUOUS
  62
1
  10
 2988.8202205468
  20
 4783.7640449438
  30
0.0
  40
 69.999997913838
   0
MTEXT
   5
F5
 100
AcDbEntity
   8
LEVEL001
 370
13
  62
7
 100
AcDbMText
  10
 2848.8202247191
  20
 4783.7640449438
  30
0.0
  40
 66.000000000000
  41
0.0
  71
5
  72
1
   1
\T1.000000;６
   7
GMM002
  44
 0.79999984000003
   0
MTEXT
   5
F7
 100
AcDbEntity
   8
LEVEL001
 370
13
  62
7
 100
AcDbMText
  10
 2988.8202205468
  20
 4783.7640449438
  30
0.0
  40
 66.000000000000
  41
0.0
  71
5
  72
1
   1
\T1.000000;８
   7
GMM002
  44
 0.79999984000003
   0
CIRCLE
   5
F8
 100
AcDbEntity
   8
LEVEL001
 370
13
 100
AcDbCircle
   6
CONTINUOUS
  62
7
  10
 1348.8202247191
  20
 4271.2640449430
  30
0.0
  40
 300.00000000000
   0
LINE
   5
F9
 100
AcDbEntity
   8
LEVEL001
 370
13
 100
AcDbLine
   6
CONTINUOUS
  62
7
  10
 1642.0232260680
  20
 4362.2640449430
  30
0.0
  11
 1634.6855776390
  21
 4362.2640449430
  31
0.0
   0
LINE
   5
FA
 100
AcDbEntity
   8
LEVEL001
 370
13
 100
AcDbLine
   6
CONTINUOUS
  62
7
  10
 1055.6172233702
  20
 4362.2640449430
  30
0.0
  11
 1062.9548717992
  21
 4362.2640449430
  31
0.0
   0
ARC
   5
FB
 100
AcDbEntity
   8
LEVEL001
 370
13
   6
CONTINUOUS
  62
1
 100
AcDbCircle
  10
 1627.0567153393
  20
 4401.0078512973
  30
0.0
  40
 7.5000000000000
 100
AcDbArc
  50
 294.30011558161
  51
 115.69988441839
   0
ARC
   5
FC
 100
AcDbEntity
   8
LEVEL001
 370
13
   6
CONTINUOUS
  62
1
 100
AcDbCircle
  10
 1070.5837340989
  20
 4401.0078512973
  30
0.0
  40
 7.5000000000000
 100
AcDbArc
  50
 64.300115581635
  51
 245.69988441836
   0
ARC
   5
FD
 100
AcDbEntity
   8
LEVEL001
 370
13
   6
CONTINUOUS
  62
1
 100
AcDbCircle
  10
 1348.8202247191
  20
 3971.2640449430
  30
0.0
  40
 7.5000000000000
 100
AcDbArc
  50
 179.28378410398
  51
 0.71621589602122
   0
ARC
   5
FE
 100
AcDbEntity
   8
LEVEL001
 370
13
   6
CONTINUOUS
  62
1
 100
AcDbCircle
  10
 1453.8204087201
  20
 4559.7496795242
  30
0.0
  40
 7.5000000000000
 100
AcDbArc
  50
 339.30011558096
  51
 160.69988441904
   0
ARC
   5
FF
 100
AcDbEntity
   8
LEVEL001
 370
13
   6
CONTINUOUS
  62
1
 100
AcDbCircle
  10
 1243.8200407181
  20
 4559.7496795242
  30
0.0
  40
 7.5000000000000
 100
AcDbArc
  50
 19.300115581357
  51
 200.69988441867
   0
ARC
   5
100
 100
AcDbEntity
   8
LEVEL001
 370
13
   6
CONTINUOUS
  62
1
 100
AcDbCircle
  10
 1094.4057958722
  20
 4112.2882656729
  30
0.0
  40
 7.5000000000000
 100
AcDbArc
  50
 121.28378410396
  51
 302.71621589608
   0
ARC
   5
101
 100
AcDbEntity
   8
LEVEL001
 370
13
   6
CONTINUOUS
  62
1
 100
AcDbCircle
  10
 1603.2346535659
  20
 4112.2882656729
  30
0.0
  40
 7.5000000000000
 100
AcDbArc
  50
 237.28378410392
  51
 58.716215896037
   0
ARC
   5
102
 100
AcDbEntity
   8
LEVEL001
 370
13
   6
CONTINUOUS
  62
7
 100
AcDbCircle
  10
 1348.8202247191
  20
 4271.2640449430
  30
0.0
  40
 307.00000000000
 100
AcDbArc
  50
 17.242522646568
  51
 162.75747735343
   0
CIRCLE
   5
103
 100
AcDbEntity
   8
LEVEL001
 370
13
 100
AcDbCircle
   6
CONTINUOUS
  62
2
  10
 1348.8202247191
  20
 4271.2640449430
  30
0.0
  40
 285.00000000000
   0
LINE
   5
104
 100
AcDbEntity
   8
LEVEL001
 370
13
 100
AcDbLine
   6
DASHDOT
  62
6
  10
 1678.8202247191
  20
 4271.2640449430
  30
0.0
  11
 1018.8202247191
  21
 4271.2640449430
  31
0.0
   0
DIMENSION
   5
105
 100
AcDbEntity
   8
LEVEL001
 370
13
   6
CONTINUOUS
  62
6
 100
AcDbDimension
   2
*D2
  10
 1608.6278458544
  20
 4421.2640449430
  30
0.0
  11
 1334.6773675762
  21
 4295.7601920786
  31
0.0
  70
3
   3
GMM002
 100
AcDbDiametricDimension
  15
 1089.0126035838
  25
 4121.2640449429
  35
0.0
   0
LINE
   5
106
 100
AcDbEntity
   8
LEVEL001
 370
13
 100
AcDbLine
   6
DASHDOT
  62
6
  10
 2942.2075683950
  20
 4271.2640449430
  30
0.0
  11
 2577.2600695056
  21
 4271.2640449430
  31
0.0
   0
LWPOLYLINE
   5
107
 100
AcDbEntity
   8
LEVEL001
 370
13
   6
CONTINUOUS
  62
7
 100
AcDbPolyline
  90
4
  70
1
  10
 2731.4279582484
  20
 4294.2640449430
  10
 2745.4279582484
  20
 4294.2640449430
  10
 2745.4279582484
  20
 4308.2640449430
  10
 2731.4279582484
  20
 4308.2640449430
   0
LWPOLYLINE
   5
108
 100
AcDbEntity
   8
LEVEL001
 370
13
   6
CONTINUOUS
  62
7
 100
AcDbPolyline
  90
4
  70
1
  10
 2731.4279582484
  20
 4234.2640449430
  10
 2745.4279582484
  20
 4234.2640449430
  10
 2745.4279582484
  20
 4248.2640449430
  10
 2731.4279582484
  20
 4248.2640449430
   0
ARC
   5
109
 100
AcDbEntity
   8
LEVEL001
 370
13
   6
CONTINUOUS
  62
7
 100
AcDbCircle
  10
 2781.3693473764
  20
 4266.8494587619
  30
0.0
  40
 8.0000000000000
 100
AcDbArc
  50
 325.00000000000
  51
 145.00000000000
   0
LWPOLYLINE
   5
10A
 100
AcDbEntity
   8
LEVEL001
 370
13
   6
CONTINUOUS
  62
7
 100
AcDbPolyline
  90
4
  70
0
  10
 2763.4279582484
  20
 4216.2640449430
  10
 2925.0035796859
  20
 4216.2640449430
  10
 2925.0035796859
  20
 4326.2640449430
  10
 2763.4279582484
  20
 4326.2640449430
   0
ARC
   5
10B
 100
AcDbEntity
   8
LEVEL001
 370
13
   6
CONTINUOUS
  62
7
 100
AcDbCircle
  10
 2732.2202247191
  20
 4301.2640449429
  30
0.0
  40
 52.000000000000
 100
AcDbArc
  50
 306.88054979701
  51
 325.00000000001
   0
ARC
   5
10C
 100
AcDbEntity
   8
LEVEL001
 370
13
   6
CONTINUOUS
  62
7
 100
AcDbCircle
  10
 2732.2202247191
  20
 4301.2640449429
  30
0.0
  40
 68.000000000000
 100
AcDbArc
  50
 297.31855192773
  51
 325.00000000000
   0
CIRCLE
   5
10D
 100
AcDbEntity
   8
LEVEL001
 370
13
 100
AcDbCircle
   6
CONTINUOUS
  62
1
  10
 2664.8193766970
  20
 4401.0078512974
  30
0.0
  40
 7.5000000000000
   0
CIRCLE
   5
10E
 100
AcDbEntity
   8
LEVEL001
 370
13
 100
AcDbCircle
   6
CONTINUOUS
  62
1
  10
 2664.8193766970
  20
 4559.7496795242
  30
0.0
  40
 7.5000000000000
   0
ARC
   5
10F
 100
AcDbEntity
   8
LEVEL001
 370
13
   6
CONTINUOUS
  62
1
 100
AcDbCircle
  10
 2664.8193766970
  20
 3971.7640449430
  30
0.0
  40
 7.5000000000000
 100
AcDbArc
  50
 180.00000000000
  51
0.0
   0
CIRCLE
   5
110
 100
AcDbEntity
   8
LEVEL001
 370
13
 100
AcDbCircle
   6
CONTINUOUS
  62
1
  10
 2664.8193766970
  20
 4112.2882656729
  30
0.0
  40
 7.5000000000000
   0
LINE
   5
111
 100
AcDbEntity
   8
LEVEL001
 370
13
 100
AcDbLine
   6
CONTINUOUS
  62
1
  10
 2680.2279114609
  20
 4266.2640433824
  30
0.0
  11
 2680.2279156224
  21
 4266.2640449430
  31
0.0
   0
ARC
   5
112
 100
AcDbEntity
   8
LEVEL001
 370
13
   6
CONTINUOUS
  62
1
 100
AcDbCircle
  10
 2675.4290417129
  20
 4271.2640449430
  30
0.0
  40
 4.7988739094943
 100
AcDbArc
  50
 303.26696871547
  51
 56.733031284531
   0
LINE
   5
113
 100
AcDbEntity
   8
LEVEL001
 370
13
 100
AcDbLine
   6
CONTINUOUS
  62
1
  10
 2678.0614202299
  20
 4275.2764973280
  30
0.0
  11
 2676.8193766970
  21
 4275.5193933584
  31
0.0
   0
LINE
   5
114
 100
AcDbEntity
   8
LEVEL001
 370
13
 100
AcDbLine
   6
CONTINUOUS
  62
1
  10
 2678.0614202299
  20
 4267.2515925579
  30
0.0
  11
 2676.8193766970
  21
 4267.0086966976
  31
0.0
   0
LINE
   5
115
 100
AcDbEntity
   8
LEVEL001
 370
13
 100
AcDbLine
   6
CONTINUOUS
  62
1
  10
 2676.8193766970
  20
 4271.2640449430
  30
0.0
  11
 2678.0614202299
  21
 4271.2640449430
  31
0.0
   0
LWPOLYLINE
   5
116
 100
AcDbEntity
   8
LEVEL001
 370
13
   6
CONTINUOUS
  62
7
 100
AcDbPolyline
  90
4
  70
0
  10
 2676.8193766970
  20
 4216.2640449430
  10
 2763.4279582484
  20
 4216.2640449430
  10
 2763.4279582484
  20
 4326.2640449430
  10
 2676.8193766970
  20
 4326.2640449430
   0
LINE
   5
117
 100
AcDbEntity
   8
LEVEL001
 370
13
 100
AcDbLine
   6
CONTINUOUS
  62
6
  10
 2812.2202247191
  20
 4221.2640449430
  30
0.0
  11
 2812.2202247191
  21
 4321.2640449430
  31
0.0
   0
LWPOLYLINE
   5
118
 100
AcDbEntity
   8
LEVEL001
 370
13
   6
CONTINUOUS
  62
7
 100
AcDbPolyline
  90
4
  70
1
  10
 2898.0035796859
  20
 4294.2640449430
  10
 2912.0035796859
  20
 4294.2640449430
  10
 2912.0035796859
  20
 4308.2640449430
  10
 2898.0035796859
  20
 4308.2640449430
   0
LWPOLYLINE
   5
119
 100
AcDbEntity
   8
LEVEL001
 370
13
   6
CONTINUOUS
  62
7
 100
AcDbPolyline
  90
4
  70
1
  10
 2898.0035796859
  20
 4234.2640449430
  10
 2912.0035796859
  20
 4234.2640449430
  10
 2912.0035796859
  20
 4248.2640449430
  10
 2898.0035796859
  20
 4248.2640449430
   0
LINE
   5
11A
 100
AcDbEntity
   8
LEVEL001
 370
13
 100
AcDbLine
   6
CONTINUOUS
  62
6
  10
 2885.4315892399
  20
 4321.2640449430
  30
0.0
  11
 2885.4315892399
  21
 4221.2640449430
  31
0.0
   0
CIRCLE
   5
11B
 100
AcDbEntity
   8
LEVEL001
 370
13
 100
AcDbCircle
   6
CONTINUOUS
  62
7
  10
 4098.8202247191
  20
 4271.2640449430
  30
0.0
  40
 300.00000000000
   0
LINE
   5
11C
 100
AcDbEntity
   8
LEVEL001
 370
13
 100
AcDbLine
   6
CONTINUOUS
  62
7
  10
 3805.6172233702
  20
 4362.2640449430
  30
0.0
  11
 3812.9548717992
  21
 4362.2640449430
  31
0.0
   0
LINE
   5
11D
 100
AcDbEntity
   8
LEVEL001
 370
13
 100
AcDbLine
   6
CONTINUOUS
  62
7
  10
 4392.0232260680
  20
 4362.2640449430
  30
0.0
  11
 4384.6855776390
  21
 4362.2640449430
  31
0.0
   0
ARC
   5
11E
 100
AcDbEntity
   8
LEVEL001
 370
13
   6
CONTINUOUS
  62
1
 100
AcDbCircle
  10
 3820.5837340989
  20
 4401.0078512973
  30
0.0
  40
 7.5000000000000
 100
AcDbArc
  50
 64.300115581517
  51
 245.69988441849
   0
ARC
   5
11F
 100
AcDbEntity
   8
LEVEL001
 370
13
   6
CONTINUOUS
  62
1
 100
AcDbCircle
  10
 4377.0567153393
  20
 4401.0078512973
  30
0.0
  40
 7.5000000000000
 100
AcDbArc
  50
 294.30011558157
  51
 115.69988441843
   0
ARC
   5
120
 100
AcDbEntity
   8
LEVEL001
 370
13
   6
CONTINUOUS
  62
1
 100
AcDbCircle
  10
 4098.8202247191
  20
 3971.2640449430
  30
0.0
  40
 7.5000000000000
 100
AcDbArc
  50
 179.28378410391
  51
 0.71621589609071
   0
ARC
   5
121
 100
AcDbEntity
   8
LEVEL001
 370
13
   6
CONTINUOUS
  62
1
 100
AcDbCircle
  10
 3993.8200407181
  20
 4559.7496795242
  30
0.0
  40
 7.5000000000000
 100
AcDbArc
  50
 19.300115581622
  51
 200.69988441840
   0
ARC
   5
122
 100
AcDbEntity
   8
LEVEL001
 370
13
   6
CONTINUOUS
  62
1
 100
AcDbCircle
  10
 4203.8204087201
  20
 4559.7496795242
  30
0.0
  40
 7.5000000000000
 100
AcDbArc
  50
 339.30011558131
  51
 160.69988441868
   0
ARC
   5
123
 100
AcDbEntity
   8
LEVEL001
 370
13
   6
CONTINUOUS
  62
1
 100
AcDbCircle
  10
 4353.2346535659
  20
 4112.2882656729
  30
0.0
  40
 7.5000000000000
 100
AcDbArc
  50
 237.28378410423
  51
 58.716215895726
   0
ARC
   5
124
 100
AcDbEntity
   8
LEVEL001
 370
13
   6
CONTINUOUS
  62
1
 100
AcDbCircle
  10
 3844.4057958723
  20
 4112.2882656729
  30
0.0
  40
 7.5000000000000
 100
AcDbArc
  50
 121.28378410420
  51
 302.71621589584
   0
ARC
   5
125
 100
AcDbEntity
   8
LEVEL001
 370
13
   6
CONTINUOUS
  62
7
 100
AcDbCircle
  10
 4098.8202247191
  20
 4271.2640449430
  30
0.0
  40
 307.00000000000
 100
AcDbArc
  50
 17.242522646568
  51
 162.75747735343
   0
ARC
   5
126
 100
AcDbEntity
   8
LEVEL001
 370
13
   6
CONTINUOUS
  62
2
 100
AcDbCircle
  10
 4160.3845034512
  20
 4388.0282361852
  30
0.0
  40
 14.999999551465
 100
AcDbArc
  50
 242.19997303132
  51
 310.03934226670
   0
LINE
   5
127
 100
AcDbEntity
   8
LEVEL001
 370
13
 100
AcDbLine
   6
CONTINUOUS
  62
2
  10
 4170.0342051245
  20
 4376.5441931620
  30
0.0
  11
 4268.6480937773
  21
 4459.4076550397
  31
0.0
   0
LINE
   5
128
 100
AcDbEntity
   8
LEVEL001
 370
13
 100
AcDbLine
   6
CONTINUOUS
  62
2
  10
 3993.5400697771
  20
 4342.4780320713
  30
0.0
  11
 3910.6763027237
  21
 4441.0919207241
  31
0.0
   0
LINE
   5
129
 100
AcDbEntity
   8
LEVEL001
 370
13
 100
AcDbLine
   6
CONTINUOUS
  62
2
  10
 4027.6062308679
  20
 4376.5441931620
  30
0.0
  11
 3928.9923422151
  21
 4459.4076550397
  31
0.0
   0
ARC
   5
12A
 100
AcDbEntity
   8
LEVEL001
 370
13
   6
CONTINUOUS
  62
2
 100
AcDbCircle
  10
 3920.6293479043
  20
 4449.4547492003
  30
0.0
  40
 13.000000326526
 100
AcDbArc
  50
 49.961123640752
  51
 220.03792170803
   0
ARC
   5
12B
 100
AcDbEntity
   8
LEVEL001
 370
13
   6
CONTINUOUS
  62
2
 100
AcDbCircle
  10
 4037.2561678628
  20
 4388.0280384474
  30
0.0
  40
 14.999999551465
 100
AcDbArc
  50
 229.95948366515
  51
 297.80164640215
   0
ARC
   5
12C
 100
AcDbEntity
   8
LEVEL001
 370
13
   6
CONTINUOUS
  62
2
 100
AcDbCircle
  10
 3982.0561256214
  20
 4332.8282127376
  30
0.0
  40
 14.999999551465
 100
AcDbArc
  50
 332.19916331550
  51
 40.039929295815
   0
ARC
   5
12D
 100
AcDbEntity
   8
LEVEL001
 370
13
   6
CONTINUOUS
  62
2
 100
AcDbCircle
  10
 4098.8205231720
  20
 4271.2640516658
  30
0.0
  40
 116.99999459408
 100
AcDbArc
  50
 62.199479478545
  51
 117.80052052146
   0
CIRCLE
   5
12E
 100
AcDbEntity
   8
LEVEL001
 370
13
 100
AcDbCircle
   6
CONTINUOUS
  62
2
  10
 4098.8202179962
  20
 4271.2640449430
  30
0.0
  40
 99.999997009768
   0
LINE
   5
12F
 100
AcDbEntity
   8
LEVEL001
 370
13
 100
AcDbLine
   6
CONTINUOUS
  62
2
  10
 3993.5400697771
  20
 4200.0500578146
  30
0.0
  11
 3910.6763027237
  21
 4101.4361691618
  31
0.0
   0
LINE
   5
130
 100
AcDbEntity
   8
LEVEL001
 370
13
 100
AcDbLine
   6
CONTINUOUS
  62
2
  10
 4027.6062308679
  20
 4165.9838967239
  30
0.0
  11
 3928.9923422151
  21
 4083.1204348462
  31
0.0
   0
ARC
   5
131
 100
AcDbEntity
   8
LEVEL001
 370
13
   6
CONTINUOUS
  62
2
 100
AcDbCircle
  10
 3920.6293479043
  20
 4093.0733406856
  30
0.0
  40
 13.000000326526
 100
AcDbArc
  50
 139.96207829197
  51
 310.03887635925
   0
ARC
   5
132
 100
AcDbEntity
   8
LEVEL001
 370
13
   6
CONTINUOUS
  62
2
 100
AcDbCircle
  10
 3982.0561256214
  20
 4209.6998771483
  30
0.0
  40
 14.999999551465
 100
AcDbArc
  50
 319.96007070419
  51
 27.800836684501
   0
ARC
   5
133
 100
AcDbEntity
   8
LEVEL001
 370
13
   6
CONTINUOUS
  62
2
 100
AcDbCircle
  10
 4037.2561678628
  20
 4154.5000514385
  30
0.0
  40
 14.999999551465
 100
AcDbArc
  50
 62.198353597853
  51
 130.04051633485
   0
ARC
   5
134
 100
AcDbEntity
   8
LEVEL001
 370
13
   6
CONTINUOUS
  62
2
 100
AcDbCircle
  10
 4098.8205231720
  20
 4271.2640382201
  30
0.0
  40
 116.99999459408
 100
AcDbArc
  50
 242.19947947854
  51
 297.80052052146
   0
ARC
   5
135
 100
AcDbEntity
   8
LEVEL001
 370
13
   6
CONTINUOUS
  62
2
 100
AcDbCircle
  10
 4160.3845034512
  20
 4154.4998537007
  30
0.0
  40
 14.999999551465
 100
AcDbArc
  50
 49.960657733298
  51
 117.80002696868
   0
LINE
   5
136
 100
AcDbEntity
   8
LEVEL001
 370
13
 100
AcDbLine
   6
CONTINUOUS
  62
2
  10
 4170.0342051245
  20
 4165.9838967239
  30
0.0
  11
 4268.6480937773
  21
 4083.1204348462
  31
0.0
   0
ARC
   5
137
 100
AcDbEntity
   8
LEVEL001
 370
13
   6
CONTINUOUS
  62
2
 100
AcDbCircle
  10
 4098.8202112733
  20
 4271.2640449430
  30
0.0
  40
 116.99999459408
 100
AcDbArc
  50
 152.19947947855
  51
 207.80052052145
   0
ARC
   5
138
 100
AcDbEntity
   8
LEVEL001
 370
13
   6
CONTINUOUS
  62
2
 100
AcDbCircle
  10
 4215.5843103710
  20
 4332.8282127376
  30
0.0
  40
 14.999999551465
 100
AcDbArc
  50
 139.96007070418
  51
 207.80083668449
   0
LINE
   5
139
 100
AcDbEntity
   8
LEVEL001
 370
13
 100
AcDbLine
   6
CONTINUOUS
  62
2
  10
 4204.1003662153
  20
 4342.4780320713
  30
0.0
  11
 4286.9641332687
  21
 4441.0919207241
  31
0.0
   0
ARC
   5
13A
 100
AcDbEntity
   8
LEVEL001
 370
13
   6
CONTINUOUS
  62
2
 100
AcDbCircle
  10
 4277.0110880881
  20
 4449.4547492003
  30
0.0
  40
 13.000000326526
 100
AcDbArc
  50
 319.96207829198
  51
 130.03887635924
   0
ARC
   5
13B
 100
AcDbEntity
   8
LEVEL001
 370
13
   6
CONTINUOUS
  62
2
 100
AcDbCircle
  10
 4277.0110880881
  20
 4093.0733406856
  30
0.0
  40
 13.000000326526
 100
AcDbArc
  50
 229.96112364076
  51
 40.037921708021
   0
LINE
   5
13C
 100
AcDbEntity
   8
LEVEL001
 370
13
 100
AcDbLine
   6
CONTINUOUS
  62
2
  10
 4204.1003662153
  20
 4200.0500578146
  30
0.0
  11
 4286.9641332687
  21
 4101.4361691618
  31
0.0
   0
ARC
   5
13D
 100
AcDbEntity
   8
LEVEL001
 370
13
   6
CONTINUOUS
  62
2
 100
AcDbCircle
  10
 4215.5843103710
  20
 4209.6998771483
  30
0.0
  40
 14.999999551465
 100
AcDbArc
  50
 152.19916331551
  51
 220.03992929582
   0
ARC
   5
13E
 100
AcDbEntity
   8
LEVEL001
 370
13
   6
CONTINUOUS
  62
2
 100
AcDbCircle
  10
 4098.8202247191
  20
 4271.2640449430
  30
0.0
  40
 116.99999459408
 100
AcDbArc
  50
 332.19947947855
  51
 27.800520521455
   0
LINE
   5
13F
 100
AcDbEntity
   8
LEVEL001
 370
13
 100
AcDbLine
   6
CONTINUOUS
  62
6
  10
 4010.1465145931
  20
 4344.2315720579
  30
0.0
  11
 3944.0179765314
  21
 4422.9293846461
  31
0.0
   0
LINE
   5
140
 100
AcDbEntity
   8
LEVEL001
 370
13
 100
AcDbLine
   6
CONTINUOUS
  62
6
  10
 4025.8526908812
  20
 4359.9380535219
  30
0.0
  11
 3947.1545731173
  21
 4426.0665915835
  31
0.0
   0
LINE
   5
141
 100
AcDbEntity
   8
LEVEL001
 370
13
 100
AcDbLine
   6
CONTINUOUS
  62
6
  10
 4171.7877451112
  20
 4359.9380535219
  30
0.0
  11
 4250.4858628751
  21
 4426.0665915835
  31
0.0
   0
LINE
   5
142
 100
AcDbEntity
   8
LEVEL001
 370
13
 100
AcDbLine
   6
CONTINUOUS
  62
6
  10
 4010.1465145931
  20
 4198.2965178280
  30
0.0
  11
 3944.0179765314
  21
 4119.5987052398
  31
0.0
   0
LINE
   5
143
 100
AcDbEntity
   8
LEVEL001
 370
13
 100
AcDbLine
   6
CONTINUOUS
  62
6
  10
 4025.8526908812
  20
 4182.5900363640
  30
0.0
  11
 3947.1545731173
  21
 4116.4614983024
  31
0.0
   0
LINE
   5
144
 100
AcDbEntity
   8
LEVEL001
 370
13
 100
AcDbLine
   6
CONTINUOUS
  62
6
  10
 4171.7877451112
  20
 4182.5900363640
  30
0.0
  11
 4250.4858628751
  21
 4116.4614983024
  31
0.0
   0
LINE
   5
145
 100
AcDbEntity
   8
LEVEL001
 370
13
 100
AcDbLine
   6
CONTINUOUS
  62
6
  10
 4187.4945317509
  20
 4344.2315720579
  30
0.0
  11
 4253.6230698125
  21
 4422.9293846461
  31
0.0
   0
LINE
   5
146
 100
AcDbEntity
   8
LEVEL001
 370
13
 100
AcDbLine
   6
CONTINUOUS
  62
6
  10
 4187.4945317509
  20
 4198.2965178280
  30
0.0
  11
 4253.6230698125
  21
 4119.5987052398
  31
0.0
   0
CIRCLE
   5
147
 100
AcDbEntity
   8
LEVEL001
 370
13
 100
AcDbCircle
   6
CONTINUOUS
  62
7
  10
 4058.8202247191
  20
 4306.2640449430
  30
0.0
  40
 7.0000000000000
   0
LINE
   5
148
 100
AcDbEntity
   8
LEVEL001
 370
13
 100
AcDbLine
   6
DASHDOT
  62
6
  10
 4058.8202247191
  20
 4286.2640449430
  30
0.0
  11
 4058.8202247191
  21
 4326.2640449430
  31
0.0
   0
LINE
   5
149
 100
AcDbEntity
   8
LEVEL001
 370
13
 100
AcDbLine
   6
DASHDOT
  62
6
  10
 4078.8202247191
  20
 4306.2640449430
  30
0.0
  11
 4038.8202247191
  21
 4306.2640449430
  31
0.0
   0
CIRCLE
   5
14A
 100
AcDbEntity
   8
LEVEL001
 370
13
 100
AcDbCircle
   6
CONTINUOUS
  62
7
  10
 4138.8202247191
  20
 4306.2640449430
  30
0.0
  40
 7.0000000000000
   0
LINE
   5
14B
 100
AcDbEntity
   8
LEVEL001
 370
13
 100
AcDbLine
   6
DASHDOT
  62
6
  10
 4118.8202247191
  20
 4306.2640449430
  30
0.0
  11
 4158.8202247191
  21
 4306.2640449430
  31
0.0
   0
LINE
   5
14C
 100
AcDbEntity
   8
LEVEL001
 370
13
 100
AcDbLine
   6
DASHDOT
  62
6
  10
 4138.8202247191
  20
 4286.2640449430
  30
0.0
  11
 4138.8202247191
  21
 4326.2640449430
  31
0.0
   0
CIRCLE
   5
14D
 100
AcDbEntity
   8
LEVEL001
 370
13
 100
AcDbCircle
   6
CONTINUOUS
  62
7
  10
 4138.8202247191
  20
 4236.2640449430
  30
0.0
  40
 7.0000000000000
   0
LINE
   5
14E
 100
AcDbEntity
   8
LEVEL001
 370
13
 100
AcDbLine
   6
DASHDOT
  62
6
  10
 4138.8202247191
  20
 4256.2640449430
  30
0.0
  11
 4138.8202247191
  21
 4216.2640449430
  31
0.0
   0
LINE
   5
14F
 100
AcDbEntity
   8
LEVEL001
 370
13
 100
AcDbLine
   6
DASHDOT
  62
6
  10
 4118.8202247191
  20
 4236.2640449430
  30
0.0
  11
 4158.8202247191
  21
 4236.2640449430
  31
0.0
   0
CIRCLE
   5
150
 100
AcDbEntity
   8
LEVEL001
 370
13
 100
AcDbCircle
   6
CONTINUOUS
  62
7
  10
 4058.8202247191
  20
 4236.2640449430
  30
0.0
  40
 7.0000000000000
   0
LINE
   5
151
 100
AcDbEntity
   8
LEVEL001
 370
13
 100
AcDbLine
   6
DASHDOT
  62
6
  10
 4078.8202247191
  20
 4236.2640449430
  30
0.0
  11
 4038.8202247191
  21
 4236.2640449430
  31
0.0
   0
LINE
   5
152
 100
AcDbEntity
   8
LEVEL001
 370
13
 100
AcDbLine
   6
DASHDOT
  62
6
  10
 4058.8202247191
  20
 4256.2640449430
  30
0.0
  11
 4058.8202247191
  21
 4216.2640449430
  31
0.0
   0
LINE
   5
153
 100
AcDbEntity
   8
LEVEL001
 370
13
 100
AcDbLine
   6
DASHDOT
  62
6
  10
 4098.8202247191
  20
 3941.2640449430
  30
0.0
  11
 4098.8202247191
  21
 4601.2640449430
  31
0.0
   0
LINE
   5
154
 100
AcDbEntity
   8
LEVEL001
 370
13
 100
AcDbLine
   6
DASHDOT
  62
6
  10
 3768.8202247191
  20
 4271.2640449430
  30
0.0
  11
 4428.8202247191
  21
 4271.2640449430
  31
0.0
   0
CIRCLE
   5
155
 100
AcDbEntity
   8
LEVEL001
 370
13
 100
AcDbCircle
   6
CONTINUOUS
  62
1
  10
 2098.8202247191
  20
 3971.7640449430
  30
0.0
  40
 69.999997913838
   0
MTEXT
   5
157
 100
AcDbEntity
   8
LEVEL001
 370
13
  62
7
 100
AcDbMText
  10
 2098.8202247191
  20
 3971.7640449430
  30
0.0
  40
 66.000000000000
  41
0.0
  71
5
  72
1
   1
\T1.000000;１
   7
GMM002
  44
 0.79999984000003
   0
CIRCLE
   5
158
 100
AcDbEntity
   8
LEVEL001
 370
13
 100
AcDbCircle
   6
CONTINUOUS
  62
1
  10
 2098.8202247191
  20
 4596.7640449430
  30
0.0
  40
 69.999997913838
   0
MTEXT
   5
15A
 100
AcDbEntity
   8
LEVEL001
 370
13
  62
7
 100
AcDbMText
  10
 2098.8202247191
  20
 4596.7640449430
  30
0.0
  40
 66.000000000000
  41
0.0
  71
5
  72
1
   1
\T1.000000;３
   7
GMM002
  44
 0.79999984000003
   0
LEADER
   5
15B
 100
AcDbEntity
   8
LEVEL001
 370
13
   6
CONTINUOUS
  62
1
 100
AcDbLeader
   3
GMM003
  73
3
  74
1
  75
0
  40
 66.000000000000
  41
0.0
  76
2
  10
 1581.3040951274
  20
 4471.7640449430
  30
0.0
  10
 2030.7769414471
  20
 4580.3289815263
  30
0.0
  77
1
   0
LEADER
   5
15C
 100
AcDbEntity
   8
LEVEL001
 370
13
   6
CONTINUOUS
  62
1
 100
AcDbLeader
   3
GMM001
  73
3
  74
1
  75
0
  40
 66.000000000000
  41
0.0
  76
2
  10
 2626.1133636436
  20
 4096.7640449430
  30
0.0
  10
 2166.9325162508
  20
 3987.9107303689
  30
0.0
  77
1
   0
LEADER
   5
15D
 100
AcDbEntity
   8
LEVEL001
 370
13
   6
CONTINUOUS
  62
1
 100
AcDbLeader
   3
GMM001
  73
3
  74
1
  75
0
  40
 66.000000000000
  41
0.0
  76
2
  10
 1473.8202247191
  20
 4096.7640449430
  30
0.0
  10
 2030.1795794664
  20
 3985.4921739935
  30
0.0
  77
1
   0
CIRCLE
   5
15E
 100
AcDbEntity
   8
LEVEL001
 370
13
 100
AcDbCircle
   6
CONTINUOUS
  62
1
  10
 1098.8202247191
  20
 3846.7640449430
  30
0.0
  40
 69.999997913838
   0
MTEXT
   5
160
 100
AcDbEntity
   8
LEVEL001
 370
13
  62
7
 100
AcDbMText
  10
 1098.8202247191
  20
 3846.7640449430
  30
0.0
  40
 66.000000000000
  41
0.0
  71
5
  72
1
   1
\T1.000000;５
   7
GMM002
  44
 0.79999984000003
   0
CIRCLE
   5
161
 100
AcDbEntity
   8
LEVEL001
 370
13
 100
AcDbCircle
   6
CONTINUOUS
  62
1
  10
 1598.8202247191
  20
 3846.7640449430
  30
0.0
  40
 69.999997913838
   0
MTEXT
   5
163
 100
AcDbEntity
   8
LEVEL001
 370
13
  62
7
 100
AcDbMText
  10
 1598.8202247191
  20
 3846.7640449430
  30
0.0
  40
 66.000000000000
  41
0.0
  71
5
  72
1
   1
\T1.000000;４
   7
GMM002
  44
 0.79999984000003
   0
LEADER
   5
164
 100
AcDbEntity
   8
LEVEL001
 370
13
   6
CONTINUOUS
  62
1
 100
AcDbLeader
   3
GMM001
  73
3
  74
1
  75
0
  40
 66.000000000000
  41
0.0
  76
2
  10
 1342.1066585339
  20
 3967.9206889817
  30
0.0
  10
 1161.4801739137
  20
 3877.9686996416
  30
0.0
  77
1
   0
LEADER
   5
165
 100
AcDbEntity
   8
LEVEL001
 370
13
   6
CONTINUOUS
  62
1
 100
AcDbLeader
   3
GMM001
  73
3
  74
1
  75
0
  40
 66.000000000000
  41
0.0
  76
2
  10
 1454.9285384787
  20
 3990.6557311832
  30
0.0
  10
 1549.3227515111
  20
 3896.2615181508
  30
0.0
  77
1
   0
CIRCLE
   5
166
 100
AcDbEntity
   8
LEVEL001
 370
13
 100
AcDbCircle
   6
CONTINUOUS
  62
1
  10
 3848.8202247191
  20
 3846.7640449430
  30
0.0
  40
 69.999997913838
   0
MTEXT
   5
168
 100
AcDbEntity
   8
LEVEL001
 370
13
  62
7
 100
AcDbMText
  10
 3848.8202247191
  20
 3846.7640449430
  30
0.0
  40
 66.000000000000
  41
0.0
  71
5
  72
1
   1
\T1.000000;２
   7
GMM002
  44
 0.79999984000003
   0
LEADER
   5
169
 100
AcDbEntity
   8
LEVEL001
 370
13
   6
CONTINUOUS
  62
1
 100
AcDbLeader
   3
GMM001
  73
3
  74
1
  75
0
  40
 66.000000000000
  41
0.0
  76
2
  10
 3973.8202247191
  20
 4096.7640449429
  30
0.0
  10
 3880.1251754711
  20
 3909.3739464470
  30
0.0
  77
1
   0
CIRCLE
   5
16A
 100
AcDbEntity
   8
LEVEL001
 370
13
 100
AcDbCircle
   6
CONTINUOUS
  62
1
  10
 3098.8202247191
  20
 4471.7640449430
  30
0.0
  40
 69.999997913838
   0
CIRCLE
   5
16B
 100
AcDbEntity
   8
LEVEL001
 370
13
 100
AcDbCircle
   6
CONTINUOUS
  62
1
  10
 3238.8202205468
  20
 4471.7640449430
  30
0.0
  40
 69.999997913838
   0
MTEXT
   5
16D
 100
AcDbEntity
   8
LEVEL001
 370
13
  62
7
 100
AcDbMText
  10
 3098.8202247191
  20
 4471.7640449430
  30
0.0
  40
 66.000000000000
  41
0.0
  71
5
  72
1
   1
\T1.000000;７
   7
GMM002
  44
 0.79999984000003
   0
MTEXT
   5
16F
 100
AcDbEntity
   8
LEVEL001
 370
13
  62
7
 100
AcDbMText
  10
 3238.8202205468
  20
 4471.7640449430
  30
0.0
  40
 66.000000000000
  41
0.0
  71
5
  72
1
   1
\T1.000000;９
   7
GMM002
  44
 0.79999984000003
   0
LEADER
   5
170
 100
AcDbEntity
   8
LEVEL001
 370
13
   6
CONTINUOUS
  62
1
 100
AcDbLeader
   3
GMM001
  73
3
  74
1
  75
0
  40
 66.000000000000
  41
0.0
  76
2
  10
 2723.8202247191
  20
 4326.2640449427
  30
0.0
  10
 2829.6840350123
  20
 4716.9305023995
  30
0.0
  77
1
   0
LEADER
   5
171
 100
AcDbEntity
   8
LEVEL001
 370
13
   6
CONTINUOUS
  62
1
 100
AcDbLeader
   3
GMM001
  73
3
  74
1
  75
0
  40
 66.000000000000
  41
0.0
  76
2
  10
 2925.0035796859
  20
 4326.2640449430
  30
0.0
  10
 3045.1440107213
  20
 4426.8322771299
  30
0.0
  77
1
   0
ARC
   5
172
 100
AcDbEntity
   8
LEVEL001
 370
13
   6
CONTINUOUS
  62
7
 100
AcDbCircle
  10
 1403.8202247193
  20
 3651.2640449438
  30
0.0
  40
 20.000000000000
 100
AcDbArc
  50
0.0
  51
 90.000000000000
   0
ARC
   5
173
 100
AcDbEntity
   8
LEVEL001
 370
13
   6
CONTINUOUS
  62
7
 100
AcDbCircle
  10
 1293.8202247193
  20
 3651.2640449438
  30
0.0
  40
 20.000000000000
 100
AcDbArc
  50
 90.000000000000
  51
 180.00000000000
   0
LINE
   5
174
 100
AcDbEntity
   8
LEVEL001
 370
13
 100
AcDbLine
   6
CONTINUOUS
  62
7
  10
 1273.8202247193
  20
 3651.2640449438
  30
0.0
  11
 1273.8202247193
  21
 3291.2640449438
  31
0.0
   0
ARC
   5
175
 100
AcDbEntity
   8
LEVEL001
 370
13
   6
CONTINUOUS
  62
7
 100
AcDbCircle
  10
 1293.8202247193
  20
 3291.2640449438
  30
0.0
  40
 20.000000000000
 100
AcDbArc
  50
 180.00000000000
  51
 270.00000000000
   0
LINE
   5
176
 100
AcDbEntity
   8
LEVEL001
 370
13
 100
AcDbLine
   6
CONTINUOUS
  62
7
  10
 1293.8202247193
  20
 3271.2640449438
  30
0.0
  11
 1403.8202247193
  21
 3271.2640449438
  31
0.0
   0
LINE
   5
177
 100
AcDbEntity
   8
LEVEL001
 370
13
 100
AcDbLine
   6
CONTINUOUS
  62
7
  10
 1423.8202247193
  20
 3291.2640449438
  30
0.0
  11
 1423.8202247193
  21
 3651.2640449438
  31
0.0
   0
ARC
   5
178
 100
AcDbEntity
   8
LEVEL001
 370
13
   6
CONTINUOUS
  62
7
 100
AcDbCircle
  10
 1403.8202247193
  20
 3291.2640449438
  30
0.0
  40
 20.000000000000
 100
AcDbArc
  50
 270.00000000000
  51
 360.00000000000
   0
LINE
   5
179
 100
AcDbEntity
   8
LEVEL001
 370
13
 100
AcDbLine
   6
CONTINUOUS
  62
7
  10
 1403.8202247193
  20
 3671.2640449438
  30
0.0
  11
 1293.8202247193
  21
 3671.2640449438
  31
0.0
   0
LWPOLYLINE
   5
17A
 100
AcDbEntity
   8
LEVEL001
 370
13
   6
CONTINUOUS
  62
5
 100
AcDbPolyline
  90
7
  70
1
  10
 1348.8202247193
  20
 3631.2640449438
  10
 1312.5202258011
  20
 3585.0640463207
  10
 1332.3202252110
  20
 3585.0640463207
  10
 1332.3202252110
  20
 3565.2640469108
  10
 1365.3202242275
  20
 3565.2640469108
  10
 1365.3202242275
  20
 3585.0640463207
  10
 1385.1202236374
  20
 3585.0640463207
   0
LINE
   5
17B
 100
AcDbEntity
   8
LEVEL001
 370
13
 100
AcDbLine
   6
CONTINUOUS
  62
7
  10
 1386.9702247191
  20
 3671.2640449438
  30
0.0
  11
 1386.9702247191
  21
 3973.9544940122
  31
0.0
   0
LINE
   5
17C
 100
AcDbEntity
   8
LEVEL001
 370
13
 100
AcDbLine
   6
CONTINUOUS
  62
7
  10
 1310.6702247191
  20
 3973.9543996341
  30
0.0
  11
 1310.6702247191
  21
 3671.2640449438
  31
0.0
   0
ARC
   5
17D
 100
AcDbEntity
   8
LEVEL001
 370
13
   6
CONTINUOUS
  62
7
 100
AcDbCircle
  10
 2798.8976034695
  20
 3279.9057652344
  30
0.0
  40
 5.0000000000000
 100
AcDbArc
  50
 179.99999999997
  51
 201.80140948633
   0
LINE
   5
17E
 100
AcDbEntity
   8
LEVEL001
 370
13
 100
AcDbLine
   6
CONTINUOUS
  62
7
  10
 2796.9691267786
  20
 3271.2640449438
  30
0.0
  11
 2794.2552200151
  21
 3278.0488118527
  31
0.0
   0
ARC
   5
17F
 100
AcDbEntity
   8
LEVEL001
 370
13
   6
CONTINUOUS
  62
7
 100
AcDbCircle
  10
 2792.8976034695
  20
 3287.1116914029
  30
0.0
  40
 5.0000000000000
 100
AcDbArc
  50
 338.19859051367
  51
 0.26055103950549E-10
   0
LINE
   5
180
 100
AcDbEntity
   8
LEVEL001
 370
13
 100
AcDbLine
   6
CONTINUOUS
  62
7
  10
 2795.7377160692
  20
 3280.7490608844
  30
0.0
  11
 2797.5399869239
  21
 3285.2547380211
  31
0.0
   0
ARC
   5
181
 100
AcDbEntity
   8
LEVEL001
 370
13
   6
CONTINUOUS
  62
7
 100
AcDbCircle
  10
 2800.3800995237
  20
 3278.8921075026
  30
0.0
  40
 5.0000000000000
 100
AcDbArc
  50
 158.19859051364
  51
 201.80140948636
   0
LWPOLYLINE
   5
182
 100
AcDbEntity
   8
LEVEL001
 370
13
   6
CONTINUOUS
  62
7
 100
AcDbPolyline
  90
3
  70
0
  10
 2796.9691267786
  20
 3271.2640449438
  10
 2797.8976034695
  20
 3271.6354356202
  10
 2795.7377160692
  20
 3277.0351541209
   0
LINE
   5
183
 100
AcDbEntity
   8
LEVEL001
 370
13
 100
AcDbLine
   6
CONTINUOUS
  62
7
  10
 2796.9691267786
  20
 3671.2640449454
  30
0.0
  11
 2794.2552200151
  21
 3664.4792780366
  31
0.0
   0
ARC
   5
184
 100
AcDbEntity
   8
LEVEL001
 370
13
   6
CONTINUOUS
  62
7
 100
AcDbCircle
  10
 2798.8976034695
  20
 3662.6223246548
  30
0.0
  40
 5.0000000000000
 100
AcDbArc
  50
 158.19859051367
  51
 180.00000000003
   0
ARC
   5
185
 100
AcDbEntity
   8
LEVEL001
 370
13
   6
CONTINUOUS
  62
7
 100
AcDbCircle
  10
 2792.8976034695
  20
 3655.4163984864
  30
0.0
  40
 5.0000000000000
 100
AcDbArc
  50
 359.99999999997
  51
 21.801409486328
   0
LINE
   5
186
 100
AcDbEntity
   8
LEVEL001
 370
13
 100
AcDbLine
   6
CONTINUOUS
  62
7
  10
 2795.7377160692
  20
 3661.7790290049
  30
0.0
  11
 2797.5399869239
  21
 3657.2733518681
  31
0.0
   0
ARC
   5
187
 100
AcDbEntity
   8
LEVEL001
 370
13
   6
CONTINUOUS
  62
7
 100
AcDbCircle
  10
 2800.3800995237
  20
 3663.6359823866
  30
0.0
  40
 5.0000000000000
 100
AcDbArc
  50
 158.19859051366
  51
 201.80140948634
   0
LWPOLYLINE
   5
188
 100
AcDbEntity
   8
LEVEL001
 370
13
   6
CONTINUOUS
  62
7
 100
AcDbPolyline
  90
3
  70
0
  10
 2796.9691267786
  20
 3671.2640449454
  10
 2797.8976034695
  20
 3670.8926542691
  10
 2795.7377160692
  20
 3665.4929357684
   0
LINE
   5
189
 100
AcDbEntity
   8
LEVEL001
 370
13
 100
AcDbLine
   6
CONTINUOUS
  62
7
  10
 2793.8976034695
  20
 3662.6223246548
  30
0.0
  11
 2793.8976034695
  21
 3279.9057652344
  31
0.0
   0
LINE
   5
18A
 100
AcDbEntity
   8
LEVEL001
 370
13
 100
AcDbLine
   6
CONTINUOUS
  62
7
  10
 2797.8976034695
  20
 3655.4163984864
  30
0.0
  11
 2797.8976034695
  21
 3287.1116914029
  31
0.0
   0
LINE
   5
18B
 100
AcDbEntity
   8
LEVEL001
 370
13
 100
AcDbLine
   6
CONTINUOUS
  62
6
  10
 2800.8976034695
  20
 3506.2641057028
  30
0.0
  11
 2800.8976034695
  21
 3507.2640446637
  31
0.0
   0
LINE
   5
18C
 100
AcDbEntity
   8
LEVEL001
 370
13
 100
AcDbLine
   6
CONTINUOUS
  62
7
  10
 2801.3530822486
  20
 3492.2636785113
  30
0.0
  11
 2801.3535400125
  21
 3450.2637702279
  31
0.0
   0
LINE
   5
18D
 100
AcDbEntity
   8
LEVEL001
 370
13
 100
AcDbLine
   6
CONTINUOUS
  62
7
  10
 2800.8976034695
  20
 3507.2640446637
  30
0.0
  11
 2797.8976034695
  21
 3507.2640446637
  31
0.0
   0
LINE
   5
18E
 100
AcDbEntity
   8
LEVEL001
 370
13
 100
AcDbLine
   6
CONTINUOUS
  62
6
  10
 2797.8976034695
  20
 3506.2641057028
  30
0.0
  11
 2800.8976034695
  21
 3506.2641057028
  31
0.0
   0
LWPOLYLINE
   5
18F
 100
AcDbEntity
   8
LEVEL001
 370
13
   6
CONTINUOUS
  62
6
 100
AcDbPolyline
  90
3
  70
0
  10
 2800.8976034695
  20
 3435.2640449446
  10
 2800.8976034695
  20
 3436.2640754583
  10
 2797.8976034695
  20
 3436.2640754583
   0
ELLIPSE
   5
190
 100
AcDbEntity
   8
LEVEL001
 370
13
   6
CONTINUOUS
  62
7
 100
AcDbEllipse
  10
 2797.3535374614
  20
 3450.2638313804
  30
0.0
  11
 4.0000025516047
  21
0.0
  31
0.0
  40
 0.99999938800000
  41
-1.4343569865528
  42
-0.15288126579161E-4
   0
LINE
   5
191
 100
AcDbEntity
   8
LEVEL001
 370
13
 100
AcDbLine
   6
CONTINUOUS
  62
7
  10
 2797.8976034695
  20
 3435.2640449446
  30
0.0
  11
 2800.8976034695
  21
 3435.2640449446
  31
0.0
   0
ELLIPSE
   5
192
 100
AcDbEntity
   8
LEVEL001
 370
13
   6
CONTINUOUS
  62
7
 100
AcDbEllipse
  10
 2797.3530796988
  20
 3492.2638004625
  30
0.0
  11
 4.0000025516047
  21
0.0
  31
0.0
  40
 0.99999938800000
  41
-0.30487804348912E-4
  42
 1.4342414715503
   0
LWPOLYLINE
   5
193
 100
AcDbEntity
   8
LEVEL001
 370
13
   6
CONTINUOUS
  62
7
 100
AcDbPolyline
  90
4
  70
0
  10
 2801.3531094925
  20
 3489.7640449446
  10
 2906.8976034695
  20
 3489.7640449446
  10
 2906.8976034695
  20
 3452.7640449446
  10
 2801.3535127616
  20
 3452.7640449446
   0
LINE
   5
194
 100
AcDbEntity
   8
LEVEL001
 370
13
 100
AcDbLine
   6
CONTINUOUS
  62
6
  10
 2812.3455380739
  20
 3476.7640449446
  30
0.0
  11
 2812.3455380739
  21
 3465.7640449446
  31
0.0
   0
LINE
   5
195
 100
AcDbEntity
   8
LEVEL001
 370
13
 100
AcDbLine
   6
CONTINUOUS
  62
6
  10
 2812.3455380739
  20
 3463.7640449446
  30
0.0
  11
 2812.3455380739
  21
 3454.7640449446
  31
0.0
   0
LINE
   5
196
 100
AcDbEntity
   8
LEVEL001
 370
13
 100
AcDbLine
   6
CONTINUOUS
  62
6
  10
 2812.3455380739
  20
 3487.7640449446
  30
0.0
  11
 2812.3455380739
  21
 3478.7640449446
  31
0.0
   0
LINE
   5
197
 100
AcDbEntity
   8
LEVEL001
 370
13
 100
AcDbLine
   6
CONTINUOUS
  62
6
  10
 2885.7256044691
  20
 3464.7640449446
  30
0.0
  11
 2813.6064326434
  21
 3464.7640449446
  31
0.0
   0
LINE
   5
198
 100
AcDbEntity
   8
LEVEL001
 370
13
 100
AcDbLine
   6
CONTINUOUS
  62
6
  10
 2813.6064326434
  20
 3477.7640449446
  30
0.0
  11
 2885.7256044691
  21
 3477.7640449446
  31
0.0
   0
LINE
   5
199
 100
AcDbEntity
   8
LEVEL001
 370
13
 100
AcDbLine
   6
CONTINUOUS
  62
6
  10
 2885.7256044691
  20
 3487.7640449446
  30
0.0
  11
 2885.7256044691
  21
 3478.7640449446
  31
0.0
   0
LINE
   5
19A
 100
AcDbEntity
   8
LEVEL001
 370
13
 100
AcDbLine
   6
CONTINUOUS
  62
6
  10
 2885.7256044691
  20
 3463.7640449446
  30
0.0
  11
 2885.7256044691
  21
 3454.7640449446
  31
0.0
   0
LINE
   5
19B
 100
AcDbEntity
   8
LEVEL001
 370
13
 100
AcDbLine
   6
CONTINUOUS
  62
6
  10
 2888.0441295104
  20
 3477.7640449446
  30
0.0
  11
 2888.0441295104
  21
 3464.7640449446
  31
0.0
   0
LWPOLYLINE
   5
19C
 100
AcDbEntity
   8
LEVEL001
 370
13
   6
CONTINUOUS
  62
7
 100
AcDbPolyline
  90
4
  70
1
  10
 2891.8976034695
  20
 3466.2640449446
  10
 2901.8976034695
  20
 3466.2640449446
  10
 2901.8976034695
  20
 3476.2640449446
  10
 2891.8976034695
  20
 3476.2640449446
   0
CIRCLE
   5
19D
 100
AcDbEntity
   8
LEVEL001
 370
13
 100
AcDbCircle
   6
CONTINUOUS
  62
1
  10
 1598.8202247191
  20
 3371.2640449438
  30
0.0
  40
 69.999997913838
   0
MTEXT
   5
19F
 100
AcDbEntity
   8
LEVEL001
 370
13
  62
7
 100
AcDbMText
  10
 1598.8202247191
  20
 3371.2640449438
  30
0.0
  40
 66.000000000000
  41
0.0
  71
5
  72
1
   1
\T1.000000;１３
   7
GMM002
  44
 0.79999984000003
   0
CIRCLE
   5
1A0
 100
AcDbEntity
   8
LEVEL001
 370
13
 100
AcDbCircle
   6
CONTINUOUS
  62
1
  10
 3098.8202247191
  20
 3621.2640449438
  30
0.0
  40
 69.999997913838
   0
CIRCLE
   5
1A1
 100
AcDbEntity
   8
LEVEL001
 370
13
 100
AcDbCircle
   6
CONTINUOUS
  62
1
  10
 3238.8202205468
  20
 3621.2640449438
  30
0.0
  40
 69.999997913838
   0
MTEXT
   5
1A3
 100
AcDbEntity
   8
LEVEL001
 370
13
  62
7
 100
AcDbMText
  10
 3098.8202247191
  20
 3621.2640449438
  30
0.0
  40
 66.000000000000
  41
0.0
  71
5
  72
1
   1
\T1.000000;１４
   7
GMM002
  44
 0.79999984000003
   0
MTEXT
   5
1A5
 100
AcDbEntity
   8
LEVEL001
 370
13
  62
7
 100
AcDbMText
  10
 3238.8202205468
  20
 3621.2640449438
  30
0.0
  40
 66.000000000000
  41
0.0
  71
5
  72
1
   1
\T1.000000;１５
   7
GMM002
  44
 0.79999984000003
   0
LEADER
   5
1A6
 100
AcDbEntity
   8
LEVEL001
 370
13
   6
CONTINUOUS
  62
1
 100
AcDbLeader
   3
GMM001
  73
3
  74
1
  75
0
  40
 66.000000000000
  41
0.0
  76
2
  10
 2906.8976034695
  20
 3489.7640449446
  30
0.0
  10
 3041.0746044858
  20
 3581.6983647170
  30
0.0
  77
1
   0
LEADER
   5
1A7
 100
AcDbEntity
   8
LEVEL001
 370
13
   6
CONTINUOUS
  62
1
 100
AcDbLeader
   3
GMM001
  73
3
  74
1
  75
0
  40
 66.000000000000
  41
0.0
  76
2
  10
 1423.8202247193
  20
 3471.2640449438
  30
0.0
  10
 1538.1984482609
  20
 3406.2640439008
  30
0.0
  77
1
   0
LINE
   5
1A8
 100
AcDbEntity
   8
LEVEL001
 370
13
 100
AcDbLine
   6
CONTINUOUS
  62
7
  10
 2810.6702247191
  20
 3489.7640449446
  30
0.0
  11
 2810.6702247191
  21
 4216.2640449430
  31
0.0
   0
LINE
   5
1A9
 100
AcDbEntity
   8
LEVEL001
 370
13
 100
AcDbLine
   6
CONTINUOUS
  62
7
  10
 2886.9702247191
  20
 4216.2640449430
  30
0.0
  11
 2886.9702247191
  21
 3489.7640449446
  31
0.0
   0
LINE
   5
1AA
 100
AcDbEntity
   8
基礎（５００）
 370
13
 100
AcDbLine
   6
CONTINUOUS
  62
5
  10
 943.82063430751
  20
 1418.7640449438
  30
0.0
  11
 996.32063430751
  21
 1471.2640449438
  31
0.0
   0
LINE
   5
1AB
 100
AcDbEntity
   8
基礎（５００）
 370
13
 100
AcDbLine
   6
CONTINUOUS
  62
5
  10
 927.91073173066
  20
 1434.6739475206
  30
0.0
  11
 964.50082915386
  21
 1471.2640449438
  31
0.0
   0
LINE
   5
1AC
 100
AcDbEntity
   8
基礎（５００）
 370
13
 100
AcDbLine
   6
CONTINUOUS
  62
5
  10
 980.41073173147
  20
 1471.2640449438
  30
0.0
  11
 935.86568301948
  21
 1426.7189962318
  31
0.0
   0
LINE
   5
1AD
 100
AcDbEntity
   8
基礎（５００）
 370
13
 100
AcDbLine
   6
CONTINUOUS
  62
5
  10
 1001.0909265781
  20
 1418.7640449438
  30
0.0
  11
 972.45578044280
  21
 1447.3991910791
  31
0.0
   0
LINE
   5
1AE
 100
AcDbEntity
   8
基礎（５００）
 370
13
 100
AcDbLine
   6
CONTINUOUS
  62
5
  10
 980.41073173102
  20
 1455.3541423673
  30
0.0
  11
 1017.0008291545
  21
 1418.7640449438
  31
0.0
   0
LINE
   5
1AF
 100
AcDbEntity
   8
基礎（５００）
 370
13
 100
AcDbLine
   6
CONTINUOUS
  62
5
  10
 1032.9107317310
  20
 1418.7640449438
  30
0.0
  11
 988.36568301923
  21
 1463.3090936555
  31
0.0
   0
LINE
   5
1B0
 100
AcDbEntity
   8
基礎（５００）
 370
13
 100
AcDbLine
   6
CONTINUOUS
  62
5
  10
 996.32063430751
  20
 1471.2640449438
  30
0.0
  11
 1048.8206343077
  21
 1418.7640449438
  31
0.0
   0
LINE
   5
1B1
 100
AcDbEntity
   8
基礎（５００）
 370
13
 100
AcDbLine
   6
CONTINUOUS
  62
5
  10
 843.59092657764
  20
 1471.2640449438
  30
0.0
  11
 791.09092657764
  21
 1418.7640449438
  31
0.0
   0
LINE
   5
1B2
 100
AcDbEntity
   8
基礎（５００）
 370
13
 100
AcDbLine
   6
CONTINUOUS
  62
5
  10
 807.00082915368
  20
 1418.7640449438
  30
0.0
  11
 859.50082915368
  21
 1471.2640449438
  31
0.0
   0
LINE
   5
1B3
 100
AcDbEntity
   8
基礎（５００）
 370
13
 100
AcDbLine
   6
CONTINUOUS
  62
5
  10
 875.41073173129
  20
 1471.2640449438
  30
0.0
  11
 822.91073173129
  21
 1418.7640449438
  31
0.0
   0
LINE
   5
1B4
 100
AcDbEntity
   8
基礎（５００）
 370
13
 100
AcDbLine
   6
CONTINUOUS
  62
5
  10
 838.82063430732
  20
 1418.7640449438
  30
0.0
  11
 891.32063430732
  21
 1471.2640449438
  31
0.0
   0
LINE
   5
1B5
 100
AcDbEntity
   8
基礎（５００）
 370
13
 100
AcDbLine
   6
CONTINUOUS
  62
5
  10
 896.09092657791
  20
 1418.7640449438
  30
0.0
  11
 867.45578044262
  21
 1447.3991910791
  31
0.0
   0
LINE
   5
1B6
 100
AcDbEntity
   8
基礎（５００）
 370
13
 100
AcDbLine
   6
CONTINUOUS
  62
5
  10
 875.41073173083
  20
 1455.3541423673
  30
0.0
  11
 912.00082915434
  21
 1418.7640449438
  31
0.0
   0
LINE
   5
1B7
 100
AcDbEntity
   8
基礎（５００）
 370
13
 100
AcDbLine
   6
CONTINUOUS
  62
5
  10
 927.91073173077
  20
 1418.7640449438
  30
0.0
  11
 883.36568301905
  21
 1463.3090936555
  31
0.0
   0
LINE
   5
1B8
 100
AcDbEntity
   8
基礎（５００）
 370
13
 100
AcDbLine
   6
CONTINUOUS
  62
5
  10
 891.32063430732
  20
 1471.2640449438
  30
0.0
  11
 943.82063430751
  21
 1418.7640449438
  31
0.0
   0
LINE
   5
1B9
 100
AcDbEntity
   8
基礎（５００）
 370
13
 100
AcDbLine
   6
CONTINUOUS
  62
5
  10
 948.59092657783
  20
 1471.2640449438
  30
0.0
  11
 919.95578044263
  21
 1442.6288988086
  31
0.0
   0
LINE
   5
1BA
 100
AcDbEntity
   8
基礎（５００）
 370
13
 100
AcDbLine
   6
CONTINUOUS
  62
5
  10
 1701.3206343077
  20
 1471.2640449438
  30
0.0
  11
 1648.8206343077
  21
 1418.7640449438
  31
0.0
   0
LINE
   5
1BB
 100
AcDbEntity
   8
基礎（５００）
 370
13
 100
AcDbLine
   6
CONTINUOUS
  62
5
  10
 1664.7305368837
  20
 1418.7640449438
  30
0.0
  11
 1717.2305368837
  21
 1471.2640449438
  31
0.0
   0
LINE
   5
1BC
 100
AcDbEntity
   8
基礎（５００）
 370
13
 100
AcDbLine
   6
CONTINUOUS
  62
5
  10
 1733.1404394613
  20
 1471.2640449438
  30
0.0
  11
 1680.6404394613
  21
 1418.7640449438
  31
0.0
   0
LINE
   5
1BD
 100
AcDbEntity
   8
基礎（５００）
 370
13
 100
AcDbLine
   6
CONTINUOUS
  62
5
  10
 1696.5503420374
  20
 1418.7640449438
  30
0.0
  11
 1749.0503420374
  21
 1471.2640449438
  31
0.0
   0
LINE
   5
1BE
 100
AcDbEntity
   8
基礎（５００）
 370
13
 100
AcDbLine
   6
CONTINUOUS
  62
5
  10
 1753.8206343080
  20
 1418.7640449438
  30
0.0
  11
 1725.1854881727
  21
 1447.3991910791
  31
0.0
   0
LINE
   5
1BF
 100
AcDbEntity
   8
基礎（５００）
 370
13
 100
AcDbLine
   6
CONTINUOUS
  62
5
  10
 1733.1404394609
  20
 1455.3541423673
  30
0.0
  11
 1769.7305368844
  21
 1418.7640449438
  31
0.0
   0
LINE
   5
1C0
 100
AcDbEntity
   8
基礎（５００）
 370
13
 100
AcDbLine
   6
CONTINUOUS
  62
5
  10
 1785.6404394608
  20
 1418.7640449438
  30
0.0
  11
 1741.0953907491
  21
 1463.3090936555
  31
0.0
   0
LINE
   5
1C1
 100
AcDbEntity
   8
基礎（５００）
 370
13
 100
AcDbLine
   6
CONTINUOUS
  62
5
  10
 1749.0503420374
  20
 1471.2640449438
  30
0.0
  11
 1801.5503420376
  21
 1418.7640449438
  31
0.0
   0
LINE
   5
1C2
 100
AcDbEntity
   8
基礎（５００）
 370
13
 100
AcDbLine
   6
CONTINUOUS
  62
5
  10
 1801.5503420376
  20
 1418.7640449438
  30
0.0
  11
 1854.0503420376
  21
 1471.2640449438
  31
0.0
   0
LINE
   5
1C3
 100
AcDbEntity
   8
基礎（５００）
 370
13
 100
AcDbLine
   6
CONTINUOUS
  62
5
  10
 1806.3206343079
  20
 1471.2640449438
  30
0.0
  11
 1777.6854881727
  21
 1442.6288988086
  31
0.0
   0
LINE
   5
1C4
 100
AcDbEntity
   8
基礎（５００）
 370
13
 100
AcDbLine
   6
CONTINUOUS
  62
5
  10
 1785.6404394607
  20
 1434.6739475206
  30
0.0
  11
 1822.2305368839
  21
 1471.2640449438
  31
0.0
   0
LINE
   5
1C5
 100
AcDbEntity
   8
基礎（５００）
 370
13
 100
AcDbLine
   6
CONTINUOUS
  62
5
  10
 1838.1404394615
  20
 1471.2640449438
  30
0.0
  11
 1793.5953907495
  21
 1426.7189962318
  31
0.0
   0
LINE
   5
1C6
 100
AcDbEntity
   8
基礎（５００）
 370
13
 100
AcDbLine
   6
CONTINUOUS
  62
5
  10
 1858.8206343081
  20
 1418.7640449438
  30
0.0
  11
 1830.1854881729
  21
 1447.3991910791
  31
0.0
   0
LINE
   5
1C7
 100
AcDbEntity
   8
基礎（５００）
 370
13
 100
AcDbLine
   6
CONTINUOUS
  62
5
  10
 1838.1404394611
  20
 1455.3541423673
  30
0.0
  11
 1874.7305368846
  21
 1418.7640449438
  31
0.0
   0
LINE
   5
1C8
 100
AcDbEntity
   8
基礎（５００）
 370
13
 100
AcDbLine
   6
CONTINUOUS
  62
5
  10
 1890.6404394610
  20
 1418.7640449438
  30
0.0
  11
 1846.0953907493
  21
 1463.3090936555
  31
0.0
   0
LINE
   5
1C9
 100
AcDbEntity
   8
基礎（５００）
 370
13
 100
AcDbLine
   6
CONTINUOUS
  62
5
  10
 1854.0503420376
  20
 1471.2640449438
  30
0.0
  11
 1906.5503420377
  21
 1418.7640449438
  31
0.0
   0
LINE
   5
1CA
 100
AcDbEntity
   8
基礎（５００）
 370
13
 100
AcDbLine
   6
CONTINUOUS
  62
5
  10
 1598.8206343077
  20
 1471.2640449438
  30
0.0
  11
 1898.8206995427
  21
 1471.2640449438
  31
0.0
   0
LINE
   5
1CB
 100
AcDbEntity
   8
基礎（５００）
 370
13
 100
AcDbLine
   6
CONTINUOUS
  62
5
  10
 1098.8206343077
  20
 1471.2640449438
  30
0.0
  11
 798.82069954265
  21
 1471.2640449438
  31
0.0
   0
MTEXT
   5
1CD
 100
AcDbEntity
   8
基礎（５００）
 370
13
  62
1
 100
AcDbMText
  10
 919.46930475214
  20
 1479.9939819841
  30
0.0
  40
 40.000000000000
  41
0.0
  71
7
  72
1
   1
\T1.000000;ＧＬ
   7
GMM003
  44
 0.79999984000003
   0
LWPOLYLINE
   5
1CE
 100
AcDbEntity
   8
基礎（５００）
 370
13
   6
CONTINUOUS
  62
1
 100
AcDbPolyline
  90
3
  70
1
  10
 891.32063430732
  20
 1471.2640449438
  10
 866.32063430732
  20
 1521.2640449438
  10
 916.32063430732
  20
 1521.2640449438
   0
LWPOLYLINE
   5
1CF
 100
AcDbEntity
   8
LEVEL001
 370
13
   6
CONTINUOUS
  62
3
 100
AcDbPolyline
  90
5
  70
0
  10
 2676.8193766970
  20
 4575.0140449430
  10
 2616.8193766970
  20
 4575.0140449430
  10
 2616.8193766970
  20
 4418.0123335761
  10
 2656.8193766970
  20
 4362.2275492930
  10
 2676.8193766970
  20
 4362.2275492930
   0
LINE
   5
1D0
 100
AcDbEntity
   8
LEVEL001
 370
13
 100
AcDbLine
   6
CONTINUOUS
  62
7
  10
 2676.8193766970
  20
 4575.0140449430
  30
0.0
  11
 2676.8193766970
  21
 4362.2640449430
  31
0.0
   0
LWPOLYLINE
   5
1D1
 100
AcDbEntity
   8
LEVEL001
 370
13
   6
DOT
  62
2
 100
AcDbPolyline
  90
4
  70
0
  10
 2676.8193766970
  20
 4362.2640449430
  10
 2676.8193766970
  20
 4570.7640449430
  10
 2651.8193766970
  20
 4570.7640449430
  10
 2651.8193766970
  20
 4369.2006473284
   0
ARC
   5
1D2
 100
AcDbEntity
   8
LEVEL001
 370
13
   6
DOT
  62
2
 100
AcDbCircle
  10
 3791.4204647976
  20
 4271.2640449430
  30
0.0
  40
 1178.3000000000
 100
AcDbArc
  50
 165.27501303924
  51
 173.16508510128
   0
ARC
   5
1D3
 100
AcDbEntity
   8
LEVEL001
 370
13
   6
CONTINUOUS
  62
7
 100
AcDbCircle
  10
 3791.4204647976
  20
 4271.2640449430
  30
0.0
  40
 1178.3000000000
 100
AcDbArc
  50
 173.16508510128
  51
 194.72498696076
   0
LWPOLYLINE
   5
1D4
 100
AcDbEntity
   8
LEVEL001
 370
13
   6
CONTINUOUS
  62
7
 100
AcDbPolyline
  90
4
  70
0
  10
 2651.8193766970
  20
 4369.2006473284
  10
 2651.8193766970
  20
 3971.7640449430
  10
 2676.8193766970
  20
 3971.7640449430
  10
 2676.8193766970
  20
 4362.2640449430
   0
LEADER
   5
1D5
 100
AcDbEntity
   8
LEVEL001
 370
13
   6
CONTINUOUS
  62
1
 100
AcDbLeader
   3
GMM001
  73
3
  74
1
  75
0
  40
 66.000000000000
  41
0.0
  76
2
  10
 2616.8193766970
  20
 4471.2640449438
  30
0.0
  10
 2166.2125295405
  20
 4577.8358395658
  30
0.0
  77
1
   0
LINE
   5
1D6
 100
AcDbEntity
   8
基礎（５００）
 370
13
 100
AcDbLine
   6
CONTINUOUS
  62
5
  10
 2480.4103221424
  20
 1455.3541423673
  30
0.0
  11
 2517.0004195659
  21
 1418.7640449438
  31
0.0
   0
LINE
   5
1D7
 100
AcDbEntity
   8
基礎（５００）
 370
13
 100
AcDbLine
   6
CONTINUOUS
  62
5
  10
 2532.9103221424
  20
 1418.7640449438
  30
0.0
  11
 2488.3652734306
  21
 1463.3090936555
  31
0.0
   0
LINE
   5
1D8
 100
AcDbEntity
   8
基礎（５００）
 370
13
 100
AcDbLine
   6
CONTINUOUS
  62
5
  10
 2496.3202247189
  20
 1471.2640449438
  30
0.0
  11
 2548.8202247191
  21
 1418.7640449438
  31
0.0
   0
LINE
   5
1D9
 100
AcDbEntity
   8
基礎（５００）
 370
13
 100
AcDbLine
   6
CONTINUOUS
  62
5
  10
 2760.6702899541
  20
 1471.2640449438
  30
0.0
  11
 2298.8202899541
  21
 1471.2640449438
  31
0.0
   0
LINE
   5
1DA
 100
AcDbEntity
   8
基礎（５００）
 370
13
 100
AcDbLine
   6
CONTINUOUS
  62
5
  10
 2443.8202247189
  20
 1418.7640449438
  30
0.0
  11
 2496.3202247189
  21
 1471.2640449438
  31
0.0
   0
LINE
   5
1DB
 100
AcDbEntity
   8
基礎（５００）
 370
13
 100
AcDbLine
   6
CONTINUOUS
  62
5
  10
 2427.9103221421
  20
 1434.6739475206
  30
0.0
  11
 2464.5004195653
  21
 1471.2640449438
  31
0.0
   0
LINE
   5
1DC
 100
AcDbEntity
   8
基礎（５００）
 370
13
 100
AcDbLine
   6
CONTINUOUS
  62
5
  10
 2480.4103221429
  20
 1471.2640449438
  30
0.0
  11
 2435.8652734309
  21
 1426.7189962318
  31
0.0
   0
LINE
   5
1DD
 100
AcDbEntity
   8
基礎（５００）
 370
13
 100
AcDbLine
   6
CONTINUOUS
  62
5
  10
 2501.0905169895
  20
 1418.7640449438
  30
0.0
  11
 2472.4553708542
  21
 1447.3991910791
  31
0.0
   0
LINE
   5
1DE
 100
AcDbEntity
   8
基礎（５００）
 370
13
 100
AcDbLine
   6
CONTINUOUS
  62
5
  10
 2427.9103221422
  20
 1418.7640449438
  30
0.0
  11
 2383.3652734305
  21
 1463.3090936555
  31
0.0
   0
LINE
   5
1DF
 100
AcDbEntity
   8
基礎（５００）
 370
13
 100
AcDbLine
   6
CONTINUOUS
  62
5
  10
 2391.3202247187
  20
 1471.2640449438
  30
0.0
  11
 2443.8202247189
  21
 1418.7640449438
  31
0.0
   0
LINE
   5
1E0
 100
AcDbEntity
   8
基礎（５００）
 370
13
 100
AcDbLine
   6
CONTINUOUS
  62
5
  10
 2448.5905169892
  20
 1471.2640449438
  30
0.0
  11
 2419.9553708540
  21
 1442.6288988086
  31
0.0
   0
LINE
   5
1E1
 100
AcDbEntity
   8
基礎（５００）
 370
13
 100
AcDbLine
   6
CONTINUOUS
  62
5
  10
 2343.5905169890
  20
 1471.2640449438
  30
0.0
  11
 2291.0905169890
  21
 1418.7640449438
  31
0.0
   0
LINE
   5
1E2
 100
AcDbEntity
   8
基礎（５００）
 370
13
 100
AcDbLine
   6
CONTINUOUS
  62
5
  10
 2307.0004195651
  20
 1418.7640449438
  30
0.0
  11
 2359.5004195651
  21
 1471.2640449438
  31
0.0
   0
LINE
   5
1E3
 100
AcDbEntity
   8
基礎（５００）
 370
13
 100
AcDbLine
   6
CONTINUOUS
  62
5
  10
 2375.4103221427
  20
 1471.2640449438
  30
0.0
  11
 2322.9103221427
  21
 1418.7640449438
  31
0.0
   0
LINE
   5
1E4
 100
AcDbEntity
   8
基礎（５００）
 370
13
 100
AcDbLine
   6
CONTINUOUS
  62
5
  10
 2338.8202247187
  20
 1418.7640449438
  30
0.0
  11
 2391.3202247187
  21
 1471.2640449438
  31
0.0
   0
LINE
   5
1E5
 100
AcDbEntity
   8
基礎（５００）
 370
13
 100
AcDbLine
   6
CONTINUOUS
  62
5
  10
 2396.0905169893
  20
 1418.7640449438
  30
0.0
  11
 2367.4553708540
  21
 1447.3991910791
  31
0.0
   0
LINE
   5
1E6
 100
AcDbEntity
   8
基礎（５００）
 370
13
 100
AcDbLine
   6
CONTINUOUS
  62
5
  10
 2375.4103221422
  20
 1455.3541423673
  30
0.0
  11
 2412.0004195657
  21
 1418.7640449438
  31
0.0
   0
LINE
   5
1E7
 100
AcDbEntity
   8
基礎（５００）
 370
13
 100
AcDbLine
   6
CONTINUOUS
  62
5
  10
 3201.3202247191
  20
 1471.2640449438
  30
0.0
  11
 3148.8202247191
  21
 1418.7640449438
  31
0.0
   0
LINE
   5
1E8
 100
AcDbEntity
   8
基礎（５００）
 370
13
 100
AcDbLine
   6
CONTINUOUS
  62
5
  10
 3164.7301272951
  20
 1418.7640449438
  30
0.0
  11
 3217.2301272951
  21
 1471.2640449438
  31
0.0
   0
LINE
   5
1E9
 100
AcDbEntity
   8
基礎（５００）
 370
13
 100
AcDbLine
   6
CONTINUOUS
  62
5
  10
 3233.1400298727
  20
 1471.2640449438
  30
0.0
  11
 3180.6400298727
  21
 1418.7640449438
  31
0.0
   0
LINE
   5
1EA
 100
AcDbEntity
   8
基礎（５００）
 370
13
 100
AcDbLine
   6
CONTINUOUS
  62
5
  10
 3196.5499324488
  20
 1418.7640449438
  30
0.0
  11
 3249.0499324488
  21
 1471.2640449438
  31
0.0
   0
LINE
   5
1EB
 100
AcDbEntity
   8
基礎（５００）
 370
13
 100
AcDbLine
   6
CONTINUOUS
  62
5
  10
 3253.8202247194
  20
 1418.7640449438
  30
0.0
  11
 3225.1850785841
  21
 1447.3991910791
  31
0.0
   0
LINE
   5
1EC
 100
AcDbEntity
   8
基礎（５００）
 370
13
 100
AcDbLine
   6
CONTINUOUS
  62
5
  10
 3233.1400298723
  20
 1455.3541423673
  30
0.0
  11
 3269.7301272958
  21
 1418.7640449438
  31
0.0
   0
LINE
   5
1ED
 100
AcDbEntity
   8
基礎（５００）
 370
13
 100
AcDbLine
   6
CONTINUOUS
  62
5
  10
 3285.6400298722
  20
 1418.7640449438
  30
0.0
  11
 3241.0949811605
  21
 1463.3090936555
  31
0.0
   0
LINE
   5
1EE
 100
AcDbEntity
   8
基礎（５００）
 370
13
 100
AcDbLine
   6
CONTINUOUS
  62
5
  10
 3249.0499324488
  20
 1471.2640449438
  30
0.0
  11
 3301.5499324490
  21
 1418.7640449438
  31
0.0
   0
LINE
   5
1EF
 100
AcDbEntity
   8
基礎（５００）
 370
13
 100
AcDbLine
   6
CONTINUOUS
  62
5
  10
 3301.5499324490
  20
 1418.7640449438
  30
0.0
  11
 3354.0499324490
  21
 1471.2640449438
  31
0.0
   0
LINE
   5
1F0
 100
AcDbEntity
   8
基礎（５００）
 370
13
 100
AcDbLine
   6
CONTINUOUS
  62
5
  10
 3306.3202247193
  20
 1471.2640449438
  30
0.0
  11
 3277.6850785841
  21
 1442.6288988086
  31
0.0
   0
LINE
   5
1F1
 100
AcDbEntity
   8
基礎（５００）
 370
13
 100
AcDbLine
   6
CONTINUOUS
  62
5
  10
 3285.6400298721
  20
 1434.6739475206
  30
0.0
  11
 3322.2301272953
  21
 1471.2640449438
  31
0.0
   0
LINE
   5
1F2
 100
AcDbEntity
   8
基礎（５００）
 370
13
 100
AcDbLine
   6
CONTINUOUS
  62
5
  10
 3338.1400298729
  20
 1471.2640449438
  30
0.0
  11
 3293.5949811609
  21
 1426.7189962318
  31
0.0
   0
LINE
   5
1F3
 100
AcDbEntity
   8
基礎（５００）
 370
13
 100
AcDbLine
   6
CONTINUOUS
  62
5
  10
 3358.8202247195
  20
 1418.7640449438
  30
0.0
  11
 3330.1850785843
  21
 1447.3991910791
  31
0.0
   0
LINE
   5
1F4
 100
AcDbEntity
   8
基礎（５００）
 370
13
 100
AcDbLine
   6
CONTINUOUS
  62
5
  10
 3338.1400298725
  20
 1455.3541423673
  30
0.0
  11
 3374.7301272960
  21
 1418.7640449438
  31
0.0
   0
LINE
   5
1F5
 100
AcDbEntity
   8
基礎（５００）
 370
13
 100
AcDbLine
   6
CONTINUOUS
  62
5
  10
 3390.6400298724
  20
 1418.7640449438
  30
0.0
  11
 3346.0949811607
  21
 1463.3090936555
  31
0.0
   0
LINE
   5
1F6
 100
AcDbEntity
   8
基礎（５００）
 370
13
 100
AcDbLine
   6
CONTINUOUS
  62
5
  10
 3354.0499324490
  20
 1471.2640449438
  30
0.0
  11
 3406.5499324491
  21
 1418.7640449438
  31
0.0
   0
MTEXT
   5
1F8
 100
AcDbEntity
   8
基礎（５００）
 370
13
  62
1
 100
AcDbMText
  10
 2469.4688299286
  20
 1479.9939819841
  30
0.0
  40
 40.000000000000
  41
0.0
  71
7
  72
1
   1
\T1.000000;ＧＬ
   7
GMM003
  44
 0.79999984000003
   0
LWPOLYLINE
   5
1F9
 100
AcDbEntity
   8
基礎（５００）
 370
13
   6
CONTINUOUS
  62
1
 100
AcDbPolyline
  90
3
  70
1
  10
 2441.3201594838
  20
 1471.2640449438
  10
 2416.3201594838
  20
 1521.2640449438
  10
 2466.3201594838
  20
 1521.2640449438
   0
LINE
   5
1FA
 100
AcDbEntity
   8
基礎（５００）
 370
13
 100
AcDbLine
   6
CONTINUOUS
  62
5
  10
 2974.9287719053
  20
 1471.2640449438
  30
0.0
  11
 3398.8202899541
  21
 1471.2640449438
  31
0.0
   0
MTEXT
   5
1FB
 100
AcDbEntity
   8
LEVEL001
 370
13
  62
1
 100
AcDbMText
  10
 1297.6327247193
  20
 3424.5140449438
  30
0.0
  40
 80.000000000000
  41
0.0
  71
4
  72
1
   1
{\T1.000000;注}\P{\T1.000000;意}
   7
GMM004
  44
 0.79999984000003
   0
LWPOLYLINE
   5
1FC
 100
AcDbEntity
   8
基礎（５００）
 370
13
   6
CONTINUOUS
  62
5
 100
AcDbPolyline
  90
6
  70
0
  10
 1310.6706343077
  20
 1471.2640449438
  10
 1098.8206343077
  20
 1471.2640449438
  10
 1098.8206343077
  20
 671.26404494382
  10
 1598.8206343077
  20
 671.26404494382
  10
 1598.8206343077
  20
 1471.2640449438
  10
 1386.9706343077
  20
 1471.2640449438
   0
LINE
   5
1FD
 100
AcDbEntity
   8
基礎（５００）
 370
13
 100
AcDbLine
   6
CONTINUOUS
  62
5
  10
 1248.8206343077
  20
 671.26404494382
  30
0.0
  11
 1198.8206343077
  21
 571.26404494382
  31
0.0
   0
LINE
   5
1FE
 100
AcDbEntity
   8
基礎（５００）
 370
13
 100
AcDbLine
   6
CONTINUOUS
  62
5
  10
 1198.8206343077
  20
 671.26404494382
  30
0.0
  11
 1238.8206343077
  21
 651.26404494382
  31
0.0
   0
LINE
   5
1FF
 100
AcDbEntity
   8
基礎（５００）
 370
13
 100
AcDbLine
   6
CONTINUOUS
  62
5
  10
 1198.8206343077
  20
 671.26404494382
  30
0.0
  11
 1148.8206343077
  21
 571.26404494382
  31
0.0
   0
LINE
   5
200
 100
AcDbEntity
   8
基礎（５００）
 370
13
 100
AcDbLine
   6
CONTINUOUS
  62
5
  10
 1148.8206343077
  20
 671.26404494382
  30
0.0
  11
 1188.8206343077
  21
 651.26404494382
  31
0.0
   0
LINE
   5
201
 100
AcDbEntity
   8
基礎（５００）
 370
13
 100
AcDbLine
   6
CONTINUOUS
  62
5
  10
 1148.8206343077
  20
 671.26404494382
  30
0.0
  11
 1098.8206343077
  21
 571.26404494382
  31
0.0
   0
LINE
   5
202
 100
AcDbEntity
   8
基礎（５００）
 370
13
 100
AcDbLine
   6
CONTINUOUS
  62
5
  10
 1098.8206343077
  20
 671.26404494382
  30
0.0
  11
 1138.8206343077
  21
 651.26404494382
  31
0.0
   0
LINE
   5
203
 100
AcDbEntity
   8
基礎（５００）
 370
13
 100
AcDbLine
   6
CONTINUOUS
  62
5
  10
 1248.8206343077
  20
 571.26404494382
  30
0.0
  11
 1208.8206343077
  21
 591.26404494382
  31
0.0
   0
LINE
   5
204
 100
AcDbEntity
   8
基礎（５００）
 370
13
 100
AcDbLine
   6
CONTINUOUS
  62
5
  10
 1198.8206343077
  20
 571.26404494382
  30
0.0
  11
 1158.8206343077
  21
 591.26404494382
  31
0.0
   0
LINE
   5
205
 100
AcDbEntity
   8
基礎（５００）
 370
13
 100
AcDbLine
   6
CONTINUOUS
  62
5
  10
 1148.8206343077
  20
 571.26404494382
  30
0.0
  11
 1108.8206343077
  21
 591.26404494382
  31
0.0
   0
LINE
   5
206
 100
AcDbEntity
   8
基礎（５００）
 370
13
 100
AcDbLine
   6
CONTINUOUS
  62
5
  10
 1598.8206343077
  20
 671.26404494382
  30
0.0
  11
 1548.8206343077
  21
 571.26404494382
  31
0.0
   0
LINE
   5
207
 100
AcDbEntity
   8
基礎（５００）
 370
13
 100
AcDbLine
   6
CONTINUOUS
  62
5
  10
 1548.8206343077
  20
 671.26404494382
  30
0.0
  11
 1588.8206343077
  21
 651.26404494382
  31
0.0
   0
LINE
   5
208
 100
AcDbEntity
   8
基礎（５００）
 370
13
 100
AcDbLine
   6
CONTINUOUS
  62
5
  10
 1548.8206343077
  20
 671.26404494382
  30
0.0
  11
 1498.8206343077
  21
 571.26404494382
  31
0.0
   0
LINE
   5
209
 100
AcDbEntity
   8
基礎（５００）
 370
13
 100
AcDbLine
   6
CONTINUOUS
  62
5
  10
 1498.8206343077
  20
 671.26404494382
  30
0.0
  11
 1538.8206343077
  21
 651.26404494382
  31
0.0
   0
LINE
   5
20A
 100
AcDbEntity
   8
基礎（５００）
 370
13
 100
AcDbLine
   6
CONTINUOUS
  62
5
  10
 1498.8206343077
  20
 671.26404494382
  30
0.0
  11
 1448.8206343077
  21
 571.26404494382
  31
0.0
   0
LINE
   5
20B
 100
AcDbEntity
   8
基礎（５００）
 370
13
 100
AcDbLine
   6
CONTINUOUS
  62
5
  10
 1448.8206343077
  20
 671.26404494382
  30
0.0
  11
 1488.8206343077
  21
 651.26404494382
  31
0.0
   0
LINE
   5
20C
 100
AcDbEntity
   8
基礎（５００）
 370
13
 100
AcDbLine
   6
CONTINUOUS
  62
5
  10
 1598.8206343077
  20
 571.26404494382
  30
0.0
  11
 1558.8206343077
  21
 591.26404494382
  31
0.0
   0
LINE
   5
20D
 100
AcDbEntity
   8
基礎（５００）
 370
13
 100
AcDbLine
   6
CONTINUOUS
  62
5
  10
 1548.8206343077
  20
 571.26404494382
  30
0.0
  11
 1508.8206343077
  21
 591.26404494382
  31
0.0
   0
LINE
   5
20E
 100
AcDbEntity
   8
基礎（５００）
 370
13
 100
AcDbLine
   6
CONTINUOUS
  62
5
  10
 1498.8206343077
  20
 571.26404494382
  30
0.0
  11
 1458.8206343077
  21
 591.26404494382
  31
0.0
   0
LWPOLYLINE
   5
20F
 100
AcDbEntity
   8
基礎（５００）
 370
13
   6
CONTINUOUS
  62
5
 100
AcDbPolyline
  90
4
  70
1
  10
 1098.8206343077
  20
 671.26404494382
  10
 1098.8206343077
  20
 571.26404494382
  10
 1598.8206343077
  20
 571.26404494382
  10
 1598.8206343077
  20
 671.26404494382
   0
DIMENSION
   5
210
 100
AcDbEntity
   8
LEVEL001
 370
13
   6
CONTINUOUS
  62
6
 100
AcDbDimension
   2
*D14
  10
 1598.8206343077
  20
 271.26404494382
  30
0.0
  11
 1348.8206343077
  21
 271.26404494382
  31
0.0
  70
0
   3
GMM004
 100
AcDbAlignedDimension
  13
 1098.8206343077
  23
 571.26404494382
  33
0.0
  14
 1598.8206343077
  24
 571.26404494382
  34
0.0
 100
AcDbRotatedDimension
   0
DIMENSION
   5
211
 100
AcDbEntity
   8
LEVEL001
 370
13
   6
CONTINUOUS
  62
6
 100
AcDbDimension
   2
*D15
  10
 598.82022471909
  20
 671.26404494382
  30
0.0
  11
 598.82022471909
  21
 621.26404494382
  31
0.0
  70
0
   3
GMM005
 100
AcDbAlignedDimension
  13
 1098.8206343077
  23
 571.26404494382
  33
0.0
  14
 1098.8206343077
  24
 671.26404494382
  34
0.0
  50
 90.000000000000
 100
AcDbRotatedDimension
   0
DIMENSION
   5
212
 100
AcDbEntity
   8
LEVEL001
 370
13
   6
CONTINUOUS
  62
6
 100
AcDbDimension
   2
*D16
  10
 598.82022471909
  20
 1471.2640449438
  30
0.0
  11
 598.82022471909
  21
 1071.2640449438
  31
0.0
  70
0
   3
GMM005
 100
AcDbAlignedDimension
  13
 1098.8206343077
  23
 671.26404494382
  33
0.0
  14
 798.82069954265
  24
 1471.2640449438
  34
0.0
  50
 90.000000000000
 100
AcDbRotatedDimension
   0
DIMENSION
   5
213
 100
AcDbEntity
   8
LEVEL001
 370
13
   6
CONTINUOUS
  62
6
 100
AcDbDimension
   2
*D17
  10
 598.82022471909
  20
 3971.2640449438
  30
0.0
  11
 598.82022471909
  21
 2721.2640449438
  31
0.0
  70
0
   1
\A1;2500(標準設置高さ)
   3
GMM006
 100
AcDbAlignedDimension
  13
 798.82069954265
  23
 1471.2640449438
  33
0.0
  14
 1348.8202247191
  24
 3971.2640449438
  34
0.0
  50
 90.000000000000
 100
AcDbRotatedDimension
   0
LINE
   5
214
 100
AcDbEntity
   8
基礎（５００）
 370
13
 100
AcDbLine
   6
CONTINUOUS
  62
5
  10
 2748.8202247191
  20
 671.26404494382
  30
0.0
  11
 2698.8202247191
  21
 571.26404494382
  31
0.0
   0
LINE
   5
215
 100
AcDbEntity
   8
基礎（５００）
 370
13
 100
AcDbLine
   6
CONTINUOUS
  62
5
  10
 2698.8202247191
  20
 671.26404494382
  30
0.0
  11
 2738.8202247191
  21
 651.26404494382
  31
0.0
   0
LINE
   5
216
 100
AcDbEntity
   8
基礎（５００）
 370
13
 100
AcDbLine
   6
CONTINUOUS
  62
5
  10
 2698.8202247191
  20
 671.26404494382
  30
0.0
  11
 2648.8202247191
  21
 571.26404494382
  31
0.0
   0
LINE
   5
217
 100
AcDbEntity
   8
基礎（５００）
 370
13
 100
AcDbLine
   6
CONTINUOUS
  62
5
  10
 2648.8202247191
  20
 671.26404494382
  30
0.0
  11
 2688.8202247191
  21
 651.26404494382
  31
0.0
   0
LINE
   5
218
 100
AcDbEntity
   8
基礎（５００）
 370
13
 100
AcDbLine
   6
CONTINUOUS
  62
5
  10
 2648.8202247191
  20
 671.26404494382
  30
0.0
  11
 2598.8202247191
  21
 571.26404494382
  31
0.0
   0
LINE
   5
219
 100
AcDbEntity
   8
基礎（５００）
 370
13
 100
AcDbLine
   6
CONTINUOUS
  62
5
  10
 2598.8202247191
  20
 671.26404494382
  30
0.0
  11
 2638.8202247191
  21
 651.26404494382
  31
0.0
   0
LINE
   5
21A
 100
AcDbEntity
   8
基礎（５００）
 370
13
 100
AcDbLine
   6
CONTINUOUS
  62
5
  10
 2748.8202247191
  20
 571.26404494382
  30
0.0
  11
 2708.8202247191
  21
 591.26404494382
  31
0.0
   0
LINE
   5
21B
 100
AcDbEntity
   8
基礎（５００）
 370
13
 100
AcDbLine
   6
CONTINUOUS
  62
5
  10
 2698.8202247191
  20
 571.26404494382
  30
0.0
  11
 2658.8202247191
  21
 591.26404494382
  31
0.0
   0
LINE
   5
21C
 100
AcDbEntity
   8
基礎（５００）
 370
13
 100
AcDbLine
   6
CONTINUOUS
  62
5
  10
 2648.8202247191
  20
 571.26404494382
  30
0.0
  11
 2608.8202247191
  21
 591.26404494382
  31
0.0
   0
LWPOLYLINE
   5
21D
 100
AcDbEntity
   8
基礎（５００）
 370
13
   6
CONTINUOUS
  62
5
 100
AcDbPolyline
  90
4
  70
1
  10
 2598.8202247191
  20
 671.26404494382
  10
 2598.8202247191
  20
 571.26404494382
  10
 3098.8202247191
  20
 571.26404494382
  10
 3098.8202247191
  20
 671.26404494382
   0
LINE
   5
21E
 100
AcDbEntity
   8
基礎（５００）
 370
13
 100
AcDbLine
   6
CONTINUOUS
  62
5
  10
 3098.8202247191
  20
 671.26404494382
  30
0.0
  11
 3048.8202247191
  21
 571.26404494382
  31
0.0
   0
LINE
   5
21F
 100
AcDbEntity
   8
基礎（５００）
 370
13
 100
AcDbLine
   6
CONTINUOUS
  62
5
  10
 3048.8202247191
  20
 671.26404494382
  30
0.0
  11
 3088.8202247191
  21
 651.26404494382
  31
0.0
   0
LINE
   5
220
 100
AcDbEntity
   8
基礎（５００）
 370
13
 100
AcDbLine
   6
CONTINUOUS
  62
5
  10
 3048.8202247191
  20
 671.26404494382
  30
0.0
  11
 2998.8202247191
  21
 571.26404494382
  31
0.0
   0
LINE
   5
221
 100
AcDbEntity
   8
基礎（５００）
 370
13
 100
AcDbLine
   6
CONTINUOUS
  62
5
  10
 2998.8202247191
  20
 671.26404494382
  30
0.0
  11
 3038.8202247191
  21
 651.26404494382
  31
0.0
   0
LINE
   5
222
 100
AcDbEntity
   8
基礎（５００）
 370
13
 100
AcDbLine
   6
CONTINUOUS
  62
5
  10
 2998.8202247191
  20
 671.26404494382
  30
0.0
  11
 2948.8202247191
  21
 571.26404494382
  31
0.0
   0
LINE
   5
223
 100
AcDbEntity
   8
基礎（５００）
 370
13
 100
AcDbLine
   6
CONTINUOUS
  62
5
  10
 2948.8202247191
  20
 671.26404494382
  30
0.0
  11
 2988.8202247191
  21
 651.26404494382
  31
0.0
   0
LINE
   5
224
 100
AcDbEntity
   8
基礎（５００）
 370
13
 100
AcDbLine
   6
CONTINUOUS
  62
5
  10
 3098.8202247191
  20
 571.26404494382
  30
0.0
  11
 3058.8202247191
  21
 591.26404494382
  31
0.0
   0
LINE
   5
225
 100
AcDbEntity
   8
基礎（５００）
 370
13
 100
AcDbLine
   6
CONTINUOUS
  62
5
  10
 3048.8202247191
  20
 571.26404494382
  30
0.0
  11
 3008.8202247191
  21
 591.26404494382
  31
0.0
   0
LINE
   5
226
 100
AcDbEntity
   8
基礎（５００）
 370
13
 100
AcDbLine
   6
CONTINUOUS
  62
5
  10
 2998.8202247191
  20
 571.26404494382
  30
0.0
  11
 2958.8202247191
  21
 591.26404494382
  31
0.0
   0
DIMENSION
   5
227
 100
AcDbEntity
   8
LEVEL001
 370
13
   6
CONTINUOUS
  62
6
 100
AcDbDimension
   2
*D18
  10
 3098.8202247191
  20
 271.26404494382
  30
0.0
  11
 2848.8202247191
  21
 271.26404494382
  31
0.0
  70
0
   3
GMM004
 100
AcDbAlignedDimension
  13
 2598.8202247191
  23
 571.26404494382
  33
0.0
  14
 3098.8202247191
  24
 571.26404494382
  34
0.0
 100
AcDbRotatedDimension
   0
LWPOLYLINE
   5
228
 100
AcDbEntity
   8
基礎（５００）
 370
13
   6
CONTINUOUS
  62
5
 100
AcDbPolyline
  90
6
  70
0
  10
 2810.6702247191
  20
 1471.2640449438
  10
 2598.8202247191
  20
 1471.2640449438
  10
 2598.8202247191
  20
 671.26404494382
  10
 3098.8202247191
  20
 671.26404494382
  10
 3098.8202247191
  20
 1471.2640449438
  10
 2886.9702247191
  20
 1471.2640449438
   0
LINE
   5
229
 100
AcDbEntity
   8
LEVEL001
 370
13
 100
AcDbLine
   6
DASHDOT
  62
6
  10
 1348.8202247191
  20
 4601.2640449430
  30
0.0
  11
 1348.8202247191
  21
 571.26404494382
  31
0.0
   0
LWPOLYLINE
   5
22A
 100
AcDbEntity
   8
LEVEL001
 370
13
   6
CONTINUOUS
  62
7
 100
AcDbPolyline
  90
4
  70
1
  10
 2886.9702247191
  20
 4375.2640449438
  10
 2810.6702247191
  20
 4375.2640449438
  10
 2810.6702247191
  20
 4372.2640449438
  10
 2886.9702247191
  20
 4372.2640449438
   0
LWPOLYLINE
   5
22B
 100
AcDbEntity
   8
LEVEL001
 370
13
   6
DOT
  62
1
 100
AcDbPolyline
  90
4
  70
0
  10
 2881.9702247191
  20
 4372.2640449438
  10
 2881.9702247191
  20
 4345.2640449438
  10
 2815.6702247191
  20
 4345.2640449438
  10
 2815.6702247191
  20
 4372.2640449438
   0
LWPOLYLINE
   5
22C
 100
AcDbEntity
   8
LEVEL001
 370
13
   6
CONTINUOUS
  62
7
 100
AcDbPolyline
  90
4
  70
0
  10
 2810.6702247191
  20
 4326.2640449430
  10
 2810.6702247191
  20
 4371.2640449438
  10
 2886.9702247191
  20
 4371.2640449438
  10
 2886.9702247191
  20
 4326.2640449430
   0
LWPOLYLINE
   5
22D
 100
AcDbEntity
   8
LEVEL001
 370
13
   6
CONTINUOUS
  62
7
 100
AcDbPolyline
  90
4
  70
0
  10
 1310.6702247191
  20
 3271.2640449438
  10
 1310.6702247191
  20
 771.26404494382
  10
 1386.9702247191
  20
 771.26404494382
  10
 1386.9702247191
  20
 3271.2640449438
   0
LINE
   5
22E
 100
AcDbEntity
   8
基礎（５００）
 370
13
 100
AcDbLine
   6
CONTINUOUS
  62
5
  10
 1386.9702247191
  20
 1137.6983161914
  30
0.0
  11
 1598.8206343077
  21
 1349.5487257800
  31
0.0
   0
LINE
   5
22F
 100
AcDbEntity
   8
基礎（５００）
 370
13
 100
AcDbLine
   6
CONTINUOUS
  62
5
  10
 1098.8206343077
  20
 849.54872577998
  30
0.0
  11
 1313.0359534715
  21
 1063.7640449438
  31
0.0
   0
LINE
   5
230
 100
AcDbEntity
   8
基礎（５００）
 370
13
 100
AcDbLine
   6
CONTINUOUS
  62
5
  10
 1310.6702247191
  20
 1033.1140449439
  30
0.0
  11
 1098.8206343077
  21
 821.26445453252
  31
0.0
   0
LINE
   5
231
 100
AcDbEntity
   8
基礎（５００）
 370
13
 100
AcDbLine
   6
CONTINUOUS
  62
5
  10
 1598.8206343077
  20
 1321.2644545325
  30
0.0
  11
 1386.9702247191
  21
 1109.4140449439
  31
0.0
   0
LINE
   5
232
 100
AcDbEntity
   8
基礎（５００）
 370
13
 100
AcDbLine
   6
CONTINUOUS
  62
5
  10
 1384.6044959665
  20
 1078.7640449438
  30
0.0
  11
 1598.8206343077
  21
 1292.9801832851
  31
0.0
   0
LINE
   5
233
 100
AcDbEntity
   8
基礎（５００）
 370
13
 100
AcDbLine
   6
CONTINUOUS
  62
5
  10
 1098.8206343077
  20
 792.98018328506
  30
0.0
  11
 1310.6702247191
  21
 1004.8297736965
  31
0.0
   0
LINE
   5
234
 100
AcDbEntity
   8
基礎（５００）
 370
13
 100
AcDbLine
   6
CONTINUOUS
  62
5
  10
 2886.9702247191
  20
 1137.6983161913
  30
0.0
  11
 3098.8206343078
  21
 1349.5487257800
  31
0.0
   0
LINE
   5
235
 100
AcDbEntity
   8
基礎（５００）
 370
13
 100
AcDbLine
   6
CONTINUOUS
  62
5
  10
 2598.8206343078
  20
 849.54872577998
  30
0.0
  11
 2810.6702247191
  21
 1061.3983161913
  31
0.0
   0
LINE
   5
236
 100
AcDbEntity
   8
基礎（５００）
 370
13
 100
AcDbLine
   6
CONTINUOUS
  62
5
  10
 3098.8206343078
  20
 1321.2644545325
  30
0.0
  11
 2886.9702247191
  21
 1109.4140449438
  31
0.0
   0
LINE
   5
237
 100
AcDbEntity
   8
基礎（５００）
 370
13
 100
AcDbLine
   6
CONTINUOUS
  62
5
  10
 2886.9702247191
  20
 1081.1297736964
  30
0.0
  11
 3098.8206343078
  21
 1292.9801832851
  31
0.0
   0
LWPOLYLINE
   5
238
 100
AcDbEntity
   8
LEVEL001
 370
13
   6
CONTINUOUS
  62
7
 100
AcDbPolyline
  90
4
  70
0
  10
 2810.6702247191
  20
 3452.7640449446
  10
 2810.6702247191
  20
 771.26404494382
  10
 2886.9702247191
  20
 771.26404494382
  10
 2886.9702247191
  20
 3452.7640449446
   0
LINE
   5
239
 100
AcDbEntity
   8
LEVEL001
 370
13
 100
AcDbLine
   6
DASHDOT
  62
6
  10
 2848.8202247191
  20
 4421.2640449438
  30
0.0
  11
 2848.8202247191
  21
 571.26404494382
  31
0.0
   0
LEADER
   5
23A
 100
AcDbEntity
   8
LEVEL001
 370
13
   6
CONTINUOUS
  62
1
 100
AcDbLeader
   3
GMM007
  73
3
  74
1
  75
0
  40
 66.000000000000
  41
0.0
  76
2
  10
 2848.8202247191
  20
 4375.2640449438
  30
0.0
  10
 2939.5292754064
  20
 4535.2383904764
  30
0.0
  77
1
   0
LWPOLYLINE
   5
23B
 100
AcDbEntity
   8
LEVEL001
 370
13
   6
CONTINUOUS
  62
7
 100
AcDbPolyline
  90
4
  70
1
  10
 288.82022471909
  20
 141.26404494382
  10
 288.82022471909
  20
 5741.2640449438
  10
 8075.4870948363
  20
 5741.2640449438
  10
 8075.4870948363
  20
 141.26404494382
   0
LINE
   5
23C
 100
AcDbEntity
   8
LEVEL001
 370
13
 100
AcDbLine
   6
CONTINUOUS
  62
1
  10
 5559.7293156282
  20
 621.26404494382
  30
0.0
  11
 7199.7293156282
  21
 621.26404494382
  31
0.0
   0
LINE
   5
23D
 100
AcDbEntity
   8
LEVEL001
 370
13
 100
AcDbLine
   6
DASHDOT
  62
6
  10
 1288.8206162220
  20
 1171.2640449438
  30
0.0
  11
 1408.8206162220
  21
 1171.2640449438
  31
0.0
   0
CIRCLE
   5
23E
 100
AcDbEntity
   8
LEVEL001
 370
13
 100
AcDbCircle
   6
CONTINUOUS
  62
7
  10
 1348.8206005056
  20
 1071.2640449438
  30
0.0
  40
 7.5000000000000
   0
LINE
   5
23F
 100
AcDbEntity
   8
LEVEL001
 370
13
 100
AcDbLine
   6
DASHDOT
  62
6
  10
 1318.8206005056
  20
 1071.2640449438
  30
0.0
  11
 1378.8206005056
  21
 1071.2640449438
  31
0.0
   0
CIRCLE
   5
240
 100
AcDbEntity
   8
LEVEL001
 370
13
 100
AcDbCircle
   6
CONTINUOUS
  62
7
  10
 2848.8202247191
  20
 1171.2640449438
  30
0.0
  40
 7.5000000000000
   0
LINE
   5
241
 100
AcDbEntity
   8
LEVEL001
 370
13
 100
AcDbLine
   6
DASHDOT
  62
6
  10
 2818.8202247191
  20
 1171.2640449438
  30
0.0
  11
 2878.8202247191
  21
 1171.2640449438
  31
0.0
   0
LINE
   5
242
 100
AcDbEntity
   8
LEVEL001
 370
13
 100
AcDbLine
   6
DASHDOT
  62
6
  10
 2788.8202247191
  20
 1071.2640449438
  30
0.0
  11
 2908.8202247191
  21
 1071.2640449438
  31
0.0
   0
LINE
   5
243
 100
AcDbEntity
   8
LEVEL001
 370
13
 100
AcDbLine
   6
DOT
  62
1
  10
 2886.9702247191
  20
 1063.7640449438
  30
0.0
  11
 2810.6702247191
  21
 1063.7640449438
  31
0.0
   0
LINE
   5
244
 100
AcDbEntity
   8
LEVEL001
 370
13
 100
AcDbLine
   6
DOT
  62
1
  10
 2810.6702247191
  20
 1078.7640449438
  30
0.0
  11
 2886.9702247191
  21
 1078.7640449438
  31
0.0
   0
LWPOLYLINE
   5
245
 100
AcDbEntity
   8
LEVEL001
 370
13
   6
CONTINUOUS
  62
7
 100
AcDbPolyline
  90
4
  70
0
  10
 2810.6702247191
  20
 1078.7640449438
  10
 2738.8202066334
  20
 1078.7640449438
  10
 2738.8202066334
  20
 1063.7640449438
  10
 2810.6702247191
  20
 1063.7640449438
   0
CIRCLE
   5
246
 100
AcDbEntity
   8
LEVEL001
 370
13
 100
AcDbCircle
   6
CONTINUOUS
  62
1
  10
 2473.8202247191
  20
 971.26404494382
  30
0.0
  40
 69.999997913838
   0
MTEXT
   5
248
 100
AcDbEntity
   8
LEVEL001
 370
13
  62
7
 100
AcDbMText
  10
 2473.8202247191
  20
 971.26404494382
  30
0.0
  40
 66.000000000000
  41
0.0
  71
5
  72
1
   1
\T1.000000;１１
   7
GMM002
  44
 0.79999984000003
   0
LEADER
   5
249
 100
AcDbEntity
   8
LEVEL001
 370
13
   6
CONTINUOUS
  62
1
 100
AcDbLeader
   3
GMM001
  73
3
  74
1
  75
0
  40
 66.000000000000
  41
0.0
  76
2
  10
 2738.8202066334
  20
 1063.7640449438
  30
0.0
  10
 2539.9097243968
  20
 994.33302282080
  30
0.0
  77
1
   0
LWPOLYLINE
   5
24A
 100
AcDbEntity
   8
LEVEL001
 370
13
   6
CONTINUOUS
  62
7
 100
AcDbPolyline
  90
4
  70
0
  10
 2886.9702247191
  20
 1078.7640449438
  10
 2958.8202066334
  20
 1078.7640449438
  10
 2958.8202066334
  20
 1063.7640449438
  10
 2886.9702247191
  20
 1063.7640449438
   0
LINE
   5
24B
 100
AcDbEntity
   8
基礎（５００）
 370
13
 100
AcDbLine
   6
CONTINUOUS
  62
5
  10
 2598.8206343078
  20
 792.98018328506
  30
0.0
  11
 2810.6702247191
  21
 1004.8297736964
  31
0.0
   0
LINE
   5
24C
 100
AcDbEntity
   8
基礎（５００）
 370
13
 100
AcDbLine
   6
CONTINUOUS
  62
5
  10
 2810.6702247191
  20
 1033.1140449438
  30
0.0
  11
 2598.8206343078
  21
 821.26445453252
  31
0.0
   0
LINE
   5
24D
 100
AcDbEntity
   8
LEVEL001
 370
13
 100
AcDbLine
   6
CONTINUOUS
  62
6
  10
 5559.7293156282
  20
 1491.2640449438
  30
0.0
  11
 8075.4870948363
  21
 1491.2640449438
  31
0.0
   0
LINE
   5
24E
 100
AcDbEntity
   8
LEVEL001
 370
13
 100
AcDbLine
   6
CONTINUOUS
  62
6
  10
 5559.7293156282
  20
 1361.2640449438
  30
0.0
  11
 8075.4870948363
  21
 1361.2640449438
  31
0.0
   0
LINE
   5
24F
 100
AcDbEntity
   8
LEVEL001
 370
13
 100
AcDbLine
   6
CONTINUOUS
  62
6
  10
 5559.7293156282
  20
 1231.2640449438
  30
0.0
  11
 8075.4870948363
  21
 1231.2640449438
  31
0.0
   0
LINE
   5
250
 100
AcDbEntity
   8
LEVEL001
 370
13
 100
AcDbLine
   6
CONTINUOUS
  62
6
  10
 5559.7293156282
  20
 1101.2640449438
  30
0.0
  11
 8075.4870948363
  21
 1101.2640449438
  31
0.0
   0
MTEXT
   5
252
 100
AcDbEntity
   8
LEVEL001
 370
13
  62
1
 100
AcDbMText
  10
 5730.7082893822
  20
 1124.8376526397
  30
0.0
  40
 80.000000000000
  41
0.0
  71
9
  72
1
   1
\T1.000000;１３
   7
GMM005
  44
 0.79999984000003
   0
MTEXT
   5
254
 100
AcDbEntity
   8
LEVEL001
 370
13
  62
1
 100
AcDbMText
  10
 5730.7082893822
  20
 1254.8376526397
  30
0.0
  40
 80.000000000000
  41
0.0
  71
9
  72
1
   1
\T1.000000;１２
   7
GMM005
  44
 0.79999984000003
   0
MTEXT
   5
256
 100
AcDbEntity
   8
LEVEL001
 370
13
  62
1
 100
AcDbMText
  10
 5730.7082893822
  20
 1384.8376526397
  30
0.0
  40
 80.000000000000
  41
0.0
  71
9
  72
1
   1
\T1.000000;１１
   7
GMM005
  44
 0.79999984000003
   0
LINE
   5
257
 100
AcDbEntity
   8
LEVEL001
 370
13
 100
AcDbLine
   6
CONTINUOUS
  62
6
  10
 5559.7293156282
  20
 971.26404494382
  30
0.0
  11
 8075.4870948363
  21
 971.26404494382
  31
0.0
   0
MTEXT
   5
259
 100
AcDbEntity
   8
LEVEL001
 370
13
  62
1
 100
AcDbMText
  10
 5730.7082893822
  20
 994.83765263971
  30
0.0
  40
 80.000000000000
  41
0.0
  71
9
  72
1
   1
\T1.000000;１４
   7
GMM005
  44
 0.79999984000003
   0
MTEXT
   5
25B
 100
AcDbEntity
   8
LEVEL001
 370
13
  62
1
 100
AcDbMText
  10
 5730.7082893822
  20
 864.83765263971
  30
0.0
  40
 80.000000000000
  41
0.0
  71
9
  72
1
   1
\T1.000000;１５
   7
GMM005
  44
 0.79999984000003
   0
MTEXT
   5
25D
 100
AcDbEntity
   8
LEVEL001
 370
13
  62
1
 100
AcDbMText
  10
 5809.7293156282
  20
 864.83765263971
  30
0.0
  40
 80.000000000000
  41
0.0
  71
7
  72
1
   1
\T1.000000;同上ボルトナット
   7
GMM006
  44
 0.79999984000003
   0
MTEXT
   5
25F
 100
AcDbEntity
   8
LEVEL001
 370
13
  62
1
 100
AcDbMText
  10
 5809.7293156282
  20
 994.83765263971
  30
0.0
  40
 80.000000000000
  41
0.0
  71
7
  72
1
   1
\T1.000000;注意板取付バンド
   7
GMM006
  44
 0.79999984000003
   0
MTEXT
   5
261
 100
AcDbEntity
   8
LEVEL001
 370
13
  62
1
 100
AcDbMText
  10
 6780.7082893822
  20
 1124.8376526397
  30
0.0
  40
 80.000000000000
  41
0.0
  71
9
  72
1
   1
\T1.000000;１
   7
GMM006
  44
 0.79999984000003
   0
MTEXT
   5
263
 100
AcDbEntity
   8
LEVEL001
 370
13
  62
1
 100
AcDbMText
  10
 5809.7293156282
  20
 1254.8376526397
  30
0.0
  40
 80.000000000000
  41
0.0
  71
7
  72
1
   1
\T1.000000;キャップ
   7
GMM006
  44
 0.79999984000003
   0
MTEXT
   5
265
 100
AcDbEntity
   8
LEVEL001
 370
13
  62
1
 100
AcDbMText
  10
 6780.7082893822
  20
 1254.8376526397
  30
0.0
  40
 80.000000000000
  41
0.0
  71
9
  72
1
   1
\T1.000000;１
   7
GMM006
  44
 0.79999984000003
   0
MTEXT
   5
267
 100
AcDbEntity
   8
LEVEL001
 370
13
  62
1
 100
AcDbMText
  10
 6859.7293156282
  20
 1254.8376526397
  30
0.0
  40
 80.000000000000
  41
0.0
  71
7
  72
1
   1
\T1.000000;ＰＥ
   7
GMM006
  44
 0.79999984000003
   0
MTEXT
   5
269
 100
AcDbEntity
   8
LEVEL001
 370
13
  62
1
 100
AcDbMText
  10
 5809.7293156282
  20
 1384.8376526397
  30
0.0
  40
 80.000000000000
  41
0.0
  71
7
  72
1
   1
\T1.000000;根入れ鉄筋
   7
GMM006
  44
 0.79999984000003
   0
MTEXT
   5
26B
 100
AcDbEntity
   8
LEVEL001
 370
13
  62
1
 100
AcDbMText
  10
 6780.7082893822
  20
 1384.8376526397
  30
0.0
  40
 80.000000000000
  41
0.0
  71
9
  72
1
   1
\T1.000000;１
   7
GMM006
  44
 0.79999984000003
   0
MTEXT
   5
26D
 100
AcDbEntity
   8
LEVEL001
 370
13
  62
1
 100
AcDbMText
  10
 6859.7293156282
  20
 1384.8376526397
  30
0.0
  40
 80.000000000000
  41
0.0
  71
7
  72
1
   1
\T1.000000;ＳＤ２９５Ａ
   7
GMM006
  44
 0.79999984000003
   0
LEADER
   5
26E
 100
AcDbEntity
   8
LEVEL001
 370
13
   6
CONTINUOUS
  62
6
 100
AcDbLeader
   3
GMM008
  73
0
  74
0
  75
0
  40
 66.000000000000
  41
 676.00000000000
  76
2
  10
 1485.9226982173
  20
 4414.5855997133
  30
0.0
  10
 1635.6305357571
  20
 4716.3143471452
  30
0.0
  77
6
 340
26F
 213
0.0
 223
-28.285714285715
 233
0.0
   0
MTEXT
   5
26F
 102
{ACAD_REACTORS
 330
26E
 102
}
 100
AcDbEntity
   8
LEVEL001
 370
13
  62
1
 100
AcDbMText
  10
 1635.6305357571
  20
 4744.6000614309
  30
0.0
  40
 66.000000000000
  41
0.0
  71
7
  72
1
   1
\A1;表面：超親水性コーティング
   7
GMM002
   0
LINE
   5
270
 100
AcDbEntity
   8
LEVEL001
 370
13
 100
AcDbLine
   6
CONTINUOUS
  62
6
  10
 5559.7293156282
  20
 1751.2640449438
  30
0.0
  11
 8075.4870948363
  21
 1751.2640449438
  31
0.0
   0
LINE
   5
271
 100
AcDbEntity
   8
LEVEL001
 370
13
 100
AcDbLine
   6
CONTINUOUS
  62
6
  10
 5559.7293156282
  20
 1881.2640449438
  30
0.0
  11
 8075.4870948363
  21
 1881.2640449438
  31
0.0
   0
LINE
   5
272
 100
AcDbEntity
   8
LEVEL001
 370
13
 100
AcDbLine
   6
CONTINUOUS
  62
6
  10
 5559.7293156282
  20
 2011.2640449438
  30
0.0
  11
 8075.4870948363
  21
 2011.2640449438
  31
0.0
   0
LINE
   5
273
 100
AcDbEntity
   8
LEVEL001
 370
13
 100
AcDbLine
   6
CONTINUOUS
  62
6
  10
 5559.7293156282
  20
 2141.2640449438
  30
0.0
  11
 8075.4870948363
  21
 2141.2640449438
  31
0.0
   0
LINE
   5
274
 100
AcDbEntity
   8
LEVEL001
 370
13
 100
AcDbLine
   6
CONTINUOUS
  62
6
  10
 5559.7293156282
  20
 2271.2640449438
  30
0.0
  11
 8075.4870948363
  21
 2271.2640449438
  31
0.0
   0
LINE
   5
275
 100
AcDbEntity
   8
LEVEL001
 370
13
 100
AcDbLine
   6
CONTINUOUS
  62
6
  10
 5559.7293156282
  20
 2401.2640449438
  30
0.0
  11
 8075.4870948363
  21
 2401.2640449438
  31
0.0
   0
LINE
   5
276
 100
AcDbEntity
   8
LEVEL001
 370
13
 100
AcDbLine
   6
CONTINUOUS
  62
6
  10
 5559.7293156282
  20
 2531.2640449438
  30
0.0
  11
 8075.4870948363
  21
 2531.2640449438
  31
0.0
   0
LINE
   5
277
 100
AcDbEntity
   8
LEVEL001
 370
13
 100
AcDbLine
   6
CONTINUOUS
  62
6
  10
 5559.7293156282
  20
 2661.2640449438
  30
0.0
  11
 8075.4870948363
  21
 2661.2640449438
  31
0.0
   0
LINE
   5
278
 100
AcDbEntity
   8
LEVEL001
 370
13
 100
AcDbLine
   6
CONTINUOUS
  62
6
  10
 5559.7293156282
  20
 2791.2640449438
  30
0.0
  11
 8075.4870948363
  21
 2791.2640449438
  31
0.0
   0
MTEXT
   5
27A
 100
AcDbEntity
   8
LEVEL001
 370
13
  62
1
 100
AcDbMText
  10
 5730.7082893822
  20
 1644.8376526397
  30
0.0
  40
 80.000000000000
  41
0.0
  71
9
  72
1
   1
\T1.000000;１０
   7
GMM005
  44
 0.79999984000003
   0
MTEXT
   5
27C
 100
AcDbEntity
   8
LEVEL001
 370
13
  62
1
 100
AcDbMText
  10
 5730.7082893822
  20
 1774.8376526397
  30
0.0
  40
 80.000000000000
  41
0.0
  71
9
  72
1
   1
\T1.000000;９
   7
GMM005
  44
 0.79999984000003
   0
MTEXT
   5
27E
 100
AcDbEntity
   8
LEVEL001
 370
13
  62
1
 100
AcDbMText
  10
 5730.7082893822
  20
 1904.8376526397
  30
0.0
  40
 80.000000000000
  41
0.0
  71
9
  72
1
   1
\T1.000000;８
   7
GMM005
  44
 0.79999984000003
   0
MTEXT
   5
280
 100
AcDbEntity
   8
LEVEL001
 370
13
  62
1
 100
AcDbMText
  10
 5730.7082893822
  20
 2034.8376526397
  30
0.0
  40
 80.000000000000
  41
0.0
  71
9
  72
1
   1
\T1.000000;７
   7
GMM005
  44
 0.79999984000003
   0
MTEXT
   5
282
 100
AcDbEntity
   8
LEVEL001
 370
13
  62
1
 100
AcDbMText
  10
 5730.7082893822
  20
 2164.8376526397
  30
0.0
  40
 80.000000000000
  41
0.0
  71
9
  72
1
   1
\T1.000000;６
   7
GMM005
  44
 0.79999984000003
   0
MTEXT
   5
284
 100
AcDbEntity
   8
LEVEL001
 370
13
  62
1
 100
AcDbMText
  10
 5730.7082893822
  20
 2294.8376526397
  30
0.0
  40
 80.000000000000
  41
0.0
  71
9
  72
1
   1
\T1.000000;５
   7
GMM005
  44
 0.79999984000003
   0
MTEXT
   5
286
 100
AcDbEntity
   8
LEVEL001
 370
13
  62
1
 100
AcDbMText
  10
 5730.7082893822
  20
 2424.8376526397
  30
0.0
  40
 80.000000000000
  41
0.0
  71
9
  72
1
   1
\T1.000000;４
   7
GMM005
  44
 0.79999984000003
   0
MTEXT
   5
288
 100
AcDbEntity
   8
LEVEL001
 370
13
  62
1
 100
AcDbMText
  10
 5730.7082893822
  20
 2554.8376526397
  30
0.0
  40
 80.000000000000
  41
0.0
  71
9
  72
1
   1
\T1.000000;３
   7
GMM005
  44
 0.79999984000003
   0
MTEXT
   5
28A
 100
AcDbEntity
   8
LEVEL001
 370
13
  62
1
 100
AcDbMText
  10
 6780.7082893822
  20
 2554.8376526397
  30
0.0
  40
 80.000000000000
  41
0.0
  71
9
  72
1
   1
\T1.000000;１
   7
GMM006
  44
 0.79999984000003
   0
MTEXT
   5
28C
 100
AcDbEntity
   8
LEVEL001
 370
13
  62
1
 100
AcDbMText
  10
 5809.7293156282
  20
 2554.8376526397
  30
0.0
  40
 80.000000000000
  41
0.0
  71
7
  72
1
   1
\T1.000000;フード
   7
GMM006
  44
 0.79999984000003
   0
MTEXT
   5
28E
 100
AcDbEntity
   8
LEVEL001
 370
13
  62
1
 100
AcDbMText
  10
 5730.7082893822
  20
 2684.8376526397
  30
0.0
  40
 80.000000000000
  41
0.0
  71
9
  72
1
   1
\T1.000000;２
   7
GMM005
  44
 0.79999984000003
   0
MTEXT
   5
290
 100
AcDbEntity
   8
LEVEL001
 370
13
  62
1
 100
AcDbMText
  10
 6780.7082893822
  20
 2684.8376526397
  30
0.0
  40
 80.000000000000
  41
0.0
  71
9
  72
1
   1
\T1.000000;１
   7
GMM006
  44
 0.79999984000003
   0
MTEXT
   5
292
 100
AcDbEntity
   8
LEVEL001
 370
13
  62
1
 100
AcDbMText
  10
 5809.7293156282
  20
 2684.8376526397
  30
0.0
  40
 80.000000000000
  41
0.0
  71
7
  72
1
   1
\T1.000000;バックプレート
   7
GMM006
  44
 0.79999984000003
   0
MTEXT
   5
294
 100
AcDbEntity
   8
LEVEL001
 370
13
  62
1
 100
AcDbMText
  10
 6859.7293156282
  20
 2684.8376526397
  30
0.0
  40
 80.000000000000
  41
0.0
  71
7
  72
1
   1
\T1.000000;ＦＲＰ
   7
GMM006
  44
 0.79999984000003
   0
MTEXT
   5
296
 100
AcDbEntity
   8
LEVEL001
 370
13
  62
1
 100
AcDbMText
  10
 6859.7293156282
  20
 2554.8376526397
  30
0.0
  40
 80.000000000000
  41
0.0
  71
7
  72
1
   1
\T1.000000;ＰＣ
   7
GMM006
  44
 0.79999984000003
   0
MTEXT
   5
298
 100
AcDbEntity
   8
LEVEL001
 370
13
  62
1
 100
AcDbMText
  10
 5809.7293156282
  20
 1644.8376526397
  30
0.0
  40
 80.000000000000
  41
0.0
  71
7
  72
1
   1
\T1.000000;支柱
   7
GMM006
  44
 0.79999984000003
   0
MTEXT
   5
29A
 100
AcDbEntity
   8
LEVEL001
 370
13
  62
1
 100
AcDbMText
  10
 6780.7082893822
  20
 1644.8376526397
  30
0.0
  40
 80.000000000000
  41
0.0
  71
9
  72
1
   1
\T1.000000;１
   7
GMM006
  44
 0.79999984000003
   0
MTEXT
   5
29C
 100
AcDbEntity
   8
LEVEL001
 370
13
  62
1
 100
AcDbMText
  10
 6859.7293156282
  20
 1644.8376526397
  30
0.0
  40
 80.000000000000
  41
0.0
  71
7
  72
1
   1
\T1.000000;ＳＴＫ４００
   7
GMM006
  44
 0.79999984000003
   0
MTEXT
   5
29E
 100
AcDbEntity
   8
LEVEL001
 370
13
  62
1
 100
AcDbMText
  10
 6859.7293156282
  20
 1774.8376526397
  30
0.0
  40
 80.000000000000
  41
0.0
  71
7
  72
1
   1
\T1.000000;ＳＳ４００
   7
GMM006
  44
 0.79999984000003
   0
MTEXT
   5
2A0
 100
AcDbEntity
   8
LEVEL001
 370
13
  62
1
 100
AcDbMText
  10
 5809.7293156282
  20
 1774.8376526397
  30
0.0
  40
 80.000000000000
  41
0.0
  71
7
  72
1
   1
\T1.000000;金具締付ボルトナット
   7
GMM006
  44
 0.79999984000003
   0
MTEXT
   5
2A2
 100
AcDbEntity
   8
LEVEL001
 370
13
  62
1
 100
AcDbMText
  10
 6859.7293156282
  20
 1904.8376526397
  30
0.0
  40
 80.000000000000
  41
0.0
  71
7
  72
1
   1
\T1.000000;ＳＳ４００
   7
GMM006
  44
 0.79999984000003
   0
MTEXT
   5
2A4
 100
AcDbEntity
   8
LEVEL001
 370
13
  62
1
 100
AcDbMText
  10
 5809.7293156282
  20
 1904.8376526397
  30
0.0
  40
 80.000000000000
  41
0.0
  71
7
  72
1
   1
\T1.000000;裏板金具取付ボルト
   7
GMM006
  44
 0.79999984000003
   0
MTEXT
   5
2A6
 100
AcDbEntity
   8
LEVEL001
 370
13
  62
1
 100
AcDbMText
  10
 6780.7082893822
  20
 1904.8376526397
  30
0.0
  40
 80.000000000000
  41
0.0
  71
9
  72
1
   1
\T1.000000;４
   7
GMM006
  44
 0.79999984000003
   0
MTEXT
   5
2A8
 100
AcDbEntity
   8
LEVEL001
 370
13
  62
1
 100
AcDbMText
  10
 6859.7293156282
  20
 2034.8376526397
  30
0.0
  40
 80.000000000000
  41
0.0
  71
7
  72
1
   1
\T1.000000;ＳＳ４００
   7
GMM006
  44
 0.79999984000003
   0
MTEXT
   5
2AA
 100
AcDbEntity
   8
LEVEL001
 370
13
  62
1
 100
AcDbMText
  10
 5809.7293156282
  20
 2034.8376526397
  30
0.0
  40
 80.000000000000
  41
0.0
  71
7
  72
1
   1
\T1.000000;支柱取付金具
   7
GMM006
  44
 0.79999984000003
   0
MTEXT
   5
2AC
 100
AcDbEntity
   8
LEVEL001
 370
13
  62
1
 100
AcDbMText
  10
 5809.7293156282
  20
 2164.8376526397
  30
0.0
  40
 80.000000000000
  41
0.0
  71
7
  72
1
   1
\T1.000000;裏板取付金具
   7
GMM006
  44
 0.79999984000003
   0
MTEXT
   5
2AE
 100
AcDbEntity
   8
LEVEL001
 370
13
  62
1
 100
AcDbMText
  10
 6859.7293156282
  20
 2164.8376526397
  30
0.0
  40
 80.000000000000
  41
0.0
  71
7
  72
1
   1
\T1.000000;ＳＳ４００
   7
GMM006
  44
 0.79999984000003
   0
MTEXT
   5
2B0
 100
AcDbEntity
   8
LEVEL001
 370
13
  62
1
 100
AcDbMText
  10
 6780.7082893822
  20
 1774.8376526397
  30
0.0
  40
 80.000000000000
  41
0.0
  71
9
  72
1
   1
\T1.000000;４
   7
GMM006
  44
 0.79999984000003
   0
MTEXT
   5
2B2
 100
AcDbEntity
   8
LEVEL001
 370
13
  62
1
 100
AcDbMText
  10
 6780.7082893822
  20
 2424.8376526397
  30
0.0
  40
 80.000000000000
  41
0.0
  71
9
  72
1
   1
\T1.000000;１
   7
GMM006
  44
 0.79999984000003
   0
MTEXT
   5
2B4
 100
AcDbEntity
   8
LEVEL001
 370
13
  62
1
 100
AcDbMText
  10
 5809.7293156282
  20
 2424.8376526397
  30
0.0
  40
 80.000000000000
  41
0.0
  71
7
  72
1
   1
\T1.000000;取付枠
   7
GMM006
  44
 0.79999984000003
   0
MTEXT
   5
2B6
 100
AcDbEntity
   8
LEVEL001
 370
13
  62
1
 100
AcDbMText
  10
 6859.7293156282
  20
 2424.8376526397
  30
0.0
  40
 80.000000000000
  41
0.0
  71
7
  72
1
   1
\T1.000000;アルミニウム
   7
GMM006
  44
 0.79999984000003
   0
MTEXT
   5
2B8
 100
AcDbEntity
   8
LEVEL001
 370
13
  62
1
 100
AcDbMText
  10
 5809.7293156282
  20
 2294.8376526397
  30
0.0
  40
 80.000000000000
  41
0.0
  71
7
  72
1
   1
\T1.000000;取付枠付リベット
   7
GMM006
  44
 0.79999984000003
   0
MTEXT
   5
2BA
 100
AcDbEntity
   8
LEVEL001
 370
13
  62
1
 100
AcDbMText
  10
 6780.7082893822
  20
 2294.8376526397
  30
0.0
  40
 80.000000000000
  41
0.0
  71
9
  72
1
   1
\T1.000000;７
   7
GMM006
  44
 0.79999984000003
   0
MTEXT
   5
2BC
 100
AcDbEntity
   8
LEVEL001
 370
13
  62
1
 100
AcDbMText
  10
 6859.7293156282
  20
 2294.8376526397
  30
0.0
  40
 80.000000000000
  41
0.0
  71
7
  72
1
   1
\T1.000000;アルミニウム
   7
GMM006
  44
 0.79999984000003
   0
MTEXT
   5
2BE
 100
AcDbEntity
   8
LEVEL001
 370
13
  62
1
 100
AcDbMText
  10
 6780.7082893822
  20
 2164.8376526397
  30
0.0
  40
 80.000000000000
  41
0.0
  71
9
  72
1
   1
\T1.000000;１
   7
GMM006
  44
 0.79999984000003
   0
MTEXT
   5
2C0
 100
AcDbEntity
   8
LEVEL001
 370
13
  62
1
 100
AcDbMText
  10
 6780.7082893822
  20
 2034.8376526397
  30
0.0
  40
 80.000000000000
  41
0.0
  71
9
  72
1
   1
\T1.000000;１
   7
GMM006
  44
 0.79999984000003
   0
MTEXT
   5
2C2
 100
AcDbEntity
   8
LEVEL001
 370
13
  62
1
 100
AcDbMText
  10
 7379.7293156282
  20
 1644.8376526397
  30
0.0
  40
 80.000000000000
  41
0.0
  71
7
  72
1
   1
\T1.000000;静電粉体塗装
   7
GMM006
  44
 0.79999984000003
   0
MTEXT
   5
2C4
 100
AcDbEntity
   8
LEVEL001
 370
13
  62
1
 100
AcDbMText
  10
 7379.7293156282
  20
 1774.8376526397
  30
0.0
  40
 80.000000000000
  41
0.0
  71
7
  72
1
   1
\T1.000000;溶融亜鉛メッキ
   7
GMM006
  44
 0.79999984000003
   0
MTEXT
   5
2C6
 100
AcDbEntity
   8
LEVEL001
 370
13
  62
1
 100
AcDbMText
  10
 7379.7293156282
  20
 1904.8376526397
  30
0.0
  40
 80.000000000000
  41
0.0
  71
7
  72
1
   1
\T1.000000;溶融亜鉛メッキ
   7
GMM006
  44
 0.79999984000003
   0
MTEXT
   5
2C8
 100
AcDbEntity
   8
LEVEL001
 370
13
  62
1
 100
AcDbMText
  10
 7379.7293156282
  20
 2034.8376526397
  30
0.0
  40
 80.000000000000
  41
0.0
  71
7
  72
1
   1
\T1.000000;溶融亜鉛メッキ
   7
GMM006
  44
 0.79999984000003
   0
MTEXT
   5
2CA
 100
AcDbEntity
   8
LEVEL001
 370
13
  62
1
 100
AcDbMText
  10
 7379.7293156282
  20
 2164.8376526397
  30
0.0
  40
 80.000000000000
  41
0.0
  71
7
  72
1
   1
\T1.000000;溶融亜鉛メッキ
   7
GMM006
  44
 0.79999984000003
   0
MTEXT
   5
2CC
 100
AcDbEntity
   8
LEVEL001
 370
13
  62
1
 100
AcDbMText
  10
 7379.7293156282
  20
 2684.8376526397
  30
0.0
  40
 80.000000000000
  41
0.0
  71
7
  72
1
   1
\T1.000000;ＳＭＣ成型
   7
GMM006
  44
 0.79999984000003
   0
LINE
   5
2CD
 100
AcDbEntity
   8
LEVEL001
 370
13
 100
AcDbLine
   6
CONTINUOUS
  62
6
  10
 5559.7293156282
  20
 3321.2640449438
  30
0.0
  11
 8075.4870948363
  21
 3321.2640449438
  31
0.0
   0
LINE
   5
2CE
 100
AcDbEntity
   8
LEVEL001
 370
13
 100
AcDbLine
   6
CONTINUOUS
  62
6
  10
 5559.7293156282
  20
 3621.2640449438
  30
0.0
  11
 8075.4870948363
  21
 3621.2640449438
  31
0.0
   0
MTEXT
   5
2D0
 100
AcDbEntity
   8
LEVEL001
 370
13
  62
1
 100
AcDbMText
  10
 5730.7082893822
  20
 3074.8376526397
  30
0.0
  40
 80.000000000000
  41
0.0
  71
9
  72
1
   1
\T1.000000;１
   7
GMM005
  44
 0.79999984000003
   0
MTEXT
   5
2D2
 100
AcDbEntity
   8
LEVEL001
 370
13
  62
1
 100
AcDbMText
  10
 6780.7082893822
  20
 3074.8376526397
  30
0.0
  40
 80.000000000000
  41
0.0
  71
9
  72
1
   1
\T1.000000;１
   7
GMM006
  44
 0.79999984000003
   0
MTEXT
   5
2D4
 100
AcDbEntity
   8
LEVEL001
 370
13
  62
1
 100
AcDbMText
  10
 5809.7293156282
  20
 3074.8376526397
  30
0.0
  40
 80.000000000000
  41
0.0
  71
7
  72
1
   1
\T1.000000;鏡面　Ｒ＝２２００
   7
GMM006
  44
 0.79999984000003
   0
MTEXT
   5
2D6
 100
AcDbEntity
   8
LEVEL001
 370
13
  62
1
 100
AcDbMText
  10
 6709.7293156282
  20
 3251.2640449438
  30
0.0
  40
 80.000000000000
  41
0.0
  71
5
  72
1
   1
\T1.000000;個数
   7
GMM006
  44
 0.79999984000003
   0
MTEXT
   5
2D8
 100
AcDbEntity
   8
LEVEL001
 370
13
  62
1
 100
AcDbMText
  10
 6184.7293156282
  20
 3251.2640449438
  30
0.0
  40
 80.000000000000
  41
0.0
  71
5
  72
1
   1
\T1.000000;名　　称
   7
GMM006
  44
 0.79999984000003
   0
MTEXT
   5
2DA
 100
AcDbEntity
   8
LEVEL001
 370
13
  62
1
 100
AcDbMText
  10
 5725.1571731038
  20
 3363.4185847031
  30
0.0
  40
 80.000000000000
  41
0.0
  71
7
  72
1
   1
%%c\T1.000000;６００（シングル）
   7
GMM001
  44
 0.79999984000003
   0
LINE
   5
2DB
 100
AcDbEntity
   8
LEVEL001
 370
13
 100
AcDbLine
   6
CONTINUOUS
  62
6
  10
 5559.7293156282
  20
 3181.2640449438
  30
0.0
  11
 8075.4870948363
  21
 3181.2640449438
  31
0.0
   0
MTEXT
   5
2DD
 100
AcDbEntity
   8
LEVEL001
 370
13
  62
1
 100
AcDbMText
  10
 5725.1571731038
  20
 3500.7708755316
  30
0.0
  40
 80.000000000000
  41
0.0
  71
7
  72
1
   1
\T1.000000;アクリーン＜Ｆタイプ＞
   7
GMM001
  44
 0.79999984000003
   0
MTEXT
   5
2DF
 100
AcDbEntity
   8
LEVEL001
 370
13
  62
1
 100
AcDbMText
  10
 6859.7293156282
  20
 3074.8376526397
  30
0.0
  40
 80.000000000000
  41
0.0
  71
4
  72
1
   1
{\W0.900000;\T1.000000;ＰＭＭＡ}\P{\W0.450000;\T1.000000;(\W0.900000;\T1.000000;アクリル\W0.450000;\T1.000000;)}
   7
GMM006
  44
 0.79999984000003
   0
MTEXT
   5
2E1
 100
AcDbEntity
   8
LEVEL001
 370
13
  62
1
 100
AcDbMText
  10
 7069.7293156282
  20
 3251.2640449438
  30
0.0
  40
 80.000000000000
  41
0.0
  71
5
  72
1
   1
\T1.000000;材　　質
   7
GMM006
  44
 0.79999984000003
   0
MTEXT
   5
2E3
 100
AcDbEntity
   8
LEVEL001
 370
13
  62
1
 100
AcDbMText
  10
 7379.7293156282
  20
 3154.8376526397
  30
0.0
  40
 80.000000000000
  41
0.0
  71
1
  72
1
   1
{\W0.325000;\T1.000000;t=3.0mm}\P{\W0.650000;\T1.000000;裏面：真空蒸着}\P{\W0.650000;\T1.000000;表面：超親水性コーティング}
   7
GMM007
  44
 0.79999984000003
   0
LINE
   5
2E4
 100
AcDbEntity
   8
LEVEL001
 370
13
 100
AcDbLine
   6
CONTINUOUS
  62
6
  10
 7329.7293156282
  20
 3321.2640449438
  30
0.0
  11
 7329.7293156282
  21
 841.26404494382
  31
0.0
   0
LINE
   5
2E5
 100
AcDbEntity
   8
LEVEL001
 370
13
 100
AcDbLine
   6
CONTINUOUS
  62
6
  10
 6809.7293156282
  20
 3321.2640449438
  30
0.0
  11
 6809.7293156282
  21
 841.26404494382
  31
0.0
   0
LINE
   5
2E6
 100
AcDbEntity
   8
LEVEL001
 370
13
 100
AcDbLine
   6
CONTINUOUS
  62
6
  10
 6609.7293156282
  20
 3321.2640449438
  30
0.0
  11
 6609.7293156282
  21
 841.26404494382
  31
0.0
   0
LINE
   5
2E7
 100
AcDbEntity
   8
LEVEL001
 370
13
 100
AcDbLine
   6
CONTINUOUS
  62
6
  10
 5759.7293156282
  20
 3321.2640449438
  30
0.0
  11
 5759.7293156282
  21
 841.26404494382
  31
0.0
   0
LINE
   5
2E8
 100
AcDbEntity
   8
LEVEL001
 370
13
 100
AcDbLine
   6
CONTINUOUS
  62
6
  10
 5559.7293156282
  20
 3621.2640449438
  30
0.0
  11
 5559.7293156282
  21
 841.26404494382
  31
0.0
   0
LINE
   5
2E9
 100
AcDbEntity
   8
LEVEL001
 370
13
 100
AcDbLine
   6
CONTINUOUS
  62
6
  10
 8075.4870948363
  20
 841.26404494382
  30
0.0
  11
 8075.4870948363
  21
 3621.2640449438
  31
0.0
   0
MTEXT
   5
2EB
 100
AcDbEntity
   8
LEVEL001
 370
13
  62
1
 100
AcDbMText
  10
 6372.2538827709
  20
 686.24100959268
  30
0.0
  40
 66.000000000000
  41
0.0
  71
5
  72
1
   1
\T1.000000;ＭＦ０６０Ｓ
   7
GMM002
  44
 0.79999984000003
   0
MTEXT
   5
2EC
 100
AcDbEntity
   8
LEVEL001
 370
13
  62
1
 100
AcDbMText
  10
 5582.6557225546
  20
 785.04901518191
  30
0.0
  40
 37.142860000000
  41
0.0
  71
7
  72
1
   1
\T1.269231;図面番号
   7
GMM008
  44
 0.79999984000003
   0
MTEXT
   5
2EE
 100
AcDbEntity
   8
LEVEL001
 370
13
  62
1
 100
AcDbMText
  10
 1693.4795527106
  20
 2382.7514979435
  30
0.0
  40
 66.000000000000
  41
0.0
  71
1
  72
1
   1
{\W0.787879;\T1.000000;支柱}\P%%c{\W0.787879;\T1.000000;７６\W0.393939;\T1.000000;.\W0.787879;\T1.000000;３ｘ３\W0.393939;\T1.000000;.\W0.787879;\T1.000000;２ｔ}\P{\W0.787879;\T1.000000;ｘ３６００Ｌ}
   7
GMM002
  44
 0.79999984000003
   0
MTEXT
   5
2F0
 100
AcDbEntity
   8
LEVEL001
 370
13
  62
1
 100
AcDbMText
  10
 6780.7082893822
  20
 1514.8376526397
  30
0.0
  40
 80.000000000000
  41
0.0
  71
9
  72
1
   1
\T1.000000;１
   7
GMM006
  44
 0.79999984000003
   0
MTEXT
   5
2F2
 100
AcDbEntity
   8
LEVEL001
 370
13
  62
1
 100
AcDbMText
  10
 6859.7293156282
  20
 1514.8376526397
  30
0.0
  40
 80.000000000000
  41
0.0
  71
7
  72
1
   1
\T1.000000;ＳＴＫ４００
   7
GMM006
  44
 0.79999984000003
   0
LINE
   5
2F3
 100
AcDbEntity
   8
LEVEL001
 370
13
 100
AcDbLine
   6
CONTINUOUS
  62
6
  10
 6609.7293156282
  20
 1621.2640449438
  30
0.0
  11
 8075.4870948363
  21
 1621.2640449438
  31
0.0
   0
MTEXT
   5
2F5
 100
AcDbEntity
   8
LEVEL001
 370
13
  62
1
 100
AcDbMText
  10
 6780.7082893822
  20
 994.83765263971
  30
0.0
  40
 80.000000000000
  41
0.0
  71
9
  72
1
   1
\T1.000000;１式
   7
GMM006
  44
 0.79999984000003
   0
MTEXT
   5
2F7
 100
AcDbEntity
   8
LEVEL001
 370
13
  62
1
 100
AcDbMText
  10
 6780.7082893822
  20
 864.83765263971
  30
0.0
  40
 80.000000000000
  41
0.0
  71
9
  72
1
   1
\T1.000000;１式
   7
GMM006
  44
 0.79999984000003
   0
MTEXT
   5
2F9
 100
AcDbEntity
   8
LEVEL001
 370
13
  62
1
 100
AcDbMText
  10
 6859.7293156282
  20
 1124.8376526397
  30
0.0
  40
 80.000000000000
  41
0.0
  71
7
  72
1
   1
\T1.000000;―
   7
GMM006
  44
 0.79999984000003
   0
MTEXT
   5
2FB
 100
AcDbEntity
   8
LEVEL001
 370
13
  62
1
 100
AcDbMText
  10
 6859.7293156282
  20
 994.83765263971
  30
0.0
  40
 80.000000000000
  41
0.0
  71
7
  72
1
   1
\T1.000000;―
   7
GMM006
  44
 0.79999984000003
   0
MTEXT
   5
2FD
 100
AcDbEntity
   8
LEVEL001
 370
13
  62
1
 100
AcDbMText
  10
 6859.7293156282
  20
 864.83765263971
  30
0.0
  40
 80.000000000000
  41
0.0
  71
7
  72
1
   1
\T1.000000;―
   7
GMM006
  44
 0.79999984000003
   0
MTEXT
   5
2FF
 100
AcDbEntity
   8
LEVEL001
 370
13
  62
1
 100
AcDbMText
  10
 7379.7293156282
  20
 1556.2640449438
  30
0.0
  40
 44.000000000000
  41
0.0
  71
4
  72
1
   1
{\T1.000000;下地亜鉛メッキ}\P{\T1.000000;＋静電粉体塗装}
   7
GMM009
  44
 0.79999984000003
   0
MTEXT
   5
301
 100
AcDbEntity
   8
LEVEL001
 370
13
  62
1
 100
AcDbMText
  10
 7379.7293156282
  20
 1124.8376526397
  30
0.0
  40
 80.000000000000
  41
0.0
  71
7
  72
1
   1
\T1.000000;―
   7
GMM006
  44
 0.79999984000003
   0
MTEXT
   5
303
 100
AcDbEntity
   8
LEVEL001
 370
13
  62
1
 100
AcDbMText
  10
 7379.7293156282
  20
 994.83765263971
  30
0.0
  40
 80.000000000000
  41
0.0
  71
7
  72
1
   1
\T1.000000;―
   7
GMM006
  44
 0.79999984000003
   0
MTEXT
   5
305
 100
AcDbEntity
   8
LEVEL001
 370
13
  62
1
 100
AcDbMText
  10
 7379.7293156282
  20
 864.83765263971
  30
0.0
  40
 80.000000000000
  41
0.0
  71
7
  72
1
   1
\T1.000000;―
   7
GMM006
  44
 0.79999984000003
   0
MTEXT
   5
307
 100
AcDbEntity
   8
LEVEL001
 370
13
  62
1
 100
AcDbMText
  10
 5616.1355482844
  20
 3865.5754002552
  30
0.0
  40
 80.000000000000
  41
0.0
  71
4
  72
1
   1
{\T1.000000;※構成部材は改良のため、変更する場合があります。}\P{\T1.000000;※本図は道路反射鏡ハンドブックに基づいています。}
   7
GMM006
  44
 0.94999981000004
   0
MTEXT
   5
309
 100
AcDbEntity
   8
LEVEL001
 370
13
  62
1
 100
AcDbMText
  10
 5809.7293156282
  20
 1124.8376526397
  30
0.0
  40
 80.000000000000
  41
0.0
  71
7
  72
1
   1
\T1.000000;注意板
   7
GMM006
  44
 0.79999984000003
   0
LINE
   5
30A
 100
AcDbEntity
   8
LEVEL001
 370
13
 100
AcDbLine
   6
CONTINUOUS
  62
6
  10
 5559.7293156282
  20
 841.26404494382
  30
0.0
  11
 8075.4870948363
  21
 841.26404494382
  31
0.0
   0
MTEXT
   5
30C
 100
AcDbEntity
   8
LEVEL001
 370
13
  62
1
 100
AcDbMText
  10
 7702.6082052322
  20
 3251.2640449438
  30
0.0
  40
 80.000000000000
  41
0.0
  71
5
  72
1
   1
\T1.000000;規格仕様
   7
GMM006
  44
 0.79999984000003
   0
ENDSEC
  0
SECTION
  2
OBJECTS
  0
DICTIONARY
  5
C
100
AcDbDictionary
  3
ACAD_GROUP
350
D
  3
ACAD_MLINESTYLE
350
1B
  3
DWGPROPS
350
1C
  0
DICTIONARY
  5
D
102
{ACAD_REACTORS
330
C
102
}
100
AcDbDictionary
  0
DICTIONARY
  5
1B
102
{ACAD_REACTORS
330
C
102
}
100
AcDbDictionary
  3
STANDARD
350
1D
  0
MLINESTYLE
  5
1D
102
{ACAD_REACTORS
330
1B
102
}
100
AcDbMlineStyle
  2
STANDARD
 70
     0
  3

 62
   256
 51
90.0
 52
90.0
 71
     2
 49
0.5
 62
   256
  6
BYLAYER
 49
-0.5
 62
   256
  6
BYLAYER
   0
XRECORD
   5
1C
 102
{ACAD_REACTORS
 330
C
 102
}
 330
C
 100
AcDbXrecord
 280
1
   1
DWGPROPS COOKIE
   2
 
   3
 
   4
 
   6
 
   7
MF060S
   8
 
   9

 300
 = 
 301
 = 
 302
 = 
 303
 = 
 304
 = 
 305
 = 
 306
 = 
 307
 = 
 308
 = 
 309
 = 
  40
0.0
  41
 2460327.5000000
  42
 2460327.5000000
   1

  90
10
   0
ENDSEC
   0
EOF
