   0
SECTION
   2
HEADER
   9
$ACADVER
   1
AC1015
   9
$DWGCODEPAGE
   3
ANSI_932
   9
$LIMMIN
  10
0.0
  20
0.0
   9
$LIMMAX
  10
 8400.0000000000
  20
 5940.0000000000
   9
$EXTMIN
  10
0.0
  20
0.0
  30
0.0
   9
$EXTMAX
  10
 8400.0000000000
  20
 5940.0000000000
  30
0.0
   9
$LTSCALE
  40
 168.00000000000
   9
$HANDSEED
   5
3C9
   0
ENDSEC
   0
SECTION
   2
TABLES
  0
TABLE
  2
VPORT
  5
8
100
AcDbSymbolTable
 70
     1
  0
VPORT
  5
3C8
100
AcDbSymbolTableRecord
100
AcDbViewportTableRecord
  2
*ACTIVE
 70
     0
 10
0.0
 20
0.0
 11
1.0
 21
1.0
  12
 4200.0000000000
  22
 2970.0000000000
 13
0.0
 23
0.0
 14
1.0
 24
1.0
 15
0.0
 25
0.0
 16
0.0
 26
0.0
 36
1.0
 17
0.0
 27
0.0
 37
0.0
  40
 8400.0000000000
  41
 1.4787878787879
 42
50.0
 43
0.0
 44
0.0
 50
0.0
 51
0.0
 71
     0
 72
   100
 73
     1
 74
     1
 75
     0
 76
     0
 77
     0
 78
     0
  0
ENDTAB
  0
TABLE
  2
LTYPE
  5
5
100
AcDbSymbolTable
 70
    25
  0
LTYPE
  5
12
100
AcDbSymbolTableRecord
100
AcDbLinetypeTableRecord
  2
BYBLOCK
 70
     0
  3

 72
    65
 73
     0
 40
0.0
  0
LTYPE
  5
13
100
AcDbSymbolTableRecord
100
AcDbLinetypeTableRecord
  2
BYLAYER
 70
     0
  3

 72
    65
 73
     0
 40
0.0
  0
LTYPE
  5
14
100
AcDbSymbolTableRecord
100
AcDbLinetypeTableRecord
  2
CONTINUOUS
 70
     0
  3
Solid line
 72
    65
 73
     0
 40
0.0
  0
LTYPE
  5
20
100
AcDbSymbolTableRecord
100
AcDbLinetypeTableRecord
  2
BORDER
 70
     0
  3
__ __ . __ __ . __ __ . __ __ . __ __ . __ __ .
 72
    65
 73
     6
 40
1.75
 49
0.5
 74
     0
 49
-0.25
 74
     0
 49
0.5
 74
     0
 49
-0.25
 74
     0
 49
0.0
 74
     0
 49
-0.25
 74
     0
  0
LTYPE
  5
21
100
AcDbSymbolTableRecord
100
AcDbLinetypeTableRecord
  2
BORDER2
 70
     0
  3
__.__.__.__.__.__.__.__.__.__.__.__.__.__.__.__
 72
    65
 73
     6
 40
0.875
 49
0.25
 74
     0
 49
-0.125
 74
     0
 49
0.25
 74
     0
 49
-0.125
 74
     0
 49
0.0
 74
     0
 49
-0.125
 74
     0
  0
LTYPE
  5
22
100
AcDbSymbolTableRecord
100
AcDbLinetypeTableRecord
  2
BORDERX2
 70
     0
  3
____  ____  .  ____  ____  .  ____  ____  .  __
 72
    65
 73
     6
 40
3.5
 49
1.0
 74
     0
 49
-0.5
 74
     0
 49
1.0
 74
     0
 49
-0.5
 74
     0
 49
0.0
 74
     0
 49
-0.5
 74
     0
  0
LTYPE
  5
23
100
AcDbSymbolTableRecord
100
AcDbLinetypeTableRecord
  2
CENTER
 70
     0
  3
____ _ ____ _ ____ _ ____ _ ____ _ ____ _ ____ 
 72
    65
 73
     4
 40
2.0
 49
1.25
 74
     0
 49
-0.25
 74
     0
 49
0.25
 74
     0
 49
-0.25
 74
     0
  0
LTYPE
  5
24
100
AcDbSymbolTableRecord
100
AcDbLinetypeTableRecord
  2
CENTER2
 70
     0
  3
___ _ ___ _ ___ _ ___ _ ___ _ ___ _ ___ _ ___ _
 72
    65
 73
     4
 40
1.125
 49
0.75
 74
     0
 49
-0.125
 74
     0
 49
0.125
 74
     0
 49
-0.125
 74
     0
  0
LTYPE
  5
25
100
AcDbSymbolTableRecord
100
AcDbLinetypeTableRecord
  2
CENTERX2
 70
     0
  3
________  __  ________  __  ________  __  _____
 72
    65
 73
     4
 40
4.0
 49
2.5
 74
     0
 49
-0.5
 74
     0
 49
0.5
 74
     0
 49
-0.5
 74
     0
  0
LTYPE
  5
26
100
AcDbSymbolTableRecord
100
AcDbLinetypeTableRecord
  2
DASHDOT
 70
     0
  3
__ . __ . __ . __ . __ . __ . __ . __ . __ . __
 72
    65
 73
     4
 40
1.0
 49
0.5
 74
     0
 49
-0.25
 74
     0
 49
0.0
 74
     0
 49
-0.25
 74
     0
  0
LTYPE
  5
27
100
AcDbSymbolTableRecord
100
AcDbLinetypeTableRecord
  2
DASHDOT2
 70
     0
  3
_._._._._._._._._._._._._._._._._._._._._._._._
 72
    65
 73
     4
 40
0.5
 49
0.25
 74
     0
 49
-0.125
 74
     0
 49
0.0
 74
     0
 49
-0.125
 74
     0
  0
LTYPE
  5
28
100
AcDbSymbolTableRecord
100
AcDbLinetypeTableRecord
  2
DASHDOTX2
 70
     0
  3
____  .  ____  .  ____  .  ____  .  ____  .  __
 72
    65
 73
     4
 40
2.0
 49
1.0
 74
     0
 49
-0.5
 74
     0
 49
0.0
 74
     0
 49
-0.5
 74
     0
  0
LTYPE
  5
29
100
AcDbSymbolTableRecord
100
AcDbLinetypeTableRecord
  2
DASHED
 70
     0
  3
__ __ __ __ __ __ __ __ __ __ __ __ __ __ __ __
 72
    65
 73
     2
 40
0.75
 49
0.5
 74
     0
 49
-0.25
 74
     0
  0
LTYPE
  5
2A
100
AcDbSymbolTableRecord
100
AcDbLinetypeTableRecord
  2
DASHED2
 70
     0
  3
_ _ _ _ _ _ _ _ _ _ _ _ _ _ _ _ _ _ _ _ _ _ _ _
 72
    65
 73
     2
 40
0.375
 49
0.25
 74
     0
 49
-0.125
 74
     0
  0
LTYPE
  5
2B
100
AcDbSymbolTableRecord
100
AcDbLinetypeTableRecord
  2
DASHEDX2
 70
     0
  3
____  ____  ____  ____  ____  ____  ____  ____ 
 72
    65
 73
     2
 40
1.5
 49
1.0
 74
     0
 49
-0.5
 74
     0
  0
LTYPE
  5
2C
100
AcDbSymbolTableRecord
100
AcDbLinetypeTableRecord
  2
DIVIDE
 70
     0
  3
____ . . ____ . . ____ . . ____ . . ____ . . __
 72
    65
 73
     6
 40
1.25
 49
0.5
 74
     0
 49
-0.25
 74
     0
 49
0.0
 74
     0
 49
-0.25
 74
     0
 49
0.0
 74
     0
 49
-0.25
 74
     0
  0
LTYPE
  5
2D
100
AcDbSymbolTableRecord
100
AcDbLinetypeTableRecord
  2
DIVIDE2
 70
     0
  3
__..__..__..__..__..__..__..__..__..__..__..__.
 72
    65
 73
     6
 40
0.625
 49
0.25
 74
     0
 49
-0.125
 74
     0
 49
0.0
 74
     0
 49
-0.125
 74
     0
 49
0.0
 74
     0
 49
-0.125
 74
     0
  0
LTYPE
  5
2E
100
AcDbSymbolTableRecord
100
AcDbLinetypeTableRecord
  2
DIVIDEX2
 70
     0
  3
________  .  .  ________  .  .  ________  .  . 
 72
    65
 73
     6
 40
2.5
 49
1.0
 74
     0
 49
-0.5
 74
     0
 49
0.0
 74
     0
 49
-0.5
 74
     0
 49
0.0
 74
     0
 49
-0.5
 74
     0
  0
LTYPE
  5
2F
100
AcDbSymbolTableRecord
100
AcDbLinetypeTableRecord
  2
DOT
 70
     0
  3
. . . . . . . . . . . . . . . . . . . . . . . .
 72
    65
 73
     2
 40
0.25
 49
0.0
 74
     0
 49
-0.25
 74
     0
  0
LTYPE
  5
30
100
AcDbSymbolTableRecord
100
AcDbLinetypeTableRecord
  2
DOT2
 70
     0
  3
...............................................
 72
    65
 73
     2
 40
0.125
 49
0.0
 74
     0
 49
-0.125
 74
     0
  0
LTYPE
  5
31
100
AcDbSymbolTableRecord
100
AcDbLinetypeTableRecord
  2
DOTX2
 70
     0
  3
.  .  .  .  .  .  .  .  .  .  .  .  .  .  .  . 
 72
    65
 73
     2
 40
0.5
 49
0.0
 74
     0
 49
-0.5
 74
     0
  0
LTYPE
  5
32
100
AcDbSymbolTableRecord
100
AcDbLinetypeTableRecord
  2
HIDDEN
 70
     0
  3
__ __ __ __ __ __ __ __ __ __ __ __ __ __ __ __
 72
    65
 73
     2
 40
0.375
 49
0.25
 74
     0
 49
-0.125
 74
     0
  0
LTYPE
  5
33
100
AcDbSymbolTableRecord
100
AcDbLinetypeTableRecord
  2
HIDDEN2
 70
     0
  3
_ _ _ _ _ _ _ _ _ _ _ _ _ _ _ _ _ _ _ _ _ _ _ _
 72
    65
 73
     2
 40
0.1875
 49
0.125
 74
     0
 49
-0.0625
 74
     0
  0
LTYPE
  5
34
100
AcDbSymbolTableRecord
100
AcDbLinetypeTableRecord
  2
HIDDENX2
 70
     0
  3
____ ____ ____ ____ ____ ____ ____ ____ ____ __
 72
    65
 73
     2
 40
0.75
 49
0.5
 74
     0
 49
-0.25
 74
     0
  0
LTYPE
  5
35
100
AcDbSymbolTableRecord
100
AcDbLinetypeTableRecord
  2
PHANTOM
 70
     0
  3
______  __  __  ______  __  __  ______  __  __ 
 72
    65
 73
     6
 40
2.5
 49
1.25
 74
     0
 49
-0.25
 74
     0
 49
0.25
 74
     0
 49
-0.25
 74
     0
 49
0.25
 74
     0
 49
-0.25
 74
     0
  0
LTYPE
  5
36
100
AcDbSymbolTableRecord
100
AcDbLinetypeTableRecord
  2
PHANTOM2
 70
     0
  3
___ _ _ ___ _ _ ___ _ _ ___ _ _ ___ _ _ ___ _ _
 72
    65
 73
     6
 40
1.25
 49
0.625
 74
     0
 49
-0.125
 74
     0
 49
0.125
 74
     0
 49
-0.125
 74
     0
 49
0.125
 74
     0
 49
-0.125
 74
     0
  0
LTYPE
  5
37
100
AcDbSymbolTableRecord
100
AcDbLinetypeTableRecord
  2
PHANTOMX2
 70
     0
  3
____________    ____    ____    ____________   
 72
    65
 73
     6
 40
5.0
 49
2.5
 74
     0
 49
-0.5
 74
     0
 49
0.5
 74
     0
 49
-0.5
 74
     0
 49
0.5
 74
     0
 49
-0.5
 74
     0
  0
ENDTAB
   0
TABLE
   2
LAYER
   5
2
 100
AcDbSymbolTable
  70
3
   0
LAYER
   5
E
 100
AcDbSymbolTableRecord
 100
AcDbLayerTableRecord
   2
0
  70
0
  62
7
   6
CONTINUOUS
 390
30
   0
LAYER
   5
39
 100
AcDbSymbolTableRecord
 100
AcDbLayerTableRecord
   2
LEVEL001
  70
0
  62
7
   6
CONTINUOUS
 390
30
   0
LAYER
   5
3A
 100
AcDbSymbolTableRecord
 100
AcDbLayerTableRecord
   2
LEVEL002
  70
0
  62
7
   6
CONTINUOUS
 390
30
   0
ENDTAB
  0
TABLE
  2
STYLE
  5
3
100
AcDbSymbolTable
  70
10
  0
STYLE
  5
F
100
AcDbSymbolTableRecord
100
AcDbTextStyleTableRecord
  2
STANDARD
 70
     0
 40
0.0
 41
1.0
 50
0.0
 71
     0
 42
0.2
  3
TXT
  4
BIGFONT
  0
STYLE
  5
38
100
AcDbSymbolTableRecord
100
AcDbTextStyleTableRecord
  2
STANDARD1
 70
     4
 40
0.0
 41
1.0
 50
0.0
 71
     0
 42
0.2
  3
TXT
  4
BIGFONT
   0
STYLE
   5
3B
 100
AcDbSymbolTableRecord
 100
AcDbTextStyleTableRecord
   2
GMM001
  70
0
  40
0.0
  41
 0.87500000000000
  50
0.0
  71
     0
  42
1.0
   3
txt.shx
   4
bigfont.shx
   0
STYLE
   5
3C
 100
AcDbSymbolTableRecord
 100
AcDbTextStyleTableRecord
   2
GMM002
  70
0
  40
0.0
  41
 0.90000000000000
  50
0.0
  71
     0
  42
1.0
   3
txt.shx
   4
bigfont.shx
   0
STYLE
   5
3D
 100
AcDbSymbolTableRecord
 100
AcDbTextStyleTableRecord
   2
GMM003
  70
0
  40
0.0
  41
 1.0000000000000
  50
0.0
  71
     0
  42
1.0
   3
txt.shx
   4
bigfont.shx
   0
STYLE
   5
3E
 100
AcDbSymbolTableRecord
 100
AcDbTextStyleTableRecord
   2
GMM004
  70
0
  40
0.0
  41
 0.78787878787879
  50
0.0
  71
     0
  42
1.0
   3
txt.shx
   4
bigfont.shx
   0
STYLE
   5
3F
 100
AcDbSymbolTableRecord
 100
AcDbTextStyleTableRecord
   2
GMM005
  70
0
  40
0.0
  41
 0.75000000000000
  50
0.0
  71
     0
  42
1.0
   3
txt.shx
   4
bigfont.shx
   0
STYLE
   5
40
 100
AcDbSymbolTableRecord
 100
AcDbTextStyleTableRecord
   2
GMM006
  70
0
  40
0.0
  41
 0.90000000000000
  50
0.0
  71
     0
  42
1.0
   3

   4

1001
ACAD
1000
ＭＳ 明朝
1071
33587217
   0
STYLE
   5
41
 100
AcDbSymbolTableRecord
 100
AcDbTextStyleTableRecord
   2
GMM007
  70
0
  40
0.0
  41
 1.6363636363636
  50
0.0
  71
     0
  42
1.0
   3
txt.shx
   4
bigfont.shx
   0
STYLE
   5
42
 100
AcDbSymbolTableRecord
 100
AcDbTextStyleTableRecord
   2
GMM008
  70
0
  40
0.0
  41
 1.0000000000000
  50
0.0
  71
     0
  42
1.0
   3

   4

1001
ACAD
1000
ＭＳ 明朝
1071
32785
   0
ENDTAB
  0
TABLE
  2
VIEW
  5
6
100
AcDbSymbolTable
 70
     0
  0
ENDTAB
  0
TABLE
  2
UCS
  5
7
100
AcDbSymbolTable
 70
     0
  0
ENDTAB
  0
TABLE
  2
APPID
  5
9
100
AcDbSymbolTable
 70
     1
  0
APPID
  5
10
100
AcDbSymbolTableRecord
100
AcDbRegAppTableRecord
  2
ACAD
 70
     0
  0
ENDTAB
   0
TABLE
   2
DIMSTYLE
   5
A
 100
AcDbSymbolTable
  70
13
 100
AcDbDimStyleTable
  0
DIMSTYLE
105
1D
100
AcDbSymbolTableRecord
100
AcDbDimStyleTableRecord
  2
STANDARD
 70
     0
  3

  4

  5

  6

  7

 40
1.0
 41
0.18
 42
0.0625
 43
0.38
 44
0.18
 45
0.0
 46
0.0
 47
0.0
 48
0.0
140
0.18
141
0.09
142
0.0
143
25.4
144
1.0
145
0.0
146
1.0
147
0.09
 71
     0
 72
     0
 73
     1
 74
     1
 75
     0
 76
     0
 77
     0
 78
     0
170
     0
171
     2
172
     0
173
     0
174
     0
175
     0
176
     0
177
     0
178
     0
270
     2
271
     4
272
     4
273
     2
274
     2
340
F
275
     0
280
     0
281
     0
282
     0
283
     1
284
     0
285
     0
286
     0
287
     3
288
     0
   0
DIMSTYLE
 105
43
 100
AcDbSymbolTableRecord
 100
AcDbDimStyleTableRecord
   2
GMM001
  70
0
   3

   4

   5

   6
_OPEN
   7
_OPEN
  40
 1.0000000000000
  41
 30.000000000000
  42
 30.000000000000
  43
 160.00000000000
  44
 30.000000000000
  45
0.0
  46
 37.500000000000
  47
0.0
  48
0.0
 140
 66.000000000000
 141
 20.000000000000
 142
0.0
 143
 0.39400000000000E-1
 144
 1.0000000000000
 145
0.0
 146
 0.62500000000000
 147
0.0
  71
0
  72
0
  73
0
  74
0
  75
1
  76
1
  77
0
  78
8
 170
0
 171
2
 172
1
 173
1
 174
0
 175
0
 176
1
 177
1
 178
1
 270
2
 271
1
 272
0
 273
2
 274
2
 340
F
 275
0
 280
0
 281
0
 282
0
 283
1
 284
0
 285
0
 286
0
 287
3
 288
0
   0
DIMSTYLE
 105
44
 100
AcDbSymbolTableRecord
 100
AcDbDimStyleTableRecord
   2
GMM002
  70
0
   3

   4

   5

   6
_OPEN
   7
_OPEN
  40
 1.0000000000000
  41
 30.000000000000
  42
 30.000000000000
  43
 160.00000000000
  44
 30.000000000000
  45
0.0
  46
 37.500000000000
  47
0.0
  48
0.0
 140
 66.000000000000
 141
 20.000000000000
 142
0.0
 143
 0.39400000000000E-1
 144
 1.0000000000000
 145
0.0
 146
 0.62500000000000
 147
 28.285714285714
  71
0
  72
0
  73
0
  74
0
  75
0
  76
1
  77
1
  78
8
 170
0
 171
2
 172
1
 173
1
 174
0
 175
0
 176
6
 177
6
 178
1
 270
2
 271
1
 272
0
 273
2
 274
2
 340
3E
 275
0
 280
0
 281
0
 282
0
 283
1
 284
0
 285
0
 286
0
 287
3
 288
0
   0
DIMSTYLE
 105
45
 100
AcDbSymbolTableRecord
 100
AcDbDimStyleTableRecord
   2
GMM003
  70
0
   3
<>(標準設置高さ
   4

   5

   6
_OPEN
   7
_OPEN
  40
 1.0000000000000
  41
 30.000000000000
  42
 30.000000000000
  43
 160.00000000000
  44
 30.000000000000
  45
0.0
  46
 37.500000000000
  47
0.0
  48
0.0
 140
 66.000000000000
 141
 20.000000000000
 142
0.0
 143
 0.39400000000000E-1
 144
 1.0000000000000
 145
0.0
 146
 0.62500000000000
 147
 28.285714285714
  71
0
  72
0
  73
0
  74
0
  75
0
  76
1
  77
1
  78
8
 170
0
 171
2
 172
1
 173
1
 174
0
 175
0
 176
6
 177
6
 178
1
 270
2
 271
1
 272
0
 273
2
 274
2
 340
3E
 275
0
 280
0
 281
0
 282
0
 283
1
 284
0
 285
0
 286
0
 287
3
 288
0
   0
DIMSTYLE
 105
46
 100
AcDbSymbolTableRecord
 100
AcDbDimStyleTableRecord
   2
GMM004
  70
0
   3

   4

   5

   6
_OPEN
   7
_OPEN
  40
 1.0000000000000
  41
 30.000000000000
  42
 30.000000000000
  43
 160.00000000000
  44
 30.000000000000
  45
0.0
  46
 37.500000000000
  47
0.0
  48
0.0
 140
 66.000000000000
 141
 20.000000000000
 142
0.0
 143
 0.39400000000000E-1
 144
 1.0000000000000
 145
0.0
 146
 0.62500000000000
 147
0.0
  71
0
  72
0
  73
0
  74
0
  75
1
  76
1
  77
0
  78
8
 170
0
 171
2
 172
1
 173
1
 174
0
 175
0
 176
1
 177
1
 178
1
 270
2
 271
1
 272
0
 273
2
 274
2
 340
F
 275
0
 280
0
 281
0
 282
0
 283
1
 284
0
 285
0
 286
0
 287
3
 288
0
   0
DIMSTYLE
 105
47
 100
AcDbSymbolTableRecord
 100
AcDbDimStyleTableRecord
   2
GMM005
  70
0
   3

   4

   5

   6
_OPEN
   7
_OPEN
  40
 1.0000000000000
  41
 30.000000000000
  42
 30.000000000000
  43
 160.00000000000
  44
 30.000000000000
  45
0.0
  46
 37.500000000000
  47
0.0
  48
0.0
 140
 66.000000000000
 141
 20.000000000000
 142
0.0
 143
 0.39400000000000E-1
 144
 1.0000000000000
 145
0.0
 146
 0.62500000000000
 147
 28.285714285714
  71
0
  72
0
  73
0
  74
0
  75
1
  76
0
  77
1
  78
8
 170
0
 171
2
 172
1
 173
1
 174
0
 175
0
 176
6
 177
6
 178
1
 270
2
 271
1
 272
0
 273
2
 274
2
 340
3E
 275
0
 280
0
 281
0
 282
0
 283
1
 284
0
 285
0
 286
0
 287
3
 288
0
   0
DIMSTYLE
 105
48
 100
AcDbSymbolTableRecord
 100
AcDbDimStyleTableRecord
   2
GMM006
  70
0
   3

   4

   5

   6
_OPEN
   7
_OPEN
  40
 1.0000000000000
  41
 30.000000000000
  42
 40.000000000000
  43
 160.00000000000
  44
 40.000000000000
  45
0.0
  46
 37.500000000000
  47
0.0
  48
0.0
 140
 66.000000000000
 141
 20.000000000000
 142
0.0
 143
 0.39400000000000E-1
 144
 1.0000000000000
 145
0.0
 146
 0.62500000000000
 147
 28.285714285714
  71
0
  72
0
  73
0
  74
0
  75
1
  76
1
  77
1
  78
8
 170
0
 171
2
 172
1
 173
1
 174
0
 175
0
 176
6
 177
6
 178
1
 270
2
 271
6
 272
0
 273
2
 274
2
 340
3E
 275
1
 280
0
 281
0
 282
0
 283
1
 284
0
 285
0
 286
0
 287
3
 288
1
   0
DIMSTYLE
 105
49
 100
AcDbSymbolTableRecord
 100
AcDbDimStyleTableRecord
   2
GMM007
  70
0
   3

   4

   5

   6
_OPEN
   7
_OPEN
  40
 1.0000000000000
  41
 30.000000000000
  42
 30.000000000000
  43
 160.00000000000
  44
 30.000000000000
  45
0.0
  46
 37.500000000000
  47
0.0
  48
0.0
 140
 66.000000000000
 141
 20.000000000000
 142
0.0
 143
 0.39400000000000E-1
 144
 1.0000000000000
 145
0.0
 146
 0.62500000000000
 147
0.0
  71
0
  72
0
  73
0
  74
0
  75
1
  76
1
  77
0
  78
8
 170
0
 171
2
 172
1
 173
1
 174
0
 175
0
 176
1
 177
1
 178
1
 270
2
 271
1
 272
0
 273
2
 274
2
 340
F
 275
0
 280
0
 281
0
 282
0
 283
1
 284
0
 285
0
 286
0
 287
3
 288
0
   0
DIMSTYLE
 105
4A
 100
AcDbSymbolTableRecord
 100
AcDbDimStyleTableRecord
   2
GMM008
  70
0
   3
□<>
   4

   5

   6
_OPEN
   7
_OPEN
  40
 1.0000000000000
  41
 30.000000000000
  42
 30.000000000000
  43
 160.00000000000
  44
 30.000000000000
  45
0.0
  46
 37.500000000000
  47
0.0
  48
0.0
 140
 66.000000000000
 141
 20.000000000000
 142
0.0
 143
 0.39400000000000E-1
 144
 1.0000000000000
 145
0.0
 146
 0.62500000000000
 147
 28.285714285714
  71
0
  72
0
  73
0
  74
0
  75
0
  76
0
  77
1
  78
8
 170
0
 171
2
 172
1
 173
1
 174
0
 175
0
 176
6
 177
6
 178
1
 270
2
 271
1
 272
0
 273
2
 274
2
 340
3E
 275
0
 280
0
 281
0
 282
0
 283
1
 284
0
 285
0
 286
0
 287
3
 288
0
   0
DIMSTYLE
 105
4B
 100
AcDbSymbolTableRecord
 100
AcDbDimStyleTableRecord
   2
GMM009
  70
0
   3

   4

   5

   6
_OPEN
   7
_OPEN
  40
 1.0000000000000
  41
 30.000000000000
  42
 30.000000000000
  43
 160.00000000000
  44
 30.000000000000
  45
0.0
  46
 37.500000000000
  47
0.0
  48
0.0
 140
 66.000000000000
 141
 20.000000000000
 142
0.0
 143
 0.39400000000000E-1
 144
 1.0000000000000
 145
0.0
 146
 0.62500000000000
 147
0.0
  71
0
  72
0
  73
0
  74
0
  75
1
  76
1
  77
0
  78
8
 170
0
 171
2
 172
1
 173
1
 174
0
 175
0
 176
1
 177
1
 178
1
 270
2
 271
1
 272
0
 273
2
 274
2
 340
F
 275
0
 280
0
 281
0
 282
0
 283
1
 284
0
 285
0
 286
0
 287
3
 288
0
   0
DIMSTYLE
 105
4C
 100
AcDbSymbolTableRecord
 100
AcDbDimStyleTableRecord
   2
GMM010
  70
0
   3
□<>
   4

   5

   6
_OPEN
   7
_OPEN
  40
 1.0000000000000
  41
 30.000000000000
  42
 30.000000000000
  43
 160.00000000000
  44
 30.000000000000
  45
0.0
  46
 37.500000000000
  47
0.0
  48
0.0
 140
 66.000000000000
 141
 20.000000000000
 142
0.0
 143
 0.39400000000000E-1
 144
 1.0000000000000
 145
0.0
 146
 0.62500000000000
 147
 28.285714285714
  71
0
  72
0
  73
0
  74
0
  75
0
  76
0
  77
1
  78
8
 170
0
 171
2
 172
1
 173
1
 174
0
 175
0
 176
6
 177
6
 178
1
 270
2
 271
1
 272
0
 273
2
 274
2
 340
3E
 275
0
 280
0
 281
0
 282
0
 283
1
 284
0
 285
0
 286
0
 287
3
 288
0
   0
DIMSTYLE
 105
4D
 100
AcDbSymbolTableRecord
 100
AcDbDimStyleTableRecord
   2
GMM011
  70
0
   3

   4

   5

   6
_OPEN
   7
_OPEN
  40
 1.0000000000000
  41
 30.000000000000
  42
 30.000000000000
  43
 160.00000000000
  44
 30.000000000000
  45
0.0
  46
 37.500000000000
  47
0.0
  48
0.0
 140
 66.000000000000
 141
 20.000000000000
 142
0.0
 143
 0.39400000000000E-1
 144
 1.0000000000000
 145
0.0
 146
 0.62500000000000
 147
0.0
  71
0
  72
0
  73
0
  74
0
  75
1
  76
1
  77
0
  78
8
 170
0
 171
2
 172
1
 173
1
 174
0
 175
0
 176
1
 177
1
 178
1
 270
2
 271
1
 272
0
 273
2
 274
2
 340
F
 275
0
 280
0
 281
0
 282
0
 283
1
 284
0
 285
0
 286
0
 287
3
 288
0
   0
ENDTAB
  0
TABLE
  2
BLOCK_RECORD
  5
1
100
AcDbSymbolTable
 70
     0
  0
BLOCK_RECORD
  5
18
100
AcDbSymbolTableRecord
100
AcDbBlockTableRecord
  2
*MODEL_SPACE
  0
BLOCK_RECORD
  5
15
100
AcDbSymbolTableRecord
100
AcDbBlockTableRecord
  2
*PAPER_SPACE
   0
BLOCK_RECORD
   5
4E
 100
AcDbSymbolTableRecord
 100
AcDbBlockTableRecord
   2
*D8
   0
BLOCK_RECORD
   5
4F
 100
AcDbSymbolTableRecord
 100
AcDbBlockTableRecord
   2
*D9
   0
BLOCK_RECORD
   5
50
 100
AcDbSymbolTableRecord
 100
AcDbBlockTableRecord
   2
*D10
   0
BLOCK_RECORD
   5
51
 100
AcDbSymbolTableRecord
 100
AcDbBlockTableRecord
   2
*D13
   0
BLOCK_RECORD
   5
52
 100
AcDbSymbolTableRecord
 100
AcDbBlockTableRecord
   2
*D14
   0
BLOCK_RECORD
   5
53
 100
AcDbSymbolTableRecord
 100
AcDbBlockTableRecord
   2
*D15
   0
BLOCK_RECORD
   5
54
 100
AcDbSymbolTableRecord
 100
AcDbBlockTableRecord
   2
*D19
   0
BLOCK_RECORD
   5
55
 100
AcDbSymbolTableRecord
 100
AcDbBlockTableRecord
   2
*D21
   0
BLOCK_RECORD
   5
56
 100
AcDbSymbolTableRecord
 100
AcDbBlockTableRecord
   2
_ARCHTICK
   0
BLOCK_RECORD
   5
57
 100
AcDbSymbolTableRecord
 100
AcDbBlockTableRecord
   2
_BOXBLANK
   0
BLOCK_RECORD
   5
58
 100
AcDbSymbolTableRecord
 100
AcDbBlockTableRecord
   2
_BOXFILLED
   0
BLOCK_RECORD
   5
59
 100
AcDbSymbolTableRecord
 100
AcDbBlockTableRecord
   2
_CLOSED
   0
BLOCK_RECORD
   5
5A
 100
AcDbSymbolTableRecord
 100
AcDbBlockTableRecord
   2
_CLOSEDBLANK
   0
BLOCK_RECORD
   5
5B
 100
AcDbSymbolTableRecord
 100
AcDbBlockTableRecord
   2
_DATUMBLANK
   0
BLOCK_RECORD
   5
5C
 100
AcDbSymbolTableRecord
 100
AcDbBlockTableRecord
   2
_DATUMFILLED
   0
BLOCK_RECORD
   5
5D
 100
AcDbSymbolTableRecord
 100
AcDbBlockTableRecord
   2
_DOT
   0
BLOCK_RECORD
   5
5E
 100
AcDbSymbolTableRecord
 100
AcDbBlockTableRecord
   2
_DOTBLANK
   0
BLOCK_RECORD
   5
5F
 100
AcDbSymbolTableRecord
 100
AcDbBlockTableRecord
   2
_DOTSMALL
   0
BLOCK_RECORD
   5
60
 100
AcDbSymbolTableRecord
 100
AcDbBlockTableRecord
   2
_INTEGRAL
   0
BLOCK_RECORD
   5
61
 100
AcDbSymbolTableRecord
 100
AcDbBlockTableRecord
   2
_NONE
   0
BLOCK_RECORD
   5
62
 100
AcDbSymbolTableRecord
 100
AcDbBlockTableRecord
   2
_OBLIQUE
   0
BLOCK_RECORD
   5
63
 100
AcDbSymbolTableRecord
 100
AcDbBlockTableRecord
   2
_OPEN
   0
BLOCK_RECORD
   5
64
 100
AcDbSymbolTableRecord
 100
AcDbBlockTableRecord
   2
_OPEN30
   0
BLOCK_RECORD
   5
65
 100
AcDbSymbolTableRecord
 100
AcDbBlockTableRecord
   2
_OPEN90
   0
BLOCK_RECORD
   5
66
 100
AcDbSymbolTableRecord
 100
AcDbBlockTableRecord
   2
_ORIGIN
   0
ENDTAB
   0
ENDSEC
  0
SECTION
  2
BLOCKS
  0
BLOCK
  5
19
100
AcDbEntity
  8
0
100
AcDbBlockBegin
  2
*MODEL_SPACE
 70
     0
 10
0.0
 20
0.0
 30
0.0
  3
*MODEL_SPACE
  1

  0
ENDBLK
  5
1A
100
AcDbEntity
  8
0
100
AcDbBlockEnd
  0
BLOCK
  5
16
100
AcDbEntity
 67
     1
  8
0
100
AcDbBlockBegin
  2
*PAPER_SPACE
 70
     0
 10
0.0
 20
0.0
 30
0.0
  3
*PAPER_SPACE
  1

  0
ENDBLK
  5
17
100
AcDbEntity
 67
     1
  8
0
100
AcDbBlockEnd
   0
BLOCK
   5
67
 100
AcDbEntity
   8
0
 100
AcDbBlockBegin
   2
_ARCHTICK
  70
0
  10
0.0
  20
0.0
  30
0.0
   3
_ARCHTICK
   0
POLYLINE
   5
68
 100
AcDbEntity
   8
0
 370
-2
   6
BYBLOCK
  62
0
 100
AcDb2dPolyline
  66
1
  10
0.0
  20
0.0
  30
0.0
  70
1
  40
 0.15000000000000
  41
 0.15000000000000
   0
VERTEX
   5
69
 100
AcDbEntity
   8
0
   6
BYBLOCK
  62
0
 100
AcDbVertex
 100
AcDb2dVertex
  10
-0.50000000000000
  20
-0.50000000000000
  30
0.0
  40
 0.15000000000000
  41
 0.15000000000000
   0
VERTEX
   5
6A
 100
AcDbEntity
   8
0
   6
BYBLOCK
  62
0
 100
AcDbVertex
 100
AcDb2dVertex
  10
 0.50000000000000
  20
 0.50000000000000
  30
0.0
  40
 0.15000000000000
  41
 0.15000000000000
   0
SEQEND
   5
6B
 100
AcDbEntity
   8
0
   6
BYBLOCK
  62
0
   0
ENDBLK
   5
6C
 100
AcDbEntity
   8
0
 100
AcDbBlockEnd
   0
BLOCK
   5
6D
 100
AcDbEntity
   8
0
 100
AcDbBlockBegin
   2
_OBLIQUE
  70
0
  10
0.0
  20
0.0
  30
0.0
   3
_OBLIQUE
   0
LINE
   5
6E
 100
AcDbEntity
   8
0
 370
-2
 100
AcDbLine
   6
BYBLOCK
  62
0
  10
-0.50000000000000
  20
-0.50000000000000
  30
0.0
  11
 0.50000000000000
  21
 0.50000000000000
  31
0.0
   0
ENDBLK
   5
6F
 100
AcDbEntity
   8
0
 100
AcDbBlockEnd
   0
BLOCK
   5
70
 100
AcDbEntity
   8
0
 100
AcDbBlockBegin
   2
_BOXBLANK
  70
0
  10
0.0
  20
0.0
  30
0.0
   3
_BOXBLANK
   0
LINE
   5
71
 100
AcDbEntity
   8
0
 370
-2
 100
AcDbLine
   6
BYBLOCK
  62
0
  10
-0.50000000000000
  20
-0.50000000000000
  30
0.0
  11
 0.50000000000000
  21
-0.50000000000000
  31
0.0
   0
LINE
   5
72
 100
AcDbEntity
   8
0
 370
-2
 100
AcDbLine
   6
BYBLOCK
  62
0
  10
 0.50000000000000
  20
-0.50000000000000
  30
0.0
  11
 0.50000000000000
  21
 0.50000000000000
  31
0.0
   0
LINE
   5
73
 100
AcDbEntity
   8
0
 370
-2
 100
AcDbLine
   6
BYBLOCK
  62
0
  10
 0.50000000000000
  20
 0.50000000000000
  30
0.0
  11
-0.50000000000000
  21
 0.50000000000000
  31
0.0
   0
LINE
   5
74
 100
AcDbEntity
   8
0
 370
-2
 100
AcDbLine
   6
BYBLOCK
  62
0
  10
-0.50000000000000
  20
 0.50000000000000
  30
0.0
  11
-0.50000000000000
  21
-0.50000000000000
  31
0.0
   0
LINE
   5
75
 100
AcDbEntity
   8
0
 370
-2
 100
AcDbLine
   6
BYBLOCK
  62
0
  10
-0.50000000000000
  20
0.0
  30
0.0
  11
-1.0000000000000
  21
0.0
  31
0.0
   0
ENDBLK
   5
76
 100
AcDbEntity
   8
0
 100
AcDbBlockEnd
   0
BLOCK
   5
77
 100
AcDbEntity
   8
0
 100
AcDbBlockBegin
   2
_BOXFILLED
  70
0
  10
0.0
  20
0.0
  30
0.0
   3
_BOXFILLED
   0
SOLID
   5
78
 100
AcDbEntity
   8
0
 100
AcDbTrace
   6
BYBLOCK
  62
0
  10
-0.50000000000000
  20
 0.50000000000000
  30
0.0
  11
 0.50000000000000
  21
 0.50000000000000
  31
0.0
  12
-0.50000000000000
  22
-0.50000000000000
  32
0.0
  13
 0.50000000000000
  23
-0.50000000000000
  33
0.0
   0
LINE
   5
79
 100
AcDbEntity
   8
0
 370
-2
 100
AcDbLine
   6
BYBLOCK
  62
0
  10
-0.50000000000000
  20
0.0
  30
0.0
  11
-1.0000000000000
  21
0.0
  31
0.0
   0
ENDBLK
   5
7A
 100
AcDbEntity
   8
0
 100
AcDbBlockEnd
   0
BLOCK
   5
7B
 100
AcDbEntity
   8
0
 100
AcDbBlockBegin
   2
_CLOSED
  70
0
  10
0.0
  20
0.0
  30
0.0
   3
_CLOSED
   0
LINE
   5
7C
 100
AcDbEntity
   8
0
 370
-2
 100
AcDbLine
   6
BYBLOCK
  62
0
  10
-1.0000000000000
  20
 0.16666666666667
  30
0.0
  11
0.0
  21
0.0
  31
0.0
   0
LINE
   5
7D
 100
AcDbEntity
   8
0
 370
-2
 100
AcDbLine
   6
BYBLOCK
  62
0
  10
0.0
  20
0.0
  30
0.0
  11
-1.0000000000000
  21
-0.16666666666667
  31
0.0
   0
LINE
   5
7E
 100
AcDbEntity
   8
0
 370
-2
 100
AcDbLine
   6
BYBLOCK
  62
0
  10
-1.0000000000000
  20
 0.16666666666667
  30
0.0
  11
-1.0000000000000
  21
-0.16666666666667
  31
0.0
   0
LINE
   5
7F
 100
AcDbEntity
   8
0
 370
-2
 100
AcDbLine
   6
BYBLOCK
  62
0
  10
0.0
  20
0.0
  30
0.0
  11
-1.0000000000000
  21
0.0
  31
0.0
   0
ENDBLK
   5
80
 100
AcDbEntity
   8
0
 100
AcDbBlockEnd
   0
BLOCK
   5
81
 100
AcDbEntity
   8
0
 100
AcDbBlockBegin
   2
_OPEN
  70
0
  10
0.0
  20
0.0
  30
0.0
   3
_OPEN
   0
LINE
   5
82
 100
AcDbEntity
   8
0
 370
-2
 100
AcDbLine
   6
BYBLOCK
  62
0
  10
-1.0000000000000
  20
 0.16666666666667
  30
0.0
  11
0.0
  21
0.0
  31
0.0
   0
LINE
   5
83
 100
AcDbEntity
   8
0
 370
-2
 100
AcDbLine
   6
BYBLOCK
  62
0
  10
0.0
  20
0.0
  30
0.0
  11
-1.0000000000000
  21
-0.16666666666667
  31
0.0
   0
LINE
   5
84
 100
AcDbEntity
   8
0
 370
-2
 100
AcDbLine
   6
BYBLOCK
  62
0
  10
0.0
  20
0.0
  30
0.0
  11
-1.0000000000000
  21
0.0
  31
0.0
   0
ENDBLK
   5
85
 100
AcDbEntity
   8
0
 100
AcDbBlockEnd
   0
BLOCK
   5
86
 100
AcDbEntity
   8
0
 100
AcDbBlockBegin
   2
_OPEN30
  70
0
  10
0.0
  20
0.0
  30
0.0
   3
_OPEN30
   0
LINE
   5
87
 100
AcDbEntity
   8
0
 370
-2
 100
AcDbLine
   6
BYBLOCK
  62
0
  10
-1.0000000000000
  20
 0.26794919243110
  30
0.0
  11
0.0
  21
0.0
  31
0.0
   0
LINE
   5
88
 100
AcDbEntity
   8
0
 370
-2
 100
AcDbLine
   6
BYBLOCK
  62
0
  10
0.0
  20
0.0
  30
0.0
  11
-1.0000000000000
  21
-0.26794919243110
  31
0.0
   0
LINE
   5
89
 100
AcDbEntity
   8
0
 370
-2
 100
AcDbLine
   6
BYBLOCK
  62
0
  10
0.0
  20
0.0
  30
0.0
  11
-1.0000000000000
  21
0.0
  31
0.0
   0
ENDBLK
   5
8A
 100
AcDbEntity
   8
0
 100
AcDbBlockEnd
   0
BLOCK
   5
8B
 100
AcDbEntity
   8
0
 100
AcDbBlockBegin
   2
_OPEN90
  70
0
  10
0.0
  20
0.0
  30
0.0
   3
_OPEN90
   0
LINE
   5
8C
 100
AcDbEntity
   8
0
 370
-2
 100
AcDbLine
   6
BYBLOCK
  62
0
  10
-0.50000000000000
  20
 0.50000000000000
  30
0.0
  11
0.0
  21
0.0
  31
0.0
   0
LINE
   5
8D
 100
AcDbEntity
   8
0
 370
-2
 100
AcDbLine
   6
BYBLOCK
  62
0
  10
0.0
  20
0.0
  30
0.0
  11
-0.50000000000000
  21
-0.50000000000000
  31
0.0
   0
LINE
   5
8E
 100
AcDbEntity
   8
0
 370
-2
 100
AcDbLine
   6
BYBLOCK
  62
0
  10
0.0
  20
0.0
  30
0.0
  11
-1.0000000000000
  21
0.0
  31
0.0
   0
ENDBLK
   5
8F
 100
AcDbEntity
   8
0
 100
AcDbBlockEnd
   0
BLOCK
   5
90
 100
AcDbEntity
   8
0
 100
AcDbBlockBegin
   2
_CLOSEDBLANK
  70
0
  10
0.0
  20
0.0
  30
0.0
   3
_CLOSEDBLANK
   0
LINE
   5
91
 100
AcDbEntity
   8
0
 370
-2
 100
AcDbLine
   6
BYBLOCK
  62
0
  10
-1.0000000000000
  20
 0.16666666666667
  30
0.0
  11
0.0
  21
0.0
  31
0.0
   0
LINE
   5
92
 100
AcDbEntity
   8
0
 370
-2
 100
AcDbLine
   6
BYBLOCK
  62
0
  10
0.0
  20
0.0
  30
0.0
  11
-1.0000000000000
  21
-0.16666666666667
  31
0.0
   0
LINE
   5
93
 100
AcDbEntity
   8
0
 370
-2
 100
AcDbLine
   6
BYBLOCK
  62
0
  10
-1.0000000000000
  20
 0.16666666666667
  30
0.0
  11
-1.0000000000000
  21
-0.16666666666667
  31
0.0
   0
ENDBLK
   5
94
 100
AcDbEntity
   8
0
 100
AcDbBlockEnd
   0
BLOCK
   5
95
 100
AcDbEntity
   8
0
 100
AcDbBlockBegin
   2
_DOT
  70
0
  10
0.0
  20
0.0
  30
0.0
   3
_DOT
   0
POLYLINE
   5
96
 100
AcDbEntity
   8
0
 370
-2
   6
BYBLOCK
  62
0
 100
AcDb2dPolyline
  66
1
  10
0.0
  20
0.0
  30
0.0
  70
1
  40
 0.50000000000000
  41
 0.50000000000000
   0
VERTEX
   5
97
 100
AcDbEntity
   8
0
   6
BYBLOCK
  62
0
 100
AcDbVertex
 100
AcDb2dVertex
  10
-0.25000000000000
  20
0.0
  30
0.0
  42
 1.0000000000000
  40
 0.50000000000000
  41
 0.50000000000000
   0
VERTEX
   5
98
 100
AcDbEntity
   8
0
   6
BYBLOCK
  62
0
 100
AcDbVertex
 100
AcDb2dVertex
  10
 0.25000000000000
  20
0.0
  30
0.0
  42
 1.0000000000000
  40
 0.50000000000000
  41
 0.50000000000000
   0
SEQEND
   5
99
 100
AcDbEntity
   8
0
   6
BYBLOCK
  62
0
   0
LINE
   5
9A
 100
AcDbEntity
   8
0
 370
-2
 100
AcDbLine
   6
BYBLOCK
  62
0
  10
-0.50000000000000
  20
0.0
  30
0.0
  11
-1.0000000000000
  21
0.0
  31
0.0
   0
ENDBLK
   5
9B
 100
AcDbEntity
   8
0
 100
AcDbBlockEnd
   0
BLOCK
   5
9C
 100
AcDbEntity
   8
0
 100
AcDbBlockBegin
   2
_DOTSMALL
  70
0
  10
0.0
  20
0.0
  30
0.0
   3
_DOTSMALL
   0
POLYLINE
   5
9D
 100
AcDbEntity
   8
0
 370
-2
   6
BYBLOCK
  62
0
 100
AcDb2dPolyline
  66
1
  10
0.0
  20
0.0
  30
0.0
  70
1
  40
 0.50000000000000
  41
 0.50000000000000
   0
VERTEX
   5
9E
 100
AcDbEntity
   8
0
   6
BYBLOCK
  62
0
 100
AcDbVertex
 100
AcDb2dVertex
  10
-0.62500000000000E-1
  20
0.0
  30
0.0
  42
 1.0000000000000
  40
 0.50000000000000
  41
 0.50000000000000
   0
VERTEX
   5
9F
 100
AcDbEntity
   8
0
   6
BYBLOCK
  62
0
 100
AcDbVertex
 100
AcDb2dVertex
  10
 0.62500000000000E-1
  20
0.0
  30
0.0
  42
 1.0000000000000
  40
 0.50000000000000
  41
 0.50000000000000
   0
SEQEND
   5
A0
 100
AcDbEntity
   8
0
   6
BYBLOCK
  62
0
   0
ENDBLK
   5
A1
 100
AcDbEntity
   8
0
 100
AcDbBlockEnd
   0
BLOCK
   5
A2
 100
AcDbEntity
   8
0
 100
AcDbBlockBegin
   2
_DATUMBLANK
  70
0
  10
0.0
  20
0.0
  30
0.0
   3
_DATUMBLANK
   0
LINE
   5
A3
 100
AcDbEntity
   8
0
 370
-2
 100
AcDbLine
   6
BYBLOCK
  62
0
  10
0.0
  20
 0.57735027000000
  30
0.0
  11
-1.0000000000000
  21
0.0
  31
0.0
   0
LINE
   5
A4
 100
AcDbEntity
   8
0
 370
-2
 100
AcDbLine
   6
BYBLOCK
  62
0
  10
-1.0000000000000
  20
0.0
  30
0.0
  11
0.0
  21
-0.57735027000000
  31
0.0
   0
LINE
   5
A5
 100
AcDbEntity
   8
0
 370
-2
 100
AcDbLine
   6
BYBLOCK
  62
0
  10
0.0
  20
-0.57735027000000
  30
0.0
  11
0.0
  21
 0.57735027000000
  31
0.0
   0
ENDBLK
   5
A6
 100
AcDbEntity
   8
0
 100
AcDbBlockEnd
   0
BLOCK
   5
A7
 100
AcDbEntity
   8
0
 100
AcDbBlockBegin
   2
_DATUMFILLED
  70
0
  10
0.0
  20
0.0
  30
0.0
   3
_DATUMFILLED
   0
SOLID
   5
A8
 100
AcDbEntity
   8
0
 100
AcDbTrace
   6
BYBLOCK
  62
0
  10
0.0
  20
 0.57735027000000
  30
0.0
  11
-1.0000000000000
  21
0.0
  31
0.0
  12
0.0
  22
-0.57735027000000
  32
0.0
  13
0.0
  23
-0.57735027000000
  33
0.0
   0
ENDBLK
   5
A9
 100
AcDbEntity
   8
0
 100
AcDbBlockEnd
   0
BLOCK
   5
AA
 100
AcDbEntity
   8
0
 100
AcDbBlockBegin
   2
_ORIGIN
  70
0
  10
0.0
  20
0.0
  30
0.0
   3
_ORIGIN
   0
CIRCLE
   5
AB
 100
AcDbEntity
   8
0
 370
-2
 100
AcDbCircle
   6
BYBLOCK
  62
0
  10
0.0
  20
0.0
  30
0.0
  40
 0.50000000000000
   0
LINE
   5
AC
 100
AcDbEntity
   8
0
 370
-2
 100
AcDbLine
   6
BYBLOCK
  62
0
  10
0.0
  20
0.0
  30
0.0
  11
-1.0000000000000
  21
0.0
  31
0.0
   0
ENDBLK
   5
AD
 100
AcDbEntity
   8
0
 100
AcDbBlockEnd
   0
BLOCK
   5
AE
 100
AcDbEntity
   8
0
 100
AcDbBlockBegin
   2
_NONE
  70
0
  10
0.0
  20
0.0
  30
0.0
   3
_NONE
   0
CIRCLE
   5
AF
 100
AcDbEntity
   8
0
 370
-2
 100
AcDbCircle
   6
BYBLOCK
  62
0
  10
0.0
  20
0.0
  30
0.0
  40
 0.25000000000000
   0
ENDBLK
   5
B0
 100
AcDbEntity
   8
0
 100
AcDbBlockEnd
   0
BLOCK
   5
B1
 100
AcDbEntity
   8
0
 100
AcDbBlockBegin
   2
_DOTBLANK
  70
0
  10
0.0
  20
0.0
  30
0.0
   3
_DOTBLANK
   0
CIRCLE
   5
B2
 100
AcDbEntity
   8
0
 370
-2
 100
AcDbCircle
   6
BYBLOCK
  62
0
  10
0.0
  20
0.0
  30
0.0
  40
 0.50000000000000
   0
LINE
   5
B3
 100
AcDbEntity
   8
0
 370
-2
 100
AcDbLine
   6
BYBLOCK
  62
0
  10
-0.50000000000000
  20
0.0
  30
0.0
  11
-1.0000000000000
  21
0.0
  31
0.0
   0
ENDBLK
   5
B4
 100
AcDbEntity
   8
0
 100
AcDbBlockEnd
   0
BLOCK
   5
B5
 100
AcDbEntity
   8
0
 100
AcDbBlockBegin
   2
_INTEGRAL
  70
0
  10
0.0
  20
0.0
  30
0.0
   3
_INTEGRAL
   0
ARC
   5
B6
 100
AcDbEntity
   8
0
 370
-2
   6
BYBLOCK
  62
0
 100
AcDbCircle
  10
 0.44488800000000
  20
-0.91335000000000E-1
  30
0.0
  40
 0.45416700000000
 100
AcDbArc
  50
 102.00000000000
  51
 168.00000000000
   0
ARC
   5
B7
 100
AcDbEntity
   8
0
 370
-2
   6
BYBLOCK
  62
0
 100
AcDbCircle
  10
-0.44488800000000
  20
 0.91335000000000E-1
  30
0.0
  40
 0.45416700000000
 100
AcDbArc
  50
 282.00000000000
  51
 348.00000000000
   0
ENDBLK
   5
B8
 100
AcDbEntity
   8
0
 100
AcDbBlockEnd
   0
BLOCK
   5
B9
 100
AcDbEntity
   8
0
 100
AcDbBlockBegin
   2
*D8
  70
65
  10
0.0
  20
0.0
  30
0.0
   3
*D8
   0
LINE
   5
BA
 100
AcDbEntity
   8
LEVEL001
 370
13
 100
AcDbLine
   6
CONTINUOUS
  62
6
  10
 1112.7089116869
  20
 453.73994788310
  30
0.0
  11
 612.70891168694
  21
 453.73994788310
  31
0.0
   0
LINE
   5
BB
 100
AcDbEntity
   8
LEVEL001
 370
13
 100
AcDbLine
   6
CONTINUOUS
  62
6
  10
 1112.7089116869
  20
 553.73994788310
  30
0.0
  11
 612.70891168694
  21
 553.73994788310
  31
0.0
   0
LINE
   5
BC
 100
AcDbEntity
   8
LEVEL001
 370
13
 100
AcDbLine
   6
CONTINUOUS
  62
6
  10
 642.70891168694
  20
 453.73994788310
  30
0.0
  11
 642.70891168694
  21
 553.73994788310
  31
0.0
   0
INSERT
   5
BD
 100
AcDbEntity
   8
LEVEL001
   6
CONTINUOUS
  62
6
 100
AcDbBlockReference
   2
_OPEN
  10
 642.70891168694
  20
 453.73994788310
  30
0.0
  41
 30.000000000000
  42
 30.000000000000
  43
 30.000000000000
  50
 270.00000000000
   0
INSERT
   5
BE
 100
AcDbEntity
   8
LEVEL001
   6
CONTINUOUS
  62
6
 100
AcDbBlockReference
   2
_OPEN
  10
 642.70891168694
  20
 553.73994788310
  30
0.0
  41
 30.000000000000
  42
 30.000000000000
  43
 30.000000000000
  50
 90.000000000000
   0
MTEXT
   5
BF
 100
AcDbEntity
   8
LEVEL001
 370
13
  62
1
 100
AcDbMText
  10
 614.42319740123
  20
 503.73994788310
  30
0.0
  40
 66.000000000000
  41
0.0
  71
8
  72
1
   1
\A1;100
   7
GMM004
  11
0.0
  21
 1.0000000000000
  31
0.0
   0
ENDBLK
   5
C0
 100
AcDbEntity
   8
0
 100
AcDbBlockEnd
   0
BLOCK
   5
C1
 100
AcDbEntity
   8
0
 100
AcDbBlockBegin
   2
*D9
  70
65
  10
0.0
  20
0.0
  30
0.0
   3
*D9
   0
LINE
   5
C2
 100
AcDbEntity
   8
LEVEL001
 370
13
 100
AcDbLine
   6
CONTINUOUS
  62
6
  10
 1112.7089116869
  20
 553.73994788310
  30
0.0
  11
 612.70891168694
  21
 553.73994788310
  31
0.0
   0
LINE
   5
C3
 100
AcDbEntity
   8
LEVEL001
 370
13
 100
AcDbLine
   6
CONTINUOUS
  62
6
  10
 812.70897692190
  20
 1753.7399478831
  30
0.0
  11
 612.70891168694
  21
 1753.7399478831
  31
0.0
   0
LINE
   5
C4
 100
AcDbEntity
   8
LEVEL001
 370
13
 100
AcDbLine
   6
CONTINUOUS
  62
6
  10
 642.70891168694
  20
 553.73994788310
  30
0.0
  11
 642.70891168694
  21
 1753.7399478831
  31
0.0
   0
INSERT
   5
C5
 100
AcDbEntity
   8
LEVEL001
   6
CONTINUOUS
  62
6
 100
AcDbBlockReference
   2
_OPEN
  10
 642.70891168694
  20
 553.73994788310
  30
0.0
  41
 30.000000000000
  42
 30.000000000000
  43
 30.000000000000
  50
 270.00000000000
   0
INSERT
   5
C6
 100
AcDbEntity
   8
LEVEL001
   6
CONTINUOUS
  62
6
 100
AcDbBlockReference
   2
_OPEN
  10
 642.70891168694
  20
 1753.7399478831
  30
0.0
  41
 30.000000000000
  42
 30.000000000000
  43
 30.000000000000
  50
 90.000000000000
   0
MTEXT
   5
C7
 100
AcDbEntity
   8
LEVEL001
 370
13
  62
1
 100
AcDbMText
  10
 614.42319740123
  20
 1153.7399478831
  30
0.0
  40
 66.000000000000
  41
0.0
  71
8
  72
1
   1
\A1;1200
   7
GMM004
  11
0.0
  21
 1.0000000000000
  31
0.0
   0
ENDBLK
   5
C8
 100
AcDbEntity
   8
0
 100
AcDbBlockEnd
   0
BLOCK
   5
C9
 100
AcDbEntity
   8
0
 100
AcDbBlockBegin
   2
*D10
  70
65
  10
0.0
  20
0.0
  30
0.0
   3
*D10
   0
LINE
   5
CA
 100
AcDbEntity
   8
LEVEL001
 370
13
 100
AcDbLine
   6
CONTINUOUS
  62
6
  10
 812.70897692190
  20
 1753.7399478831
  30
0.0
  11
 612.70891168694
  21
 1753.7399478831
  31
0.0
   0
LINE
   5
CB
 100
AcDbEntity
   8
LEVEL001
 370
13
 100
AcDbLine
   6
CONTINUOUS
  62
6
  10
 642.70891168694
  20
 4253.7399478831
  30
0.0
  11
 642.70891168694
  21
 4253.7399478831
  31
0.0
   0
LINE
   5
CC
 100
AcDbEntity
   8
LEVEL001
 370
13
 100
AcDbLine
   6
CONTINUOUS
  62
6
  10
 642.70891168694
  20
 1753.7399478831
  30
0.0
  11
 642.70891168694
  21
 4253.7399478831
  31
0.0
   0
INSERT
   5
CD
 100
AcDbEntity
   8
LEVEL001
   6
CONTINUOUS
  62
6
 100
AcDbBlockReference
   2
_OPEN
  10
 642.70891168694
  20
 1753.7399478831
  30
0.0
  41
 30.000000000000
  42
 30.000000000000
  43
 30.000000000000
  50
 270.00000000000
   0
INSERT
   5
CE
 100
AcDbEntity
   8
LEVEL001
   6
CONTINUOUS
  62
6
 100
AcDbBlockReference
   2
_OPEN
  10
 642.70891168694
  20
 4253.7399478831
  30
0.0
  41
 30.000000000000
  42
 30.000000000000
  43
 30.000000000000
  50
 90.000000000000
   0
MTEXT
   5
CF
 100
AcDbEntity
   8
LEVEL001
 370
13
  62
1
 100
AcDbMText
  10
 614.42319740123
  20
 3003.7399478831
  30
0.0
  40
 66.000000000000
  41
0.0
  71
8
  72
1
   1
\A1;2500(標準設置高さ)
   7
GMM004
  11
0.0
  21
 1.0000000000000
  31
0.0
   0
ENDBLK
   5
D0
 100
AcDbEntity
   8
0
 100
AcDbBlockEnd
   0
BLOCK
   5
D1
 100
AcDbEntity
   8
0
 100
AcDbBlockBegin
   2
*D13
  70
65
  10
0.0
  20
0.0
  30
0.0
   3
*D13
   0
LINE
   5
D2
 100
AcDbEntity
   8
LEVEL001
 370
13
 100
AcDbLine
   6
CONTINUOUS
  62
6
  10
 2742.7089116869
  20
 2753.7399478831
  30
0.0
  11
 2742.7089116869
  21
 2753.7399478831
  31
0.0
   0
LINE
   5
D3
 100
AcDbEntity
   8
LEVEL001
 370
13
 100
AcDbLine
   6
CONTINUOUS
  62
6
  10
 3142.7089116869
  20
 3979.6796678208
  30
0.0
  11
 3142.7089116869
  21
 2723.7399478831
  31
0.0
   0
LINE
   5
D4
 100
AcDbEntity
   8
LEVEL001
 370
13
 100
AcDbLine
   6
CONTINUOUS
  62
6
  10
 2742.7089116869
  20
 2753.7399478831
  30
0.0
  11
 3142.7089116869
  21
 2753.7399478831
  31
0.0
   0
INSERT
   5
D5
 100
AcDbEntity
   8
LEVEL001
   6
CONTINUOUS
  62
6
 100
AcDbBlockReference
   2
_OPEN
  10
 2742.7089116869
  20
 2753.7399478831
  30
0.0
  41
 30.000000000000
  42
 30.000000000000
  43
 30.000000000000
  50
 180.00000000000
   0
INSERT
   5
D6
 100
AcDbEntity
   8
LEVEL001
   6
CONTINUOUS
  62
6
 100
AcDbBlockReference
   2
_OPEN
  10
 3142.7089116869
  20
 2753.7399478831
  30
0.0
  41
 30.000000000000
  42
 30.000000000000
  43
 30.000000000000
  50
0.0
   0
MTEXT
   5
D7
 100
AcDbEntity
   8
LEVEL001
 370
13
  62
1
 100
AcDbMText
  10
 2942.7089116869
  20
 2782.0256621688
  30
0.0
  40
 66.000000000000
  41
0.0
  71
8
  72
1
   1
\A1;400
   7
GMM004
   0
ENDBLK
   5
D8
 100
AcDbEntity
   8
0
 100
AcDbBlockEnd
   0
BLOCK
   5
D9
 100
AcDbEntity
   8
0
 100
AcDbBlockBegin
   2
*D14
  70
65
  10
0.0
  20
0.0
  30
0.0
   3
*D14
   0
LINE
   5
DA
 100
AcDbEntity
   8
LEVEL001
 370
13
 100
AcDbLine
   6
CONTINUOUS
  62
6
  10
 517.70891168694
  20
 4378.7399478831
  30
0.0
  11
 517.70891168694
  21
 4378.7399478831
  31
0.0
   0
LINE
   5
DB
 100
AcDbEntity
   8
LEVEL001
 370
13
 100
AcDbLine
   6
CONTINUOUS
  62
6
  10
 1317.7089116869
  20
 4378.7399478831
  30
0.0
  11
 1317.7089116869
  21
 4378.7399478831
  31
0.0
   0
LINE
   5
DC
 100
AcDbEntity
   8
LEVEL001
 370
13
 100
AcDbLine
   6
CONTINUOUS
  62
6
  10
 517.70891168694
  20
 4378.7399478831
  30
0.0
  11
 1317.7089116869
  21
 4378.7399478831
  31
0.0
   0
INSERT
   5
DD
 100
AcDbEntity
   8
LEVEL001
   6
CONTINUOUS
  62
6
 100
AcDbBlockReference
   2
_OPEN
  10
 517.70891168694
  20
 4378.7399478831
  30
0.0
  41
 30.000000000000
  42
 30.000000000000
  43
 30.000000000000
  50
 180.00000000000
   0
INSERT
   5
DE
 100
AcDbEntity
   8
LEVEL001
   6
CONTINUOUS
  62
6
 100
AcDbBlockReference
   2
_OPEN
  10
 1317.7089116869
  20
 4378.7399478831
  30
0.0
  41
 30.000000000000
  42
 30.000000000000
  43
 30.000000000000
  50
0.0
   0
MTEXT
   5
DF
 100
AcDbEntity
   8
LEVEL001
 370
13
  62
1
 100
AcDbMText
  10
 767.70891168694
  20
 4407.0256621688
  30
0.0
  40
 66.000000000000
  41
0.0
  71
8
  72
1
   1
\A1;800
   7
GMM004
   0
ENDBLK
   5
E0
 100
AcDbEntity
   8
0
 100
AcDbBlockEnd
   0
BLOCK
   5
E1
 100
AcDbEntity
   8
0
 100
AcDbBlockBegin
   2
*D15
  70
65
  10
0.0
  20
0.0
  30
0.0
   3
*D15
   0
LINE
   5
E2
 100
AcDbEntity
   8
LEVEL001
 370
13
 100
AcDbLine
   6
CONTINUOUS
  62
6
  10
 1205.2089116869
  20
 4253.7399478831
  30
0.0
  11
 1205.2089116869
  21
 4253.7399478831
  31
0.0
   0
LINE
   5
E3
 100
AcDbEntity
   8
LEVEL001
 370
13
 100
AcDbLine
   6
CONTINUOUS
  62
6
  10
 1205.2089116869
  20
 4853.7399478831
  30
0.0
  11
 1205.2089116869
  21
 4853.7399478831
  31
0.0
   0
LINE
   5
E4
 100
AcDbEntity
   8
LEVEL001
 370
13
 100
AcDbLine
   6
CONTINUOUS
  62
6
  10
 1205.2089116869
  20
 4253.7399478831
  30
0.0
  11
 1205.2089116869
  21
 4853.7399478831
  31
0.0
   0
INSERT
   5
E5
 100
AcDbEntity
   8
LEVEL001
   6
CONTINUOUS
  62
6
 100
AcDbBlockReference
   2
_OPEN
  10
 1205.2089116869
  20
 4253.7399478831
  30
0.0
  41
 30.000000000000
  42
 30.000000000000
  43
 30.000000000000
  50
 270.00000000000
   0
INSERT
   5
E6
 100
AcDbEntity
   8
LEVEL001
   6
CONTINUOUS
  62
6
 100
AcDbBlockReference
   2
_OPEN
  10
 1205.2089116869
  20
 4853.7399478831
  30
0.0
  41
 30.000000000000
  42
 30.000000000000
  43
 30.000000000000
  50
 90.000000000000
   0
MTEXT
   5
E7
 100
AcDbEntity
   8
LEVEL001
 370
13
  62
1
 100
AcDbMText
  10
 1176.9231974012
  20
 4691.2399478831
  30
0.0
  40
 66.000000000000
  41
0.0
  71
8
  72
1
   1
\A1;600
   7
GMM004
  11
0.0
  21
 1.0000000000000
  31
0.0
   0
ENDBLK
   5
E8
 100
AcDbEntity
   8
0
 100
AcDbBlockEnd
   0
BLOCK
   5
E9
 100
AcDbEntity
   8
0
 100
AcDbBlockBegin
   2
*D19
  70
65
  10
0.0
  20
0.0
  30
0.0
   3
*D19
   0
LINE
   5
EA
 100
AcDbEntity
   8
LEVEL001
 370
13
 100
AcDbLine
   6
CONTINUOUS
  62
6
  10
 1142.7089116869
  20
 423.73994788310
  30
0.0
  11
 1142.7089116869
  21
 223.73994788310
  31
0.0
   0
LINE
   5
EB
 100
AcDbEntity
   8
LEVEL001
 370
13
 100
AcDbLine
   6
CONTINUOUS
  62
6
  10
 1642.7089116869
  20
 423.73994788310
  30
0.0
  11
 1642.7089116869
  21
 223.73994788310
  31
0.0
   0
LINE
   5
EC
 100
AcDbEntity
   8
LEVEL001
 370
13
 100
AcDbLine
   6
CONTINUOUS
  62
6
  10
 1142.7089116869
  20
 253.73994788310
  30
0.0
  11
 1642.7089116869
  21
 253.73994788310
  31
0.0
   0
INSERT
   5
ED
 100
AcDbEntity
   8
LEVEL001
   6
CONTINUOUS
  62
6
 100
AcDbBlockReference
   2
_OPEN
  10
 1142.7089116869
  20
 253.73994788310
  30
0.0
  41
 30.000000000000
  42
 30.000000000000
  43
 30.000000000000
  50
 180.00000000000
   0
INSERT
   5
EE
 100
AcDbEntity
   8
LEVEL001
   6
CONTINUOUS
  62
6
 100
AcDbBlockReference
   2
_OPEN
  10
 1642.7089116869
  20
 253.73994788310
  30
0.0
  41
 30.000000000000
  42
 30.000000000000
  43
 30.000000000000
  50
0.0
   0
MTEXT
   5
EF
 100
AcDbEntity
   8
LEVEL001
 370
13
  62
1
 100
AcDbMText
  10
 1392.7089116869
  20
 282.02566216881
  30
0.0
  40
 66.000000000000
  41
0.0
  71
8
  72
1
   1
\A1;□500
   7
GMM004
   0
ENDBLK
   5
F0
 100
AcDbEntity
   8
0
 100
AcDbBlockEnd
   0
BLOCK
   5
F1
 100
AcDbEntity
   8
0
 100
AcDbBlockBegin
   2
*D21
  70
65
  10
0.0
  20
0.0
  30
0.0
   3
*D21
   0
LINE
   5
F2
 100
AcDbEntity
   8
LEVEL001
 370
13
 100
AcDbLine
   6
CONTINUOUS
  62
6
  10
 2492.7089116869
  20
 423.73994788310
  30
0.0
  11
 2492.7089116869
  21
 223.73994788310
  31
0.0
   0
LINE
   5
F3
 100
AcDbEntity
   8
LEVEL001
 370
13
 100
AcDbLine
   6
CONTINUOUS
  62
6
  10
 2992.7089116869
  20
 423.73994788310
  30
0.0
  11
 2992.7089116869
  21
 223.73994788310
  31
0.0
   0
LINE
   5
F4
 100
AcDbEntity
   8
LEVEL001
 370
13
 100
AcDbLine
   6
CONTINUOUS
  62
6
  10
 2492.7089116869
  20
 253.73994788310
  30
0.0
  11
 2992.7089116869
  21
 253.73994788310
  31
0.0
   0
INSERT
   5
F5
 100
AcDbEntity
   8
LEVEL001
   6
CONTINUOUS
  62
6
 100
AcDbBlockReference
   2
_OPEN
  10
 2492.7089116869
  20
 253.73994788310
  30
0.0
  41
 30.000000000000
  42
 30.000000000000
  43
 30.000000000000
  50
 180.00000000000
   0
INSERT
   5
F6
 100
AcDbEntity
   8
LEVEL001
   6
CONTINUOUS
  62
6
 100
AcDbBlockReference
   2
_OPEN
  10
 2992.7089116869
  20
 253.73994788310
  30
0.0
  41
 30.000000000000
  42
 30.000000000000
  43
 30.000000000000
  50
0.0
   0
MTEXT
   5
F7
 100
AcDbEntity
   8
LEVEL001
 370
13
  62
1
 100
AcDbMText
  10
 2742.7089116869
  20
 282.02566216881
  30
0.0
  40
 66.000000000000
  41
0.0
  71
8
  72
1
   1
\A1;□500
   7
GMM004
   0
ENDBLK
   5
F8
 100
AcDbEntity
   8
0
 100
AcDbBlockEnd
   0
ENDSEC
   0
SECTION
   2
ENTITIES
   0
LINE
   5
F9
 100
AcDbEntity
   8
LEVEL001
 370
13
 100
AcDbLine
   6
CONTINUOUS
  62
6
  10
 5603.6180025960
  20
 853.73994788310
  30
0.0
  11
 8119.3757818041
  21
 853.73994788310
  31
0.0
   0
MTEXT
   5
FB
 100
AcDbEntity
   8
LEVEL001
 370
13
  62
1
 100
AcDbMText
  10
 5774.5969763501
  20
 1397.3135555790
  30
0.0
  40
 80.000000000000
  41
0.0
  71
9
  72
1
   1
\T1.000000;１３
   7
GMM001
  44
 0.79999984000003
   0
LINE
   5
FC
 100
AcDbEntity
   8
LEVEL001
 370
13
 100
AcDbLine
   6
CONTINUOUS
  62
6
  10
 5603.6180025960
  20
 1113.7399478831
  30
0.0
  11
 8119.3757818041
  21
 1113.7399478831
  31
0.0
   0
LINE
   5
FD
 100
AcDbEntity
   8
LEVEL001
 370
13
 100
AcDbLine
   6
CONTINUOUS
  62
6
  10
 5603.6180025960
  20
 1243.7399478831
  30
0.0
  11
 8119.3757818041
  21
 1243.7399478831
  31
0.0
   0
LINE
   5
FE
 100
AcDbEntity
   8
LEVEL001
 370
13
 100
AcDbLine
   6
CONTINUOUS
  62
6
  10
 5603.6180025960
  20
 1373.7399478831
  30
0.0
  11
 8119.3757818041
  21
 1373.7399478831
  31
0.0
   0
LINE
   5
FF
 100
AcDbEntity
   8
LEVEL001
 370
13
 100
AcDbLine
   6
CONTINUOUS
  62
6
  10
 5603.6180025960
  20
 1503.7399478831
  30
0.0
  11
 8119.3757818041
  21
 1503.7399478831
  31
0.0
   0
MTEXT
   5
101
 100
AcDbEntity
   8
LEVEL001
 370
13
  62
1
 100
AcDbMText
  10
 5774.5969763501
  20
 1267.3135555790
  30
0.0
  40
 80.000000000000
  41
0.0
  71
9
  72
1
   1
\T1.000000;１４
   7
GMM001
  44
 0.79999984000003
   0
MTEXT
   5
103
 100
AcDbEntity
   8
LEVEL001
 370
13
  62
1
 100
AcDbMText
  10
 5774.5969763501
  20
 1137.3135555790
  30
0.0
  40
 80.000000000000
  41
0.0
  71
9
  72
1
   1
\T1.000000;１５
   7
GMM001
  44
 0.79999984000003
   0
LINE
   5
104
 100
AcDbEntity
   8
LEVEL001
 370
13
 100
AcDbLine
   6
CONTINUOUS
  62
6
  10
 5603.6180025960
  20
 983.73994788310
  30
0.0
  11
 8119.3757818041
  21
 983.73994788310
  31
0.0
   0
MTEXT
   5
106
 100
AcDbEntity
   8
LEVEL001
 370
13
  62
1
 100
AcDbMText
  10
 5853.6180025960
  20
 877.31355557899
  30
0.0
  40
 80.000000000000
  41
0.0
  71
7
  72
1
   1
\T1.000000;同上ボルトナット
   7
GMM002
  44
 0.79999984000003
   0
MTEXT
   5
108
 100
AcDbEntity
   8
LEVEL001
 370
13
  62
1
 100
AcDbMText
  10
 5853.6180025960
  20
 1007.3135555790
  30
0.0
  40
 80.000000000000
  41
0.0
  71
7
  72
1
   1
\T1.000000;注意板取付バンド
   7
GMM002
  44
 0.79999984000003
   0
MTEXT
   5
10A
 100
AcDbEntity
   8
LEVEL001
 370
13
  62
1
 100
AcDbMText
  10
 6824.5969763501
  20
 1137.3135555790
  30
0.0
  40
 80.000000000000
  41
0.0
  71
9
  72
1
   1
\T1.000000;１
   7
GMM002
  44
 0.79999984000003
   0
MTEXT
   5
10C
 100
AcDbEntity
   8
LEVEL001
 370
13
  62
1
 100
AcDbMText
  10
 5853.6180025960
  20
 1267.3135555790
  30
0.0
  40
 80.000000000000
  41
0.0
  71
7
  72
1
   1
\T1.000000;キャップ
   7
GMM002
  44
 0.79999984000003
   0
MTEXT
   5
10E
 100
AcDbEntity
   8
LEVEL001
 370
13
  62
1
 100
AcDbMText
  10
 6824.5969763501
  20
 1267.3135555790
  30
0.0
  40
 80.000000000000
  41
0.0
  71
9
  72
1
   1
\T1.000000;１
   7
GMM002
  44
 0.79999984000003
   0
MTEXT
   5
110
 100
AcDbEntity
   8
LEVEL001
 370
13
  62
1
 100
AcDbMText
  10
 6903.6180025960
  20
 1267.3135555790
  30
0.0
  40
 80.000000000000
  41
0.0
  71
7
  72
1
   1
\T1.000000;ＰＥ
   7
GMM002
  44
 0.79999984000003
   0
MTEXT
   5
112
 100
AcDbEntity
   8
LEVEL001
 370
13
  62
1
 100
AcDbMText
  10
 5853.6180025960
  20
 1397.3135555790
  30
0.0
  40
 80.000000000000
  41
0.0
  71
7
  72
1
   1
\T1.000000;根入れ鉄筋
   7
GMM002
  44
 0.79999984000003
   0
MTEXT
   5
114
 100
AcDbEntity
   8
LEVEL001
 370
13
  62
1
 100
AcDbMText
  10
 6824.5969763501
  20
 1397.3135555790
  30
0.0
  40
 80.000000000000
  41
0.0
  71
9
  72
1
   1
\T1.000000;２
   7
GMM002
  44
 0.79999984000003
   0
MTEXT
   5
116
 100
AcDbEntity
   8
LEVEL001
 370
13
  62
1
 100
AcDbMText
  10
 5774.5969763501
  20
 1007.3135555790
  30
0.0
  40
 80.000000000000
  41
0.0
  71
9
  72
1
   1
\T1.000000;１６
   7
GMM001
  44
 0.79999984000003
   0
MTEXT
   5
118
 100
AcDbEntity
   8
LEVEL001
 370
13
  62
1
 100
AcDbMText
  10
 5774.5969763501
  20
 877.31355557899
  30
0.0
  40
 80.000000000000
  41
0.0
  71
9
  72
1
   1
\T1.000000;１７
   7
GMM001
  44
 0.79999984000003
   0
MTEXT
   5
11A
 100
AcDbEntity
   8
LEVEL001
 370
13
  62
1
 100
AcDbMText
  10
 6903.6180025960
  20
 1397.3135555790
  30
0.0
  40
 80.000000000000
  41
0.0
  71
7
  72
1
   1
\T1.000000;ＳＤ２９５Ａ
   7
GMM002
  44
 0.79999984000003
   0
MTEXT
   5
11C
 100
AcDbEntity
   8
LEVEL001
 370
13
  62
1
 100
AcDbMText
  10
 1392.7089116869
  20
 5503.7399478831
  30
0.0
  40
 80.000000000000
  41
0.0
  71
5
  72
1
   1
\T1.000000;正　面　図
   7
GMM003
  44
 0.79999984000003
   0
MTEXT
   5
11E
 100
AcDbEntity
   8
LEVEL001
 370
13
  62
1
 100
AcDbMText
  10
 3142.7089116869
  20
 5503.7399478831
  30
0.0
  40
 80.000000000000
  41
0.0
  71
5
  72
1
   1
\T1.000000;側　面　図
   7
GMM003
  44
 0.79999984000003
   0
MTEXT
   5
120
 100
AcDbEntity
   8
LEVEL001
 370
13
  62
1
 100
AcDbMText
  10
 4392.7089116869
  20
 5503.7399478831
  30
0.0
  40
 80.000000000000
  41
0.0
  71
5
  72
1
   1
\T1.000000;背　面　図
   7
GMM003
  44
 0.79999984000003
   0
LWPOLYLINE
   5
121
 100
AcDbEntity
   8
LEVEL001
 370
13
   6
CONTINUOUS
  62
7
 100
AcDbPolyline
  90
4
  70
1
  10
 1448.7089202068
  20
 4611.7399063548
  10
 1462.7089202068
  20
 4611.7399063548
  10
 1462.7089202068
  20
 4625.7399063548
  10
 1448.7089202068
  20
 4625.7399063548
   0
LWPOLYLINE
   5
122
 100
AcDbEntity
   8
LEVEL001
 370
13
   6
CONTINUOUS
  62
7
 100
AcDbPolyline
  90
4
  70
1
  10
 1336.7089031671
  20
 4441.7399063548
  10
 1322.7089031671
  20
 4441.7399063548
  10
 1322.7089031671
  20
 4455.7399063548
  10
 1336.7089031671
  20
 4455.7399063548
   0
LWPOLYLINE
   5
123
 100
AcDbEntity
   8
LEVEL001
 370
13
   6
CONTINUOUS
  62
7
 100
AcDbPolyline
  90
4
  70
1
  10
 1448.7089202068
  20
 4565.7399063548
  10
 1462.7089202068
  20
 4565.7399063548
  10
 1462.7089202068
  20
 4551.7399063548
  10
 1448.7089202068
  20
 4551.7399063548
   0
ARC
   5
124
 100
AcDbEntity
   8
LEVEL001
 370
13
   6
CONTINUOUS
  62
1
 100
AcDbCircle
  10
 1330.2089116869
  20
 4708.7399478831
  30
0.0
  40
 7.5000000000000
 100
AcDbArc
  50
 270.00000000000
  51
 90.000000000000
   0
ARC
   5
125
 100
AcDbEntity
   8
LEVEL001
 370
13
   6
CONTINUOUS
  62
7
 100
AcDbCircle
  10
 1312.7089116869
  20
 4848.7399478831
  30
0.0
  40
 5.0000000000000
 100
AcDbArc
  50
0.0
  51
 90.000000000000
   0
ARC
   5
126
 100
AcDbEntity
   8
LEVEL001
 370
13
   6
CONTINUOUS
  62
2
 100
AcDbCircle
  10
 1287.7089116869
  20
 4823.7399478831
  30
0.0
  40
 5.0000000000000
 100
AcDbArc
  50
0.0
  51
 90.000000000000
   0
LINE
   5
127
 100
AcDbEntity
   8
LEVEL001
 370
13
 100
AcDbLine
   6
CONTINUOUS
  62
2
  10
 1292.7089116869
  20
 4283.7399478831
  30
0.0
  11
 1292.7089116869
  21
 4823.7399478831
  31
0.0
   0
LINE
   5
128
 100
AcDbEntity
   8
LEVEL001
 370
13
 100
AcDbLine
   6
CONTINUOUS
  62
7
  10
 1317.7089116869
  20
 4258.7399478831
  30
0.0
  11
 1317.7089116869
  21
 4848.7399478831
  31
0.0
   0
LINE
   5
129
 100
AcDbEntity
   8
LEVEL001
 370
13
 100
AcDbLine
   6
CONTINUOUS
  62
2
  10
 1287.7089116869
  20
 4828.7399478831
  30
0.0
  11
 547.70891168694
  21
 4828.7399478831
  31
0.0
   0
LINE
   5
12A
 100
AcDbEntity
   8
LEVEL001
 370
13
 100
AcDbLine
   6
CONTINUOUS
  62
7
  10
 1312.7089116869
  20
 4853.7399478831
  30
0.0
  11
 522.70891168694
  21
 4853.7399478831
  31
0.0
   0
ARC
   5
12B
 100
AcDbEntity
   8
LEVEL001
 370
13
   6
CONTINUOUS
  62
7
 100
AcDbCircle
  10
 1315.2089116869
  20
 4848.7399478831
  30
0.0
  40
 15.000000000000
 100
AcDbArc
  50
0.0
  51
 90.000000000000
   0
LINE
   5
12C
 100
AcDbEntity
   8
LEVEL001
 370
13
 100
AcDbLine
   6
CONTINUOUS
  62
7
  10
 520.20891168694
  20
 4863.7399478831
  30
0.0
  11
 1315.2089116869
  21
 4863.7399478831
  31
0.0
   0
ARC
   5
12D
 100
AcDbEntity
   8
LEVEL001
 370
13
   6
CONTINUOUS
  62
1
 100
AcDbCircle
  10
 505.20891168694
  20
 4708.7399478831
  30
0.0
  40
 7.5000000000000
 100
AcDbArc
  50
 90.000000000000
  51
 270.00000000000
   0
LINE
   5
12E
 100
AcDbEntity
   8
LEVEL001
 370
13
 100
AcDbLine
   6
CONTINUOUS
  62
2
  10
 542.70891168694
  20
 4823.7399478831
  30
0.0
  11
 542.70891168694
  21
 4283.7399478831
  31
0.0
   0
ARC
   5
12F
 100
AcDbEntity
   8
LEVEL001
 370
13
   6
CONTINUOUS
  62
2
 100
AcDbCircle
  10
 547.70891168694
  20
 4823.7399478831
  30
0.0
  40
 5.0000000000000
 100
AcDbArc
  50
 90.000000000000
  51
 180.00000000000
   0
LINE
   5
130
 100
AcDbEntity
   8
LEVEL001
 370
13
 100
AcDbLine
   6
CONTINUOUS
  62
7
  10
 517.70891168694
  20
 4848.7399478831
  30
0.0
  11
 517.70891168694
  21
 4258.7399478831
  31
0.0
   0
ARC
   5
131
 100
AcDbEntity
   8
LEVEL001
 370
13
   6
CONTINUOUS
  62
7
 100
AcDbCircle
  10
 522.70891168694
  20
 4848.7399478831
  30
0.0
  40
 5.0000000000000
 100
AcDbArc
  50
 90.000000000000
  51
 180.00000000000
   0
ARC
   5
132
 100
AcDbEntity
   8
LEVEL001
 370
13
   6
CONTINUOUS
  62
7
 100
AcDbCircle
  10
 520.20891168694
  20
 4848.7399478831
  30
0.0
  40
 15.000000000000
 100
AcDbArc
  50
 90.000000000000
  51
 180.00000000000
   0
ARC
   5
133
 100
AcDbEntity
   8
LEVEL001
 370
13
   6
CONTINUOUS
  62
1
 100
AcDbCircle
  10
 517.70891168694
  20
 4383.7399478831
  30
0.0
  40
 7.5000000000000
 100
AcDbArc
  50
 90.000000000000
  51
 270.00000000000
   0
LINE
   5
134
 100
AcDbEntity
   8
LEVEL001
 370
13
 100
AcDbLine
   6
CONTINUOUS
  62
2
  10
 547.70891168694
  20
 4278.7399478831
  30
0.0
  11
 1287.7089116869
  21
 4278.7399478831
  31
0.0
   0
ARC
   5
135
 100
AcDbEntity
   8
LEVEL001
 370
13
   6
CONTINUOUS
  62
2
 100
AcDbCircle
  10
 547.70891168694
  20
 4283.7399478831
  30
0.0
  40
 5.0000000000000
 100
AcDbArc
  50
 180.00000000000
  51
 270.00000000000
   0
ARC
   5
136
 100
AcDbEntity
   8
LEVEL001
 370
13
   6
CONTINUOUS
  62
1
 100
AcDbCircle
  10
 655.20891168694
  20
 4253.7399478831
  30
0.0
  40
 7.5000000000000
 100
AcDbArc
  50
 180.00000000000
  51
0.0
   0
LINE
   5
137
 100
AcDbEntity
   8
LEVEL001
 370
13
 100
AcDbLine
   6
CONTINUOUS
  62
7
  10
 522.70891168694
  20
 4253.7399478831
  30
0.0
  11
 1312.7089116869
  21
 4253.7399478831
  31
0.0
   0
ARC
   5
138
 100
AcDbEntity
   8
LEVEL001
 370
13
   6
CONTINUOUS
  62
7
 100
AcDbCircle
  10
 522.70891168694
  20
 4258.7399478831
  30
0.0
  40
 5.0000000000000
 100
AcDbArc
  50
 180.00000000000
  51
 270.00000000000
   0
ARC
   5
139
 100
AcDbEntity
   8
LEVEL001
 370
13
   6
CONTINUOUS
  62
1
 100
AcDbCircle
  10
 917.70891168694
  20
 4253.7399478831
  30
0.0
  40
 7.5000000000000
 100
AcDbArc
  50
 180.00000000000
  51
0.0
   0
ARC
   5
13A
 100
AcDbEntity
   8
LEVEL001
 370
13
   6
CONTINUOUS
  62
1
 100
AcDbCircle
  10
 1180.2089116869
  20
 4253.7399478831
  30
0.0
  40
 7.5000000000000
 100
AcDbArc
  50
 180.00000000000
  51
0.0
   0
ARC
   5
13B
 100
AcDbEntity
   8
LEVEL001
 370
13
   6
CONTINUOUS
  62
7
 100
AcDbCircle
  10
 1312.7089116869
  20
 4258.7399478831
  30
0.0
  40
 5.0000000000000
 100
AcDbArc
  50
 270.00000000000
  51
0.0
   0
ARC
   5
13C
 100
AcDbEntity
   8
LEVEL001
 370
13
   6
CONTINUOUS
  62
1
 100
AcDbCircle
  10
 1317.7089116869
  20
 4383.7399478831
  30
0.0
  40
 7.5000000000000
 100
AcDbArc
  50
 270.00000000000
  51
 90.000000000000
   0
ARC
   5
13D
 100
AcDbEntity
   8
LEVEL001
 370
13
   6
CONTINUOUS
  62
1
 100
AcDbCircle
  10
 1317.7089116869
  20
 4383.7399478831
  30
0.0
  40
 7.5000000000000
 100
AcDbArc
  50
 270.00000000000
  51
 90.000000000000
   0
ARC
   5
13E
 100
AcDbEntity
   8
LEVEL001
 370
13
   6
CONTINUOUS
  62
2
 100
AcDbCircle
  10
 1287.7089116869
  20
 4283.7399478831
  30
0.0
  40
 5.0000000000000
 100
AcDbArc
  50
 270.00000000000
  51
0.0
   0
LINE
   5
13F
 100
AcDbEntity
   8
LEVEL001
 370
13
 100
AcDbLine
   6
DASHDOT
  62
6
  10
 1367.7089116869
  20
 4553.7399478831
  30
0.0
  11
 467.70891168694
  21
 4553.7399478831
  31
0.0
   0
LWPOLYLINE
   5
140
 100
AcDbEntity
   8
LEVEL001
 370
13
   6
CONTINUOUS
  62
7
 100
AcDbPolyline
  90
4
  70
1
  10
 1336.7089031671
  20
 4515.7399063548
  10
 1322.7089031671
  20
 4515.7399063548
  10
 1322.7089031671
  20
 4501.7399063548
  10
 1336.7089031671
  20
 4501.7399063548
   0
LWPOLYLINE
   5
141
 100
AcDbEntity
   8
LEVEL001
 370
13
   6
CONTINUOUS
  62
7
 100
AcDbPolyline
  90
3
  70
0
  10
 1440.4589116869
  20
 4438.7399063548
  10
 1440.4589116869
  20
 4423.7399063548
  10
 1317.7089116869
  20
 4423.7399063548
   0
LWPOLYLINE
   5
142
 100
AcDbEntity
   8
LEVEL001
 370
13
   6
CONTINUOUS
  62
7
 100
AcDbPolyline
  90
3
  70
0
  10
 1317.7089116869
  20
 4533.7399063548
  10
 1440.4589116869
  20
 4533.7399063548
  10
 1440.4589116869
  20
 4498.7399063548
   0
LWPOLYLINE
   5
143
 100
AcDbEntity
   8
LEVEL001
 370
13
   6
CONTINUOUS
  62
7
 100
AcDbPolyline
  90
4
  70
0
  10
 1317.7089116869
  20
 4608.6999549171
  10
 1346.6787856823
  20
 4623.4608429864
  10
 1346.6787856823
  20
 4556.1212687284
  10
 1317.7089116869
  20
 4541.3603806591
   0
ARC
   5
144
 100
AcDbEntity
   8
LEVEL001
 370
13
   6
CONTINUOUS
  62
1
 100
AcDbCircle
  10
 1455.2089116869
  20
 4708.7399478831
  30
0.0
  40
 7.5000000000000
 100
AcDbArc
  50
 90.000000000000
  51
 270.00000000000
   0
ARC
   5
145
 100
AcDbEntity
   8
LEVEL001
 370
13
   6
CONTINUOUS
  62
7
 100
AcDbCircle
  10
 1472.7089116869
  20
 4848.7399478831
  30
0.0
  40
 5.0000000000000
 100
AcDbArc
  50
 90.000000000000
  51
 180.00000000000
   0
ARC
   5
146
 100
AcDbEntity
   8
LEVEL001
 370
13
   6
CONTINUOUS
  62
2
 100
AcDbCircle
  10
 1497.7089116869
  20
 4823.7399478831
  30
0.0
  40
 5.0000000000000
 100
AcDbArc
  50
 90.000000000000
  51
 180.00000000000
   0
LINE
   5
147
 100
AcDbEntity
   8
LEVEL001
 370
13
 100
AcDbLine
   6
CONTINUOUS
  62
2
  10
 1492.7089116869
  20
 4283.7399478831
  30
0.0
  11
 1492.7089116869
  21
 4823.7399478831
  31
0.0
   0
LINE
   5
148
 100
AcDbEntity
   8
LEVEL001
 370
13
 100
AcDbLine
   6
CONTINUOUS
  62
7
  10
 1467.7089116869
  20
 4258.7399478831
  30
0.0
  11
 1467.7089116869
  21
 4848.7399478831
  31
0.0
   0
LINE
   5
149
 100
AcDbEntity
   8
LEVEL001
 370
13
 100
AcDbLine
   6
CONTINUOUS
  62
2
  10
 1497.7089116869
  20
 4828.7399478831
  30
0.0
  11
 2237.7089116869
  21
 4828.7399478831
  31
0.0
   0
LINE
   5
14A
 100
AcDbEntity
   8
LEVEL001
 370
13
 100
AcDbLine
   6
CONTINUOUS
  62
7
  10
 1472.7089116869
  20
 4853.7399478831
  30
0.0
  11
 2262.7089116869
  21
 4853.7399478831
  31
0.0
   0
ARC
   5
14B
 100
AcDbEntity
   8
LEVEL001
 370
13
   6
CONTINUOUS
  62
7
 100
AcDbCircle
  10
 1470.2089116869
  20
 4848.7399478831
  30
0.0
  40
 15.000000000000
 100
AcDbArc
  50
 90.000000000000
  51
 180.00000000000
   0
LINE
   5
14C
 100
AcDbEntity
   8
LEVEL001
 370
13
 100
AcDbLine
   6
CONTINUOUS
  62
7
  10
 2265.2089116869
  20
 4863.7399478831
  30
0.0
  11
 1470.2089116869
  21
 4863.7399478831
  31
0.0
   0
ARC
   5
14D
 100
AcDbEntity
   8
LEVEL001
 370
13
   6
CONTINUOUS
  62
1
 100
AcDbCircle
  10
 2280.2089116869
  20
 4708.7399478831
  30
0.0
  40
 7.5000000000000
 100
AcDbArc
  50
 270.00000000000
  51
 90.000000000000
   0
LINE
   5
14E
 100
AcDbEntity
   8
LEVEL001
 370
13
 100
AcDbLine
   6
CONTINUOUS
  62
2
  10
 2242.7089116869
  20
 4823.7399478831
  30
0.0
  11
 2242.7089116869
  21
 4283.7399478831
  31
0.0
   0
ARC
   5
14F
 100
AcDbEntity
   8
LEVEL001
 370
13
   6
CONTINUOUS
  62
2
 100
AcDbCircle
  10
 2237.7089116869
  20
 4823.7399478831
  30
0.0
  40
 5.0000000000000
 100
AcDbArc
  50
0.0
  51
 90.000000000000
   0
LINE
   5
150
 100
AcDbEntity
   8
LEVEL001
 370
13
 100
AcDbLine
   6
CONTINUOUS
  62
7
  10
 2267.7089116869
  20
 4848.7399478831
  30
0.0
  11
 2267.7089116869
  21
 4258.7399478831
  31
0.0
   0
ARC
   5
151
 100
AcDbEntity
   8
LEVEL001
 370
13
   6
CONTINUOUS
  62
7
 100
AcDbCircle
  10
 2262.7089116869
  20
 4848.7399478831
  30
0.0
  40
 5.0000000000000
 100
AcDbArc
  50
0.0
  51
 90.000000000000
   0
ARC
   5
152
 100
AcDbEntity
   8
LEVEL001
 370
13
   6
CONTINUOUS
  62
7
 100
AcDbCircle
  10
 2265.2089116869
  20
 4848.7399478831
  30
0.0
  40
 15.000000000000
 100
AcDbArc
  50
0.0
  51
 90.000000000000
   0
ARC
   5
153
 100
AcDbEntity
   8
LEVEL001
 370
13
   6
CONTINUOUS
  62
1
 100
AcDbCircle
  10
 2267.7089116869
  20
 4383.7399478831
  30
0.0
  40
 7.5000000000000
 100
AcDbArc
  50
 270.00000000000
  51
 90.000000000000
   0
LINE
   5
154
 100
AcDbEntity
   8
LEVEL001
 370
13
 100
AcDbLine
   6
CONTINUOUS
  62
2
  10
 2237.7089116869
  20
 4278.7399478831
  30
0.0
  11
 1497.7089116869
  21
 4278.7399478831
  31
0.0
   0
ARC
   5
155
 100
AcDbEntity
   8
LEVEL001
 370
13
   6
CONTINUOUS
  62
2
 100
AcDbCircle
  10
 2237.7089116869
  20
 4283.7399478831
  30
0.0
  40
 5.0000000000000
 100
AcDbArc
  50
 270.00000000000
  51
0.0
   0
ARC
   5
156
 100
AcDbEntity
   8
LEVEL001
 370
13
   6
CONTINUOUS
  62
1
 100
AcDbCircle
  10
 2130.2089116869
  20
 4253.7399478831
  30
0.0
  40
 7.5000000000000
 100
AcDbArc
  50
 180.00000000000
  51
0.0
   0
LINE
   5
157
 100
AcDbEntity
   8
LEVEL001
 370
13
 100
AcDbLine
   6
CONTINUOUS
  62
7
  10
 2262.7089116869
  20
 4253.7399478831
  30
0.0
  11
 1472.7089116869
  21
 4253.7399478831
  31
0.0
   0
ARC
   5
158
 100
AcDbEntity
   8
LEVEL001
 370
13
   6
CONTINUOUS
  62
7
 100
AcDbCircle
  10
 2262.7089116869
  20
 4258.7399478831
  30
0.0
  40
 5.0000000000000
 100
AcDbArc
  50
 270.00000000000
  51
0.0
   0
ARC
   5
159
 100
AcDbEntity
   8
LEVEL001
 370
13
   6
CONTINUOUS
  62
1
 100
AcDbCircle
  10
 1867.7089116869
  20
 4253.7399478831
  30
0.0
  40
 7.5000000000000
 100
AcDbArc
  50
 180.00000000000
  51
0.0
   0
ARC
   5
15A
 100
AcDbEntity
   8
LEVEL001
 370
13
   6
CONTINUOUS
  62
1
 100
AcDbCircle
  10
 1605.2089116869
  20
 4253.7399478831
  30
0.0
  40
 7.5000000000000
 100
AcDbArc
  50
 180.00000000000
  51
0.0
   0
ARC
   5
15B
 100
AcDbEntity
   8
LEVEL001
 370
13
   6
CONTINUOUS
  62
7
 100
AcDbCircle
  10
 1472.7089116869
  20
 4258.7399478831
  30
0.0
  40
 5.0000000000000
 100
AcDbArc
  50
 180.00000000000
  51
 270.00000000000
   0
ARC
   5
15C
 100
AcDbEntity
   8
LEVEL001
 370
13
   6
CONTINUOUS
  62
1
 100
AcDbCircle
  10
 1467.7089116869
  20
 4383.7399478831
  30
0.0
  40
 7.5000000000000
 100
AcDbArc
  50
 90.000000000000
  51
 270.00000000000
   0
ARC
   5
15D
 100
AcDbEntity
   8
LEVEL001
 370
13
   6
CONTINUOUS
  62
1
 100
AcDbCircle
  10
 1467.7089116869
  20
 4383.7399478831
  30
0.0
  40
 7.5000000000000
 100
AcDbArc
  50
 90.000000000000
  51
 270.00000000000
   0
ARC
   5
15E
 100
AcDbEntity
   8
LEVEL001
 370
13
   6
CONTINUOUS
  62
2
 100
AcDbCircle
  10
 1497.7089116869
  20
 4283.7399478831
  30
0.0
  40
 5.0000000000000
 100
AcDbArc
  50
 180.00000000000
  51
 270.00000000000
   0
LINE
   5
15F
 100
AcDbEntity
   8
LEVEL001
 370
13
 100
AcDbLine
   6
DASHDOT
  62
6
  10
 1417.7089116869
  20
 4553.7399478831
  30
0.0
  11
 2317.7089116869
  21
 4553.7399478831
  31
0.0
   0
LWPOLYLINE
   5
160
 100
AcDbEntity
   8
LEVEL001
 370
13
   6
CONTINUOUS
  62
7
 100
AcDbPolyline
  90
3
  70
0
  10
 1344.9589116869
  20
 4622.5845234158
  10
 1344.9589116869
  20
 4643.7399063548
  10
 1467.7089116869
  20
 4643.7399063548
   0
LWPOLYLINE
   5
161
 100
AcDbEntity
   8
LEVEL001
 370
13
   6
CONTINUOUS
  62
7
 100
AcDbPolyline
  90
4
  70
0
  10
 1467.7089116869
  20
 4498.7399063548
  10
 1438.7390376915
  20
 4498.7399063548
  10
 1438.7390376915
  20
 4438.7399063548
  10
 1467.7089116869
  20
 4438.7399063548
   0
LWPOLYLINE
   5
162
 100
AcDbEntity
   8
LEVEL001
 370
13
   6
CONTINUOUS
  62
7
 100
AcDbPolyline
  90
3
  70
0
  10
 1467.7089116869
  20
 4533.7399063548
  10
 1344.9589116869
  20
 4533.7399063548
  10
 1344.9589116869
  20
 4555.2449491578
   0
LEADER
   5
163
 100
AcDbEntity
   8
LEVEL001
 370
13
   6
CONTINUOUS
  62
1
 100
AcDbLeader
   3
GMM001
  73
3
  74
1
  75
0
  40
 66.000000000000
  41
0.0
  76
2
  10
 2030.6453014073
  20
 4253.7399478831
  30
0.0
  10
 2123.1630253601
  20
 4093.4945493966
  30
0.0
  77
1
   0
LEADER
   5
164
 100
AcDbEntity
   8
LEVEL001
 370
13
   6
CONTINUOUS
  62
1
 100
AcDbLeader
   3
GMM001
  73
3
  74
1
  75
0
  40
 66.000000000000
  41
0.0
  76
2
  10
 1176.4589116870
  20
 4247.2447573547
  30
0.0
  10
 1087.6911877343
  20
 4093.4945493966
  30
0.0
  77
1
   0
CIRCLE
   5
165
 100
AcDbEntity
   8
LEVEL001
 370
13
 100
AcDbCircle
   6
CONTINUOUS
  62
1
  10
 2158.1630243168
  20
 4032.8727729383
  30
0.0
  40
 69.999997913838
   0
MTEXT
   5
167
 100
AcDbEntity
   8
LEVEL001
 370
13
  62
7
 100
AcDbMText
  10
 2158.1630243168
  20
 4032.8727729383
  30
0.0
  40
 66.000000000000
  41
0.0
  71
5
  72
1
   1
\T1.000000;４
   7
GMM004
  44
 0.79999984000003
   0
CIRCLE
   5
168
 100
AcDbEntity
   8
LEVEL001
 370
13
 100
AcDbCircle
   6
CONTINUOUS
  62
1
  10
 1052.6911887775
  20
 4032.8727729383
  30
0.0
  40
 69.999997913838
   0
MTEXT
   5
16A
 100
AcDbEntity
   8
LEVEL001
 370
13
  62
7
 100
AcDbMText
  10
 1052.6911887775
  20
 4032.8727729383
  30
0.0
  40
 66.000000000000
  41
0.0
  71
5
  72
1
   1
\T1.000000;５
   7
GMM004
  44
 0.79999984000003
   0
LWPOLYLINE
   5
16B
 100
AcDbEntity
   8
LEVEL001
 370
13
   6
CONTINUOUS
  62
7
 100
AcDbPolyline
  90
4
  70
0
  10
 1437.2589116869
  20
 4643.7399063548
  10
 1437.2589116869
  20
 4953.7399476791
  10
 1348.1589116869
  20
 4953.7399476791
  10
 1348.1589116869
  20
 4643.7399063548
   0
LINE
   5
16C
 100
AcDbEntity
   8
LEVEL001
 370
13
 100
AcDbLine
   6
DASHDOT
  62
6
  10
 1867.7089116869
  20
 4948.7399478831
  30
0.0
  11
 1867.7089116869
  21
 4203.7399478831
  31
0.0
   0
CIRCLE
   5
16D
 100
AcDbEntity
   8
LEVEL001
 370
13
 100
AcDbCircle
   6
CONTINUOUS
  62
1
  10
 3401.0411642401
  20
 4150.2194255173
  30
0.0
  40
 69.999997913838
   0
CIRCLE
   5
16E
 100
AcDbEntity
   8
LEVEL001
 370
13
 100
AcDbCircle
   6
CONTINUOUS
  62
1
  10
 3430.7197964287
  20
 5124.0231095146
  30
0.0
  40
 70.000000000000
   0
LEADER
   5
16F
 100
AcDbEntity
   8
LEVEL001
 370
13
   6
CONTINUOUS
  62
1
 100
AcDbLeader
   3
GMM001
  73
3
  74
1
  75
0
  40
 66.000000000000
  41
0.0
  76
2
  10
 3142.7089116869
  20
 4957.7399476791
  30
0.0
  10
 3370.0980181639
  20
 5089.0231095145
  30
0.0
  77
1
   0
CIRCLE
   5
170
 100
AcDbEntity
   8
LEVEL001
 370
13
 100
AcDbCircle
   6
CONTINUOUS
  62
1
  10
 3541.0411621540
  20
 4150.2194255173
  30
0.0
  40
 70.000000000000
   0
ARC
   5
171
 100
AcDbEntity
   8
LEVEL001
 370
13
   6
CONTINUOUS
  62
1
 100
AcDbCircle
  10
 2625.5203670030
  20
 4253.7399477487
  30
0.0
  40
 7.5000000000000
 100
AcDbArc
  50
 180.00000000000
  51
0.0
   0
MTEXT
   5
173
 100
AcDbEntity
   8
LEVEL001
 370
13
  62
7
 100
AcDbMText
  10
 3401.0411642401
  20
 4150.2194255173
  30
0.0
  40
 66.000000000000
  41
0.0
  71
5
  72
1
   1
\T1.000000;１０
   7
GMM004
  44
 0.79999984000003
   0
MTEXT
   5
175
 100
AcDbEntity
   8
LEVEL001
 370
13
  62
7
 100
AcDbMText
  10
 3541.0411621540
  20
 4150.2194255173
  30
0.0
  40
 66.000000000000
  41
0.0
  71
5
  72
1
   1
\T1.000000;１１
   7
GMM004
  44
 0.79999984000003
   0
MTEXT
   5
177
 100
AcDbEntity
   8
LEVEL001
 370
13
  62
7
 100
AcDbMText
  10
 3430.7197964287
  20
 5124.0231095146
  30
0.0
  40
 66.000000000000
  41
0.0
  71
5
  72
1
   1
\T1.000000;１４
   7
GMM004
  44
 0.79999984000003
   0
LINE
   5
178
 100
AcDbEntity
   8
LEVEL001
 370
13
 100
AcDbLine
   6
DASHDOT
  62
6
  10
 2902.9087383445
  20
 4553.7399478831
  30
0.0
  11
 2537.9612394552
  21
 4553.7399478831
  31
0.0
   0
LWPOLYLINE
   5
179
 100
AcDbEntity
   8
LEVEL001
 370
13
   6
CONTINUOUS
  62
7
 100
AcDbPolyline
  90
4
  70
0
  10
 2637.5203670030
  20
 4498.7399478831
  10
 2724.1291281980
  20
 4498.7399478831
  10
 2724.1291281980
  20
 4608.7399478831
  10
 2637.5203670030
  20
 4608.7399478831
   0
LWPOLYLINE
   5
17A
 100
AcDbEntity
   8
LEVEL001
 370
13
   6
CONTINUOUS
  62
7
 100
AcDbPolyline
  90
3
  70
0
  10
 2637.5203670030
  20
 4668.7399478831
  10
 2637.5203670030
  20
 4253.7399478831
  10
 2610.0421440726
  20
 4253.7399478831
   0
ARC
   5
17B
 100
AcDbEntity
   8
LEVEL001
 370
13
   6
CONTINUOUS
  62
7
 100
AcDbCircle
  10
 6197.5203670030
  20
 4553.7399478831
  30
0.0
  40
 3590.0000000000
 100
AcDbArc
  50
 178.16430583834
  51
 184.79353825525
   0
CIRCLE
   5
17C
 100
AcDbEntity
   8
LEVEL001
 370
13
 100
AcDbCircle
   6
CONTINUOUS
  62
1
  10
 2625.5203670030
  20
 4708.7399478831
  30
0.0
  40
 7.5000000000000
   0
CIRCLE
   5
17D
 100
AcDbEntity
   8
LEVEL001
 370
13
 100
AcDbCircle
   6
CONTINUOUS
  62
1
  10
 2625.5203670030
  20
 4383.7399478831
  30
0.0
  40
 7.5000000000000
   0
ARC
   5
17E
 100
AcDbEntity
   8
LEVEL001
 370
13
   6
CONTINUOUS
  62
1
 100
AcDbCircle
  10
 2625.5203670030
  20
 4253.7399478831
  30
0.0
  40
 7.5000000000000
 100
AcDbArc
  50
 180.00000000000
  51
0.0
   0
LINE
   5
17F
 100
AcDbEntity
   8
LEVEL001
 370
13
 100
AcDbLine
   6
CONTINUOUS
  62
1
  10
 2640.9290814104
  20
 4548.7399463225
  30
0.0
  11
 2640.9290855719
  21
 4548.7399478831
  31
0.0
   0
ARC
   5
180
 100
AcDbEntity
   8
LEVEL001
 370
13
   6
CONTINUOUS
  62
1
 100
AcDbCircle
  10
 2636.1302116624
  20
 4553.7399478831
  30
0.0
  40
 4.7988739094943
 100
AcDbArc
  50
 303.26696871548
  51
 56.733031284537
   0
LINE
   5
181
 100
AcDbEntity
   8
LEVEL001
 370
13
 100
AcDbLine
   6
CONTINUOUS
  62
1
  10
 2638.7625901795
  20
 4557.7524002681
  30
0.0
  11
 2637.5205466465
  21
 4557.9952962985
  31
0.0
   0
LINE
   5
182
 100
AcDbEntity
   8
LEVEL001
 370
13
 100
AcDbLine
   6
CONTINUOUS
  62
1
  10
 2638.7625901795
  20
 4549.7274954981
  30
0.0
  11
 2637.5205466465
  21
 4549.4845996377
  31
0.0
   0
LINE
   5
183
 100
AcDbEntity
   8
LEVEL001
 370
13
 100
AcDbLine
   6
CONTINUOUS
  62
1
  10
 2637.5205466465
  20
 4553.7399478831
  30
0.0
  11
 2638.7625901795
  21
 4553.7399478831
  31
0.0
   0
LWPOLYLINE
   5
184
 100
AcDbEntity
   8
LEVEL001
 370
13
   6
CONTINUOUS
  62
7
 100
AcDbPolyline
  90
4
  70
0
  10
 2724.1291281980
  20
 4498.7399478831
  10
 2885.7047496355
  20
 4498.7399478831
  10
 2885.7047496355
  20
 4608.7399478831
  10
 2724.1291281980
  20
 4608.7399478831
   0
LWPOLYLINE
   5
185
 100
AcDbEntity
   8
LEVEL001
 370
13
   6
CONTINUOUS
  62
7
 100
AcDbPolyline
  90
4
  70
1
  10
 2858.7047496355
  20
 4576.7399478831
  10
 2872.7047496355
  20
 4576.7399478831
  10
 2872.7047496355
  20
 4590.7399478831
  10
 2858.7047496355
  20
 4590.7399478831
   0
LINE
   5
186
 100
AcDbEntity
   8
LEVEL001
 370
13
 100
AcDbLine
   6
CONTINUOUS
  62
6
  10
 2846.1327591894
  20
 4603.7399478831
  30
0.0
  11
 2846.1327591894
  21
 4503.7399478831
  31
0.0
   0
LWPOLYLINE
   5
187
 100
AcDbEntity
   8
LEVEL001
 370
13
   6
CONTINUOUS
  62
7
 100
AcDbPolyline
  90
4
  70
1
  10
 2858.7047496355
  20
 4516.7399478831
  10
 2872.7047496355
  20
 4516.7399478831
  10
 2872.7047496355
  20
 4530.7399478831
  10
 2858.7047496355
  20
 4530.7399478831
   0
LINE
   5
188
 100
AcDbEntity
   8
LEVEL001
 370
13
 100
AcDbLine
   6
CONTINUOUS
  62
6
  10
 2772.9213946686
  20
 4503.7399478831
  30
0.0
  11
 2772.9213946686
  21
 4603.7399478831
  31
0.0
   0
LWPOLYLINE
   5
189
 100
AcDbEntity
   8
LEVEL001
 370
13
   6
CONTINUOUS
  62
7
 100
AcDbPolyline
  90
4
  70
1
  10
 3096.6787856823
  20
 4623.4608845147
  10
 3096.6787856823
  20
 4556.1213102567
  10
 2846.6787856823
  20
 4428.7399478831
  10
 2846.6787856823
  20
 4496.0795221411
   0
LINE
   5
18A
 100
AcDbEntity
   8
LEVEL001
 370
13
 100
AcDbLine
   6
DASHDOT
  62
6
  10
 2810.7047325329
  20
 4643.7399478831
  30
0.0
  11
 2810.7047325329
  21
 4403.7399478831
  31
0.0
   0
LWPOLYLINE
   5
18B
 100
AcDbEntity
   8
LEVEL001
 370
13
   6
CONTINUOUS
  62
7
 100
AcDbPolyline
  90
4
  70
0
  10
 2772.5547325329
  20
 4498.7399478831
  10
 2772.5547325329
  20
 4423.7399478831
  10
 2848.8547325329
  20
 4423.7399478831
  10
 2848.8547325329
  20
 4429.8486481802
   0
LINE
   5
18C
 100
AcDbEntity
   8
LEVEL001
 370
13
 100
AcDbLine
   6
CONTINUOUS
  62
7
  10
 2848.8547325329
  20
 4497.1882224382
  30
0.0
  11
 2848.8547325329
  21
 4498.7399478831
  31
0.0
   0
LWPOLYLINE
   5
18D
 100
AcDbEntity
   8
LEVEL001
 370
13
   6
CONTINUOUS
  62
7
 100
AcDbPolyline
  90
4
  70
0
  10
 2848.8547325329
  20
 4608.7399478831
  10
 2848.8547325329
  20
 4623.7399478831
  10
 2772.5547325329
  20
 4623.7399478831
  10
 2772.5547325329
  20
 4608.7399478831
   0
LWPOLYLINE
   5
18E
 100
AcDbEntity
   8
LEVEL001
 370
13
   6
CONTINUOUS
  62
7
 100
AcDbPolyline
  90
4
  70
1
  10
 2692.1291281980
  20
 4576.7399478831
  10
 2706.1291281980
  20
 4576.7399478831
  10
 2706.1291281980
  20
 4590.7399478831
  10
 2692.1291281980
  20
 4590.7399478831
   0
LWPOLYLINE
   5
18F
 100
AcDbEntity
   8
LEVEL001
 370
13
   6
CONTINUOUS
  62
7
 100
AcDbPolyline
  90
4
  70
1
  10
 2692.1291281980
  20
 4516.7399478831
  10
 2706.1291281980
  20
 4516.7399478831
  10
 2706.1291281980
  20
 4530.7399478831
  10
 2692.1291281980
  20
 4530.7399478831
   0
ARC
   5
190
 100
AcDbEntity
   8
LEVEL001
 370
13
   6
CONTINUOUS
  62
7
 100
AcDbCircle
  10
 2742.0705173260
  20
 4549.3253617020
  30
0.0
  40
 8.0000000000000
 100
AcDbArc
  50
 324.99999999999
  51
 145.00000000000
   0
ARC
   5
191
 100
AcDbEntity
   8
LEVEL001
 370
13
   6
CONTINUOUS
  62
7
 100
AcDbCircle
  10
 2692.9213946686
  20
 4583.7399478831
  30
0.0
  40
 52.000000000000
 100
AcDbArc
  50
 306.88054979700
  51
 325.00000000000
   0
ARC
   5
192
 100
AcDbEntity
   8
LEVEL001
 370
13
   6
CONTINUOUS
  62
7
 100
AcDbCircle
  10
 2692.9213946686
  20
 4583.7399478831
  30
0.0
  40
 68.000000000000
 100
AcDbArc
  50
 297.31855192773
  51
 325.00000000000
   0
LWPOLYLINE
   5
193
 100
AcDbEntity
   8
LEVEL001
 370
13
   6
CONTINUOUS
  62
7
 100
AcDbPolyline
  90
4
  70
1
  10
 3198.7089202068
  20
 4551.7399478831
  10
 3212.7089202068
  20
 4551.7399478831
  10
 3212.7089202068
  20
 4565.7399478831
  10
 3198.7089202068
  20
 4565.7399478831
   0
LWPOLYLINE
   5
194
 100
AcDbEntity
   8
LEVEL001
 370
13
   6
CONTINUOUS
  62
7
 100
AcDbPolyline
  90
4
  70
1
  10
 3086.7089031671
  20
 4501.7399478831
  10
 3072.7089031671
  20
 4501.7399478831
  10
 3072.7089031671
  20
 4515.7399478831
  10
 3086.7089031671
  20
 4515.7399478831
   0
LWPOLYLINE
   5
195
 100
AcDbEntity
   8
LEVEL001
 370
13
   6
CONTINUOUS
  62
7
 100
AcDbPolyline
  90
4
  70
1
  10
 3438.7390376916
  20
 4498.7399478831
  10
 3188.7390376915
  20
 4498.7399478831
  10
 3188.7390376915
  20
 4438.7399478831
  10
 3438.7390376916
  20
 4438.7399478831
   0
LWPOLYLINE
   5
196
 100
AcDbEntity
   8
LEVEL001
 370
13
   6
CONTINUOUS
  62
7
 100
AcDbPolyline
  90
6
  70
0
  10
 3190.4589116869
  20
 4438.7399478831
  10
 3190.4589116869
  20
 4423.7399478831
  10
 3059.7089031671
  20
 4423.7399478831
  10
 3059.7089031671
  20
 4533.7399478831
  10
 3190.4589116869
  20
 4533.7399478831
  10
 3190.4589116869
  20
 4498.7399478831
   0
LWPOLYLINE
   5
197
 100
AcDbEntity
   8
LEVEL001
 370
13
   6
CONTINUOUS
  62
7
 100
AcDbPolyline
  90
6
  70
0
  10
 3094.9589116869
  20
 4555.2449906861
  10
 3094.9589116869
  20
 4533.7399478831
  10
 3225.7089202068
  20
 4533.7399478831
  10
 3225.7089202068
  20
 4643.7399478831
  10
 3094.9589116869
  20
 4643.7399478831
  10
 3094.9589116869
  20
 4622.5845649441
   0
LWPOLYLINE
   5
198
 100
AcDbEntity
   8
LEVEL001
 370
13
   6
CONTINUOUS
  62
7
 100
AcDbPolyline
  90
4
  70
1
  10
 3086.7089031671
  20
 4441.7399478831
  10
 3072.7089031671
  20
 4441.7399478831
  10
 3072.7089031671
  20
 4455.7399478831
  10
 3086.7089031671
  20
 4455.7399478831
   0
LWPOLYLINE
   5
199
 100
AcDbEntity
   8
LEVEL001
 370
13
   6
CONTINUOUS
  62
7
 100
AcDbPolyline
  90
4
  70
1
  10
 3198.7089202068
  20
 4611.7399478831
  10
 3212.7089202068
  20
 4611.7399478831
  10
 3212.7089202068
  20
 4625.7399478831
  10
 3198.7089202068
  20
 4625.7399478831
   0
LWPOLYLINE
   5
19A
 100
AcDbEntity
   8
LEVEL001
 370
13
   6
CONTINUOUS
  62
7
 100
AcDbPolyline
  90
4
  70
0
  10
 3561.2886951759
  20
 4498.7399478831
  10
 3399.7130737384
  20
 4498.7399478831
  10
 3399.7130737384
  20
 4608.7399478831
  10
 3561.2886951759
  20
 4608.7399478831
   0
LWPOLYLINE
   5
19B
 100
AcDbEntity
   8
LEVEL001
 370
13
   6
CONTINUOUS
  62
7
 100
AcDbPolyline
  90
4
  70
1
  10
 3593.2886951759
  20
 4576.7399478831
  10
 3579.2886951759
  20
 4576.7399478831
  10
 3579.2886951759
  20
 4590.7399478831
  10
 3593.2886951759
  20
 4590.7399478831
   0
LWPOLYLINE
   5
19C
 100
AcDbEntity
   8
LEVEL001
 370
13
   6
CONTINUOUS
  62
7
 100
AcDbPolyline
  90
4
  70
1
  10
 3593.2886951759
  20
 4516.7399478831
  10
 3579.2886951759
  20
 4516.7399478831
  10
 3579.2886951759
  20
 4530.7399478831
  10
 3593.2886951759
  20
 4530.7399478831
   0
ARC
   5
19D
 100
AcDbEntity
   8
LEVEL001
 370
13
   6
CONTINUOUS
  62
7
 100
AcDbCircle
  10
 3592.4964287053
  20
 4583.7399478831
  30
0.0
  40
 52.000000000000
 100
AcDbArc
  50
 215.00000000000
  51
 233.11945020300
   0
ARC
   5
19E
 100
AcDbEntity
   8
LEVEL001
 370
13
   6
CONTINUOUS
  62
7
 100
AcDbCircle
  10
 3592.4964287053
  20
 4583.7399478831
  30
0.0
  40
 68.000000000000
 100
AcDbArc
  50
 215.00000000000
  51
 242.68144807227
   0
LWPOLYLINE
   5
19F
 100
AcDbEntity
   8
LEVEL001
 370
13
   6
CONTINUOUS
  62
7
 100
AcDbPolyline
  90
4
  70
1
  10
 3426.7130737384
  20
 4576.7399478831
  10
 3412.7130737384
  20
 4576.7399478831
  10
 3412.7130737384
  20
 4590.7399478831
  10
 3426.7130737384
  20
 4590.7399478831
   0
LINE
   5
1A0
 100
AcDbEntity
   8
LEVEL001
 370
13
 100
AcDbLine
   6
CONTINUOUS
  62
6
  10
 3439.2850641845
  20
 4603.7399478831
  30
0.0
  11
 3439.2850641845
  21
 4503.7399478831
  31
0.0
   0
LWPOLYLINE
   5
1A1
 100
AcDbEntity
   8
LEVEL001
 370
13
   6
CONTINUOUS
  62
7
 100
AcDbPolyline
  90
4
  70
1
  10
 3426.7130737384
  20
 4516.7399478831
  10
 3412.7130737384
  20
 4516.7399478831
  10
 3412.7130737384
  20
 4530.7399478831
  10
 3426.7130737384
  20
 4530.7399478831
   0
ARC
   5
1A2
 100
AcDbEntity
   8
LEVEL001
 370
13
   6
CONTINUOUS
  62
7
 100
AcDbCircle
  10
 3543.3473060479
  20
 4549.3253617020
  30
0.0
  40
 8.0000000000000
 100
AcDbArc
  50
 34.999999999999
  51
 215.00000000001
   0
LINE
   5
1A3
 100
AcDbEntity
   8
LEVEL001
 370
13
 100
AcDbLine
   6
CONTINUOUS
  62
6
  10
 3512.4964287053
  20
 4503.7399478831
  30
0.0
  11
 3512.4964287053
  21
 4603.7399478831
  31
0.0
   0
LINE
   5
1A4
 100
AcDbEntity
   8
LEVEL001
 370
13
 100
AcDbLine
   6
DASHDOT
  62
6
  10
 3474.7130908410
  20
 4643.7399478831
  30
0.0
  11
 3474.7130908410
  21
 4403.7399478831
  31
0.0
   0
LWPOLYLINE
   5
1A5
 100
AcDbEntity
   8
LEVEL001
 370
13
   6
CONTINUOUS
  62
7
 100
AcDbPolyline
  90
4
  70
0
  10
 3436.5630908410
  20
 4608.7399478831
  10
 3436.5630908410
  20
 4623.7399478831
  10
 3512.8630908410
  20
 4623.7399478831
  10
 3512.8630908410
  20
 4608.7399478831
   0
LWPOLYLINE
   5
1A6
 100
AcDbEntity
   8
LEVEL001
 370
13
   6
CONTINUOUS
  62
7
 100
AcDbPolyline
  90
4
  70
0
  10
 3512.8630908410
  20
 4498.7399478831
  10
 3512.8630908410
  20
 4423.7399478831
  10
 3436.5630908410
  20
 4423.7399478831
  10
 3436.5630908410
  20
 4438.7399478831
   0
LINE
   5
1A7
 100
AcDbEntity
   8
LEVEL001
 370
13
 100
AcDbLine
   6
DASHDOT
  62
6
  10
 3382.5090850294
  20
 4553.7399478831
  30
0.0
  11
 3747.4565839187
  21
 4553.7399478831
  31
0.0
   0
LWPOLYLINE
   5
1A8
 100
AcDbEntity
   8
LEVEL001
 370
13
   6
CONTINUOUS
  62
7
 100
AcDbPolyline
  90
4
  70
0
  10
 3647.8974563709
  20
 4498.7399478831
  10
 3561.2886951759
  20
 4498.7399478831
  10
 3561.2886951759
  20
 4608.7399478831
  10
 3647.8974563709
  20
 4608.7399478831
   0
LWPOLYLINE
   5
1A9
 100
AcDbEntity
   8
LEVEL001
 370
13
   6
CONTINUOUS
  62
7
 100
AcDbPolyline
  90
3
  70
0
  10
 3647.8974563709
  20
 4668.7399478831
  10
 3647.8974563709
  20
 4253.7399478831
  10
 3675.3756793013
  20
 4253.7399478831
   0
ARC
   5
1AA
 100
AcDbEntity
   8
LEVEL001
 370
13
   6
CONTINUOUS
  62
7
 100
AcDbCircle
  10
 87.897456370863
  20
 4553.7399478831
  30
0.0
  40
 3590.0000000000
 100
AcDbArc
  50
 355.20646174474
  51
 1.8356941616577
   0
LINE
   5
1AB
 100
AcDbEntity
   8
LEVEL001
 370
13
 100
AcDbLine
   6
CONTINUOUS
  62
1
  10
 3644.4887419634
  20
 4548.7399463225
  30
0.0
  11
 3644.4887378020
  21
 4548.7399478831
  31
0.0
   0
ARC
   5
1AC
 100
AcDbEntity
   8
LEVEL001
 370
13
   6
CONTINUOUS
  62
1
 100
AcDbCircle
  10
 3649.2876117114
  20
 4553.7399478831
  30
0.0
  40
 4.7988739094943
 100
AcDbArc
  50
 123.26696871546
  51
 236.73303128452
   0
LINE
   5
1AD
 100
AcDbEntity
   8
LEVEL001
 370
13
 100
AcDbLine
   6
CONTINUOUS
  62
1
  10
 3646.6552331944
  20
 4557.7524002681
  30
0.0
  11
 3647.8972767274
  21
 4557.9952962985
  31
0.0
   0
LINE
   5
1AE
 100
AcDbEntity
   8
LEVEL001
 370
13
 100
AcDbLine
   6
CONTINUOUS
  62
1
  10
 3646.6552331944
  20
 4549.7274954981
  30
0.0
  11
 3647.8972767274
  21
 4549.4845996377
  31
0.0
   0
LINE
   5
1AF
 100
AcDbEntity
   8
LEVEL001
 370
13
 100
AcDbLine
   6
CONTINUOUS
  62
1
  10
 3647.8972767274
  20
 4553.7399478831
  30
0.0
  11
 3646.6552331944
  21
 4553.7399478831
  31
0.0
   0
CIRCLE
   5
1B0
 100
AcDbEntity
   8
LEVEL001
 370
13
 100
AcDbCircle
   6
CONTINUOUS
  62
1
  10
 3659.8974563709
  20
 4383.7399478831
  30
0.0
  40
 7.5000000000000
   0
CIRCLE
   5
1B1
 100
AcDbEntity
   8
LEVEL001
 370
13
 100
AcDbCircle
   6
CONTINUOUS
  62
1
  10
 3659.8974563709
  20
 4708.7399478831
  30
0.0
  40
 7.5000000000000
   0
ARC
   5
1B2
 100
AcDbEntity
   8
LEVEL001
 370
13
   6
CONTINUOUS
  62
1
 100
AcDbCircle
  10
 3659.8974563709
  20
 4253.7399478831
  30
0.0
  40
 7.5000000000000
 100
AcDbArc
  50
 180.00000000000
  51
0.0
   0
LEADER
   5
1B3
 100
AcDbEntity
   8
LEVEL001
 370
13
   6
CONTINUOUS
  62
1
 100
AcDbLeader
   3
GMM001
  73
3
  74
1
  75
0
  40
 66.000000000000
  41
0.0
  76
2
  10
 3290.7719974930
  20
 4438.7399478831
  30
0.0
  10
 3377.0997549208
  20
 4215.9979070119
  30
0.0
  77
1
   0
LINE
   5
1B4
 100
AcDbEntity
   8
LEVEL001
 370
13
 100
AcDbLine
   6
DASHDOT
  62
6
  10
 4842.7089116869
  20
 4553.7399411602
  30
0.0
  11
 3942.7089116869
  21
 4553.7399411602
  31
0.0
   0
ARC
   5
1B5
 100
AcDbEntity
   8
LEVEL001
 370
13
   6
CONTINUOUS
  62
1
 100
AcDbCircle
  10
 3980.2089116869
  20
 4708.7399411602
  30
0.0
  40
 7.5000000000000
 100
AcDbArc
  50
 90.000000000000
  51
 270.00000000000
   0
ARC
   5
1B6
 100
AcDbEntity
   8
LEVEL001
 370
13
   6
CONTINUOUS
  62
1
 100
AcDbCircle
  10
 4805.2089116869
  20
 4708.7399411602
  30
0.0
  40
 7.5000000000000
 100
AcDbArc
  50
 270.00000000000
  51
 90.000000000000
   0
ARC
   5
1B7
 100
AcDbEntity
   8
LEVEL001
 370
13
   6
CONTINUOUS
  62
1
 100
AcDbCircle
  10
 3992.7089116869
  20
 4383.7399411602
  30
0.0
  40
 7.5000000000000
 100
AcDbArc
  50
 90.000000000000
  51
 270.00000000000
   0
ARC
   5
1B8
 100
AcDbEntity
   8
LEVEL001
 370
13
   6
CONTINUOUS
  62
1
 100
AcDbCircle
  10
 4792.7089116869
  20
 4383.7399411602
  30
0.0
  40
 7.5000000000000
 100
AcDbArc
  50
 270.00000000000
  51
 90.000000000000
   0
ARC
   5
1B9
 100
AcDbEntity
   8
LEVEL001
 370
13
   6
CONTINUOUS
  62
1
 100
AcDbCircle
  10
 4130.2089116869
  20
 4253.7399411602
  30
0.0
  40
 7.5000000000000
 100
AcDbArc
  50
 180.00000000000
  51
0.0
   0
ARC
   5
1BA
 100
AcDbEntity
   8
LEVEL001
 370
13
   6
CONTINUOUS
  62
1
 100
AcDbCircle
  10
 4792.7089116869
  20
 4383.7399411602
  30
0.0
  40
 7.5000000000000
 100
AcDbArc
  50
 270.00000000000
  51
 90.000000000000
   0
ARC
   5
1BB
 100
AcDbEntity
   8
LEVEL001
 370
13
   6
CONTINUOUS
  62
1
 100
AcDbCircle
  10
 4655.2089116869
  20
 4253.7399411602
  30
0.0
  40
 7.5000000000000
 100
AcDbArc
  50
 180.00000000000
  51
0.0
   0
ARC
   5
1BC
 100
AcDbEntity
   8
LEVEL001
 370
13
   6
CONTINUOUS
  62
1
 100
AcDbCircle
  10
 4392.7089116869
  20
 4253.7399411602
  30
0.0
  40
 7.5000000000000
 100
AcDbArc
  50
 180.00000000000
  51
0.0
   0
ARC
   5
1BD
 100
AcDbEntity
   8
LEVEL001
 370
13
   6
CONTINUOUS
  62
7
 100
AcDbCircle
  10
 4787.7089116869
  20
 4848.7399411602
  30
0.0
  40
 5.0000000000000
 100
AcDbArc
  50
0.0
  51
 90.000000000000
   0
ARC
   5
1BE
 100
AcDbEntity
   8
LEVEL001
 370
13
   6
CONTINUOUS
  62
2
 100
AcDbCircle
  10
 4762.7089116869
  20
 4823.7399411602
  30
0.0
  40
 5.0000000000000
 100
AcDbArc
  50
0.0
  51
 90.000000000000
   0
LINE
   5
1BF
 100
AcDbEntity
   8
LEVEL001
 370
13
 100
AcDbLine
   6
CONTINUOUS
  62
2
  10
 4767.7089116869
  20
 4283.7399411602
  30
0.0
  11
 4767.7089116869
  21
 4823.7399411602
  31
0.0
   0
ARC
   5
1C0
 100
AcDbEntity
   8
LEVEL001
 370
13
   6
CONTINUOUS
  62
2
 100
AcDbCircle
  10
 4762.7089116869
  20
 4283.7399411602
  30
0.0
  40
 5.0000000000000
 100
AcDbArc
  50
 270.00000000000
  51
0.0
   0
LINE
   5
1C1
 100
AcDbEntity
   8
LEVEL001
 370
13
 100
AcDbLine
   6
CONTINUOUS
  62
7
  10
 4792.7089116869
  20
 4258.7399411602
  30
0.0
  11
 4792.7089116869
  21
 4848.7399411602
  31
0.0
   0
ARC
   5
1C2
 100
AcDbEntity
   8
LEVEL001
 370
13
   6
CONTINUOUS
  62
7
 100
AcDbCircle
  10
 4787.7089116869
  20
 4258.7399411602
  30
0.0
  40
 5.0000000000000
 100
AcDbArc
  50
 270.00000000000
  51
0.0
   0
LINE
   5
1C3
 100
AcDbEntity
   8
LEVEL001
 370
13
 100
AcDbLine
   6
CONTINUOUS
  62
7
  10
 3997.7089116869
  20
 4253.7399411602
  30
0.0
  11
 4787.7089116869
  21
 4253.7399411602
  31
0.0
   0
ARC
   5
1C4
 100
AcDbEntity
   8
LEVEL001
 370
13
   6
CONTINUOUS
  62
7
 100
AcDbCircle
  10
 3997.7089116869
  20
 4258.7399411602
  30
0.0
  40
 5.0000000000000
 100
AcDbArc
  50
 180.00000000000
  51
 270.00000000000
   0
LINE
   5
1C5
 100
AcDbEntity
   8
LEVEL001
 370
13
 100
AcDbLine
   6
CONTINUOUS
  62
2
  10
 4022.7089116869
  20
 4278.7399411602
  30
0.0
  11
 4762.7089116869
  21
 4278.7399411602
  31
0.0
   0
ARC
   5
1C6
 100
AcDbEntity
   8
LEVEL001
 370
13
   6
CONTINUOUS
  62
2
 100
AcDbCircle
  10
 4022.7089116869
  20
 4283.7399411602
  30
0.0
  40
 5.0000000000000
 100
AcDbArc
  50
 180.00000000000
  51
 270.00000000000
   0
LINE
   5
1C7
 100
AcDbEntity
   8
LEVEL001
 370
13
 100
AcDbLine
   6
CONTINUOUS
  62
2
  10
 4762.7089116869
  20
 4828.7399411602
  30
0.0
  11
 4022.7089116869
  21
 4828.7399411602
  31
0.0
   0
LINE
   5
1C8
 100
AcDbEntity
   8
LEVEL001
 370
13
 100
AcDbLine
   6
CONTINUOUS
  62
2
  10
 4017.7089116869
  20
 4823.7399411602
  30
0.0
  11
 4017.7089116869
  21
 4283.7399411602
  31
0.0
   0
ARC
   5
1C9
 100
AcDbEntity
   8
LEVEL001
 370
13
   6
CONTINUOUS
  62
2
 100
AcDbCircle
  10
 4022.7089116869
  20
 4823.7399411602
  30
0.0
  40
 5.0000000000000
 100
AcDbArc
  50
 90.000000000000
  51
 180.00000000000
   0
LINE
   5
1CA
 100
AcDbEntity
   8
LEVEL001
 370
13
 100
AcDbLine
   6
CONTINUOUS
  62
7
  10
 4787.7089116869
  20
 4853.7399411602
  30
0.0
  11
 3997.7089116869
  21
 4853.7399411602
  31
0.0
   0
LINE
   5
1CB
 100
AcDbEntity
   8
LEVEL001
 370
13
 100
AcDbLine
   6
CONTINUOUS
  62
7
  10
 3992.7089116869
  20
 4848.7399411602
  30
0.0
  11
 3992.7089116869
  21
 4258.7399411602
  31
0.0
   0
ARC
   5
1CC
 100
AcDbEntity
   8
LEVEL001
 370
13
   6
CONTINUOUS
  62
7
 100
AcDbCircle
  10
 3997.7089116869
  20
 4848.7399411602
  30
0.0
  40
 5.0000000000000
 100
AcDbArc
  50
 90.000000000000
  51
 180.00000000000
   0
ARC
   5
1CD
 100
AcDbEntity
   8
LEVEL001
 370
13
   6
CONTINUOUS
  62
7
 100
AcDbCircle
  10
 4790.2089116869
  20
 4848.7399411602
  30
0.0
  40
 15.000000000000
 100
AcDbArc
  50
0.0
  51
 90.000000000000
   0
LINE
   5
1CE
 100
AcDbEntity
   8
LEVEL001
 370
13
 100
AcDbLine
   6
CONTINUOUS
  62
7
  10
 3995.2089116869
  20
 4863.7399411602
  30
0.0
  11
 4790.2089116869
  21
 4863.7399411602
  31
0.0
   0
ARC
   5
1CF
 100
AcDbEntity
   8
LEVEL001
 370
13
   6
CONTINUOUS
  62
7
 100
AcDbCircle
  10
 3995.2089116869
  20
 4848.7399411602
  30
0.0
  40
 15.000000000000
 100
AcDbArc
  50
 90.000000000003
  51
 180.00000000000
   0
CIRCLE
   5
1D0
 100
AcDbEntity
   8
LEVEL001
 370
13
 100
AcDbCircle
   6
CONTINUOUS
  62
2
  10
 4392.7086065112
  20
 4553.7399478831
  30
0.0
  40
 99.999997009768
   0
CIRCLE
   5
1D1
 100
AcDbEntity
   8
LEVEL001
 370
13
 100
AcDbCircle
   6
CONTINUOUS
  62
7
  10
 4352.7086132341
  20
 4588.7399478831
  30
0.0
  40
 7.0000000000000
   0
LINE
   5
1D2
 100
AcDbEntity
   8
LEVEL001
 370
13
 100
AcDbLine
   6
DASHDOT
  62
6
  10
 4352.7086132341
  20
 4568.7399478831
  30
0.0
  11
 4352.7086132341
  21
 4608.7399478831
  31
0.0
   0
LINE
   5
1D3
 100
AcDbEntity
   8
LEVEL001
 370
13
 100
AcDbLine
   6
DASHDOT
  62
6
  10
 4372.7086132341
  20
 4588.7399478831
  30
0.0
  11
 4332.7086132341
  21
 4588.7399478831
  31
0.0
   0
CIRCLE
   5
1D4
 100
AcDbEntity
   8
LEVEL001
 370
13
 100
AcDbCircle
   6
CONTINUOUS
  62
7
  10
 4432.7086132341
  20
 4588.7399478831
  30
0.0
  40
 7.0000000000000
   0
LINE
   5
1D5
 100
AcDbEntity
   8
LEVEL001
 370
13
 100
AcDbLine
   6
DASHDOT
  62
6
  10
 4412.7086132341
  20
 4588.7399478831
  30
0.0
  11
 4452.7086132341
  21
 4588.7399478831
  31
0.0
   0
LINE
   5
1D6
 100
AcDbEntity
   8
LEVEL001
 370
13
 100
AcDbLine
   6
DASHDOT
  62
6
  10
 4432.7086132341
  20
 4568.7399478831
  30
0.0
  11
 4432.7086132341
  21
 4608.7399478831
  31
0.0
   0
CIRCLE
   5
1D7
 100
AcDbEntity
   8
LEVEL001
 370
13
 100
AcDbCircle
   6
CONTINUOUS
  62
7
  10
 4432.7086132341
  20
 4518.7399478831
  30
0.0
  40
 7.0000000000000
   0
LINE
   5
1D8
 100
AcDbEntity
   8
LEVEL001
 370
13
 100
AcDbLine
   6
DASHDOT
  62
6
  10
 4432.7086132341
  20
 4538.7399478831
  30
0.0
  11
 4432.7086132341
  21
 4498.7399478831
  31
0.0
   0
LINE
   5
1D9
 100
AcDbEntity
   8
LEVEL001
 370
13
 100
AcDbLine
   6
DASHDOT
  62
6
  10
 4412.7086132341
  20
 4518.7399478831
  30
0.0
  11
 4452.7086132341
  21
 4518.7399478831
  31
0.0
   0
CIRCLE
   5
1DA
 100
AcDbEntity
   8
LEVEL001
 370
13
 100
AcDbCircle
   6
CONTINUOUS
  62
7
  10
 4352.7086132341
  20
 4518.7399478831
  30
0.0
  40
 7.0000000000000
   0
LINE
   5
1DB
 100
AcDbEntity
   8
LEVEL001
 370
13
 100
AcDbLine
   6
DASHDOT
  62
6
  10
 4372.7086132341
  20
 4518.7399478831
  30
0.0
  11
 4332.7086132341
  21
 4518.7399478831
  31
0.0
   0
LINE
   5
1DC
 100
AcDbEntity
   8
LEVEL001
 370
13
 100
AcDbLine
   6
DASHDOT
  62
6
  10
 4352.7086132341
  20
 4538.7399478831
  30
0.0
  11
 4352.7086132341
  21
 4498.7399478831
  31
0.0
   0
ARC
   5
1DD
 100
AcDbEntity
   8
LEVEL001
 370
13
   6
CONTINUOUS
  62
2
 100
AcDbCircle
  10
 4691.5913664610
  20
 4771.8433541034
  30
0.0
  40
 13.049657887988
 100
AcDbArc
  50
 316.11934084565
  51
 116.11934084949
   0
LINE
   5
1DE
 100
AcDbEntity
   8
LEVEL001
 370
13
 100
AcDbLine
   6
CONTINUOUS
  62
2
  10
 4685.8463552627
  20
 4783.5603681141
  30
0.0
  11
 4469.8708680519
  21
 4653.1761695930
  31
0.0
   0
ARC
   5
1DF
 100
AcDbEntity
   8
LEVEL001
 370
13
   6
CONTINUOUS
  62
2
 100
AcDbCircle
  10
 4462.1185329184
  20
 4666.0175597037
  30
0.0
  40
 15.000000000000
 100
AcDbArc
  50
 238.27567775434
  51
 301.11934084949
   0
LINE
   5
1E0
 100
AcDbEntity
   8
LEVEL001
 370
13
 100
AcDbLine
   6
CONTINUOUS
  62
2
  10
 4700.9973659010
  20
 4762.7978720528
  30
0.0
  11
 4510.9438917541
  21
 4596.8906493897
  31
0.0
   0
ARC
   5
1E1
 100
AcDbEntity
   8
LEVEL001
 370
13
   6
CONTINUOUS
  62
2
 100
AcDbCircle
  10
 4520.8083354890
  20
 4585.5905277177
  30
0.0
  40
 15.000000000000
 100
AcDbArc
  50
 131.11934084948
  51
 193.96282381872
   0
LINE
   5
1E2
 100
AcDbEntity
   8
LEVEL001
 370
13
 100
AcDbLine
   6
CONTINUOUS
  62
6
  10
 4663.3466374584
  20
 4754.7920377666
  30
0.0
  11
 4472.3256360985
  21
 4639.4728388859
  31
0.0
   0
LINE
   5
1E3
 100
AcDbEntity
   8
LEVEL001
 370
13
 100
AcDbLine
   6
CONTINUOUS
  62
6
  10
 4666.7366683662
  20
 4750.1464398558
  30
0.0
  11
 4498.6426739745
  21
 4603.4087499447
  31
0.0
   0
ARC
   5
1E4
 100
AcDbEntity
   8
LEVEL001
 370
13
   6
CONTINUOUS
  62
2
 100
AcDbCircle
  10
 4691.5913664610
  20
 4335.6365416628
  30
0.0
  40
 13.049657887988
 100
AcDbArc
  50
 243.88065915052
  51
 43.880659154340
   0
LINE
   5
1E5
 100
AcDbEntity
   8
LEVEL001
 370
13
 100
AcDbLine
   6
CONTINUOUS
  62
6
  10
 4663.3466374584
  20
 4352.6878579997
  30
0.0
  11
 4472.3256360985
  21
 4468.0070568803
  31
0.0
   0
LINE
   5
1E6
 100
AcDbEntity
   8
LEVEL001
 370
13
 100
AcDbLine
   6
CONTINUOUS
  62
6
  10
 4666.7366683662
  20
 4357.3334559104
  30
0.0
  11
 4498.6426739745
  21
 4504.0711458215
  31
0.0
   0
ARC
   5
1E7
 100
AcDbEntity
   8
LEVEL001
 370
13
   6
CONTINUOUS
  62
2
 100
AcDbCircle
  10
 4093.8264569129
  20
 4335.6365416628
  30
0.0
  40
 13.049657887988
 100
AcDbArc
  50
 136.11934084566
  51
 296.11934084948
   0
LINE
   5
1E8
 100
AcDbEntity
   8
LEVEL001
 370
13
 100
AcDbLine
   6
CONTINUOUS
  62
6
  10
 4122.0711859155
  20
 4352.6878579997
  30
0.0
  11
 4313.0921872754
  21
 4468.0070568803
  31
0.0
   0
LINE
   5
1E9
 100
AcDbEntity
   8
LEVEL001
 370
13
 100
AcDbLine
   6
CONTINUOUS
  62
6
  10
 4118.6811550077
  20
 4357.3334559104
  30
0.0
  11
 4286.7751493994
  21
 4504.0711458215
  31
0.0
   0
ARC
   5
1EA
 100
AcDbEntity
   8
LEVEL001
 370
13
   6
CONTINUOUS
  62
2
 100
AcDbCircle
  10
 4093.8264569129
  20
 4771.8433406577
  30
0.0
  40
 13.049657887988
 100
AcDbArc
  50
 63.880659150514
  51
 223.88065915435
   0
LINE
   5
1EB
 100
AcDbEntity
   8
LEVEL001
 370
13
 100
AcDbLine
   6
CONTINUOUS
  62
6
  10
 4122.0711859155
  20
 4754.7920243208
  30
0.0
  11
 4313.0921872754
  21
 4639.4728254401
  31
0.0
   0
LINE
   5
1EC
 100
AcDbEntity
   8
LEVEL001
 370
13
 100
AcDbLine
   6
CONTINUOUS
  62
6
  10
 4118.6811550077
  20
 4750.1464264101
  30
0.0
  11
 4286.7751493994
  21
 4603.4087364989
  31
0.0
   0
LINE
   5
1ED
 100
AcDbEntity
   8
LEVEL001
 370
13
 100
AcDbLine
   6
CONTINUOUS
  62
2
  10
 4700.9973659010
  20
 4344.6820237134
  30
0.0
  11
 4510.9438917541
  21
 4510.5892463765
  31
0.0
   0
ARC
   5
1EE
 100
AcDbEntity
   8
LEVEL001
 370
13
   6
CONTINUOUS
  62
2
 100
AcDbCircle
  10
 4520.8083354890
  20
 4521.8893680485
  30
0.0
  40
 15.000000000000
 100
AcDbArc
  50
 166.03717618128
  51
 228.88065915052
   0
ARC
   5
1EF
 100
AcDbEntity
   8
LEVEL001
 370
13
   6
CONTINUOUS
  62
2
 100
AcDbCircle
  10
 4392.7086065112
  20
 4553.7399478831
  30
0.0
  40
 117.00000000000
 100
AcDbArc
  50
 346.03717618128
  51
 13.962823818722
   0
LINE
   5
1F0
 100
AcDbEntity
   8
LEVEL001
 370
13
 100
AcDbLine
   6
CONTINUOUS
  62
2
  10
 4685.8463552627
  20
 4323.9195276521
  30
0.0
  11
 4469.8708680519
  21
 4454.3037261732
  31
0.0
   0
ARC
   5
1F1
 100
AcDbEntity
   8
LEVEL001
 370
13
   6
CONTINUOUS
  62
2
 100
AcDbCircle
  10
 4462.1185329184
  20
 4441.4623360625
  30
0.0
  40
 15.000000000000
 100
AcDbArc
  50
 58.880659150517
  51
 121.72432224565
   0
LINE
   5
1F2
 100
AcDbEntity
   8
LEVEL001
 370
13
 100
AcDbLine
   6
CONTINUOUS
  62
2
  10
 4099.5714681112
  20
 4323.9195276521
  30
0.0
  11
 4315.5466465252
  21
 4454.3035397529
  31
0.0
   0
ARC
   5
1F3
 100
AcDbEntity
   8
LEVEL001
 370
13
   6
CONTINUOUS
  62
2
 100
AcDbCircle
  10
 4323.2989816587
  20
 4441.4621496421
  30
0.0
  40
 15.000000000000
 100
AcDbArc
  50
 58.275831638988
  51
 121.11934084948
   0
ARC
   5
1F4
 100
AcDbEntity
   8
LEVEL001
 370
13
   6
CONTINUOUS
  62
2
 100
AcDbCircle
  10
 4392.7086065112
  20
 4553.7399478831
  30
0.0
  40
 117.00000000000
 100
AcDbArc
  50
 238.27583163899
  51
 301.72432224565
   0
LINE
   5
1F5
 100
AcDbEntity
   8
LEVEL001
 370
13
 100
AcDbLine
   6
CONTINUOUS
  62
2
  10
 4084.4204574729
  20
 4344.6820237134
  30
0.0
  11
 4274.4734301194
  21
 4510.5888085917
  31
0.0
   0
ARC
   5
1F6
 100
AcDbEntity
   8
LEVEL001
 370
13
   6
CONTINUOUS
  62
2
 100
AcDbCircle
  10
 4264.6089863845
  20
 4521.8889302636
  30
0.0
  40
 15.000000000000
 100
AcDbArc
  50
 311.11934084948
  51
 13.963019628937
   0
LINE
   5
1F7
 100
AcDbEntity
   8
LEVEL001
 370
13
 100
AcDbLine
   6
CONTINUOUS
  62
2
  10
 4084.4204574729
  20
 4762.7978586070
  30
0.0
  11
 4274.4734273724
  21
 4596.8910761267
  31
0.0
   0
ARC
   5
1F8
 100
AcDbEntity
   8
LEVEL001
 370
13
   6
CONTINUOUS
  62
2
 100
AcDbCircle
  10
 4264.6089836375
  20
 4585.5909544548
  30
0.0
  40
 15.000000000000
 100
AcDbArc
  50
 346.03698531248
  51
 48.880659150519
   0
ARC
   5
1F9
 100
AcDbEntity
   8
LEVEL001
 370
13
   6
CONTINUOUS
  62
2
 100
AcDbCircle
  10
 4392.7086065112
  20
 4553.7399478831
  30
0.0
  40
 117.00000000000
 100
AcDbArc
  50
 166.03698531248
  51
 193.96301962894
   0
LINE
   5
1FA
 100
AcDbEntity
   8
LEVEL001
 370
13
 100
AcDbLine
   6
CONTINUOUS
  62
2
  10
 4099.5714681112
  20
 4783.5603546683
  30
0.0
  11
 4315.5466355211
  21
 4653.1763492106
  31
0.0
   0
ARC
   5
1FB
 100
AcDbEntity
   8
LEVEL001
 370
13
   6
CONTINUOUS
  62
2
 100
AcDbCircle
  10
 4323.2989706547
  20
 4666.0177393214
  30
0.0
  40
 15.000000000000
 100
AcDbArc
  50
 238.88065915052
  51
 301.72417397642
   0
ARC
   5
1FC
 100
AcDbEntity
   8
LEVEL001
 370
13
   6
CONTINUOUS
  62
2
 100
AcDbCircle
  10
 4392.7086065112
  20
 4553.7399478831
  30
0.0
  40
 117.00000000000
 100
AcDbArc
  50
 58.275677754348
  51
 121.72417397642
   0
CIRCLE
   5
1FD
 100
AcDbEntity
   8
LEVEL001
 370
13
 100
AcDbCircle
   6
CONTINUOUS
  62
1
  10
 3999.1435030364
  20
 4128.3466619567
  30
0.0
  40
 69.999997913838
   0
MTEXT
   5
1FF
 100
AcDbEntity
   8
LEVEL001
 370
13
  62
7
 100
AcDbMText
  10
 3999.1435030364
  20
 4128.3466619567
  30
0.0
  40
 66.000000000000
  41
0.0
  71
5
  72
1
   1
\T1.000000;２
   7
GMM004
  44
 0.79999984000003
   0
LEADER
   5
200
 100
AcDbEntity
   8
LEVEL001
 370
13
   6
CONTINUOUS
  62
1
 100
AcDbLeader
   3
GMM001
  73
3
  74
1
  75
0
  40
 66.000000000000
  41
0.0
  76
2
  10
 4192.7149880826
  20
 4321.9181470030
  30
0.0
  10
 4048.6409762443
  20
 4177.8441351646
  30
0.0
  77
1
   0
CIRCLE
   5
201
 100
AcDbEntity
   8
LEVEL001
 370
13
 100
AcDbCircle
   6
CONTINUOUS
  62
1
  10
 2392.7089116869
  20
 5003.7399478831
  30
0.0
  40
 69.999997913838
   0
MTEXT
   5
203
 100
AcDbEntity
   8
LEVEL001
 370
13
  62
7
 100
AcDbMText
  10
 2392.7089116869
  20
 5003.7399478831
  30
0.0
  40
 66.000000000000
  41
0.0
  71
5
  72
1
   1
\T1.000000;３
   7
GMM004
  44
 0.79999984000003
   0
CIRCLE
   5
204
 100
AcDbEntity
   8
LEVEL001
 370
13
 100
AcDbCircle
   6
CONTINUOUS
  62
1
  10
 2392.7089116869
  20
 4253.7399478831
  30
0.0
  40
 69.999997913838
   0
MTEXT
   5
206
 100
AcDbEntity
   8
LEVEL001
 370
13
  62
7
 100
AcDbMText
  10
 2392.7089116869
  20
 4253.7399478831
  30
0.0
  40
 66.000000000000
  41
0.0
  71
5
  72
1
   1
\T1.000000;１
   7
GMM004
  44
 0.79999984000003
   0
LEADER
   5
207
 100
AcDbEntity
   8
LEVEL001
 370
13
   6
CONTINUOUS
  62
1
 100
AcDbLeader
   3
GMM001
  73
3
  74
1
  75
0
  40
 66.000000000000
  41
0.0
  76
2
  10
 2142.7089116869
  20
 4378.7399478831
  30
0.0
  10
 2330.0990101829
  20
 4285.0448986351
  30
0.0
  77
1
   0
LEADER
   5
208
 100
AcDbEntity
   8
LEVEL001
 370
13
   6
CONTINUOUS
  62
1
 100
AcDbLeader
   3
GMM001
  73
3
  74
1
  75
0
  40
 66.000000000000
  41
0.0
  76
2
  10
 2601.7763549800
  20
 4378.7399478831
  30
0.0
  10
 2452.7891857290
  20
 4289.6615344150
  30
0.0
  77
1
   0
DIMENSION
   5
209
 100
AcDbEntity
   8
LEVEL001
 370
13
   6
CONTINUOUS
  62
6
 100
AcDbDimension
   2
*D8
  10
 642.70891168694
  20
 553.73994788310
  30
0.0
  11
 642.70891168694
  21
 503.73994788310
  31
0.0
  70
0
   3
GMM002
 100
AcDbAlignedDimension
  13
 1142.7089116869
  23
 453.73994788310
  33
0.0
  14
 1142.7089116869
  24
 553.73994788310
  34
0.0
  50
 90.000000000000
 100
AcDbRotatedDimension
   0
DIMENSION
   5
20A
 100
AcDbEntity
   8
LEVEL001
 370
13
   6
CONTINUOUS
  62
6
 100
AcDbDimension
   2
*D9
  10
 642.70891168694
  20
 1753.7399478831
  30
0.0
  11
 642.70891168694
  21
 1153.7399478831
  31
0.0
  70
0
   3
GMM002
 100
AcDbAlignedDimension
  13
 1142.7089116869
  23
 553.73994788310
  33
0.0
  14
 842.70897692190
  24
 1753.7399478831
  34
0.0
  50
 90.000000000000
 100
AcDbRotatedDimension
   0
DIMENSION
   5
20B
 100
AcDbEntity
   8
LEVEL001
 370
13
   6
CONTINUOUS
  62
6
 100
AcDbDimension
   2
*D10
  10
 642.70891168694
  20
 4253.7399478831
  30
0.0
  11
 642.70891168694
  21
 3003.7399478831
  31
0.0
  70
0
   1
\A1;2500(標準設置高さ)
   3
GMM003
 100
AcDbAlignedDimension
  13
 842.70897692190
  23
 1753.7399478831
  33
0.0
  14
 642.70891168694
  24
 4253.7399478831
  34
0.0
  50
 90.000000000000
 100
AcDbRotatedDimension
   0
CIRCLE
   5
20C
 100
AcDbEntity
   8
LEVEL001
 370
13
 100
AcDbCircle
   6
CONTINUOUS
  62
1
  10
 3267.7089116869
  20
 4878.7399478831
  30
0.0
  40
 69.999997913838
   0
CIRCLE
   5
20D
 100
AcDbEntity
   8
LEVEL001
 370
13
 100
AcDbCircle
   6
CONTINUOUS
  62
1
  10
 3407.7089075146
  20
 4878.7399478831
  30
0.0
  40
 69.999997913838
   0
MTEXT
   5
20F
 100
AcDbEntity
   8
LEVEL001
 370
13
  62
7
 100
AcDbMText
  10
 3267.7089116869
  20
 4878.7399478831
  30
0.0
  40
 66.000000000000
  41
0.0
  71
5
  72
1
   1
\T1.000000;７
   7
GMM004
  44
 0.79999984000003
   0
MTEXT
   5
211
 100
AcDbEntity
   8
LEVEL001
 370
13
  62
7
 100
AcDbMText
  10
 3407.7089075146
  20
 4878.7399478831
  30
0.0
  40
 66.000000000000
  41
0.0
  71
5
  72
1
   1
\T1.000000;９
   7
GMM004
  44
 0.79999984000003
   0
CIRCLE
   5
212
 100
AcDbEntity
   8
LEVEL001
 370
13
 100
AcDbCircle
   6
CONTINUOUS
  62
1
  10
 2892.7089116869
  20
 5128.7399478831
  30
0.0
  40
 69.999997913838
   0
CIRCLE
   5
213
 100
AcDbEntity
   8
LEVEL001
 370
13
 100
AcDbCircle
   6
CONTINUOUS
  62
1
  10
 3032.7089075146
  20
 5128.7399478831
  30
0.0
  40
 69.999997913838
   0
MTEXT
   5
215
 100
AcDbEntity
   8
LEVEL001
 370
13
  62
7
 100
AcDbMText
  10
 2892.7089116869
  20
 5128.7399478831
  30
0.0
  40
 66.000000000000
  41
0.0
  71
5
  72
1
   1
\T1.000000;６
   7
GMM004
  44
 0.79999984000003
   0
MTEXT
   5
217
 100
AcDbEntity
   8
LEVEL001
 370
13
  62
7
 100
AcDbMText
  10
 3032.7089075146
  20
 5128.7399478831
  30
0.0
  40
 66.000000000000
  41
0.0
  71
5
  72
1
   1
\T1.000000;８
   7
GMM004
  44
 0.79999984000003
   0
LEADER
   5
218
 100
AcDbEntity
   8
LEVEL001
 370
13
   6
CONTINUOUS
  62
1
 100
AcDbLeader
   3
GMM004
  73
3
  74
1
  75
0
  40
 66.000000000000
  41
0.0
  76
2
  10
 2885.7047496355
  20
 4608.7399478831
  30
0.0
  10
 3211.2527504574
  20
 4837.3551491382
  30
0.0
  77
1
   0
LEADER
   5
219
 100
AcDbEntity
   8
LEVEL001
 370
13
   6
CONTINUOUS
  62
1
 100
AcDbLeader
   3
GMM001
  73
3
  74
1
  75
0
  40
 66.000000000000
  41
0.0
  76
2
  10
 2705.2089116869
  20
 4608.7399478831
  30
0.0
  10
 2869.6955110298
  20
 5062.6310748165
  30
0.0
  77
1
   0
ARC
   5
21A
 100
AcDbEntity
   8
LEVEL001
 370
13
   6
CONTINUOUS
  62
7
 100
AcDbCircle
  10
 2698.1589116869
  20
 4009.6796678206
  30
0.0
  40
 400.00000000000
 100
AcDbArc
  50
 321.34019174591
  51
 0.13027551975275E-12
   0
ARC
   5
21B
 100
AcDbEntity
   8
LEVEL001
 370
13
   6
DASHDOT
  62
6
 100
AcDbCircle
  10
 2698.1589116869
  20
 4009.6796678208
  30
0.0
  40
 444.55000000000
 100
AcDbArc
  50
 321.34019174591
  51
 0.11722012799707E-12
   0
ARC
   5
21C
 100
AcDbEntity
   8
LEVEL001
 370
13
   6
CONTINUOUS
  62
7
 100
AcDbCircle
  10
 2698.1589116869
  20
 4009.6796678206
  30
0.0
  40
 489.10000000000
 100
AcDbArc
  50
 321.34019174591
  51
 360.00000000000
   0
LINE
   5
21D
 100
AcDbEntity
   8
LEVEL001
 370
13
 100
AcDbLine
   6
DASHDOT
  62
6
  10
 3142.7089116869
  20
 5003.7399478831
  30
0.0
  11
 3142.7089116869
  21
 4009.6796678208
  31
0.0
   0
LINE
   5
21E
 100
AcDbEntity
   8
LEVEL001
 370
13
 100
AcDbLine
   6
CONTINUOUS
  62
7
  10
 3098.1589116869
  20
 4009.6796678206
  30
0.0
  11
 3098.1589116869
  21
 4423.7399478831
  31
0.0
   0
LINE
   5
21F
 100
AcDbEntity
   8
LEVEL001
 370
13
 100
AcDbLine
   6
CONTINUOUS
  62
7
  10
 3187.2589116869
  20
 4423.7399478831
  30
0.0
  11
 3187.2589116869
  21
 4009.6796678206
  31
0.0
   0
LWPOLYLINE
   5
220
 100
AcDbEntity
   8
LEVEL001
 370
13
   6
CONTINUOUS
  62
7
 100
AcDbPolyline
  90
4
  70
0
  10
 3098.1589116869
  20
 4643.7399478831
  10
 3098.1589116869
  20
 4953.7399478831
  10
 3187.2589116869
  20
 4953.7399478831
  10
 3187.2589116869
  20
 4643.7399478831
   0
LINE
   5
221
 100
AcDbEntity
   8
LEVEL001
 370
13
 100
AcDbLine
   6
CONTINUOUS
  62
7
  10
 1348.1589116869
  20
 4423.7399063548
  30
0.0
  11
 1348.1589116869
  21
 3379.3002279460
  31
0.0
   0
LINE
   5
222
 100
AcDbEntity
   8
LEVEL001
 370
13
 100
AcDbLine
   6
CONTINUOUS
  62
7
  10
 1437.2589116869
  20
 3379.3002279460
  30
0.0
  11
 1437.2589116869
  21
 4423.7399063548
  31
0.0
   0
DIMENSION
   5
223
 100
AcDbEntity
   8
LEVEL001
 370
13
   6
CONTINUOUS
  62
6
 100
AcDbDimension
   2
*D13
  10
 3142.7089116869
  20
 2753.7399478831
  30
0.0
  11
 2942.7089116869
  21
 2753.7399478831
  31
0.0
  70
0
   3
GMM005
 100
AcDbAlignedDimension
  13
 2742.7089116869
  23
 2753.7399478831
  33
0.0
  14
 3142.7089116869
  24
 4009.6796678208
  34
0.0
 100
AcDbRotatedDimension
   0
DIMENSION
   5
224
 100
AcDbEntity
   8
LEVEL001
 370
13
   6
CONTINUOUS
  62
6
 100
AcDbDimension
   2
*D14
  10
 1317.7089116869
  20
 4378.7399478831
  30
0.0
  11
 767.70891168694
  21
 4378.7399478831
  31
0.0
  70
128
   3
GMM006
 100
AcDbAlignedDimension
  13
 517.70891168694
  23
 4378.7399478831
  33
0.0
  14
 1317.7089116869
  24
 4378.7399478831
  34
0.0
 100
AcDbRotatedDimension
   0
DIMENSION
   5
225
 100
AcDbEntity
   8
LEVEL001
 370
13
   6
CONTINUOUS
  62
6
 100
AcDbDimension
   2
*D15
  10
 1205.2089116869
  20
 4853.7399478831
  30
0.0
  11
 1205.2089116869
  21
 4691.2399478831
  31
0.0
  70
128
   3
GMM006
 100
AcDbAlignedDimension
  13
 1205.2089116869
  23
 4253.7399478831
  33
0.0
  14
 1205.2089116869
  24
 4853.7399478831
  34
0.0
  50
 90.000000000000
 100
AcDbRotatedDimension
   0
LINE
   5
226
 100
AcDbEntity
   8
LEVEL001
 370
13
 100
AcDbLine
   6
CONTINUOUS
  62
6
  10
 1350.1441863420
  20
 4528.7399063548
  30
0.0
  11
 1350.1441863420
  21
 4428.7399063548
  31
0.0
   0
LINE
   5
227
 100
AcDbEntity
   8
LEVEL001
 370
13
 100
AcDbLine
   6
CONTINUOUS
  62
6
  10
 1435.2736370318
  20
 4638.7399063548
  30
0.0
  11
 1435.2736370318
  21
 4538.7399063548
  31
0.0
   0
LINE
   5
228
 100
AcDbEntity
   8
LEVEL001
 370
13
 100
AcDbLine
   6
CONTINUOUS
  62
6
  10
 3100.1441863420
  20
 4528.7399063548
  30
0.0
  11
 3100.1441863420
  21
 4428.7399478831
  31
0.0
   0
LINE
   5
229
 100
AcDbEntity
   8
LEVEL001
 370
13
 100
AcDbLine
   6
CONTINUOUS
  62
6
  10
 3185.2736370318
  20
 4638.7399063548
  30
0.0
  11
 3185.2736370318
  21
 4538.7399478831
  31
0.0
   0
LWPOLYLINE
   5
22A
 100
AcDbEntity
   8
LEVEL001
 370
13
   6
CONTINUOUS
  62
7
 100
AcDbPolyline
  90
4
  70
0
  10
 1330.2089116869
  20
 4668.7399478831
  10
 1330.2089116869
  20
 4883.7399478831
  10
 505.20891168694
  20
 4883.7399478831
  10
 505.20891168694
  20
 4668.7399478831
   0
LWPOLYLINE
   5
22B
 100
AcDbEntity
   8
LEVEL001
 370
13
   6
CONTINUOUS
  62
7
 100
AcDbPolyline
  90
4
  70
0
  10
 1455.2089116869
  20
 4668.7399478831
  10
 1455.2089116869
  20
 4883.7399478831
  10
 2280.2089116869
  20
 4883.7399478831
  10
 2280.2089116869
  20
 4668.7399478831
   0
LINE
   5
22C
 100
AcDbEntity
   8
LEVEL001
 370
13
 100
AcDbLine
   6
DASHDOT
  62
6
  10
 917.70891168694
  20
 4933.7399478831
  30
0.0
  11
 917.70891168694
  21
 4203.7399478831
  31
0.0
   0
LWPOLYLINE
   5
22D
 100
AcDbEntity
   8
LEVEL001
 370
13
   6
CONTINUOUS
  62
7
 100
AcDbPolyline
  90
4
  70
0
  10
 4805.2089116869
  20
 4668.7399411602
  10
 4805.2089116869
  20
 4883.7399411602
  10
 3980.2089116869
  20
 4883.7399411602
  10
 3980.2089116869
  20
 4668.7399411602
   0
LINE
   5
22E
 100
AcDbEntity
   8
LEVEL001
 370
13
 100
AcDbLine
   6
DASHDOT
  62
6
  10
 4392.7089116869
  20
 4933.7399478831
  30
0.0
  11
 4392.7089116869
  21
 4203.7399478831
  31
0.0
   0
LWPOLYLINE
   5
22F
 100
AcDbEntity
   8
LEVEL001
 370
13
   6
CONTINUOUS
  62
7
 100
AcDbPolyline
  90
6
  70
0
  10
 2567.5203670030
  20
 4883.7399478831
  10
 2567.5203670030
  20
 4863.7399478831
  10
 2609.3627617688
  20
 4668.7399478831
  10
 2637.5203670030
  20
 4668.7399478831
  10
 2637.5203670030
  20
 4863.7399478831
  10
 2567.5203670030
  20
 4863.7399478831
   0
LWPOLYLINE
   5
230
 100
AcDbEntity
   8
LEVEL001
 370
13
   6
CONTINUOUS
  62
7
 100
AcDbPolyline
  90
6
  70
0
  10
 3717.8974563709
  20
 4883.7399478831
  10
 3717.8974563709
  20
 4863.7399478831
  10
 3676.0550616051
  20
 4668.7399478831
  10
 3647.8974563709
  20
 4668.7399478831
  10
 3647.8974563709
  20
 4863.7399478831
  10
 3717.8974563709
  20
 4863.7399478831
   0
LEADER
   5
231
 100
AcDbEntity
   8
LEVEL001
 370
13
   6
CONTINUOUS
  62
1
 100
AcDbLeader
   3
GMM007
  73
3
  74
1
  75
0
  40
 66.000000000000
  41
0.0
  76
2
  10
 2567.5203670030
  20
 4883.7399478831
  30
0.0
  10
 2450.7758010464
  20
 4964.6472878552
  30
0.0
  77
1
   0
LEADER
   5
232
 100
AcDbEntity
   8
LEVEL001
 370
13
   6
CONTINUOUS
  62
1
 100
AcDbLeader
   3
GMM001
  73
3
  74
1
  75
0
  40
 66.000000000000
  41
0.0
  76
2
  10
 2142.7089116869
  20
 4883.7399478831
  30
0.0
  10
 2329.2061322221
  20
 4974.2883484668
  30
0.0
  77
1
   0
ARC
   5
233
 100
AcDbEntity
   8
LEVEL001
 370
13
   6
CONTINUOUS
  62
7
 100
AcDbCircle
  10
 87.897456370864
  20
 4553.7399478831
  30
0.0
  40
 3600.0000000000
 100
AcDbArc
  50
 355.21980815280
  51
 2.4627786877400
   0
ARC
   5
234
 100
AcDbEntity
   8
LEVEL001
 370
13
   6
CONTINUOUS
  62
7
 100
AcDbCircle
  10
 6197.5203670030
  20
 4553.7399478831
  30
0.0
  40
 3600.0000000000
 100
AcDbArc
  50
 177.53722131226
  51
 184.78019184720
   0
LWPOLYLINE
   5
235
 100
AcDbEntity
   8
LEVEL001
 370
13
   6
CONTINUOUS
  62
7
 100
AcDbPolyline
  90
4
  70
0
  10
 1348.1589116869
  20
 961.23994788310
  10
 1276.3088936013
  20
 961.23994788310
  10
 1276.3088936013
  20
 946.23994788310
  10
 1348.1589116869
  20
 946.23994788310
   0
LWPOLYLINE
   5
236
 100
AcDbEntity
   8
LEVEL001
 370
13
   6
CONTINUOUS
  62
7
 100
AcDbPolyline
  90
4
  70
0
  10
 1437.2589116869
  20
 961.23994788310
  10
 1509.1088936013
  20
 961.23994788310
  10
 1509.1088936013
  20
 946.23994788310
  10
 1437.2589116869
  20
 946.23994788310
   0
LINE
   5
237
 100
AcDbEntity
   8
LEVEL001
 370
13
 100
AcDbLine
   6
DASHDOT
  62
6
  10
 1326.3088936013
  20
 953.73994788310
  30
0.0
  11
 1459.1088936013
  21
 953.73994788310
  31
0.0
   0
LINE
   5
238
 100
AcDbEntity
   8
LEVEL001
 370
13
 100
AcDbLine
   6
CONTINUOUS
  62
5
  10
 1292.7089116869
  20
 553.73994788310
  30
0.0
  11
 1242.7089116869
  21
 453.73994788310
  31
0.0
   0
LINE
   5
239
 100
AcDbEntity
   8
LEVEL001
 370
13
 100
AcDbLine
   6
CONTINUOUS
  62
5
  10
 1242.7089116869
  20
 553.73994788310
  30
0.0
  11
 1282.7089116869
  21
 533.73994788310
  31
0.0
   0
LINE
   5
23A
 100
AcDbEntity
   8
LEVEL001
 370
13
 100
AcDbLine
   6
CONTINUOUS
  62
5
  10
 1242.7089116869
  20
 553.73994788310
  30
0.0
  11
 1192.7089116869
  21
 453.73994788310
  31
0.0
   0
LINE
   5
23B
 100
AcDbEntity
   8
LEVEL001
 370
13
 100
AcDbLine
   6
CONTINUOUS
  62
5
  10
 1192.7089116869
  20
 553.73994788310
  30
0.0
  11
 1232.7089116869
  21
 533.73994788310
  31
0.0
   0
LINE
   5
23C
 100
AcDbEntity
   8
LEVEL001
 370
13
 100
AcDbLine
   6
CONTINUOUS
  62
5
  10
 1192.7089116869
  20
 553.73994788310
  30
0.0
  11
 1142.7089116869
  21
 453.73994788310
  31
0.0
   0
LINE
   5
23D
 100
AcDbEntity
   8
LEVEL001
 370
13
 100
AcDbLine
   6
CONTINUOUS
  62
5
  10
 1142.7089116869
  20
 553.73994788310
  30
0.0
  11
 1182.7089116869
  21
 533.73994788310
  31
0.0
   0
LINE
   5
23E
 100
AcDbEntity
   8
LEVEL001
 370
13
 100
AcDbLine
   6
CONTINUOUS
  62
5
  10
 1292.7089116869
  20
 453.73994788310
  30
0.0
  11
 1252.7089116869
  21
 473.73994788310
  31
0.0
   0
LINE
   5
23F
 100
AcDbEntity
   8
LEVEL001
 370
13
 100
AcDbLine
   6
CONTINUOUS
  62
5
  10
 1242.7089116869
  20
 453.73994788310
  30
0.0
  11
 1202.7089116869
  21
 473.73994788310
  31
0.0
   0
LINE
   5
240
 100
AcDbEntity
   8
LEVEL001
 370
13
 100
AcDbLine
   6
CONTINUOUS
  62
5
  10
 1192.7089116869
  20
 453.73994788310
  30
0.0
  11
 1152.7089116869
  21
 473.73994788310
  31
0.0
   0
LINE
   5
241
 100
AcDbEntity
   8
LEVEL001
 370
13
 100
AcDbLine
   6
CONTINUOUS
  62
5
  10
 987.70891168676
  20
 1701.2399478831
  30
0.0
  11
 1040.2089116868
  21
 1753.7399478831
  31
0.0
   0
LINE
   5
242
 100
AcDbEntity
   8
LEVEL001
 370
13
 100
AcDbLine
   6
CONTINUOUS
  62
5
  10
 971.79900910991
  20
 1717.1498504599
  30
0.0
  11
 1008.3891065331
  21
 1753.7399478831
  31
0.0
   0
LINE
   5
243
 100
AcDbEntity
   8
LEVEL001
 370
13
 100
AcDbLine
   6
CONTINUOUS
  62
5
  10
 1024.2990091107
  20
 1753.7399478831
  30
0.0
  11
 979.75396039873
  21
 1709.1948991711
  31
0.0
   0
LINE
   5
244
 100
AcDbEntity
   8
LEVEL001
 370
13
 100
AcDbLine
   6
CONTINUOUS
  62
5
  10
 1044.9792039573
  20
 1701.2399478831
  30
0.0
  11
 1016.3440578221
  21
 1729.8750940184
  31
0.0
   0
LINE
   5
245
 100
AcDbEntity
   8
LEVEL001
 370
13
 100
AcDbLine
   6
CONTINUOUS
  62
5
  10
 1024.2990091103
  20
 1737.8300453066
  30
0.0
  11
 1060.8891065338
  21
 1701.2399478831
  31
0.0
   0
LINE
   5
246
 100
AcDbEntity
   8
LEVEL001
 370
13
 100
AcDbLine
   6
CONTINUOUS
  62
5
  10
 1076.7990091102
  20
 1701.2399478831
  30
0.0
  11
 1032.2539603985
  21
 1745.7849965948
  31
0.0
   0
LINE
   5
247
 100
AcDbEntity
   8
LEVEL001
 370
13
 100
AcDbLine
   6
CONTINUOUS
  62
5
  10
 1040.2089116868
  20
 1753.7399478831
  30
0.0
  11
 1092.7089116869
  21
 1701.2399478831
  31
0.0
   0
LINE
   5
248
 100
AcDbEntity
   8
LEVEL001
 370
13
 100
AcDbLine
   6
CONTINUOUS
  62
5
  10
 887.47920395689
  20
 1753.7399478831
  30
0.0
  11
 834.97920395689
  21
 1701.2399478831
  31
0.0
   0
LINE
   5
249
 100
AcDbEntity
   8
LEVEL001
 370
13
 100
AcDbLine
   6
CONTINUOUS
  62
5
  10
 850.88910653293
  20
 1701.2399478831
  30
0.0
  11
 903.38910653293
  21
 1753.7399478831
  31
0.0
   0
LINE
   5
24A
 100
AcDbEntity
   8
LEVEL001
 370
13
 100
AcDbLine
   6
CONTINUOUS
  62
5
  10
 919.29900911054
  20
 1753.7399478831
  30
0.0
  11
 866.79900911054
  21
 1701.2399478831
  31
0.0
   0
LINE
   5
24B
 100
AcDbEntity
   8
LEVEL001
 370
13
 100
AcDbLine
   6
CONTINUOUS
  62
5
  10
 882.70891168657
  20
 1701.2399478831
  30
0.0
  11
 935.20891168657
  21
 1753.7399478831
  31
0.0
   0
LINE
   5
24C
 100
AcDbEntity
   8
LEVEL001
 370
13
 100
AcDbLine
   6
CONTINUOUS
  62
5
  10
 939.97920395716
  20
 1701.2399478831
  30
0.0
  11
 911.34405782187
  21
 1729.8750940184
  31
0.0
   0
LINE
   5
24D
 100
AcDbEntity
   8
LEVEL001
 370
13
 100
AcDbLine
   6
CONTINUOUS
  62
5
  10
 919.29900911008
  20
 1737.8300453066
  30
0.0
  11
 955.88910653359
  21
 1701.2399478831
  31
0.0
   0
LINE
   5
24E
 100
AcDbEntity
   8
LEVEL001
 370
13
 100
AcDbLine
   6
CONTINUOUS
  62
5
  10
 971.79900911002
  20
 1701.2399478831
  30
0.0
  11
 927.25396039830
  21
 1745.7849965948
  31
0.0
   0
LINE
   5
24F
 100
AcDbEntity
   8
LEVEL001
 370
13
 100
AcDbLine
   6
CONTINUOUS
  62
5
  10
 935.20891168657
  20
 1753.7399478831
  30
0.0
  11
 987.70891168676
  21
 1701.2399478831
  31
0.0
   0
LINE
   5
250
 100
AcDbEntity
   8
LEVEL001
 370
13
 100
AcDbLine
   6
CONTINUOUS
  62
5
  10
 992.47920395708
  20
 1753.7399478831
  30
0.0
  11
 963.84405782188
  21
 1725.1048017479
  31
0.0
   0
MTEXT
   5
252
 100
AcDbEntity
   8
LEVEL001
 370
13
  62
1
 100
AcDbMText
  10
 963.35758213139
  20
 1762.4698849234
  30
0.0
  40
 40.000000000000
  41
0.0
  71
7
  72
1
   1
\T1.000000;ＧＬ
   7
GMM005
  44
 0.79999984000003
   0
LWPOLYLINE
   5
253
 100
AcDbEntity
   8
LEVEL001
 370
13
   6
CONTINUOUS
  62
1
 100
AcDbPolyline
  90
3
  70
1
  10
 935.20891168657
  20
 1753.7399478831
  10
 910.20891168657
  20
 1803.7399478831
  10
 960.20891168657
  20
 1803.7399478831
   0
LINE
   5
254
 100
AcDbEntity
   8
LEVEL001
 370
13
 100
AcDbLine
   6
CONTINUOUS
  62
5
  10
 1642.7089116869
  20
 553.73994788310
  30
0.0
  11
 1592.7089116869
  21
 453.73994788310
  31
0.0
   0
LINE
   5
255
 100
AcDbEntity
   8
LEVEL001
 370
13
 100
AcDbLine
   6
CONTINUOUS
  62
5
  10
 1592.7089116869
  20
 553.73994788310
  30
0.0
  11
 1632.7089116869
  21
 533.73994788310
  31
0.0
   0
LINE
   5
256
 100
AcDbEntity
   8
LEVEL001
 370
13
 100
AcDbLine
   6
CONTINUOUS
  62
5
  10
 1592.7089116869
  20
 553.73994788310
  30
0.0
  11
 1542.7089116869
  21
 453.73994788310
  31
0.0
   0
LINE
   5
257
 100
AcDbEntity
   8
LEVEL001
 370
13
 100
AcDbLine
   6
CONTINUOUS
  62
5
  10
 1542.7089116869
  20
 553.73994788310
  30
0.0
  11
 1582.7089116869
  21
 533.73994788310
  31
0.0
   0
LINE
   5
258
 100
AcDbEntity
   8
LEVEL001
 370
13
 100
AcDbLine
   6
CONTINUOUS
  62
5
  10
 1542.7089116869
  20
 553.73994788310
  30
0.0
  11
 1492.7089116869
  21
 453.73994788310
  31
0.0
   0
LINE
   5
259
 100
AcDbEntity
   8
LEVEL001
 370
13
 100
AcDbLine
   6
CONTINUOUS
  62
5
  10
 1492.7089116869
  20
 553.73994788310
  30
0.0
  11
 1532.7089116869
  21
 533.73994788310
  31
0.0
   0
LINE
   5
25A
 100
AcDbEntity
   8
LEVEL001
 370
13
 100
AcDbLine
   6
CONTINUOUS
  62
5
  10
 1642.7089116869
  20
 453.73994788310
  30
0.0
  11
 1602.7089116869
  21
 473.73994788310
  31
0.0
   0
LINE
   5
25B
 100
AcDbEntity
   8
LEVEL001
 370
13
 100
AcDbLine
   6
CONTINUOUS
  62
5
  10
 1592.7089116869
  20
 453.73994788310
  30
0.0
  11
 1552.7089116869
  21
 473.73994788310
  31
0.0
   0
LINE
   5
25C
 100
AcDbEntity
   8
LEVEL001
 370
13
 100
AcDbLine
   6
CONTINUOUS
  62
5
  10
 1542.7089116869
  20
 453.73994788310
  30
0.0
  11
 1502.7089116869
  21
 473.73994788310
  31
0.0
   0
LINE
   5
25D
 100
AcDbEntity
   8
LEVEL001
 370
13
 100
AcDbLine
   6
CONTINUOUS
  62
5
  10
 1745.2089116869
  20
 1753.7399478831
  30
0.0
  11
 1692.7089116869
  21
 1701.2399478831
  31
0.0
   0
LINE
   5
25E
 100
AcDbEntity
   8
LEVEL001
 370
13
 100
AcDbLine
   6
CONTINUOUS
  62
5
  10
 1708.6188142630
  20
 1701.2399478831
  30
0.0
  11
 1761.1188142630
  21
 1753.7399478831
  31
0.0
   0
LINE
   5
25F
 100
AcDbEntity
   8
LEVEL001
 370
13
 100
AcDbLine
   6
CONTINUOUS
  62
5
  10
 1777.0287168406
  20
 1753.7399478831
  30
0.0
  11
 1724.5287168406
  21
 1701.2399478831
  31
0.0
   0
LINE
   5
260
 100
AcDbEntity
   8
LEVEL001
 370
13
 100
AcDbLine
   6
CONTINUOUS
  62
5
  10
 1740.4386194166
  20
 1701.2399478831
  30
0.0
  11
 1792.9386194166
  21
 1753.7399478831
  31
0.0
   0
LINE
   5
261
 100
AcDbEntity
   8
LEVEL001
 370
13
 100
AcDbLine
   6
CONTINUOUS
  62
5
  10
 1797.7089116872
  20
 1701.2399478831
  30
0.0
  11
 1769.0737655519
  21
 1729.8750940184
  31
0.0
   0
LINE
   5
262
 100
AcDbEntity
   8
LEVEL001
 370
13
 100
AcDbLine
   6
CONTINUOUS
  62
5
  10
 1777.0287168401
  20
 1737.8300453066
  30
0.0
  11
 1813.6188142636
  21
 1701.2399478831
  31
0.0
   0
LINE
   5
263
 100
AcDbEntity
   8
LEVEL001
 370
13
 100
AcDbLine
   6
CONTINUOUS
  62
5
  10
 1829.5287168401
  20
 1701.2399478831
  30
0.0
  11
 1784.9836681283
  21
 1745.7849965948
  31
0.0
   0
LINE
   5
264
 100
AcDbEntity
   8
LEVEL001
 370
13
 100
AcDbLine
   6
CONTINUOUS
  62
5
  10
 1792.9386194166
  20
 1753.7399478831
  30
0.0
  11
 1845.4386194168
  21
 1701.2399478831
  31
0.0
   0
LINE
   5
265
 100
AcDbEntity
   8
LEVEL001
 370
13
 100
AcDbLine
   6
CONTINUOUS
  62
5
  10
 1845.4386194168
  20
 1701.2399478831
  30
0.0
  11
 1897.9386194168
  21
 1753.7399478831
  31
0.0
   0
LINE
   5
266
 100
AcDbEntity
   8
LEVEL001
 370
13
 100
AcDbLine
   6
CONTINUOUS
  62
5
  10
 1850.2089116871
  20
 1753.7399478831
  30
0.0
  11
 1821.5737655519
  21
 1725.1048017479
  31
0.0
   0
LINE
   5
267
 100
AcDbEntity
   8
LEVEL001
 370
13
 100
AcDbLine
   6
CONTINUOUS
  62
5
  10
 1829.5287168400
  20
 1717.1498504599
  30
0.0
  11
 1866.1188142632
  21
 1753.7399478831
  31
0.0
   0
LINE
   5
268
 100
AcDbEntity
   8
LEVEL001
 370
13
 100
AcDbLine
   6
CONTINUOUS
  62
5
  10
 1882.0287168408
  20
 1753.7399478831
  30
0.0
  11
 1837.4836681288
  21
 1709.1948991711
  31
0.0
   0
LINE
   5
269
 100
AcDbEntity
   8
LEVEL001
 370
13
 100
AcDbLine
   6
CONTINUOUS
  62
5
  10
 1902.7089116874
  20
 1701.2399478831
  30
0.0
  11
 1874.0737655521
  21
 1729.8750940184
  31
0.0
   0
LINE
   5
26A
 100
AcDbEntity
   8
LEVEL001
 370
13
 100
AcDbLine
   6
CONTINUOUS
  62
5
  10
 1882.0287168403
  20
 1737.8300453066
  30
0.0
  11
 1918.6188142638
  21
 1701.2399478831
  31
0.0
   0
LINE
   5
26B
 100
AcDbEntity
   8
LEVEL001
 370
13
 100
AcDbLine
   6
CONTINUOUS
  62
5
  10
 1934.5287168403
  20
 1701.2399478831
  30
0.0
  11
 1889.9836681285
  21
 1745.7849965948
  31
0.0
   0
LINE
   5
26C
 100
AcDbEntity
   8
LEVEL001
 370
13
 100
AcDbLine
   6
CONTINUOUS
  62
5
  10
 1897.9386194168
  20
 1753.7399478831
  30
0.0
  11
 1950.4386194170
  21
 1701.2399478831
  31
0.0
   0
LWPOLYLINE
   5
26D
 100
AcDbEntity
   8
LEVEL001
 370
13
   6
CONTINUOUS
  62
5
 100
AcDbPolyline
  90
4
  70
1
  10
 1142.7089116869
  20
 553.73994788310
  10
 1142.7089116869
  20
 453.73994788310
  10
 1642.7089116869
  20
 453.73994788310
  10
 1642.7089116869
  20
 553.73994788310
   0
LINE
   5
26E
 100
AcDbEntity
   8
LEVEL001
 370
13
 100
AcDbLine
   6
CONTINUOUS
  62
5
  10
 1142.7089116869
  20
 1753.7399478831
  30
0.0
  11
 842.70897692190
  21
 1753.7399478831
  31
0.0
   0
LINE
   5
26F
 100
AcDbEntity
   8
LEVEL001
 370
13
 100
AcDbLine
   6
CONTINUOUS
  62
5
  10
 1642.7089116869
  20
 1753.7399478831
  30
0.0
  11
 1942.7089769219
  21
 1753.7399478831
  31
0.0
   0
LWPOLYLINE
   5
270
 100
AcDbEntity
   8
LEVEL001
 370
13
   6
CONTINUOUS
  62
5
 100
AcDbPolyline
  90
6
  70
0
  10
 1348.1589116869
  20
 1753.7399478831
  10
 1142.7089116869
  20
 1753.7399478831
  10
 1142.7089116869
  20
 553.73994788310
  10
 1642.7089116869
  20
 553.73994788310
  10
 1642.7089116869
  20
 1753.7399478831
  10
 1437.2589116869
  20
 1753.7399478831
   0
CIRCLE
   5
271
 100
AcDbEntity
   8
LEVEL001
 370
13
 100
AcDbCircle
   6
CONTINUOUS
  62
7
  10
 1392.7088778849
  20
 853.73994788310
  30
0.0
  40
 7.5000000000000
   0
LINE
   5
272
 100
AcDbEntity
   8
LEVEL001
 370
13
 100
AcDbLine
   6
DASHDOT
  62
6
  10
 1362.7088778849
  20
 853.73994788310
  30
0.0
  11
 1422.7088778849
  21
 853.73994788310
  31
0.0
   0
CIRCLE
   5
273
 100
AcDbEntity
   8
LEVEL001
 370
13
 100
AcDbCircle
   6
CONTINUOUS
  62
1
  10
 1682.4915672534
  20
 2645.3250875887
  30
0.0
  40
 70.000000000000
   0
MTEXT
   5
275
 100
AcDbEntity
   8
LEVEL001
 370
13
  62
7
 100
AcDbMText
  10
 1682.4915672534
  20
 2645.3250875887
  30
0.0
  40
 66.000000000000
  41
0.0
  71
5
  72
1
   1
\T1.000000;１２
   7
GMM004
  44
 0.79999984000003
   0
LEADER
   5
276
 100
AcDbEntity
   8
LEVEL001
 370
13
   6
CONTINUOUS
  62
1
 100
AcDbLeader
   3
GMM001
  73
3
  74
1
  75
0
  40
 66.000000000000
  41
0.0
  76
2
  10
 1437.2589116869
  20
 2503.7399478831
  30
0.0
  10
 1621.8697889886
  20
 2610.3250875886
  30
0.0
  77
1
   0
DIMENSION
   5
277
 100
AcDbEntity
   8
LEVEL001
 370
13
   6
CONTINUOUS
  62
6
 100
AcDbDimension
   2
*D19
  10
 1642.7089116869
  20
 253.73994788310
  30
0.0
  11
 1392.7089116869
  21
 253.73994788310
  31
0.0
  70
0
   3
GMM008
 100
AcDbAlignedDimension
  13
 1142.7089116869
  23
 453.73994788310
  33
0.0
  14
 1642.7089116869
  24
 453.73994788310
  34
0.0
 100
AcDbRotatedDimension
   0
LINE
   5
278
 100
AcDbEntity
   8
LEVEL001
 370
13
 100
AcDbLine
   6
CONTINUOUS
  62
5
  10
 1642.7089116869
  20
 1439.0952869425
  30
0.0
  11
 1437.2589116869
  21
 1233.6452869425
  31
0.0
   0
LINE
   5
279
 100
AcDbEntity
   8
LEVEL001
 370
13
 100
AcDbLine
   6
CONTINUOUS
  62
5
  10
 1437.2589116869
  20
 1198.2899478831
  30
0.0
  11
 1642.7089116869
  21
 1403.7399478831
  31
0.0
   0
LINE
   5
27A
 100
AcDbEntity
   8
LEVEL001
 370
13
 100
AcDbLine
   6
CONTINUOUS
  62
5
  10
 1642.7089116869
  20
 1368.3846088238
  30
0.0
  11
 1437.2589116869
  21
 1162.9346088238
  31
0.0
   0
LINE
   5
27B
 100
AcDbEntity
   8
LEVEL001
 370
13
 100
AcDbLine
   6
CONTINUOUS
  62
5
  10
 1348.1589116869
  20
 1144.5452869425
  30
0.0
  11
 1142.7089116869
  21
 939.09528694247
  31
0.0
   0
LINE
   5
27C
 100
AcDbEntity
   8
LEVEL001
 370
13
 100
AcDbLine
   6
CONTINUOUS
  62
5
  10
 1142.7089116869
  20
 903.73994788314
  30
0.0
  11
 1348.1589116869
  21
 1109.1899478831
  31
0.0
   0
LINE
   5
27D
 100
AcDbEntity
   8
LEVEL001
 370
13
 100
AcDbLine
   6
CONTINUOUS
  62
5
  10
 1348.1589116869
  20
 1073.8346088238
  30
0.0
  11
 1142.7089116869
  21
 868.38460882381
  31
0.0
   0
LWPOLYLINE
   5
27E
 100
AcDbEntity
   8
LEVEL001
 370
13
   6
CONTINUOUS
  62
7
 100
AcDbPolyline
  90
4
  70
0
  10
 2698.1589116869
  20
 861.23994788310
  10
 2626.3088936013
  20
 861.23994788310
  10
 2626.3088936013
  20
 846.23994788310
  10
 2698.1589116869
  20
 846.23994788310
   0
LWPOLYLINE
   5
27F
 100
AcDbEntity
   8
LEVEL001
 370
13
   6
CONTINUOUS
  62
7
 100
AcDbPolyline
  90
4
  70
0
  10
 2787.2589116869
  20
 861.23994788310
  10
 2859.1088936013
  20
 861.23994788310
  10
 2859.1088936013
  20
 846.23994788310
  10
 2787.2589116869
  20
 846.23994788310
   0
LINE
   5
280
 100
AcDbEntity
   8
LEVEL002
 370
13
 100
AcDbLine
   6
CONTINUOUS
  62
5
  10
 2642.7089116869
  20
 553.73994788310
  30
0.0
  11
 2592.7089116869
  21
 453.73994788310
  31
0.0
   0
LINE
   5
281
 100
AcDbEntity
   8
LEVEL002
 370
13
 100
AcDbLine
   6
CONTINUOUS
  62
5
  10
 2592.7089116869
  20
 553.73994788310
  30
0.0
  11
 2632.7089116869
  21
 533.73994788310
  31
0.0
   0
LINE
   5
282
 100
AcDbEntity
   8
LEVEL002
 370
13
 100
AcDbLine
   6
CONTINUOUS
  62
5
  10
 2592.7089116869
  20
 553.73994788310
  30
0.0
  11
 2542.7089116869
  21
 453.73994788310
  31
0.0
   0
LINE
   5
283
 100
AcDbEntity
   8
LEVEL002
 370
13
 100
AcDbLine
   6
CONTINUOUS
  62
5
  10
 2542.7089116869
  20
 553.73994788310
  30
0.0
  11
 2582.7089116869
  21
 533.73994788310
  31
0.0
   0
LINE
   5
284
 100
AcDbEntity
   8
LEVEL002
 370
13
 100
AcDbLine
   6
CONTINUOUS
  62
5
  10
 2542.7089116869
  20
 553.73994788310
  30
0.0
  11
 2492.7089116869
  21
 453.73994788310
  31
0.0
   0
LINE
   5
285
 100
AcDbEntity
   8
LEVEL002
 370
13
 100
AcDbLine
   6
CONTINUOUS
  62
5
  10
 2492.7089116869
  20
 553.73994788310
  30
0.0
  11
 2532.7089116869
  21
 533.73994788310
  31
0.0
   0
LINE
   5
286
 100
AcDbEntity
   8
LEVEL002
 370
13
 100
AcDbLine
   6
CONTINUOUS
  62
5
  10
 2642.7089116869
  20
 453.73994788310
  30
0.0
  11
 2602.7089116869
  21
 473.73994788310
  31
0.0
   0
LINE
   5
287
 100
AcDbEntity
   8
LEVEL002
 370
13
 100
AcDbLine
   6
CONTINUOUS
  62
5
  10
 2592.7089116869
  20
 453.73994788310
  30
0.0
  11
 2552.7089116869
  21
 473.73994788310
  31
0.0
   0
LINE
   5
288
 100
AcDbEntity
   8
LEVEL002
 370
13
 100
AcDbLine
   6
CONTINUOUS
  62
5
  10
 2542.7089116869
  20
 453.73994788310
  30
0.0
  11
 2502.7089116869
  21
 473.73994788310
  31
0.0
   0
LINE
   5
289
 100
AcDbEntity
   8
LEVEL002
 370
13
 100
AcDbLine
   6
CONTINUOUS
  62
5
  10
 2337.7089116868
  20
 1701.2399478831
  30
0.0
  11
 2390.2089116868
  21
 1753.7399478831
  31
0.0
   0
LINE
   5
28A
 100
AcDbEntity
   8
LEVEL002
 370
13
 100
AcDbLine
   6
CONTINUOUS
  62
5
  10
 2321.7990091099
  20
 1717.1498504599
  30
0.0
  11
 2358.3891065331
  21
 1753.7399478831
  31
0.0
   0
LINE
   5
28B
 100
AcDbEntity
   8
LEVEL002
 370
13
 100
AcDbLine
   6
CONTINUOUS
  62
5
  10
 2374.2990091107
  20
 1753.7399478831
  30
0.0
  11
 2329.7539603987
  21
 1709.1948991711
  31
0.0
   0
LINE
   5
28C
 100
AcDbEntity
   8
LEVEL002
 370
13
 100
AcDbLine
   6
CONTINUOUS
  62
5
  10
 2394.9792039573
  20
 1701.2399478831
  30
0.0
  11
 2366.3440578221
  21
 1729.8750940184
  31
0.0
   0
LINE
   5
28D
 100
AcDbEntity
   8
LEVEL002
 370
13
 100
AcDbLine
   6
CONTINUOUS
  62
5
  10
 2374.2990091103
  20
 1737.8300453066
  30
0.0
  11
 2410.8891065338
  21
 1701.2399478831
  31
0.0
   0
LINE
   5
28E
 100
AcDbEntity
   8
LEVEL002
 370
13
 100
AcDbLine
   6
CONTINUOUS
  62
5
  10
 2426.7990091102
  20
 1701.2399478831
  30
0.0
  11
 2382.2539603985
  21
 1745.7849965948
  31
0.0
   0
LINE
   5
28F
 100
AcDbEntity
   8
LEVEL002
 370
13
 100
AcDbLine
   6
CONTINUOUS
  62
5
  10
 2390.2089116868
  20
 1753.7399478831
  30
0.0
  11
 2442.7089116869
  21
 1701.2399478831
  31
0.0
   0
LINE
   5
290
 100
AcDbEntity
   8
LEVEL002
 370
13
 100
AcDbLine
   6
CONTINUOUS
  62
5
  10
 2237.4792039569
  20
 1753.7399478831
  30
0.0
  11
 2184.9792039569
  21
 1701.2399478831
  31
0.0
   0
LINE
   5
291
 100
AcDbEntity
   8
LEVEL002
 370
13
 100
AcDbLine
   6
CONTINUOUS
  62
5
  10
 2200.8891065329
  20
 1701.2399478831
  30
0.0
  11
 2253.3891065329
  21
 1753.7399478831
  31
0.0
   0
LINE
   5
292
 100
AcDbEntity
   8
LEVEL002
 370
13
 100
AcDbLine
   6
CONTINUOUS
  62
5
  10
 2269.2990091105
  20
 1753.7399478831
  30
0.0
  11
 2216.7990091105
  21
 1701.2399478831
  31
0.0
   0
LINE
   5
293
 100
AcDbEntity
   8
LEVEL002
 370
13
 100
AcDbLine
   6
CONTINUOUS
  62
5
  10
 2232.7089116866
  20
 1701.2399478831
  30
0.0
  11
 2285.2089116866
  21
 1753.7399478831
  31
0.0
   0
LINE
   5
294
 100
AcDbEntity
   8
LEVEL002
 370
13
 100
AcDbLine
   6
CONTINUOUS
  62
5
  10
 2289.9792039572
  20
 1701.2399478831
  30
0.0
  11
 2261.3440578219
  21
 1729.8750940184
  31
0.0
   0
LINE
   5
295
 100
AcDbEntity
   8
LEVEL002
 370
13
 100
AcDbLine
   6
CONTINUOUS
  62
5
  10
 2269.2990091101
  20
 1737.8300453066
  30
0.0
  11
 2305.8891065336
  21
 1701.2399478831
  31
0.0
   0
LINE
   5
296
 100
AcDbEntity
   8
LEVEL002
 370
13
 100
AcDbLine
   6
CONTINUOUS
  62
5
  10
 2321.7990091100
  20
 1701.2399478831
  30
0.0
  11
 2277.2539603983
  21
 1745.7849965948
  31
0.0
   0
LINE
   5
297
 100
AcDbEntity
   8
LEVEL002
 370
13
 100
AcDbLine
   6
CONTINUOUS
  62
5
  10
 2285.2089116866
  20
 1753.7399478831
  30
0.0
  11
 2337.7089116868
  21
 1701.2399478831
  31
0.0
   0
LINE
   5
298
 100
AcDbEntity
   8
LEVEL002
 370
13
 100
AcDbLine
   6
CONTINUOUS
  62
5
  10
 2342.4792039571
  20
 1753.7399478831
  30
0.0
  11
 2313.8440578219
  21
 1725.1048017479
  31
0.0
   0
LINE
   5
299
 100
AcDbEntity
   8
LEVEL002
 370
13
 100
AcDbLine
   6
CONTINUOUS
  62
5
  10
 2992.7089116869
  20
 553.73994788310
  30
0.0
  11
 2942.7089116869
  21
 453.73994788310
  31
0.0
   0
LINE
   5
29A
 100
AcDbEntity
   8
LEVEL002
 370
13
 100
AcDbLine
   6
CONTINUOUS
  62
5
  10
 2942.7089116869
  20
 553.73994788310
  30
0.0
  11
 2982.7089116869
  21
 533.73994788310
  31
0.0
   0
LINE
   5
29B
 100
AcDbEntity
   8
LEVEL002
 370
13
 100
AcDbLine
   6
CONTINUOUS
  62
5
  10
 2942.7089116869
  20
 553.73994788310
  30
0.0
  11
 2892.7089116869
  21
 453.73994788310
  31
0.0
   0
LINE
   5
29C
 100
AcDbEntity
   8
LEVEL002
 370
13
 100
AcDbLine
   6
CONTINUOUS
  62
5
  10
 2892.7089116869
  20
 553.73994788310
  30
0.0
  11
 2932.7089116869
  21
 533.73994788310
  31
0.0
   0
LINE
   5
29D
 100
AcDbEntity
   8
LEVEL002
 370
13
 100
AcDbLine
   6
CONTINUOUS
  62
5
  10
 2892.7089116869
  20
 553.73994788310
  30
0.0
  11
 2842.7089116869
  21
 453.73994788310
  31
0.0
   0
LINE
   5
29E
 100
AcDbEntity
   8
LEVEL002
 370
13
 100
AcDbLine
   6
CONTINUOUS
  62
5
  10
 2842.7089116869
  20
 553.73994788310
  30
0.0
  11
 2882.7089116869
  21
 533.73994788310
  31
0.0
   0
LINE
   5
29F
 100
AcDbEntity
   8
LEVEL002
 370
13
 100
AcDbLine
   6
CONTINUOUS
  62
5
  10
 2992.7089116869
  20
 453.73994788310
  30
0.0
  11
 2952.7089116869
  21
 473.73994788310
  31
0.0
   0
LINE
   5
2A0
 100
AcDbEntity
   8
LEVEL002
 370
13
 100
AcDbLine
   6
CONTINUOUS
  62
5
  10
 2942.7089116869
  20
 453.73994788310
  30
0.0
  11
 2902.7089116869
  21
 473.73994788310
  31
0.0
   0
LINE
   5
2A1
 100
AcDbEntity
   8
LEVEL002
 370
13
 100
AcDbLine
   6
CONTINUOUS
  62
5
  10
 2892.7089116869
  20
 453.73994788310
  30
0.0
  11
 2852.7089116869
  21
 473.73994788310
  31
0.0
   0
LINE
   5
2A2
 100
AcDbEntity
   8
LEVEL002
 370
13
 100
AcDbLine
   6
CONTINUOUS
  62
5
  10
 3095.2089116869
  20
 1753.7399478831
  30
0.0
  11
 3042.7089116869
  21
 1701.2399478831
  31
0.0
   0
LINE
   5
2A3
 100
AcDbEntity
   8
LEVEL002
 370
13
 100
AcDbLine
   6
CONTINUOUS
  62
5
  10
 3058.6188142630
  20
 1701.2399478831
  30
0.0
  11
 3111.1188142630
  21
 1753.7399478831
  31
0.0
   0
LINE
   5
2A4
 100
AcDbEntity
   8
LEVEL002
 370
13
 100
AcDbLine
   6
CONTINUOUS
  62
5
  10
 3127.0287168406
  20
 1753.7399478831
  30
0.0
  11
 3074.5287168406
  21
 1701.2399478831
  31
0.0
   0
LINE
   5
2A5
 100
AcDbEntity
   8
LEVEL002
 370
13
 100
AcDbLine
   6
CONTINUOUS
  62
5
  10
 3090.4386194166
  20
 1701.2399478831
  30
0.0
  11
 3142.9386194166
  21
 1753.7399478831
  31
0.0
   0
LINE
   5
2A6
 100
AcDbEntity
   8
LEVEL002
 370
13
 100
AcDbLine
   6
CONTINUOUS
  62
5
  10
 3147.7089116872
  20
 1701.2399478831
  30
0.0
  11
 3119.0737655519
  21
 1729.8750940184
  31
0.0
   0
LINE
   5
2A7
 100
AcDbEntity
   8
LEVEL002
 370
13
 100
AcDbLine
   6
CONTINUOUS
  62
5
  10
 3127.0287168401
  20
 1737.8300453066
  30
0.0
  11
 3163.6188142636
  21
 1701.2399478831
  31
0.0
   0
LINE
   5
2A8
 100
AcDbEntity
   8
LEVEL002
 370
13
 100
AcDbLine
   6
CONTINUOUS
  62
5
  10
 3179.5287168401
  20
 1701.2399478831
  30
0.0
  11
 3134.9836681284
  21
 1745.7849965948
  31
0.0
   0
LINE
   5
2A9
 100
AcDbEntity
   8
LEVEL002
 370
13
 100
AcDbLine
   6
CONTINUOUS
  62
5
  10
 3142.9386194166
  20
 1753.7399478831
  30
0.0
  11
 3195.4386194168
  21
 1701.2399478831
  31
0.0
   0
LINE
   5
2AA
 100
AcDbEntity
   8
LEVEL002
 370
13
 100
AcDbLine
   6
CONTINUOUS
  62
5
  10
 3195.4386194168
  20
 1701.2399478831
  30
0.0
  11
 3247.9386194168
  21
 1753.7399478831
  31
0.0
   0
LINE
   5
2AB
 100
AcDbEntity
   8
LEVEL002
 370
13
 100
AcDbLine
   6
CONTINUOUS
  62
5
  10
 3200.2089116871
  20
 1753.7399478831
  30
0.0
  11
 3171.5737655519
  21
 1725.1048017479
  31
0.0
   0
LINE
   5
2AC
 100
AcDbEntity
   8
LEVEL002
 370
13
 100
AcDbLine
   6
CONTINUOUS
  62
5
  10
 3179.5287168400
  20
 1717.1498504599
  30
0.0
  11
 3216.1188142632
  21
 1753.7399478831
  31
0.0
   0
LINE
   5
2AD
 100
AcDbEntity
   8
LEVEL002
 370
13
 100
AcDbLine
   6
CONTINUOUS
  62
5
  10
 3232.0287168408
  20
 1753.7399478831
  30
0.0
  11
 3187.4836681288
  21
 1709.1948991711
  31
0.0
   0
LINE
   5
2AE
 100
AcDbEntity
   8
LEVEL002
 370
13
 100
AcDbLine
   6
CONTINUOUS
  62
5
  10
 3252.7089116874
  20
 1701.2399478831
  30
0.0
  11
 3224.0737655521
  21
 1729.8750940184
  31
0.0
   0
LINE
   5
2AF
 100
AcDbEntity
   8
LEVEL002
 370
13
 100
AcDbLine
   6
CONTINUOUS
  62
5
  10
 3232.0287168403
  20
 1737.8300453066
  30
0.0
  11
 3268.6188142638
  21
 1701.2399478831
  31
0.0
   0
LINE
   5
2B0
 100
AcDbEntity
   8
LEVEL002
 370
13
 100
AcDbLine
   6
CONTINUOUS
  62
5
  10
 3284.5287168403
  20
 1701.2399478831
  30
0.0
  11
 3239.9836681285
  21
 1745.7849965948
  31
0.0
   0
LINE
   5
2B1
 100
AcDbEntity
   8
LEVEL002
 370
13
 100
AcDbLine
   6
CONTINUOUS
  62
5
  10
 3247.9386194168
  20
 1753.7399478831
  30
0.0
  11
 3300.4386194170
  21
 1701.2399478831
  31
0.0
   0
LWPOLYLINE
   5
2B2
 100
AcDbEntity
   8
LEVEL002
 370
13
   6
CONTINUOUS
  62
5
 100
AcDbPolyline
  90
4
  70
1
  10
 2492.7089116869
  20
 553.73994788310
  10
 2492.7089116869
  20
 453.73994788310
  10
 2992.7089116869
  20
 453.73994788310
  10
 2992.7089116869
  20
 553.73994788310
   0
LINE
   5
2B3
 100
AcDbEntity
   8
LEVEL002
 370
13
 100
AcDbLine
   6
CONTINUOUS
  62
5
  10
 2492.7089116869
  20
 1753.7399478831
  30
0.0
  11
 2192.7089769219
  21
 1753.7399478831
  31
0.0
   0
LINE
   5
2B4
 100
AcDbEntity
   8
LEVEL002
 370
13
 100
AcDbLine
   6
CONTINUOUS
  62
5
  10
 2992.7089116869
  20
 1753.7399478831
  30
0.0
  11
 3292.7089769219
  21
 1753.7399478831
  31
0.0
   0
MTEXT
   5
2B6
 100
AcDbEntity
   8
LEVEL001
 370
13
  62
1
 100
AcDbMText
  10
 2313.3575821314
  20
 1762.4698849234
  30
0.0
  40
 40.000000000000
  41
0.0
  71
7
  72
1
   1
\T1.000000;ＧＬ
   7
GMM005
  44
 0.79999984000003
   0
LWPOLYLINE
   5
2B7
 100
AcDbEntity
   8
LEVEL001
 370
13
   6
CONTINUOUS
  62
1
 100
AcDbPolyline
  90
3
  70
1
  10
 2285.2089116866
  20
 1753.7399478831
  10
 2260.2089116866
  20
 1803.7399478831
  10
 2310.2089116866
  20
 1803.7399478831
   0
CIRCLE
   5
2B8
 100
AcDbEntity
   8
LEVEL001
 370
13
 100
AcDbCircle
   6
CONTINUOUS
  62
1
  10
 2367.7089116869
  20
 753.73994788310
  30
0.0
  40
 70.000000000000
   0
MTEXT
   5
2BA
 100
AcDbEntity
   8
LEVEL001
 370
13
  62
7
 100
AcDbMText
  10
 2367.7089116869
  20
 753.73994788310
  30
0.0
  40
 66.000000000000
  41
0.0
  71
5
  72
1
   1
\T1.000000;１３
   7
GMM004
  44
 0.79999984000003
   0
LEADER
   5
2BB
 100
AcDbEntity
   8
LEVEL001
 370
13
   6
CONTINUOUS
  62
1
 100
AcDbLeader
   3
GMM009
  73
3
  74
1
  75
0
  40
 66.000000000000
  41
0.0
  76
2
  10
 2626.3088936013
  20
 846.23994788310
  30
0.0
  10
 2433.6193043106
  20
 777.31578602721
  30
0.0
  77
1
   0
DIMENSION
   5
2BC
 100
AcDbEntity
   8
LEVEL001
 370
13
   6
CONTINUOUS
  62
6
 100
AcDbDimension
   2
*D21
  10
 2992.7089116869
  20
 253.73994788310
  30
0.0
  11
 2742.7089116869
  21
 253.73994788310
  31
0.0
  70
0
   3
GMM010
 100
AcDbAlignedDimension
  13
 2492.7089116869
  23
 453.73994788310
  33
0.0
  14
 2992.7089116869
  24
 453.73994788310
  34
0.0
 100
AcDbRotatedDimension
   0
LINE
   5
2BD
 100
AcDbEntity
   8
LEVEL001
 370
13
 100
AcDbLine
   6
CONTINUOUS
  62
5
  10
 2992.7089116869
  20
 1439.0952869425
  30
0.0
  11
 2787.2589116869
  21
 1233.6452869425
  31
0.0
   0
LINE
   5
2BE
 100
AcDbEntity
   8
LEVEL001
 370
13
 100
AcDbLine
   6
CONTINUOUS
  62
5
  10
 2787.2589116869
  20
 1198.2899478831
  30
0.0
  11
 2992.7089116869
  21
 1403.7399478831
  31
0.0
   0
LINE
   5
2BF
 100
AcDbEntity
   8
LEVEL001
 370
13
 100
AcDbLine
   6
CONTINUOUS
  62
5
  10
 2992.7089116869
  20
 1368.3846088238
  30
0.0
  11
 2787.2589116869
  21
 1162.9346088238
  31
0.0
   0
LINE
   5
2C0
 100
AcDbEntity
   8
LEVEL001
 370
13
 100
AcDbLine
   6
CONTINUOUS
  62
5
  10
 2698.1589116869
  20
 1144.5452869425
  30
0.0
  11
 2492.7089116869
  21
 939.09528694247
  31
0.0
   0
LINE
   5
2C1
 100
AcDbEntity
   8
LEVEL001
 370
13
 100
AcDbLine
   6
CONTINUOUS
  62
5
  10
 2492.7089116869
  20
 903.73994788314
  30
0.0
  11
 2698.1589116869
  21
 1109.1899478831
  31
0.0
   0
LINE
   5
2C2
 100
AcDbEntity
   8
LEVEL001
 370
13
 100
AcDbLine
   6
CONTINUOUS
  62
5
  10
 2698.1589116869
  20
 1073.8346088238
  30
0.0
  11
 2492.7089116869
  21
 868.38460882381
  31
0.0
   0
CIRCLE
   5
2C3
 100
AcDbEntity
   8
LEVEL001
 370
13
 100
AcDbCircle
   6
CONTINUOUS
  62
7
  10
 2742.7089116869
  20
 953.73994788310
  30
0.0
  40
 7.5000000000000
   0
LINE
   5
2C4
 100
AcDbEntity
   8
LEVEL001
 370
13
 100
AcDbLine
   6
DASHDOT
  62
6
  10
 2712.7089116869
  20
 953.73994788310
  30
0.0
  11
 2772.7089116869
  21
 953.73994788310
  31
0.0
   0
LINE
   5
2C5
 100
AcDbEntity
   8
LEVEL001
 370
13
 100
AcDbLine
   6
DASHDOT
  62
6
  10
 2676.3089116869
  20
 853.73994788310
  30
0.0
  11
 2809.1089116869
  21
 853.73994788310
  31
0.0
   0
ARC
   5
2C6
 100
AcDbEntity
   8
LEVEL001
 370
13
   6
CONTINUOUS
  62
7
 100
AcDbCircle
  10
 3187.2589116869
  20
 3197.8002279452
  30
0.0
  40
 400.00000000000
 100
AcDbArc
  50
 141.34019174591
  51
 180.00000000000
   0
ARC
   5
2C7
 100
AcDbEntity
   8
LEVEL001
 370
13
   6
DASHDOT
  62
6
 100
AcDbCircle
  10
 3187.2589116869
  20
 3197.8002279454
  30
0.0
  40
 444.55000000000
 100
AcDbArc
  50
 141.34019174591
  51
 180.00000000000
   0
ARC
   5
2C8
 100
AcDbEntity
   8
LEVEL001
 370
13
   6
CONTINUOUS
  62
7
 100
AcDbCircle
  10
 3187.2589116869
  20
 3197.8002279452
  30
0.0
  40
 489.10000000000
 100
AcDbArc
  50
 141.34019174591
  51
 180.00000000000
   0
LINE
   5
2C9
 100
AcDbEntity
   8
LEVEL001
 370
13
 100
AcDbLine
   6
CONTINUOUS
  62
7
  10
 3010.5064354642
  20
 3759.8016487988
  30
0.0
  11
 2805.3359769884
  21
 3503.3385757041
  31
0.0
   0
LINE
   5
2CA
 100
AcDbEntity
   8
LEVEL001
 370
13
 100
AcDbLine
   6
DASHDOT
  62
6
  10
 3045.2941409248
  20
 3731.9714844305
  30
0.0
  11
 2840.1236824490
  21
 3475.5084113357
  31
0.0
   0
LINE
   5
2CB
 100
AcDbEntity
   8
LEVEL001
 370
13
 100
AcDbLine
   6
CONTINUOUS
  62
7
  10
 2874.9113879097
  20
 3447.6782469670
  30
0.0
  11
 3080.0818463855
  21
 3704.1413200617
  31
0.0
   0
CIRCLE
   5
2CC
 100
AcDbEntity
   8
LEVEL001
 370
13
 100
AcDbCircle
   6
CONTINUOUS
  62
1
  10
 3401.0411642401
  20
 3046.9623002626
  30
0.0
  40
 70.000000000000
   0
CIRCLE
   5
2CD
 100
AcDbEntity
   8
LEVEL001
 370
13
 100
AcDbCircle
   6
CONTINUOUS
  62
1
  10
 3541.0411642401
  20
 3046.9623002626
  30
0.0
  40
 70.000000000000
   0
MTEXT
   5
2CF
 100
AcDbEntity
   8
LEVEL001
 370
13
  62
7
 100
AcDbMText
  10
 3541.0411642401
  20
 3046.9623002626
  30
0.0
  40
 66.000000000000
  41
0.0
  71
5
  72
1
   1
\T1.000000;１７
   7
GMM004
  44
 0.79999984000003
   0
MTEXT
   5
2D1
 100
AcDbEntity
   8
LEVEL001
 370
13
  62
7
 100
AcDbMText
  10
 3401.0411642401
  20
 3046.9623002626
  30
0.0
  40
 66.000000000000
  41
0.0
  71
5
  72
1
   1
\T1.000000;１６
   7
GMM004
  44
 0.79999984000003
   0
CIRCLE
   5
2D2
 100
AcDbEntity
   8
LEVEL001
 370
13
 100
AcDbCircle
   6
CONTINUOUS
  62
1
  10
 1682.4915672534
  20
 3046.9623002626
  30
0.0
  40
 70.000000000000
   0
MTEXT
   5
2D4
 100
AcDbEntity
   8
LEVEL001
 370
13
  62
7
 100
AcDbMText
  10
 1682.4915672534
  20
 3046.9623002626
  30
0.0
  40
 66.000000000000
  41
0.0
  71
5
  72
1
   1
\T1.000000;１５
   7
GMM004
  44
 0.79999984000003
   0
LWPOLYLINE
   5
2D5
 100
AcDbEntity
   8
LEVEL001
 370
13
   6
CONTINUOUS
  62
5
 100
AcDbPolyline
  90
7
  70
1
  10
 1392.7089116871
  20
 3339.3002279460
  10
 1356.4089127689
  20
 3293.1002293229
  10
 1376.2089121788
  20
 3293.1002293229
  10
 1376.2089121788
  20
 3273.3002299130
  10
 1409.2089111954
  20
 3273.3002299130
  10
 1409.2089111954
  20
 3293.1002293229
  10
 1429.0089106053
  20
 3293.1002293229
   0
ARC
   5
2D6
 100
AcDbEntity
   8
LEVEL001
 370
13
   6
CONTINUOUS
  62
7
 100
AcDbCircle
  10
 1447.7089116871
  20
 3359.3002279460
  30
0.0
  40
 20.000000000000
 100
AcDbArc
  50
0.0
  51
 90.000000000000
   0
ARC
   5
2D7
 100
AcDbEntity
   8
LEVEL001
 370
13
   6
CONTINUOUS
  62
7
 100
AcDbCircle
  10
 1337.7089116871
  20
 3359.3002279460
  30
0.0
  40
 20.000000000000
 100
AcDbArc
  50
 90.000000000000
  51
 180.00000000000
   0
LINE
   5
2D8
 100
AcDbEntity
   8
LEVEL001
 370
13
 100
AcDbLine
   6
CONTINUOUS
  62
7
  10
 1317.7089116871
  20
 3359.3002279460
  30
0.0
  11
 1317.7089116871
  21
 2999.3002279460
  31
0.0
   0
LINE
   5
2D9
 100
AcDbEntity
   8
LEVEL001
 370
13
 100
AcDbLine
   6
CONTINUOUS
  62
7
  10
 1467.7089116871
  20
 2999.3002279460
  30
0.0
  11
 1467.7089116871
  21
 3359.3002279460
  31
0.0
   0
LINE
   5
2DA
 100
AcDbEntity
   8
LEVEL001
 370
13
 100
AcDbLine
   6
CONTINUOUS
  62
7
  10
 1447.7089116871
  20
 3379.3002279460
  30
0.0
  11
 1337.7089116871
  21
 3379.3002279460
  31
0.0
   0
LINE
   5
2DB
 100
AcDbEntity
   8
LEVEL001
 370
13
 100
AcDbLine
   6
CONTINUOUS
  62
7
  10
 1337.7089116871
  20
 2979.3002279460
  30
0.0
  11
 1447.7089116871
  21
 2979.3002279460
  31
0.0
   0
ARC
   5
2DC
 100
AcDbEntity
   8
LEVEL001
 370
13
   6
CONTINUOUS
  62
7
 100
AcDbCircle
  10
 1337.7089116871
  20
 2999.3002279460
  30
0.0
  40
 20.000000000000
 100
AcDbArc
  50
 180.00000000000
  51
 270.00000000000
   0
ARC
   5
2DD
 100
AcDbEntity
   8
LEVEL001
 370
13
   6
CONTINUOUS
  62
7
 100
AcDbCircle
  10
 1447.7089116871
  20
 2999.3002279460
  30
0.0
  40
 20.000000000000
 100
AcDbArc
  50
 270.00000000000
  51
 360.00000000000
   0
LEADER
   5
2DE
 100
AcDbEntity
   8
LEVEL001
 370
13
   6
CONTINUOUS
  62
1
 100
AcDbLeader
   3
GMM011
  73
3
  74
1
  75
0
  40
 66.000000000000
  41
0.0
  76
2
  10
 1467.7089116871
  20
 3179.3002279460
  30
0.0
  10
 1622.8958037473
  20
 3083.6821174206
  30
0.0
  77
1
   0
LINE
   5
2DF
 100
AcDbEntity
   8
LEVEL001
 370
13
 100
AcDbLine
   6
CONTINUOUS
  62
6
  10
 2786.4857207745
  20
 3185.8002279452
  30
0.0
  11
 2700.4049268992
  21
 3185.8002279452
  31
0.0
   0
LINE
   5
2E0
 100
AcDbEntity
   8
LEVEL001
 370
13
 100
AcDbLine
   6
CONTINUOUS
  62
6
  10
 2700.4049268992
  20
 3172.8002279452
  30
0.0
  11
 2786.4857207745
  21
 3172.8002279452
  31
0.0
   0
LWPOLYLINE
   5
2E1
 100
AcDbEntity
   8
LEVEL001
 370
13
   6
CONTINUOUS
  62
7
 100
AcDbPolyline
  90
4
  70
0
  10
 2690.1136290670
  20
 3160.8002279452
  10
 2807.6577197749
  20
 3160.8002279452
  10
 2807.6577197749
  20
 3197.8002279452
  10
 2690.1132257979
  20
 3197.8002279452
   0
LINE
   5
2E2
 100
AcDbEntity
   8
LEVEL001
 370
13
 100
AcDbLine
   6
CONTINUOUS
  62
6
  10
 2786.4857207745
  20
 3162.8002279452
  30
0.0
  11
 2786.4857207745
  21
 3171.8002279452
  31
0.0
   0
LINE
   5
2E3
 100
AcDbEntity
   8
LEVEL001
 370
13
 100
AcDbLine
   6
CONTINUOUS
  62
6
  10
 2786.4857207745
  20
 3186.8002279452
  30
0.0
  11
 2786.4857207745
  21
 3195.8002279452
  31
0.0
   0
LINE
   5
2E4
 100
AcDbEntity
   8
LEVEL001
 370
13
 100
AcDbLine
   6
CONTINUOUS
  62
6
  10
 2788.8042458158
  20
 3172.8002279452
  30
0.0
  11
 2788.8042458158
  21
 3185.8002279452
  31
0.0
   0
LWPOLYLINE
   5
2E5
 100
AcDbEntity
   8
LEVEL001
 370
13
   6
CONTINUOUS
  62
7
 100
AcDbPolyline
  90
4
  70
1
  10
 2792.6577197749
  20
 3174.3002279452
  10
 2802.6577197749
  20
 3174.3002279452
  10
 2802.6577197749
  20
 3184.3002279452
  10
 2792.6577197749
  20
 3184.3002279452
   0
LINE
   5
2E6
 100
AcDbEntity
   8
LEVEL001
 370
13
 100
AcDbLine
   6
CONTINUOUS
  62
6
  10
 2699.1440323296
  20
 3173.8002279452
  30
0.0
  11
 2699.1440323296
  21
 3184.8002279452
  31
0.0
   0
LINE
   5
2E7
 100
AcDbEntity
   8
LEVEL001
 370
13
 100
AcDbLine
   6
CONTINUOUS
  62
6
  10
 2699.1440323296
  20
 3186.8002279452
  30
0.0
  11
 2699.1440323296
  21
 3195.8002279452
  31
0.0
   0
LINE
   5
2E8
 100
AcDbEntity
   8
LEVEL001
 370
13
 100
AcDbLine
   6
CONTINUOUS
  62
6
  10
 2699.1440323296
  20
 3162.8002279452
  30
0.0
  11
 2699.1440323296
  21
 3171.8002279452
  31
0.0
   0
LINE
   5
2E9
 100
AcDbEntity
   8
LEVEL001
 370
13
 100
AcDbLine
   6
CONTINUOUS
  62
7
  10
 2685.7292430840
  20
 3379.3002279460
  30
0.0
  11
 2683.0153363205
  21
 3372.5154610372
  31
0.0
   0
ARC
   5
2EA
 100
AcDbEntity
   8
LEVEL001
 370
13
   6
CONTINUOUS
  62
7
 100
AcDbCircle
  10
 2687.6577197749
  20
 3370.6585076554
  30
0.0
  40
 5.0000000000000
 100
AcDbArc
  50
 158.19859051364
  51
 180.00000000000
   0
ARC
   5
2EB
 100
AcDbEntity
   8
LEVEL001
 370
13
   6
CONTINUOUS
  62
7
 100
AcDbCircle
  10
 2681.6577197749
  20
 3363.4525814869
  30
0.0
  40
 5.0000000000000
 100
AcDbArc
  50
 0.26055103950549E-10
  51
 21.801409486384
   0
LINE
   5
2EC
 100
AcDbEntity
   8
LEVEL001
 370
13
 100
AcDbLine
   6
CONTINUOUS
  62
7
  10
 2684.4978323746
  20
 3369.8152120054
  30
0.0
  11
 2686.3001032293
  21
 3365.3095348687
  31
0.0
   0
ARC
   5
2ED
 100
AcDbEntity
   8
LEVEL001
 370
13
   6
CONTINUOUS
  62
7
 100
AcDbCircle
  10
 2689.1402158291
  20
 3371.6721653872
  30
0.0
  40
 5.0000000000000
 100
AcDbArc
  50
 158.19859051366
  51
 201.80140948634
   0
LWPOLYLINE
   5
2EE
 100
AcDbEntity
   8
LEVEL001
 370
13
   6
CONTINUOUS
  62
7
 100
AcDbPolyline
  90
3
  70
0
  10
 2685.7292430840
  20
 3379.3002279460
  10
 2686.6577197749
  20
 3378.9288372697
  10
 2684.4978323746
  20
 3373.5291187690
   0
LINE
   5
2EF
 100
AcDbEntity
   8
LEVEL001
 370
13
 100
AcDbLine
   6
CONTINUOUS
  62
7
  10
 2682.6577197749
  20
 3370.6585076554
  30
0.0
  11
 2682.6577197749
  21
 2987.9419482350
  31
0.0
   0
LINE
   5
2F0
 100
AcDbEntity
   8
LEVEL001
 370
13
 100
AcDbLine
   6
CONTINUOUS
  62
7
  10
 2686.6577197749
  20
 3363.4525814869
  30
0.0
  11
 2686.6577197749
  21
 2995.1478744035
  31
0.0
   0
LINE
   5
2F1
 100
AcDbEntity
   8
LEVEL001
 370
13
 100
AcDbLine
   6
CONTINUOUS
  62
6
  10
 2689.6577197749
  20
 3214.3002887034
  30
0.0
  11
 2689.6577197749
  21
 3215.3002276643
  31
0.0
   0
LINE
   5
2F2
 100
AcDbEntity
   8
LEVEL001
 370
13
 100
AcDbLine
   6
CONTINUOUS
  62
7
  10
 2689.6577197749
  20
 3215.3002276643
  30
0.0
  11
 2686.6577197749
  21
 3215.3002276643
  31
0.0
   0
LINE
   5
2F3
 100
AcDbEntity
   8
LEVEL001
 370
13
 100
AcDbLine
   6
CONTINUOUS
  62
6
  10
 2686.6577197749
  20
 3214.3002887034
  30
0.0
  11
 2689.6577197749
  21
 3214.3002887034
  31
0.0
   0
LINE
   5
2F4
 100
AcDbEntity
   8
LEVEL001
 370
13
 100
AcDbLine
   6
CONTINUOUS
  62
7
  10
 2690.1131985540
  20
 3200.2998615119
  30
0.0
  11
 2690.1136563179
  21
 3158.2999532285
  31
0.0
   0
ELLIPSE
   5
2F5
 100
AcDbEntity
   8
LEVEL001
 370
13
   6
CONTINUOUS
  62
7
 100
AcDbEllipse
  10
 2686.1131960042
  20
 3200.2999834631
  30
0.0
  11
 4.0000025516047
  21
0.0
  31
0.0
  40
 0.99999938800000
  41
-0.30487804121538E-4
  42
 1.4342414715496
   0
LWPOLYLINE
   5
2F6
 100
AcDbEntity
   8
LEVEL001
 370
13
   6
CONTINUOUS
  62
6
 100
AcDbPolyline
  90
3
  70
0
  10
 2689.6577197749
  20
 3143.3002279452
  10
 2689.6577197749
  20
 3144.3002584589
  10
 2686.6577197749
  20
 3144.3002584589
   0
ELLIPSE
   5
2F7
 100
AcDbEntity
   8
LEVEL001
 370
13
   6
CONTINUOUS
  62
7
 100
AcDbEllipse
  10
 2686.1136537668
  20
 3158.3000143810
  30
0.0
  11
 4.0000025516047
  21
0.0
  31
0.0
  40
 0.99999938800000
  41
-1.4343569865529
  42
-0.15288126579161E-4
   0
LINE
   5
2F8
 100
AcDbEntity
   8
LEVEL001
 370
13
 100
AcDbLine
   6
CONTINUOUS
  62
7
  10
 2686.6577197749
  20
 3143.3002279452
  30
0.0
  11
 2689.6577197749
  21
 3143.3002279452
  31
0.0
   0
ARC
   5
2F9
 100
AcDbEntity
   8
LEVEL001
 370
13
   6
CONTINUOUS
  62
7
 100
AcDbCircle
  10
 2687.6577197749
  20
 2987.9419482350
  30
0.0
  40
 5.0000000000000
 100
AcDbArc
  50
 180.00000000001
  51
 201.80140948636
   0
LINE
   5
2FA
 100
AcDbEntity
   8
LEVEL001
 370
13
 100
AcDbLine
   6
CONTINUOUS
  62
7
  10
 2685.7292430840
  20
 2979.3002279444
  30
0.0
  11
 2683.0153363205
  21
 2986.0849948532
  31
0.0
   0
ARC
   5
2FB
 100
AcDbEntity
   8
LEVEL001
 370
13
   6
CONTINUOUS
  62
7
 100
AcDbCircle
  10
 2681.6577197749
  20
 2995.1478744035
  30
0.0
  40
 5.0000000000000
 100
AcDbArc
  50
 338.19859051362
  51
 359.99999999996
   0
LINE
   5
2FC
 100
AcDbEntity
   8
LEVEL001
 370
13
 100
AcDbLine
   6
CONTINUOUS
  62
7
  10
 2684.4978323746
  20
 2988.7852438850
  30
0.0
  11
 2686.3001032293
  21
 2993.2909210217
  31
0.0
   0
ARC
   5
2FD
 100
AcDbEntity
   8
LEVEL001
 370
13
   6
CONTINUOUS
  62
7
 100
AcDbCircle
  10
 2689.1402158291
  20
 2986.9282905032
  30
0.0
  40
 5.0000000000000
 100
AcDbArc
  50
 158.19859051365
  51
 201.80140948635
   0
LWPOLYLINE
   5
2FE
 100
AcDbEntity
   8
LEVEL001
 370
13
   6
CONTINUOUS
  62
7
 100
AcDbPolyline
  90
3
  70
0
  10
 2685.7292430840
  20
 2979.3002279444
  10
 2686.6577197749
  20
 2979.6716186208
  10
 2684.4978323746
  20
 2985.0713371214
   0
LEADER
   5
2FF
 100
AcDbEntity
   8
LEVEL001
 370
13
   6
CONTINUOUS
  62
1
 100
AcDbLeader
   3
GMM001
  73
3
  74
1
  75
0
  40
 66.000000000000
  41
0.0
  76
2
  10
 2807.6577197749
  20
 3160.8002279452
  30
0.0
  10
 3331.8266957207
  20
 3057.4197066126
  30
0.0
  77
1
   0
LWPOLYLINE
   5
300
 100
AcDbEntity
   8
LEVEL001
 370
13
   6
CONTINUOUS
  62
7
 100
AcDbPolyline
  90
4
  70
0
  10
 2698.1589116869
  20
 3160.8002279452
  10
 2698.1589116869
  20
 553.73994788310
  10
 2787.2589116869
  20
 553.73994788310
  10
 2787.2589116869
  20
 3160.8002279452
   0
LWPOLYLINE
   5
301
 100
AcDbEntity
   8
LEVEL001
 370
13
   6
CONTINUOUS
  62
7
 100
AcDbPolyline
  90
4
  70
0
  10
 1348.1589116869
  20
 2979.3002279460
  10
 1348.1589116869
  20
 553.73994788310
  10
 1437.2589116869
  20
 553.73994788310
  10
 1437.2589116869
  20
 2979.3002279460
   0
LWPOLYLINE
   5
302
 100
AcDbEntity
   8
LEVEL002
 370
13
   6
CONTINUOUS
  62
5
 100
AcDbPolyline
  90
6
  70
0
  10
 2698.1589116869
  20
 1753.7399478831
  10
 2492.7089116869
  20
 1753.7399478831
  10
 2492.7089116869
  20
 553.73994788310
  10
 2992.7089116869
  20
 553.73994788310
  10
 2992.7089116869
  20
 1753.7399478831
  10
 2787.2589116869
  20
 1753.7399478831
   0
MTEXT
   5
303
 100
AcDbEntity
   8
LEVEL001
 370
13
  62
1
 100
AcDbMText
  10
 1341.5214116871
  20
 3132.5502279460
  30
0.0
  40
 80.000000000000
  41
0.0
  71
4
  72
1
   1
{\T1.000000;注}\P{\T1.000000;意}
   7
GMM006
  44
 0.79999984000003
   0
LINE
   5
304
 100
AcDbEntity
   8
LEVEL001
 370
13
 100
AcDbLine
   6
DASHDOT
  62
6
  10
 1392.7089116869
  20
 5007.7399476791
  30
0.0
  11
 1392.7089116869
  21
 453.73994788310
  31
0.0
   0
LINE
   5
305
 100
AcDbEntity
   8
LEVEL001
 370
13
 100
AcDbLine
   6
DASHDOT
  62
6
  10
 2742.7089116869
  20
 3197.8002279454
  30
0.0
  11
 2742.7089116869
  21
 453.73994788310
  31
0.0
   0
LWPOLYLINE
   5
306
 100
AcDbEntity
   8
LEVEL001
 370
13
   6
CONTINUOUS
  62
1
 100
AcDbPolyline
  90
4
  70
1
  10
 1437.2589116869
  20
 4957.7399476791
  10
 1348.1589116869
  20
 4957.7399476791
  10
 1348.1589116869
  20
 4954.7399476791
  10
 1437.2589116869
  20
 4954.7399476791
   0
LWPOLYLINE
   5
307
 100
AcDbEntity
   8
LEVEL001
 370
13
   6
CONTINUOUS
  62
1
 100
AcDbPolyline
  90
4
  70
1
  10
 3187.2589116869
  20
 4957.7399478831
  10
 3098.1589116869
  20
 4957.7399478831
  10
 3098.1589116869
  20
 4954.7399478831
  10
 3187.2589116869
  20
 4954.7399478831
   0
LINE
   5
308
 100
AcDbEntity
   8
LEVEL001
 370
13
 100
AcDbLine
   6
DOT
  62
1
  10
 2787.2589116869
  20
 846.23994788310
  30
0.0
  11
 2698.1589116869
  21
 846.23994788310
  31
0.0
   0
LINE
   5
309
 100
AcDbEntity
   8
LEVEL001
 370
13
 100
AcDbLine
   6
DOT
  62
1
  10
 2698.1589116869
  20
 861.23994788310
  30
0.0
  11
 2787.2589116869
  21
 861.23994788310
  31
0.0
   0
LINE
   5
30A
 100
AcDbEntity
   8
LEVEL001
 370
13
 100
AcDbLine
   6
DOT
  62
1
  10
 1437.2589116869
  20
 946.23994788310
  30
0.0
  11
 1348.1589116869
  21
 946.23994788310
  31
0.0
   0
LINE
   5
30B
 100
AcDbEntity
   8
LEVEL001
 370
13
 100
AcDbLine
   6
DOT
  62
1
  10
 1348.1589116869
  20
 961.23994788310
  30
0.0
  11
 1437.2589116869
  21
 961.23994788310
  31
0.0
   0
LWPOLYLINE
   5
30C
 100
AcDbEntity
   8
LEVEL001
 370
13
   6
DOT
  62
6
 100
AcDbPolyline
  90
4
  70
0
  10
 3182.2589116869
  20
 4954.7399478831
  10
 3182.2589116869
  20
 4927.7399478831
  10
 3103.1589116869
  20
 4927.7399478831
  10
 3103.1589116869
  20
 4954.7399478831
   0
LWPOLYLINE
   5
30D
 100
AcDbEntity
   8
LEVEL001
 370
13
   6
DOT
  62
6
 100
AcDbPolyline
  90
4
  70
0
  10
 1432.2589116869
  20
 4954.7399476791
  10
 1432.2589116869
  20
 4927.7399476791
  10
 1353.1589116869
  20
 4927.7399476791
  10
 1353.1589116869
  20
 4954.7399476791
   0
ARC
   5
30E
 100
AcDbEntity
   8
LEVEL001
 370
13
   6
DOT
  62
2
 100
AcDbCircle
  10
 6197.5203670030
  20
 4553.7399478831
  30
0.0
  40
 3590.0000000000
 100
AcDbArc
  50
 175.20646174474
  51
 178.16430583834
   0
LINE
   5
30F
 100
AcDbEntity
   8
LEVEL001
 370
13
 100
AcDbLine
   6
DOT
  62
2
  10
 2610.0421440726
  20
 4853.7399478831
  30
0.0
  11
 2637.5203670030
  21
 4853.7399478831
  31
0.0
   0
ARC
   5
310
 100
AcDbEntity
   8
LEVEL001
 370
13
   6
DOT
  62
2
 100
AcDbCircle
  10
 6197.5203670030
  20
 4553.7399478831
  30
0.0
  40
 3600.0000000000
 100
AcDbArc
  50
 175.21980815280
  51
 177.53722131226
   0
ARC
   5
311
 100
AcDbEntity
   8
LEVEL001
 370
13
   6
DOT
  62
2
 100
AcDbCircle
  10
 87.897456370865
  20
 4553.7399478831
  30
0.0
  40
 3590.0000000000
 100
AcDbArc
  50
 1.8356941616583
  51
 4.7935382552554
   0
LINE
   5
312
 100
AcDbEntity
   8
LEVEL001
 370
13
 100
AcDbLine
   6
DOT
  62
2
  10
 3675.3756793013
  20
 4853.7399478831
  30
0.0
  11
 3647.8974563709
  21
 4853.7399478831
  31
0.0
   0
ARC
   5
313
 100
AcDbEntity
   8
LEVEL001
 370
13
   6
DOT
  62
2
 100
AcDbCircle
  10
 87.897456370862
  20
 4553.7399478831
  30
0.0
  40
 3600.0000000000
 100
AcDbArc
  50
 2.4627786877396
  51
 4.7801918471988
   0
LWPOLYLINE
   5
314
 100
AcDbEntity
   8
LEVEL001
 370
13
   6
CONTINUOUS
  62
7
 100
AcDbPolyline
  90
4
  70
1
  10
 332.70891168694
  20
 153.73994788310
  10
 332.70891168694
  20
 5753.7399478831
  10
 8119.3757818041
  20
 5753.7399478831
  10
 8119.3757818041
  20
 153.73994788310
   0
LINE
   5
315
 100
AcDbEntity
   8
LEVEL001
 370
13
 100
AcDbLine
   6
CONTINUOUS
  62
1
  10
 5603.6180025960
  20
 633.73994788310
  30
0.0
  11
 7243.6180025960
  21
 633.73994788310
  31
0.0
   0
MTEXT
   5
317
 100
AcDbEntity
   8
LEVEL001
 370
13
  62
1
 100
AcDbMText
  10
 5774.5969763501
  20
 1657.3135555790
  30
0.0
  40
 80.000000000000
  41
0.0
  71
9
  72
1
   1
\T1.000000;１２
   7
GMM001
  44
 0.79999984000003
   0
MTEXT
   5
319
 100
AcDbEntity
   8
LEVEL001
 370
13
  62
1
 100
AcDbMText
  10
 5774.5969763501
  20
 1787.3135555790
  30
0.0
  40
 80.000000000000
  41
0.0
  71
9
  72
1
   1
\T1.000000;１１
   7
GMM001
  44
 0.79999984000003
   0
MTEXT
   5
31B
 100
AcDbEntity
   8
LEVEL001
 370
13
  62
1
 100
AcDbMText
  10
 5774.5969763501
  20
 1917.3135555790
  30
0.0
  40
 80.000000000000
  41
0.0
  71
9
  72
1
   1
\T1.000000;１０
   7
GMM001
  44
 0.79999984000003
   0
MTEXT
   5
31D
 100
AcDbEntity
   8
LEVEL001
 370
13
  62
1
 100
AcDbMText
  10
 5774.5969763501
  20
 2047.3135555790
  30
0.0
  40
 80.000000000000
  41
0.0
  71
9
  72
1
   1
\T1.000000;９
   7
GMM001
  44
 0.79999984000003
   0
MTEXT
   5
31F
 100
AcDbEntity
   8
LEVEL001
 370
13
  62
1
 100
AcDbMText
  10
 5774.5969763501
  20
 2177.3135555790
  30
0.0
  40
 80.000000000000
  41
0.0
  71
9
  72
1
   1
\T1.000000;８
   7
GMM001
  44
 0.79999984000003
   0
MTEXT
   5
321
 100
AcDbEntity
   8
LEVEL001
 370
13
  62
1
 100
AcDbMText
  10
 5774.5969763501
  20
 2307.3135555790
  30
0.0
  40
 80.000000000000
  41
0.0
  71
9
  72
1
   1
\T1.000000;７
   7
GMM001
  44
 0.79999984000003
   0
MTEXT
   5
323
 100
AcDbEntity
   8
LEVEL001
 370
13
  62
1
 100
AcDbMText
  10
 5774.5969763501
  20
 2437.3135555790
  30
0.0
  40
 80.000000000000
  41
0.0
  71
9
  72
1
   1
\T1.000000;６
   7
GMM001
  44
 0.79999984000003
   0
MTEXT
   5
325
 100
AcDbEntity
   8
LEVEL001
 370
13
  62
1
 100
AcDbMText
  10
 5774.5969763501
  20
 2567.3135555790
  30
0.0
  40
 80.000000000000
  41
0.0
  71
9
  72
1
   1
\T1.000000;５
   7
GMM001
  44
 0.79999984000003
   0
MTEXT
   5
327
 100
AcDbEntity
   8
LEVEL001
 370
13
  62
1
 100
AcDbMText
  10
 5774.5969763501
  20
 2697.3135555790
  30
0.0
  40
 80.000000000000
  41
0.0
  71
9
  72
1
   1
\T1.000000;４
   7
GMM001
  44
 0.79999984000003
   0
MTEXT
   5
329
 100
AcDbEntity
   8
LEVEL001
 370
13
  62
1
 100
AcDbMText
  10
 5774.5969763501
  20
 2827.3135555790
  30
0.0
  40
 80.000000000000
  41
0.0
  71
9
  72
1
   1
\T1.000000;３
   7
GMM001
  44
 0.79999984000003
   0
MTEXT
   5
32B
 100
AcDbEntity
   8
LEVEL001
 370
13
  62
1
 100
AcDbMText
  10
 5853.6180025960
  20
 2827.3135555790
  30
0.0
  40
 80.000000000000
  41
0.0
  71
7
  72
1
   1
\T1.000000;フード
   7
GMM002
  44
 0.79999984000003
   0
MTEXT
   5
32D
 100
AcDbEntity
   8
LEVEL001
 370
13
  62
1
 100
AcDbMText
  10
 5774.5969763501
  20
 2957.3135555790
  30
0.0
  40
 80.000000000000
  41
0.0
  71
9
  72
1
   1
\T1.000000;２
   7
GMM001
  44
 0.79999984000003
   0
MTEXT
   5
32F
 100
AcDbEntity
   8
LEVEL001
 370
13
  62
1
 100
AcDbMText
  10
 5853.6180025960
  20
 2957.3135555790
  30
0.0
  40
 80.000000000000
  41
0.0
  71
7
  72
1
   1
\T1.000000;バックプレート
   7
GMM002
  44
 0.79999984000003
   0
MTEXT
   5
331
 100
AcDbEntity
   8
LEVEL001
 370
13
  62
1
 100
AcDbMText
  10
 5774.5969763501
  20
 3087.3135555790
  30
0.0
  40
 80.000000000000
  41
0.0
  71
9
  72
1
   1
\T1.000000;１
   7
GMM001
  44
 0.79999984000003
   0
MTEXT
   5
333
 100
AcDbEntity
   8
LEVEL001
 370
13
  62
1
 100
AcDbMText
  10
 6753.6180025960
  20
 3263.7399478831
  30
0.0
  40
 80.000000000000
  41
0.0
  71
5
  72
1
   1
\T1.000000;個数
   7
GMM002
  44
 0.79999984000003
   0
MTEXT
   5
335
 100
AcDbEntity
   8
LEVEL001
 370
13
  62
1
 100
AcDbMText
  10
 7103.6180025960
  20
 3263.7399478831
  30
0.0
  40
 80.000000000000
  41
0.0
  71
5
  72
1
   1
\T1.000000;材　　質
   7
GMM002
  44
 0.79999984000003
   0
MTEXT
   5
337
 100
AcDbEntity
   8
LEVEL001
 370
13
  62
1
 100
AcDbMText
  10
 6228.6180025960
  20
 3263.7399478831
  30
0.0
  40
 80.000000000000
  41
0.0
  71
5
  72
1
   1
\T1.000000;名　　称
   7
GMM002
  44
 0.79999984000003
   0
LINE
   5
338
 100
AcDbEntity
   8
LEVEL001
 370
13
 100
AcDbLine
   6
CONTINUOUS
  62
6
  10
 5603.6180025960
  20
 1763.7399478831
  30
0.0
  11
 8119.3757818041
  21
 1763.7399478831
  31
0.0
   0
LINE
   5
339
 100
AcDbEntity
   8
LEVEL001
 370
13
 100
AcDbLine
   6
CONTINUOUS
  62
6
  10
 5603.6180025960
  20
 1893.7399478831
  30
0.0
  11
 8119.3757818041
  21
 1893.7399478831
  31
0.0
   0
LINE
   5
33A
 100
AcDbEntity
   8
LEVEL001
 370
13
 100
AcDbLine
   6
CONTINUOUS
  62
6
  10
 5603.6180025960
  20
 2023.7399478831
  30
0.0
  11
 8119.3757818041
  21
 2023.7399478831
  31
0.0
   0
LINE
   5
33B
 100
AcDbEntity
   8
LEVEL001
 370
13
 100
AcDbLine
   6
CONTINUOUS
  62
6
  10
 5603.6180025960
  20
 2153.7399478831
  30
0.0
  11
 8119.3757818041
  21
 2153.7399478831
  31
0.0
   0
LINE
   5
33C
 100
AcDbEntity
   8
LEVEL001
 370
13
 100
AcDbLine
   6
CONTINUOUS
  62
6
  10
 5603.6180025960
  20
 2283.7399478831
  30
0.0
  11
 8119.3757818041
  21
 2283.7399478831
  31
0.0
   0
LINE
   5
33D
 100
AcDbEntity
   8
LEVEL001
 370
13
 100
AcDbLine
   6
CONTINUOUS
  62
6
  10
 5603.6180025960
  20
 2413.7399478831
  30
0.0
  11
 8119.3757818041
  21
 2413.7399478831
  31
0.0
   0
LINE
   5
33E
 100
AcDbEntity
   8
LEVEL001
 370
13
 100
AcDbLine
   6
CONTINUOUS
  62
6
  10
 5603.6180025960
  20
 2543.7399478831
  30
0.0
  11
 8119.3757818041
  21
 2543.7399478831
  31
0.0
   0
LINE
   5
33F
 100
AcDbEntity
   8
LEVEL001
 370
13
 100
AcDbLine
   6
CONTINUOUS
  62
6
  10
 5603.6180025960
  20
 2673.7399478831
  30
0.0
  11
 8119.3757818041
  21
 2673.7399478831
  31
0.0
   0
LINE
   5
340
 100
AcDbEntity
   8
LEVEL001
 370
13
 100
AcDbLine
   6
CONTINUOUS
  62
6
  10
 5603.6180025960
  20
 2803.7399478831
  30
0.0
  11
 8119.3757818041
  21
 2803.7399478831
  31
0.0
   0
LINE
   5
341
 100
AcDbEntity
   8
LEVEL001
 370
13
 100
AcDbLine
   6
CONTINUOUS
  62
6
  10
 5603.6180025960
  20
 2933.7399478831
  30
0.0
  11
 8119.3757818041
  21
 2933.7399478831
  31
0.0
   0
LINE
   5
342
 100
AcDbEntity
   8
LEVEL001
 370
13
 100
AcDbLine
   6
CONTINUOUS
  62
6
  10
 5603.6180025960
  20
 3063.7399478831
  30
0.0
  11
 8119.3757818041
  21
 3063.7399478831
  31
0.0
   0
LINE
   5
343
 100
AcDbEntity
   8
LEVEL001
 370
13
 100
AcDbLine
   6
CONTINUOUS
  62
6
  10
 5603.6180025960
  20
 3193.7399478831
  30
0.0
  11
 8119.3757818041
  21
 3193.7399478831
  31
0.0
   0
LINE
   5
344
 100
AcDbEntity
   8
LEVEL001
 370
13
 100
AcDbLine
   6
CONTINUOUS
  62
6
  10
 5603.6180025960
  20
 3333.7399478831
  30
0.0
  11
 8119.3757818041
  21
 3333.7399478831
  31
0.0
   0
LINE
   5
345
 100
AcDbEntity
   8
LEVEL001
 370
13
 100
AcDbLine
   6
CONTINUOUS
  62
6
  10
 5603.6180025960
  20
 3633.7399478831
  30
0.0
  11
 8119.3757818041
  21
 3633.7399478831
  31
0.0
   0
MTEXT
   5
347
 100
AcDbEntity
   8
LEVEL001
 370
13
  62
1
 100
AcDbMText
  10
 6824.5969763501
  20
 3087.3135555790
  30
0.0
  40
 80.000000000000
  41
0.0
  71
9
  72
1
   1
\T1.000000;２
   7
GMM002
  44
 0.79999984000003
   0
MTEXT
   5
349
 100
AcDbEntity
   8
LEVEL001
 370
13
  62
1
 100
AcDbMText
  10
 6824.5969763501
  20
 2957.3135555790
  30
0.0
  40
 80.000000000000
  41
0.0
  71
9
  72
1
   1
\T1.000000;２
   7
GMM002
  44
 0.79999984000003
   0
MTEXT
   5
34B
 100
AcDbEntity
   8
LEVEL001
 370
13
  62
1
 100
AcDbMText
  10
 6824.5969763501
  20
 2827.3135555790
  30
0.0
  40
 80.000000000000
  41
0.0
  71
9
  72
1
   1
\T1.000000;２
   7
GMM002
  44
 0.79999984000003
   0
MTEXT
   5
34D
 100
AcDbEntity
   8
LEVEL001
 370
13
  62
1
 100
AcDbMText
  10
 5769.0458600717
  20
 3513.2467784709
  30
0.0
  40
 80.000000000000
  41
0.0
  71
7
  72
1
   1
\T1.000000;アクリルミラ－
   7
GMM003
  44
 0.79999984000003
   0
MTEXT
   5
34F
 100
AcDbEntity
   8
LEVEL001
 370
13
  62
1
 100
AcDbMText
  10
 6903.6180025960
  20
 3087.3135555790
  30
0.0
  40
 80.000000000000
  41
0.0
  71
7
  72
1
   1
\T1.000000;ＰＭＭＡ
   7
GMM002
  44
 0.79999984000003
   0
MTEXT
   5
351
 100
AcDbEntity
   8
LEVEL001
 370
13
  62
1
 100
AcDbMText
  10
 6903.6180025960
  20
 2957.3135555790
  30
0.0
  40
 80.000000000000
  41
0.0
  71
7
  72
1
   1
\T1.000000;ＦＲＰ
   7
GMM002
  44
 0.79999984000003
   0
MTEXT
   5
353
 100
AcDbEntity
   8
LEVEL001
 370
13
  62
1
 100
AcDbMText
  10
 6903.6180025960
  20
 2827.3135555790
  30
0.0
  40
 80.000000000000
  41
0.0
  71
7
  72
1
   1
\T1.000000;ＰＣ
   7
GMM002
  44
 0.79999984000003
   0
MTEXT
   5
355
 100
AcDbEntity
   8
LEVEL001
 370
13
  62
1
 100
AcDbMText
  10
 6903.6180025960
  20
 2047.3135555790
  30
0.0
  40
 80.000000000000
  41
0.0
  71
7
  72
1
   1
\T1.000000;ＳＳ４００
   7
GMM002
  44
 0.79999984000003
   0
MTEXT
   5
357
 100
AcDbEntity
   8
LEVEL001
 370
13
  62
1
 100
AcDbMText
  10
 7403.6180025960
  20
 2047.3135555790
  30
0.0
  40
 80.000000000000
  41
0.0
  71
7
  72
1
   1
\T1.000000;溶融亜鉛メッキ
   7
GMM002
  44
 0.79999984000003
   0
MTEXT
   5
359
 100
AcDbEntity
   8
LEVEL001
 370
13
  62
1
 100
AcDbMText
  10
 5853.6180025960
  20
 2047.3135555790
  30
0.0
  40
 80.000000000000
  41
0.0
  71
7
  72
1
   1
\T1.000000;金具締付ボルトナット
   7
GMM002
  44
 0.79999984000003
   0
MTEXT
   5
35B
 100
AcDbEntity
   8
LEVEL001
 370
13
  62
1
 100
AcDbMText
  10
 6903.6180025960
  20
 2177.3135555790
  30
0.0
  40
 80.000000000000
  41
0.0
  71
7
  72
1
   1
\T1.000000;ＳＳ４００
   7
GMM002
  44
 0.79999984000003
   0
MTEXT
   5
35D
 100
AcDbEntity
   8
LEVEL001
 370
13
  62
1
 100
AcDbMText
  10
 7403.6180025960
  20
 2177.3135555790
  30
0.0
  40
 80.000000000000
  41
0.0
  71
7
  72
1
   1
\T1.000000;溶融亜鉛メッキ
   7
GMM002
  44
 0.79999984000003
   0
MTEXT
   5
35F
 100
AcDbEntity
   8
LEVEL001
 370
13
  62
1
 100
AcDbMText
  10
 5853.6180025960
  20
 2177.3135555790
  30
0.0
  40
 80.000000000000
  41
0.0
  71
7
  72
1
   1
\T1.000000;裏板金具取付ボルト
   7
GMM002
  44
 0.79999984000003
   0
MTEXT
   5
361
 100
AcDbEntity
   8
LEVEL001
 370
13
  62
1
 100
AcDbMText
  10
 7403.6180025960
  20
 2307.3135555790
  30
0.0
  40
 80.000000000000
  41
0.0
  71
7
  72
1
   1
\T1.000000;溶融亜鉛メッキ
   7
GMM002
  44
 0.79999984000003
   0
MTEXT
   5
363
 100
AcDbEntity
   8
LEVEL001
 370
13
  62
1
 100
AcDbMText
  10
 6903.6180025960
  20
 2307.3135555790
  30
0.0
  40
 80.000000000000
  41
0.0
  71
7
  72
1
   1
\T1.000000;ＳＳ４００
   7
GMM002
  44
 0.79999984000003
   0
MTEXT
   5
365
 100
AcDbEntity
   8
LEVEL001
 370
13
  62
1
 100
AcDbMText
  10
 5853.6180025960
  20
 2307.3135555790
  30
0.0
  40
 80.000000000000
  41
0.0
  71
7
  72
1
   1
\T1.000000;支柱取付金具
   7
GMM002
  44
 0.79999984000003
   0
MTEXT
   5
367
 100
AcDbEntity
   8
LEVEL001
 370
13
  62
1
 100
AcDbMText
  10
 5853.6180025960
  20
 2437.3135555790
  30
0.0
  40
 80.000000000000
  41
0.0
  71
7
  72
1
   1
\T1.000000;裏板取付金具
   7
GMM002
  44
 0.79999984000003
   0
MTEXT
   5
369
 100
AcDbEntity
   8
LEVEL001
 370
13
  62
1
 100
AcDbMText
  10
 6903.6180025960
  20
 2437.3135555790
  30
0.0
  40
 80.000000000000
  41
0.0
  71
7
  72
1
   1
\T1.000000;ＳＳ４００
   7
GMM002
  44
 0.79999984000003
   0
MTEXT
   5
36B
 100
AcDbEntity
   8
LEVEL001
 370
13
  62
1
 100
AcDbMText
  10
 6824.5969763501
  20
 2177.3135555790
  30
0.0
  40
 80.000000000000
  41
0.0
  71
9
  72
1
   1
\T1.000000;８
   7
GMM002
  44
 0.79999984000003
   0
MTEXT
   5
36D
 100
AcDbEntity
   8
LEVEL001
 370
13
  62
1
 100
AcDbMText
  10
 5853.6180025960
  20
 1657.3135555790
  30
0.0
  40
 80.000000000000
  41
0.0
  71
7
  72
1
   1
\T1.000000;支柱
   7
GMM002
  44
 0.79999984000003
   0
MTEXT
   5
36F
 100
AcDbEntity
   8
LEVEL001
 370
13
  62
1
 100
AcDbMText
  10
 6824.5969763501
  20
 1657.3135555790
  30
0.0
  40
 80.000000000000
  41
0.0
  71
9
  72
1
   1
\T1.000000;１
   7
GMM002
  44
 0.79999984000003
   0
MTEXT
   5
371
 100
AcDbEntity
   8
LEVEL001
 370
13
  62
1
 100
AcDbMText
  10
 6903.6180025960
  20
 1657.3135555790
  30
0.0
  40
 80.000000000000
  41
0.0
  71
7
  72
1
   1
\T1.000000;ＳＴＫ４００
   7
GMM002
  44
 0.79999984000003
   0
MTEXT
   5
373
 100
AcDbEntity
   8
LEVEL001
 370
13
  62
1
 100
AcDbMText
  10
 7403.6180025960
  20
 1657.3135555790
  30
0.0
  40
 80.000000000000
  41
0.0
  71
7
  72
1
   1
\T1.000000;静電粉体塗装
   7
GMM002
  44
 0.79999984000003
   0
MTEXT
   5
375
 100
AcDbEntity
   8
LEVEL001
 370
13
  62
1
 100
AcDbMText
  10
 5853.6180025960
  20
 1787.3135555790
  30
0.0
  40
 80.000000000000
  41
0.0
  71
7
  72
1
   1
\T1.000000;同上ボルトナット
   7
GMM002
  44
 0.79999984000003
   0
MTEXT
   5
377
 100
AcDbEntity
   8
LEVEL001
 370
13
  62
1
 100
AcDbMText
  10
 6903.6180025960
  20
 1917.3135555790
  30
0.0
  40
 80.000000000000
  41
0.0
  71
7
  72
1
   1
\T1.000000;ＳＳ４００
   7
GMM002
  44
 0.79999984000003
   0
MTEXT
   5
379
 100
AcDbEntity
   8
LEVEL001
 370
13
  62
1
 100
AcDbMText
  10
 6903.6180025960
  20
 1787.3135555790
  30
0.0
  40
 80.000000000000
  41
0.0
  71
7
  72
1
   1
\T1.000000;ＳＳ４００
   7
GMM002
  44
 0.79999984000003
   0
MTEXT
   5
37B
 100
AcDbEntity
   8
LEVEL001
 370
13
  62
1
 100
AcDbMText
  10
 7403.6180025960
  20
 1917.3135555790
  30
0.0
  40
 80.000000000000
  41
0.0
  71
7
  72
1
   1
\T1.000000;溶融亜鉛メッキ
   7
GMM002
  44
 0.79999984000003
   0
MTEXT
   5
37D
 100
AcDbEntity
   8
LEVEL001
 370
13
  62
1
 100
AcDbMText
  10
 7403.6180025960
  20
 1787.3135555790
  30
0.0
  40
 80.000000000000
  41
0.0
  71
7
  72
1
   1
\T1.000000;溶融亜鉛メッキ
   7
GMM002
  44
 0.79999984000003
   0
MTEXT
   5
37F
 100
AcDbEntity
   8
LEVEL001
 370
13
  62
1
 100
AcDbMText
  10
 5853.6180025960
  20
 1917.3135555790
  30
0.0
  40
 80.000000000000
  41
0.0
  71
7
  72
1
   1
\T1.000000;二面鏡用取付腕木
   7
GMM002
  44
 0.79999984000003
   0
MTEXT
   5
381
 100
AcDbEntity
   8
LEVEL001
 370
13
  62
1
 100
AcDbMText
  10
 6824.5969763501
  20
 2047.3135555790
  30
0.0
  40
 80.000000000000
  41
0.0
  71
9
  72
1
   1
\T1.000000;８
   7
GMM002
  44
 0.79999984000003
   0
MTEXT
   5
383
 100
AcDbEntity
   8
LEVEL001
 370
13
  62
1
 100
AcDbMText
  10
 6824.5969763501
  20
 2697.3135555790
  30
0.0
  40
 80.000000000000
  41
0.0
  71
9
  72
1
   1
\T1.000000;２
   7
GMM002
  44
 0.79999984000003
   0
MTEXT
   5
385
 100
AcDbEntity
   8
LEVEL001
 370
13
  62
1
 100
AcDbMText
  10
 5853.6180025960
  20
 2697.3135555790
  30
0.0
  40
 80.000000000000
  41
0.0
  71
7
  72
1
   1
\T1.000000;取付枠
   7
GMM002
  44
 0.79999984000003
   0
MTEXT
   5
387
 100
AcDbEntity
   8
LEVEL001
 370
13
  62
1
 100
AcDbMText
  10
 5853.6180025960
  20
 2567.3135555790
  30
0.0
  40
 80.000000000000
  41
0.0
  71
7
  72
1
   1
\T1.000000;取付枠取付リベット
   7
GMM002
  44
 0.79999984000003
   0
MTEXT
   5
389
 100
AcDbEntity
   8
LEVEL001
 370
13
  62
1
 100
AcDbMText
  10
 6903.6180025960
  20
 2567.3135555790
  30
0.0
  40
 80.000000000000
  41
0.0
  71
7
  72
1
   1
\T1.000000;アルミニウム
   7
GMM002
  44
 0.79999984000003
   0
MTEXT
   5
38B
 100
AcDbEntity
   8
LEVEL001
 370
13
  62
1
 100
AcDbMText
  10
 7403.6180025960
  20
 2437.3135555790
  30
0.0
  40
 80.000000000000
  41
0.0
  71
7
  72
1
   1
\T1.000000;溶融亜鉛メッキ
   7
GMM002
  44
 0.79999984000003
   0
MTEXT
   5
38D
 100
AcDbEntity
   8
LEVEL001
 370
13
  62
1
 100
AcDbMText
  10
 5769.0458600717
  20
 3375.8944876424
  30
0.0
  40
 80.000000000000
  41
0.0
  71
7
  72
1
   1
\T1.000000;□６００×８００（ダブル）
   7
GMM003
  44
 0.79999984000003
   0
MTEXT
   5
38F
 100
AcDbEntity
   8
LEVEL001
 370
13
  62
1
 100
AcDbMText
  10
 5853.6180025960
  20
 3087.3135555790
  30
0.0
  40
 80.000000000000
  41
0.0
  71
7
  72
1
   1
\T1.000000;鏡面　Ｒ＝３６００
   7
GMM002
  44
 0.79999984000003
   0
MTEXT
   5
391
 100
AcDbEntity
   8
LEVEL001
 370
13
  62
1
 100
AcDbMText
  10
 6903.6180025960
  20
 2697.3135555790
  30
0.0
  40
 80.000000000000
  41
0.0
  71
7
  72
1
   1
\T1.000000;ＦＲＰ
   7
GMM002
  44
 0.79999984000003
   0
MTEXT
   5
393
 100
AcDbEntity
   8
LEVEL001
 370
13
  62
1
 100
AcDbMText
  10
 7403.6180025960
  20
 2957.3135555790
  30
0.0
  40
 80.000000000000
  41
0.0
  71
7
  72
1
   1
\T1.000000;ＳＭＣ成型
   7
GMM002
  44
 0.79999984000003
   0
MTEXT
   5
395
 100
AcDbEntity
   8
LEVEL001
 370
13
  62
1
 100
AcDbMText
  10
 6824.5969763501
  20
 2567.3135555790
  30
0.0
  40
 80.000000000000
  41
0.0
  71
9
  72
1
   1
\T1.000000;２０
   7
GMM002
  44
 0.79999984000003
   0
MTEXT
   5
397
 100
AcDbEntity
   8
LEVEL001
 370
13
  62
1
 100
AcDbMText
  10
 7403.6180025960
  20
 3087.3135555790
  30
0.0
  40
 80.000000000000
  41
0.0
  71
7
  72
1
   1
\W0.450000;\T1.000000;t=3.0mm\W0.900000;\T1.000000;・真空蒸着
   7
GMM002
  44
 0.79999984000003
   0
MTEXT
   5
399
 100
AcDbEntity
   8
LEVEL001
 370
13
  62
1
 100
AcDbMText
  10
 7736.4968922001
  20
 3263.7399478831
  30
0.0
  40
 80.000000000000
  41
0.0
  71
5
  72
1
   1
\T1.000000;規格仕様
   7
GMM002
  44
 0.79999984000003
   0
MTEXT
   5
39B
 100
AcDbEntity
   8
LEVEL001
 370
13
  62
1
 100
AcDbMText
  10
 6824.5969763501
  20
 2437.3135555790
  30
0.0
  40
 80.000000000000
  41
0.0
  71
9
  72
1
   1
\T1.000000;２
   7
GMM002
  44
 0.79999984000003
   0
MTEXT
   5
39D
 100
AcDbEntity
   8
LEVEL001
 370
13
  62
1
 100
AcDbMText
  10
 6824.5969763501
  20
 2307.3135555790
  30
0.0
  40
 80.000000000000
  41
0.0
  71
9
  72
1
   1
\T1.000000;２
   7
GMM002
  44
 0.79999984000003
   0
MTEXT
   5
39F
 100
AcDbEntity
   8
LEVEL001
 370
13
  62
1
 100
AcDbMText
  10
 6824.5969763501
  20
 1917.3135555790
  30
0.0
  40
 80.000000000000
  41
0.0
  71
9
  72
1
   1
\T1.000000;１
   7
GMM002
  44
 0.79999984000003
   0
MTEXT
   5
3A1
 100
AcDbEntity
   8
LEVEL001
 370
13
  62
1
 100
AcDbMText
  10
 6824.5969763501
  20
 1787.3135555790
  30
0.0
  40
 80.000000000000
  41
0.0
  71
9
  72
1
   1
\T1.000000;４
   7
GMM002
  44
 0.79999984000003
   0
MTEXT
   5
3A3
 100
AcDbEntity
   8
LEVEL001
 370
13
  62
1
 100
AcDbMText
  10
 7403.6180025960
  20
 1568.7399478831
  30
0.0
  40
 44.000000000000
  41
0.0
  71
4
  72
1
   1
{\T1.000000;下地亜鉛メッキ}\P{\T1.000000;＋静電粉体塗装}
   7
GMM007
  44
 0.79999984000003
   0
MTEXT
   5
3A5
 100
AcDbEntity
   8
LEVEL001
 370
13
  62
1
 100
AcDbMText
  10
 6903.6180025960
  20
 1527.3135555790
  30
0.0
  40
 80.000000000000
  41
0.0
  71
7
  72
1
   1
\T1.000000;ＳＴＫ４００
   7
GMM002
  44
 0.79999984000003
   0
MTEXT
   5
3A7
 100
AcDbEntity
   8
LEVEL001
 370
13
  62
1
 100
AcDbMText
  10
 6824.5969763501
  20
 1527.3135555790
  30
0.0
  40
 80.000000000000
  41
0.0
  71
9
  72
1
   1
\T1.000000;１
   7
GMM002
  44
 0.79999984000003
   0
LINE
   5
3A8
 100
AcDbEntity
   8
LEVEL001
 370
13
 100
AcDbLine
   6
CONTINUOUS
  62
6
  10
 6653.6180025960
  20
 1633.7399478831
  30
0.0
  11
 8119.3757818041
  21
 1633.7399478831
  31
0.0
   0
MTEXT
   5
3AA
 100
AcDbEntity
   8
LEVEL001
 370
13
  62
1
 100
AcDbMText
  10
 6824.5969763501
  20
 1007.3135555790
  30
0.0
  40
 80.000000000000
  41
0.0
  71
9
  72
1
   1
\T1.000000;１式
   7
GMM002
  44
 0.79999984000003
   0
MTEXT
   5
3AC
 100
AcDbEntity
   8
LEVEL001
 370
13
  62
1
 100
AcDbMText
  10
 6824.5969763501
  20
 877.31355557899
  30
0.0
  40
 80.000000000000
  41
0.0
  71
9
  72
1
   1
\T1.000000;１式
   7
GMM002
  44
 0.79999984000003
   0
MTEXT
   5
3AE
 100
AcDbEntity
   8
LEVEL001
 370
13
  62
1
 100
AcDbMText
  10
 6903.6180025960
  20
 1137.3135555790
  30
0.0
  40
 80.000000000000
  41
0.0
  71
7
  72
1
   1
\T1.000000;―
   7
GMM002
  44
 0.79999984000003
   0
MTEXT
   5
3B0
 100
AcDbEntity
   8
LEVEL001
 370
13
  62
1
 100
AcDbMText
  10
 6903.6180025960
  20
 1007.3135555790
  30
0.0
  40
 80.000000000000
  41
0.0
  71
7
  72
1
   1
\T1.000000;―
   7
GMM002
  44
 0.79999984000003
   0
MTEXT
   5
3B2
 100
AcDbEntity
   8
LEVEL001
 370
13
  62
1
 100
AcDbMText
  10
 6903.6180025960
  20
 877.31355557899
  30
0.0
  40
 80.000000000000
  41
0.0
  71
7
  72
1
   1
\T1.000000;―
   7
GMM002
  44
 0.79999984000003
   0
MTEXT
   5
3B4
 100
AcDbEntity
   8
LEVEL001
 370
13
  62
1
 100
AcDbMText
  10
 7395.7391129920
  20
 877.31355557899
  30
0.0
  40
 80.000000000000
  41
0.0
  71
7
  72
1
   1
\T1.000000;―
   7
GMM002
  44
 0.79999984000003
   0
MTEXT
   5
3B6
 100
AcDbEntity
   8
LEVEL001
 370
13
  62
1
 100
AcDbMText
  10
 7395.7391129920
  20
 1007.3135555790
  30
0.0
  40
 80.000000000000
  41
0.0
  71
7
  72
1
   1
\T1.000000;―
   7
GMM002
  44
 0.79999984000003
   0
MTEXT
   5
3B8
 100
AcDbEntity
   8
LEVEL001
 370
13
  62
1
 100
AcDbMText
  10
 7395.7391129920
  20
 1137.3135555790
  30
0.0
  40
 80.000000000000
  41
0.0
  71
7
  72
1
   1
\T1.000000;―
   7
GMM002
  44
 0.79999984000003
   0
LINE
   5
3B9
 100
AcDbEntity
   8
LEVEL001
 370
13
 100
AcDbLine
   6
CONTINUOUS
  62
6
  10
 6653.6180025960
  20
 3333.7399478831
  30
0.0
  11
 6653.6180025960
  21
 853.73994788310
  31
0.0
   0
LINE
   5
3BA
 100
AcDbEntity
   8
LEVEL001
 370
13
 100
AcDbLine
   6
CONTINUOUS
  62
6
  10
 6853.6180025960
  20
 3333.7399478831
  30
0.0
  11
 6853.6180025960
  21
 853.73994788310
  31
0.0
   0
LINE
   5
3BB
 100
AcDbEntity
   8
LEVEL001
 370
13
 100
AcDbLine
   6
CONTINUOUS
  62
6
  10
 7353.6180025960
  20
 3333.7399478831
  30
0.0
  11
 7353.6180025960
  21
 853.73994788310
  31
0.0
   0
LINE
   5
3BC
 100
AcDbEntity
   8
LEVEL001
 370
13
 100
AcDbLine
   6
CONTINUOUS
  62
6
  10
 5603.6180025960
  20
 3633.7399478831
  30
0.0
  11
 5603.6180025960
  21
 853.73994788310
  31
0.0
   0
LINE
   5
3BD
 100
AcDbEntity
   8
LEVEL001
 370
13
 100
AcDbLine
   6
CONTINUOUS
  62
6
  10
 5803.6180025960
  20
 3333.7399478831
  30
0.0
  11
 5803.6180025960
  21
 853.73994788310
  31
0.0
   0
MTEXT
   5
3BF
 100
AcDbEntity
   8
LEVEL001
 370
13
  62
1
 100
AcDbMText
  10
 5660.0242352523
  20
 3898.0513031945
  30
0.0
  40
 80.000000000000
  41
0.0
  71
4
  72
1
   1
{\T1.000000;※構成部材は改良のため、変更する場合があります。}\P{\T1.000000;※本図は道路反射鏡ハンドブックに基づいています。}
   7
GMM002
  44
 0.94999981000004
   0
LINE
   5
3C0
 100
AcDbEntity
   8
LEVEL001
 370
13
 100
AcDbLine
   6
CONTINUOUS
  62
6
  10
 8119.3757818041
  20
 3633.7399478831
  30
0.0
  11
 8119.3757818041
  21
 853.73994788310
  31
0.0
   0
MTEXT
   5
3C2
 100
AcDbEntity
   8
LEVEL001
 370
13
  62
1
 100
AcDbMText
  10
 5853.6180025960
  20
 1137.3135555790
  30
0.0
  40
 80.000000000000
  41
0.0
  71
7
  72
1
   1
\T1.000000;注意板
   7
GMM002
  44
 0.79999984000003
   0
MTEXT
   5
3C4
 100
AcDbEntity
   8
LEVEL001
 370
13
  62
1
 100
AcDbMText
  10
 6423.6180025960
  20
 698.54942548925
  30
0.0
  40
 66.000000000000
  41
0.0
  71
5
  72
1
   1
\T1.000000;ＭＡ６０８ＷＵＰ
   7
GMM004
  44
 0.79999984000003
   0
MTEXT
   5
3C5
 100
AcDbEntity
   8
LEVEL001
 370
13
  62
1
 100
AcDbMText
  10
 5626.5444095224
  20
 797.52491812120
  30
0.0
  40
 37.142857142857
  41
0.0
  71
7
  72
1
   1
\T1.269231;図面番号
   7
GMM008
  44
 0.79999984000003
   0
MTEXT
   5
3C7
 100
AcDbEntity
   8
LEVEL001
 370
13
  62
1
 100
AcDbMText
  10
 1777.1508952450
  20
 2681.8125405884
  30
0.0
  40
 66.000000000000
  41
0.0
  71
1
  72
1
   1
{\W0.787879;\T1.000000;支柱}\P%%c{\W0.787879;\T1.000000;８９\W0.393939;\T1.000000;.\W0.787879;\T1.000000;１ｘ３\W0.393939;\T1.000000;.\W0.787879;\T1.000000;２ｔ}\P{\W0.787879;\T1.000000;ｘ４４００Ｌ}
   7
GMM004
  44
 0.79999984000003
   0
ENDSEC
  0
SECTION
  2
OBJECTS
  0
DICTIONARY
  5
C
100
AcDbDictionary
  3
ACAD_GROUP
350
D
  3
ACAD_MLINESTYLE
350
1B
  3
DWGPROPS
350
1C
  0
DICTIONARY
  5
D
102
{ACAD_REACTORS
330
C
102
}
100
AcDbDictionary
  0
DICTIONARY
  5
1B
102
{ACAD_REACTORS
330
C
102
}
100
AcDbDictionary
  3
STANDARD
350
1D
  0
MLINESTYLE
  5
1D
102
{ACAD_REACTORS
330
1B
102
}
100
AcDbMlineStyle
  2
STANDARD
 70
     0
  3

 62
   256
 51
90.0
 52
90.0
 71
     2
 49
0.5
 62
   256
  6
BYLAYER
 49
-0.5
 62
   256
  6
BYLAYER
   0
XRECORD
   5
1C
 102
{ACAD_REACTORS
 330
C
 102
}
 330
C
 100
AcDbXrecord
 280
1
   1
DWGPROPS COOKIE
   2
 
   3
 
   4
 
   6
 
   7
MA608WUP
   8
 
   9

 300
 = 
 301
 = 
 302
 = 
 303
 = 
 304
 = 
 305
 = 
 306
 = 
 307
 = 
 308
 = 
 309
 = 
  40
0.0
  41
 2460327.5000000
  42
 2460327.5000000
   1

  90
10
   0
ENDSEC
   0
EOF
