   0
SECTION
   2
HEADER
   9
$ACADVER
   1
AC1015
   9
$DWGCODEPAGE
   3
ANSI_932
   9
$LIMMIN
  10
0.0
  20
0.0
   9
$LIMMAX
  10
 8400.0000000000
  20
 5940.0000000000
   9
$EXTMIN
  10
0.0
  20
0.0
  30
0.0
   9
$EXTMAX
  10
 8400.0000000000
  20
 5940.0000000000
  30
0.0
   9
$LTSCALE
  40
 168.00000000000
   9
$HANDSEED
   5
34D
   0
ENDSEC
   0
SECTION
   2
TABLES
  0
TABLE
  2
VPORT
  5
8
100
AcDbSymbolTable
 70
     1
  0
VPORT
  5
34C
100
AcDbSymbolTableRecord
100
AcDbViewportTableRecord
  2
*ACTIVE
 70
     0
 10
0.0
 20
0.0
 11
1.0
 21
1.0
  12
 4200.0000000000
  22
 2970.0000000000
 13
0.0
 23
0.0
 14
1.0
 24
1.0
 15
0.0
 25
0.0
 16
0.0
 26
0.0
 36
1.0
 17
0.0
 27
0.0
 37
0.0
  40
 8400.0000000000
  41
 1.4787878787879
 42
50.0
 43
0.0
 44
0.0
 50
0.0
 51
0.0
 71
     0
 72
   100
 73
     1
 74
     1
 75
     0
 76
     0
 77
     0
 78
     0
  0
ENDTAB
  0
TABLE
  2
LTYPE
  5
5
100
AcDbSymbolTable
 70
    25
  0
LTYPE
  5
12
100
AcDbSymbolTableRecord
100
AcDbLinetypeTableRecord
  2
BYBLOCK
 70
     0
  3

 72
    65
 73
     0
 40
0.0
  0
LTYPE
  5
13
100
AcDbSymbolTableRecord
100
AcDbLinetypeTableRecord
  2
BYLAYER
 70
     0
  3

 72
    65
 73
     0
 40
0.0
  0
LTYPE
  5
14
100
AcDbSymbolTableRecord
100
AcDbLinetypeTableRecord
  2
CONTINUOUS
 70
     0
  3
Solid line
 72
    65
 73
     0
 40
0.0
  0
LTYPE
  5
20
100
AcDbSymbolTableRecord
100
AcDbLinetypeTableRecord
  2
BORDER
 70
     0
  3
__ __ . __ __ . __ __ . __ __ . __ __ . __ __ .
 72
    65
 73
     6
 40
1.75
 49
0.5
 74
     0
 49
-0.25
 74
     0
 49
0.5
 74
     0
 49
-0.25
 74
     0
 49
0.0
 74
     0
 49
-0.25
 74
     0
  0
LTYPE
  5
21
100
AcDbSymbolTableRecord
100
AcDbLinetypeTableRecord
  2
BORDER2
 70
     0
  3
__.__.__.__.__.__.__.__.__.__.__.__.__.__.__.__
 72
    65
 73
     6
 40
0.875
 49
0.25
 74
     0
 49
-0.125
 74
     0
 49
0.25
 74
     0
 49
-0.125
 74
     0
 49
0.0
 74
     0
 49
-0.125
 74
     0
  0
LTYPE
  5
22
100
AcDbSymbolTableRecord
100
AcDbLinetypeTableRecord
  2
BORDERX2
 70
     0
  3
____  ____  .  ____  ____  .  ____  ____  .  __
 72
    65
 73
     6
 40
3.5
 49
1.0
 74
     0
 49
-0.5
 74
     0
 49
1.0
 74
     0
 49
-0.5
 74
     0
 49
0.0
 74
     0
 49
-0.5
 74
     0
  0
LTYPE
  5
23
100
AcDbSymbolTableRecord
100
AcDbLinetypeTableRecord
  2
CENTER
 70
     0
  3
____ _ ____ _ ____ _ ____ _ ____ _ ____ _ ____ 
 72
    65
 73
     4
 40
2.0
 49
1.25
 74
     0
 49
-0.25
 74
     0
 49
0.25
 74
     0
 49
-0.25
 74
     0
  0
LTYPE
  5
24
100
AcDbSymbolTableRecord
100
AcDbLinetypeTableRecord
  2
CENTER2
 70
     0
  3
___ _ ___ _ ___ _ ___ _ ___ _ ___ _ ___ _ ___ _
 72
    65
 73
     4
 40
1.125
 49
0.75
 74
     0
 49
-0.125
 74
     0
 49
0.125
 74
     0
 49
-0.125
 74
     0
  0
LTYPE
  5
25
100
AcDbSymbolTableRecord
100
AcDbLinetypeTableRecord
  2
CENTERX2
 70
     0
  3
________  __  ________  __  ________  __  _____
 72
    65
 73
     4
 40
4.0
 49
2.5
 74
     0
 49
-0.5
 74
     0
 49
0.5
 74
     0
 49
-0.5
 74
     0
  0
LTYPE
  5
26
100
AcDbSymbolTableRecord
100
AcDbLinetypeTableRecord
  2
DASHDOT
 70
     0
  3
__ . __ . __ . __ . __ . __ . __ . __ . __ . __
 72
    65
 73
     4
 40
1.0
 49
0.5
 74
     0
 49
-0.25
 74
     0
 49
0.0
 74
     0
 49
-0.25
 74
     0
  0
LTYPE
  5
27
100
AcDbSymbolTableRecord
100
AcDbLinetypeTableRecord
  2
DASHDOT2
 70
     0
  3
_._._._._._._._._._._._._._._._._._._._._._._._
 72
    65
 73
     4
 40
0.5
 49
0.25
 74
     0
 49
-0.125
 74
     0
 49
0.0
 74
     0
 49
-0.125
 74
     0
  0
LTYPE
  5
28
100
AcDbSymbolTableRecord
100
AcDbLinetypeTableRecord
  2
DASHDOTX2
 70
     0
  3
____  .  ____  .  ____  .  ____  .  ____  .  __
 72
    65
 73
     4
 40
2.0
 49
1.0
 74
     0
 49
-0.5
 74
     0
 49
0.0
 74
     0
 49
-0.5
 74
     0
  0
LTYPE
  5
29
100
AcDbSymbolTableRecord
100
AcDbLinetypeTableRecord
  2
DASHED
 70
     0
  3
__ __ __ __ __ __ __ __ __ __ __ __ __ __ __ __
 72
    65
 73
     2
 40
0.75
 49
0.5
 74
     0
 49
-0.25
 74
     0
  0
LTYPE
  5
2A
100
AcDbSymbolTableRecord
100
AcDbLinetypeTableRecord
  2
DASHED2
 70
     0
  3
_ _ _ _ _ _ _ _ _ _ _ _ _ _ _ _ _ _ _ _ _ _ _ _
 72
    65
 73
     2
 40
0.375
 49
0.25
 74
     0
 49
-0.125
 74
     0
  0
LTYPE
  5
2B
100
AcDbSymbolTableRecord
100
AcDbLinetypeTableRecord
  2
DASHEDX2
 70
     0
  3
____  ____  ____  ____  ____  ____  ____  ____ 
 72
    65
 73
     2
 40
1.5
 49
1.0
 74
     0
 49
-0.5
 74
     0
  0
LTYPE
  5
2C
100
AcDbSymbolTableRecord
100
AcDbLinetypeTableRecord
  2
DIVIDE
 70
     0
  3
____ . . ____ . . ____ . . ____ . . ____ . . __
 72
    65
 73
     6
 40
1.25
 49
0.5
 74
     0
 49
-0.25
 74
     0
 49
0.0
 74
     0
 49
-0.25
 74
     0
 49
0.0
 74
     0
 49
-0.25
 74
     0
  0
LTYPE
  5
2D
100
AcDbSymbolTableRecord
100
AcDbLinetypeTableRecord
  2
DIVIDE2
 70
     0
  3
__..__..__..__..__..__..__..__..__..__..__..__.
 72
    65
 73
     6
 40
0.625
 49
0.25
 74
     0
 49
-0.125
 74
     0
 49
0.0
 74
     0
 49
-0.125
 74
     0
 49
0.0
 74
     0
 49
-0.125
 74
     0
  0
LTYPE
  5
2E
100
AcDbSymbolTableRecord
100
AcDbLinetypeTableRecord
  2
DIVIDEX2
 70
     0
  3
________  .  .  ________  .  .  ________  .  . 
 72
    65
 73
     6
 40
2.5
 49
1.0
 74
     0
 49
-0.5
 74
     0
 49
0.0
 74
     0
 49
-0.5
 74
     0
 49
0.0
 74
     0
 49
-0.5
 74
     0
  0
LTYPE
  5
2F
100
AcDbSymbolTableRecord
100
AcDbLinetypeTableRecord
  2
DOT
 70
     0
  3
. . . . . . . . . . . . . . . . . . . . . . . .
 72
    65
 73
     2
 40
0.25
 49
0.0
 74
     0
 49
-0.25
 74
     0
  0
LTYPE
  5
30
100
AcDbSymbolTableRecord
100
AcDbLinetypeTableRecord
  2
DOT2
 70
     0
  3
...............................................
 72
    65
 73
     2
 40
0.125
 49
0.0
 74
     0
 49
-0.125
 74
     0
  0
LTYPE
  5
31
100
AcDbSymbolTableRecord
100
AcDbLinetypeTableRecord
  2
DOTX2
 70
     0
  3
.  .  .  .  .  .  .  .  .  .  .  .  .  .  .  . 
 72
    65
 73
     2
 40
0.5
 49
0.0
 74
     0
 49
-0.5
 74
     0
  0
LTYPE
  5
32
100
AcDbSymbolTableRecord
100
AcDbLinetypeTableRecord
  2
HIDDEN
 70
     0
  3
__ __ __ __ __ __ __ __ __ __ __ __ __ __ __ __
 72
    65
 73
     2
 40
0.375
 49
0.25
 74
     0
 49
-0.125
 74
     0
  0
LTYPE
  5
33
100
AcDbSymbolTableRecord
100
AcDbLinetypeTableRecord
  2
HIDDEN2
 70
     0
  3
_ _ _ _ _ _ _ _ _ _ _ _ _ _ _ _ _ _ _ _ _ _ _ _
 72
    65
 73
     2
 40
0.1875
 49
0.125
 74
     0
 49
-0.0625
 74
     0
  0
LTYPE
  5
34
100
AcDbSymbolTableRecord
100
AcDbLinetypeTableRecord
  2
HIDDENX2
 70
     0
  3
____ ____ ____ ____ ____ ____ ____ ____ ____ __
 72
    65
 73
     2
 40
0.75
 49
0.5
 74
     0
 49
-0.25
 74
     0
  0
LTYPE
  5
35
100
AcDbSymbolTableRecord
100
AcDbLinetypeTableRecord
  2
PHANTOM
 70
     0
  3
______  __  __  ______  __  __  ______  __  __ 
 72
    65
 73
     6
 40
2.5
 49
1.25
 74
     0
 49
-0.25
 74
     0
 49
0.25
 74
     0
 49
-0.25
 74
     0
 49
0.25
 74
     0
 49
-0.25
 74
     0
  0
LTYPE
  5
36
100
AcDbSymbolTableRecord
100
AcDbLinetypeTableRecord
  2
PHANTOM2
 70
     0
  3
___ _ _ ___ _ _ ___ _ _ ___ _ _ ___ _ _ ___ _ _
 72
    65
 73
     6
 40
1.25
 49
0.625
 74
     0
 49
-0.125
 74
     0
 49
0.125
 74
     0
 49
-0.125
 74
     0
 49
0.125
 74
     0
 49
-0.125
 74
     0
  0
LTYPE
  5
37
100
AcDbSymbolTableRecord
100
AcDbLinetypeTableRecord
  2
PHANTOMX2
 70
     0
  3
____________    ____    ____    ____________   
 72
    65
 73
     6
 40
5.0
 49
2.5
 74
     0
 49
-0.5
 74
     0
 49
0.5
 74
     0
 49
-0.5
 74
     0
 49
0.5
 74
     0
 49
-0.5
 74
     0
  0
ENDTAB
   0
TABLE
   2
LAYER
   5
2
 100
AcDbSymbolTable
  70
2
   0
LAYER
   5
E
 100
AcDbSymbolTableRecord
 100
AcDbLayerTableRecord
   2
0
  70
0
  62
7
   6
CONTINUOUS
 390
30
   0
LAYER
   5
39
 100
AcDbSymbolTableRecord
 100
AcDbLayerTableRecord
   2
LEVEL001
  70
0
  62
7
   6
CONTINUOUS
 390
30
   0
ENDTAB
  0
TABLE
  2
STYLE
  5
3
100
AcDbSymbolTable
  70
10
  0
STYLE
  5
F
100
AcDbSymbolTableRecord
100
AcDbTextStyleTableRecord
  2
STANDARD
 70
     0
 40
0.0
 41
1.0
 50
0.0
 71
     0
 42
0.2
  3
TXT
  4
BIGFONT
  0
STYLE
  5
38
100
AcDbSymbolTableRecord
100
AcDbTextStyleTableRecord
  2
STANDARD1
 70
     4
 40
0.0
 41
1.0
 50
0.0
 71
     0
 42
0.2
  3
TXT
  4
BIGFONT
   0
STYLE
   5
3A
 100
AcDbSymbolTableRecord
 100
AcDbTextStyleTableRecord
   2
GMM001
  70
0
  40
0.0
  41
 0.87500000000000
  50
0.0
  71
     0
  42
1.0
   3
txt.shx
   4
bigfont.shx
   0
STYLE
   5
3B
 100
AcDbSymbolTableRecord
 100
AcDbTextStyleTableRecord
   2
GMM002
  70
0
  40
0.0
  41
 0.90000000000000
  50
0.0
  71
     0
  42
1.0
   3
txt.shx
   4
bigfont.shx
   0
STYLE
   5
3C
 100
AcDbSymbolTableRecord
 100
AcDbTextStyleTableRecord
   2
GMM003
  70
0
  40
0.0
  41
 1.0000000000000
  50
0.0
  71
     0
  42
1.0
   3
txt.shx
   4
bigfont.shx
   0
STYLE
   5
3D
 100
AcDbSymbolTableRecord
 100
AcDbTextStyleTableRecord
   2
GMM004
  70
0
  40
0.0
  41
 0.78787878787879
  50
0.0
  71
     0
  42
1.0
   3
txt.shx
   4
bigfont.shx
   0
STYLE
   5
3E
 100
AcDbSymbolTableRecord
 100
AcDbTextStyleTableRecord
   2
GMM005
  70
0
  40
0.0
  41
 0.75000000000000
  50
0.0
  71
     0
  42
1.0
   3
txt.shx
   4
bigfont.shx
   0
STYLE
   5
3F
 100
AcDbSymbolTableRecord
 100
AcDbTextStyleTableRecord
   2
GMM006
  70
0
  40
0.0
  41
 0.90000000000000
  50
0.0
  71
     0
  42
1.0
   3

   4

1001
ACAD
1000
ＭＳ 明朝
1071
33587217
   0
STYLE
   5
40
 100
AcDbSymbolTableRecord
 100
AcDbTextStyleTableRecord
   2
GMM007
  70
0
  40
0.0
  41
 1.0000000000000
  50
0.0
  71
     0
  42
1.0
   3

   4

1001
ACAD
1000
ＭＳ 明朝
1071
32785
   0
STYLE
   5
41
 100
AcDbSymbolTableRecord
 100
AcDbTextStyleTableRecord
   2
GMM008
  70
0
  40
0.0
  41
 1.6363636363636
  50
0.0
  71
     0
  42
1.0
   3
txt.shx
   4
bigfont.shx
   0
ENDTAB
  0
TABLE
  2
VIEW
  5
6
100
AcDbSymbolTable
 70
     0
  0
ENDTAB
  0
TABLE
  2
UCS
  5
7
100
AcDbSymbolTable
 70
     0
  0
ENDTAB
  0
TABLE
  2
APPID
  5
9
100
AcDbSymbolTable
 70
     1
  0
APPID
  5
10
100
AcDbSymbolTableRecord
100
AcDbRegAppTableRecord
  2
ACAD
 70
     0
  0
ENDTAB
   0
TABLE
   2
DIMSTYLE
   5
A
 100
AcDbSymbolTable
  70
12
 100
AcDbDimStyleTable
  0
DIMSTYLE
105
1D
100
AcDbSymbolTableRecord
100
AcDbDimStyleTableRecord
  2
STANDARD
 70
     0
  3

  4

  5

  6

  7

 40
1.0
 41
0.18
 42
0.0625
 43
0.38
 44
0.18
 45
0.0
 46
0.0
 47
0.0
 48
0.0
140
0.18
141
0.09
142
0.0
143
25.4
144
1.0
145
0.0
146
1.0
147
0.09
 71
     0
 72
     0
 73
     1
 74
     1
 75
     0
 76
     0
 77
     0
 78
     0
170
     0
171
     2
172
     0
173
     0
174
     0
175
     0
176
     0
177
     0
178
     0
270
     2
271
     4
272
     4
273
     2
274
     2
340
F
275
     0
280
     0
281
     0
282
     0
283
     1
284
     0
285
     0
286
     0
287
     3
288
     0
   0
DIMSTYLE
 105
42
 100
AcDbSymbolTableRecord
 100
AcDbDimStyleTableRecord
   2
GMM001
  70
0
   3

   4

   5

   6
_OPEN
   7
_OPEN
  40
 1.0000000000000
  41
 30.000000000000
  42
 30.000000000000
  43
 160.00000000000
  44
 30.000000000000
  45
0.0
  46
 37.500000000000
  47
0.0
  48
0.0
 140
 66.000000000000
 141
 20.000000000000
 142
0.0
 143
 0.39400000000000E-1
 144
 1.0000000000000
 145
0.0
 146
 0.62500000000000
 147
0.0
  71
0
  72
0
  73
0
  74
0
  75
1
  76
1
  77
0
  78
8
 170
0
 171
2
 172
1
 173
1
 174
0
 175
0
 176
1
 177
1
 178
1
 270
2
 271
1
 272
0
 273
2
 274
2
 340
F
 275
0
 280
0
 281
0
 282
0
 283
1
 284
0
 285
0
 286
0
 287
3
 288
0
   0
DIMSTYLE
 105
43
 100
AcDbSymbolTableRecord
 100
AcDbDimStyleTableRecord
   2
GMM002
  70
0
   3

   4

   5

   6
_OPEN
   7
_OPEN
  40
 1.0000000000000
  41
 30.000000000000
  42
 40.000000000000
  43
 160.00000000000
  44
 40.000000000000
  45
0.0
  46
 37.500000000000
  47
0.0
  48
0.0
 140
 66.000000000000
 141
 20.000000000000
 142
0.0
 143
 0.39400000000000E-1
 144
 1.0000000000000
 145
0.0
 146
 0.62500000000000
 147
 28.285714285714
  71
0
  72
0
  73
0
  74
0
  75
1
  76
1
  77
1
  78
8
 170
0
 171
2
 172
1
 173
1
 174
0
 175
0
 176
6
 177
6
 178
1
 270
2
 271
6
 272
0
 273
2
 274
2
 340
3D
 275
1
 280
0
 281
0
 282
0
 283
1
 284
0
 285
0
 286
0
 287
3
 288
1
   0
DIMSTYLE
 105
44
 100
AcDbSymbolTableRecord
 100
AcDbDimStyleTableRecord
   2
GMM003
  70
0
   3

   4

   5

   6
_OPEN
   7
_OPEN
  40
 1.0000000000000
  41
 30.000000000000
  42
 30.000000000000
  43
 160.00000000000
  44
 30.000000000000
  45
0.0
  46
 37.500000000000
  47
0.0
  48
0.0
 140
 66.000000000000
 141
 20.000000000000
 142
0.0
 143
 0.39400000000000E-1
 144
 1.0000000000000
 145
0.0
 146
 0.62500000000000
 147
0.0
  71
0
  72
0
  73
0
  74
0
  75
1
  76
1
  77
0
  78
8
 170
0
 171
2
 172
1
 173
1
 174
0
 175
0
 176
1
 177
1
 178
1
 270
2
 271
1
 272
0
 273
2
 274
2
 340
F
 275
0
 280
0
 281
0
 282
0
 283
1
 284
0
 285
0
 286
0
 287
3
 288
0
   0
DIMSTYLE
 105
45
 100
AcDbSymbolTableRecord
 100
AcDbDimStyleTableRecord
   2
GMM004
  70
0
   3

   4

   5

   6
_OPEN
   7
_OPEN
  40
 1.0000000000000
  41
 30.000000000000
  42
 30.000000000000
  43
 160.00000000000
  44
 30.000000000000
  45
0.0
  46
 37.500000000000
  47
0.0
  48
0.0
 140
 66.000000000000
 141
 20.000000000000
 142
0.0
 143
 0.39400000000000E-1
 144
 1.0000000000000
 145
0.0
 146
 0.62500000000000
 147
 28.285714285714
  71
0
  72
0
  73
0
  74
0
  75
0
  76
1
  77
1
  78
8
 170
0
 171
2
 172
1
 173
1
 174
0
 175
0
 176
6
 177
6
 178
1
 270
2
 271
1
 272
0
 273
2
 274
2
 340
3D
 275
0
 280
0
 281
0
 282
0
 283
1
 284
0
 285
0
 286
0
 287
3
 288
0
   0
DIMSTYLE
 105
46
 100
AcDbSymbolTableRecord
 100
AcDbDimStyleTableRecord
   2
GMM005
  70
0
   3
<>(標準設置高さ
   4

   5

   6
_OPEN
   7
_OPEN
  40
 1.0000000000000
  41
 30.000000000000
  42
 30.000000000000
  43
 160.00000000000
  44
 30.000000000000
  45
0.0
  46
 37.500000000000
  47
0.0
  48
0.0
 140
 66.000000000000
 141
 20.000000000000
 142
0.0
 143
 0.39400000000000E-1
 144
 1.0000000000000
 145
0.0
 146
 0.62500000000000
 147
 28.285714285714
  71
0
  72
0
  73
0
  74
0
  75
0
  76
0
  77
1
  78
8
 170
0
 171
2
 172
1
 173
1
 174
0
 175
0
 176
6
 177
6
 178
1
 270
2
 271
1
 272
0
 273
2
 274
2
 340
3D
 275
0
 280
0
 281
0
 282
0
 283
1
 284
0
 285
0
 286
0
 287
3
 288
0
   0
DIMSTYLE
 105
47
 100
AcDbSymbolTableRecord
 100
AcDbDimStyleTableRecord
   2
GMM006
  70
0
   3

   4

   5

   6
_OPEN
   7
_OPEN
  40
 1.0000000000000
  41
 30.000000000000
  42
 30.000000000000
  43
 160.00000000000
  44
 30.000000000000
  45
0.0
  46
 37.500000000000
  47
0.0
  48
0.0
 140
 66.000000000000
 141
 20.000000000000
 142
0.0
 143
 0.39400000000000E-1
 144
 1.0000000000000
 145
0.0
 146
 0.62500000000000
 147
0.0
  71
0
  72
0
  73
0
  74
0
  75
1
  76
1
  77
0
  78
8
 170
0
 171
2
 172
1
 173
1
 174
0
 175
0
 176
1
 177
1
 178
1
 270
2
 271
1
 272
0
 273
2
 274
2
 340
F
 275
0
 280
0
 281
0
 282
0
 283
1
 284
0
 285
0
 286
0
 287
3
 288
0
   0
DIMSTYLE
 105
48
 100
AcDbSymbolTableRecord
 100
AcDbDimStyleTableRecord
   2
GMM007
  70
0
   3
□<>
   4

   5

   6
_OPEN
   7
_OPEN
  40
 1.0000000000000
  41
 30.000000000000
  42
 30.000000000000
  43
 160.00000000000
  44
 30.000000000000
  45
0.0
  46
 37.500000000000
  47
0.0
  48
0.0
 140
 66.000000000000
 141
 20.000000000000
 142
0.0
 143
 0.39400000000000E-1
 144
 1.0000000000000
 145
0.0
 146
 0.62500000000000
 147
 28.285714285714
  71
0
  72
0
  73
0
  74
0
  75
0
  76
0
  77
1
  78
8
 170
0
 171
2
 172
1
 173
1
 174
0
 175
0
 176
6
 177
6
 178
1
 270
2
 271
1
 272
0
 273
2
 274
2
 340
3D
 275
0
 280
0
 281
0
 282
0
 283
1
 284
0
 285
0
 286
0
 287
3
 288
0
   0
DIMSTYLE
 105
49
 100
AcDbSymbolTableRecord
 100
AcDbDimStyleTableRecord
   2
GMM008
  70
0
   3

   4

   5

   6
_OPEN
   7
_OPEN
  40
 1.0000000000000
  41
 30.000000000000
  42
 30.000000000000
  43
 160.00000000000
  44
 30.000000000000
  45
0.0
  46
 37.500000000000
  47
0.0
  48
0.0
 140
 66.000000000000
 141
 20.000000000000
 142
0.0
 143
 0.39400000000000E-1
 144
 1.0000000000000
 145
0.0
 146
 0.62500000000000
 147
0.0
  71
0
  72
0
  73
0
  74
0
  75
1
  76
1
  77
0
  78
8
 170
0
 171
2
 172
1
 173
1
 174
0
 175
0
 176
1
 177
1
 178
1
 270
2
 271
1
 272
0
 273
2
 274
2
 340
F
 275
0
 280
0
 281
0
 282
0
 283
1
 284
0
 285
0
 286
0
 287
3
 288
0
   0
DIMSTYLE
 105
4A
 100
AcDbSymbolTableRecord
 100
AcDbDimStyleTableRecord
   2
GMM009
  70
0
   3
□<>
   4

   5

   6
_OPEN
   7
_OPEN
  40
 1.0000000000000
  41
 30.000000000000
  42
 30.000000000000
  43
 160.00000000000
  44
 30.000000000000
  45
0.0
  46
 37.500000000000
  47
0.0
  48
0.0
 140
 66.000000000000
 141
 20.000000000000
 142
0.0
 143
 0.39400000000000E-1
 144
 1.0000000000000
 145
0.0
 146
 0.62500000000000
 147
 28.285714285714
  71
0
  72
0
  73
0
  74
0
  75
0
  76
0
  77
1
  78
8
 170
0
 171
2
 172
1
 173
1
 174
0
 175
0
 176
6
 177
6
 178
1
 270
2
 271
1
 272
0
 273
2
 274
2
 340
3D
 275
0
 280
0
 281
0
 282
0
 283
1
 284
0
 285
0
 286
0
 287
3
 288
0
   0
DIMSTYLE
 105
4B
 100
AcDbSymbolTableRecord
 100
AcDbDimStyleTableRecord
   2
GMM010
  70
0
   3

   4

   5

   6
_OPEN
   7
_OPEN
  40
 1.0000000000000
  41
 30.000000000000
  42
 30.000000000000
  43
 160.00000000000
  44
 30.000000000000
  45
0.0
  46
 37.500000000000
  47
0.0
  48
0.0
 140
 66.000000000000
 141
 20.000000000000
 142
0.0
 143
 0.39400000000000E-1
 144
 1.0000000000000
 145
0.0
 146
 0.62500000000000
 147
 28.285714285714
  71
0
  72
0
  73
0
  74
0
  75
1
  76
0
  77
1
  78
8
 170
0
 171
2
 172
1
 173
1
 174
0
 175
0
 176
6
 177
6
 178
1
 270
2
 271
1
 272
0
 273
2
 274
2
 340
3D
 275
0
 280
0
 281
0
 282
0
 283
1
 284
0
 285
0
 286
0
 287
3
 288
0
   0
ENDTAB
  0
TABLE
  2
BLOCK_RECORD
  5
1
100
AcDbSymbolTable
 70
     0
  0
BLOCK_RECORD
  5
18
100
AcDbSymbolTableRecord
100
AcDbBlockTableRecord
  2
*MODEL_SPACE
  0
BLOCK_RECORD
  5
15
100
AcDbSymbolTableRecord
100
AcDbBlockTableRecord
  2
*PAPER_SPACE
   0
BLOCK_RECORD
   5
4C
 100
AcDbSymbolTableRecord
 100
AcDbBlockTableRecord
   2
*D8
   0
BLOCK_RECORD
   5
4D
 100
AcDbSymbolTableRecord
 100
AcDbBlockTableRecord
   2
*D9
   0
BLOCK_RECORD
   5
4E
 100
AcDbSymbolTableRecord
 100
AcDbBlockTableRecord
   2
*D12
   0
BLOCK_RECORD
   5
4F
 100
AcDbSymbolTableRecord
 100
AcDbBlockTableRecord
   2
*D13
   0
BLOCK_RECORD
   5
50
 100
AcDbSymbolTableRecord
 100
AcDbBlockTableRecord
   2
*D14
   0
BLOCK_RECORD
   5
51
 100
AcDbSymbolTableRecord
 100
AcDbBlockTableRecord
   2
*D19
   0
BLOCK_RECORD
   5
52
 100
AcDbSymbolTableRecord
 100
AcDbBlockTableRecord
   2
*D21
   0
BLOCK_RECORD
   5
53
 100
AcDbSymbolTableRecord
 100
AcDbBlockTableRecord
   2
*D22
   0
BLOCK_RECORD
   5
54
 100
AcDbSymbolTableRecord
 100
AcDbBlockTableRecord
   2
_ARCHTICK
   0
BLOCK_RECORD
   5
55
 100
AcDbSymbolTableRecord
 100
AcDbBlockTableRecord
   2
_BOXBLANK
   0
BLOCK_RECORD
   5
56
 100
AcDbSymbolTableRecord
 100
AcDbBlockTableRecord
   2
_BOXFILLED
   0
BLOCK_RECORD
   5
57
 100
AcDbSymbolTableRecord
 100
AcDbBlockTableRecord
   2
_CLOSED
   0
BLOCK_RECORD
   5
58
 100
AcDbSymbolTableRecord
 100
AcDbBlockTableRecord
   2
_CLOSEDBLANK
   0
BLOCK_RECORD
   5
59
 100
AcDbSymbolTableRecord
 100
AcDbBlockTableRecord
   2
_DATUMBLANK
   0
BLOCK_RECORD
   5
5A
 100
AcDbSymbolTableRecord
 100
AcDbBlockTableRecord
   2
_DATUMFILLED
   0
BLOCK_RECORD
   5
5B
 100
AcDbSymbolTableRecord
 100
AcDbBlockTableRecord
   2
_DOT
   0
BLOCK_RECORD
   5
5C
 100
AcDbSymbolTableRecord
 100
AcDbBlockTableRecord
   2
_DOTBLANK
   0
BLOCK_RECORD
   5
5D
 100
AcDbSymbolTableRecord
 100
AcDbBlockTableRecord
   2
_DOTSMALL
   0
BLOCK_RECORD
   5
5E
 100
AcDbSymbolTableRecord
 100
AcDbBlockTableRecord
   2
_INTEGRAL
   0
BLOCK_RECORD
   5
5F
 100
AcDbSymbolTableRecord
 100
AcDbBlockTableRecord
   2
_NONE
   0
BLOCK_RECORD
   5
60
 100
AcDbSymbolTableRecord
 100
AcDbBlockTableRecord
   2
_OBLIQUE
   0
BLOCK_RECORD
   5
61
 100
AcDbSymbolTableRecord
 100
AcDbBlockTableRecord
   2
_OPEN
   0
BLOCK_RECORD
   5
62
 100
AcDbSymbolTableRecord
 100
AcDbBlockTableRecord
   2
_OPEN30
   0
BLOCK_RECORD
   5
63
 100
AcDbSymbolTableRecord
 100
AcDbBlockTableRecord
   2
_OPEN90
   0
BLOCK_RECORD
   5
64
 100
AcDbSymbolTableRecord
 100
AcDbBlockTableRecord
   2
_ORIGIN
   0
ENDTAB
   0
ENDSEC
  0
SECTION
  2
BLOCKS
  0
BLOCK
  5
19
100
AcDbEntity
  8
0
100
AcDbBlockBegin
  2
*MODEL_SPACE
 70
     0
 10
0.0
 20
0.0
 30
0.0
  3
*MODEL_SPACE
  1

  0
ENDBLK
  5
1A
100
AcDbEntity
  8
0
100
AcDbBlockEnd
  0
BLOCK
  5
16
100
AcDbEntity
 67
     1
  8
0
100
AcDbBlockBegin
  2
*PAPER_SPACE
 70
     0
 10
0.0
 20
0.0
 30
0.0
  3
*PAPER_SPACE
  1

  0
ENDBLK
  5
17
100
AcDbEntity
 67
     1
  8
0
100
AcDbBlockEnd
   0
BLOCK
   5
65
 100
AcDbEntity
   8
0
 100
AcDbBlockBegin
   2
_ARCHTICK
  70
0
  10
0.0
  20
0.0
  30
0.0
   3
_ARCHTICK
   0
POLYLINE
   5
66
 100
AcDbEntity
   8
0
 370
-2
   6
BYBLOCK
  62
0
 100
AcDb2dPolyline
  66
1
  10
0.0
  20
0.0
  30
0.0
  70
1
  40
 0.15000000000000
  41
 0.15000000000000
   0
VERTEX
   5
67
 100
AcDbEntity
   8
0
   6
BYBLOCK
  62
0
 100
AcDbVertex
 100
AcDb2dVertex
  10
-0.50000000000000
  20
-0.50000000000000
  30
0.0
  40
 0.15000000000000
  41
 0.15000000000000
   0
VERTEX
   5
68
 100
AcDbEntity
   8
0
   6
BYBLOCK
  62
0
 100
AcDbVertex
 100
AcDb2dVertex
  10
 0.50000000000000
  20
 0.50000000000000
  30
0.0
  40
 0.15000000000000
  41
 0.15000000000000
   0
SEQEND
   5
69
 100
AcDbEntity
   8
0
   6
BYBLOCK
  62
0
   0
ENDBLK
   5
6A
 100
AcDbEntity
   8
0
 100
AcDbBlockEnd
   0
BLOCK
   5
6B
 100
AcDbEntity
   8
0
 100
AcDbBlockBegin
   2
_OBLIQUE
  70
0
  10
0.0
  20
0.0
  30
0.0
   3
_OBLIQUE
   0
LINE
   5
6C
 100
AcDbEntity
   8
0
 370
-2
 100
AcDbLine
   6
BYBLOCK
  62
0
  10
-0.50000000000000
  20
-0.50000000000000
  30
0.0
  11
 0.50000000000000
  21
 0.50000000000000
  31
0.0
   0
ENDBLK
   5
6D
 100
AcDbEntity
   8
0
 100
AcDbBlockEnd
   0
BLOCK
   5
6E
 100
AcDbEntity
   8
0
 100
AcDbBlockBegin
   2
_BOXBLANK
  70
0
  10
0.0
  20
0.0
  30
0.0
   3
_BOXBLANK
   0
LINE
   5
6F
 100
AcDbEntity
   8
0
 370
-2
 100
AcDbLine
   6
BYBLOCK
  62
0
  10
-0.50000000000000
  20
-0.50000000000000
  30
0.0
  11
 0.50000000000000
  21
-0.50000000000000
  31
0.0
   0
LINE
   5
70
 100
AcDbEntity
   8
0
 370
-2
 100
AcDbLine
   6
BYBLOCK
  62
0
  10
 0.50000000000000
  20
-0.50000000000000
  30
0.0
  11
 0.50000000000000
  21
 0.50000000000000
  31
0.0
   0
LINE
   5
71
 100
AcDbEntity
   8
0
 370
-2
 100
AcDbLine
   6
BYBLOCK
  62
0
  10
 0.50000000000000
  20
 0.50000000000000
  30
0.0
  11
-0.50000000000000
  21
 0.50000000000000
  31
0.0
   0
LINE
   5
72
 100
AcDbEntity
   8
0
 370
-2
 100
AcDbLine
   6
BYBLOCK
  62
0
  10
-0.50000000000000
  20
 0.50000000000000
  30
0.0
  11
-0.50000000000000
  21
-0.50000000000000
  31
0.0
   0
LINE
   5
73
 100
AcDbEntity
   8
0
 370
-2
 100
AcDbLine
   6
BYBLOCK
  62
0
  10
-0.50000000000000
  20
0.0
  30
0.0
  11
-1.0000000000000
  21
0.0
  31
0.0
   0
ENDBLK
   5
74
 100
AcDbEntity
   8
0
 100
AcDbBlockEnd
   0
BLOCK
   5
75
 100
AcDbEntity
   8
0
 100
AcDbBlockBegin
   2
_BOXFILLED
  70
0
  10
0.0
  20
0.0
  30
0.0
   3
_BOXFILLED
   0
SOLID
   5
76
 100
AcDbEntity
   8
0
 100
AcDbTrace
   6
BYBLOCK
  62
0
  10
-0.50000000000000
  20
 0.50000000000000
  30
0.0
  11
 0.50000000000000
  21
 0.50000000000000
  31
0.0
  12
-0.50000000000000
  22
-0.50000000000000
  32
0.0
  13
 0.50000000000000
  23
-0.50000000000000
  33
0.0
   0
LINE
   5
77
 100
AcDbEntity
   8
0
 370
-2
 100
AcDbLine
   6
BYBLOCK
  62
0
  10
-0.50000000000000
  20
0.0
  30
0.0
  11
-1.0000000000000
  21
0.0
  31
0.0
   0
ENDBLK
   5
78
 100
AcDbEntity
   8
0
 100
AcDbBlockEnd
   0
BLOCK
   5
79
 100
AcDbEntity
   8
0
 100
AcDbBlockBegin
   2
_CLOSED
  70
0
  10
0.0
  20
0.0
  30
0.0
   3
_CLOSED
   0
LINE
   5
7A
 100
AcDbEntity
   8
0
 370
-2
 100
AcDbLine
   6
BYBLOCK
  62
0
  10
-1.0000000000000
  20
 0.16666666666667
  30
0.0
  11
0.0
  21
0.0
  31
0.0
   0
LINE
   5
7B
 100
AcDbEntity
   8
0
 370
-2
 100
AcDbLine
   6
BYBLOCK
  62
0
  10
0.0
  20
0.0
  30
0.0
  11
-1.0000000000000
  21
-0.16666666666667
  31
0.0
   0
LINE
   5
7C
 100
AcDbEntity
   8
0
 370
-2
 100
AcDbLine
   6
BYBLOCK
  62
0
  10
-1.0000000000000
  20
 0.16666666666667
  30
0.0
  11
-1.0000000000000
  21
-0.16666666666667
  31
0.0
   0
LINE
   5
7D
 100
AcDbEntity
   8
0
 370
-2
 100
AcDbLine
   6
BYBLOCK
  62
0
  10
0.0
  20
0.0
  30
0.0
  11
-1.0000000000000
  21
0.0
  31
0.0
   0
ENDBLK
   5
7E
 100
AcDbEntity
   8
0
 100
AcDbBlockEnd
   0
BLOCK
   5
7F
 100
AcDbEntity
   8
0
 100
AcDbBlockBegin
   2
_OPEN
  70
0
  10
0.0
  20
0.0
  30
0.0
   3
_OPEN
   0
LINE
   5
80
 100
AcDbEntity
   8
0
 370
-2
 100
AcDbLine
   6
BYBLOCK
  62
0
  10
-1.0000000000000
  20
 0.16666666666667
  30
0.0
  11
0.0
  21
0.0
  31
0.0
   0
LINE
   5
81
 100
AcDbEntity
   8
0
 370
-2
 100
AcDbLine
   6
BYBLOCK
  62
0
  10
0.0
  20
0.0
  30
0.0
  11
-1.0000000000000
  21
-0.16666666666667
  31
0.0
   0
LINE
   5
82
 100
AcDbEntity
   8
0
 370
-2
 100
AcDbLine
   6
BYBLOCK
  62
0
  10
0.0
  20
0.0
  30
0.0
  11
-1.0000000000000
  21
0.0
  31
0.0
   0
ENDBLK
   5
83
 100
AcDbEntity
   8
0
 100
AcDbBlockEnd
   0
BLOCK
   5
84
 100
AcDbEntity
   8
0
 100
AcDbBlockBegin
   2
_OPEN30
  70
0
  10
0.0
  20
0.0
  30
0.0
   3
_OPEN30
   0
LINE
   5
85
 100
AcDbEntity
   8
0
 370
-2
 100
AcDbLine
   6
BYBLOCK
  62
0
  10
-1.0000000000000
  20
 0.26794919243110
  30
0.0
  11
0.0
  21
0.0
  31
0.0
   0
LINE
   5
86
 100
AcDbEntity
   8
0
 370
-2
 100
AcDbLine
   6
BYBLOCK
  62
0
  10
0.0
  20
0.0
  30
0.0
  11
-1.0000000000000
  21
-0.26794919243110
  31
0.0
   0
LINE
   5
87
 100
AcDbEntity
   8
0
 370
-2
 100
AcDbLine
   6
BYBLOCK
  62
0
  10
0.0
  20
0.0
  30
0.0
  11
-1.0000000000000
  21
0.0
  31
0.0
   0
ENDBLK
   5
88
 100
AcDbEntity
   8
0
 100
AcDbBlockEnd
   0
BLOCK
   5
89
 100
AcDbEntity
   8
0
 100
AcDbBlockBegin
   2
_OPEN90
  70
0
  10
0.0
  20
0.0
  30
0.0
   3
_OPEN90
   0
LINE
   5
8A
 100
AcDbEntity
   8
0
 370
-2
 100
AcDbLine
   6
BYBLOCK
  62
0
  10
-0.50000000000000
  20
 0.50000000000000
  30
0.0
  11
0.0
  21
0.0
  31
0.0
   0
LINE
   5
8B
 100
AcDbEntity
   8
0
 370
-2
 100
AcDbLine
   6
BYBLOCK
  62
0
  10
0.0
  20
0.0
  30
0.0
  11
-0.50000000000000
  21
-0.50000000000000
  31
0.0
   0
LINE
   5
8C
 100
AcDbEntity
   8
0
 370
-2
 100
AcDbLine
   6
BYBLOCK
  62
0
  10
0.0
  20
0.0
  30
0.0
  11
-1.0000000000000
  21
0.0
  31
0.0
   0
ENDBLK
   5
8D
 100
AcDbEntity
   8
0
 100
AcDbBlockEnd
   0
BLOCK
   5
8E
 100
AcDbEntity
   8
0
 100
AcDbBlockBegin
   2
_CLOSEDBLANK
  70
0
  10
0.0
  20
0.0
  30
0.0
   3
_CLOSEDBLANK
   0
LINE
   5
8F
 100
AcDbEntity
   8
0
 370
-2
 100
AcDbLine
   6
BYBLOCK
  62
0
  10
-1.0000000000000
  20
 0.16666666666667
  30
0.0
  11
0.0
  21
0.0
  31
0.0
   0
LINE
   5
90
 100
AcDbEntity
   8
0
 370
-2
 100
AcDbLine
   6
BYBLOCK
  62
0
  10
0.0
  20
0.0
  30
0.0
  11
-1.0000000000000
  21
-0.16666666666667
  31
0.0
   0
LINE
   5
91
 100
AcDbEntity
   8
0
 370
-2
 100
AcDbLine
   6
BYBLOCK
  62
0
  10
-1.0000000000000
  20
 0.16666666666667
  30
0.0
  11
-1.0000000000000
  21
-0.16666666666667
  31
0.0
   0
ENDBLK
   5
92
 100
AcDbEntity
   8
0
 100
AcDbBlockEnd
   0
BLOCK
   5
93
 100
AcDbEntity
   8
0
 100
AcDbBlockBegin
   2
_DOT
  70
0
  10
0.0
  20
0.0
  30
0.0
   3
_DOT
   0
POLYLINE
   5
94
 100
AcDbEntity
   8
0
 370
-2
   6
BYBLOCK
  62
0
 100
AcDb2dPolyline
  66
1
  10
0.0
  20
0.0
  30
0.0
  70
1
  40
 0.50000000000000
  41
 0.50000000000000
   0
VERTEX
   5
95
 100
AcDbEntity
   8
0
   6
BYBLOCK
  62
0
 100
AcDbVertex
 100
AcDb2dVertex
  10
-0.25000000000000
  20
0.0
  30
0.0
  42
 1.0000000000000
  40
 0.50000000000000
  41
 0.50000000000000
   0
VERTEX
   5
96
 100
AcDbEntity
   8
0
   6
BYBLOCK
  62
0
 100
AcDbVertex
 100
AcDb2dVertex
  10
 0.25000000000000
  20
0.0
  30
0.0
  42
 1.0000000000000
  40
 0.50000000000000
  41
 0.50000000000000
   0
SEQEND
   5
97
 100
AcDbEntity
   8
0
   6
BYBLOCK
  62
0
   0
LINE
   5
98
 100
AcDbEntity
   8
0
 370
-2
 100
AcDbLine
   6
BYBLOCK
  62
0
  10
-0.50000000000000
  20
0.0
  30
0.0
  11
-1.0000000000000
  21
0.0
  31
0.0
   0
ENDBLK
   5
99
 100
AcDbEntity
   8
0
 100
AcDbBlockEnd
   0
BLOCK
   5
9A
 100
AcDbEntity
   8
0
 100
AcDbBlockBegin
   2
_DOTSMALL
  70
0
  10
0.0
  20
0.0
  30
0.0
   3
_DOTSMALL
   0
POLYLINE
   5
9B
 100
AcDbEntity
   8
0
 370
-2
   6
BYBLOCK
  62
0
 100
AcDb2dPolyline
  66
1
  10
0.0
  20
0.0
  30
0.0
  70
1
  40
 0.50000000000000
  41
 0.50000000000000
   0
VERTEX
   5
9C
 100
AcDbEntity
   8
0
   6
BYBLOCK
  62
0
 100
AcDbVertex
 100
AcDb2dVertex
  10
-0.62500000000000E-1
  20
0.0
  30
0.0
  42
 1.0000000000000
  40
 0.50000000000000
  41
 0.50000000000000
   0
VERTEX
   5
9D
 100
AcDbEntity
   8
0
   6
BYBLOCK
  62
0
 100
AcDbVertex
 100
AcDb2dVertex
  10
 0.62500000000000E-1
  20
0.0
  30
0.0
  42
 1.0000000000000
  40
 0.50000000000000
  41
 0.50000000000000
   0
SEQEND
   5
9E
 100
AcDbEntity
   8
0
   6
BYBLOCK
  62
0
   0
ENDBLK
   5
9F
 100
AcDbEntity
   8
0
 100
AcDbBlockEnd
   0
BLOCK
   5
A0
 100
AcDbEntity
   8
0
 100
AcDbBlockBegin
   2
_DATUMBLANK
  70
0
  10
0.0
  20
0.0
  30
0.0
   3
_DATUMBLANK
   0
LINE
   5
A1
 100
AcDbEntity
   8
0
 370
-2
 100
AcDbLine
   6
BYBLOCK
  62
0
  10
0.0
  20
 0.57735027000000
  30
0.0
  11
-1.0000000000000
  21
0.0
  31
0.0
   0
LINE
   5
A2
 100
AcDbEntity
   8
0
 370
-2
 100
AcDbLine
   6
BYBLOCK
  62
0
  10
-1.0000000000000
  20
0.0
  30
0.0
  11
0.0
  21
-0.57735027000000
  31
0.0
   0
LINE
   5
A3
 100
AcDbEntity
   8
0
 370
-2
 100
AcDbLine
   6
BYBLOCK
  62
0
  10
0.0
  20
-0.57735027000000
  30
0.0
  11
0.0
  21
 0.57735027000000
  31
0.0
   0
ENDBLK
   5
A4
 100
AcDbEntity
   8
0
 100
AcDbBlockEnd
   0
BLOCK
   5
A5
 100
AcDbEntity
   8
0
 100
AcDbBlockBegin
   2
_DATUMFILLED
  70
0
  10
0.0
  20
0.0
  30
0.0
   3
_DATUMFILLED
   0
SOLID
   5
A6
 100
AcDbEntity
   8
0
 100
AcDbTrace
   6
BYBLOCK
  62
0
  10
0.0
  20
 0.57735027000000
  30
0.0
  11
-1.0000000000000
  21
0.0
  31
0.0
  12
0.0
  22
-0.57735027000000
  32
0.0
  13
0.0
  23
-0.57735027000000
  33
0.0
   0
ENDBLK
   5
A7
 100
AcDbEntity
   8
0
 100
AcDbBlockEnd
   0
BLOCK
   5
A8
 100
AcDbEntity
   8
0
 100
AcDbBlockBegin
   2
_ORIGIN
  70
0
  10
0.0
  20
0.0
  30
0.0
   3
_ORIGIN
   0
CIRCLE
   5
A9
 100
AcDbEntity
   8
0
 370
-2
 100
AcDbCircle
   6
BYBLOCK
  62
0
  10
0.0
  20
0.0
  30
0.0
  40
 0.50000000000000
   0
LINE
   5
AA
 100
AcDbEntity
   8
0
 370
-2
 100
AcDbLine
   6
BYBLOCK
  62
0
  10
0.0
  20
0.0
  30
0.0
  11
-1.0000000000000
  21
0.0
  31
0.0
   0
ENDBLK
   5
AB
 100
AcDbEntity
   8
0
 100
AcDbBlockEnd
   0
BLOCK
   5
AC
 100
AcDbEntity
   8
0
 100
AcDbBlockBegin
   2
_NONE
  70
0
  10
0.0
  20
0.0
  30
0.0
   3
_NONE
   0
CIRCLE
   5
AD
 100
AcDbEntity
   8
0
 370
-2
 100
AcDbCircle
   6
BYBLOCK
  62
0
  10
0.0
  20
0.0
  30
0.0
  40
 0.25000000000000
   0
ENDBLK
   5
AE
 100
AcDbEntity
   8
0
 100
AcDbBlockEnd
   0
BLOCK
   5
AF
 100
AcDbEntity
   8
0
 100
AcDbBlockBegin
   2
_DOTBLANK
  70
0
  10
0.0
  20
0.0
  30
0.0
   3
_DOTBLANK
   0
CIRCLE
   5
B0
 100
AcDbEntity
   8
0
 370
-2
 100
AcDbCircle
   6
BYBLOCK
  62
0
  10
0.0
  20
0.0
  30
0.0
  40
 0.50000000000000
   0
LINE
   5
B1
 100
AcDbEntity
   8
0
 370
-2
 100
AcDbLine
   6
BYBLOCK
  62
0
  10
-0.50000000000000
  20
0.0
  30
0.0
  11
-1.0000000000000
  21
0.0
  31
0.0
   0
ENDBLK
   5
B2
 100
AcDbEntity
   8
0
 100
AcDbBlockEnd
   0
BLOCK
   5
B3
 100
AcDbEntity
   8
0
 100
AcDbBlockBegin
   2
_INTEGRAL
  70
0
  10
0.0
  20
0.0
  30
0.0
   3
_INTEGRAL
   0
ARC
   5
B4
 100
AcDbEntity
   8
0
 370
-2
   6
BYBLOCK
  62
0
 100
AcDbCircle
  10
 0.44488800000000
  20
-0.91335000000000E-1
  30
0.0
  40
 0.45416700000000
 100
AcDbArc
  50
 102.00000000000
  51
 168.00000000000
   0
ARC
   5
B5
 100
AcDbEntity
   8
0
 370
-2
   6
BYBLOCK
  62
0
 100
AcDbCircle
  10
-0.44488800000000
  20
 0.91335000000000E-1
  30
0.0
  40
 0.45416700000000
 100
AcDbArc
  50
 282.00000000000
  51
 348.00000000000
   0
ENDBLK
   5
B6
 100
AcDbEntity
   8
0
 100
AcDbBlockEnd
   0
BLOCK
   5
B7
 100
AcDbEntity
   8
0
 100
AcDbBlockBegin
   2
*D8
  70
65
  10
0.0
  20
0.0
  30
0.0
   3
*D8
   0
LINE
   5
B8
 100
AcDbEntity
   8
LEVEL001
 370
13
 100
AcDbLine
   6
CONTINUOUS
  62
6
  10
 1596.7141513988
  20
 4320.0000000000
  30
0.0
  11
 1596.7141513988
  21
 4320.0000000000
  31
0.0
   0
LINE
   5
B9
 100
AcDbEntity
   8
LEVEL001
 370
13
 100
AcDbLine
   6
CONTINUOUS
  62
6
  10
 1596.7141513988
  20
 4820.0000000000
  30
0.0
  11
 1596.7141513988
  21
 4820.0000000000
  31
0.0
   0
LINE
   5
BA
 100
AcDbEntity
   8
LEVEL001
 370
13
 100
AcDbLine
   6
CONTINUOUS
  62
6
  10
 1596.7141513988
  20
 4320.0000000000
  30
0.0
  11
 1596.7141513988
  21
 4820.0000000000
  31
0.0
   0
INSERT
   5
BB
 100
AcDbEntity
   8
LEVEL001
   6
CONTINUOUS
  62
6
 100
AcDbBlockReference
   2
_OPEN
  10
 1596.7141513988
  20
 4320.0000000000
  30
0.0
  41
 30.000000000000
  42
 30.000000000000
  43
 30.000000000000
  50
 270.00000000000
   0
INSERT
   5
BC
 100
AcDbEntity
   8
LEVEL001
   6
CONTINUOUS
  62
6
 100
AcDbBlockReference
   2
_OPEN
  10
 1596.7141513988
  20
 4820.0000000000
  30
0.0
  41
 30.000000000000
  42
 30.000000000000
  43
 30.000000000000
  50
 90.000000000000
   0
MTEXT
   5
BD
 100
AcDbEntity
   8
LEVEL001
 370
13
  62
1
 100
AcDbMText
  10
 1568.4284371131
  20
 4675.1258347129
  30
0.0
  40
 66.000000000000
  41
0.0
  71
8
  72
1
   1
\A1;500
   7
GMM004
  11
0.0
  21
 1.0000000000000
  31
0.0
   0
ENDBLK
   5
BE
 100
AcDbEntity
   8
0
 100
AcDbBlockEnd
   0
BLOCK
   5
BF
 100
AcDbEntity
   8
0
 100
AcDbBlockBegin
   2
*D9
  70
65
  10
0.0
  20
0.0
  30
0.0
   3
*D9
   0
LINE
   5
C0
 100
AcDbEntity
   8
LEVEL001
 370
13
 100
AcDbLine
   6
CONTINUOUS
  62
6
  10
 1109.2141513988
  20
 4445.0000000000
  30
0.0
  11
 1109.2141513988
  21
 4445.0000000000
  31
0.0
   0
LINE
   5
C1
 100
AcDbEntity
   8
LEVEL001
 370
13
 100
AcDbLine
   6
CONTINUOUS
  62
6
  10
 1709.2141513989
  20
 4445.0000000000
  30
0.0
  11
 1709.2141513989
  21
 4445.0000000000
  31
0.0
   0
LINE
   5
C2
 100
AcDbEntity
   8
LEVEL001
 370
13
 100
AcDbLine
   6
CONTINUOUS
  62
6
  10
 1109.2141513988
  20
 4445.0000000000
  30
0.0
  11
 1709.2141513989
  21
 4445.0000000000
  31
0.0
   0
INSERT
   5
C3
 100
AcDbEntity
   8
LEVEL001
   6
CONTINUOUS
  62
6
 100
AcDbBlockReference
   2
_OPEN
  10
 1109.2141513988
  20
 4445.0000000000
  30
0.0
  41
 30.000000000000
  42
 30.000000000000
  43
 30.000000000000
  50
 180.00000000000
   0
INSERT
   5
C4
 100
AcDbEntity
   8
LEVEL001
   6
CONTINUOUS
  62
6
 100
AcDbBlockReference
   2
_OPEN
  10
 1709.2141513989
  20
 4445.0000000000
  30
0.0
  41
 30.000000000000
  42
 30.000000000000
  43
 30.000000000000
  50
0.0
   0
MTEXT
   5
C5
 100
AcDbEntity
   8
LEVEL001
 370
13
  62
1
 100
AcDbMText
  10
 1303.8171163735
  20
 4473.2857142857
  30
0.0
  40
 66.000000000000
  41
0.0
  71
8
  72
1
   1
\A1;600
   7
GMM004
   0
ENDBLK
   5
C6
 100
AcDbEntity
   8
0
 100
AcDbBlockEnd
   0
BLOCK
   5
C7
 100
AcDbEntity
   8
0
 100
AcDbBlockBegin
   2
*D12
  70
65
  10
0.0
  20
0.0
  30
0.0
   3
*D12
   0
LINE
   5
C8
 100
AcDbEntity
   8
LEVEL001
 370
13
 100
AcDbLine
   6
CONTINUOUS
  62
6
  10
 1129.2145609874
  20
 1020.0000000000
  30
0.0
  11
 629.21415139885
  21
 1020.0000000000
  31
0.0
   0
LINE
   5
C9
 100
AcDbEntity
   8
LEVEL001
 370
13
 100
AcDbLine
   6
CONTINUOUS
  62
6
  10
 1129.2145609874
  20
 1120.0000000000
  30
0.0
  11
 629.21415139885
  21
 1120.0000000000
  31
0.0
   0
LINE
   5
CA
 100
AcDbEntity
   8
LEVEL001
 370
13
 100
AcDbLine
   6
CONTINUOUS
  62
6
  10
 659.21415139885
  20
 1020.0000000000
  30
0.0
  11
 659.21415139885
  21
 1120.0000000000
  31
0.0
   0
INSERT
   5
CB
 100
AcDbEntity
   8
LEVEL001
   6
CONTINUOUS
  62
6
 100
AcDbBlockReference
   2
_OPEN
  10
 659.21415139885
  20
 1020.0000000000
  30
0.0
  41
 30.000000000000
  42
 30.000000000000
  43
 30.000000000000
  50
 270.00000000000
   0
INSERT
   5
CC
 100
AcDbEntity
   8
LEVEL001
   6
CONTINUOUS
  62
6
 100
AcDbBlockReference
   2
_OPEN
  10
 659.21415139885
  20
 1120.0000000000
  30
0.0
  41
 30.000000000000
  42
 30.000000000000
  43
 30.000000000000
  50
 90.000000000000
   0
MTEXT
   5
CD
 100
AcDbEntity
   8
LEVEL001
 370
13
  62
1
 100
AcDbMText
  10
 630.92843711314
  20
 1070.0000000000
  30
0.0
  40
 66.000000000000
  41
0.0
  71
8
  72
1
   1
\A1;100
   7
GMM004
  11
0.0
  21
 1.0000000000000
  31
0.0
   0
ENDBLK
   5
CE
 100
AcDbEntity
   8
0
 100
AcDbBlockEnd
   0
BLOCK
   5
CF
 100
AcDbEntity
   8
0
 100
AcDbBlockBegin
   2
*D13
  70
65
  10
0.0
  20
0.0
  30
0.0
   3
*D13
   0
LINE
   5
D0
 100
AcDbEntity
   8
LEVEL001
 370
13
 100
AcDbLine
   6
CONTINUOUS
  62
6
  10
 1129.2145609874
  20
 1120.0000000000
  30
0.0
  11
 629.21415139885
  21
 1120.0000000000
  31
0.0
   0
LINE
   5
D1
 100
AcDbEntity
   8
LEVEL001
 370
13
 100
AcDbLine
   6
CONTINUOUS
  62
6
  10
 829.21462622241
  20
 1820.0000000000
  30
0.0
  11
 629.21415139885
  21
 1820.0000000000
  31
0.0
   0
LINE
   5
D2
 100
AcDbEntity
   8
LEVEL001
 370
13
 100
AcDbLine
   6
CONTINUOUS
  62
6
  10
 659.21415139885
  20
 1120.0000000000
  30
0.0
  11
 659.21415139885
  21
 1820.0000000000
  31
0.0
   0
INSERT
   5
D3
 100
AcDbEntity
   8
LEVEL001
   6
CONTINUOUS
  62
6
 100
AcDbBlockReference
   2
_OPEN
  10
 659.21415139885
  20
 1120.0000000000
  30
0.0
  41
 30.000000000000
  42
 30.000000000000
  43
 30.000000000000
  50
 270.00000000000
   0
INSERT
   5
D4
 100
AcDbEntity
   8
LEVEL001
   6
CONTINUOUS
  62
6
 100
AcDbBlockReference
   2
_OPEN
  10
 659.21415139885
  20
 1820.0000000000
  30
0.0
  41
 30.000000000000
  42
 30.000000000000
  43
 30.000000000000
  50
 90.000000000000
   0
MTEXT
   5
D5
 100
AcDbEntity
   8
LEVEL001
 370
13
  62
1
 100
AcDbMText
  10
 630.92843711314
  20
 1470.0000000000
  30
0.0
  40
 66.000000000000
  41
0.0
  71
8
  72
1
   1
\A1;700
   7
GMM004
  11
0.0
  21
 1.0000000000000
  31
0.0
   0
ENDBLK
   5
D6
 100
AcDbEntity
   8
0
 100
AcDbBlockEnd
   0
BLOCK
   5
D7
 100
AcDbEntity
   8
0
 100
AcDbBlockBegin
   2
*D14
  70
65
  10
0.0
  20
0.0
  30
0.0
   3
*D14
   0
LINE
   5
D8
 100
AcDbEntity
   8
LEVEL001
 370
13
 100
AcDbLine
   6
CONTINUOUS
  62
6
  10
 829.21462622241
  20
 1820.0000000000
  30
0.0
  11
 629.21415139885
  21
 1820.0000000000
  31
0.0
   0
LINE
   5
D9
 100
AcDbEntity
   8
LEVEL001
 370
13
 100
AcDbLine
   6
CONTINUOUS
  62
6
  10
 1084.2141513988
  20
 4320.0000000000
  30
0.0
  11
 629.21415139885
  21
 4320.0000000000
  31
0.0
   0
LINE
   5
DA
 100
AcDbEntity
   8
LEVEL001
 370
13
 100
AcDbLine
   6
CONTINUOUS
  62
6
  10
 659.21415139885
  20
 1820.0000000000
  30
0.0
  11
 659.21415139885
  21
 4320.0000000000
  31
0.0
   0
INSERT
   5
DB
 100
AcDbEntity
   8
LEVEL001
   6
CONTINUOUS
  62
6
 100
AcDbBlockReference
   2
_OPEN
  10
 659.21415139885
  20
 1820.0000000000
  30
0.0
  41
 30.000000000000
  42
 30.000000000000
  43
 30.000000000000
  50
 270.00000000000
   0
INSERT
   5
DC
 100
AcDbEntity
   8
LEVEL001
   6
CONTINUOUS
  62
6
 100
AcDbBlockReference
   2
_OPEN
  10
 659.21415139885
  20
 4320.0000000000
  30
0.0
  41
 30.000000000000
  42
 30.000000000000
  43
 30.000000000000
  50
 90.000000000000
   0
MTEXT
   5
DD
 100
AcDbEntity
   8
LEVEL001
 370
13
  62
1
 100
AcDbMText
  10
 630.92843711314
  20
 3070.0000000000
  30
0.0
  40
 66.000000000000
  41
0.0
  71
8
  72
1
   1
\A1;2500(標準設置高さ)
   7
GMM004
  11
0.0
  21
 1.0000000000000
  31
0.0
   0
ENDBLK
   5
DE
 100
AcDbEntity
   8
0
 100
AcDbBlockEnd
   0
BLOCK
   5
DF
 100
AcDbEntity
   8
0
 100
AcDbBlockBegin
   2
*D19
  70
65
  10
0.0
  20
0.0
  30
0.0
   3
*D19
   0
LINE
   5
E0
 100
AcDbEntity
   8
LEVEL001
 370
13
 100
AcDbLine
   6
CONTINUOUS
  62
6
  10
 1159.2145609874
  20
 990.00000000000
  30
0.0
  11
 1159.2145609874
  21
 690.00000000000
  31
0.0
   0
LINE
   5
E1
 100
AcDbEntity
   8
LEVEL001
 370
13
 100
AcDbLine
   6
CONTINUOUS
  62
6
  10
 1659.2145609874
  20
 990.00000000000
  30
0.0
  11
 1659.2145609874
  21
 690.00000000000
  31
0.0
   0
LINE
   5
E2
 100
AcDbEntity
   8
LEVEL001
 370
13
 100
AcDbLine
   6
CONTINUOUS
  62
6
  10
 1159.2145609874
  20
 720.00000000000
  30
0.0
  11
 1659.2145609874
  21
 720.00000000000
  31
0.0
   0
INSERT
   5
E3
 100
AcDbEntity
   8
LEVEL001
   6
CONTINUOUS
  62
6
 100
AcDbBlockReference
   2
_OPEN
  10
 1159.2145609874
  20
 720.00000000000
  30
0.0
  41
 30.000000000000
  42
 30.000000000000
  43
 30.000000000000
  50
 180.00000000000
   0
INSERT
   5
E4
 100
AcDbEntity
   8
LEVEL001
   6
CONTINUOUS
  62
6
 100
AcDbBlockReference
   2
_OPEN
  10
 1659.2145609874
  20
 720.00000000000
  30
0.0
  41
 30.000000000000
  42
 30.000000000000
  43
 30.000000000000
  50
0.0
   0
MTEXT
   5
E5
 100
AcDbEntity
   8
LEVEL001
 370
13
  62
1
 100
AcDbMText
  10
 1409.2145609874
  20
 748.28571428571
  30
0.0
  40
 66.000000000000
  41
0.0
  71
8
  72
1
   1
\A1;□500
   7
GMM004
   0
ENDBLK
   5
E6
 100
AcDbEntity
   8
0
 100
AcDbBlockEnd
   0
BLOCK
   5
E7
 100
AcDbEntity
   8
0
 100
AcDbBlockBegin
   2
*D21
  70
65
  10
0.0
  20
0.0
  30
0.0
   3
*D21
   0
LINE
   5
E8
 100
AcDbEntity
   8
LEVEL001
 370
13
 100
AcDbLine
   6
CONTINUOUS
  62
6
  10
 2309.2145609874
  20
 990.00000000000
  30
0.0
  11
 2309.2145609874
  21
 690.00000000000
  31
0.0
   0
LINE
   5
E9
 100
AcDbEntity
   8
LEVEL001
 370
13
 100
AcDbLine
   6
CONTINUOUS
  62
6
  10
 2809.2145609874
  20
 990.00000000000
  30
0.0
  11
 2809.2145609874
  21
 690.00000000000
  31
0.0
   0
LINE
   5
EA
 100
AcDbEntity
   8
LEVEL001
 370
13
 100
AcDbLine
   6
CONTINUOUS
  62
6
  10
 2309.2145609874
  20
 720.00000000000
  30
0.0
  11
 2809.2145609874
  21
 720.00000000000
  31
0.0
   0
INSERT
   5
EB
 100
AcDbEntity
   8
LEVEL001
   6
CONTINUOUS
  62
6
 100
AcDbBlockReference
   2
_OPEN
  10
 2309.2145609874
  20
 720.00000000000
  30
0.0
  41
 30.000000000000
  42
 30.000000000000
  43
 30.000000000000
  50
 180.00000000000
   0
INSERT
   5
EC
 100
AcDbEntity
   8
LEVEL001
   6
CONTINUOUS
  62
6
 100
AcDbBlockReference
   2
_OPEN
  10
 2809.2145609874
  20
 720.00000000000
  30
0.0
  41
 30.000000000000
  42
 30.000000000000
  43
 30.000000000000
  50
0.0
   0
MTEXT
   5
ED
 100
AcDbEntity
   8
LEVEL001
 370
13
  62
1
 100
AcDbMText
  10
 2559.2145609874
  20
 748.28571428571
  30
0.0
  40
 66.000000000000
  41
0.0
  71
8
  72
1
   1
\A1;□500
   7
GMM004
   0
ENDBLK
   5
EE
 100
AcDbEntity
   8
0
 100
AcDbBlockEnd
   0
BLOCK
   5
EF
 100
AcDbEntity
   8
0
 100
AcDbBlockBegin
   2
*D22
  70
65
  10
0.0
  20
0.0
  30
0.0
   3
*D22
   0
LINE
   5
F0
 100
AcDbEntity
   8
LEVEL001
 370
13
 100
AcDbLine
   6
CONTINUOUS
  62
6
  10
 2909.2141513988
  20
 2720.0000000000
  30
0.0
  11
 2909.2141513988
  21
 2720.0000000000
  31
0.0
   0
LINE
   5
F1
 100
AcDbEntity
   8
LEVEL001
 370
13
 100
AcDbLine
   6
CONTINUOUS
  62
6
  10
 2559.2141513988
  20
 1533.9781142896
  30
0.0
  11
 2559.2141513988
  21
 2750.0000000000
  31
0.0
   0
LINE
   5
F2
 100
AcDbEntity
   8
LEVEL001
 370
13
 100
AcDbLine
   6
CONTINUOUS
  62
6
  10
 2909.2141513988
  20
 2720.0000000000
  30
0.0
  11
 2559.2141513988
  21
 2720.0000000000
  31
0.0
   0
INSERT
   5
F3
 100
AcDbEntity
   8
LEVEL001
   6
CONTINUOUS
  62
6
 100
AcDbBlockReference
   2
_OPEN
  10
 2909.2141513988
  20
 2720.0000000000
  30
0.0
  41
 30.000000000000
  42
 30.000000000000
  43
 30.000000000000
  50
0.0
   0
INSERT
   5
F4
 100
AcDbEntity
   8
LEVEL001
   6
CONTINUOUS
  62
6
 100
AcDbBlockReference
   2
_OPEN
  10
 2559.2141513988
  20
 2720.0000000000
  30
0.0
  41
 30.000000000000
  42
 30.000000000000
  43
 30.000000000000
  50
 180.00000000000
   0
MTEXT
   5
F5
 100
AcDbEntity
   8
LEVEL001
 370
13
  62
1
 100
AcDbMText
  10
 2734.2141513988
  20
 2748.2857142857
  30
0.0
  40
 66.000000000000
  41
0.0
  71
8
  72
1
   1
\A1;350
   7
GMM004
   0
ENDBLK
   5
F6
 100
AcDbEntity
   8
0
 100
AcDbBlockEnd
   0
ENDSEC
   0
SECTION
   2
ENTITIES
   0
LINE
   5
F7
 100
AcDbEntity
   8
LEVEL001
 370
13
 100
AcDbLine
   6
CONTINUOUS
  62
6
  10
 8135.8810215160
  20
 3260.0000000000
  30
0.0
  11
 8135.8810215160
  21
 870.00000000000
  31
0.0
   0
LINE
   5
F8
 100
AcDbEntity
   8
LEVEL001
 370
13
 100
AcDbLine
   6
CONTINUOUS
  62
6
  10
 5620.1232423079
  20
 870.00000000000
  30
0.0
  11
 8135.8810215160
  21
 870.00000000000
  31
0.0
   0
LINE
   5
F9
 100
AcDbEntity
   8
LEVEL001
 370
13
 100
AcDbLine
   6
CONTINUOUS
  62
6
  10
 5620.1232423079
  20
 1520.0000000000
  30
0.0
  11
 8135.8810215160
  21
 1520.0000000000
  31
0.0
   0
LINE
   5
FA
 100
AcDbEntity
   8
LEVEL001
 370
13
 100
AcDbLine
   6
CONTINUOUS
  62
6
  10
 5620.1232423079
  20
 1390.0000000000
  30
0.0
  11
 8135.8810215160
  21
 1390.0000000000
  31
0.0
   0
LINE
   5
FB
 100
AcDbEntity
   8
LEVEL001
 370
13
 100
AcDbLine
   6
CONTINUOUS
  62
6
  10
 5620.1232423079
  20
 1260.0000000000
  30
0.0
  11
 8135.8810215160
  21
 1260.0000000000
  31
0.0
   0
LINE
   5
FC
 100
AcDbEntity
   8
LEVEL001
 370
13
 100
AcDbLine
   6
CONTINUOUS
  62
6
  10
 5620.1232423079
  20
 1130.0000000000
  30
0.0
  11
 8135.8810215160
  21
 1130.0000000000
  31
0.0
   0
MTEXT
   5
FE
 100
AcDbEntity
   8
LEVEL001
 370
13
  62
1
 100
AcDbMText
  10
 5791.1022160620
  20
 1153.5736076959
  30
0.0
  40
 80.000000000000
  41
0.0
  71
9
  72
1
   1
\T1.000000;１３
   7
GMM001
  44
 0.79999984000003
   0
MTEXT
   5
100
 100
AcDbEntity
   8
LEVEL001
 370
13
  62
1
 100
AcDbMText
  10
 5791.1022160620
  20
 1283.5736076959
  30
0.0
  40
 80.000000000000
  41
0.0
  71
9
  72
1
   1
\T1.000000;１２
   7
GMM001
  44
 0.79999984000003
   0
MTEXT
   5
102
 100
AcDbEntity
   8
LEVEL001
 370
13
  62
1
 100
AcDbMText
  10
 5791.1022160620
  20
 1413.5736076959
  30
0.0
  40
 80.000000000000
  41
0.0
  71
9
  72
1
   1
\T1.000000;１１
   7
GMM001
  44
 0.79999984000003
   0
LINE
   5
103
 100
AcDbEntity
   8
LEVEL001
 370
13
 100
AcDbLine
   6
CONTINUOUS
  62
6
  10
 5620.1232423079
  20
 1000.0000000000
  30
0.0
  11
 8135.8810215160
  21
 1000.0000000000
  31
0.0
   0
MTEXT
   5
105
 100
AcDbEntity
   8
LEVEL001
 370
13
  62
1
 100
AcDbMText
  10
 5791.1022160620
  20
 1023.5736076959
  30
0.0
  40
 80.000000000000
  41
0.0
  71
9
  72
1
   1
\T1.000000;１４
   7
GMM001
  44
 0.79999984000003
   0
MTEXT
   5
107
 100
AcDbEntity
   8
LEVEL001
 370
13
  62
1
 100
AcDbMText
  10
 5791.1022160620
  20
 893.57360769589
  30
0.0
  40
 80.000000000000
  41
0.0
  71
9
  72
1
   1
\T1.000000;１５
   7
GMM001
  44
 0.79999984000003
   0
MTEXT
   5
109
 100
AcDbEntity
   8
LEVEL001
 370
13
  62
1
 100
AcDbMText
  10
 5870.1232423079
  20
 893.57360769589
  30
0.0
  40
 80.000000000000
  41
0.0
  71
7
  72
1
   1
\T1.000000;同上ボルトナット
   7
GMM002
  44
 0.79999984000003
   0
MTEXT
   5
10B
 100
AcDbEntity
   8
LEVEL001
 370
13
  62
1
 100
AcDbMText
  10
 5870.1232423079
  20
 1023.5736076959
  30
0.0
  40
 80.000000000000
  41
0.0
  71
7
  72
1
   1
\T1.000000;注意板取付バンド
   7
GMM002
  44
 0.79999984000003
   0
MTEXT
   5
10D
 100
AcDbEntity
   8
LEVEL001
 370
13
  62
1
 100
AcDbMText
  10
 6841.1022160620
  20
 1153.5736076959
  30
0.0
  40
 80.000000000000
  41
0.0
  71
9
  72
1
   1
\T1.000000;１
   7
GMM002
  44
 0.79999984000003
   0
MTEXT
   5
10F
 100
AcDbEntity
   8
LEVEL001
 370
13
  62
1
 100
AcDbMText
  10
 5870.1232423079
  20
 1283.5736076959
  30
0.0
  40
 80.000000000000
  41
0.0
  71
7
  72
1
   1
\T1.000000;キャップ
   7
GMM002
  44
 0.79999984000003
   0
MTEXT
   5
111
 100
AcDbEntity
   8
LEVEL001
 370
13
  62
1
 100
AcDbMText
  10
 6841.1022160620
  20
 1283.5736076959
  30
0.0
  40
 80.000000000000
  41
0.0
  71
9
  72
1
   1
\T1.000000;１
   7
GMM002
  44
 0.79999984000003
   0
MTEXT
   5
113
 100
AcDbEntity
   8
LEVEL001
 370
13
  62
1
 100
AcDbMText
  10
 6920.1232423079
  20
 1283.5736076959
  30
0.0
  40
 80.000000000000
  41
0.0
  71
7
  72
1
   1
\T1.000000;ＰＥ
   7
GMM002
  44
 0.79999984000003
   0
MTEXT
   5
115
 100
AcDbEntity
   8
LEVEL001
 370
13
  62
1
 100
AcDbMText
  10
 5870.1232423079
  20
 1413.5736076959
  30
0.0
  40
 80.000000000000
  41
0.0
  71
7
  72
1
   1
\T1.000000;根入れ鉄筋
   7
GMM002
  44
 0.79999984000003
   0
MTEXT
   5
117
 100
AcDbEntity
   8
LEVEL001
 370
13
  62
1
 100
AcDbMText
  10
 6841.1022160620
  20
 1413.5736076959
  30
0.0
  40
 80.000000000000
  41
0.0
  71
9
  72
1
   1
\T1.000000;１
   7
GMM002
  44
 0.79999984000003
   0
MTEXT
   5
119
 100
AcDbEntity
   8
LEVEL001
 370
13
  62
1
 100
AcDbMText
  10
 6920.1232423079
  20
 1413.5736076959
  30
0.0
  40
 80.000000000000
  41
0.0
  71
7
  72
1
   1
\T1.000000;ＳＤ２９５Ａ
   7
GMM002
  44
 0.79999984000003
   0
MTEXT
   5
11B
 100
AcDbEntity
   8
LEVEL001
 370
13
  62
1
 100
AcDbMText
  10
 1409.2141513988
  20
 5520.0000000000
  30
0.0
  40
 80.000000000000
  41
0.0
  71
5
  72
1
   1
\T1.000000;正　面　図
   7
GMM003
  44
 0.79999984000003
   0
MTEXT
   5
11D
 100
AcDbEntity
   8
LEVEL001
 370
13
  62
1
 100
AcDbMText
  10
 2909.2141513988
  20
 5520.0000000000
  30
0.0
  40
 80.000000000000
  41
0.0
  71
5
  72
1
   1
\T1.000000;側　面　図
   7
GMM003
  44
 0.79999984000003
   0
MTEXT
   5
11F
 100
AcDbEntity
   8
LEVEL001
 370
13
  62
1
 100
AcDbMText
  10
 4159.2141513988
  20
 5520.0000000000
  30
0.0
  40
 80.000000000000
  41
0.0
  71
5
  72
1
   1
\T1.000000;背　面　図
   7
GMM003
  44
 0.79999984000003
   0
CIRCLE
   5
120
 100
AcDbEntity
   8
LEVEL001
 370
13
 100
AcDbCircle
   6
CONTINUOUS
  62
1
  10
 2184.2145609874
  20
 4352.0357239002
  30
0.0
  40
 69.999997913838
   0
MTEXT
   5
122
 100
AcDbEntity
   8
LEVEL001
 370
13
  62
7
 100
AcDbMText
  10
 2184.2145609874
  20
 4352.0357239002
  30
0.0
  40
 66.000000000000
  41
0.0
  71
5
  72
1
   1
\T1.000000;１
   7
GMM004
  44
 0.79999984000003
   0
CIRCLE
   5
123
 100
AcDbEntity
   8
LEVEL001
 370
13
 100
AcDbCircle
   6
CONTINUOUS
  62
1
  10
 2184.2145609874
  20
 5056.4607703298
  30
0.0
  40
 69.999997913838
   0
MTEXT
   5
125
 100
AcDbEntity
   8
LEVEL001
 370
13
  62
7
 100
AcDbMText
  10
 2184.2145609874
  20
 5056.4607703298
  30
0.0
  40
 66.000000000000
  41
0.0
  71
5
  72
1
   1
\T1.000000;３
   7
GMM004
  44
 0.79999984000003
   0
CIRCLE
   5
126
 100
AcDbEntity
   8
LEVEL001
 370
13
 100
AcDbCircle
   6
CONTINUOUS
  62
1
  10
 1703.5842307922
  20
 4109.6360662626
  30
0.0
  40
 69.999997913838
   0
CIRCLE
   5
127
 100
AcDbEntity
   8
LEVEL001
 370
13
 100
AcDbCircle
   6
CONTINUOUS
  62
1
  10
 1114.8440720055
  20
 4109.6360662626
  30
0.0
  40
 69.999997913838
   0
LEADER
   5
128
 100
AcDbEntity
   8
LEVEL001
 370
13
   6
CONTINUOUS
  62
1
 100
AcDbLeader
   3
GMM001
  73
3
  74
1
  75
0
  40
 66.000000000000
  41
0.0
  76
2
  10
 1629.3310658418
  20
 4568.6599621870
  30
0.0
  10
 2123.5927845292
  20
 4387.5357228575
  30
0.0
  77
1
   0
LEADER
   5
129
 100
AcDbEntity
   8
LEVEL001
 370
13
   6
CONTINUOUS
  62
1
 100
AcDbLeader
   3
GMM001
  73
3
  74
1
  75
0
  40
 66.000000000000
  41
0.0
  76
2
  10
 1559.2141513988
  20
 4360.1923788652
  30
0.0
  10
 1668.5842318353
  20
 4170.7578427214
  30
0.0
  77
1
   0
LEADER
   5
12A
 100
AcDbEntity
   8
LEVEL001
 370
13
   6
CONTINUOUS
  62
1
 100
AcDbLeader
   3
GMM001
  73
3
  74
1
  75
0
  40
 66.000000000000
  41
0.0
  76
2
  10
 1405.3665890450
  20
 4313.5621227139
  30
0.0
  10
 1172.1847133969
  20
 4150.2864156111
  30
0.0
  77
1
   0
ARC
   5
12B
 100
AcDbEntity
   8
LEVEL001
 370
13
   6
CONTINUOUS
  62
7
 100
AcDbCircle
  10
 1114.2141513988
  20
 4325.0000000000
  30
0.0
  40
 5.0000000000000
 100
AcDbArc
  50
 180.00000000000
  51
 270.00000000000
   0
LINE
   5
12C
 100
AcDbEntity
   8
LEVEL001
 370
13
 100
AcDbLine
   6
CONTINUOUS
  62
7
  10
 1109.2141513988
  20
 4815.0000000000
  30
0.0
  11
 1109.2141513988
  21
 4325.0000000000
  31
0.0
   0
ARC
   5
12D
 100
AcDbEntity
   8
LEVEL001
 370
13
   6
CONTINUOUS
  62
7
 100
AcDbCircle
  10
 1114.2141513988
  20
 4815.0000000000
  30
0.0
  40
 5.0000000000000
 100
AcDbArc
  50
 90.000000000000
  51
 180.00000000000
   0
LINE
   5
12E
 100
AcDbEntity
   8
LEVEL001
 370
13
 100
AcDbLine
   6
CONTINUOUS
  62
7
  10
 1704.2141513989
  20
 4820.0000000000
  30
0.0
  11
 1114.2141513988
  21
 4820.0000000000
  31
0.0
   0
LINE
   5
12F
 100
AcDbEntity
   8
LEVEL001
 370
13
 100
AcDbLine
   6
CONTINUOUS
  62
7
  10
 1114.2141513988
  20
 4320.0000000000
  30
0.0
  11
 1704.2141513989
  21
 4320.0000000000
  31
0.0
   0
LINE
   5
130
 100
AcDbEntity
   8
LEVEL001
 370
13
 100
AcDbLine
   6
CONTINUOUS
  62
7
  10
 1704.2141513989
  20
 4828.0000000000
  30
0.0
  11
 1114.2141513988
  21
 4828.0000000000
  31
0.0
   0
ARC
   5
131
 100
AcDbEntity
   8
LEVEL001
 370
13
   6
CONTINUOUS
  62
7
 100
AcDbCircle
  10
 1114.2141513988
  20
 4813.0000000000
  30
0.0
  40
 15.000000000000
 100
AcDbArc
  50
 90.000000000000
  51
 180.00000000000
   0
ARC
   5
132
 100
AcDbEntity
   8
LEVEL001
 370
13
   6
CONTINUOUS
  62
1
 100
AcDbCircle
  10
 1099.2141513988
  20
 4725.0000000000
  30
0.0
  40
 7.5000000000000
 100
AcDbArc
  50
 90.000000000000
  51
 270.00000000000
   0
ARC
   5
133
 100
AcDbEntity
   8
LEVEL001
 370
13
   6
CONTINUOUS
  62
1
 100
AcDbCircle
  10
 1229.2141513988
  20
 4320.0000000000
  30
0.0
  40
 7.5000000000000
 100
AcDbArc
  50
 180.00000000000
  51
0.0
   0
ARC
   5
134
 100
AcDbEntity
   8
LEVEL001
 370
13
   6
CONTINUOUS
  62
1
 100
AcDbCircle
  10
 1109.2141513988
  20
 4440.0000000000
  30
0.0
  40
 7.5000000000000
 100
AcDbArc
  50
 90.000000000000
  51
 270.00000000000
   0
LINE
   5
135
 100
AcDbEntity
   8
LEVEL001
 370
13
 100
AcDbLine
   6
DASHDOT
  62
6
  10
 1084.2141513988
  20
 4570.0000000000
  30
0.0
  11
 1734.2141513989
  21
 4570.0000000000
  31
0.0
   0
ARC
   5
136
 100
AcDbEntity
   8
LEVEL001
 370
13
   6
CONTINUOUS
  62
2
 100
AcDbCircle
  10
 1129.2141513988
  20
 4800.0000000000
  30
0.0
  40
 5.0000000000000
 100
AcDbArc
  50
 90.000000000000
  51
 180.00000000000
   0
LINE
   5
137
 100
AcDbEntity
   8
LEVEL001
 370
13
 100
AcDbLine
   6
CONTINUOUS
  62
2
  10
 1689.2141513989
  20
 4805.0000000000
  30
0.0
  11
 1129.2141513988
  21
 4805.0000000000
  31
0.0
   0
LINE
   5
138
 100
AcDbEntity
   8
LEVEL001
 370
13
 100
AcDbLine
   6
CONTINUOUS
  62
2
  10
 1124.2141513988
  20
 4800.0000000000
  30
0.0
  11
 1124.2141513988
  21
 4340.0000000000
  31
0.0
   0
LINE
   5
139
 100
AcDbEntity
   8
LEVEL001
 370
13
 100
AcDbLine
   6
CONTINUOUS
  62
2
  10
 1129.2141513988
  20
 4335.0000000000
  30
0.0
  11
 1689.2141513989
  21
 4335.0000000000
  31
0.0
   0
ARC
   5
13A
 100
AcDbEntity
   8
LEVEL001
 370
13
   6
CONTINUOUS
  62
2
 100
AcDbCircle
  10
 1129.2141513988
  20
 4340.0000000000
  30
0.0
  40
 5.0000000000000
 100
AcDbArc
  50
 180.00000000000
  51
 270.00000000000
   0
ARC
   5
13B
 100
AcDbEntity
   8
LEVEL001
 370
13
   6
CONTINUOUS
  62
7
 100
AcDbCircle
  10
 1704.2141513989
  20
 4815.0000000000
  30
0.0
  40
 5.0000000000000
 100
AcDbArc
  50
0.0
  51
 90.000000000000
   0
LINE
   5
13C
 100
AcDbEntity
   8
LEVEL001
 370
13
 100
AcDbLine
   6
CONTINUOUS
  62
7
  10
 1709.2141513989
  20
 4325.0000000000
  30
0.0
  11
 1709.2141513989
  21
 4815.0000000000
  31
0.0
   0
ARC
   5
13D
 100
AcDbEntity
   8
LEVEL001
 370
13
   6
CONTINUOUS
  62
7
 100
AcDbCircle
  10
 1704.2141513989
  20
 4325.0000000000
  30
0.0
  40
 5.0000000000000
 100
AcDbArc
  50
 270.00000000000
  51
0.0
   0
ARC
   5
13E
 100
AcDbEntity
   8
LEVEL001
 370
13
   6
CONTINUOUS
  62
7
 100
AcDbCircle
  10
 1704.2141513989
  20
 4813.0000000000
  30
0.0
  40
 15.000000000000
 100
AcDbArc
  50
0.0
  51
 90.000000000000
   0
ARC
   5
13F
 100
AcDbEntity
   8
LEVEL001
 370
13
   6
CONTINUOUS
  62
1
 100
AcDbCircle
  10
 1719.2141513989
  20
 4725.0000000000
  30
0.0
  40
 7.5000000000000
 100
AcDbArc
  50
 270.00000000000
  51
 90.000000000000
   0
ARC
   5
140
 100
AcDbEntity
   8
LEVEL001
 370
13
   6
CONTINUOUS
  62
1
 100
AcDbCircle
  10
 1589.2141513988
  20
 4320.0000000000
  30
0.0
  40
 7.5000000000000
 100
AcDbArc
  50
 180.00000000000
  51
0.0
   0
ARC
   5
141
 100
AcDbEntity
   8
LEVEL001
 370
13
   6
CONTINUOUS
  62
1
 100
AcDbCircle
  10
 1709.2141513989
  20
 4440.0000000000
  30
0.0
  40
 7.5000000000000
 100
AcDbArc
  50
 270.00000000000
  51
 90.000000000000
   0
ARC
   5
142
 100
AcDbEntity
   8
LEVEL001
 370
13
   6
CONTINUOUS
  62
2
 100
AcDbCircle
  10
 1689.2141513989
  20
 4800.0000000000
  30
0.0
  40
 5.0000000000000
 100
AcDbArc
  50
0.0
  51
 90.000000000000
   0
LINE
   5
143
 100
AcDbEntity
   8
LEVEL001
 370
13
 100
AcDbLine
   6
CONTINUOUS
  62
2
  10
 1694.2141513989
  20
 4340.0000000000
  30
0.0
  11
 1694.2141513989
  21
 4800.0000000000
  31
0.0
   0
ARC
   5
144
 100
AcDbEntity
   8
LEVEL001
 370
13
   6
CONTINUOUS
  62
2
 100
AcDbCircle
  10
 1689.2141513989
  20
 4340.0000000000
  30
0.0
  40
 5.0000000000000
 100
AcDbArc
  50
 270.00000000000
  51
0.0
   0
ARC
   5
145
 100
AcDbEntity
   8
LEVEL001
 370
13
   6
CONTINUOUS
  62
1
 100
AcDbCircle
  10
 1409.2141513988
  20
 4320.0000000000
  30
0.0
  40
 7.5000000000000
 100
AcDbArc
  50
 180.00000000000
  51
0.0
   0
LINE
   5
146
 100
AcDbEntity
   8
LEVEL001
 370
13
 100
AcDbLine
   6
CONTINUOUS
  62
7
  10
 1371.0641513988
  20
 4320.0000000000
  30
0.0
  11
 1371.0641513988
  21
 4120.0000000000
  31
0.0
   0
LINE
   5
147
 100
AcDbEntity
   8
LEVEL001
 370
13
 100
AcDbLine
   6
CONTINUOUS
  62
7
  10
 1447.3641513988
  20
 4120.0000000000
  30
0.0
  11
 1447.3641513988
  21
 4320.0000000000
  31
0.0
   0
CIRCLE
   5
148
 100
AcDbEntity
   8
LEVEL001
 370
13
 100
AcDbCircle
   6
CONTINUOUS
  62
1
  10
 3197.2250361406
  20
 4990.2831618355
  30
0.0
  40
 69.999997913838
   0
MTEXT
   5
14A
 100
AcDbEntity
   8
LEVEL001
 370
13
  62
7
 100
AcDbMText
  10
 3197.2250361406
  20
 4990.2831618355
  30
0.0
  40
 66.000000000000
  41
0.0
  71
5
  72
1
   1
\T1.000000;１２
   7
GMM004
  44
 0.79999984000003
   0
LWPOLYLINE
   5
14B
 100
AcDbEntity
   8
LEVEL001
 370
13
   6
CONTINUOUS
  62
7
 100
AcDbPolyline
  90
4
  70
0
  10
 2822.6385470639
  20
 4515.0000000000
  10
 2984.2141685014
  20
 4515.0000000000
  10
 2984.2141685014
  20
 4625.0000000000
  10
 2822.6385470639
  20
 4625.0000000000
   0
ARC
   5
14C
 100
AcDbEntity
   8
LEVEL001
 370
13
   6
CONTINUOUS
  62
7
 100
AcDbCircle
  10
 5697.2133033768
  20
 4570.0000000000
  30
0.0
  40
 2990.0000000000
 100
AcDbArc
  50
 177.50809363102
  51
 184.79621649561
   0
LWPOLYLINE
   5
14D
 100
AcDbEntity
   8
LEVEL001
 370
13
   6
CONTINUOUS
  62
7
 100
AcDbPolyline
  90
3
  70
0
  10
 2707.6481176014
  20
 4320.0000000000
  10
 2737.2133033768
  20
 4320.0000000000
  10
 2737.2133033768
  20
 4700.0000000000
   0
CIRCLE
   5
14E
 100
AcDbEntity
   8
LEVEL001
 370
13
 100
AcDbCircle
   6
CONTINUOUS
  62
1
  10
 2725.2133033768
  20
 4725.0000000000
  30
0.0
  40
 7.5000000000000
   0
LINE
   5
14F
 100
AcDbEntity
   8
LEVEL001
 370
13
 100
AcDbLine
   6
DASHDOT
  62
6
  10
 3002.6014950747
  20
 4570.0000000000
  30
0.0
  11
 2637.6539961854
  21
 4570.0000000000
  31
0.0
   0
LWPOLYLINE
   5
150
 100
AcDbEntity
   8
LEVEL001
 370
13
   6
CONTINUOUS
  62
7
 100
AcDbPolyline
  90
4
  70
1
  10
 2791.8218849282
  20
 4593.0000000000
  10
 2805.8218849282
  20
 4593.0000000000
  10
 2805.8218849282
  20
 4607.0000000000
  10
 2791.8218849282
  20
 4607.0000000000
   0
LWPOLYLINE
   5
151
 100
AcDbEntity
   8
LEVEL001
 370
13
   6
CONTINUOUS
  62
7
 100
AcDbPolyline
  90
4
  70
1
  10
 2791.8218849282
  20
 4533.0000000000
  10
 2805.8218849282
  20
 4533.0000000000
  10
 2805.8218849282
  20
 4547.0000000000
  10
 2791.8218849282
  20
 4547.0000000000
   0
LINE
   5
152
 100
AcDbEntity
   8
LEVEL001
 370
13
 100
AcDbLine
   6
CONTINUOUS
  62
1
  10
 2740.6218381407
  20
 4564.9999984394
  30
0.0
  11
 2740.6218423021
  21
 4565.0000000000
  31
0.0
   0
ARC
   5
153
 100
AcDbEntity
   8
LEVEL001
 370
13
   6
CONTINUOUS
  62
1
 100
AcDbCircle
  10
 2735.8229683927
  20
 4570.0000000000
  30
0.0
  40
 4.7988739094943
 100
AcDbArc
  50
 303.26696871548
  51
 56.733031284521
   0
LINE
   5
154
 100
AcDbEntity
   8
LEVEL001
 370
13
 100
AcDbLine
   6
CONTINUOUS
  62
1
  10
 2738.4553469097
  20
 4574.0124523850
  30
0.0
  11
 2737.2133033768
  21
 4574.2553484154
  31
0.0
   0
LINE
   5
155
 100
AcDbEntity
   8
LEVEL001
 370
13
 100
AcDbLine
   6
CONTINUOUS
  62
1
  10
 2738.4553469097
  20
 4565.9875476150
  30
0.0
  11
 2737.2133033768
  21
 4565.7446517546
  31
0.0
   0
LINE
   5
156
 100
AcDbEntity
   8
LEVEL001
 370
13
 100
AcDbLine
   6
CONTINUOUS
  62
1
  10
 2737.2133033768
  20
 4570.0000000000
  30
0.0
  11
 2738.4553469097
  21
 4570.0000000000
  31
0.0
   0
LWPOLYLINE
   5
157
 100
AcDbEntity
   8
LEVEL001
 370
13
   6
CONTINUOUS
  62
7
 100
AcDbPolyline
  90
4
  70
0
  10
 2737.2133033768
  20
 4515.0000000000
  10
 2823.8218849282
  20
 4515.0000000000
  10
 2823.8218849282
  20
 4625.0000000000
  10
 2737.2133033768
  20
 4625.0000000000
   0
CIRCLE
   5
158
 100
AcDbEntity
   8
LEVEL001
 370
13
 100
AcDbCircle
   6
CONTINUOUS
  62
1
  10
 2725.2133033768
  20
 4440.0000000000
  30
0.0
  40
 7.5000000000000
   0
ARC
   5
159
 100
AcDbEntity
   8
LEVEL001
 370
13
   6
CONTINUOUS
  62
1
 100
AcDbCircle
  10
 2725.2133033768
  20
 4320.0000000000
  30
0.0
  40
 7.5000000000000
 100
AcDbArc
  50
 180.00000000000
  51
0.0
   0
ARC
   5
15A
 100
AcDbEntity
   8
LEVEL001
 370
13
   6
CONTINUOUS
  62
7
 100
AcDbCircle
  10
 2841.7632740562
  20
 4565.5854138189
  30
0.0
  40
 8.0000000000000
 100
AcDbArc
  50
 324.99999999999
  51
 145.00000000000
   0
ARC
   5
15B
 100
AcDbEntity
   8
LEVEL001
 370
13
   6
CONTINUOUS
  62
7
 100
AcDbCircle
  10
 2792.6141513988
  20
 4600.0000000000
  30
0.0
  40
 52.000000000000
 100
AcDbArc
  50
 306.88054979700
  51
 325.00000000000
   0
ARC
   5
15C
 100
AcDbEntity
   8
LEVEL001
 370
13
   6
CONTINUOUS
  62
7
 100
AcDbCircle
  10
 2792.6141513988
  20
 4600.0000000000
  30
0.0
  40
 68.000000000000
 100
AcDbArc
  50
 297.31855192773
  51
 325.00000000000
   0
LINE
   5
15D
 100
AcDbEntity
   8
LEVEL001
 370
13
 100
AcDbLine
   6
CONTINUOUS
  62
6
  10
 2872.6141513989
  20
 4520.0000000000
  30
0.0
  11
 2872.6141513989
  21
 4620.0000000000
  31
0.0
   0
LWPOLYLINE
   5
15E
 100
AcDbEntity
   8
LEVEL001
 370
13
   6
CONTINUOUS
  62
7
 100
AcDbPolyline
  90
4
  70
1
  10
 2958.3975063657
  20
 4593.0000000000
  10
 2972.3975063657
  20
 4593.0000000000
  10
 2972.3975063657
  20
 4607.0000000000
  10
 2958.3975063657
  20
 4607.0000000000
   0
LWPOLYLINE
   5
15F
 100
AcDbEntity
   8
LEVEL001
 370
13
   6
CONTINUOUS
  62
7
 100
AcDbPolyline
  90
4
  70
1
  10
 2958.3975063657
  20
 4533.0000000000
  10
 2972.3975063657
  20
 4533.0000000000
  10
 2972.3975063657
  20
 4547.0000000000
  10
 2958.3975063657
  20
 4547.0000000000
   0
LINE
   5
160
 100
AcDbEntity
   8
LEVEL001
 370
13
 100
AcDbLine
   6
CONTINUOUS
  62
6
  10
 2945.8255159196
  20
 4620.0000000000
  30
0.0
  11
 2945.8255159196
  21
 4520.0000000000
  31
0.0
   0
LINE
   5
161
 100
AcDbEntity
   8
LEVEL001
 370
13
 100
AcDbLine
   6
CONTINUOUS
  62
7
  10
 4454.2141513988
  20
 4820.0000000000
  30
0.0
  11
 3864.2141513989
  21
 4820.0000000000
  31
0.0
   0
ARC
   5
162
 100
AcDbEntity
   8
LEVEL001
 370
13
   6
CONTINUOUS
  62
7
 100
AcDbCircle
  10
 4454.2141513988
  20
 4815.0000000000
  30
0.0
  40
 5.0000000000000
 100
AcDbArc
  50
0.0
  51
 90.000000000000
   0
LINE
   5
163
 100
AcDbEntity
   8
LEVEL001
 370
13
 100
AcDbLine
   6
CONTINUOUS
  62
7
  10
 4459.2141513988
  20
 4325.0000000000
  30
0.0
  11
 4459.2141513988
  21
 4815.0000000000
  31
0.0
   0
ARC
   5
164
 100
AcDbEntity
   8
LEVEL001
 370
13
   6
CONTINUOUS
  62
7
 100
AcDbCircle
  10
 4454.2141513988
  20
 4813.0000000000
  30
0.0
  40
 15.000000000000
 100
AcDbArc
  50
0.0
  51
 90.000000000000
   0
LINE
   5
165
 100
AcDbEntity
   8
LEVEL001
 370
13
 100
AcDbLine
   6
CONTINUOUS
  62
7
  10
 4454.2141513988
  20
 4828.0000000000
  30
0.0
  11
 3864.2141513989
  21
 4828.0000000000
  31
0.0
   0
ARC
   5
166
 100
AcDbEntity
   8
LEVEL001
 370
13
   6
CONTINUOUS
  62
1
 100
AcDbCircle
  10
 4469.2141513988
  20
 4725.0000000000
  30
0.0
  40
 7.5000000000000
 100
AcDbArc
  50
 270.00000000000
  51
 90.000000000000
   0
LINE
   5
167
 100
AcDbEntity
   8
LEVEL001
 370
13
 100
AcDbLine
   6
CONTINUOUS
  62
7
  10
 3864.2141513989
  20
 4320.0000000000
  30
0.0
  11
 4454.2141513988
  21
 4320.0000000000
  31
0.0
   0
ARC
   5
168
 100
AcDbEntity
   8
LEVEL001
 370
13
   6
CONTINUOUS
  62
7
 100
AcDbCircle
  10
 4454.2141513988
  20
 4325.0000000000
  30
0.0
  40
 5.0000000000000
 100
AcDbArc
  50
 270.00000000000
  51
0.0
   0
ARC
   5
169
 100
AcDbEntity
   8
LEVEL001
 370
13
   6
CONTINUOUS
  62
1
 100
AcDbCircle
  10
 4459.2141513988
  20
 4440.0000000000
  30
0.0
  40
 7.5000000000000
 100
AcDbArc
  50
 270.00000000000
  51
 90.000000000000
   0
ARC
   5
16A
 100
AcDbEntity
   8
LEVEL001
 370
13
   6
CONTINUOUS
  62
1
 100
AcDbCircle
  10
 4339.2141513988
  20
 4320.0000000000
  30
0.0
  40
 7.5000000000000
 100
AcDbArc
  50
 180.00000000000
  51
0.0
   0
ARC
   5
16B
 100
AcDbEntity
   8
LEVEL001
 370
13
   6
CONTINUOUS
  62
7
 100
AcDbCircle
  10
 3864.2141513989
  20
 4325.0000000000
  30
0.0
  40
 5.0000000000000
 100
AcDbArc
  50
 180.00000000000
  51
 270.00000000000
   0
LINE
   5
16C
 100
AcDbEntity
   8
LEVEL001
 370
13
 100
AcDbLine
   6
CONTINUOUS
  62
7
  10
 3859.2141513989
  20
 4815.0000000000
  30
0.0
  11
 3859.2141513989
  21
 4325.0000000000
  31
0.0
   0
ARC
   5
16D
 100
AcDbEntity
   8
LEVEL001
 370
13
   6
CONTINUOUS
  62
7
 100
AcDbCircle
  10
 3864.2141513989
  20
 4815.0000000000
  30
0.0
  40
 5.0000000000000
 100
AcDbArc
  50
 90.000000000000
  51
 180.00000000000
   0
ARC
   5
16E
 100
AcDbEntity
   8
LEVEL001
 370
13
   6
CONTINUOUS
  62
7
 100
AcDbCircle
  10
 3864.2141513989
  20
 4813.0000000000
  30
0.0
  40
 15.000000000000
 100
AcDbArc
  50
 90.000000000000
  51
 180.00000000000
   0
ARC
   5
16F
 100
AcDbEntity
   8
LEVEL001
 370
13
   6
CONTINUOUS
  62
1
 100
AcDbCircle
  10
 3849.2141513989
  20
 4725.0000000000
  30
0.0
  40
 7.5000000000000
 100
AcDbArc
  50
 90.000000000000
  51
 270.00000000000
   0
ARC
   5
170
 100
AcDbEntity
   8
LEVEL001
 370
13
   6
CONTINUOUS
  62
1
 100
AcDbCircle
  10
 3859.2141513989
  20
 4440.0000000000
  30
0.0
  40
 7.5000000000000
 100
AcDbArc
  50
 90.000000000000
  51
 270.00000000000
   0
LINE
   5
171
 100
AcDbEntity
   8
LEVEL001
 370
13
 100
AcDbLine
   6
DASHDOT
  62
6
  10
 3834.2141513989
  20
 4570.0000000000
  30
0.0
  11
 4484.2141513988
  21
 4570.0000000000
  31
0.0
   0
ARC
   5
172
 100
AcDbEntity
   8
LEVEL001
 370
13
   6
CONTINUOUS
  62
1
 100
AcDbCircle
  10
 3979.2141513989
  20
 4320.0000000000
  30
0.0
  40
 7.5000000000000
 100
AcDbArc
  50
 180.00000000000
  51
0.0
   0
CIRCLE
   5
173
 100
AcDbEntity
   8
LEVEL001
 370
13
 100
AcDbCircle
   6
CONTINUOUS
  62
2
  10
 4159.2141446760
  20
 4570.0000000000
  30
0.0
  40
 99.999997009768
   0
CIRCLE
   5
174
 100
AcDbEntity
   8
LEVEL001
 370
13
 100
AcDbCircle
   6
CONTINUOUS
  62
7
  10
 4119.2141513988
  20
 4605.0000000000
  30
0.0
  40
 7.0000000000000
   0
LINE
   5
175
 100
AcDbEntity
   8
LEVEL001
 370
13
 100
AcDbLine
   6
DASHDOT
  62
6
  10
 4119.2141513988
  20
 4585.0000000000
  30
0.0
  11
 4119.2141513988
  21
 4625.0000000000
  31
0.0
   0
LINE
   5
176
 100
AcDbEntity
   8
LEVEL001
 370
13
 100
AcDbLine
   6
DASHDOT
  62
6
  10
 4139.2141513988
  20
 4605.0000000000
  30
0.0
  11
 4099.2141513988
  21
 4605.0000000000
  31
0.0
   0
CIRCLE
   5
177
 100
AcDbEntity
   8
LEVEL001
 370
13
 100
AcDbCircle
   6
CONTINUOUS
  62
7
  10
 4199.2141513988
  20
 4605.0000000000
  30
0.0
  40
 7.0000000000000
   0
LINE
   5
178
 100
AcDbEntity
   8
LEVEL001
 370
13
 100
AcDbLine
   6
DASHDOT
  62
6
  10
 4179.2141513988
  20
 4605.0000000000
  30
0.0
  11
 4219.2141513988
  21
 4605.0000000000
  31
0.0
   0
LINE
   5
179
 100
AcDbEntity
   8
LEVEL001
 370
13
 100
AcDbLine
   6
DASHDOT
  62
6
  10
 4199.2141513988
  20
 4585.0000000000
  30
0.0
  11
 4199.2141513988
  21
 4625.0000000000
  31
0.0
   0
CIRCLE
   5
17A
 100
AcDbEntity
   8
LEVEL001
 370
13
 100
AcDbCircle
   6
CONTINUOUS
  62
7
  10
 4199.2141513988
  20
 4535.0000000000
  30
0.0
  40
 7.0000000000000
   0
LINE
   5
17B
 100
AcDbEntity
   8
LEVEL001
 370
13
 100
AcDbLine
   6
DASHDOT
  62
6
  10
 4199.2141513988
  20
 4555.0000000000
  30
0.0
  11
 4199.2141513988
  21
 4515.0000000000
  31
0.0
   0
LINE
   5
17C
 100
AcDbEntity
   8
LEVEL001
 370
13
 100
AcDbLine
   6
DASHDOT
  62
6
  10
 4179.2141513988
  20
 4535.0000000000
  30
0.0
  11
 4219.2141513988
  21
 4535.0000000000
  31
0.0
   0
CIRCLE
   5
17D
 100
AcDbEntity
   8
LEVEL001
 370
13
 100
AcDbCircle
   6
CONTINUOUS
  62
7
  10
 4119.2141513988
  20
 4535.0000000000
  30
0.0
  40
 7.0000000000000
   0
LINE
   5
17E
 100
AcDbEntity
   8
LEVEL001
 370
13
 100
AcDbLine
   6
DASHDOT
  62
6
  10
 4139.2141513988
  20
 4535.0000000000
  30
0.0
  11
 4099.2141513988
  21
 4535.0000000000
  31
0.0
   0
LINE
   5
17F
 100
AcDbEntity
   8
LEVEL001
 370
13
 100
AcDbLine
   6
DASHDOT
  62
6
  10
 4119.2141513988
  20
 4555.0000000000
  30
0.0
  11
 4119.2141513988
  21
 4515.0000000000
  31
0.0
   0
ARC
   5
180
 100
AcDbEntity
   8
LEVEL001
 370
13
   6
CONTINUOUS
  62
2
 100
AcDbCircle
  10
 4231.3027909678
  20
 4680.5769633213
  30
0.0
  40
 14.999999551465
 100
AcDbArc
  50
 236.89894203133
  51
 304.73831126670
   0
ARC
   5
181
 100
AcDbEntity
   8
LEVEL001
 370
13
   6
CONTINUOUS
  62
2
 100
AcDbCircle
  10
 4281.1666626600
  20
 4620.5132007646
  30
0.0
  40
 14.999999551465
 100
AcDbArc
  50
 134.65903970418
  51
 202.49980568450
   0
LINE
   5
182
 100
AcDbEntity
   8
LEVEL001
 370
13
 100
AcDbLine
   6
CONTINUOUS
  62
2
  10
 4239.8502276488
  20
 4668.2505156283
  30
0.0
  11
 4371.0886842563
  21
 4762.7277601975
  31
0.0
   0
LINE
   5
183
 100
AcDbEntity
   8
LEVEL001
 370
13
 100
AcDbLine
   6
CONTINUOUS
  62
2
  10
 4270.6233673017
  20
 4631.1827325974
  30
0.0
  11
 4387.6342233953
  21
 4742.7981701172
  31
0.0
   0
ARC
   5
184
 100
AcDbEntity
   8
LEVEL001
 370
13
   6
CONTINUOUS
  62
2
 100
AcDbCircle
  10
 4378.4963762510
  20
 4752.0447780390
  30
0.0
  40
 13.000000326526
 100
AcDbArc
  50
 314.66104729200
  51
 124.73784535923
   0
LINE
   5
185
 100
AcDbEntity
   8
LEVEL001
 370
13
 100
AcDbLine
   6
CONTINUOUS
  62
6
  10
 4240.0620513952
  20
 4651.5533929141
  30
0.0
  11
 4349.9238015614
  21
 4731.2072766314
  31
0.0
   0
LINE
   5
186
 100
AcDbEntity
   8
LEVEL001
 370
13
 100
AcDbLine
   6
CONTINUOUS
  62
6
  10
 4254.2505623331
  20
 4634.4629609743
  30
0.0
  11
 4352.7577489190
  21
 4727.7936455571
  31
0.0
   0
ARC
   5
187
 100
AcDbEntity
   8
LEVEL001
 370
13
   6
CONTINUOUS
  62
2
 100
AcDbCircle
  10
 4231.3027909678
  20
 4459.4230366787
  30
0.0
  40
 14.999999551465
 100
AcDbArc
  50
 55.261688733304
  51
 123.10105796868
   0
LINE
   5
188
 100
AcDbEntity
   8
LEVEL001
 370
13
 100
AcDbLine
   6
CONTINUOUS
  62
2
  10
 4239.8502276488
  20
 4471.7494843717
  30
0.0
  11
 4371.0886842563
  21
 4377.2722398024
  31
0.0
   0
LINE
   5
189
 100
AcDbEntity
   8
LEVEL001
 370
13
 100
AcDbLine
   6
CONTINUOUS
  62
2
  10
 4270.6233673017
  20
 4508.8172674026
  30
0.0
  11
 4387.6342233953
  21
 4397.2018298827
  31
0.0
   0
ARC
   5
18A
 100
AcDbEntity
   8
LEVEL001
 370
13
   6
CONTINUOUS
  62
2
 100
AcDbCircle
  10
 4378.4963762510
  20
 4387.9552219610
  30
0.0
  40
 13.000000326526
 100
AcDbArc
  50
 235.26215464073
  51
 45.338952708059
   0
LINE
   5
18B
 100
AcDbEntity
   8
LEVEL001
 370
13
 100
AcDbLine
   6
CONTINUOUS
  62
6
  10
 4240.0620513952
  20
 4488.4466070859
  30
0.0
  11
 4349.9238015614
  21
 4408.7927233686
  31
0.0
   0
LINE
   5
18C
 100
AcDbEntity
   8
LEVEL001
 370
13
 100
AcDbLine
   6
CONTINUOUS
  62
6
  10
 4254.2505623331
  20
 4505.5370390257
  30
0.0
  11
 4352.7577489190
  21
 4412.2063544429
  31
0.0
   0
ARC
   5
18D
 100
AcDbEntity
   8
LEVEL001
 370
13
   6
CONTINUOUS
  62
2
 100
AcDbCircle
  10
 4281.1666626600
  20
 4519.4867992354
  30
0.0
  40
 14.999999551465
 100
AcDbArc
  50
 157.50019431550
  51
 225.34096029582
   0
ARC
   5
18E
 100
AcDbEntity
   8
LEVEL001
 370
13
   6
CONTINUOUS
  62
2
 100
AcDbCircle
  10
 4159.2141513987
  20
 4570.0000000000
  30
0.0
  40
 116.99999459408
 100
AcDbArc
  50
 337.50047455098
  51
 22.499525449019
   0
ARC
   5
18F
 100
AcDbEntity
   8
LEVEL001
 370
13
   6
CONTINUOUS
  62
2
 100
AcDbCircle
  10
 4087.1255118299
  20
 4680.5769633213
  30
0.0
  40
 14.999999551465
 100
AcDbArc
  50
 235.26168873330
  51
 303.10105796867
   0
LINE
   5
190
 100
AcDbEntity
   8
LEVEL001
 370
13
 100
AcDbLine
   6
CONTINUOUS
  62
2
  10
 4078.5780751489
  20
 4668.2505156283
  30
0.0
  11
 3947.3396185414
  21
 4762.7277601975
  31
0.0
   0
LINE
   5
191
 100
AcDbEntity
   8
LEVEL001
 370
13
 100
AcDbLine
   6
CONTINUOUS
  62
2
  10
 4047.8049354960
  20
 4631.1827325974
  30
0.0
  11
 3930.7940794024
  21
 4742.7981701172
  31
0.0
   0
ARC
   5
192
 100
AcDbEntity
   8
LEVEL001
 370
13
   6
CONTINUOUS
  62
2
 100
AcDbCircle
  10
 3939.9319265467
  20
 4752.0447780390
  30
0.0
  40
 13.000000326526
 100
AcDbArc
  50
 55.262154640774
  51
 225.33895270800
   0
LINE
   5
193
 100
AcDbEntity
   8
LEVEL001
 370
13
 100
AcDbLine
   6
CONTINUOUS
  62
6
  10
 4078.3662514025
  20
 4651.5533929141
  30
0.0
  11
 3968.5045012363
  21
 4731.2072766314
  31
0.0
   0
LINE
   5
194
 100
AcDbEntity
   8
LEVEL001
 370
13
 100
AcDbLine
   6
CONTINUOUS
  62
6
  10
 4064.1777404646
  20
 4634.4629609743
  30
0.0
  11
 3965.6705538787
  21
 4727.7936455571
  31
0.0
   0
ARC
   5
195
 100
AcDbEntity
   8
LEVEL001
 370
13
   6
CONTINUOUS
  62
2
 100
AcDbCircle
  10
 4037.2616401377
  20
 4620.5132007646
  30
0.0
  40
 14.999999551465
 100
AcDbArc
  50
 337.50019431550
  51
 45.340960295823
   0
ARC
   5
196
 100
AcDbEntity
   8
LEVEL001
 370
13
   6
CONTINUOUS
  62
2
 100
AcDbCircle
  10
 4159.2141513990
  20
 4570.0000000000
  30
0.0
  40
 116.99999459408
 100
AcDbArc
  50
 157.50047455098
  51
 202.49952544902
   0
LINE
   5
197
 100
AcDbEntity
   8
LEVEL001
 370
13
 100
AcDbLine
   6
CONTINUOUS
  62
2
  10
 4078.5780751489
  20
 4471.7494843717
  30
0.0
  11
 3947.3396185414
  21
 4377.2722398024
  31
0.0
   0
LINE
   5
198
 100
AcDbEntity
   8
LEVEL001
 370
13
 100
AcDbLine
   6
CONTINUOUS
  62
2
  10
 4047.8049354960
  20
 4508.8172674026
  30
0.0
  11
 3930.7940794024
  21
 4397.2018298827
  31
0.0
   0
ARC
   5
199
 100
AcDbEntity
   8
LEVEL001
 370
13
   6
CONTINUOUS
  62
2
 100
AcDbCircle
  10
 3939.9319265467
  20
 4387.9552219610
  30
0.0
  40
 13.000000326526
 100
AcDbArc
  50
 134.66104729194
  51
 304.73784535927
   0
LINE
   5
19A
 100
AcDbEntity
   8
LEVEL001
 370
13
 100
AcDbLine
   6
CONTINUOUS
  62
6
  10
 4078.3662514025
  20
 4488.4466070859
  30
0.0
  11
 3968.5045012363
  21
 4408.7927233686
  31
0.0
   0
LINE
   5
19B
 100
AcDbEntity
   8
LEVEL001
 370
13
 100
AcDbLine
   6
CONTINUOUS
  62
6
  10
 4064.1777404646
  20
 4505.5370390257
  30
0.0
  11
 3965.6705538787
  21
 4412.2063544429
  31
0.0
   0
ARC
   5
19C
 100
AcDbEntity
   8
LEVEL001
 370
13
   6
CONTINUOUS
  62
2
 100
AcDbCircle
  10
 4037.2616401377
  20
 4519.4867992354
  30
0.0
  40
 14.999999551465
 100
AcDbArc
  50
 314.65903970418
  51
 22.499805684496
   0
ARC
   5
19D
 100
AcDbEntity
   8
LEVEL001
 370
13
   6
CONTINUOUS
  62
2
 100
AcDbCircle
  10
 4087.1255118299
  20
 4459.4230366787
  30
0.0
  40
 14.999999551465
 100
AcDbArc
  50
 56.898942031320
  51
 124.73831126670
   0
ARC
   5
19E
 100
AcDbEntity
   8
LEVEL001
 370
13
   6
CONTINUOUS
  62
2
 100
AcDbCircle
  10
 4159.2144498517
  20
 4570.0000067229
  30
0.0
  40
 116.99999459408
 100
AcDbArc
  50
 56.898441365324
  51
 123.10180350263
   0
ARC
   5
19F
 100
AcDbEntity
   8
LEVEL001
 370
13
   6
CONTINUOUS
  62
2
 100
AcDbCircle
  10
 4159.2144498517
  20
 4569.9999932771
  30
0.0
  40
 116.99999459408
 100
AcDbArc
  50
 236.89819649737
  51
 303.10155863468
   0
CIRCLE
   5
1A0
 100
AcDbEntity
   8
LEVEL001
 370
13
 100
AcDbCircle
   6
CONTINUOUS
  62
1
  10
 3770.3925235115
  20
 4238.1129295122
  30
0.0
  40
 69.999997913838
   0
LEADER
   5
1A1
 100
AcDbEntity
   8
LEVEL001
 370
13
   6
CONTINUOUS
  62
1
 100
AcDbLeader
   3
GMM001
  73
3
  74
1
  75
0
  40
 66.000000000000
  41
0.0
  76
2
  10
 3987.5800540192
  20
 4363.5062087157
  30
0.0
  10
 3831.0142999696
  20
 4273.1129284692
  30
0.0
  77
1
   0
MTEXT
   5
1A3
 100
AcDbEntity
   8
LEVEL001
 370
13
  62
7
 100
AcDbMText
  10
 3770.3925235115
  20
 4238.1129295122
  30
0.0
  40
 66.000000000000
  41
0.0
  71
5
  72
1
   1
\T1.000000;２
   7
GMM004
  44
 0.79999984000003
   0
ARC
   5
1A4
 100
AcDbEntity
   8
LEVEL001
 370
13
   6
CONTINUOUS
  62
2
 100
AcDbCircle
  10
 3879.2144498517
  20
 4799.9999932771
  30
0.0
  40
 5.0000000000000
 100
AcDbArc
  50
 90.000000000000
  51
 180.00000000000
   0
LINE
   5
1A5
 100
AcDbEntity
   8
LEVEL001
 370
13
 100
AcDbLine
   6
CONTINUOUS
  62
2
  10
 4439.2144498517
  20
 4804.9999932771
  30
0.0
  11
 3879.2144498517
  21
 4804.9999932771
  31
0.0
   0
ARC
   5
1A6
 100
AcDbEntity
   8
LEVEL001
 370
13
   6
CONTINUOUS
  62
2
 100
AcDbCircle
  10
 4439.2144498517
  20
 4799.9999932771
  30
0.0
  40
 5.0000000000000
 100
AcDbArc
  50
0.0
  51
 90.000000000000
   0
LINE
   5
1A7
 100
AcDbEntity
   8
LEVEL001
 370
13
 100
AcDbLine
   6
CONTINUOUS
  62
2
  10
 4444.2144498517
  20
 4339.9999932771
  30
0.0
  11
 4444.2144498517
  21
 4799.9999932771
  31
0.0
   0
ARC
   5
1A8
 100
AcDbEntity
   8
LEVEL001
 370
13
   6
CONTINUOUS
  62
2
 100
AcDbCircle
  10
 4439.2144498517
  20
 4339.9999932771
  30
0.0
  40
 5.0000000000000
 100
AcDbArc
  50
 270.00000000000
  51
0.0
   0
LINE
   5
1A9
 100
AcDbEntity
   8
LEVEL001
 370
13
 100
AcDbLine
   6
CONTINUOUS
  62
2
  10
 3874.2144498517
  20
 4799.9999932771
  30
0.0
  11
 3874.2144498517
  21
 4339.9999932771
  31
0.0
   0
LINE
   5
1AA
 100
AcDbEntity
   8
LEVEL001
 370
13
 100
AcDbLine
   6
CONTINUOUS
  62
2
  10
 3879.2144498517
  20
 4334.9999932771
  30
0.0
  11
 4439.2144498517
  21
 4334.9999932771
  31
0.0
   0
ARC
   5
1AB
 100
AcDbEntity
   8
LEVEL001
 370
13
   6
CONTINUOUS
  62
2
 100
AcDbCircle
  10
 3879.2144498517
  20
 4339.9999932771
  30
0.0
  40
 5.0000000000000
 100
AcDbArc
  50
 180.00000000000
  51
 270.00000000000
   0
ARC
   5
1AC
 100
AcDbEntity
   8
LEVEL001
 370
13
   6
CONTINUOUS
  62
1
 100
AcDbCircle
  10
 4159.2141513988
  20
 4320.0000000000
  30
0.0
  40
 7.5000000000000
 100
AcDbArc
  50
 180.00000000000
  51
0.0
   0
LEADER
   5
1AD
 100
AcDbEntity
   8
LEVEL001
 370
13
   6
CONTINUOUS
  62
1
 100
AcDbLeader
   3
GMM001
  73
3
  74
1
  75
0
  40
 66.000000000000
  41
0.0
  76
2
  10
 2697.7175124145
  20
 4515.0000000000
  30
0.0
  10
 2251.3533669595
  20
 4371.8443190190
  30
0.0
  77
1
   0
CIRCLE
   5
1AE
 100
AcDbEntity
   8
LEVEL001
 370
13
 100
AcDbCircle
   6
CONTINUOUS
  62
1
  10
 2909.2141513988
  20
 5070.0000000000
  30
0.0
  40
 69.999997913838
   0
CIRCLE
   5
1AF
 100
AcDbEntity
   8
LEVEL001
 370
13
 100
AcDbCircle
   6
CONTINUOUS
  62
1
  10
 3049.2141472265
  20
 5070.0000000000
  30
0.0
  40
 69.999997913838
   0
MTEXT
   5
1B1
 100
AcDbEntity
   8
LEVEL001
 370
13
  62
7
 100
AcDbMText
  10
 2909.2141513988
  20
 5070.0000000000
  30
0.0
  40
 66.000000000000
  41
0.0
  71
5
  72
1
   1
\T1.000000;６
   7
GMM004
  44
 0.79999984000003
   0
MTEXT
   5
1B3
 100
AcDbEntity
   8
LEVEL001
 370
13
  62
7
 100
AcDbMText
  10
 3049.2141472265
  20
 5070.0000000000
  30
0.0
  40
 66.000000000000
  41
0.0
  71
5
  72
1
   1
\T1.000000;８
   7
GMM004
  44
 0.79999984000003
   0
CIRCLE
   5
1B4
 100
AcDbEntity
   8
LEVEL001
 370
13
 100
AcDbCircle
   6
CONTINUOUS
  62
1
  10
 3159.2141513988
  20
 4820.0000000000
  30
0.0
  40
 69.999997913838
   0
CIRCLE
   5
1B5
 100
AcDbEntity
   8
LEVEL001
 370
13
 100
AcDbCircle
   6
CONTINUOUS
  62
1
  10
 3299.2141472265
  20
 4820.0000000000
  30
0.0
  40
 69.999997913838
   0
MTEXT
   5
1B7
 100
AcDbEntity
   8
LEVEL001
 370
13
  62
7
 100
AcDbMText
  10
 3159.2141513988
  20
 4820.0000000000
  30
0.0
  40
 66.000000000000
  41
0.0
  71
5
  72
1
   1
\T1.000000;７
   7
GMM004
  44
 0.79999984000003
   0
MTEXT
   5
1B9
 100
AcDbEntity
   8
LEVEL001
 370
13
  62
7
 100
AcDbMText
  10
 3299.2141472265
  20
 4820.0000000000
  30
0.0
  40
 66.000000000000
  41
0.0
  71
5
  72
1
   1
\T1.000000;９
   7
GMM004
  44
 0.79999984000003
   0
LEADER
   5
1BA
 100
AcDbEntity
   8
LEVEL001
 370
13
   6
CONTINUOUS
  62
1
 100
AcDbLeader
   3
GMM001
  73
3
  74
1
  75
0
  40
 66.000000000000
  41
0.0
  76
2
  10
 2784.2141513988
  20
 4625.0000000000
  30
0.0
  10
 2888.6262524700
  20
 5003.0960529891
  30
0.0
  77
1
   0
LEADER
   5
1BB
 100
AcDbEntity
   8
LEVEL001
 370
13
   6
CONTINUOUS
  62
1
 100
AcDbLeader
   3
GMM001
  73
3
  74
1
  75
0
  40
 66.000000000000
  41
0.0
  76
2
  10
 2985.3975063657
  20
 4624.4999999995
  30
0.0
  10
 3113.2115422060
  20
 4767.2386537758
  30
0.0
  77
1
   0
DIMENSION
   5
1BC
 100
AcDbEntity
   8
LEVEL001
 370
13
   6
CONTINUOUS
  62
6
 100
AcDbDimension
   2
*D8
  10
 1596.7141513988
  20
 4820.0000000000
  30
0.0
  11
 1596.7141513988
  21
 4675.1258347129
  31
0.0
  70
128
   3
GMM002
 100
AcDbAlignedDimension
  13
 1596.7141513988
  23
 4320.0000000000
  33
0.0
  14
 1596.7141513988
  24
 4820.0000000000
  34
0.0
  50
 90.000000000000
 100
AcDbRotatedDimension
   0
DIMENSION
   5
1BD
 100
AcDbEntity
   8
LEVEL001
 370
13
   6
CONTINUOUS
  62
6
 100
AcDbDimension
   2
*D9
  10
 1709.2141513989
  20
 4445.0000000000
  30
0.0
  11
 1303.8171163735
  21
 4445.0000000000
  31
0.0
  70
128
   3
GMM002
 100
AcDbAlignedDimension
  13
 1109.2141513988
  23
 4445.0000000000
  33
0.0
  14
 1709.2141513989
  24
 4445.0000000000
  34
0.0
 100
AcDbRotatedDimension
   0
LINE
   5
1BE
 100
AcDbEntity
   8
LEVEL001
 370
13
 100
AcDbLine
   6
CONTINUOUS
  62
7
  10
 2871.0641513988
  20
 3938.5000000008
  30
0.0
  11
 2871.0641513988
  21
 4515.0000000000
  31
0.0
   0
LINE
   5
1BF
 100
AcDbEntity
   8
LEVEL001
 370
13
 100
AcDbLine
   6
CONTINUOUS
  62
7
  10
 2947.3641513989
  20
 4515.0000000000
  30
0.0
  11
 2947.3641513989
  21
 3938.5000000008
  31
0.0
   0
LWPOLYLINE
   5
1C0
 100
AcDbEntity
   8
LEVEL001
 370
13
   6
CONTINUOUS
  62
7
 100
AcDbPolyline
  90
4
  70
0
  10
 1719.2141513989
  20
 4700.0000000000
  10
 1719.2141513989
  20
 4848.0000000000
  10
 1099.2141513988
  20
 4848.0000000000
  10
 1099.2141513988
  20
 4700.0000000000
   0
LWPOLYLINE
   5
1C1
 100
AcDbEntity
   8
LEVEL001
 370
13
   6
CONTINUOUS
  62
7
 100
AcDbPolyline
  90
4
  70
0
  10
 4469.2141513988
  20
 4700.0000000000
  10
 4469.2141513988
  20
 4848.0000000000
  10
 3849.2141513989
  20
 4848.0000000000
  10
 3849.2141513989
  20
 4700.0000000000
   0
LINE
   5
1C2
 100
AcDbEntity
   8
LEVEL001
 370
13
 100
AcDbLine
   6
DASHDOT
  62
6
  10
 4159.2141513988
  20
 4898.0000000000
  30
0.0
  11
 4159.2141513988
  21
 4295.0000000000
  31
0.0
   0
LWPOLYLINE
   5
1C3
 100
AcDbEntity
   8
LEVEL001
 370
13
   6
CONTINUOUS
  62
7
 100
AcDbPolyline
  90
6
  70
0
  10
 2667.2133033768
  20
 4848.0000000000
  10
 2667.2133033768
  20
 4828.0000000000
  10
 2710.0407271770
  20
 4700.0000000000
  10
 2737.2133033768
  20
 4700.0000000000
  10
 2737.2133033768
  20
 4828.0000000000
  10
 2667.2133033768
  20
 4828.0000000000
   0
LEADER
   5
1C4
 100
AcDbEntity
   8
LEVEL001
 370
13
   6
CONTINUOUS
  62
1
 100
AcDbLeader
   3
GMM003
  73
3
  74
1
  75
0
  40
 66.000000000000
  41
0.0
  76
2
  10
 2667.2133033768
  20
 4848.0000000000
  30
0.0
  10
 2248.2894905912
  20
 5028.2756128135
  30
0.0
  77
1
   0
LEADER
   5
1C5
 100
AcDbEntity
   8
LEVEL001
 370
13
   6
CONTINUOUS
  62
1
 100
AcDbLeader
   3
GMM001
  73
3
  74
1
  75
0
  40
 66.000000000000
  41
0.0
  76
2
  10
 1621.3692889823
  20
 4848.0000000000
  30
0.0
  10
 2118.9077731185
  20
 5031.2611043364
  30
0.0
  77
1
   0
ARC
   5
1C6
 100
AcDbEntity
   8
LEVEL001
 370
13
   6
CONTINUOUS
  62
7
 100
AcDbCircle
  10
 5697.2133033768
  20
 4570.0000000000
  30
0.0
  40
 3000.0000000000
 100
AcDbArc
  50
 177.01584489699
  51
 184.78019184720
   0
DIMENSION
   5
1C7
 100
AcDbEntity
   8
LEVEL001
 370
13
   6
CONTINUOUS
  62
6
 100
AcDbDimension
   2
*D12
  10
 659.21415139885
  20
 1120.0000000000
  30
0.0
  11
 659.21415139885
  21
 1070.0000000000
  31
0.0
  70
0
   3
GMM004
 100
AcDbAlignedDimension
  13
 1159.2145609874
  23
 1020.0000000000
  33
0.0
  14
 1159.2145609874
  24
 1120.0000000000
  34
0.0
  50
 90.000000000000
 100
AcDbRotatedDimension
   0
DIMENSION
   5
1C8
 100
AcDbEntity
   8
LEVEL001
 370
13
   6
CONTINUOUS
  62
6
 100
AcDbDimension
   2
*D13
  10
 659.21415139885
  20
 1820.0000000000
  30
0.0
  11
 659.21415139885
  21
 1470.0000000000
  31
0.0
  70
0
   3
GMM004
 100
AcDbAlignedDimension
  13
 1159.2145609874
  23
 1120.0000000000
  33
0.0
  14
 859.21462622241
  24
 1820.0000000000
  34
0.0
  50
 90.000000000000
 100
AcDbRotatedDimension
   0
DIMENSION
   5
1C9
 100
AcDbEntity
   8
LEVEL001
 370
13
   6
CONTINUOUS
  62
6
 100
AcDbDimension
   2
*D14
  10
 659.21415139885
  20
 4320.0000000000
  30
0.0
  11
 659.21415139885
  21
 3070.0000000000
  31
0.0
  70
0
   1
\A1;2500(標準設置高さ)
   3
GMM005
 100
AcDbAlignedDimension
  13
 859.21462622241
  23
 1820.0000000000
  33
0.0
  14
 1114.2141513988
  24
 4320.0000000000
  34
0.0
  50
 90.000000000000
 100
AcDbRotatedDimension
   0
LINE
   5
1CA
 100
AcDbEntity
   8
LEVEL001
 370
13
 100
AcDbLine
   6
DASHDOT
  62
6
  10
 2909.2141513988
  20
 4770.0000000000
  30
0.0
  11
 2909.2141513988
  21
 2186.0218857104
  31
0.0
   0
LWPOLYLINE
   5
1CB
 100
AcDbEntity
   8
LEVEL001
 370
13
   6
CONTINUOUS
  62
7
 100
AcDbPolyline
  90
4
  70
0
  10
 2871.0641513988
  20
 4625.0000000000
  10
 2871.0641513988
  20
 4720.0000000000
  10
 2947.3641513989
  20
 4720.0000000000
  10
 2947.3641513989
  20
 4625.0000000000
   0
LINE
   5
1CC
 100
AcDbEntity
   8
LEVEL001
 370
13
 100
AcDbLine
   6
DASHDOT
  62
6
  10
 1409.2141513988
  20
 4898.0000000000
  30
0.0
  11
 1409.2141513988
  21
 1020.0000000000
  31
0.0
   0
LEADER
   5
1CD
 100
AcDbEntity
   8
LEVEL001
 370
13
   6
CONTINUOUS
  62
1
 100
AcDbLeader
   3
GMM006
  73
3
  74
1
  75
0
  40
 66.000000000000
  41
0.0
  76
2
  10
 2909.2141513988
  20
 4724.0000000000
  30
0.0
  10
 3146.8685158763
  20
 4941.6599104551
  30
0.0
  77
1
   0
MTEXT
   5
1CF
 100
AcDbEntity
   8
LEVEL001
 370
13
  62
7
 100
AcDbMText
  10
 1703.5842307922
  20
 4109.6360662626
  30
0.0
  40
 66.000000000000
  41
0.0
  71
5
  72
1
   1
\T1.000000;４
   7
GMM004
  44
 0.79999984000003
   0
MTEXT
   5
1D1
 100
AcDbEntity
   8
LEVEL001
 370
13
  62
7
 100
AcDbMText
  10
 1114.8440720055
  20
 4109.6360662626
  30
0.0
  40
 66.000000000000
  41
0.0
  71
5
  72
1
   1
\T1.000000;５
   7
GMM004
  44
 0.79999984000003
   0
ARC
   5
1D2
 100
AcDbEntity
   8
LEVEL001
 370
13
   6
CONTINUOUS
  62
7
 100
AcDbCircle
  10
 1464.2141513990
  20
 4100.0000000000
  30
0.0
  40
 20.000000000000
 100
AcDbArc
  50
0.0
  51
 90.000000000000
   0
ARC
   5
1D3
 100
AcDbEntity
   8
LEVEL001
 370
13
   6
CONTINUOUS
  62
7
 100
AcDbCircle
  10
 1354.2141513990
  20
 4100.0000000000
  30
0.0
  40
 20.000000000000
 100
AcDbArc
  50
 90.000000000000
  51
 180.00000000000
   0
LINE
   5
1D4
 100
AcDbEntity
   8
LEVEL001
 370
13
 100
AcDbLine
   6
CONTINUOUS
  62
7
  10
 1334.2141513990
  20
 4100.0000000000
  30
0.0
  11
 1334.2141513990
  21
 3740.0000000000
  31
0.0
   0
ARC
   5
1D5
 100
AcDbEntity
   8
LEVEL001
 370
13
   6
CONTINUOUS
  62
7
 100
AcDbCircle
  10
 1354.2141513990
  20
 3740.0000000000
  30
0.0
  40
 20.000000000000
 100
AcDbArc
  50
 180.00000000000
  51
 270.00000000000
   0
LINE
   5
1D6
 100
AcDbEntity
   8
LEVEL001
 370
13
 100
AcDbLine
   6
CONTINUOUS
  62
7
  10
 1354.2141513990
  20
 3720.0000000000
  30
0.0
  11
 1464.2141513990
  21
 3720.0000000000
  31
0.0
   0
LINE
   5
1D7
 100
AcDbEntity
   8
LEVEL001
 370
13
 100
AcDbLine
   6
CONTINUOUS
  62
7
  10
 1484.2141513990
  20
 3740.0000000000
  30
0.0
  11
 1484.2141513990
  21
 4100.0000000000
  31
0.0
   0
ARC
   5
1D8
 100
AcDbEntity
   8
LEVEL001
 370
13
   6
CONTINUOUS
  62
7
 100
AcDbCircle
  10
 1464.2141513990
  20
 3740.0000000000
  30
0.0
  40
 20.000000000000
 100
AcDbArc
  50
 270.00000000000
  51
 360.00000000000
   0
LINE
   5
1D9
 100
AcDbEntity
   8
LEVEL001
 370
13
 100
AcDbLine
   6
CONTINUOUS
  62
7
  10
 1464.2141513990
  20
 4120.0000000000
  30
0.0
  11
 1354.2141513990
  21
 4120.0000000000
  31
0.0
   0
LWPOLYLINE
   5
1DA
 100
AcDbEntity
   8
LEVEL001
 370
13
   6
CONTINUOUS
  62
5
 100
AcDbPolyline
  90
7
  70
1
  10
 1409.2141513990
  20
 4080.0000000000
  10
 1372.9141524808
  20
 4033.8000013769
  10
 1392.7141518907
  20
 4033.8000013769
  10
 1392.7141518907
  20
 4014.0000019669
  10
 1425.7141509073
  20
 4014.0000019669
  10
 1425.7141509073
  20
 4033.8000013769
  10
 1445.5141503172
  20
 4033.8000013769
   0
CIRCLE
   5
1DB
 100
AcDbEntity
   8
LEVEL001
 370
13
 100
AcDbCircle
   6
CONTINUOUS
  62
1
  10
 1677.5975958642
  20
 3808.3500162809
  30
0.0
  40
 69.999997913838
   0
LEADER
   5
1DC
 100
AcDbEntity
   8
LEVEL001
 370
13
   6
CONTINUOUS
  62
1
 100
AcDbLeader
   3
GMM001
  73
3
  74
1
  75
0
  40
 66.000000000000
  41
0.0
  76
2
  10
 1484.2141513990
  20
 3920.0000000000
  30
0.0
  10
 1616.9758194060
  20
 3843.3500152379
  30
0.0
  77
1
   0
MTEXT
   5
1DE
 100
AcDbEntity
   8
LEVEL001
 370
13
  62
7
 100
AcDbMText
  10
 1677.5975958642
  20
 3808.3500162809
  30
0.0
  40
 66.000000000000
  41
0.0
  71
5
  72
1
   1
\T1.000000;１３
   7
GMM004
  44
 0.79999984000003
   0
ARC
   5
1DF
 100
AcDbEntity
   8
LEVEL001
 370
13
   6
CONTINUOUS
  62
7
 100
AcDbCircle
  10
 2859.2915301493
  20
 3728.6417202906
  30
0.0
  40
 5.0000000000000
 100
AcDbArc
  50
 180.00000000001
  51
 201.80140948637
   0
LINE
   5
1E0
 100
AcDbEntity
   8
LEVEL001
 370
13
 100
AcDbLine
   6
CONTINUOUS
  62
7
  10
 2857.3630534584
  20
 3720.0000000000
  30
0.0
  11
 2854.6491466948
  21
 3726.7847669088
  31
0.0
   0
ARC
   5
1E1
 100
AcDbEntity
   8
LEVEL001
 370
13
   6
CONTINUOUS
  62
7
 100
AcDbCircle
  10
 2853.2915301493
  20
 3735.8476464591
  30
0.0
  40
 5.0000000000000
 100
AcDbArc
  50
 338.19859051367
  51
 0.26055103950549E-10
   0
LINE
   5
1E2
 100
AcDbEntity
   8
LEVEL001
 370
13
 100
AcDbLine
   6
CONTINUOUS
  62
7
  10
 2856.1316427490
  20
 3729.4850159406
  30
0.0
  11
 2857.9339136037
  21
 3733.9906930773
  31
0.0
   0
ARC
   5
1E3
 100
AcDbEntity
   8
LEVEL001
 370
13
   6
CONTINUOUS
  62
7
 100
AcDbCircle
  10
 2860.7740262034
  20
 3727.6280625588
  30
0.0
  40
 5.0000000000000
 100
AcDbArc
  50
 158.19859051364
  51
 201.80140948636
   0
LWPOLYLINE
   5
1E4
 100
AcDbEntity
   8
LEVEL001
 370
13
   6
CONTINUOUS
  62
7
 100
AcDbPolyline
  90
3
  70
0
  10
 2857.3630534584
  20
 3720.0000000000
  10
 2858.2915301493
  20
 3720.3713906764
  10
 2856.1316427490
  20
 3725.7711091770
   0
LINE
   5
1E5
 100
AcDbEntity
   8
LEVEL001
 370
13
 100
AcDbLine
   6
CONTINUOUS
  62
7
  10
 2857.3630534584
  20
 4120.0000000016
  30
0.0
  11
 2854.6491466948
  21
 4113.2152330928
  31
0.0
   0
ARC
   5
1E6
 100
AcDbEntity
   8
LEVEL001
 370
13
   6
CONTINUOUS
  62
7
 100
AcDbCircle
  10
 2859.2915301493
  20
 4111.3582797110
  30
0.0
  40
 5.0000000000000
 100
AcDbArc
  50
 158.19859051363
  51
 179.99999999999
   0
ARC
   5
1E7
 100
AcDbEntity
   8
LEVEL001
 370
13
   6
CONTINUOUS
  62
7
 100
AcDbCircle
  10
 2853.2915301493
  20
 4104.1523535425
  30
0.0
  40
 5.0000000000000
 100
AcDbArc
  50
 359.99999999997
  51
 21.801409486323
   0
LINE
   5
1E8
 100
AcDbEntity
   8
LEVEL001
 370
13
 100
AcDbLine
   6
CONTINUOUS
  62
7
  10
 2856.1316427490
  20
 4110.5149840610
  30
0.0
  11
 2857.9339136037
  21
 4106.0093069243
  31
0.0
   0
ARC
   5
1E9
 100
AcDbEntity
   8
LEVEL001
 370
13
   6
CONTINUOUS
  62
7
 100
AcDbCircle
  10
 2860.7740262034
  20
 4112.3719374428
  30
0.0
  40
 5.0000000000000
 100
AcDbArc
  50
 158.19859051364
  51
 201.80140948636
   0
LWPOLYLINE
   5
1EA
 100
AcDbEntity
   8
LEVEL001
 370
13
   6
CONTINUOUS
  62
7
 100
AcDbPolyline
  90
3
  70
0
  10
 2857.3630534584
  20
 4120.0000000016
  10
 2858.2915301493
  20
 4119.6286093253
  10
 2856.1316427490
  20
 4114.2288908246
   0
LINE
   5
1EB
 100
AcDbEntity
   8
LEVEL001
 370
13
 100
AcDbLine
   6
CONTINUOUS
  62
7
  10
 2854.2915301493
  20
 4111.3582797110
  30
0.0
  11
 2854.2915301493
  21
 3728.6417202906
  31
0.0
   0
LINE
   5
1EC
 100
AcDbEntity
   8
LEVEL001
 370
13
 100
AcDbLine
   6
CONTINUOUS
  62
7
  10
 2858.2915301493
  20
 4104.1523535425
  30
0.0
  11
 2858.2915301493
  21
 3735.8476464591
  31
0.0
   0
LINE
   5
1ED
 100
AcDbEntity
   8
LEVEL001
 370
13
 100
AcDbLine
   6
CONTINUOUS
  62
6
  10
 2861.2915301493
  20
 3955.0000607590
  30
0.0
  11
 2861.2915301493
  21
 3955.9999997199
  31
0.0
   0
LINE
   5
1EE
 100
AcDbEntity
   8
LEVEL001
 370
13
 100
AcDbLine
   6
CONTINUOUS
  62
7
  10
 2861.7470089283
  20
 3940.9996335675
  30
0.0
  11
 2861.7474666923
  21
 3898.9997252841
  31
0.0
   0
LINE
   5
1EF
 100
AcDbEntity
   8
LEVEL001
 370
13
 100
AcDbLine
   6
CONTINUOUS
  62
7
  10
 2861.2915301493
  20
 3955.9999997199
  30
0.0
  11
 2858.2915301493
  21
 3955.9999997199
  31
0.0
   0
LINE
   5
1F0
 100
AcDbEntity
   8
LEVEL001
 370
13
 100
AcDbLine
   6
CONTINUOUS
  62
6
  10
 2858.2915301493
  20
 3955.0000607590
  30
0.0
  11
 2861.2915301493
  21
 3955.0000607590
  31
0.0
   0
LWPOLYLINE
   5
1F1
 100
AcDbEntity
   8
LEVEL001
 370
13
   6
CONTINUOUS
  62
6
 100
AcDbPolyline
  90
3
  70
0
  10
 2861.2915301493
  20
 3884.0000000008
  10
 2861.2915301493
  20
 3885.0000305145
  10
 2858.2915301493
  20
 3885.0000305145
   0
ELLIPSE
   5
1F2
 100
AcDbEntity
   8
LEVEL001
 370
13
   6
CONTINUOUS
  62
7
 100
AcDbEllipse
  10
 2857.7474641412
  20
 3898.9997864366
  30
0.0
  11
 4.0000025516047
  21
0.0
  31
0.0
  40
 0.99999938800000
  41
-1.4343569865528
  42
-0.15288126351787E-4
   0
LINE
   5
1F3
 100
AcDbEntity
   8
LEVEL001
 370
13
 100
AcDbLine
   6
CONTINUOUS
  62
7
  10
 2858.2915301493
  20
 3884.0000000008
  30
0.0
  11
 2861.2915301493
  21
 3884.0000000008
  31
0.0
   0
ELLIPSE
   5
1F4
 100
AcDbEntity
   8
LEVEL001
 370
13
   6
CONTINUOUS
  62
7
 100
AcDbEllipse
  10
 2857.7470063786
  20
 3940.9997555187
  30
0.0
  11
 4.0000025516047
  21
0.0
  31
0.0
  40
 0.99999938800000
  41
-0.30487804121538E-4
  42
 1.4342414715499
   0
LWPOLYLINE
   5
1F5
 100
AcDbEntity
   8
LEVEL001
 370
13
   6
CONTINUOUS
  62
7
 100
AcDbPolyline
  90
4
  70
0
  10
 2861.7470361723
  20
 3938.5000000008
  10
 2967.2915301493
  20
 3938.5000000008
  10
 2967.2915301493
  20
 3901.5000000008
  10
 2861.7474394414
  20
 3901.5000000008
   0
LINE
   5
1F6
 100
AcDbEntity
   8
LEVEL001
 370
13
 100
AcDbLine
   6
CONTINUOUS
  62
6
  10
 2872.7394647536
  20
 3925.5000000008
  30
0.0
  11
 2872.7394647536
  21
 3914.5000000008
  31
0.0
   0
LINE
   5
1F7
 100
AcDbEntity
   8
LEVEL001
 370
13
 100
AcDbLine
   6
CONTINUOUS
  62
6
  10
 2872.7394647536
  20
 3912.5000000008
  30
0.0
  11
 2872.7394647536
  21
 3903.5000000008
  31
0.0
   0
LINE
   5
1F8
 100
AcDbEntity
   8
LEVEL001
 370
13
 100
AcDbLine
   6
CONTINUOUS
  62
6
  10
 2872.7394647536
  20
 3936.5000000008
  30
0.0
  11
 2872.7394647536
  21
 3927.5000000008
  31
0.0
   0
LINE
   5
1F9
 100
AcDbEntity
   8
LEVEL001
 370
13
 100
AcDbLine
   6
CONTINUOUS
  62
6
  10
 2946.1195311488
  20
 3913.5000000008
  30
0.0
  11
 2874.0003593232
  21
 3913.5000000008
  31
0.0
   0
LINE
   5
1FA
 100
AcDbEntity
   8
LEVEL001
 370
13
 100
AcDbLine
   6
CONTINUOUS
  62
6
  10
 2874.0003593232
  20
 3926.5000000008
  30
0.0
  11
 2946.1195311488
  21
 3926.5000000008
  31
0.0
   0
LINE
   5
1FB
 100
AcDbEntity
   8
LEVEL001
 370
13
 100
AcDbLine
   6
CONTINUOUS
  62
6
  10
 2946.1195311488
  20
 3936.5000000008
  30
0.0
  11
 2946.1195311488
  21
 3927.5000000008
  31
0.0
   0
LINE
   5
1FC
 100
AcDbEntity
   8
LEVEL001
 370
13
 100
AcDbLine
   6
CONTINUOUS
  62
6
  10
 2946.1195311488
  20
 3912.5000000008
  30
0.0
  11
 2946.1195311488
  21
 3903.5000000008
  31
0.0
   0
LINE
   5
1FD
 100
AcDbEntity
   8
LEVEL001
 370
13
 100
AcDbLine
   6
CONTINUOUS
  62
6
  10
 2948.4380561902
  20
 3926.5000000008
  30
0.0
  11
 2948.4380561902
  21
 3913.5000000008
  31
0.0
   0
LWPOLYLINE
   5
1FE
 100
AcDbEntity
   8
LEVEL001
 370
13
   6
CONTINUOUS
  62
7
 100
AcDbPolyline
  90
4
  70
1
  10
 2952.2915301493
  20
 3915.0000000008
  10
 2962.2915301493
  20
 3915.0000000008
  10
 2962.2915301493
  20
 3925.0000000008
  10
 2952.2915301493
  20
 3925.0000000008
   0
LEADER
   5
1FF
 100
AcDbEntity
   8
LEVEL001
 370
13
   6
CONTINUOUS
  62
1
 100
AcDbLeader
   3
GMM001
  73
3
  74
1
  75
0
  40
 66.000000000000
  41
0.0
  76
2
  10
 2967.2912418306
  20
 3938.5000000008
  30
0.0
  10
 3136.6032596824
  20
 4036.2523390846
  30
0.0
  77
1
   0
CIRCLE
   5
200
 100
AcDbEntity
   8
LEVEL001
 370
13
 100
AcDbCircle
   6
CONTINUOUS
  62
1
  10
 3197.2250361406
  20
 4071.2523380416
  30
0.0
  40
 69.999997913838
   0
CIRCLE
   5
201
 100
AcDbEntity
   8
LEVEL001
 370
13
 100
AcDbCircle
   6
CONTINUOUS
  62
1
  10
 3337.2250319683
  20
 4071.2523380416
  30
0.0
  40
 69.999997913838
   0
MTEXT
   5
203
 100
AcDbEntity
   8
LEVEL001
 370
13
  62
7
 100
AcDbMText
  10
 3197.2250361406
  20
 4071.2523380416
  30
0.0
  40
 66.000000000000
  41
0.0
  71
5
  72
1
   1
\T1.000000;１４
   7
GMM004
  44
 0.79999984000003
   0
MTEXT
   5
205
 100
AcDbEntity
   8
LEVEL001
 370
13
  62
7
 100
AcDbMText
  10
 3337.2250319683
  20
 4071.2523380416
  30
0.0
  40
 66.000000000000
  41
0.0
  71
5
  72
1
   1
\T1.000000;１５
   7
GMM004
  44
 0.79999984000003
   0
CIRCLE
   5
206
 100
AcDbEntity
   8
LEVEL001
 370
13
 100
AcDbCircle
   6
CONTINUOUS
  62
1
  10
 1692.5968069653
  20
 2961.5851397056
  30
0.0
  40
 69.999997913838
   0
LEADER
   5
207
 100
AcDbEntity
   8
LEVEL001
 370
13
   6
CONTINUOUS
  62
1
 100
AcDbLeader
   3
GMM001
  73
3
  74
1
  75
0
  40
 66.000000000000
  41
0.0
  76
2
  10
 1447.3641513988
  20
 2820.0000000000
  30
0.0
  10
 1631.9750305072
  20
 2926.5851407486
  30
0.0
  77
1
   0
MTEXT
   5
209
 100
AcDbEntity
   8
LEVEL001
 370
13
  62
7
 100
AcDbMText
  10
 1692.5968069653
  20
 2961.5851397056
  30
0.0
  40
 66.000000000000
  41
0.0
  71
5
  72
1
   1
\T1.000000;１０
   7
GMM004
  44
 0.79999984000003
   0
LINE
   5
20A
 100
AcDbEntity
   8
LEVEL001
 370
13
 100
AcDbLine
   6
CONTINUOUS
  62
5
  10
 1004.2145609873
  20
 1767.5000000000
  30
0.0
  11
 1056.7145609873
  21
 1820.0000000000
  31
0.0
   0
LINE
   5
20B
 100
AcDbEntity
   8
LEVEL001
 370
13
 100
AcDbLine
   6
CONTINUOUS
  62
5
  10
 988.30465841041
  20
 1783.4099025768
  30
0.0
  11
 1024.8947558336
  21
 1820.0000000000
  31
0.0
   0
LINE
   5
20C
 100
AcDbEntity
   8
LEVEL001
 370
13
 100
AcDbLine
   6
CONTINUOUS
  62
5
  10
 1040.8046584112
  20
 1820.0000000000
  30
0.0
  11
 996.25960969923
  21
 1775.4549512880
  31
0.0
   0
LINE
   5
20D
 100
AcDbEntity
   8
LEVEL001
 370
13
 100
AcDbLine
   6
CONTINUOUS
  62
5
  10
 1061.4848532579
  20
 1767.5000000000
  30
0.0
  11
 1032.8497071226
  21
 1796.1351461353
  31
0.0
   0
LINE
   5
20E
 100
AcDbEntity
   8
LEVEL001
 370
13
 100
AcDbLine
   6
CONTINUOUS
  62
5
  10
 1040.8046584108
  20
 1804.0900974235
  30
0.0
  11
 1077.3947558343
  21
 1767.5000000000
  31
0.0
   0
LINE
   5
20F
 100
AcDbEntity
   8
LEVEL001
 370
13
 100
AcDbLine
   6
CONTINUOUS
  62
5
  10
 1093.3046584107
  20
 1767.5000000000
  30
0.0
  11
 1048.7596096990
  21
 1812.0450487117
  31
0.0
   0
LINE
   5
210
 100
AcDbEntity
   8
LEVEL001
 370
13
 100
AcDbLine
   6
CONTINUOUS
  62
5
  10
 1056.7145609873
  20
 1820.0000000000
  30
0.0
  11
 1109.2145609874
  21
 1767.5000000000
  31
0.0
   0
LINE
   5
211
 100
AcDbEntity
   8
LEVEL001
 370
13
 100
AcDbLine
   6
CONTINUOUS
  62
5
  10
 903.98485325740
  20
 1820.0000000000
  30
0.0
  11
 851.48485325740
  21
 1767.5000000000
  31
0.0
   0
LINE
   5
212
 100
AcDbEntity
   8
LEVEL001
 370
13
 100
AcDbLine
   6
CONTINUOUS
  62
5
  10
 867.39475583343
  20
 1767.5000000000
  30
0.0
  11
 919.89475583343
  21
 1820.0000000000
  31
0.0
   0
LINE
   5
213
 100
AcDbEntity
   8
LEVEL001
 370
13
 100
AcDbLine
   6
CONTINUOUS
  62
5
  10
 935.80465841104
  20
 1820.0000000000
  30
0.0
  11
 883.30465841104
  21
 1767.5000000000
  31
0.0
   0
LINE
   5
214
 100
AcDbEntity
   8
LEVEL001
 370
13
 100
AcDbLine
   6
CONTINUOUS
  62
5
  10
 899.21456098708
  20
 1767.5000000000
  30
0.0
  11
 951.71456098708
  21
 1820.0000000000
  31
0.0
   0
LINE
   5
215
 100
AcDbEntity
   8
LEVEL001
 370
13
 100
AcDbLine
   6
CONTINUOUS
  62
5
  10
 956.48485325767
  20
 1767.5000000000
  30
0.0
  11
 927.84970712237
  21
 1796.1351461353
  31
0.0
   0
LINE
   5
216
 100
AcDbEntity
   8
LEVEL001
 370
13
 100
AcDbLine
   6
CONTINUOUS
  62
5
  10
 935.80465841059
  20
 1804.0900974235
  30
0.0
  11
 972.39475583410
  21
 1767.5000000000
  31
0.0
   0
LINE
   5
217
 100
AcDbEntity
   8
LEVEL001
 370
13
 100
AcDbLine
   6
CONTINUOUS
  62
5
  10
 988.30465841053
  20
 1767.5000000000
  30
0.0
  11
 943.75960969880
  21
 1812.0450487117
  31
0.0
   0
LINE
   5
218
 100
AcDbEntity
   8
LEVEL001
 370
13
 100
AcDbLine
   6
CONTINUOUS
  62
5
  10
 951.71456098708
  20
 1820.0000000000
  30
0.0
  11
 1004.2145609873
  21
 1767.5000000000
  31
0.0
   0
LINE
   5
219
 100
AcDbEntity
   8
LEVEL001
 370
13
 100
AcDbLine
   6
CONTINUOUS
  62
5
  10
 1008.9848532576
  20
 1820.0000000000
  30
0.0
  11
 980.34970712238
  21
 1791.3648538648
  31
0.0
   0
MTEXT
   5
21B
 100
AcDbEntity
   8
LEVEL001
 370
13
  62
1
 100
AcDbMText
  10
 979.86323143189
  20
 1828.7299370403
  30
0.0
  40
 40.000000000000
  41
0.0
  71
7
  72
1
   1
\T1.000000;ＧＬ
   7
GMM005
  44
 0.79999984000003
   0
LWPOLYLINE
   5
21C
 100
AcDbEntity
   8
LEVEL001
 370
13
   6
CONTINUOUS
  62
1
 100
AcDbPolyline
  90
3
  70
1
  10
 951.71456098708
  20
 1820.0000000000
  10
 926.71456098708
  20
 1870.0000000000
  10
 976.71456098708
  20
 1870.0000000000
   0
LINE
   5
21D
 100
AcDbEntity
   8
LEVEL001
 370
13
 100
AcDbLine
   6
CONTINUOUS
  62
5
  10
 1761.7145609874
  20
 1820.0000000000
  30
0.0
  11
 1709.2145609874
  21
 1767.5000000000
  31
0.0
   0
LINE
   5
21E
 100
AcDbEntity
   8
LEVEL001
 370
13
 100
AcDbLine
   6
CONTINUOUS
  62
5
  10
 1725.1244635635
  20
 1767.5000000000
  30
0.0
  11
 1777.6244635635
  21
 1820.0000000000
  31
0.0
   0
LINE
   5
21F
 100
AcDbEntity
   8
LEVEL001
 370
13
 100
AcDbLine
   6
CONTINUOUS
  62
5
  10
 1793.5343661411
  20
 1820.0000000000
  30
0.0
  11
 1741.0343661411
  21
 1767.5000000000
  31
0.0
   0
LINE
   5
220
 100
AcDbEntity
   8
LEVEL001
 370
13
 100
AcDbLine
   6
CONTINUOUS
  62
5
  10
 1756.9442687171
  20
 1767.5000000000
  30
0.0
  11
 1809.4442687171
  21
 1820.0000000000
  31
0.0
   0
LINE
   5
221
 100
AcDbEntity
   8
LEVEL001
 370
13
 100
AcDbLine
   6
CONTINUOUS
  62
5
  10
 1814.2145609877
  20
 1767.5000000000
  30
0.0
  11
 1785.5794148524
  21
 1796.1351461353
  31
0.0
   0
LINE
   5
222
 100
AcDbEntity
   8
LEVEL001
 370
13
 100
AcDbLine
   6
CONTINUOUS
  62
5
  10
 1793.5343661406
  20
 1804.0900974235
  30
0.0
  11
 1830.1244635641
  21
 1767.5000000000
  31
0.0
   0
LINE
   5
223
 100
AcDbEntity
   8
LEVEL001
 370
13
 100
AcDbLine
   6
CONTINUOUS
  62
5
  10
 1846.0343661406
  20
 1767.5000000000
  30
0.0
  11
 1801.4893174289
  21
 1812.0450487117
  31
0.0
   0
LINE
   5
224
 100
AcDbEntity
   8
LEVEL001
 370
13
 100
AcDbLine
   6
CONTINUOUS
  62
5
  10
 1809.4442687171
  20
 1820.0000000000
  30
0.0
  11
 1861.9442687173
  21
 1767.5000000000
  31
0.0
   0
LINE
   5
225
 100
AcDbEntity
   8
LEVEL001
 370
13
 100
AcDbLine
   6
CONTINUOUS
  62
5
  10
 1861.9442687173
  20
 1767.5000000000
  30
0.0
  11
 1914.4442687173
  21
 1820.0000000000
  31
0.0
   0
LINE
   5
226
 100
AcDbEntity
   8
LEVEL001
 370
13
 100
AcDbLine
   6
CONTINUOUS
  62
5
  10
 1866.7145609876
  20
 1820.0000000000
  30
0.0
  11
 1838.0794148524
  21
 1791.3648538648
  31
0.0
   0
LINE
   5
227
 100
AcDbEntity
   8
LEVEL001
 370
13
 100
AcDbLine
   6
CONTINUOUS
  62
5
  10
 1846.0343661405
  20
 1783.4099025768
  30
0.0
  11
 1882.6244635637
  21
 1820.0000000000
  31
0.0
   0
LINE
   5
228
 100
AcDbEntity
   8
LEVEL001
 370
13
 100
AcDbLine
   6
CONTINUOUS
  62
5
  10
 1898.5343661413
  20
 1820.0000000000
  30
0.0
  11
 1853.9893174293
  21
 1775.4549512880
  31
0.0
   0
LINE
   5
229
 100
AcDbEntity
   8
LEVEL001
 370
13
 100
AcDbLine
   6
CONTINUOUS
  62
5
  10
 1919.2145609879
  20
 1767.5000000000
  30
0.0
  11
 1890.5794148526
  21
 1796.1351461353
  31
0.0
   0
LINE
   5
22A
 100
AcDbEntity
   8
LEVEL001
 370
13
 100
AcDbLine
   6
CONTINUOUS
  62
5
  10
 1898.5343661408
  20
 1804.0900974235
  30
0.0
  11
 1935.1244635643
  21
 1767.5000000000
  31
0.0
   0
LINE
   5
22B
 100
AcDbEntity
   8
LEVEL001
 370
13
 100
AcDbLine
   6
CONTINUOUS
  62
5
  10
 1951.0343661408
  20
 1767.5000000000
  30
0.0
  11
 1906.4893174290
  21
 1812.0450487117
  31
0.0
   0
LINE
   5
22C
 100
AcDbEntity
   8
LEVEL001
 370
13
 100
AcDbLine
   6
CONTINUOUS
  62
5
  10
 1914.4442687173
  20
 1820.0000000000
  30
0.0
  11
 1966.9442687175
  21
 1767.5000000000
  31
0.0
   0
LINE
   5
22D
 100
AcDbEntity
   8
LEVEL001
 370
13
 100
AcDbLine
   6
CONTINUOUS
  62
5
  10
 1659.2145609874
  20
 1820.0000000000
  30
0.0
  11
 1959.2146262224
  21
 1820.0000000000
  31
0.0
   0
LINE
   5
22E
 100
AcDbEntity
   8
LEVEL001
 370
13
 100
AcDbLine
   6
CONTINUOUS
  62
5
  10
 1159.2145609874
  20
 1820.0000000000
  30
0.0
  11
 859.21462622241
  21
 1820.0000000000
  31
0.0
   0
MTEXT
   5
230
 100
AcDbEntity
   8
LEVEL001
 370
13
  62
1
 100
AcDbMText
  10
 2179.8627566083
  20
 1828.7299370403
  30
0.0
  40
 40.000000000000
  41
0.0
  71
7
  72
1
   1
\T1.000000;ＧＬ
   7
GMM005
  44
 0.79999984000003
   0
LINE
   5
231
 100
AcDbEntity
   8
LEVEL001
 370
13
 100
AcDbLine
   6
CONTINUOUS
  62
5
  10
 2190.8042488222
  20
 1804.0900974235
  30
0.0
  11
 2227.3943462457
  21
 1767.5000000000
  31
0.0
   0
LINE
   5
232
 100
AcDbEntity
   8
LEVEL001
 370
13
 100
AcDbLine
   6
CONTINUOUS
  62
5
  10
 2243.3042488221
  20
 1767.5000000000
  30
0.0
  11
 2198.7592001104
  21
 1812.0450487117
  31
0.0
   0
LINE
   5
233
 100
AcDbEntity
   8
LEVEL001
 370
13
 100
AcDbLine
   6
CONTINUOUS
  62
5
  10
 2206.7141513987
  20
 1820.0000000000
  30
0.0
  11
 2259.2141513988
  21
 1767.5000000000
  31
0.0
   0
LWPOLYLINE
   5
234
 100
AcDbEntity
   8
LEVEL001
 370
13
   6
CONTINUOUS
  62
1
 100
AcDbPolyline
  90
3
  70
1
  10
 2151.7140861635
  20
 1820.0000000000
  10
 2126.7140861635
  20
 1870.0000000000
  10
 2176.7140861635
  20
 1870.0000000000
   0
LINE
   5
235
 100
AcDbEntity
   8
LEVEL001
 370
13
 100
AcDbLine
   6
CONTINUOUS
  62
5
  10
 2154.2141513987
  20
 1767.5000000000
  30
0.0
  11
 2206.7141513987
  21
 1820.0000000000
  31
0.0
   0
LINE
   5
236
 100
AcDbEntity
   8
LEVEL001
 370
13
 100
AcDbLine
   6
CONTINUOUS
  62
5
  10
 2138.3042488218
  20
 1783.4099025768
  30
0.0
  11
 2174.8943462450
  21
 1820.0000000000
  31
0.0
   0
LINE
   5
237
 100
AcDbEntity
   8
LEVEL001
 370
13
 100
AcDbLine
   6
CONTINUOUS
  62
5
  10
 2190.8042488226
  20
 1820.0000000000
  30
0.0
  11
 2146.2592001106
  21
 1775.4549512880
  31
0.0
   0
LINE
   5
238
 100
AcDbEntity
   8
LEVEL001
 370
13
 100
AcDbLine
   6
CONTINUOUS
  62
5
  10
 2211.4844436693
  20
 1767.5000000000
  30
0.0
  11
 2182.8492975340
  21
 1796.1351461353
  31
0.0
   0
LINE
   5
239
 100
AcDbEntity
   8
LEVEL001
 370
13
 100
AcDbLine
   6
CONTINUOUS
  62
5
  10
 2138.3042488219
  20
 1767.5000000000
  30
0.0
  11
 2093.7592001102
  21
 1812.0450487117
  31
0.0
   0
LINE
   5
23A
 100
AcDbEntity
   8
LEVEL001
 370
13
 100
AcDbLine
   6
CONTINUOUS
  62
5
  10
 2101.7141513985
  20
 1820.0000000000
  30
0.0
  11
 2154.2141513987
  21
 1767.5000000000
  31
0.0
   0
LINE
   5
23B
 100
AcDbEntity
   8
LEVEL001
 370
13
 100
AcDbLine
   6
CONTINUOUS
  62
5
  10
 2158.9844436690
  20
 1820.0000000000
  30
0.0
  11
 2130.3492975338
  21
 1791.3648538648
  31
0.0
   0
LINE
   5
23C
 100
AcDbEntity
   8
LEVEL001
 370
13
 100
AcDbLine
   6
CONTINUOUS
  62
5
  10
 2049.2141513985
  20
 1767.5000000000
  30
0.0
  11
 2101.7141513985
  21
 1820.0000000000
  31
0.0
   0
LINE
   5
23D
 100
AcDbEntity
   8
LEVEL001
 370
13
 100
AcDbLine
   6
CONTINUOUS
  62
5
  10
 2106.4844436691
  20
 1767.5000000000
  30
0.0
  11
 2077.8492975338
  21
 1796.1351461353
  31
0.0
   0
LINE
   5
23E
 100
AcDbEntity
   8
LEVEL001
 370
13
 100
AcDbLine
   6
CONTINUOUS
  62
5
  10
 2085.8042488220
  20
 1804.0900974235
  30
0.0
  11
 2122.3943462455
  21
 1767.5000000000
  31
0.0
   0
LINE
   5
23F
 100
AcDbEntity
   8
LEVEL001
 370
13
 100
AcDbLine
   6
CONTINUOUS
  62
5
  10
 2911.7141513988
  20
 1820.0000000000
  30
0.0
  11
 2859.2141513988
  21
 1767.5000000000
  31
0.0
   0
LINE
   5
240
 100
AcDbEntity
   8
LEVEL001
 370
13
 100
AcDbLine
   6
CONTINUOUS
  62
5
  10
 2875.1240539749
  20
 1767.5000000000
  30
0.0
  11
 2927.6240539749
  21
 1820.0000000000
  31
0.0
   0
LINE
   5
241
 100
AcDbEntity
   8
LEVEL001
 370
13
 100
AcDbLine
   6
CONTINUOUS
  62
5
  10
 2943.5339565525
  20
 1820.0000000000
  30
0.0
  11
 2891.0339565525
  21
 1767.5000000000
  31
0.0
   0
LINE
   5
242
 100
AcDbEntity
   8
LEVEL001
 370
13
 100
AcDbLine
   6
CONTINUOUS
  62
5
  10
 2906.9438591285
  20
 1767.5000000000
  30
0.0
  11
 2959.4438591285
  21
 1820.0000000000
  31
0.0
   0
LINE
   5
243
 100
AcDbEntity
   8
LEVEL001
 370
13
 100
AcDbLine
   6
CONTINUOUS
  62
5
  10
 2964.2141513991
  20
 1767.5000000000
  30
0.0
  11
 2935.5790052638
  21
 1796.1351461353
  31
0.0
   0
LINE
   5
244
 100
AcDbEntity
   8
LEVEL001
 370
13
 100
AcDbLine
   6
CONTINUOUS
  62
5
  10
 2943.5339565520
  20
 1804.0900974235
  30
0.0
  11
 2980.1240539756
  21
 1767.5000000000
  31
0.0
   0
LINE
   5
245
 100
AcDbEntity
   8
LEVEL001
 370
13
 100
AcDbLine
   6
CONTINUOUS
  62
5
  10
 2996.0339565520
  20
 1767.5000000000
  30
0.0
  11
 2951.4889078403
  21
 1812.0450487117
  31
0.0
   0
LINE
   5
246
 100
AcDbEntity
   8
LEVEL001
 370
13
 100
AcDbLine
   6
CONTINUOUS
  62
5
  10
 2959.4438591285
  20
 1820.0000000000
  30
0.0
  11
 3011.9438591287
  21
 1767.5000000000
  31
0.0
   0
LINE
   5
247
 100
AcDbEntity
   8
LEVEL001
 370
13
 100
AcDbLine
   6
CONTINUOUS
  62
5
  10
 3011.9438591287
  20
 1767.5000000000
  30
0.0
  11
 3064.4438591287
  21
 1820.0000000000
  31
0.0
   0
LINE
   5
248
 100
AcDbEntity
   8
LEVEL001
 370
13
 100
AcDbLine
   6
CONTINUOUS
  62
5
  10
 3016.7141513990
  20
 1820.0000000000
  30
0.0
  11
 2988.0790052638
  21
 1791.3648538648
  31
0.0
   0
LINE
   5
249
 100
AcDbEntity
   8
LEVEL001
 370
13
 100
AcDbLine
   6
CONTINUOUS
  62
5
  10
 2996.0339565519
  20
 1783.4099025768
  30
0.0
  11
 3032.6240539751
  21
 1820.0000000000
  31
0.0
   0
LINE
   5
24A
 100
AcDbEntity
   8
LEVEL001
 370
13
 100
AcDbLine
   6
CONTINUOUS
  62
5
  10
 3048.5339565527
  20
 1820.0000000000
  30
0.0
  11
 3003.9889078407
  21
 1775.4549512880
  31
0.0
   0
LINE
   5
24B
 100
AcDbEntity
   8
LEVEL001
 370
13
 100
AcDbLine
   6
CONTINUOUS
  62
5
  10
 3069.2141513993
  20
 1767.5000000000
  30
0.0
  11
 3040.5790052640
  21
 1796.1351461353
  31
0.0
   0
LINE
   5
24C
 100
AcDbEntity
   8
LEVEL001
 370
13
 100
AcDbLine
   6
CONTINUOUS
  62
5
  10
 3048.5339565522
  20
 1804.0900974235
  30
0.0
  11
 3085.1240539757
  21
 1767.5000000000
  31
0.0
   0
LINE
   5
24D
 100
AcDbEntity
   8
LEVEL001
 370
13
 100
AcDbLine
   6
CONTINUOUS
  62
5
  10
 3101.0339565522
  20
 1767.5000000000
  30
0.0
  11
 3056.4889078404
  21
 1812.0450487117
  31
0.0
   0
LINE
   5
24E
 100
AcDbEntity
   8
LEVEL001
 370
13
 100
AcDbLine
   6
CONTINUOUS
  62
5
  10
 3064.4438591287
  20
 1820.0000000000
  30
0.0
  11
 3116.9438591289
  21
 1767.5000000000
  31
0.0
   0
LINE
   5
24F
 100
AcDbEntity
   8
LEVEL001
 370
13
 100
AcDbLine
   6
CONTINUOUS
  62
5
  10
 2053.9844436688
  20
 1820.0000000000
  30
0.0
  11
 2001.4844436688
  21
 1767.5000000000
  31
0.0
   0
LINE
   5
250
 100
AcDbEntity
   8
LEVEL001
 370
13
 100
AcDbLine
   6
CONTINUOUS
  62
5
  10
 2017.3943462448
  20
 1767.5000000000
  30
0.0
  11
 2069.8943462448
  21
 1820.0000000000
  31
0.0
   0
LINE
   5
251
 100
AcDbEntity
   8
LEVEL001
 370
13
 100
AcDbLine
   6
CONTINUOUS
  62
5
  10
 2085.8042488224
  20
 1820.0000000000
  30
0.0
  11
 2033.3042488224
  21
 1767.5000000000
  31
0.0
   0
MTEXT
   5
252
 100
AcDbEntity
   8
LEVEL001
 370
13
  62
1
 100
AcDbMText
  10
 1358.0266513990
  20
 3873.2500000000
  30
0.0
  40
 80.000000000000
  41
0.0
  71
4
  72
1
   1
{\T1.000000;注}\P{\T1.000000;意}
   7
GMM006
  44
 0.79999984000003
   0
LWPOLYLINE
   5
253
 100
AcDbEntity
   8
LEVEL001
 370
13
   6
CONTINUOUS
  62
7
 100
AcDbPolyline
  90
4
  70
0
  10
 1371.0641513988
  20
 3720.0000000000
  10
 1371.0641513988
  20
 1120.0000000000
  10
 1447.3641513988
  20
 1120.0000000000
  10
 1447.3641513988
  20
 3720.0000000000
   0
LWPOLYLINE
   5
254
 100
AcDbEntity
   8
LEVEL001
 370
13
   6
CONTINUOUS
  62
5
 100
AcDbPolyline
  90
6
  70
0
  10
 1371.0645609874
  20
 1820.0000000000
  10
 1159.2145609874
  20
 1820.0000000000
  10
 1159.2145609874
  20
 1120.0000000000
  10
 1659.2145609874
  20
 1120.0000000000
  10
 1659.2145609874
  20
 1820.0000000000
  10
 1447.3645609874
  20
 1820.0000000000
   0
LINE
   5
255
 100
AcDbEntity
   8
LEVEL001
 370
13
 100
AcDbLine
   6
DASHDOT
  62
6
  10
 1349.2145429018
  20
 1420.0000000000
  30
0.0
  11
 1469.2145429018
  21
 1420.0000000000
  31
0.0
   0
CIRCLE
   5
256
 100
AcDbEntity
   8
LEVEL001
 370
13
 100
AcDbCircle
   6
CONTINUOUS
  62
7
  10
 1409.2145271854
  20
 1320.0000000000
  30
0.0
  40
 7.5000000000000
   0
LINE
   5
257
 100
AcDbEntity
   8
LEVEL001
 370
13
 100
AcDbLine
   6
DASHDOT
  62
6
  10
 1379.2145271854
  20
 1320.0000000000
  30
0.0
  11
 1439.2145271854
  21
 1320.0000000000
  31
0.0
   0
LINE
   5
258
 100
AcDbEntity
   8
LEVEL001
 370
13
 100
AcDbLine
   6
CONTINUOUS
  62
5
  10
 1309.2145609874
  20
 1120.0000000000
  30
0.0
  11
 1259.2145609874
  21
 1020.0000000000
  31
0.0
   0
LINE
   5
259
 100
AcDbEntity
   8
LEVEL001
 370
13
 100
AcDbLine
   6
CONTINUOUS
  62
5
  10
 1259.2145609874
  20
 1120.0000000000
  30
0.0
  11
 1299.2145609874
  21
 1100.0000000000
  31
0.0
   0
LINE
   5
25A
 100
AcDbEntity
   8
LEVEL001
 370
13
 100
AcDbLine
   6
CONTINUOUS
  62
5
  10
 1259.2145609874
  20
 1120.0000000000
  30
0.0
  11
 1209.2145609874
  21
 1020.0000000000
  31
0.0
   0
LINE
   5
25B
 100
AcDbEntity
   8
LEVEL001
 370
13
 100
AcDbLine
   6
CONTINUOUS
  62
5
  10
 1209.2145609874
  20
 1120.0000000000
  30
0.0
  11
 1249.2145609874
  21
 1100.0000000000
  31
0.0
   0
LINE
   5
25C
 100
AcDbEntity
   8
LEVEL001
 370
13
 100
AcDbLine
   6
CONTINUOUS
  62
5
  10
 1209.2145609874
  20
 1120.0000000000
  30
0.0
  11
 1159.2145609874
  21
 1020.0000000000
  31
0.0
   0
LINE
   5
25D
 100
AcDbEntity
   8
LEVEL001
 370
13
 100
AcDbLine
   6
CONTINUOUS
  62
5
  10
 1159.2145609874
  20
 1120.0000000000
  30
0.0
  11
 1199.2145609874
  21
 1100.0000000000
  31
0.0
   0
LINE
   5
25E
 100
AcDbEntity
   8
LEVEL001
 370
13
 100
AcDbLine
   6
CONTINUOUS
  62
5
  10
 1309.2145609874
  20
 1020.0000000000
  30
0.0
  11
 1269.2145609874
  21
 1040.0000000000
  31
0.0
   0
LINE
   5
25F
 100
AcDbEntity
   8
LEVEL001
 370
13
 100
AcDbLine
   6
CONTINUOUS
  62
5
  10
 1259.2145609874
  20
 1020.0000000000
  30
0.0
  11
 1219.2145609874
  21
 1040.0000000000
  31
0.0
   0
LINE
   5
260
 100
AcDbEntity
   8
LEVEL001
 370
13
 100
AcDbLine
   6
CONTINUOUS
  62
5
  10
 1209.2145609874
  20
 1020.0000000000
  30
0.0
  11
 1169.2145609874
  21
 1040.0000000000
  31
0.0
   0
LINE
   5
261
 100
AcDbEntity
   8
LEVEL001
 370
13
 100
AcDbLine
   6
CONTINUOUS
  62
5
  10
 1659.2145609874
  20
 1120.0000000000
  30
0.0
  11
 1609.2145609874
  21
 1020.0000000000
  31
0.0
   0
LINE
   5
262
 100
AcDbEntity
   8
LEVEL001
 370
13
 100
AcDbLine
   6
CONTINUOUS
  62
5
  10
 1609.2145609874
  20
 1120.0000000000
  30
0.0
  11
 1649.2145609874
  21
 1100.0000000000
  31
0.0
   0
LINE
   5
263
 100
AcDbEntity
   8
LEVEL001
 370
13
 100
AcDbLine
   6
CONTINUOUS
  62
5
  10
 1609.2145609874
  20
 1120.0000000000
  30
0.0
  11
 1559.2145609874
  21
 1020.0000000000
  31
0.0
   0
LINE
   5
264
 100
AcDbEntity
   8
LEVEL001
 370
13
 100
AcDbLine
   6
CONTINUOUS
  62
5
  10
 1559.2145609874
  20
 1120.0000000000
  30
0.0
  11
 1599.2145609874
  21
 1100.0000000000
  31
0.0
   0
LINE
   5
265
 100
AcDbEntity
   8
LEVEL001
 370
13
 100
AcDbLine
   6
CONTINUOUS
  62
5
  10
 1559.2145609874
  20
 1120.0000000000
  30
0.0
  11
 1509.2145609874
  21
 1020.0000000000
  31
0.0
   0
LINE
   5
266
 100
AcDbEntity
   8
LEVEL001
 370
13
 100
AcDbLine
   6
CONTINUOUS
  62
5
  10
 1509.2145609874
  20
 1120.0000000000
  30
0.0
  11
 1549.2145609874
  21
 1100.0000000000
  31
0.0
   0
LINE
   5
267
 100
AcDbEntity
   8
LEVEL001
 370
13
 100
AcDbLine
   6
CONTINUOUS
  62
5
  10
 1659.2145609874
  20
 1020.0000000000
  30
0.0
  11
 1619.2145609874
  21
 1040.0000000000
  31
0.0
   0
LINE
   5
268
 100
AcDbEntity
   8
LEVEL001
 370
13
 100
AcDbLine
   6
CONTINUOUS
  62
5
  10
 1609.2145609874
  20
 1020.0000000000
  30
0.0
  11
 1569.2145609874
  21
 1040.0000000000
  31
0.0
   0
LINE
   5
269
 100
AcDbEntity
   8
LEVEL001
 370
13
 100
AcDbLine
   6
CONTINUOUS
  62
5
  10
 1559.2145609875
  20
 1020.0000000000
  30
0.0
  11
 1519.2145609874
  21
 1040.0000000000
  31
0.0
   0
LWPOLYLINE
   5
26A
 100
AcDbEntity
   8
LEVEL001
 370
13
   6
CONTINUOUS
  62
5
 100
AcDbPolyline
  90
4
  70
1
  10
 1159.2145609874
  20
 1120.0000000000
  10
 1159.2145609874
  20
 1020.0000000000
  10
 1659.2145609874
  20
 1020.0000000000
  10
 1659.2145609874
  20
 1120.0000000000
   0
DIMENSION
   5
26B
 100
AcDbEntity
   8
LEVEL001
 370
13
   6
CONTINUOUS
  62
6
 100
AcDbDimension
   2
*D19
  10
 1659.2145609874
  20
 720.00000000000
  30
0.0
  11
 1409.2145609874
  21
 720.00000000000
  31
0.0
  70
0
   3
GMM007
 100
AcDbAlignedDimension
  13
 1159.2145609874
  23
 1020.0000000000
  33
0.0
  14
 1659.2145609874
  24
 1020.0000000000
  34
0.0
 100
AcDbRotatedDimension
   0
LINE
   5
26C
 100
AcDbEntity
   8
LEVEL001
 370
13
 100
AcDbLine
   6
CONTINUOUS
  62
5
  10
 1659.2145609874
  20
 1705.3557486480
  30
0.0
  11
 1447.3641513989
  21
 1493.5053390594
  31
0.0
   0
LINE
   5
26D
 100
AcDbEntity
   8
LEVEL001
 370
13
 100
AcDbLine
   6
CONTINUOUS
  62
5
  10
 1159.2145609874
  20
 1170.0004095887
  30
0.0
  11
 1371.0641513988
  21
 1381.8500000001
  31
0.0
   0
LINE
   5
26E
 100
AcDbEntity
   8
LEVEL001
 370
13
 100
AcDbLine
   6
CONTINUOUS
  62
5
  10
 1447.3641513988
  20
 1458.1500000001
  30
0.0
  11
 1659.2145609874
  21
 1670.0004095887
  31
0.0
   0
LINE
   5
26F
 100
AcDbEntity
   8
LEVEL001
 370
13
 100
AcDbLine
   6
CONTINUOUS
  62
5
  10
 1371.0641513988
  20
 1346.4946609408
  30
0.0
  11
 1159.2145609874
  21
 1134.6450705294
  31
0.0
   0
LINE
   5
270
 100
AcDbEntity
   8
LEVEL001
 370
13
 100
AcDbLine
   6
CONTINUOUS
  62
5
  10
 1659.2145609874
  20
 1634.6450705294
  30
0.0
  11
 1452.0694904581
  21
 1427.5000000000
  31
0.0
   0
LWPOLYLINE
   5
271
 100
AcDbEntity
   8
LEVEL001
 370
13
   6
CONTINUOUS
  62
7
 100
AcDbPolyline
  90
4
  70
0
  10
 2521.0641513988
  20
 1327.5000000000
  10
 2449.2141333132
  20
 1327.5000000000
  10
 2449.2141333132
  20
 1312.5000000000
  10
 2521.0641513988
  20
 1312.5000000000
   0
LEADER
   5
272
 100
AcDbEntity
   8
LEVEL001
 370
13
   6
CONTINUOUS
  62
1
 100
AcDbLeader
   3
GMM008
  73
3
  74
1
  75
0
  40
 66.000000000000
  41
0.0
  76
2
  10
 2449.2141333132
  20
 1312.5000000000
  30
0.0
  10
 2181.1064250395
  20
 1157.7079424562
  30
0.0
  77
1
   0
LWPOLYLINE
   5
273
 100
AcDbEntity
   8
LEVEL001
 370
13
   6
CONTINUOUS
  62
7
 100
AcDbPolyline
  90
4
  70
0
  10
 2597.3641513989
  20
 1327.5000000000
  10
 2669.2141333132
  20
 1327.5000000000
  10
 2669.2141333132
  20
 1312.5000000000
  10
 2597.3641513989
  20
 1312.5000000000
   0
LINE
   5
274
 100
AcDbEntity
   8
LEVEL001
 370
13
 100
AcDbLine
   6
CONTINUOUS
  62
5
  10
 2459.2141513988
  20
 1120.0000000000
  30
0.0
  11
 2409.2141513988
  21
 1020.0000000000
  31
0.0
   0
LINE
   5
275
 100
AcDbEntity
   8
LEVEL001
 370
13
 100
AcDbLine
   6
CONTINUOUS
  62
5
  10
 2409.2141513988
  20
 1120.0000000000
  30
0.0
  11
 2449.2141513988
  21
 1100.0000000000
  31
0.0
   0
LINE
   5
276
 100
AcDbEntity
   8
LEVEL001
 370
13
 100
AcDbLine
   6
CONTINUOUS
  62
5
  10
 2409.2141513988
  20
 1120.0000000000
  30
0.0
  11
 2359.2141513988
  21
 1020.0000000000
  31
0.0
   0
LINE
   5
277
 100
AcDbEntity
   8
LEVEL001
 370
13
 100
AcDbLine
   6
CONTINUOUS
  62
5
  10
 2359.2141513988
  20
 1120.0000000000
  30
0.0
  11
 2399.2141513988
  21
 1100.0000000000
  31
0.0
   0
LINE
   5
278
 100
AcDbEntity
   8
LEVEL001
 370
13
 100
AcDbLine
   6
CONTINUOUS
  62
5
  10
 2359.2141513988
  20
 1120.0000000000
  30
0.0
  11
 2309.2141513988
  21
 1020.0000000000
  31
0.0
   0
LINE
   5
279
 100
AcDbEntity
   8
LEVEL001
 370
13
 100
AcDbLine
   6
CONTINUOUS
  62
5
  10
 2309.2141513988
  20
 1120.0000000000
  30
0.0
  11
 2349.2141513988
  21
 1100.0000000000
  31
0.0
   0
LINE
   5
27A
 100
AcDbEntity
   8
LEVEL001
 370
13
 100
AcDbLine
   6
CONTINUOUS
  62
5
  10
 2459.2141513988
  20
 1020.0000000000
  30
0.0
  11
 2419.2141513988
  21
 1040.0000000000
  31
0.0
   0
LINE
   5
27B
 100
AcDbEntity
   8
LEVEL001
 370
13
 100
AcDbLine
   6
CONTINUOUS
  62
5
  10
 2409.2141513988
  20
 1020.0000000000
  30
0.0
  11
 2369.2141513988
  21
 1040.0000000000
  31
0.0
   0
LINE
   5
27C
 100
AcDbEntity
   8
LEVEL001
 370
13
 100
AcDbLine
   6
CONTINUOUS
  62
5
  10
 2359.2141513989
  20
 1020.0000000000
  30
0.0
  11
 2319.2141513988
  21
 1040.0000000000
  31
0.0
   0
LWPOLYLINE
   5
27D
 100
AcDbEntity
   8
LEVEL001
 370
13
   6
CONTINUOUS
  62
5
 100
AcDbPolyline
  90
4
  70
1
  10
 2309.2141513988
  20
 1120.0000000000
  10
 2309.2141513988
  20
 1020.0000000000
  10
 2809.2141513988
  20
 1020.0000000000
  10
 2809.2141513988
  20
 1120.0000000000
   0
CIRCLE
   5
27E
 100
AcDbEntity
   8
LEVEL001
 370
13
 100
AcDbCircle
   6
CONTINUOUS
  62
1
  10
 2118.2314826995
  20
 1124.2283071262
  30
0.0
  40
 69.999997913838
   0
LINE
   5
27F
 100
AcDbEntity
   8
LEVEL001
 370
13
 100
AcDbLine
   6
CONTINUOUS
  62
5
  10
 2809.2141513988
  20
 1120.0000000000
  30
0.0
  11
 2759.2141513988
  21
 1020.0000000000
  31
0.0
   0
LINE
   5
280
 100
AcDbEntity
   8
LEVEL001
 370
13
 100
AcDbLine
   6
CONTINUOUS
  62
5
  10
 2759.2141513988
  20
 1120.0000000000
  30
0.0
  11
 2799.2141513988
  21
 1100.0000000000
  31
0.0
   0
LINE
   5
281
 100
AcDbEntity
   8
LEVEL001
 370
13
 100
AcDbLine
   6
CONTINUOUS
  62
5
  10
 2759.2141513988
  20
 1120.0000000000
  30
0.0
  11
 2709.2141513988
  21
 1020.0000000000
  31
0.0
   0
LINE
   5
282
 100
AcDbEntity
   8
LEVEL001
 370
13
 100
AcDbLine
   6
CONTINUOUS
  62
5
  10
 2709.2141513988
  20
 1120.0000000000
  30
0.0
  11
 2749.2141513988
  21
 1100.0000000000
  31
0.0
   0
LINE
   5
283
 100
AcDbEntity
   8
LEVEL001
 370
13
 100
AcDbLine
   6
CONTINUOUS
  62
5
  10
 2709.2141513988
  20
 1120.0000000000
  30
0.0
  11
 2659.2141513988
  21
 1020.0000000000
  31
0.0
   0
LINE
   5
284
 100
AcDbEntity
   8
LEVEL001
 370
13
 100
AcDbLine
   6
CONTINUOUS
  62
5
  10
 2659.2141513988
  20
 1120.0000000000
  30
0.0
  11
 2699.2141513988
  21
 1100.0000000000
  31
0.0
   0
LINE
   5
285
 100
AcDbEntity
   8
LEVEL001
 370
13
 100
AcDbLine
   6
CONTINUOUS
  62
5
  10
 2809.2141513988
  20
 1020.0000000000
  30
0.0
  11
 2769.2141513988
  21
 1040.0000000000
  31
0.0
   0
LINE
   5
286
 100
AcDbEntity
   8
LEVEL001
 370
13
 100
AcDbLine
   6
CONTINUOUS
  62
5
  10
 2759.2141513988
  20
 1020.0000000000
  30
0.0
  11
 2719.2141513988
  21
 1040.0000000000
  31
0.0
   0
LINE
   5
287
 100
AcDbEntity
   8
LEVEL001
 370
13
 100
AcDbLine
   6
CONTINUOUS
  62
5
  10
 2709.2141513989
  20
 1020.0000000000
  30
0.0
  11
 2669.2141513988
  21
 1040.0000000000
  31
0.0
   0
MTEXT
   5
289
 100
AcDbEntity
   8
LEVEL001
 370
13
  62
7
 100
AcDbMText
  10
 2118.2314826995
  20
 1124.2283071262
  30
0.0
  40
 66.000000000000
  41
0.0
  71
5
  72
1
   1
\T1.000000;１１
   7
GMM004
  44
 0.79999984000003
   0
LINE
   5
28A
 100
AcDbEntity
   8
LEVEL001
 370
13
 100
AcDbLine
   6
CONTINUOUS
  62
5
  10
 2809.2145609874
  20
 1705.3557486480
  30
0.0
  11
 2597.3641513989
  21
 1493.5053390594
  31
0.0
   0
LINE
   5
28B
 100
AcDbEntity
   8
LEVEL001
 370
13
 100
AcDbLine
   6
CONTINUOUS
  62
5
  10
 2521.0641513988
  20
 1417.2053390594
  30
0.0
  11
 2309.2145609874
  21
 1205.3557486480
  31
0.0
   0
LINE
   5
28C
 100
AcDbEntity
   8
LEVEL001
 370
13
 100
AcDbLine
   6
CONTINUOUS
  62
5
  10
 2597.3641513989
  20
 1458.1500000001
  30
0.0
  11
 2809.2145609874
  21
 1670.0004095887
  31
0.0
   0
LINE
   5
28D
 100
AcDbEntity
   8
LEVEL001
 370
13
 100
AcDbLine
   6
CONTINUOUS
  62
5
  10
 2809.2145609874
  20
 1634.6450705294
  30
0.0
  11
 2597.3641513989
  21
 1422.7946609408
  31
0.0
   0
LINE
   5
28E
 100
AcDbEntity
   8
LEVEL001
 370
13
 100
AcDbLine
   6
CONTINUOUS
  62
5
  10
 2521.0641513988
  20
 1346.4946609408
  30
0.0
  11
 2502.0694904581
  21
 1327.5000000000
  31
0.0
   0
LINE
   5
28F
 100
AcDbEntity
   8
LEVEL001
 370
13
 100
AcDbLine
   6
CONTINUOUS
  62
5
  10
 2487.0694904581
  20
 1312.5000000000
  30
0.0
  11
 2309.2145609874
  21
 1134.6450705294
  31
0.0
   0
LINE
   5
290
 100
AcDbEntity
   8
LEVEL001
 370
13
 100
AcDbLine
   6
CONTINUOUS
  62
5
  10
 2309.2145609874
  20
 1170.0004095887
  30
0.0
  11
 2451.7141513988
  21
 1312.5000000000
  31
0.0
   0
LINE
   5
291
 100
AcDbEntity
   8
LEVEL001
 370
13
 100
AcDbLine
   6
CONTINUOUS
  62
5
  10
 2466.7141513988
  20
 1327.5000000000
  30
0.0
  11
 2521.0641513988
  21
 1381.8500000001
  31
0.0
   0
DIMENSION
   5
292
 100
AcDbEntity
   8
LEVEL001
 370
13
   6
CONTINUOUS
  62
6
 100
AcDbDimension
   2
*D21
  10
 2809.2145609874
  20
 720.00000000000
  30
0.0
  11
 2559.2145609874
  21
 720.00000000000
  31
0.0
  70
0
   3
GMM009
 100
AcDbAlignedDimension
  13
 2309.2145609874
  23
 1020.0000000000
  33
0.0
  14
 2809.2145609874
  24
 1020.0000000000
  34
0.0
 100
AcDbRotatedDimension
   0
CIRCLE
   5
293
 100
AcDbEntity
   8
LEVEL001
 370
13
 100
AcDbCircle
   6
CONTINUOUS
  62
7
  10
 2559.2141513988
  20
 1420.0000000000
  30
0.0
  40
 7.5000000000000
   0
LINE
   5
294
 100
AcDbEntity
   8
LEVEL001
 370
13
 100
AcDbLine
   6
DASHDOT
  62
6
  10
 2529.2141513988
  20
 1420.0000000000
  30
0.0
  11
 2589.2141513988
  21
 1420.0000000000
  31
0.0
   0
LINE
   5
295
 100
AcDbEntity
   8
LEVEL001
 370
13
 100
AcDbLine
   6
DASHDOT
  62
6
  10
 2499.2141513988
  20
 1320.0000000000
  30
0.0
  11
 2619.2141513988
  21
 1320.0000000000
  31
0.0
   0
ARC
   5
296
 100
AcDbEntity
   8
LEVEL001
 370
13
   6
CONTINUOUS
  62
7
 100
AcDbCircle
  10
 2571.0641513988
  20
 2186.0218857104
  30
0.0
  40
 300.00000000000
 100
AcDbArc
  50
 322.12501634890
  51
 360.00000000000
   0
ARC
   5
297
 100
AcDbEntity
   8
LEVEL001
 370
13
   6
CONTINUOUS
  62
7
 100
AcDbCircle
  10
 2897.3641513989
  20
 1503.9781142896
  30
0.0
  40
 300.00000000000
 100
AcDbArc
  50
 142.12501634890
  51
 180.00000000000
   0
ARC
   5
298
 100
AcDbEntity
   8
LEVEL001
 370
13
   6
DASHDOT
  62
6
 100
AcDbCircle
  10
 2571.0641513988
  20
 2186.0218857104
  30
0.0
  40
 338.15000000000
 100
AcDbArc
  50
 322.12501634890
  51
0.0
   0
LINE
   5
299
 100
AcDbEntity
   8
LEVEL001
 370
13
 100
AcDbLine
   6
DASHDOT
  62
6
  10
 2630.4446990930
  20
 1711.5821327497
  30
0.0
  11
 2837.9836037047
  21
 1978.4178672503
  31
0.0
   0
ARC
   5
29A
 100
AcDbEntity
   8
LEVEL001
 370
13
   6
DASHDOT
  62
6
 100
AcDbCircle
  10
 2897.3641513989
  20
 1503.9781142896
  30
0.0
  40
 338.15000000000
 100
AcDbArc
  50
 142.12501634890
  51
 180.00000000000
   0
ARC
   5
29B
 100
AcDbEntity
   8
LEVEL001
 370
13
   6
CONTINUOUS
  62
7
 100
AcDbCircle
  10
 2897.3641513989
  20
 1503.9781142896
  30
0.0
  40
 376.30000000000
 100
AcDbArc
  50
 142.12501634890
  51
 180.00000000000
   0
LINE
   5
29C
 100
AcDbEntity
   8
LEVEL001
 370
13
 100
AcDbLine
   6
CONTINUOUS
  62
7
  10
 2807.8698166117
  20
 2001.8397016559
  30
0.0
  11
 2600.3309120001
  21
 1735.0039671553
  31
0.0
   0
LINE
   5
29D
 100
AcDbEntity
   8
LEVEL001
 370
13
 100
AcDbLine
   6
CONTINUOUS
  62
7
  10
 2660.5584861860
  20
 1688.1602983440
  30
0.0
  11
 2868.0973907976
  21
 1954.9960328447
  31
0.0
   0
ARC
   5
29E
 100
AcDbEntity
   8
LEVEL001
 370
13
   6
CONTINUOUS
  62
7
 100
AcDbCircle
  10
 2571.0641513988
  20
 2186.0218857104
  30
0.0
  40
 376.30000000000
 100
AcDbArc
  50
 322.12501634890
  51
 360.00000000000
   0
LWPOLYLINE
   5
29F
 100
AcDbEntity
   8
LEVEL001
 370
13
   6
CONTINUOUS
  62
7
 100
AcDbPolyline
  90
4
  70
0
  10
 2521.0641513988
  20
 1503.9781142896
  10
 2521.0641513988
  20
 1120.0000000000
  10
 2597.3641513989
  20
 1120.0000000000
  10
 2597.3641513989
  20
 1503.9781142896
   0
DIMENSION
   5
2A0
 100
AcDbEntity
   8
LEVEL001
 370
13
   6
CONTINUOUS
  62
6
 100
AcDbDimension
   2
*D22
  10
 2559.2141513988
  20
 2720.0000000000
  30
0.0
  11
 2734.2141513988
  21
 2720.0000000000
  31
0.0
  70
0
   3
GMM010
 100
AcDbAlignedDimension
  13
 2909.2141513988
  23
 2720.0000000000
  33
0.0
  14
 2559.2141513988
  24
 1503.9781142896
  34
0.0
  50
 180.00000000000
 100
AcDbRotatedDimension
   0
LINE
   5
2A1
 100
AcDbEntity
   8
LEVEL001
 370
13
 100
AcDbLine
   6
CONTINUOUS
  62
7
  10
 2871.0641513988
  20
 2186.0218857104
  30
0.0
  11
 2871.0641513988
  21
 3901.5000000008
  31
0.0
   0
LINE
   5
2A2
 100
AcDbEntity
   8
LEVEL001
 370
13
 100
AcDbLine
   6
CONTINUOUS
  62
7
  10
 2947.3641513989
  20
 3901.5000000008
  30
0.0
  11
 2947.3641513989
  21
 2186.0218857104
  31
0.0
   0
LINE
   5
2A3
 100
AcDbEntity
   8
LEVEL001
 370
13
 100
AcDbLine
   6
CONTINUOUS
  62
5
  10
 1371.0641513988
  20
 1417.2053390594
  30
0.0
  11
 1159.2145609874
  21
 1205.3557486480
  31
0.0
   0
LWPOLYLINE
   5
2A4
 100
AcDbEntity
   8
LEVEL001
 370
13
   6
CONTINUOUS
  62
5
 100
AcDbPolyline
  90
4
  70
0
  10
 2309.2141513988
  20
 1820.0000000000
  10
 2309.2141513988
  20
 1120.0000000000
  10
 2809.2141513988
  20
 1120.0000000000
  10
 2809.2141513988
  20
 1820.0000000000
   0
LINE
   5
2A5
 100
AcDbEntity
   8
LEVEL001
 370
13
 100
AcDbLine
   6
DASHDOT
  62
6
  10
 2559.2141513988
  20
 1503.9781142896
  30
0.0
  11
 2559.2141513988
  21
 1020.0000000000
  31
0.0
   0
LINE
   5
2A6
 100
AcDbEntity
   8
LEVEL001
 370
13
 100
AcDbLine
   6
CONTINUOUS
  62
5
  10
 2666.4389375460
  20
 1820.0000000000
  30
0.0
  11
 2009.2142166338
  21
 1820.0000000000
  31
0.0
   0
LINE
   5
2A7
 100
AcDbEntity
   8
LEVEL001
 370
13
 100
AcDbLine
   6
CONTINUOUS
  62
5
  10
 2763.1004763628
  20
 1820.0000000000
  30
0.0
  11
 3109.2142166338
  21
 1820.0000000000
  31
0.0
   0
LWPOLYLINE
   5
2A8
 100
AcDbEntity
   8
LEVEL001
 370
13
   6
CONTINUOUS
  62
1
 100
AcDbPolyline
  90
4
  70
1
  10
 2947.3641513989
  20
 4724.0000000000
  10
 2871.0641513988
  20
 4724.0000000000
  10
 2871.0641513988
  20
 4721.0000000000
  10
 2947.3641513989
  20
 4721.0000000000
   0
LINE
   5
2A9
 100
AcDbEntity
   8
LEVEL001
 370
13
 100
AcDbLine
   6
DOT
  62
1
  10
 2597.3641513989
  20
 1312.5000000000
  30
0.0
  11
 2521.0641513988
  21
 1312.5000000000
  31
0.0
   0
LINE
   5
2AA
 100
AcDbEntity
   8
LEVEL001
 370
13
 100
AcDbLine
   6
DOT
  62
1
  10
 2521.0641513988
  20
 1327.5000000000
  30
0.0
  11
 2597.3641513989
  21
 1327.5000000000
  31
0.0
   0
LWPOLYLINE
   5
2AB
 100
AcDbEntity
   8
LEVEL001
 370
13
   6
DOT
  62
6
 100
AcDbPolyline
  90
4
  70
0
  10
 2942.3641513989
  20
 4721.0000000000
  10
 2942.3641513989
  20
 4694.0000000000
  10
 2876.0641513988
  20
 4694.0000000000
  10
 2876.0641513988
  20
 4721.0000000000
   0
LWPOLYLINE
   5
2AC
 100
AcDbEntity
   8
LEVEL001
 370
13
   6
CONTINUOUS
  62
7
 100
AcDbPolyline
  90
4
  70
1
  10
 349.21415139885
  20
 170.00000000000
  10
 349.21415139885
  20
 5770.0000000000
  10
 8135.8810215160
  20
 5770.0000000000
  10
 8135.8810215160
  20
 170.00000000000
   0
MTEXT
   5
2AD
 100
AcDbEntity
   8
LEVEL001
 370
13
  62
1
 100
AcDbMText
  10
 5643.0496492343
  20
 813.78497023809
  30
0.0
  40
 37.142857142857
  41
0.0
  71
7
  72
1
   1
\T1.269231;工事名称
   7
GMM007
  44
 0.79999984000003
   0
LINE
   5
2AE
 100
AcDbEntity
   8
LEVEL001
 370
13
 100
AcDbLine
   6
CONTINUOUS
  62
1
  10
 5620.1232423079
  20
 650.00000000000
  30
0.0
  11
 7260.1232423079
  21
 650.00000000000
  31
0.0
   0
ARC
   5
2AF
 100
AcDbEntity
   8
LEVEL001
 370
13
   6
DOT
  62
2
 100
AcDbCircle
  10
 5697.2133033768
  20
 4570.0000000000
  30
0.0
  40
 2990.0000000000
 100
AcDbArc
  50
 175.20378350439
  51
 177.50809363102
   0
LINE
   5
2B0
 100
AcDbEntity
   8
LEVEL001
 370
13
 100
AcDbLine
   6
DOT
  62
2
  10
 2737.2133033768
  20
 4820.0000000000
  30
0.0
  11
 2707.6481176014
  21
 4820.0000000000
  31
0.0
   0
ARC
   5
2B1
 100
AcDbEntity
   8
LEVEL001
 370
13
   6
DOT
  62
2
 100
AcDbCircle
  10
 5697.2133033768
  20
 4570.0000000000
  30
0.0
  40
 3000.0000000000
 100
AcDbArc
  50
 175.21980815280
  51
 177.01584489699
   0
MTEXT
   5
2B3
 100
AcDbEntity
   8
LEVEL001
 370
13
  62
1
 100
AcDbMText
  10
 6440.1232423079
  20
 710.66683939118
  30
0.0
  40
 66.000000000000
  41
0.0
  71
5
  72
1
   1
\T1.000000;ＭＡ５０６ＳＣＰ
   7
GMM004
  44
 0.79999984000003
   0
MTEXT
   5
2B5
 100
AcDbEntity
   8
LEVEL001
 370
13
  62
1
 100
AcDbMText
  10
 6841.1022160620
  20
 1023.5736076959
  30
0.0
  40
 80.000000000000
  41
0.0
  71
9
  72
1
   1
\T1.000000;１式
   7
GMM002
  44
 0.79999984000003
   0
MTEXT
   5
2B7
 100
AcDbEntity
   8
LEVEL001
 370
13
  62
1
 100
AcDbMText
  10
 6841.1022160620
  20
 893.57360769589
  30
0.0
  40
 80.000000000000
  41
0.0
  71
9
  72
1
   1
\T1.000000;１式
   7
GMM002
  44
 0.79999984000003
   0
MTEXT
   5
2B9
 100
AcDbEntity
   8
LEVEL001
 370
13
  62
1
 100
AcDbMText
  10
 6920.1232423079
  20
 1153.5736076959
  30
0.0
  40
 80.000000000000
  41
0.0
  71
7
  72
1
   1
\T1.000000;―
   7
GMM002
  44
 0.79999984000003
   0
MTEXT
   5
2BB
 100
AcDbEntity
   8
LEVEL001
 370
13
  62
1
 100
AcDbMText
  10
 6920.1232423079
  20
 1023.5736076959
  30
0.0
  40
 80.000000000000
  41
0.0
  71
7
  72
1
   1
\T1.000000;―
   7
GMM002
  44
 0.79999984000003
   0
MTEXT
   5
2BD
 100
AcDbEntity
   8
LEVEL001
 370
13
  62
1
 100
AcDbMText
  10
 6920.1232423079
  20
 893.57360769589
  30
0.0
  40
 80.000000000000
  41
0.0
  71
7
  72
1
   1
\T1.000000;―
   7
GMM002
  44
 0.79999984000003
   0
MTEXT
   5
2BF
 100
AcDbEntity
   8
LEVEL001
 370
13
  62
1
 100
AcDbMText
  10
 7412.2443527039
  20
 893.57360769589
  30
0.0
  40
 80.000000000000
  41
0.0
  71
7
  72
1
   1
\T1.000000;―
   7
GMM002
  44
 0.79999984000003
   0
MTEXT
   5
2C1
 100
AcDbEntity
   8
LEVEL001
 370
13
  62
1
 100
AcDbMText
  10
 7412.2443527039
  20
 1023.5736076959
  30
0.0
  40
 80.000000000000
  41
0.0
  71
7
  72
1
   1
\T1.000000;―
   7
GMM002
  44
 0.79999984000003
   0
MTEXT
   5
2C3
 100
AcDbEntity
   8
LEVEL001
 370
13
  62
1
 100
AcDbMText
  10
 7412.2443527039
  20
 1153.5736076959
  30
0.0
  40
 80.000000000000
  41
0.0
  71
7
  72
1
   1
\T1.000000;―
   7
GMM002
  44
 0.79999984000003
   0
MTEXT
   5
2C5
 100
AcDbEntity
   8
LEVEL001
 370
13
  62
1
 100
AcDbMText
  10
 5870.1232423079
  20
 1153.5736076959
  30
0.0
  40
 80.000000000000
  41
0.0
  71
7
  72
1
   1
\T1.000000;注意板
   7
GMM002
  44
 0.79999984000003
   0
LINE
   5
2C6
 100
AcDbEntity
   8
LEVEL001
 370
13
 100
AcDbLine
   6
CONTINUOUS
  62
6
  10
 5620.1232423079
  20
 1780.0000000000
  30
0.0
  11
 8135.8810215160
  21
 1780.0000000000
  31
0.0
   0
LINE
   5
2C7
 100
AcDbEntity
   8
LEVEL001
 370
13
 100
AcDbLine
   6
CONTINUOUS
  62
6
  10
 5620.1232423079
  20
 1910.0000000000
  30
0.0
  11
 8135.8810215160
  21
 1910.0000000000
  31
0.0
   0
LINE
   5
2C8
 100
AcDbEntity
   8
LEVEL001
 370
13
 100
AcDbLine
   6
CONTINUOUS
  62
6
  10
 5620.1232423079
  20
 2040.0000000000
  30
0.0
  11
 8135.8810215160
  21
 2040.0000000000
  31
0.0
   0
LINE
   5
2C9
 100
AcDbEntity
   8
LEVEL001
 370
13
 100
AcDbLine
   6
CONTINUOUS
  62
6
  10
 5620.1232423079
  20
 2170.0000000000
  30
0.0
  11
 8135.8810215160
  21
 2170.0000000000
  31
0.0
   0
LINE
   5
2CA
 100
AcDbEntity
   8
LEVEL001
 370
13
 100
AcDbLine
   6
CONTINUOUS
  62
6
  10
 5620.1232423079
  20
 2300.0000000000
  30
0.0
  11
 8135.8810215160
  21
 2300.0000000000
  31
0.0
   0
LINE
   5
2CB
 100
AcDbEntity
   8
LEVEL001
 370
13
 100
AcDbLine
   6
CONTINUOUS
  62
6
  10
 5620.1232423079
  20
 2430.0000000000
  30
0.0
  11
 8135.8810215160
  21
 2430.0000000000
  31
0.0
   0
LINE
   5
2CC
 100
AcDbEntity
   8
LEVEL001
 370
13
 100
AcDbLine
   6
CONTINUOUS
  62
6
  10
 5620.1232423079
  20
 2560.0000000000
  30
0.0
  11
 8135.8810215160
  21
 2560.0000000000
  31
0.0
   0
LINE
   5
2CD
 100
AcDbEntity
   8
LEVEL001
 370
13
 100
AcDbLine
   6
CONTINUOUS
  62
6
  10
 5620.1232423079
  20
 2690.0000000000
  30
0.0
  11
 8135.8810215160
  21
 2690.0000000000
  31
0.0
   0
LINE
   5
2CE
 100
AcDbEntity
   8
LEVEL001
 370
13
 100
AcDbLine
   6
CONTINUOUS
  62
6
  10
 5620.1232423079
  20
 2820.0000000000
  30
0.0
  11
 8135.8810215160
  21
 2820.0000000000
  31
0.0
   0
LINE
   5
2CF
 100
AcDbEntity
   8
LEVEL001
 370
13
 100
AcDbLine
   6
CONTINUOUS
  62
6
  10
 5620.1232423079
  20
 3090.0000000000
  30
0.0
  11
 8135.8810215160
  21
 3090.0000000000
  31
0.0
   0
LINE
   5
2D0
 100
AcDbEntity
   8
LEVEL001
 370
13
 100
AcDbLine
   6
CONTINUOUS
  62
6
  10
 5620.1232423079
  20
 3390.0000000000
  30
0.0
  11
 8135.8810215160
  21
 3390.0000000000
  31
0.0
   0
MTEXT
   5
2D2
 100
AcDbEntity
   8
LEVEL001
 370
13
  62
1
 100
AcDbMText
  10
 5791.1022160620
  20
 1673.5736076959
  30
0.0
  40
 80.000000000000
  41
0.0
  71
9
  72
1
   1
\T1.000000;１０
   7
GMM001
  44
 0.79999984000003
   0
MTEXT
   5
2D4
 100
AcDbEntity
   8
LEVEL001
 370
13
  62
1
 100
AcDbMText
  10
 5791.1022160620
  20
 1803.5736076959
  30
0.0
  40
 80.000000000000
  41
0.0
  71
9
  72
1
   1
\T1.000000;９
   7
GMM001
  44
 0.79999984000003
   0
MTEXT
   5
2D6
 100
AcDbEntity
   8
LEVEL001
 370
13
  62
1
 100
AcDbMText
  10
 5791.1022160620
  20
 1933.5736076959
  30
0.0
  40
 80.000000000000
  41
0.0
  71
9
  72
1
   1
\T1.000000;８
   7
GMM001
  44
 0.79999984000003
   0
MTEXT
   5
2D8
 100
AcDbEntity
   8
LEVEL001
 370
13
  62
1
 100
AcDbMText
  10
 5791.1022160620
  20
 2063.5736076959
  30
0.0
  40
 80.000000000000
  41
0.0
  71
9
  72
1
   1
\T1.000000;７
   7
GMM001
  44
 0.79999984000003
   0
MTEXT
   5
2DA
 100
AcDbEntity
   8
LEVEL001
 370
13
  62
1
 100
AcDbMText
  10
 5791.1022160620
  20
 2193.5736076959
  30
0.0
  40
 80.000000000000
  41
0.0
  71
9
  72
1
   1
\T1.000000;６
   7
GMM001
  44
 0.79999984000003
   0
MTEXT
   5
2DC
 100
AcDbEntity
   8
LEVEL001
 370
13
  62
1
 100
AcDbMText
  10
 5791.1022160620
  20
 2323.5736076959
  30
0.0
  40
 80.000000000000
  41
0.0
  71
9
  72
1
   1
\T1.000000;５
   7
GMM001
  44
 0.79999984000003
   0
MTEXT
   5
2DE
 100
AcDbEntity
   8
LEVEL001
 370
13
  62
1
 100
AcDbMText
  10
 5791.1022160620
  20
 2453.5736076959
  30
0.0
  40
 80.000000000000
  41
0.0
  71
9
  72
1
   1
\T1.000000;４
   7
GMM001
  44
 0.79999984000003
   0
MTEXT
   5
2E0
 100
AcDbEntity
   8
LEVEL001
 370
13
  62
1
 100
AcDbMText
  10
 5791.1022160620
  20
 2583.5736076959
  30
0.0
  40
 80.000000000000
  41
0.0
  71
9
  72
1
   1
\T1.000000;３
   7
GMM001
  44
 0.79999984000003
   0
MTEXT
   5
2E2
 100
AcDbEntity
   8
LEVEL001
 370
13
  62
1
 100
AcDbMText
  10
 6841.1022160620
  20
 2583.5736076959
  30
0.0
  40
 80.000000000000
  41
0.0
  71
9
  72
1
   1
\T1.000000;１
   7
GMM002
  44
 0.79999984000003
   0
MTEXT
   5
2E4
 100
AcDbEntity
   8
LEVEL001
 370
13
  62
1
 100
AcDbMText
  10
 5870.1232423079
  20
 2583.5736076959
  30
0.0
  40
 80.000000000000
  41
0.0
  71
7
  72
1
   1
\T1.000000;フード
   7
GMM002
  44
 0.79999984000003
   0
MTEXT
   5
2E6
 100
AcDbEntity
   8
LEVEL001
 370
13
  62
1
 100
AcDbMText
  10
 5791.1022160620
  20
 2713.5736076959
  30
0.0
  40
 80.000000000000
  41
0.0
  71
9
  72
1
   1
\T1.000000;２
   7
GMM001
  44
 0.79999984000003
   0
MTEXT
   5
2E8
 100
AcDbEntity
   8
LEVEL001
 370
13
  62
1
 100
AcDbMText
  10
 6841.1022160620
  20
 2713.5736076959
  30
0.0
  40
 80.000000000000
  41
0.0
  71
9
  72
1
   1
\T1.000000;１
   7
GMM002
  44
 0.79999984000003
   0
MTEXT
   5
2EA
 100
AcDbEntity
   8
LEVEL001
 370
13
  62
1
 100
AcDbMText
  10
 5870.1232423079
  20
 2713.5736076959
  30
0.0
  40
 80.000000000000
  41
0.0
  71
7
  72
1
   1
\T1.000000;バックプレート
   7
GMM002
  44
 0.79999984000003
   0
MTEXT
   5
2EC
 100
AcDbEntity
   8
LEVEL001
 370
13
  62
1
 100
AcDbMText
  10
 5791.1022160620
  20
 2843.5736076959
  30
0.0
  40
 80.000000000000
  41
0.0
  71
9
  72
1
   1
\T1.000000;１
   7
GMM001
  44
 0.79999984000003
   0
MTEXT
   5
2EE
 100
AcDbEntity
   8
LEVEL001
 370
13
  62
1
 100
AcDbMText
  10
 6841.1022160620
  20
 2843.5736076959
  30
0.0
  40
 80.000000000000
  41
0.0
  71
9
  72
1
   1
\T1.000000;１
   7
GMM002
  44
 0.79999984000003
   0
MTEXT
   5
2F0
 100
AcDbEntity
   8
LEVEL001
 370
13
  62
1
 100
AcDbMText
  10
 6770.1232423079
  20
 3020.0000000000
  30
0.0
  40
 80.000000000000
  41
0.0
  71
5
  72
1
   1
\T1.000000;個数
   7
GMM002
  44
 0.79999984000003
   0
MTEXT
   5
2F2
 100
AcDbEntity
   8
LEVEL001
 370
13
  62
1
 100
AcDbMText
  10
 7120.1232423079
  20
 3020.0000000000
  30
0.0
  40
 80.000000000000
  41
0.0
  71
5
  72
1
   1
\T1.000000;材　　質
   7
GMM002
  44
 0.79999984000003
   0
MTEXT
   5
2F4
 100
AcDbEntity
   8
LEVEL001
 370
13
  62
1
 100
AcDbMText
  10
 6245.1232423079
  20
 3020.0000000000
  30
0.0
  40
 80.000000000000
  41
0.0
  71
5
  72
1
   1
\T1.000000;名　　称
   7
GMM002
  44
 0.79999984000003
   0
MTEXT
   5
2F6
 100
AcDbEntity
   8
LEVEL001
 370
13
  62
1
 100
AcDbMText
  10
 5785.5510997836
  20
 3269.5068305878
  30
0.0
  40
 80.000000000000
  41
0.0
  71
7
  72
1
   1
\T1.000000;アクリルミラー
   7
GMM003
  44
 0.79999984000003
   0
MTEXT
   5
2F8
 100
AcDbEntity
   8
LEVEL001
 370
13
  62
1
 100
AcDbMText
  10
 6920.1232423079
  20
 2843.5736076959
  30
0.0
  40
 80.000000000000
  41
0.0
  71
7
  72
1
   1
\T1.000000;ＰＭＭＡ
   7
GMM002
  44
 0.79999984000003
   0
MTEXT
   5
2FA
 100
AcDbEntity
   8
LEVEL001
 370
13
  62
1
 100
AcDbMText
  10
 6920.1232423079
  20
 2713.5736076959
  30
0.0
  40
 80.000000000000
  41
0.0
  71
7
  72
1
   1
\T1.000000;ＦＲＰ
   7
GMM002
  44
 0.79999984000003
   0
MTEXT
   5
2FC
 100
AcDbEntity
   8
LEVEL001
 370
13
  62
1
 100
AcDbMText
  10
 6920.1232423079
  20
 2583.5736076959
  30
0.0
  40
 80.000000000000
  41
0.0
  71
7
  72
1
   1
\T1.000000;ＰＣ
   7
GMM002
  44
 0.79999984000003
   0
MTEXT
   5
2FE
 100
AcDbEntity
   8
LEVEL001
 370
13
  62
1
 100
AcDbMText
  10
 5870.1232423079
  20
 1673.5736076959
  30
0.0
  40
 80.000000000000
  41
0.0
  71
7
  72
1
   1
\T1.000000;支柱
   7
GMM002
  44
 0.79999984000003
   0
MTEXT
   5
300
 100
AcDbEntity
   8
LEVEL001
 370
13
  62
1
 100
AcDbMText
  10
 6841.1022160620
  20
 1673.5736076959
  30
0.0
  40
 80.000000000000
  41
0.0
  71
9
  72
1
   1
\T1.000000;１
   7
GMM002
  44
 0.79999984000003
   0
MTEXT
   5
302
 100
AcDbEntity
   8
LEVEL001
 370
13
  62
1
 100
AcDbMText
  10
 6920.1232423079
  20
 1673.5736076959
  30
0.0
  40
 80.000000000000
  41
0.0
  71
7
  72
1
   1
\T1.000000;ＳＴＫ４００
   7
GMM002
  44
 0.79999984000003
   0
MTEXT
   5
304
 100
AcDbEntity
   8
LEVEL001
 370
13
  62
1
 100
AcDbMText
  10
 7420.1232423079
  20
 1673.5736076959
  30
0.0
  40
 80.000000000000
  41
0.0
  71
7
  72
1
   1
\T1.000000;静電粉体塗装
   7
GMM002
  44
 0.79999984000003
   0
MTEXT
   5
306
 100
AcDbEntity
   8
LEVEL001
 370
13
  62
1
 100
AcDbMText
  10
 6920.1232423079
  20
 1803.5736076959
  30
0.0
  40
 80.000000000000
  41
0.0
  71
7
  72
1
   1
\T1.000000;ＳＳ４００
   7
GMM002
  44
 0.79999984000003
   0
MTEXT
   5
308
 100
AcDbEntity
   8
LEVEL001
 370
13
  62
1
 100
AcDbMText
  10
 7420.1232423079
  20
 1803.5736076959
  30
0.0
  40
 80.000000000000
  41
0.0
  71
7
  72
1
   1
\T1.000000;溶融亜鉛メッキ
   7
GMM002
  44
 0.79999984000003
   0
MTEXT
   5
30A
 100
AcDbEntity
   8
LEVEL001
 370
13
  62
1
 100
AcDbMText
  10
 5870.1232423079
  20
 1803.5736076959
  30
0.0
  40
 80.000000000000
  41
0.0
  71
7
  72
1
   1
\T1.000000;金具締付ボルトナット
   7
GMM002
  44
 0.79999984000003
   0
MTEXT
   5
30C
 100
AcDbEntity
   8
LEVEL001
 370
13
  62
1
 100
AcDbMText
  10
 6920.1232423079
  20
 1933.5736076959
  30
0.0
  40
 80.000000000000
  41
0.0
  71
7
  72
1
   1
\T1.000000;ＳＳ４００
   7
GMM002
  44
 0.79999984000003
   0
MTEXT
   5
30E
 100
AcDbEntity
   8
LEVEL001
 370
13
  62
1
 100
AcDbMText
  10
 7420.1232423079
  20
 1933.5736076959
  30
0.0
  40
 80.000000000000
  41
0.0
  71
7
  72
1
   1
\T1.000000;溶融亜鉛メッキ
   7
GMM002
  44
 0.79999984000003
   0
MTEXT
   5
310
 100
AcDbEntity
   8
LEVEL001
 370
13
  62
1
 100
AcDbMText
  10
 5870.1232423079
  20
 1933.5736076959
  30
0.0
  40
 80.000000000000
  41
0.0
  71
7
  72
1
   1
\T1.000000;裏板金具取付ボルト
   7
GMM002
  44
 0.79999984000003
   0
MTEXT
   5
312
 100
AcDbEntity
   8
LEVEL001
 370
13
  62
1
 100
AcDbMText
  10
 6841.1022160620
  20
 1933.5736076959
  30
0.0
  40
 80.000000000000
  41
0.0
  71
9
  72
1
   1
\T1.000000;４
   7
GMM002
  44
 0.79999984000003
   0
MTEXT
   5
314
 100
AcDbEntity
   8
LEVEL001
 370
13
  62
1
 100
AcDbMText
  10
 7420.1232423079
  20
 2063.5736076959
  30
0.0
  40
 80.000000000000
  41
0.0
  71
7
  72
1
   1
\T1.000000;溶融亜鉛メッキ
   7
GMM002
  44
 0.79999984000003
   0
MTEXT
   5
316
 100
AcDbEntity
   8
LEVEL001
 370
13
  62
1
 100
AcDbMText
  10
 6920.1232423079
  20
 2063.5736076959
  30
0.0
  40
 80.000000000000
  41
0.0
  71
7
  72
1
   1
\T1.000000;ＳＳ４００
   7
GMM002
  44
 0.79999984000003
   0
MTEXT
   5
318
 100
AcDbEntity
   8
LEVEL001
 370
13
  62
1
 100
AcDbMText
  10
 5870.1232423079
  20
 2063.5736076959
  30
0.0
  40
 80.000000000000
  41
0.0
  71
7
  72
1
   1
\T1.000000;支柱取付金具
   7
GMM002
  44
 0.79999984000003
   0
MTEXT
   5
31A
 100
AcDbEntity
   8
LEVEL001
 370
13
  62
1
 100
AcDbMText
  10
 5870.1232423079
  20
 2193.5736076959
  30
0.0
  40
 80.000000000000
  41
0.0
  71
7
  72
1
   1
\T1.000000;裏板取付金具
   7
GMM002
  44
 0.79999984000003
   0
MTEXT
   5
31C
 100
AcDbEntity
   8
LEVEL001
 370
13
  62
1
 100
AcDbMText
  10
 6920.1232423079
  20
 2193.5736076959
  30
0.0
  40
 80.000000000000
  41
0.0
  71
7
  72
1
   1
\T1.000000;ＳＳ４００
   7
GMM002
  44
 0.79999984000003
   0
MTEXT
   5
31E
 100
AcDbEntity
   8
LEVEL001
 370
13
  62
1
 100
AcDbMText
  10
 7420.1232423079
  20
 2193.5736076959
  30
0.0
  40
 80.000000000000
  41
0.0
  71
7
  72
1
   1
\T1.000000;溶融亜鉛メッキ
   7
GMM002
  44
 0.79999984000003
   0
MTEXT
   5
320
 100
AcDbEntity
   8
LEVEL001
 370
13
  62
1
 100
AcDbMText
  10
 6841.1022160620
  20
 1803.5736076959
  30
0.0
  40
 80.000000000000
  41
0.0
  71
9
  72
1
   1
\T1.000000;４
   7
GMM002
  44
 0.79999984000003
   0
MTEXT
   5
322
 100
AcDbEntity
   8
LEVEL001
 370
13
  62
1
 100
AcDbMText
  10
 6841.1022160620
  20
 2453.5736076959
  30
0.0
  40
 80.000000000000
  41
0.0
  71
9
  72
1
   1
\T1.000000;１
   7
GMM002
  44
 0.79999984000003
   0
MTEXT
   5
324
 100
AcDbEntity
   8
LEVEL001
 370
13
  62
1
 100
AcDbMText
  10
 5870.1232423079
  20
 2453.5736076959
  30
0.0
  40
 80.000000000000
  41
0.0
  71
7
  72
1
   1
\T1.000000;取付枠
   7
GMM002
  44
 0.79999984000003
   0
MTEXT
   5
326
 100
AcDbEntity
   8
LEVEL001
 370
13
  62
1
 100
AcDbMText
  10
 5870.1232423079
  20
 2323.5736076959
  30
0.0
  40
 80.000000000000
  41
0.0
  71
7
  72
1
   1
\T1.000000;取付枠付リベット
   7
GMM002
  44
 0.79999984000003
   0
MTEXT
   5
328
 100
AcDbEntity
   8
LEVEL001
 370
13
  62
1
 100
AcDbMText
  10
 6920.1232423079
  20
 2323.5736076959
  30
0.0
  40
 80.000000000000
  41
0.0
  71
7
  72
1
   1
\T1.000000;アルミニウム
   7
GMM002
  44
 0.79999984000003
   0
MTEXT
   5
32A
 100
AcDbEntity
   8
LEVEL001
 370
13
  62
1
 100
AcDbMText
  10
 5785.5510997836
  20
 3132.1545397593
  30
0.0
  40
 80.000000000000
  41
0.0
  71
7
  72
1
   1
\T1.000000;□５００×６００（シングル）
   7
GMM003
  44
 0.79999984000003
   0
MTEXT
   5
32C
 100
AcDbEntity
   8
LEVEL001
 370
13
  62
1
 100
AcDbMText
  10
 5870.1232423079
  20
 2843.5736076959
  30
0.0
  40
 80.000000000000
  41
0.0
  71
7
  72
1
   1
\T1.000000;鏡面　Ｒ＝３０００
   7
GMM002
  44
 0.79999984000003
   0
MTEXT
   5
32E
 100
AcDbEntity
   8
LEVEL001
 370
13
  62
1
 100
AcDbMText
  10
 6920.1232423079
  20
 2453.5736076959
  30
0.0
  40
 80.000000000000
  41
0.0
  71
7
  72
1
   1
\T1.000000;ＦＲＰ
   7
GMM002
  44
 0.79999984000003
   0
MTEXT
   5
330
 100
AcDbEntity
   8
LEVEL001
 370
13
  62
1
 100
AcDbMText
  10
 7420.1232423079
  20
 2713.5736076959
  30
0.0
  40
 80.000000000000
  41
0.0
  71
7
  72
1
   1
\T1.000000;ＳＭＣ成型
   7
GMM002
  44
 0.79999984000003
   0
MTEXT
   5
332
 100
AcDbEntity
   8
LEVEL001
 370
13
  62
1
 100
AcDbMText
  10
 6841.1022160620
  20
 2323.5736076959
  30
0.0
  40
 80.000000000000
  41
0.0
  71
9
  72
1
   1
\T1.000000;１０
   7
GMM002
  44
 0.79999984000003
   0
LINE
   5
333
 100
AcDbEntity
   8
LEVEL001
 370
13
 100
AcDbLine
   6
CONTINUOUS
  62
6
  10
 5620.1232423079
  20
 2950.0000000000
  30
0.0
  11
 8135.8810215160
  21
 2950.0000000000
  31
0.0
   0
MTEXT
   5
335
 100
AcDbEntity
   8
LEVEL001
 370
13
  62
1
 100
AcDbMText
  10
 6841.1022160620
  20
 2193.5736076959
  30
0.0
  40
 80.000000000000
  41
0.0
  71
9
  72
1
   1
\T1.000000;１
   7
GMM002
  44
 0.79999984000003
   0
MTEXT
   5
337
 100
AcDbEntity
   8
LEVEL001
 370
13
  62
1
 100
AcDbMText
  10
 6841.1022160620
  20
 2063.5736076959
  30
0.0
  40
 80.000000000000
  41
0.0
  71
9
  72
1
   1
\T1.000000;１
   7
GMM002
  44
 0.79999984000003
   0
MTEXT
   5
339
 100
AcDbEntity
   8
LEVEL001
 370
13
  62
1
 100
AcDbMText
  10
 7420.1232423079
  20
 2843.5736076959
  30
0.0
  40
 80.000000000000
  41
0.0
  71
7
  72
1
   1
\W0.450000;\T1.000000;t=3.0mm\W0.900000;\T1.000000;・真空蒸着
   7
GMM002
  44
 0.79999984000003
   0
MTEXT
   5
33B
 100
AcDbEntity
   8
LEVEL001
 370
13
  62
1
 100
AcDbMText
  10
 7753.0021319120
  20
 3020.0000000000
  30
0.0
  40
 80.000000000000
  41
0.0
  71
5
  72
1
   1
\T1.000000;規格仕様
   7
GMM002
  44
 0.79999984000003
   0
MTEXT
   5
33D
 100
AcDbEntity
   8
LEVEL001
 370
13
  62
1
 100
AcDbMText
  10
 5676.5294749642
  20
 3644.3113553114
  30
0.0
  40
 80.000000000000
  41
0.0
  71
4
  72
1
   1
{\T1.000000;※構成部材は改良のため、変更する場合があります。}\P{\T1.000000;※本図は道路反射鏡ハンドブックに基づいています。}
   7
GMM002
  44
 0.94999981000004
   0
LINE
   5
33E
 100
AcDbEntity
   8
LEVEL001
 370
13
 100
AcDbLine
   6
CONTINUOUS
  62
6
  10
 5620.1232423079
  20
 3390.0000000000
  30
0.0
  11
 5620.1232423079
  21
 870.00000000000
  31
0.0
   0
LINE
   5
33F
 100
AcDbEntity
   8
LEVEL001
 370
13
 100
AcDbLine
   6
CONTINUOUS
  62
6
  10
 5820.1232423079
  20
 3090.0000000000
  30
0.0
  11
 5820.1232423079
  21
 870.00000000000
  31
0.0
   0
LINE
   5
340
 100
AcDbEntity
   8
LEVEL001
 370
13
 100
AcDbLine
   6
CONTINUOUS
  62
6
  10
 6670.1232423079
  20
 3090.0000000000
  30
0.0
  11
 6670.1232423079
  21
 870.00000000000
  31
0.0
   0
LINE
   5
341
 100
AcDbEntity
   8
LEVEL001
 370
13
 100
AcDbLine
   6
CONTINUOUS
  62
6
  10
 6870.1232423079
  20
 3090.0000000000
  30
0.0
  11
 6870.1232423079
  21
 870.00000000000
  31
0.0
   0
LINE
   5
342
 100
AcDbEntity
   8
LEVEL001
 370
13
 100
AcDbLine
   6
CONTINUOUS
  62
6
  10
 7370.1232423079
  20
 3090.0000000000
  30
0.0
  11
 7370.1232423079
  21
 870.00000000000
  31
0.0
   0
LINE
   5
343
 100
AcDbEntity
   8
LEVEL001
 370
13
 100
AcDbLine
   6
CONTINUOUS
  62
6
  10
 6670.1232423079
  20
 1650.0000000000
  30
0.0
  11
 8135.8810215160
  21
 1650.0000000000
  31
0.0
   0
MTEXT
   5
345
 100
AcDbEntity
   8
LEVEL001
 370
13
  62
1
 100
AcDbMText
  10
 6920.1232423079
  20
 1543.5736076959
  30
0.0
  40
 80.000000000000
  41
0.0
  71
7
  72
1
   1
\T1.000000;ＳＴＫ４００
   7
GMM002
  44
 0.79999984000003
   0
MTEXT
   5
347
 100
AcDbEntity
   8
LEVEL001
 370
13
  62
1
 100
AcDbMText
  10
 7420.1232423079
  20
 1585.0000000000
  30
0.0
  40
 44.000000000000
  41
0.0
  71
4
  72
1
   1
{\T1.000000;下地亜鉛メッキ}\P{\T1.000000;＋静電粉体塗装}
   7
GMM008
  44
 0.79999984000003
   0
MTEXT
   5
349
 100
AcDbEntity
   8
LEVEL001
 370
13
  62
1
 100
AcDbMText
  10
 6841.1022160620
  20
 1543.5736076959
  30
0.0
  40
 80.000000000000
  41
0.0
  71
9
  72
1
   1
\T1.000000;１
   7
GMM002
  44
 0.79999984000003
   0
MTEXT
   5
34B
 100
AcDbEntity
   8
LEVEL001
 370
13
  62
1
 100
AcDbMText
  10
 1787.2561349569
  20
 2998.0725927053
  30
0.0
  40
 66.000000000000
  41
0.0
  71
1
  72
1
   1
{\W0.787879;\T1.000000;支柱}\P%%c{\W0.787879;\T1.000000;７６\W0.393939;\T1.000000;.\W0.787879;\T1.000000;３ｘ３\W0.393939;\T1.000000;.\W0.787879;\T1.000000;２ｔ}\P{\W0.787879;\T1.000000;ｘ３６００Ｌ}
   7
GMM004
  44
 0.79999984000003
   0
ENDSEC
  0
SECTION
  2
OBJECTS
  0
DICTIONARY
  5
C
100
AcDbDictionary
  3
ACAD_GROUP
350
D
  3
ACAD_MLINESTYLE
350
1B
  3
DWGPROPS
350
1C
  0
DICTIONARY
  5
D
102
{ACAD_REACTORS
330
C
102
}
100
AcDbDictionary
  0
DICTIONARY
  5
1B
102
{ACAD_REACTORS
330
C
102
}
100
AcDbDictionary
  3
STANDARD
350
1D
  0
MLINESTYLE
  5
1D
102
{ACAD_REACTORS
330
1B
102
}
100
AcDbMlineStyle
  2
STANDARD
 70
     0
  3

 62
   256
 51
90.0
 52
90.0
 71
     2
 49
0.5
 62
   256
  6
BYLAYER
 49
-0.5
 62
   256
  6
BYLAYER
   0
XRECORD
   5
1C
 102
{ACAD_REACTORS
 330
C
 102
}
 330
C
 100
AcDbXrecord
 280
1
   1
DWGPROPS COOKIE
   2
 
   3
 
   4
 
   6
 
   7
MA506SCP
   8
 
   9

 300
 = 
 301
 = 
 302
 = 
 303
 = 
 304
 = 
 305
 = 
 306
 = 
 307
 = 
 308
 = 
 309
 = 
  40
0.0
  41
 2460327.5000000
  42
 2460327.5000000
   1

  90
10
   0
ENDSEC
   0
EOF
