   0
SECTION
   2
HEADER
   9
$ACADVER
   1
AC1015
   9
$DWGCODEPAGE
   3
ANSI_932
   9
$LIMMIN
  10
0.0
  20
0.0
   9
$LIMMAX
  10
 8400.0000000000
  20
 5940.0000000000
   9
$EXTMIN
  10
0.0
  20
0.0
  30
0.0
   9
$EXTMAX
  10
 8400.0000000000
  20
 5940.0000000000
  30
0.0
   9
$LTSCALE
  40
 168.00000000000
   9
$HANDSEED
   5
390
   0
ENDSEC
   0
SECTION
   2
TABLES
  0
TABLE
  2
VPORT
  5
8
100
AcDbSymbolTable
 70
     1
  0
VPORT
  5
38F
100
AcDbSymbolTableRecord
100
AcDbViewportTableRecord
  2
*ACTIVE
 70
     0
 10
0.0
 20
0.0
 11
1.0
 21
1.0
  12
 4200.0000000000
  22
 2970.0000000000
 13
0.0
 23
0.0
 14
1.0
 24
1.0
 15
0.0
 25
0.0
 16
0.0
 26
0.0
 36
1.0
 17
0.0
 27
0.0
 37
0.0
  40
 8400.0000000000
  41
 1.4787878787879
 42
50.0
 43
0.0
 44
0.0
 50
0.0
 51
0.0
 71
     0
 72
   100
 73
     1
 74
     1
 75
     0
 76
     0
 77
     0
 78
     0
  0
ENDTAB
  0
TABLE
  2
LTYPE
  5
5
100
AcDbSymbolTable
 70
    25
  0
LTYPE
  5
12
100
AcDbSymbolTableRecord
100
AcDbLinetypeTableRecord
  2
BYBLOCK
 70
     0
  3

 72
    65
 73
     0
 40
0.0
  0
LTYPE
  5
13
100
AcDbSymbolTableRecord
100
AcDbLinetypeTableRecord
  2
BYLAYER
 70
     0
  3

 72
    65
 73
     0
 40
0.0
  0
LTYPE
  5
14
100
AcDbSymbolTableRecord
100
AcDbLinetypeTableRecord
  2
CONTINUOUS
 70
     0
  3
Solid line
 72
    65
 73
     0
 40
0.0
  0
LTYPE
  5
20
100
AcDbSymbolTableRecord
100
AcDbLinetypeTableRecord
  2
BORDER
 70
     0
  3
__ __ . __ __ . __ __ . __ __ . __ __ . __ __ .
 72
    65
 73
     6
 40
1.75
 49
0.5
 74
     0
 49
-0.25
 74
     0
 49
0.5
 74
     0
 49
-0.25
 74
     0
 49
0.0
 74
     0
 49
-0.25
 74
     0
  0
LTYPE
  5
21
100
AcDbSymbolTableRecord
100
AcDbLinetypeTableRecord
  2
BORDER2
 70
     0
  3
__.__.__.__.__.__.__.__.__.__.__.__.__.__.__.__
 72
    65
 73
     6
 40
0.875
 49
0.25
 74
     0
 49
-0.125
 74
     0
 49
0.25
 74
     0
 49
-0.125
 74
     0
 49
0.0
 74
     0
 49
-0.125
 74
     0
  0
LTYPE
  5
22
100
AcDbSymbolTableRecord
100
AcDbLinetypeTableRecord
  2
BORDERX2
 70
     0
  3
____  ____  .  ____  ____  .  ____  ____  .  __
 72
    65
 73
     6
 40
3.5
 49
1.0
 74
     0
 49
-0.5
 74
     0
 49
1.0
 74
     0
 49
-0.5
 74
     0
 49
0.0
 74
     0
 49
-0.5
 74
     0
  0
LTYPE
  5
23
100
AcDbSymbolTableRecord
100
AcDbLinetypeTableRecord
  2
CENTER
 70
     0
  3
____ _ ____ _ ____ _ ____ _ ____ _ ____ _ ____ 
 72
    65
 73
     4
 40
2.0
 49
1.25
 74
     0
 49
-0.25
 74
     0
 49
0.25
 74
     0
 49
-0.25
 74
     0
  0
LTYPE
  5
24
100
AcDbSymbolTableRecord
100
AcDbLinetypeTableRecord
  2
CENTER2
 70
     0
  3
___ _ ___ _ ___ _ ___ _ ___ _ ___ _ ___ _ ___ _
 72
    65
 73
     4
 40
1.125
 49
0.75
 74
     0
 49
-0.125
 74
     0
 49
0.125
 74
     0
 49
-0.125
 74
     0
  0
LTYPE
  5
25
100
AcDbSymbolTableRecord
100
AcDbLinetypeTableRecord
  2
CENTERX2
 70
     0
  3
________  __  ________  __  ________  __  _____
 72
    65
 73
     4
 40
4.0
 49
2.5
 74
     0
 49
-0.5
 74
     0
 49
0.5
 74
     0
 49
-0.5
 74
     0
  0
LTYPE
  5
26
100
AcDbSymbolTableRecord
100
AcDbLinetypeTableRecord
  2
DASHDOT
 70
     0
  3
__ . __ . __ . __ . __ . __ . __ . __ . __ . __
 72
    65
 73
     4
 40
1.0
 49
0.5
 74
     0
 49
-0.25
 74
     0
 49
0.0
 74
     0
 49
-0.25
 74
     0
  0
LTYPE
  5
27
100
AcDbSymbolTableRecord
100
AcDbLinetypeTableRecord
  2
DASHDOT2
 70
     0
  3
_._._._._._._._._._._._._._._._._._._._._._._._
 72
    65
 73
     4
 40
0.5
 49
0.25
 74
     0
 49
-0.125
 74
     0
 49
0.0
 74
     0
 49
-0.125
 74
     0
  0
LTYPE
  5
28
100
AcDbSymbolTableRecord
100
AcDbLinetypeTableRecord
  2
DASHDOTX2
 70
     0
  3
____  .  ____  .  ____  .  ____  .  ____  .  __
 72
    65
 73
     4
 40
2.0
 49
1.0
 74
     0
 49
-0.5
 74
     0
 49
0.0
 74
     0
 49
-0.5
 74
     0
  0
LTYPE
  5
29
100
AcDbSymbolTableRecord
100
AcDbLinetypeTableRecord
  2
DASHED
 70
     0
  3
__ __ __ __ __ __ __ __ __ __ __ __ __ __ __ __
 72
    65
 73
     2
 40
0.75
 49
0.5
 74
     0
 49
-0.25
 74
     0
  0
LTYPE
  5
2A
100
AcDbSymbolTableRecord
100
AcDbLinetypeTableRecord
  2
DASHED2
 70
     0
  3
_ _ _ _ _ _ _ _ _ _ _ _ _ _ _ _ _ _ _ _ _ _ _ _
 72
    65
 73
     2
 40
0.375
 49
0.25
 74
     0
 49
-0.125
 74
     0
  0
LTYPE
  5
2B
100
AcDbSymbolTableRecord
100
AcDbLinetypeTableRecord
  2
DASHEDX2
 70
     0
  3
____  ____  ____  ____  ____  ____  ____  ____ 
 72
    65
 73
     2
 40
1.5
 49
1.0
 74
     0
 49
-0.5
 74
     0
  0
LTYPE
  5
2C
100
AcDbSymbolTableRecord
100
AcDbLinetypeTableRecord
  2
DIVIDE
 70
     0
  3
____ . . ____ . . ____ . . ____ . . ____ . . __
 72
    65
 73
     6
 40
1.25
 49
0.5
 74
     0
 49
-0.25
 74
     0
 49
0.0
 74
     0
 49
-0.25
 74
     0
 49
0.0
 74
     0
 49
-0.25
 74
     0
  0
LTYPE
  5
2D
100
AcDbSymbolTableRecord
100
AcDbLinetypeTableRecord
  2
DIVIDE2
 70
     0
  3
__..__..__..__..__..__..__..__..__..__..__..__.
 72
    65
 73
     6
 40
0.625
 49
0.25
 74
     0
 49
-0.125
 74
     0
 49
0.0
 74
     0
 49
-0.125
 74
     0
 49
0.0
 74
     0
 49
-0.125
 74
     0
  0
LTYPE
  5
2E
100
AcDbSymbolTableRecord
100
AcDbLinetypeTableRecord
  2
DIVIDEX2
 70
     0
  3
________  .  .  ________  .  .  ________  .  . 
 72
    65
 73
     6
 40
2.5
 49
1.0
 74
     0
 49
-0.5
 74
     0
 49
0.0
 74
     0
 49
-0.5
 74
     0
 49
0.0
 74
     0
 49
-0.5
 74
     0
  0
LTYPE
  5
2F
100
AcDbSymbolTableRecord
100
AcDbLinetypeTableRecord
  2
DOT
 70
     0
  3
. . . . . . . . . . . . . . . . . . . . . . . .
 72
    65
 73
     2
 40
0.25
 49
0.0
 74
     0
 49
-0.25
 74
     0
  0
LTYPE
  5
30
100
AcDbSymbolTableRecord
100
AcDbLinetypeTableRecord
  2
DOT2
 70
     0
  3
...............................................
 72
    65
 73
     2
 40
0.125
 49
0.0
 74
     0
 49
-0.125
 74
     0
  0
LTYPE
  5
31
100
AcDbSymbolTableRecord
100
AcDbLinetypeTableRecord
  2
DOTX2
 70
     0
  3
.  .  .  .  .  .  .  .  .  .  .  .  .  .  .  . 
 72
    65
 73
     2
 40
0.5
 49
0.0
 74
     0
 49
-0.5
 74
     0
  0
LTYPE
  5
32
100
AcDbSymbolTableRecord
100
AcDbLinetypeTableRecord
  2
HIDDEN
 70
     0
  3
__ __ __ __ __ __ __ __ __ __ __ __ __ __ __ __
 72
    65
 73
     2
 40
0.375
 49
0.25
 74
     0
 49
-0.125
 74
     0
  0
LTYPE
  5
33
100
AcDbSymbolTableRecord
100
AcDbLinetypeTableRecord
  2
HIDDEN2
 70
     0
  3
_ _ _ _ _ _ _ _ _ _ _ _ _ _ _ _ _ _ _ _ _ _ _ _
 72
    65
 73
     2
 40
0.1875
 49
0.125
 74
     0
 49
-0.0625
 74
     0
  0
LTYPE
  5
34
100
AcDbSymbolTableRecord
100
AcDbLinetypeTableRecord
  2
HIDDENX2
 70
     0
  3
____ ____ ____ ____ ____ ____ ____ ____ ____ __
 72
    65
 73
     2
 40
0.75
 49
0.5
 74
     0
 49
-0.25
 74
     0
  0
LTYPE
  5
35
100
AcDbSymbolTableRecord
100
AcDbLinetypeTableRecord
  2
PHANTOM
 70
     0
  3
______  __  __  ______  __  __  ______  __  __ 
 72
    65
 73
     6
 40
2.5
 49
1.25
 74
     0
 49
-0.25
 74
     0
 49
0.25
 74
     0
 49
-0.25
 74
     0
 49
0.25
 74
     0
 49
-0.25
 74
     0
  0
LTYPE
  5
36
100
AcDbSymbolTableRecord
100
AcDbLinetypeTableRecord
  2
PHANTOM2
 70
     0
  3
___ _ _ ___ _ _ ___ _ _ ___ _ _ ___ _ _ ___ _ _
 72
    65
 73
     6
 40
1.25
 49
0.625
 74
     0
 49
-0.125
 74
     0
 49
0.125
 74
     0
 49
-0.125
 74
     0
 49
0.125
 74
     0
 49
-0.125
 74
     0
  0
LTYPE
  5
37
100
AcDbSymbolTableRecord
100
AcDbLinetypeTableRecord
  2
PHANTOMX2
 70
     0
  3
____________    ____    ____    ____________   
 72
    65
 73
     6
 40
5.0
 49
2.5
 74
     0
 49
-0.5
 74
     0
 49
0.5
 74
     0
 49
-0.5
 74
     0
 49
0.5
 74
     0
 49
-0.5
 74
     0
  0
ENDTAB
   0
TABLE
   2
LAYER
   5
2
 100
AcDbSymbolTable
  70
3
   0
LAYER
   5
E
 100
AcDbSymbolTableRecord
 100
AcDbLayerTableRecord
   2
0
  70
0
  62
7
   6
CONTINUOUS
 390
30
   0
LAYER
   5
39
 100
AcDbSymbolTableRecord
 100
AcDbLayerTableRecord
   2
LEVEL001
  70
0
  62
7
   6
CONTINUOUS
 390
30
   0
LAYER
   5
3A
 100
AcDbSymbolTableRecord
 100
AcDbLayerTableRecord
   2
LEVEL002
  70
0
  62
7
   6
CONTINUOUS
 390
30
   0
ENDTAB
  0
TABLE
  2
STYLE
  5
3
100
AcDbSymbolTable
  70
10
  0
STYLE
  5
F
100
AcDbSymbolTableRecord
100
AcDbTextStyleTableRecord
  2
STANDARD
 70
     0
 40
0.0
 41
1.0
 50
0.0
 71
     0
 42
0.2
  3
TXT
  4
BIGFONT
  0
STYLE
  5
38
100
AcDbSymbolTableRecord
100
AcDbTextStyleTableRecord
  2
STANDARD1
 70
     4
 40
0.0
 41
1.0
 50
0.0
 71
     0
 42
0.2
  3
TXT
  4
BIGFONT
   0
STYLE
   5
3B
 100
AcDbSymbolTableRecord
 100
AcDbTextStyleTableRecord
   2
GMM001
  70
0
  40
0.0
  41
 1.0000000000000
  50
0.0
  71
     0
  42
1.0
   3
txt.shx
   4
bigfont.shx
   0
STYLE
   5
3C
 100
AcDbSymbolTableRecord
 100
AcDbTextStyleTableRecord
   2
GMM002
  70
0
  40
0.0
  41
 0.78787878787879
  50
0.0
  71
     0
  42
1.0
   3
txt.shx
   4
bigfont.shx
   0
STYLE
   5
3D
 100
AcDbSymbolTableRecord
 100
AcDbTextStyleTableRecord
   2
GMM003
  70
0
  40
0.0
  41
 0.90000000000000
  50
0.0
  71
     0
  42
1.0
   3

   4

1001
ACAD
1000
ＭＳ 明朝
1071
33587217
   0
STYLE
   5
3E
 100
AcDbSymbolTableRecord
 100
AcDbTextStyleTableRecord
   2
GMM004
  70
0
  40
0.0
  41
 0.75000000000000
  50
0.0
  71
     0
  42
1.0
   3
txt.shx
   4
bigfont.shx
   0
STYLE
   5
3F
 100
AcDbSymbolTableRecord
 100
AcDbTextStyleTableRecord
   2
GMM005
  70
0
  40
0.0
  41
 0.87500000000000
  50
0.0
  71
     0
  42
1.0
   3
txt.shx
   4
bigfont.shx
   0
STYLE
   5
40
 100
AcDbSymbolTableRecord
 100
AcDbTextStyleTableRecord
   2
GMM006
  70
0
  40
0.0
  41
 0.90000000000000
  50
0.0
  71
     0
  42
1.0
   3
txt.shx
   4
bigfont.shx
   0
STYLE
   5
41
 100
AcDbSymbolTableRecord
 100
AcDbTextStyleTableRecord
   2
GMM007
  70
0
  40
0.0
  41
 1.6363636363636
  50
0.0
  71
     0
  42
1.0
   3
txt.shx
   4
bigfont.shx
   0
STYLE
   5
42
 100
AcDbSymbolTableRecord
 100
AcDbTextStyleTableRecord
   2
GMM008
  70
0
  40
0.0
  41
 1.0000000000000
  50
0.0
  71
     0
  42
1.0
   3

   4

1001
ACAD
1000
ＭＳ 明朝
1071
32785
   0
ENDTAB
  0
TABLE
  2
VIEW
  5
6
100
AcDbSymbolTable
 70
     0
  0
ENDTAB
  0
TABLE
  2
UCS
  5
7
100
AcDbSymbolTable
 70
     0
  0
ENDTAB
  0
TABLE
  2
APPID
  5
9
100
AcDbSymbolTable
 70
     1
  0
APPID
  5
10
100
AcDbSymbolTableRecord
100
AcDbRegAppTableRecord
  2
ACAD
 70
     0
  0
ENDTAB
   0
TABLE
   2
DIMSTYLE
   5
A
 100
AcDbSymbolTable
  70
10
 100
AcDbDimStyleTable
  0
DIMSTYLE
105
1D
100
AcDbSymbolTableRecord
100
AcDbDimStyleTableRecord
  2
STANDARD
 70
     0
  3

  4

  5

  6

  7

 40
1.0
 41
0.18
 42
0.0625
 43
0.38
 44
0.18
 45
0.0
 46
0.0
 47
0.0
 48
0.0
140
0.18
141
0.09
142
0.0
143
25.4
144
1.0
145
0.0
146
1.0
147
0.09
 71
     0
 72
     0
 73
     1
 74
     1
 75
     0
 76
     0
 77
     0
 78
     0
170
     0
171
     2
172
     0
173
     0
174
     0
175
     0
176
     0
177
     0
178
     0
270
     2
271
     4
272
     4
273
     2
274
     2
340
F
275
     0
280
     0
281
     0
282
     0
283
     1
284
     0
285
     0
286
     0
287
     3
288
     0
   0
DIMSTYLE
 105
43
 100
AcDbSymbolTableRecord
 100
AcDbDimStyleTableRecord
   2
GMM001
  70
0
   3

   4

   5

   6
_OPEN
   7
_OPEN
  40
 1.0000000000000
  41
 30.000000000000
  42
 30.000000000000
  43
 160.00000000000
  44
 30.000000000000
  45
0.0
  46
 37.500000000000
  47
0.0
  48
0.0
 140
 66.000000000000
 141
 20.000000000000
 142
0.0
 143
 0.39400000000000E-1
 144
 1.0000000000000
 145
0.0
 146
 0.62500000000000
 147
0.0
  71
0
  72
0
  73
0
  74
0
  75
1
  76
1
  77
0
  78
8
 170
0
 171
2
 172
1
 173
1
 174
0
 175
0
 176
1
 177
1
 178
1
 270
2
 271
1
 272
0
 273
2
 274
2
 340
F
 275
0
 280
0
 281
0
 282
0
 283
1
 284
0
 285
0
 286
0
 287
3
 288
0
   0
DIMSTYLE
 105
44
 100
AcDbSymbolTableRecord
 100
AcDbDimStyleTableRecord
   2
GMM002
  70
0
   3
%%c<>
   4

   5

   6
_OPEN
   7
_OPEN
  40
 1.0000000000000
  41
 30.000000000000
  42
 30.000000000000
  43
 160.00000000000
  44
 30.000000000000
  45
0.0
  46
 37.500000000000
  47
0.0
  48
0.0
 140
 66.000000000000
 141
 20.000000000000
 142
0.0
 143
 0.39400000000000E-1
 144
 1.0000000000000
 145
0.0
 146
 0.62500000000000
 147
 28.285714285714
  71
0
  72
0
  73
0
  74
0
  75
1
  76
1
  77
1
  78
8
 170
0
 171
2
 172
1
 173
1
 174
0
 175
0
 176
6
 177
6
 178
1
 270
2
 271
1
 272
0
 273
2
 274
2
 340
3C
 275
0
 280
0
 281
0
 282
0
 283
1
 284
0
 285
0
 286
0
 287
0
 288
0
   0
DIMSTYLE
 105
45
 100
AcDbSymbolTableRecord
 100
AcDbDimStyleTableRecord
   2
GMM003
  70
0
   3

   4

   5

   6
_OPEN
   7
_OPEN
  40
 1.0000000000000
  41
 30.000000000000
  42
 30.000000000000
  43
 160.00000000000
  44
 30.000000000000
  45
0.0
  46
 37.500000000000
  47
0.0
  48
0.0
 140
 66.000000000000
 141
 20.000000000000
 142
0.0
 143
 0.39400000000000E-1
 144
 1.0000000000000
 145
0.0
 146
 0.62500000000000
 147
0.0
  71
0
  72
0
  73
0
  74
0
  75
1
  76
1
  77
0
  78
8
 170
0
 171
2
 172
1
 173
1
 174
0
 175
0
 176
1
 177
1
 178
1
 270
2
 271
1
 272
0
 273
2
 274
2
 340
F
 275
0
 280
0
 281
0
 282
0
 283
1
 284
0
 285
0
 286
0
 287
3
 288
0
   0
DIMSTYLE
 105
46
 100
AcDbSymbolTableRecord
 100
AcDbDimStyleTableRecord
   2
GMM004
  70
0
   3

   4

   5

   6
_OPEN
   7
_OPEN
  40
 1.0000000000000
  41
 30.000000000000
  42
 30.000000000000
  43
 160.00000000000
  44
 30.000000000000
  45
0.0
  46
 37.500000000000
  47
0.0
  48
0.0
 140
 66.000000000000
 141
 20.000000000000
 142
0.0
 143
 0.39400000000000E-1
 144
 1.0000000000000
 145
0.0
 146
 0.62500000000000
 147
 28.285714285714
  71
0
  72
0
  73
0
  74
0
  75
0
  76
1
  77
1
  78
8
 170
0
 171
2
 172
1
 173
1
 174
0
 175
0
 176
6
 177
6
 178
1
 270
2
 271
1
 272
0
 273
2
 274
2
 340
3C
 275
0
 280
0
 281
0
 282
0
 283
1
 284
0
 285
0
 286
0
 287
3
 288
0
   0
DIMSTYLE
 105
47
 100
AcDbSymbolTableRecord
 100
AcDbDimStyleTableRecord
   2
GMM005
  70
0
   3
<>(標準設置高さ
   4

   5

   6
_OPEN
   7
_OPEN
  40
 1.0000000000000
  41
 30.000000000000
  42
 30.000000000000
  43
 160.00000000000
  44
 30.000000000000
  45
0.0
  46
 37.500000000000
  47
0.0
  48
0.0
 140
 66.000000000000
 141
 20.000000000000
 142
0.0
 143
 0.39400000000000E-1
 144
 1.0000000000000
 145
0.0
 146
 0.62500000000000
 147
 28.285714285714
  71
0
  72
0
  73
0
  74
0
  75
0
  76
0
  77
1
  78
8
 170
0
 171
2
 172
1
 173
1
 174
0
 175
0
 176
6
 177
6
 178
1
 270
2
 271
1
 272
0
 273
2
 274
2
 340
3C
 275
0
 280
0
 281
0
 282
0
 283
1
 284
0
 285
0
 286
0
 287
3
 288
0
   0
DIMSTYLE
 105
48
 100
AcDbSymbolTableRecord
 100
AcDbDimStyleTableRecord
   2
GMM006
  70
0
   3

   4

   5

   6
_OPEN
   7
_OPEN
  40
 1.0000000000000
  41
 30.000000000000
  42
 30.000000000000
  43
 160.00000000000
  44
 30.000000000000
  45
0.0
  46
 37.500000000000
  47
0.0
  48
0.0
 140
 66.000000000000
 141
 20.000000000000
 142
0.0
 143
 0.39400000000000E-1
 144
 1.0000000000000
 145
0.0
 146
 0.62500000000000
 147
0.0
  71
0
  72
0
  73
0
  74
0
  75
1
  76
1
  77
0
  78
8
 170
0
 171
2
 172
1
 173
1
 174
0
 175
0
 176
1
 177
1
 178
1
 270
2
 271
1
 272
0
 273
2
 274
2
 340
F
 275
0
 280
0
 281
0
 282
0
 283
1
 284
0
 285
0
 286
0
 287
3
 288
0
   0
DIMSTYLE
 105
49
 100
AcDbSymbolTableRecord
 100
AcDbDimStyleTableRecord
   2
GMM007
  70
0
   3
□<>
   4

   5

   6
_OPEN
   7
_OPEN
  40
 1.0000000000000
  41
 30.000000000000
  42
 30.000000000000
  43
 160.00000000000
  44
 30.000000000000
  45
0.0
  46
 37.500000000000
  47
0.0
  48
0.0
 140
 66.000000000000
 141
 20.000000000000
 142
0.0
 143
 0.39400000000000E-1
 144
 1.0000000000000
 145
0.0
 146
 0.62500000000000
 147
 28.285714285714
  71
0
  72
0
  73
0
  74
0
  75
1
  76
1
  77
1
  78
8
 170
0
 171
2
 172
1
 173
1
 174
0
 175
0
 176
6
 177
6
 178
1
 270
2
 271
1
 272
0
 273
2
 274
2
 340
3C
 275
0
 280
0
 281
0
 282
0
 283
1
 284
0
 285
0
 286
0
 287
3
 288
1
   0
DIMSTYLE
 105
4A
 100
AcDbSymbolTableRecord
 100
AcDbDimStyleTableRecord
   2
GMM008
  70
0
   3

   4

   5

   6
_OPEN
   7
_OPEN
  40
 1.0000000000000
  41
 30.000000000000
  42
 30.000000000000
  43
 160.00000000000
  44
 30.000000000000
  45
0.0
  46
 37.500000000000
  47
0.0
  48
0.0
 140
 66.000000000000
 141
 20.000000000000
 142
0.0
 143
 0.39400000000000E-1
 144
 1.0000000000000
 145
0.0
 146
 0.62500000000000
 147
0.0
  71
0
  72
0
  73
0
  74
0
  75
1
  76
1
  77
0
  78
8
 170
0
 171
2
 172
1
 173
1
 174
0
 175
0
 176
1
 177
1
 178
1
 270
2
 271
1
 272
0
 273
2
 274
2
 340
F
 275
0
 280
0
 281
0
 282
0
 283
1
 284
0
 285
0
 286
0
 287
3
 288
0
   0
ENDTAB
  0
TABLE
  2
BLOCK_RECORD
  5
1
100
AcDbSymbolTable
 70
     0
  0
BLOCK_RECORD
  5
18
100
AcDbSymbolTableRecord
100
AcDbBlockTableRecord
  2
*MODEL_SPACE
  0
BLOCK_RECORD
  5
15
100
AcDbSymbolTableRecord
100
AcDbBlockTableRecord
  2
*PAPER_SPACE
   0
BLOCK_RECORD
   5
4B
 100
AcDbSymbolTableRecord
 100
AcDbBlockTableRecord
   2
*D2
   0
BLOCK_RECORD
   5
4C
 100
AcDbSymbolTableRecord
 100
AcDbBlockTableRecord
   2
*D3
   0
BLOCK_RECORD
   5
4D
 100
AcDbSymbolTableRecord
 100
AcDbBlockTableRecord
   2
*D6
   0
BLOCK_RECORD
   5
4E
 100
AcDbSymbolTableRecord
 100
AcDbBlockTableRecord
   2
*D7
   0
BLOCK_RECORD
   5
4F
 100
AcDbSymbolTableRecord
 100
AcDbBlockTableRecord
   2
*D8
   0
BLOCK_RECORD
   5
50
 100
AcDbSymbolTableRecord
 100
AcDbBlockTableRecord
   2
*D20
   0
BLOCK_RECORD
   5
51
 100
AcDbSymbolTableRecord
 100
AcDbBlockTableRecord
   2
*D21
   0
BLOCK_RECORD
   5
52
 100
AcDbSymbolTableRecord
 100
AcDbBlockTableRecord
   2
_ARCHTICK
   0
BLOCK_RECORD
   5
53
 100
AcDbSymbolTableRecord
 100
AcDbBlockTableRecord
   2
_BOXBLANK
   0
BLOCK_RECORD
   5
54
 100
AcDbSymbolTableRecord
 100
AcDbBlockTableRecord
   2
_BOXFILLED
   0
BLOCK_RECORD
   5
55
 100
AcDbSymbolTableRecord
 100
AcDbBlockTableRecord
   2
_CLOSED
   0
BLOCK_RECORD
   5
56
 100
AcDbSymbolTableRecord
 100
AcDbBlockTableRecord
   2
_CLOSEDBLANK
   0
BLOCK_RECORD
   5
57
 100
AcDbSymbolTableRecord
 100
AcDbBlockTableRecord
   2
_DATUMBLANK
   0
BLOCK_RECORD
   5
58
 100
AcDbSymbolTableRecord
 100
AcDbBlockTableRecord
   2
_DATUMFILLED
   0
BLOCK_RECORD
   5
59
 100
AcDbSymbolTableRecord
 100
AcDbBlockTableRecord
   2
_DOT
   0
BLOCK_RECORD
   5
5A
 100
AcDbSymbolTableRecord
 100
AcDbBlockTableRecord
   2
_DOTBLANK
   0
BLOCK_RECORD
   5
5B
 100
AcDbSymbolTableRecord
 100
AcDbBlockTableRecord
   2
_DOTSMALL
   0
BLOCK_RECORD
   5
5C
 100
AcDbSymbolTableRecord
 100
AcDbBlockTableRecord
   2
_INTEGRAL
   0
BLOCK_RECORD
   5
5D
 100
AcDbSymbolTableRecord
 100
AcDbBlockTableRecord
   2
_NONE
   0
BLOCK_RECORD
   5
5E
 100
AcDbSymbolTableRecord
 100
AcDbBlockTableRecord
   2
_OBLIQUE
   0
BLOCK_RECORD
   5
5F
 100
AcDbSymbolTableRecord
 100
AcDbBlockTableRecord
   2
_OPEN
   0
BLOCK_RECORD
   5
60
 100
AcDbSymbolTableRecord
 100
AcDbBlockTableRecord
   2
_OPEN30
   0
BLOCK_RECORD
   5
61
 100
AcDbSymbolTableRecord
 100
AcDbBlockTableRecord
   2
_OPEN90
   0
BLOCK_RECORD
   5
62
 100
AcDbSymbolTableRecord
 100
AcDbBlockTableRecord
   2
_ORIGIN
   0
ENDTAB
   0
ENDSEC
  0
SECTION
  2
BLOCKS
  0
BLOCK
  5
19
100
AcDbEntity
  8
0
100
AcDbBlockBegin
  2
*MODEL_SPACE
 70
     0
 10
0.0
 20
0.0
 30
0.0
  3
*MODEL_SPACE
  1

  0
ENDBLK
  5
1A
100
AcDbEntity
  8
0
100
AcDbBlockEnd
  0
BLOCK
  5
16
100
AcDbEntity
 67
     1
  8
0
100
AcDbBlockBegin
  2
*PAPER_SPACE
 70
     0
 10
0.0
 20
0.0
 30
0.0
  3
*PAPER_SPACE
  1

  0
ENDBLK
  5
17
100
AcDbEntity
 67
     1
  8
0
100
AcDbBlockEnd
   0
BLOCK
   5
63
 100
AcDbEntity
   8
0
 100
AcDbBlockBegin
   2
_ARCHTICK
  70
0
  10
0.0
  20
0.0
  30
0.0
   3
_ARCHTICK
   0
POLYLINE
   5
64
 100
AcDbEntity
   8
0
 370
-2
   6
BYBLOCK
  62
0
 100
AcDb2dPolyline
  66
1
  10
0.0
  20
0.0
  30
0.0
  70
1
  40
 0.15000000000000
  41
 0.15000000000000
   0
VERTEX
   5
65
 100
AcDbEntity
   8
0
   6
BYBLOCK
  62
0
 100
AcDbVertex
 100
AcDb2dVertex
  10
-0.50000000000000
  20
-0.50000000000000
  30
0.0
  40
 0.15000000000000
  41
 0.15000000000000
   0
VERTEX
   5
66
 100
AcDbEntity
   8
0
   6
BYBLOCK
  62
0
 100
AcDbVertex
 100
AcDb2dVertex
  10
 0.50000000000000
  20
 0.50000000000000
  30
0.0
  40
 0.15000000000000
  41
 0.15000000000000
   0
SEQEND
   5
67
 100
AcDbEntity
   8
0
   6
BYBLOCK
  62
0
   0
ENDBLK
   5
68
 100
AcDbEntity
   8
0
 100
AcDbBlockEnd
   0
BLOCK
   5
69
 100
AcDbEntity
   8
0
 100
AcDbBlockBegin
   2
_OBLIQUE
  70
0
  10
0.0
  20
0.0
  30
0.0
   3
_OBLIQUE
   0
LINE
   5
6A
 100
AcDbEntity
   8
0
 370
-2
 100
AcDbLine
   6
BYBLOCK
  62
0
  10
-0.50000000000000
  20
-0.50000000000000
  30
0.0
  11
 0.50000000000000
  21
 0.50000000000000
  31
0.0
   0
ENDBLK
   5
6B
 100
AcDbEntity
   8
0
 100
AcDbBlockEnd
   0
BLOCK
   5
6C
 100
AcDbEntity
   8
0
 100
AcDbBlockBegin
   2
_BOXBLANK
  70
0
  10
0.0
  20
0.0
  30
0.0
   3
_BOXBLANK
   0
LINE
   5
6D
 100
AcDbEntity
   8
0
 370
-2
 100
AcDbLine
   6
BYBLOCK
  62
0
  10
-0.50000000000000
  20
-0.50000000000000
  30
0.0
  11
 0.50000000000000
  21
-0.50000000000000
  31
0.0
   0
LINE
   5
6E
 100
AcDbEntity
   8
0
 370
-2
 100
AcDbLine
   6
BYBLOCK
  62
0
  10
 0.50000000000000
  20
-0.50000000000000
  30
0.0
  11
 0.50000000000000
  21
 0.50000000000000
  31
0.0
   0
LINE
   5
6F
 100
AcDbEntity
   8
0
 370
-2
 100
AcDbLine
   6
BYBLOCK
  62
0
  10
 0.50000000000000
  20
 0.50000000000000
  30
0.0
  11
-0.50000000000000
  21
 0.50000000000000
  31
0.0
   0
LINE
   5
70
 100
AcDbEntity
   8
0
 370
-2
 100
AcDbLine
   6
BYBLOCK
  62
0
  10
-0.50000000000000
  20
 0.50000000000000
  30
0.0
  11
-0.50000000000000
  21
-0.50000000000000
  31
0.0
   0
LINE
   5
71
 100
AcDbEntity
   8
0
 370
-2
 100
AcDbLine
   6
BYBLOCK
  62
0
  10
-0.50000000000000
  20
0.0
  30
0.0
  11
-1.0000000000000
  21
0.0
  31
0.0
   0
ENDBLK
   5
72
 100
AcDbEntity
   8
0
 100
AcDbBlockEnd
   0
BLOCK
   5
73
 100
AcDbEntity
   8
0
 100
AcDbBlockBegin
   2
_BOXFILLED
  70
0
  10
0.0
  20
0.0
  30
0.0
   3
_BOXFILLED
   0
SOLID
   5
74
 100
AcDbEntity
   8
0
 100
AcDbTrace
   6
BYBLOCK
  62
0
  10
-0.50000000000000
  20
 0.50000000000000
  30
0.0
  11
 0.50000000000000
  21
 0.50000000000000
  31
0.0
  12
-0.50000000000000
  22
-0.50000000000000
  32
0.0
  13
 0.50000000000000
  23
-0.50000000000000
  33
0.0
   0
LINE
   5
75
 100
AcDbEntity
   8
0
 370
-2
 100
AcDbLine
   6
BYBLOCK
  62
0
  10
-0.50000000000000
  20
0.0
  30
0.0
  11
-1.0000000000000
  21
0.0
  31
0.0
   0
ENDBLK
   5
76
 100
AcDbEntity
   8
0
 100
AcDbBlockEnd
   0
BLOCK
   5
77
 100
AcDbEntity
   8
0
 100
AcDbBlockBegin
   2
_CLOSED
  70
0
  10
0.0
  20
0.0
  30
0.0
   3
_CLOSED
   0
LINE
   5
78
 100
AcDbEntity
   8
0
 370
-2
 100
AcDbLine
   6
BYBLOCK
  62
0
  10
-1.0000000000000
  20
 0.16666666666667
  30
0.0
  11
0.0
  21
0.0
  31
0.0
   0
LINE
   5
79
 100
AcDbEntity
   8
0
 370
-2
 100
AcDbLine
   6
BYBLOCK
  62
0
  10
0.0
  20
0.0
  30
0.0
  11
-1.0000000000000
  21
-0.16666666666667
  31
0.0
   0
LINE
   5
7A
 100
AcDbEntity
   8
0
 370
-2
 100
AcDbLine
   6
BYBLOCK
  62
0
  10
-1.0000000000000
  20
 0.16666666666667
  30
0.0
  11
-1.0000000000000
  21
-0.16666666666667
  31
0.0
   0
LINE
   5
7B
 100
AcDbEntity
   8
0
 370
-2
 100
AcDbLine
   6
BYBLOCK
  62
0
  10
0.0
  20
0.0
  30
0.0
  11
-1.0000000000000
  21
0.0
  31
0.0
   0
ENDBLK
   5
7C
 100
AcDbEntity
   8
0
 100
AcDbBlockEnd
   0
BLOCK
   5
7D
 100
AcDbEntity
   8
0
 100
AcDbBlockBegin
   2
_OPEN
  70
0
  10
0.0
  20
0.0
  30
0.0
   3
_OPEN
   0
LINE
   5
7E
 100
AcDbEntity
   8
0
 370
-2
 100
AcDbLine
   6
BYBLOCK
  62
0
  10
-1.0000000000000
  20
 0.16666666666667
  30
0.0
  11
0.0
  21
0.0
  31
0.0
   0
LINE
   5
7F
 100
AcDbEntity
   8
0
 370
-2
 100
AcDbLine
   6
BYBLOCK
  62
0
  10
0.0
  20
0.0
  30
0.0
  11
-1.0000000000000
  21
-0.16666666666667
  31
0.0
   0
LINE
   5
80
 100
AcDbEntity
   8
0
 370
-2
 100
AcDbLine
   6
BYBLOCK
  62
0
  10
0.0
  20
0.0
  30
0.0
  11
-1.0000000000000
  21
0.0
  31
0.0
   0
ENDBLK
   5
81
 100
AcDbEntity
   8
0
 100
AcDbBlockEnd
   0
BLOCK
   5
82
 100
AcDbEntity
   8
0
 100
AcDbBlockBegin
   2
_OPEN30
  70
0
  10
0.0
  20
0.0
  30
0.0
   3
_OPEN30
   0
LINE
   5
83
 100
AcDbEntity
   8
0
 370
-2
 100
AcDbLine
   6
BYBLOCK
  62
0
  10
-1.0000000000000
  20
 0.26794919243110
  30
0.0
  11
0.0
  21
0.0
  31
0.0
   0
LINE
   5
84
 100
AcDbEntity
   8
0
 370
-2
 100
AcDbLine
   6
BYBLOCK
  62
0
  10
0.0
  20
0.0
  30
0.0
  11
-1.0000000000000
  21
-0.26794919243110
  31
0.0
   0
LINE
   5
85
 100
AcDbEntity
   8
0
 370
-2
 100
AcDbLine
   6
BYBLOCK
  62
0
  10
0.0
  20
0.0
  30
0.0
  11
-1.0000000000000
  21
0.0
  31
0.0
   0
ENDBLK
   5
86
 100
AcDbEntity
   8
0
 100
AcDbBlockEnd
   0
BLOCK
   5
87
 100
AcDbEntity
   8
0
 100
AcDbBlockBegin
   2
_OPEN90
  70
0
  10
0.0
  20
0.0
  30
0.0
   3
_OPEN90
   0
LINE
   5
88
 100
AcDbEntity
   8
0
 370
-2
 100
AcDbLine
   6
BYBLOCK
  62
0
  10
-0.50000000000000
  20
 0.50000000000000
  30
0.0
  11
0.0
  21
0.0
  31
0.0
   0
LINE
   5
89
 100
AcDbEntity
   8
0
 370
-2
 100
AcDbLine
   6
BYBLOCK
  62
0
  10
0.0
  20
0.0
  30
0.0
  11
-0.50000000000000
  21
-0.50000000000000
  31
0.0
   0
LINE
   5
8A
 100
AcDbEntity
   8
0
 370
-2
 100
AcDbLine
   6
BYBLOCK
  62
0
  10
0.0
  20
0.0
  30
0.0
  11
-1.0000000000000
  21
0.0
  31
0.0
   0
ENDBLK
   5
8B
 100
AcDbEntity
   8
0
 100
AcDbBlockEnd
   0
BLOCK
   5
8C
 100
AcDbEntity
   8
0
 100
AcDbBlockBegin
   2
_CLOSEDBLANK
  70
0
  10
0.0
  20
0.0
  30
0.0
   3
_CLOSEDBLANK
   0
LINE
   5
8D
 100
AcDbEntity
   8
0
 370
-2
 100
AcDbLine
   6
BYBLOCK
  62
0
  10
-1.0000000000000
  20
 0.16666666666667
  30
0.0
  11
0.0
  21
0.0
  31
0.0
   0
LINE
   5
8E
 100
AcDbEntity
   8
0
 370
-2
 100
AcDbLine
   6
BYBLOCK
  62
0
  10
0.0
  20
0.0
  30
0.0
  11
-1.0000000000000
  21
-0.16666666666667
  31
0.0
   0
LINE
   5
8F
 100
AcDbEntity
   8
0
 370
-2
 100
AcDbLine
   6
BYBLOCK
  62
0
  10
-1.0000000000000
  20
 0.16666666666667
  30
0.0
  11
-1.0000000000000
  21
-0.16666666666667
  31
0.0
   0
ENDBLK
   5
90
 100
AcDbEntity
   8
0
 100
AcDbBlockEnd
   0
BLOCK
   5
91
 100
AcDbEntity
   8
0
 100
AcDbBlockBegin
   2
_DOT
  70
0
  10
0.0
  20
0.0
  30
0.0
   3
_DOT
   0
POLYLINE
   5
92
 100
AcDbEntity
   8
0
 370
-2
   6
BYBLOCK
  62
0
 100
AcDb2dPolyline
  66
1
  10
0.0
  20
0.0
  30
0.0
  70
1
  40
 0.50000000000000
  41
 0.50000000000000
   0
VERTEX
   5
93
 100
AcDbEntity
   8
0
   6
BYBLOCK
  62
0
 100
AcDbVertex
 100
AcDb2dVertex
  10
-0.25000000000000
  20
0.0
  30
0.0
  42
 1.0000000000000
  40
 0.50000000000000
  41
 0.50000000000000
   0
VERTEX
   5
94
 100
AcDbEntity
   8
0
   6
BYBLOCK
  62
0
 100
AcDbVertex
 100
AcDb2dVertex
  10
 0.25000000000000
  20
0.0
  30
0.0
  42
 1.0000000000000
  40
 0.50000000000000
  41
 0.50000000000000
   0
SEQEND
   5
95
 100
AcDbEntity
   8
0
   6
BYBLOCK
  62
0
   0
LINE
   5
96
 100
AcDbEntity
   8
0
 370
-2
 100
AcDbLine
   6
BYBLOCK
  62
0
  10
-0.50000000000000
  20
0.0
  30
0.0
  11
-1.0000000000000
  21
0.0
  31
0.0
   0
ENDBLK
   5
97
 100
AcDbEntity
   8
0
 100
AcDbBlockEnd
   0
BLOCK
   5
98
 100
AcDbEntity
   8
0
 100
AcDbBlockBegin
   2
_DOTSMALL
  70
0
  10
0.0
  20
0.0
  30
0.0
   3
_DOTSMALL
   0
POLYLINE
   5
99
 100
AcDbEntity
   8
0
 370
-2
   6
BYBLOCK
  62
0
 100
AcDb2dPolyline
  66
1
  10
0.0
  20
0.0
  30
0.0
  70
1
  40
 0.50000000000000
  41
 0.50000000000000
   0
VERTEX
   5
9A
 100
AcDbEntity
   8
0
   6
BYBLOCK
  62
0
 100
AcDbVertex
 100
AcDb2dVertex
  10
-0.62500000000000E-1
  20
0.0
  30
0.0
  42
 1.0000000000000
  40
 0.50000000000000
  41
 0.50000000000000
   0
VERTEX
   5
9B
 100
AcDbEntity
   8
0
   6
BYBLOCK
  62
0
 100
AcDbVertex
 100
AcDb2dVertex
  10
 0.62500000000000E-1
  20
0.0
  30
0.0
  42
 1.0000000000000
  40
 0.50000000000000
  41
 0.50000000000000
   0
SEQEND
   5
9C
 100
AcDbEntity
   8
0
   6
BYBLOCK
  62
0
   0
ENDBLK
   5
9D
 100
AcDbEntity
   8
0
 100
AcDbBlockEnd
   0
BLOCK
   5
9E
 100
AcDbEntity
   8
0
 100
AcDbBlockBegin
   2
_DATUMBLANK
  70
0
  10
0.0
  20
0.0
  30
0.0
   3
_DATUMBLANK
   0
LINE
   5
9F
 100
AcDbEntity
   8
0
 370
-2
 100
AcDbLine
   6
BYBLOCK
  62
0
  10
0.0
  20
 0.57735027000000
  30
0.0
  11
-1.0000000000000
  21
0.0
  31
0.0
   0
LINE
   5
A0
 100
AcDbEntity
   8
0
 370
-2
 100
AcDbLine
   6
BYBLOCK
  62
0
  10
-1.0000000000000
  20
0.0
  30
0.0
  11
0.0
  21
-0.57735027000000
  31
0.0
   0
LINE
   5
A1
 100
AcDbEntity
   8
0
 370
-2
 100
AcDbLine
   6
BYBLOCK
  62
0
  10
0.0
  20
-0.57735027000000
  30
0.0
  11
0.0
  21
 0.57735027000000
  31
0.0
   0
ENDBLK
   5
A2
 100
AcDbEntity
   8
0
 100
AcDbBlockEnd
   0
BLOCK
   5
A3
 100
AcDbEntity
   8
0
 100
AcDbBlockBegin
   2
_DATUMFILLED
  70
0
  10
0.0
  20
0.0
  30
0.0
   3
_DATUMFILLED
   0
SOLID
   5
A4
 100
AcDbEntity
   8
0
 100
AcDbTrace
   6
BYBLOCK
  62
0
  10
0.0
  20
 0.57735027000000
  30
0.0
  11
-1.0000000000000
  21
0.0
  31
0.0
  12
0.0
  22
-0.57735027000000
  32
0.0
  13
0.0
  23
-0.57735027000000
  33
0.0
   0
ENDBLK
   5
A5
 100
AcDbEntity
   8
0
 100
AcDbBlockEnd
   0
BLOCK
   5
A6
 100
AcDbEntity
   8
0
 100
AcDbBlockBegin
   2
_ORIGIN
  70
0
  10
0.0
  20
0.0
  30
0.0
   3
_ORIGIN
   0
CIRCLE
   5
A7
 100
AcDbEntity
   8
0
 370
-2
 100
AcDbCircle
   6
BYBLOCK
  62
0
  10
0.0
  20
0.0
  30
0.0
  40
 0.50000000000000
   0
LINE
   5
A8
 100
AcDbEntity
   8
0
 370
-2
 100
AcDbLine
   6
BYBLOCK
  62
0
  10
0.0
  20
0.0
  30
0.0
  11
-1.0000000000000
  21
0.0
  31
0.0
   0
ENDBLK
   5
A9
 100
AcDbEntity
   8
0
 100
AcDbBlockEnd
   0
BLOCK
   5
AA
 100
AcDbEntity
   8
0
 100
AcDbBlockBegin
   2
_NONE
  70
0
  10
0.0
  20
0.0
  30
0.0
   3
_NONE
   0
CIRCLE
   5
AB
 100
AcDbEntity
   8
0
 370
-2
 100
AcDbCircle
   6
BYBLOCK
  62
0
  10
0.0
  20
0.0
  30
0.0
  40
 0.25000000000000
   0
ENDBLK
   5
AC
 100
AcDbEntity
   8
0
 100
AcDbBlockEnd
   0
BLOCK
   5
AD
 100
AcDbEntity
   8
0
 100
AcDbBlockBegin
   2
_DOTBLANK
  70
0
  10
0.0
  20
0.0
  30
0.0
   3
_DOTBLANK
   0
CIRCLE
   5
AE
 100
AcDbEntity
   8
0
 370
-2
 100
AcDbCircle
   6
BYBLOCK
  62
0
  10
0.0
  20
0.0
  30
0.0
  40
 0.50000000000000
   0
LINE
   5
AF
 100
AcDbEntity
   8
0
 370
-2
 100
AcDbLine
   6
BYBLOCK
  62
0
  10
-0.50000000000000
  20
0.0
  30
0.0
  11
-1.0000000000000
  21
0.0
  31
0.0
   0
ENDBLK
   5
B0
 100
AcDbEntity
   8
0
 100
AcDbBlockEnd
   0
BLOCK
   5
B1
 100
AcDbEntity
   8
0
 100
AcDbBlockBegin
   2
_INTEGRAL
  70
0
  10
0.0
  20
0.0
  30
0.0
   3
_INTEGRAL
   0
ARC
   5
B2
 100
AcDbEntity
   8
0
 370
-2
   6
BYBLOCK
  62
0
 100
AcDbCircle
  10
 0.44488800000000
  20
-0.91335000000000E-1
  30
0.0
  40
 0.45416700000000
 100
AcDbArc
  50
 102.00000000000
  51
 168.00000000000
   0
ARC
   5
B3
 100
AcDbEntity
   8
0
 370
-2
   6
BYBLOCK
  62
0
 100
AcDbCircle
  10
-0.44488800000000
  20
 0.91335000000000E-1
  30
0.0
  40
 0.45416700000000
 100
AcDbArc
  50
 282.00000000000
  51
 348.00000000000
   0
ENDBLK
   5
B4
 100
AcDbEntity
   8
0
 100
AcDbBlockEnd
   0
BLOCK
   5
B5
 100
AcDbEntity
   8
0
 100
AcDbBlockBegin
   2
*D2
  70
65
  10
0.0
  20
0.0
  30
0.0
   3
*D2
   0
LINE
   5
B6
 100
AcDbEntity
   8
LEVEL001
 370
13
 100
AcDbLine
   6
CONTINUOUS
  62
6
  10
 1352.4882492755
  20
 5120.0000109503
  30
0.0
  11
 486.46285813540
  21
 4619.9999890497
  31
0.0
   0
INSERT
   5
B7
 100
AcDbEntity
   8
LEVEL001
   6
CONTINUOUS
  62
6
 100
AcDbBlockReference
   2
_OPEN
  10
 1352.4882492755
  20
 5120.0000109503
  30
0.0
  41
 30.000000000000
  42
 30.000000000000
  43
 30.000000000000
  50
 30.000001448936
   0
INSERT
   5
B8
 100
AcDbEntity
   8
LEVEL001
   6
CONTINUOUS
  62
6
 100
AcDbBlockReference
   2
_OPEN
  10
 486.46285813540
  20
 4619.9999890497
  30
0.0
  41
 30.000000000000
  42
 30.000000000000
  43
 30.000000000000
  50
 210.00000144894
   0
MTEXT
   5
B9
 100
AcDbEntity
   8
LEVEL001
 370
13
  62
1
 100
AcDbMText
  10
 905.33269594311
  20
 4894.4961467780
  30
0.0
  40
 66.000000000000
  41
0.0
  71
8
  72
1
   1
\A1;%%c1000
   7
GMM002
  11
 0.86602539114009
  21
 0.50000002190065
  31
0.0
   0
ENDBLK
   5
BA
 100
AcDbEntity
   8
0
 100
AcDbBlockEnd
   0
BLOCK
   5
BB
 100
AcDbEntity
   8
0
 100
AcDbBlockBegin
   2
*D3
  70
65
  10
0.0
  20
0.0
  30
0.0
   3
*D3
   0
LINE
   5
BC
 100
AcDbEntity
   8
LEVEL001
 370
13
 100
AcDbLine
   6
CONTINUOUS
  62
6
  10
 2552.4882492755
  20
 5120.0000109503
  30
0.0
  11
 1686.4628581354
  21
 4619.9999890497
  31
0.0
   0
INSERT
   5
BD
 100
AcDbEntity
   8
LEVEL001
   6
CONTINUOUS
  62
6
 100
AcDbBlockReference
   2
_OPEN
  10
 2552.4882492755
  20
 5120.0000109503
  30
0.0
  41
 30.000000000000
  42
 30.000000000000
  43
 30.000000000000
  50
 30.000001448929
   0
INSERT
   5
BE
 100
AcDbEntity
   8
LEVEL001
   6
CONTINUOUS
  62
6
 100
AcDbBlockReference
   2
_OPEN
  10
 1686.4628581354
  20
 4619.9999890497
  30
0.0
  41
 30.000000000000
  42
 30.000000000000
  43
 30.000000000000
  50
 210.00000144893
   0
MTEXT
   5
BF
 100
AcDbEntity
   8
LEVEL001
 370
13
  62
1
 100
AcDbMText
  10
 2105.3326959431
  20
 4894.4961467780
  30
0.0
  40
 66.000000000000
  41
0.0
  71
8
  72
1
   1
\A1;%%c1000
   7
GMM002
  11
 0.86602539114015
  21
 0.50000002190055
  31
0.0
   0
ENDBLK
   5
C0
 100
AcDbEntity
   8
0
 100
AcDbBlockEnd
   0
BLOCK
   5
C1
 100
AcDbEntity
   8
0
 100
AcDbBlockBegin
   2
*D6
  70
65
  10
0.0
  20
0.0
  30
0.0
   3
*D6
   0
LINE
   5
C2
 100
AcDbEntity
   8
LEVEL001
 370
13
 100
AcDbLine
   6
CONTINUOUS
  62
6
  10
 1239.4755537054
  20
 269.99999999280
  30
0.0
  11
 614.47555370545
  21
 269.99999999280
  31
0.0
   0
LINE
   5
C3
 100
AcDbEntity
   8
LEVEL001
 370
13
 100
AcDbLine
   6
CONTINUOUS
  62
6
  10
 1239.4755537054
  20
 369.99999999280
  30
0.0
  11
 614.47555370545
  21
 369.99999999280
  31
0.0
   0
LINE
   5
C4
 100
AcDbEntity
   8
LEVEL001
 370
13
 100
AcDbLine
   6
CONTINUOUS
  62
6
  10
 644.47555370545
  20
 269.99999999280
  30
0.0
  11
 644.47555370545
  21
 369.99999999280
  31
0.0
   0
INSERT
   5
C5
 100
AcDbEntity
   8
LEVEL001
   6
CONTINUOUS
  62
6
 100
AcDbBlockReference
   2
_OPEN
  10
 644.47555370545
  20
 269.99999999280
  30
0.0
  41
 30.000000000000
  42
 30.000000000000
  43
 30.000000000000
  50
 270.00000000000
   0
INSERT
   5
C6
 100
AcDbEntity
   8
LEVEL001
   6
CONTINUOUS
  62
6
 100
AcDbBlockReference
   2
_OPEN
  10
 644.47555370545
  20
 369.99999999280
  30
0.0
  41
 30.000000000000
  42
 30.000000000000
  43
 30.000000000000
  50
 90.000000000000
   0
MTEXT
   5
C7
 100
AcDbEntity
   8
LEVEL001
 370
13
  62
1
 100
AcDbMText
  10
 616.18983941973
  20
 319.99999999280
  30
0.0
  40
 66.000000000000
  41
0.0
  71
8
  72
1
   1
\A1;100
   7
GMM002
  11
0.0
  21
 1.0000000000000
  31
0.0
   0
ENDBLK
   5
C8
 100
AcDbEntity
   8
0
 100
AcDbBlockEnd
   0
BLOCK
   5
C9
 100
AcDbEntity
   8
0
 100
AcDbBlockBegin
   2
*D7
  70
65
  10
0.0
  20
0.0
  30
0.0
   3
*D7
   0
LINE
   5
CA
 100
AcDbEntity
   8
LEVEL001
 370
13
 100
AcDbLine
   6
CONTINUOUS
  62
6
  10
 1239.4755537054
  20
 369.99999999280
  30
0.0
  11
 614.47555370545
  21
 369.99999999280
  31
0.0
   0
LINE
   5
CB
 100
AcDbEntity
   8
LEVEL001
 370
13
 100
AcDbLine
   6
CONTINUOUS
  62
6
  10
 939.47561894041
  20
 1869.9999999928
  30
0.0
  11
 614.47555370545
  21
 1869.9999999928
  31
0.0
   0
LINE
   5
CC
 100
AcDbEntity
   8
LEVEL001
 370
13
 100
AcDbLine
   6
CONTINUOUS
  62
6
  10
 644.47555370545
  20
 369.99999999280
  30
0.0
  11
 644.47555370545
  21
 1869.9999999928
  31
0.0
   0
INSERT
   5
CD
 100
AcDbEntity
   8
LEVEL001
   6
CONTINUOUS
  62
6
 100
AcDbBlockReference
   2
_OPEN
  10
 644.47555370545
  20
 369.99999999280
  30
0.0
  41
 30.000000000000
  42
 30.000000000000
  43
 30.000000000000
  50
 270.00000000000
   0
INSERT
   5
CE
 100
AcDbEntity
   8
LEVEL001
   6
CONTINUOUS
  62
6
 100
AcDbBlockReference
   2
_OPEN
  10
 644.47555370545
  20
 1869.9999999928
  30
0.0
  41
 30.000000000000
  42
 30.000000000000
  43
 30.000000000000
  50
 90.000000000000
   0
MTEXT
   5
CF
 100
AcDbEntity
   8
LEVEL001
 370
13
  62
1
 100
AcDbMText
  10
 616.18983941973
  20
 1119.9999999928
  30
0.0
  40
 66.000000000000
  41
0.0
  71
8
  72
1
   1
\A1;1500
   7
GMM002
  11
0.0
  21
 1.0000000000000
  31
0.0
   0
ENDBLK
   5
D0
 100
AcDbEntity
   8
0
 100
AcDbBlockEnd
   0
BLOCK
   5
D1
 100
AcDbEntity
   8
0
 100
AcDbBlockBegin
   2
*D8
  70
65
  10
0.0
  20
0.0
  30
0.0
   3
*D8
   0
LINE
   5
D2
 100
AcDbEntity
   8
LEVEL001
 370
13
 100
AcDbLine
   6
CONTINUOUS
  62
6
  10
 939.47561894041
  20
 1869.9999999928
  30
0.0
  11
 614.47555370545
  21
 1869.9999999928
  31
0.0
   0
LINE
   5
D3
 100
AcDbEntity
   8
LEVEL001
 370
13
 100
AcDbLine
   6
CONTINUOUS
  62
6
  10
 889.47562559297
  20
 4369.9999999928
  30
0.0
  11
 614.47555370545
  21
 4369.9999999928
  31
0.0
   0
LINE
   5
D4
 100
AcDbEntity
   8
LEVEL001
 370
13
 100
AcDbLine
   6
CONTINUOUS
  62
6
  10
 644.47555370545
  20
 1869.9999999928
  30
0.0
  11
 644.47555370545
  21
 4369.9999999928
  31
0.0
   0
INSERT
   5
D5
 100
AcDbEntity
   8
LEVEL001
   6
CONTINUOUS
  62
6
 100
AcDbBlockReference
   2
_OPEN
  10
 644.47555370545
  20
 1869.9999999928
  30
0.0
  41
 30.000000000000
  42
 30.000000000000
  43
 30.000000000000
  50
 270.00000000000
   0
INSERT
   5
D6
 100
AcDbEntity
   8
LEVEL001
   6
CONTINUOUS
  62
6
 100
AcDbBlockReference
   2
_OPEN
  10
 644.47555370545
  20
 4369.9999999928
  30
0.0
  41
 30.000000000000
  42
 30.000000000000
  43
 30.000000000000
  50
 90.000000000000
   0
MTEXT
   5
D7
 100
AcDbEntity
   8
LEVEL001
 370
13
  62
1
 100
AcDbMText
  10
 616.18983941973
  20
 3119.9999999928
  30
0.0
  40
 66.000000000000
  41
0.0
  71
8
  72
1
   1
\A1;2500(標準設置高さ)
   7
GMM002
  11
0.0
  21
 1.0000000000000
  31
0.0
   0
ENDBLK
   5
D8
 100
AcDbEntity
   8
0
 100
AcDbBlockEnd
   0
BLOCK
   5
D9
 100
AcDbEntity
   8
0
 100
AcDbBlockBegin
   2
*D20
  70
65
  10
0.0
  20
0.0
  30
0.0
   3
*D20
   0
LINE
   5
DA
 100
AcDbEntity
   8
LEVEL001
 370
13
 100
AcDbLine
   6
CONTINUOUS
  62
6
  10
 1269.4755537054
  20
 1494.9999999928
  30
0.0
  11
 1269.4755537054
  21
 1494.9999999928
  31
0.0
   0
LINE
   5
DB
 100
AcDbEntity
   8
LEVEL001
 370
13
 100
AcDbLine
   6
CONTINUOUS
  62
6
  10
 1769.4755537054
  20
 1494.9999999928
  30
0.0
  11
 1769.4755537054
  21
 1494.9999999928
  31
0.0
   0
LINE
   5
DC
 100
AcDbEntity
   8
LEVEL001
 370
13
 100
AcDbLine
   6
CONTINUOUS
  62
6
  10
 1269.4755537054
  20
 1494.9999999928
  30
0.0
  11
 1769.4755537054
  21
 1494.9999999928
  31
0.0
   0
LINE
   5
DD
 100
AcDbEntity
   8
LEVEL001
 370
13
 100
AcDbLine
   6
CONTINUOUS
  62
6
  10
 1769.4755537054
  20
 1494.9999999928
  30
0.0
  11
 2012.6822000223
  21
 1494.9999999928
  31
0.0
   0
INSERT
   5
DE
 100
AcDbEntity
   8
LEVEL001
   6
CONTINUOUS
  62
6
 100
AcDbBlockReference
   2
_OPEN
  10
 1269.4755537054
  20
 1494.9999999928
  30
0.0
  41
 30.000000000000
  42
 30.000000000000
  43
 30.000000000000
  50
 180.00000000000
   0
INSERT
   5
DF
 100
AcDbEntity
   8
LEVEL001
   6
CONTINUOUS
  62
6
 100
AcDbBlockReference
   2
_OPEN
  10
 1769.4755537054
  20
 1494.9999999928
  30
0.0
  41
 30.000000000000
  42
 30.000000000000
  43
 30.000000000000
  50
0.0
   0
MTEXT
   5
E0
 100
AcDbEntity
   8
LEVEL001
 370
13
  62
1
 100
AcDbMText
  10
 1804.6822000223
  20
 1523.2857142785
  30
0.0
  40
 66.000000000000
  41
0.0
  71
7
  72
1
   1
\A1;□500
   7
GMM002
   0
ENDBLK
   5
E1
 100
AcDbEntity
   8
0
 100
AcDbBlockEnd
   0
BLOCK
   5
E2
 100
AcDbEntity
   8
0
 100
AcDbBlockBegin
   2
*D21
  70
65
  10
0.0
  20
0.0
  30
0.0
   3
*D21
   0
LINE
   5
E3
 100
AcDbEntity
   8
LEVEL001
 370
13
 100
AcDbLine
   6
CONTINUOUS
  62
6
  10
 3644.4755537054
  20
 1494.9999999928
  30
0.0
  11
 3644.4755537054
  21
 1494.9999999928
  31
0.0
   0
LINE
   5
E4
 100
AcDbEntity
   8
LEVEL001
 370
13
 100
AcDbLine
   6
CONTINUOUS
  62
6
  10
 3144.4755537054
  20
 1494.9999999928
  30
0.0
  11
 3144.4755537054
  21
 1494.9999999928
  31
0.0
   0
LINE
   5
E5
 100
AcDbEntity
   8
LEVEL001
 370
13
 100
AcDbLine
   6
CONTINUOUS
  62
6
  10
 3644.4755537054
  20
 1494.9999999928
  30
0.0
  11
 3144.4755537054
  21
 1494.9999999928
  31
0.0
   0
LINE
   5
E6
 100
AcDbEntity
   8
LEVEL001
 370
13
 100
AcDbLine
   6
CONTINUOUS
  62
6
  10
 3144.4755537054
  20
 1494.9999999928
  30
0.0
  11
 2901.2689073886
  21
 1494.9999999928
  31
0.0
   0
INSERT
   5
E7
 100
AcDbEntity
   8
LEVEL001
   6
CONTINUOUS
  62
6
 100
AcDbBlockReference
   2
_OPEN
  10
 3644.4755537054
  20
 1494.9999999928
  30
0.0
  41
 30.000000000000
  42
 30.000000000000
  43
 30.000000000000
  50
0.0
   0
INSERT
   5
E8
 100
AcDbEntity
   8
LEVEL001
   6
CONTINUOUS
  62
6
 100
AcDbBlockReference
   2
_OPEN
  10
 3144.4755537054
  20
 1494.9999999928
  30
0.0
  41
 30.000000000000
  42
 30.000000000000
  43
 30.000000000000
  50
 180.00000000000
   0
MTEXT
   5
E9
 100
AcDbEntity
   8
LEVEL001
 370
13
  62
1
 100
AcDbMText
  10
 3109.2689073886
  20
 1523.2857142785
  30
0.0
  40
 66.000000000000
  41
0.0
  71
9
  72
1
   1
\A1;□500
   7
GMM002
   0
ENDBLK
   5
EA
 100
AcDbEntity
   8
0
 100
AcDbBlockEnd
   0
ENDSEC
   0
SECTION
   2
ENTITIES
   0
LINE
   5
EB
 100
AcDbEntity
   8
LEVEL001
 370
13
 100
AcDbLine
   6
CONTINUOUS
  62
6
  10
 8121.1424238226
  20
 3520.0000000000
  30
0.0
  11
 8121.1424238226
  21
 870.00000000000
  31
0.0
   0
LINE
   5
EC
 100
AcDbEntity
   8
LEVEL001
 370
13
 100
AcDbLine
   6
CONTINUOUS
  62
6
  10
 5605.3846446145
  20
 870.00000000000
  30
0.0
  11
 8121.1424238226
  21
 870.00000000000
  31
0.0
   0
LWPOLYLINE
   5
ED
 100
AcDbEntity
   8
LEVEL001
 370
13
   6
CONTINUOUS
  62
7
 100
AcDbPolyline
  90
4
  70
1
  10
 334.47555370545
  20
 170.00000000000
  10
 334.47555370545
  20
 5770.0000000000
  10
 8121.1424238226
  20
 5770.0000000000
  10
 8121.1424238226
  20
 170.00000000000
   0
LINE
   5
EE
 100
AcDbEntity
   8
LEVEL001
 370
13
 100
AcDbLine
   6
CONTINUOUS
  62
1
  10
 5605.3846446145
  20
 650.00000000000
  30
0.0
  11
 7245.3846446145
  21
 650.00000000000
  31
0.0
   0
MTEXT
   5
F0
 100
AcDbEntity
   8
LEVEL001
 370
13
  62
1
 100
AcDbMText
  10
 1519.4755537054
  20
 5670.0000000000
  30
0.0
  40
 80.000000000000
  41
0.0
  71
5
  72
1
   1
\T1.000000;正　面　図
   7
GMM001
  44
 0.79999984000003
   0
MTEXT
   5
F2
 100
AcDbEntity
   8
LEVEL001
 370
13
  62
1
 100
AcDbMText
  10
 3394.4755537054
  20
 5670.0000000000
  30
0.0
  40
 80.000000000000
  41
0.0
  71
5
  72
1
   1
\T1.000000;側　面　図
   7
GMM001
  44
 0.79999984000003
   0
MTEXT
   5
F4
 100
AcDbEntity
   8
LEVEL001
 370
13
  62
1
 100
AcDbMText
  10
 4644.4755537054
  20
 5670.0000000000
  30
0.0
  40
 80.000000000000
  41
0.0
  71
5
  72
1
   1
\T1.000000;背　面　図
   7
GMM001
  44
 0.79999984000003
   0
CIRCLE
   5
F5
 100
AcDbEntity
   8
LEVEL001
 370
13
 100
AcDbCircle
   6
CONTINUOUS
  62
1
  10
 2519.4755537054
  20
 5494.9999999928
  30
0.0
  40
 69.999997913838
   0
MTEXT
   5
F7
 100
AcDbEntity
   8
LEVEL001
 370
13
  62
7
 100
AcDbMText
  10
 2519.4755537054
  20
 5494.9999999928
  30
0.0
  40
 66.000000000000
  41
0.0
  71
5
  72
1
   1
\T1.000000;３
   7
GMM002
  44
 0.79999984000003
   0
CIRCLE
   5
F8
 100
AcDbEntity
   8
LEVEL001
 370
13
 100
AcDbCircle
   6
CONTINUOUS
  62
1
  10
 3644.4755537054
  20
 5369.9999999928
  30
0.0
  40
 69.999997913838
   0
MTEXT
   5
FA
 100
AcDbEntity
   8
LEVEL001
 370
13
  62
7
 100
AcDbMText
  10
 3644.4755537054
  20
 5369.9999999928
  30
0.0
  40
 66.000000000000
  41
0.0
  71
5
  72
1
   1
\T1.000000;１４
   7
GMM002
  44
 0.79999984000003
   0
LEADER
   5
FB
 100
AcDbEntity
   8
LEVEL001
 370
13
   6
CONTINUOUS
  62
1
 100
AcDbLeader
   3
GMM001
  73
3
  74
1
  75
0
  40
 66.000000000000
  41
0.0
  76
2
  10
 3394.4755537054
  20
 5173.9999999928
  30
0.0
  10
 3589.3874247881
  20
 5326.8109069215
  30
0.0
  77
1
   0
LWPOLYLINE
   5
FC
 100
AcDbEntity
   8
LEVEL001
 370
13
   6
CONTINUOUS
  62
7
 100
AcDbPolyline
  90
4
  70
0
  10
 1468.6755537056
  20
 4959.9999584717
  10
 1468.6755537056
  20
 5169.9999999928
  10
 1570.2755537056
  20
 5169.9999999928
  10
 1570.2755537056
  20
 4959.9999584717
   0
CIRCLE
   5
FD
 100
AcDbEntity
   8
LEVEL001
 370
13
 100
AcDbCircle
   6
CONTINUOUS
  62
7
  10
 919.47555370545
  20
 4870.0000000000
  30
0.0
  40
 500.00000000000
   0
ARC
   5
FE
 100
AcDbEntity
   8
LEVEL001
 370
13
   6
CONTINUOUS
  62
7
 100
AcDbCircle
  10
 919.47555370545
  20
 4870.0000000000
  30
0.0
  40
 507.00000000000
 100
AcDbArc
  50
 18.753603132103
  51
 161.24639686790
   0
LINE
   5
FF
 100
AcDbEntity
   8
LEVEL001
 370
13
 100
AcDbLine
   6
CONTINUOUS
  62
7
  10
 439.39222760465
  20
 5033.0000000000
  30
0.0
  11
 446.79066924224
  21
 5033.0000000000
  31
0.0
   0
LINE
   5
100
 100
AcDbEntity
   8
LEVEL001
 370
13
 100
AcDbLine
   6
CONTINUOUS
  62
7
  10
 1399.5588798062
  20
 5033.0000000000
  30
0.0
  11
 1392.1604381687
  21
 5033.0000000000
  31
0.0
   0
CIRCLE
   5
101
 100
AcDbEntity
   8
LEVEL001
 370
13
 100
AcDbCircle
   6
CONTINUOUS
  62
2
  10
 919.47555370545
  20
 4870.0000000000
  30
0.0
  40
 483.00000000000
   0
ARC
   5
102
 100
AcDbEntity
   8
LEVEL001
 370
13
   6
CONTINUOUS
  62
1
 100
AcDbCircle
  10
 1050.6968095724
  20
 5359.7243939286
  30
0.0
  40
 7.5000000000000
 100
AcDbArc
  50
 344.57621078442
  51
 165.42378921560
   0
ARC
   5
103
 100
AcDbEntity
   8
LEVEL001
 370
13
   6
CONTINUOUS
  62
1
 100
AcDbCircle
  10
 788.25415701832
  20
 5359.7243561959
  30
0.0
  40
 7.5000000000000
 100
AcDbArc
  50
 14.576227259862
  51
 195.42380569092
   0
ARC
   5
104
 100
AcDbEntity
   8
LEVEL001
 370
13
   6
CONTINUOUS
  62
1
 100
AcDbCircle
  10
 1378.9736017330
  20
 5084.2674587027
  30
0.0
  40
 7.5000000000000
 100
AcDbArc
  50
 294.57621078404
  51
 115.42378921599
   0
ARC
   5
105
 100
AcDbEntity
   8
LEVEL001
 370
13
   6
CONTINUOUS
  62
1
 100
AcDbCircle
  10
 459.97744406547
  20
 5084.2673265740
  30
0.0
  40
 7.5000000000000
 100
AcDbArc
  50
 64.576227260807
  51
 245.42380568996
   0
ARC
   5
106
 100
AcDbEntity
   8
LEVEL001
 370
13
   6
CONTINUOUS
  62
1
 100
AcDbCircle
  10
 1245.3688718165
  20
 5258.3845326614
  30
0.0
  40
 7.5000000000000
 100
AcDbArc
  50
 319.57621078404
  51
 140.42378921600
   0
ARC
   5
107
 100
AcDbEntity
   8
LEVEL001
 370
13
   6
CONTINUOUS
  62
1
 100
AcDbCircle
  10
 593.58212391446
  20
 5258.3844389508
  30
0.0
  40
 7.5000000000000
 100
AcDbArc
  50
 39.576227259684
  51
 220.42380569108
   0
DIMENSION
   5
108
 100
AcDbEntity
   8
LEVEL001
 370
13
   6
CONTINUOUS
  62
6
 100
AcDbDimension
   2
*D2
  10
 1352.4882492755
  20
 5120.0000109503
  30
0.0
  11
 905.33269594311
  21
 4894.4961467780
  31
0.0
  70
3
   3
GMM002
 100
AcDbDiametricDimension
  15
 486.46285813540
  25
 4619.9999890497
  35
0.0
   0
ARC
   5
109
 100
AcDbEntity
   8
LEVEL001
 370
13
   6
CONTINUOUS
  62
1
 100
AcDbCircle
  10
 1404.6234342345
  20
 4749.0391219523
  30
0.0
  40
 7.5000000000000
 100
AcDbArc
  50
 255.57028586320
  51
 76.429730612155
   0
ARC
   5
10A
 100
AcDbEntity
   8
LEVEL001
 370
13
   6
CONTINUOUS
  62
1
 100
AcDbCircle
  10
 434.32770795870
  20
 4749.0389824481
  30
0.0
  40
 7.5000000000000
 100
AcDbArc
  50
 103.57028586336
  51
 284.42973061208
   0
ARC
   5
10B
 100
AcDbEntity
   8
LEVEL001
 370
13
   6
CONTINUOUS
  62
1
 100
AcDbCircle
  10
 919.47562559292
  20
 4370.0000000000
  30
0.0
  40
 7.5000000000000
 100
AcDbArc
  50
 179.57028586264
  51
 0.42973061271037
   0
ARC
   5
10C
 100
AcDbEntity
   8
LEVEL001
 370
13
   6
CONTINUOUS
  62
1
 100
AcDbCircle
  10
 1227.3063480164
  20
 4475.9946674550
  30
0.0
  40
 7.5000000000000
 100
AcDbArc
  50
 217.57028586249
  51
 38.429730612858
   0
ARC
   5
10D
 100
AcDbEntity
   8
LEVEL001
 370
13
   6
CONTINUOUS
  62
1
 100
AcDbCircle
  10
 611.64487269071
  20
 4475.9945789383
  30
0.0
  40
 7.5000000000000
 100
AcDbArc
  50
 141.57028586256
  51
 322.42973061289
   0
LINE
   5
10E
 100
AcDbEntity
   8
LEVEL001
 370
13
 100
AcDbLine
   6
DASHDOT
  62
6
  10
 1469.4755537054
  20
 4870.0000000000
  30
0.0
  11
 369.47555370545
  21
 4870.0000000000
  31
0.0
   0
LWPOLYLINE
   5
10F
 100
AcDbEntity
   8
LEVEL001
 370
13
   6
CONTINUOUS
  62
7
 100
AcDbPolyline
  90
4
  70
1
  10
 1455.8875467846
  20
 4757.9999584717
  10
 1441.8875467846
  20
 4757.9999584717
  10
 1441.8875467846
  20
 4771.9999584717
  10
 1455.8875467846
  20
 4771.9999584717
   0
LWPOLYLINE
   5
110
 100
AcDbEntity
   8
LEVEL001
 370
13
   6
CONTINUOUS
  62
7
 100
AcDbPolyline
  90
4
  70
1
  10
 1455.8875467846
  20
 4817.9999584717
  10
 1441.8875467846
  20
 4817.9999584717
  10
 1441.8875467846
  20
 4831.9999584717
  10
 1455.8875467846
  20
 4831.9999584717
   0
LWPOLYLINE
   5
111
 100
AcDbEntity
   8
LEVEL001
 370
13
   6
CONTINUOUS
  62
7
 100
AcDbPolyline
  90
6
  70
0
  10
 1573.4755537054
  20
 4754.9999584717
  10
 1573.4755537054
  20
 4739.9999584717
  10
 1428.8875467846
  20
 4739.9999584717
  10
 1428.8875467846
  20
 4849.9999584717
  10
 1573.4755537054
  20
 4849.9999584717
  10
 1573.4755537054
  20
 4814.9999584717
   0
LWPOLYLINE
   5
112
 100
AcDbEntity
   8
LEVEL001
 370
13
   6
CONTINUOUS
  62
7
 100
AcDbPolyline
  90
4
  70
1
  10
 1583.0635606263
  20
 4941.9999584717
  10
 1597.0635606263
  20
 4941.9999584717
  10
 1597.0635606263
  20
 4927.9999584717
  10
 1583.0635606263
  20
 4927.9999584717
   0
LWPOLYLINE
   5
113
 100
AcDbEntity
   8
LEVEL001
 370
13
   6
CONTINUOUS
  62
7
 100
AcDbPolyline
  90
4
  70
1
  10
 1583.0635606263
  20
 4881.9999584717
  10
 1597.0635606263
  20
 4881.9999584717
  10
 1597.0635606263
  20
 4867.9999584717
  10
 1583.0635606263
  20
 4867.9999584717
   0
LWPOLYLINE
   5
114
 100
AcDbEntity
   8
LEVEL001
 370
13
   6
CONTINUOUS
  62
7
 100
AcDbPolyline
  90
6
  70
0
  10
 1465.4755537054
  20
 4938.6380767874
  10
 1465.4755537054
  20
 4959.9999584717
  10
 1610.0635606263
  20
 4959.9999584717
  10
 1610.0635606263
  20
 4849.9999584717
  10
 1465.4755537054
  20
 4849.9999584717
  10
 1465.4755537054
  20
 4871.2985025293
   0
LINE
   5
115
 100
AcDbEntity
   8
LEVEL001
 370
13
 100
AcDbLine
   6
DASHDOT
  62
6
  10
 919.47555370545
  20
 5420.0000000000
  30
0.0
  11
 919.47555370545
  21
 4320.0000000000
  31
0.0
   0
LWPOLYLINE
   5
116
 100
AcDbEntity
   8
LEVEL001
 370
13
   6
CONTINUOUS
  62
7
 100
AcDbPolyline
  90
4
  70
0
  10
 1418.9737502060
  20
 4847.6046501989
  10
 1467.6007043081
  20
 4872.3813208454
  10
 1467.6007043081
  20
 4939.7208951034
  10
 1417.5178676571
  20
 4914.2024152469
   0
CIRCLE
   5
117
 100
AcDbEntity
   8
LEVEL001
 370
13
 100
AcDbCircle
   6
CONTINUOUS
  62
7
  10
 2119.4755537054
  20
 4870.0000000000
  30
0.0
  40
 500.00000000000
   0
ARC
   5
118
 100
AcDbEntity
   8
LEVEL001
 370
13
   6
CONTINUOUS
  62
7
 100
AcDbCircle
  10
 2119.4755537054
  20
 4870.0000000000
  30
0.0
  40
 507.00000000000
 100
AcDbArc
  50
 18.753603132103
  51
 161.24639686790
   0
LINE
   5
119
 100
AcDbEntity
   8
LEVEL001
 370
13
 100
AcDbLine
   6
CONTINUOUS
  62
7
  10
 1639.3922276047
  20
 5033.0000000000
  30
0.0
  11
 1646.7906692422
  21
 5033.0000000000
  31
0.0
   0
CIRCLE
   5
11A
 100
AcDbEntity
   8
LEVEL001
 370
13
 100
AcDbCircle
   6
CONTINUOUS
  62
2
  10
 2119.4755537054
  20
 4870.0000000000
  30
0.0
  40
 483.00000000000
   0
ARC
   5
11B
 100
AcDbEntity
   8
LEVEL001
 370
13
   6
CONTINUOUS
  62
1
 100
AcDbCircle
  10
 1659.9774440655
  20
 5084.2673265740
  30
0.0
  40
 7.5000000000000
 100
AcDbArc
  50
 64.576227260855
  51
 245.42380568991
   0
DIMENSION
   5
11C
 100
AcDbEntity
   8
LEVEL001
 370
13
   6
CONTINUOUS
  62
6
 100
AcDbDimension
   2
*D3
  10
 2552.4882492755
  20
 5120.0000109503
  30
0.0
  11
 2105.3326959431
  21
 4894.4961467780
  31
0.0
  70
3
   3
GMM002
 100
AcDbDiametricDimension
  15
 1686.4628581354
  25
 4619.9999890497
  35
0.0
   0
ARC
   5
11D
 100
AcDbEntity
   8
LEVEL001
 370
13
   6
CONTINUOUS
  62
1
 100
AcDbCircle
  10
 1634.3277079587
  20
 4749.0389824481
  30
0.0
  40
 7.5000000000000
 100
AcDbArc
  50
 103.57028586336
  51
 284.42973061208
   0
LINE
   5
11E
 100
AcDbEntity
   8
LEVEL001
 370
13
 100
AcDbLine
   6
DASHDOT
  62
6
  10
 2669.4755537054
  20
 4870.0000000000
  30
0.0
  11
 1569.4755537054
  21
 4870.0000000000
  31
0.0
   0
LWPOLYLINE
   5
11F
 100
AcDbEntity
   8
LEVEL001
 370
13
   6
CONTINUOUS
  62
7
 100
AcDbPolyline
  90
4
  70
0
  10
 1622.5097647100
  20
 4814.9999584717
  10
 1571.3504031028
  20
 4814.9999584717
  10
 1571.3504031028
  20
 4754.9999584717
  10
 1629.7761406657
  20
 4754.9999584717
   0
CIRCLE
   5
120
 100
AcDbEntity
   8
LEVEL001
 370
13
 100
AcDbCircle
   6
CONTINUOUS
  62
1
  10
 773.40231497210
  20
 4116.9936043745
  30
0.0
  40
 69.999997913838
   0
MTEXT
   5
122
 100
AcDbEntity
   8
LEVEL001
 370
13
  62
7
 100
AcDbMText
  10
 773.40231497210
  20
 4116.9936043745
  30
0.0
  40
 66.000000000000
  41
0.0
  71
5
  72
1
   1
\T1.000000;５
   7
GMM002
  44
 0.79999984000003
   0
LEADER
   5
123
 100
AcDbEntity
   8
LEVEL001
 370
13
   6
CONTINUOUS
  62
1
 100
AcDbLeader
   3
GMM003
  73
3
  74
1
  75
0
  40
 66.000000000000
  41
0.0
  76
2
  10
 915.72562559296
  20
 4363.5048094712
  30
0.0
  10
 808.40231392902
  20
 4177.6153808327
  30
0.0
  77
1
   0
ARC
   5
124
 100
AcDbEntity
   8
LEVEL001
 370
13
   6
CONTINUOUS
  62
1
 100
AcDbCircle
  10
 1811.6448726907
  20
 4475.9945789383
  30
0.0
  40
 7.5000000000000
 100
AcDbArc
  50
 141.57028586265
  51
 322.42973061280
   0
LINE
   5
125
 100
AcDbEntity
   8
LEVEL001
 370
13
 100
AcDbLine
   6
DASHDOT
  62
6
  10
 2119.4755537054
  20
 5420.0000000000
  30
0.0
  11
 2119.4755537054
  21
 4320.0000000000
  31
0.0
   0
LINE
   5
126
 100
AcDbEntity
   8
LEVEL001
 370
13
 100
AcDbLine
   6
CONTINUOUS
  62
7
  10
 2599.5588798062
  20
 5033.0000000000
  30
0.0
  11
 2592.1604381687
  21
 5033.0000000000
  31
0.0
   0
ARC
   5
127
 100
AcDbEntity
   8
LEVEL001
 370
13
   6
CONTINUOUS
  62
1
 100
AcDbCircle
  10
 2250.6968095724
  20
 5359.7243939285
  30
0.0
  40
 7.5000000000000
 100
AcDbArc
  50
 344.57621078487
  51
 165.42378921515
   0
ARC
   5
128
 100
AcDbEntity
   8
LEVEL001
 370
13
   6
CONTINUOUS
  62
1
 100
AcDbCircle
  10
 1988.2541570183
  20
 5359.7243561959
  30
0.0
  40
 7.5000000000000
 100
AcDbArc
  50
 14.576227259754
  51
 195.42380569102
   0
ARC
   5
129
 100
AcDbEntity
   8
LEVEL001
 370
13
   6
CONTINUOUS
  62
1
 100
AcDbCircle
  10
 2578.9736017330
  20
 5084.2674587027
  30
0.0
  40
 7.5000000000000
 100
AcDbArc
  50
 294.57621078389
  51
 115.42378921614
   0
ARC
   5
12A
 100
AcDbEntity
   8
LEVEL001
 370
13
   6
CONTINUOUS
  62
1
 100
AcDbCircle
  10
 2445.3688718165
  20
 5258.3845326614
  30
0.0
  40
 7.5000000000000
 100
AcDbArc
  50
 319.57621078422
  51
 140.42378921582
   0
ARC
   5
12B
 100
AcDbEntity
   8
LEVEL001
 370
13
   6
CONTINUOUS
  62
1
 100
AcDbCircle
  10
 1793.5821239145
  20
 5258.3844389508
  30
0.0
  40
 7.5000000000000
 100
AcDbArc
  50
 39.576227259864
  51
 220.42380569090
   0
ARC
   5
12C
 100
AcDbEntity
   8
LEVEL001
 370
13
   6
CONTINUOUS
  62
1
 100
AcDbCircle
  10
 2604.6234342345
  20
 4749.0391219523
  30
0.0
  40
 7.5000000000000
 100
AcDbArc
  50
 255.57028586317
  51
 76.429730612183
   0
ARC
   5
12D
 100
AcDbEntity
   8
LEVEL001
 370
13
   6
CONTINUOUS
  62
1
 100
AcDbCircle
  10
 2119.4756255929
  20
 4370.0000000000
  30
0.0
  40
 7.5000000000000
 100
AcDbArc
  50
 179.57028586252
  51
 0.42973061282849
   0
ARC
   5
12E
 100
AcDbEntity
   8
LEVEL001
 370
13
   6
CONTINUOUS
  62
1
 100
AcDbCircle
  10
 2427.3063480164
  20
 4475.9946674550
  30
0.0
  40
 7.5000000000000
 100
AcDbArc
  50
 217.57028586267
  51
 38.429730612673
   0
LWPOLYLINE
   5
12F
 100
AcDbEntity
   8
LEVEL001
 370
13
   6
CONTINUOUS
  62
7
 100
AcDbPolyline
  90
4
  70
1
  10
 3330.8875467846
  20
 4743.0000000000
  10
 3316.8875467846
  20
 4743.0000000000
  10
 3316.8875467846
  20
 4757.0000000000
  10
 3330.8875467846
  20
 4757.0000000000
   0
LINE
   5
130
 100
AcDbEntity
   8
LEVEL001
 370
13
 100
AcDbLine
   6
CONTINUOUS
  62
6
  10
 3344.3228299595
  20
 4787.5000000000
  30
0.0
  11
 3344.3228299595
  21
 4730.0000000000
  31
0.0
   0
LWPOLYLINE
   5
131
 100
AcDbEntity
   8
LEVEL001
 370
13
   6
CONTINUOUS
  62
7
 100
AcDbPolyline
  90
4
  70
1
  10
 3330.8875467846
  20
 4813.0000000000
  10
 3316.8875467846
  20
 4813.0000000000
  10
 3316.8875467846
  20
 4827.0000000000
  10
 3330.8875467846
  20
 4827.0000000000
   0
LWPOLYLINE
   5
132
 100
AcDbEntity
   8
LEVEL001
 370
13
   6
CONTINUOUS
  62
7
 100
AcDbPolyline
  90
4
  70
1
  10
 3458.0635606263
  20
 4877.0000000000
  10
 3472.0635606263
  20
 4877.0000000000
  10
 3472.0635606263
  20
 4863.0000000000
  10
 3458.0635606263
  20
 4863.0000000000
   0
LINE
   5
133
 100
AcDbEntity
   8
LEVEL001
 370
13
 100
AcDbLine
   6
CONTINUOUS
  62
6
  10
 3344.3228299595
  20
 4840.0000000000
  30
0.0
  11
 3344.3228299595
  21
 4787.5000000000
  31
0.0
   0
LINE
   5
134
 100
AcDbEntity
   8
LEVEL001
 370
13
 100
AcDbLine
   6
CONTINUOUS
  62
6
  10
 3444.6282774514
  20
 4850.0000000000
  30
0.0
  11
 3444.6282774514
  21
 4907.5000000000
  31
0.0
   0
LWPOLYLINE
   5
135
 100
AcDbEntity
   8
LEVEL001
 370
13
   6
CONTINUOUS
  62
7
 100
AcDbPolyline
  90
6
  70
0
  10
 3448.4755537054
  20
 4740.0000000000
  10
 3448.4755537054
  20
 4725.0000000000
  10
 3303.8875467846
  20
 4725.0000000000
  10
 3303.8875467846
  20
 4845.0000000000
  10
 3448.4755537054
  20
 4845.0000000000
  10
 3448.4755537054
  20
 4815.0000000000
   0
LWPOLYLINE
   5
136
 100
AcDbEntity
   8
LEVEL001
 370
13
   6
CONTINUOUS
  62
7
 100
AcDbPolyline
  90
4
  70
1
  10
 3458.0635606263
  20
 4947.0000000000
  10
 3472.0635606263
  20
 4947.0000000000
  10
 3472.0635606263
  20
 4933.0000000000
  10
 3458.0635606263
  20
 4933.0000000000
   0
LWPOLYLINE
   5
137
 100
AcDbEntity
   8
LEVEL001
 370
13
   6
CONTINUOUS
  62
7
 100
AcDbPolyline
  90
4
  70
0
  10
 3343.6755537056
  20
 4965.0000000000
  10
 3343.6755537056
  20
 5169.9999999928
  10
 3445.2755537056
  20
 5169.9999999928
  10
 3445.2755537056
  20
 4965.0000000000
   0
LINE
   5
138
 100
AcDbEntity
   8
LEVEL001
 370
13
 100
AcDbLine
   6
CONTINUOUS
  62
6
  10
 3444.6282774514
  20
 4907.5000000000
  30
0.0
  11
 3444.6282774514
  21
 4960.0000000000
  31
0.0
   0
LINE
   5
139
 100
AcDbEntity
   8
LEVEL001
 370
13
 100
AcDbLine
   6
DASHDOT
  62
6
  10
 3166.4597999638
  20
 4870.0000000000
  30
0.0
  11
 2788.3908976795
  21
 4870.0000000000
  31
0.0
   0
CIRCLE
   5
13A
 100
AcDbEntity
   8
LEVEL001
 370
13
 100
AcDbCircle
   6
CONTINUOUS
  62
1
  10
 2872.9502048709
  20
 5084.2674587026
  30
0.0
  40
 7.5000000000000
   0
ARC
   5
13B
 100
AcDbEntity
   8
LEVEL001
 370
13
   6
CONTINUOUS
  62
1
 100
AcDbCircle
  10
 2872.9502048709
  20
 4370.0000000000
  30
0.0
  40
 7.5000000000000
 100
AcDbArc
  50
 180.00000000000
  51
0.0
   0
CIRCLE
   5
13C
 100
AcDbEntity
   8
LEVEL001
 370
13
 100
AcDbCircle
   6
CONTINUOUS
  62
1
  10
 2872.9502048709
  20
 4475.9946674550
  30
0.0
  40
 7.5000000000000
   0
CIRCLE
   5
13D
 100
AcDbEntity
   8
LEVEL001
 370
13
 100
AcDbCircle
   6
CONTINUOUS
  62
1
  10
 2872.9502048709
  20
 4749.0391219523
  30
0.0
  40
 7.5000000000000
   0
LWPOLYLINE
   5
13E
 100
AcDbEntity
   8
LEVEL001
 370
13
   6
CONTINUOUS
  62
7
 100
AcDbPolyline
  90
4
  70
0
  10
 2887.9502048709
  20
 4815.0000000000
  10
 2974.5587864223
  20
 4815.0000000000
  10
 2974.5587864223
  20
 4925.0000000000
  10
 2887.9502048709
  20
 4925.0000000000
   0
CIRCLE
   5
13F
 100
AcDbEntity
   8
LEVEL001
 370
13
 100
AcDbCircle
   6
CONTINUOUS
  62
1
  10
 2872.9502048709
  20
 5258.3845326614
  30
0.0
  40
 7.5000000000000
   0
CIRCLE
   5
140
 100
AcDbEntity
   8
LEVEL001
 370
13
 100
AcDbCircle
   6
CONTINUOUS
  62
1
  10
 2872.9502048709
  20
 5359.7243939286
  30
0.0
  40
 7.5000000000000
   0
LWPOLYLINE
   5
141
 100
AcDbEntity
   8
LEVEL001
 370
13
   6
CONTINUOUS
  62
7
 100
AcDbPolyline
  90
4
  70
1
  10
 2942.5587864223
  20
 4893.0000000000
  10
 2956.5587864223
  20
 4893.0000000000
  10
 2956.5587864223
  20
 4907.0000000000
  10
 2942.5587864223
  20
 4907.0000000000
   0
LWPOLYLINE
   5
142
 100
AcDbEntity
   8
LEVEL001
 370
13
   6
CONTINUOUS
  62
7
 100
AcDbPolyline
  90
4
  70
1
  10
 2942.5587864223
  20
 4833.0000000000
  10
 2956.5587864223
  20
 4833.0000000000
  10
 2956.5587864223
  20
 4847.0000000000
  10
 2942.5587864223
  20
 4847.0000000000
   0
ARC
   5
143
 100
AcDbEntity
   8
LEVEL001
 370
13
   6
CONTINUOUS
  62
7
 100
AcDbCircle
  10
 2992.5001755503
  20
 4865.5854138189
  30
0.0
  40
 8.0000000000000
 100
AcDbArc
  50
 324.99999999999
  51
 144.99999999999
   0
ARC
   5
144
 100
AcDbEntity
   8
LEVEL001
 370
13
   6
CONTINUOUS
  62
7
 100
AcDbCircle
  10
 2943.3510528930
  20
 4900.0000000000
  30
0.0
  40
 52.000000000000
 100
AcDbArc
  50
 306.88054979701
  51
 325.00000000001
   0
ARC
   5
145
 100
AcDbEntity
   8
LEVEL001
 370
13
   6
CONTINUOUS
  62
7
 100
AcDbCircle
  10
 2943.3510528930
  20
 4900.0000000000
  30
0.0
  40
 68.000000000000
 100
AcDbArc
  50
 297.31855192773
  51
 325.00000000000
   0
LINE
   5
146
 100
AcDbEntity
   8
LEVEL001
 370
13
 100
AcDbLine
   6
CONTINUOUS
  62
6
  10
 3023.3510528930
  20
 4820.0000000000
  30
0.0
  11
 3023.3510528930
  21
 4920.0000000000
  31
0.0
   0
LWPOLYLINE
   5
147
 100
AcDbEntity
   8
LEVEL001
 370
13
   6
CONTINUOUS
  62
7
 100
AcDbPolyline
  90
4
  70
0
  10
 2974.5587864223
  20
 4815.0000000000
  10
 3136.1344078598
  20
 4815.0000000000
  10
 3136.1344078598
  20
 4925.0000000000
  10
 2974.5587864223
  20
 4925.0000000000
   0
LWPOLYLINE
   5
148
 100
AcDbEntity
   8
LEVEL001
 370
13
   6
CONTINUOUS
  62
7
 100
AcDbPolyline
  90
4
  70
1
  10
 3109.1344078598
  20
 4893.0000000000
  10
 3123.1344078598
  20
 4893.0000000000
  10
 3123.1344078598
  20
 4907.0000000000
  10
 3109.1344078598
  20
 4907.0000000000
   0
LINE
   5
149
 100
AcDbEntity
   8
LEVEL001
 370
13
 100
AcDbLine
   6
CONTINUOUS
  62
6
  10
 3096.5624174137
  20
 4920.0000000000
  30
0.0
  11
 3096.5624174137
  21
 4820.0000000000
  31
0.0
   0
LWPOLYLINE
   5
14A
 100
AcDbEntity
   8
LEVEL001
 370
13
   6
CONTINUOUS
  62
7
 100
AcDbPolyline
  90
4
  70
1
  10
 3109.1344078598
  20
 4833.0000000000
  10
 3123.1344078598
  20
 4833.0000000000
  10
 3123.1344078598
  20
 4847.0000000000
  10
 3109.1344078598
  20
 4847.0000000000
   0
LINE
   5
14B
 100
AcDbEntity
   8
LEVEL001
 370
13
 100
AcDbLine
   6
DASHDOT
  62
6
  10
 3061.1343907572
  20
 4960.0000000000
  30
0.0
  11
 3061.1343907572
  21
 4705.0000000000
  31
0.0
   0
LWPOLYLINE
   5
14C
 100
AcDbEntity
   8
LEVEL001
 370
13
   6
CONTINUOUS
  62
7
 100
AcDbPolyline
  90
4
  70
1
  10
 3094.0423305286
  20
 4730.0000000000
  10
 3344.0423305287
  20
 4868.5772628632
  10
 3344.0423305287
  20
 4954.3288179537
  10
 3094.0423305287
  20
 4815.7515550905
   0
LWPOLYLINE
   5
14D
 100
AcDbEntity
   8
LEVEL001
 370
13
   6
CONTINUOUS
  62
7
 100
AcDbPolyline
  90
4
  70
0
  10
 3022.9843907572
  20
 4815.0000000000
  10
 3022.9843907572
  20
 4725.0000000000
  10
 3099.2843907572
  20
 4725.0000000000
  10
 3099.2843907572
  20
 4732.9057214330
   0
LWPOLYLINE
   5
14E
 100
AcDbEntity
   8
LEVEL001
 370
13
   6
CONTINUOUS
  62
7
 100
AcDbPolyline
  90
6
  70
0
  10
 3340.4755537054
  20
 4952.3517212761
  10
 3340.4755537054
  20
 4965.0000000000
  10
 3485.0635606263
  20
 4965.0000000000
  10
 3485.0635606263
  20
 4845.0000000000
  10
 3340.4755537054
  20
 4845.0000000000
  10
 3340.4755537054
  20
 4866.6001661856
   0
LWPOLYLINE
   5
14F
 100
AcDbEntity
   8
LEVEL001
 370
13
   6
CONTINUOUS
  62
7
 100
AcDbPolyline
  90
4
  70
1
  10
 3444.5550904445
  20
 4815.0000000000
  10
 3444.5550904445
  20
 4740.0000000000
  10
 3694.5550904445
  20
 4740.0000000000
  10
 3694.5550904445
  20
 4815.0000000000
   0
LINE
   5
150
 100
AcDbEntity
   8
LEVEL001
 370
13
 100
AcDbLine
   6
CONTINUOUS
  62
6
  10
 1569.6282774513
  20
 4854.9999584717
  30
0.0
  11
 1569.6282774513
  21
 4954.9999584717
  31
0.0
   0
LINE
   5
151
 100
AcDbEntity
   8
LEVEL001
 370
13
 100
AcDbLine
   6
CONTINUOUS
  62
6
  10
 1469.3228299595
  20
 4844.9999584717
  30
0.0
  11
 1469.3228299595
  21
 4744.9999584717
  31
0.0
   0
LINE
   5
152
 100
AcDbEntity
   8
LEVEL001
 370
13
 100
AcDbLine
   6
CONTINUOUS
  62
7
  10
 1468.6755537056
  20
 4169.9999999928
  30
0.0
  11
 1468.6755537056
  21
 4739.9999584717
  31
0.0
   0
LINE
   5
153
 100
AcDbEntity
   8
LEVEL001
 370
13
 100
AcDbLine
   6
CONTINUOUS
  62
7
  10
 1570.2755537056
  20
 4739.9999584717
  30
0.0
  11
 1570.2755537056
  21
 4169.9999999928
  31
0.0
   0
LWPOLYLINE
   5
154
 100
AcDbEntity
   8
LEVEL001
 370
13
   6
CONTINUOUS
  62
5
 100
AcDbPolyline
  90
7
  70
1
  10
 1519.4755537056
  20
 4129.9999999928
  10
 1483.1755547874
  20
 4083.8000013697
  10
 1502.9755541973
  20
 4083.8000013697
  10
 1502.9755541973
  20
 4064.0000019597
  10
 1535.9755532139
  20
 4064.0000019597
  10
 1535.9755532139
  20
 4083.8000013697
  10
 1555.7755526238
  20
 4083.8000013697
   0
ARC
   5
155
 100
AcDbEntity
   8
LEVEL001
 370
13
   6
CONTINUOUS
  62
7
 100
AcDbCircle
  10
 1574.4755537056
  20
 4149.9999999928
  30
0.0
  40
 20.000000000000
 100
AcDbArc
  50
0.0
  51
 90.000000000000
   0
ARC
   5
156
 100
AcDbEntity
   8
LEVEL001
 370
13
   6
CONTINUOUS
  62
7
 100
AcDbCircle
  10
 1464.4755537056
  20
 4149.9999999928
  30
0.0
  40
 20.000000000000
 100
AcDbArc
  50
 90.000000000000
  51
 180.00000000000
   0
LINE
   5
157
 100
AcDbEntity
   8
LEVEL001
 370
13
 100
AcDbLine
   6
CONTINUOUS
  62
7
  10
 1444.4755537056
  20
 4149.9999999928
  30
0.0
  11
 1444.4755537056
  21
 3789.9999999928
  31
0.0
   0
LINE
   5
158
 100
AcDbEntity
   8
LEVEL001
 370
13
 100
AcDbLine
   6
CONTINUOUS
  62
7
  10
 1594.4755537056
  20
 3789.9999999928
  30
0.0
  11
 1594.4755537056
  21
 4149.9999999928
  31
0.0
   0
LINE
   5
159
 100
AcDbEntity
   8
LEVEL001
 370
13
 100
AcDbLine
   6
CONTINUOUS
  62
7
  10
 1574.4755537056
  20
 4169.9999999928
  30
0.0
  11
 1464.4755537056
  21
 4169.9999999928
  31
0.0
   0
ARC
   5
15A
 100
AcDbEntity
   8
LEVEL001
 370
13
   6
CONTINUOUS
  62
7
 100
AcDbCircle
  10
 1464.4755537056
  20
 3789.9999999928
  30
0.0
  40
 20.000000000000
 100
AcDbArc
  50
 180.00000000000
  51
 270.00000000000
   0
ARC
   5
15B
 100
AcDbEntity
   8
LEVEL001
 370
13
   6
CONTINUOUS
  62
7
 100
AcDbCircle
  10
 1574.4755537056
  20
 3789.9999999928
  30
0.0
  40
 20.000000000000
 100
AcDbArc
  50
 270.00000000000
  51
 360.00000000000
   0
LINE
   5
15C
 100
AcDbEntity
   8
LEVEL001
 370
13
 100
AcDbLine
   6
CONTINUOUS
  62
7
  10
 1464.4755537056
  20
 3769.9999999928
  30
0.0
  11
 1574.4755537056
  21
 3769.9999999928
  31
0.0
   0
LWPOLYLINE
   5
15D
 100
AcDbEntity
   8
LEVEL001
 370
13
   6
CONTINUOUS
  62
7
 100
AcDbPolyline
  90
4
  70
0
  10
 1570.2755537054
  20
 3769.9999999928
  10
 1570.2755537054
  20
 369.99999999280
  10
 1468.6755537054
  20
 369.99999999280
  10
 1468.6755537054
  20
 3769.9999999928
   0
LINE
   5
15E
 100
AcDbEntity
   8
LEVEL001
 370
13
 100
AcDbLine
   6
CONTINUOUS
  62
7
  10
 3331.5477706558
  20
 4169.9999999936
  30
0.0
  11
 3328.8338638923
  21
 4163.2152330848
  31
0.0
   0
ARC
   5
15F
 100
AcDbEntity
   8
LEVEL001
 370
13
   6
CONTINUOUS
  62
7
 100
AcDbCircle
  10
 3333.4762473467
  20
 4161.3582797030
  30
0.0
  40
 5.0000000000000
 100
AcDbArc
  50
 158.19859051364
  51
 179.99999999998
   0
ARC
   5
160
 100
AcDbEntity
   8
LEVEL001
 370
13
   6
CONTINUOUS
  62
7
 100
AcDbCircle
  10
 3327.4762473467
  20
 4154.1523535345
  30
0.0
  40
 5.0000000000000
 100
AcDbArc
  50
 0.20844083160439E-10
  51
 21.801409486356
   0
LINE
   5
161
 100
AcDbEntity
   8
LEVEL001
 370
13
 100
AcDbLine
   6
CONTINUOUS
  62
7
  10
 3330.3163599464
  20
 4160.5149840530
  30
0.0
  11
 3332.1186308011
  21
 4156.0093069163
  31
0.0
   0
ARC
   5
162
 100
AcDbEntity
   8
LEVEL001
 370
13
   6
CONTINUOUS
  62
7
 100
AcDbCircle
  10
 3334.9587434008
  20
 4162.3719374348
  30
0.0
  40
 5.0000000000000
 100
AcDbArc
  50
 158.19859051366
  51
 201.80140948634
   0
LWPOLYLINE
   5
163
 100
AcDbEntity
   8
LEVEL001
 370
13
   6
CONTINUOUS
  62
7
 100
AcDbPolyline
  90
3
  70
0
  10
 3331.5477706558
  20
 4169.9999999936
  10
 3332.4762473467
  20
 4169.6286093172
  10
 3330.3163599464
  20
 4164.2288908166
   0
LINE
   5
164
 100
AcDbEntity
   8
LEVEL001
 370
13
 100
AcDbLine
   6
CONTINUOUS
  62
7
  10
 3328.4762473467
  20
 4161.3582797030
  30
0.0
  11
 3328.4762473467
  21
 3778.6417202826
  31
0.0
   0
LINE
   5
165
 100
AcDbEntity
   8
LEVEL001
 370
13
 100
AcDbLine
   6
CONTINUOUS
  62
7
  10
 3332.4762473467
  20
 4154.1523535345
  30
0.0
  11
 3332.4762473467
  21
 3785.8476464511
  31
0.0
   0
LINE
   5
166
 100
AcDbEntity
   8
LEVEL001
 370
13
 100
AcDbLine
   6
CONTINUOUS
  62
6
  10
 3335.4762473467
  20
 4005.0000607510
  30
0.0
  11
 3335.4762473467
  21
 4005.9999997119
  31
0.0
   0
LINE
   5
167
 100
AcDbEntity
   8
LEVEL001
 370
13
 100
AcDbLine
   6
CONTINUOUS
  62
7
  10
 3335.9317261258
  20
 3990.9996335595
  30
0.0
  11
 3335.9321838897
  21
 3948.9997252761
  31
0.0
   0
LWPOLYLINE
   5
168
 100
AcDbEntity
   8
LEVEL001
 370
13
   6
CONTINUOUS
  62
7
 100
AcDbPolyline
  90
4
  70
0
  10
 3335.9321566388
  20
 3951.4999999928
  10
 3466.4763700252
  20
 3951.4999999928
  10
 3466.4763700252
  20
 3988.4999999928
  10
 3335.9317533697
  20
 3988.4999999928
   0
LINE
   5
169
 100
AcDbEntity
   8
LEVEL001
 370
13
 100
AcDbLine
   6
CONTINUOUS
  62
7
  10
 3335.4762473467
  20
 4005.9999997119
  30
0.0
  11
 3332.4762473467
  21
 4005.9999997119
  31
0.0
   0
LINE
   5
16A
 100
AcDbEntity
   8
LEVEL001
 370
13
 100
AcDbLine
   6
CONTINUOUS
  62
6
  10
 3332.4762473467
  20
 4005.0000607510
  30
0.0
  11
 3335.4762473467
  21
 4005.0000607510
  31
0.0
   0
ELLIPSE
   5
16B
 100
AcDbEntity
   8
LEVEL001
 370
13
   6
CONTINUOUS
  62
7
 100
AcDbEllipse
  10
 3331.9317235760
  20
 3990.9997555107
  30
0.0
  11
 4.0000025516047
  21
0.0
  31
0.0
  40
 0.99999938800000
  41
-0.30487803780477E-4
  42
 1.4342414715498
   0
LWPOLYLINE
   5
16C
 100
AcDbEntity
   8
LEVEL001
 370
13
   6
CONTINUOUS
  62
6
 100
AcDbPolyline
  90
3
  70
0
  10
 3335.4762473467
  20
 3933.9999999928
  10
 3335.4762473467
  20
 3935.0000305065
  10
 3332.4762473467
  20
 3935.0000305065
   0
ELLIPSE
   5
16D
 100
AcDbEntity
   8
LEVEL001
 370
13
   6
CONTINUOUS
  62
7
 100
AcDbEllipse
  10
 3331.9321813386
  20
 3948.9997864286
  30
0.0
  11
 4.0000025516047
  21
0.0
  31
0.0
  40
 0.99999938800000
  41
-1.4343569865528
  42
-0.15288126351787E-4
   0
LINE
   5
16E
 100
AcDbEntity
   8
LEVEL001
 370
13
 100
AcDbLine
   6
CONTINUOUS
  62
7
  10
 3332.4762473467
  20
 3933.9999999928
  30
0.0
  11
 3335.4762473467
  21
 3933.9999999928
  31
0.0
   0
LINE
   5
16F
 100
AcDbEntity
   8
LEVEL001
 370
13
 100
AcDbLine
   6
CONTINUOUS
  62
6
  10
 3445.3043710247
  20
 3977.4999999928
  30
0.0
  11
 3445.3043710247
  21
 3986.4999999928
  31
0.0
   0
LINE
   5
170
 100
AcDbEntity
   8
LEVEL001
 370
13
 100
AcDbLine
   6
CONTINUOUS
  62
6
  10
 3344.4986199972
  20
 3977.4999999928
  30
0.0
  11
 3344.4986199972
  21
 3986.4999999928
  31
0.0
   0
LINE
   5
171
 100
AcDbEntity
   8
LEVEL001
 370
13
 100
AcDbLine
   6
CONTINUOUS
  62
6
  10
 3445.3043710247
  20
 3953.4999999928
  30
0.0
  11
 3445.3043710247
  21
 3962.4999999928
  31
0.0
   0
LINE
   5
172
 100
AcDbEntity
   8
LEVEL001
 370
13
 100
AcDbLine
   6
CONTINUOUS
  62
6
  10
 3447.6228960661
  20
 3963.4999999928
  30
0.0
  11
 3447.6228960661
  21
 3976.4999999928
  31
0.0
   0
LINE
   5
173
 100
AcDbEntity
   8
LEVEL001
 370
13
 100
AcDbLine
   6
CONTINUOUS
  62
6
  10
 3445.3043710247
  20
 3976.4999999928
  30
0.0
  11
 3345.7595145667
  21
 3976.4999999928
  31
0.0
   0
LINE
   5
174
 100
AcDbEntity
   8
LEVEL001
 370
13
 100
AcDbLine
   6
CONTINUOUS
  62
6
  10
 3345.7595145667
  20
 3963.4999999928
  30
0.0
  11
 3445.3043710247
  21
 3963.4999999928
  31
0.0
   0
LINE
   5
175
 100
AcDbEntity
   8
LEVEL001
 370
13
 100
AcDbLine
   6
CONTINUOUS
  62
6
  10
 3344.4986199972
  20
 3964.4999999928
  30
0.0
  11
 3344.4986199972
  21
 3975.4999999928
  31
0.0
   0
LINE
   5
176
 100
AcDbEntity
   8
LEVEL001
 370
13
 100
AcDbLine
   6
CONTINUOUS
  62
6
  10
 3344.4986199972
  20
 3953.4999999928
  30
0.0
  11
 3344.4986199972
  21
 3962.4999999928
  31
0.0
   0
LWPOLYLINE
   5
177
 100
AcDbEntity
   8
LEVEL001
 370
13
   6
CONTINUOUS
  62
7
 100
AcDbPolyline
  90
4
  70
1
  10
 3451.4763700252
  20
 3964.9999999928
  10
 3461.4763700252
  20
 3964.9999999928
  10
 3461.4763700252
  20
 3974.9999999928
  10
 3451.4763700252
  20
 3974.9999999928
   0
ARC
   5
178
 100
AcDbEntity
   8
LEVEL001
 370
13
   6
CONTINUOUS
  62
7
 100
AcDbCircle
  10
 3333.4762473467
  20
 3778.6417202826
  30
0.0
  40
 5.0000000000000
 100
AcDbArc
  50
 180.00000000000
  51
 201.80140948636
   0
LINE
   5
179
 100
AcDbEntity
   8
LEVEL001
 370
13
 100
AcDbLine
   6
CONTINUOUS
  62
7
  10
 3331.5477706558
  20
 3769.9999999920
  30
0.0
  11
 3328.8338638923
  21
 3776.7847669008
  31
0.0
   0
ARC
   5
17A
 100
AcDbEntity
   8
LEVEL001
 370
13
   6
CONTINUOUS
  62
7
 100
AcDbCircle
  10
 3327.4762473467
  20
 3785.8476464511
  30
0.0
  40
 5.0000000000000
 100
AcDbArc
  50
 338.19859051364
  51
0.0
   0
LINE
   5
17B
 100
AcDbEntity
   8
LEVEL001
 370
13
 100
AcDbLine
   6
CONTINUOUS
  62
7
  10
 3330.3163599464
  20
 3779.4850159326
  30
0.0
  11
 3332.1186308011
  21
 3783.9906930693
  31
0.0
   0
ARC
   5
17C
 100
AcDbEntity
   8
LEVEL001
 370
13
   6
CONTINUOUS
  62
7
 100
AcDbCircle
  10
 3334.9587434008
  20
 3777.6280625508
  30
0.0
  40
 5.0000000000000
 100
AcDbArc
  50
 158.19859051364
  51
 201.80140948636
   0
LWPOLYLINE
   5
17D
 100
AcDbEntity
   8
LEVEL001
 370
13
   6
CONTINUOUS
  62
7
 100
AcDbPolyline
  90
3
  70
0
  10
 3331.5477706558
  20
 3769.9999999920
  10
 3332.4762473467
  20
 3770.3713906684
  10
 3330.3163599464
  20
 3775.7711091690
   0
LWPOLYLINE
   5
17E
 100
AcDbEntity
   8
LEVEL001
 370
13
   6
CONTINUOUS
  62
7
 100
AcDbPolyline
  90
4
  70
0
  10
 3445.2755537054
  20
 3951.4999999928
  10
 3445.2755537054
  20
 369.99999999280
  10
 3343.6755537054
  20
 369.99999999280
  10
 3343.6755537054
  20
 3951.4999999928
   0
CIRCLE
   5
17F
 100
AcDbEntity
   8
LEVEL001
 370
13
 100
AcDbCircle
   6
CONTINUOUS
  62
1
  10
 3644.4755537054
  20
 3869.9999999920
  30
0.0
  40
 69.999997913838
   0
CIRCLE
   5
180
 100
AcDbEntity
   8
LEVEL001
 370
13
 100
AcDbCircle
   6
CONTINUOUS
  62
1
  10
 3784.4755495331
  20
 3869.9999999920
  30
0.0
  40
 69.999997913838
   0
MTEXT
   5
182
 100
AcDbEntity
   8
LEVEL001
 370
13
  62
7
 100
AcDbMText
  10
 3644.4755537054
  20
 3869.9999999920
  30
0.0
  40
 66.000000000000
  41
0.0
  71
5
  72
1
   1
\T1.000000;１６
   7
GMM002
  44
 0.79999984000003
   0
MTEXT
   5
184
 100
AcDbEntity
   8
LEVEL001
 370
13
  62
7
 100
AcDbMText
  10
 3784.4755495331
  20
 3869.9999999920
  30
0.0
  40
 66.000000000000
  41
0.0
  71
5
  72
1
   1
\T1.000000;１７
   7
GMM002
  44
 0.79999984000003
   0
LEADER
   5
185
 100
AcDbEntity
   8
LEVEL001
 370
13
   6
CONTINUOUS
  62
1
 100
AcDbLeader
   3
GMM001
  73
3
  74
1
  75
0
  40
 66.000000000000
  41
0.0
  76
2
  10
 3466.4763700252
  20
 3951.4999999928
  30
0.0
  10
 3580.8297873571
  20
 3899.1413131722
  30
0.0
  77
1
   0
LINE
   5
186
 100
AcDbEntity
   8
LEVEL001
 370
13
 100
AcDbLine
   6
CONTINUOUS
  62
7
  10
 3445.2755537056
  20
 4725.0000000000
  30
0.0
  11
 3445.2755537056
  21
 3988.4999999928
  31
0.0
   0
LINE
   5
187
 100
AcDbEntity
   8
LEVEL001
 370
13
 100
AcDbLine
   6
CONTINUOUS
  62
7
  10
 3343.6755537056
  20
 3988.4999999928
  30
0.0
  11
 3343.6755537056
  21
 4725.0000000000
  31
0.0
   0
DIMENSION
   5
188
 100
AcDbEntity
   8
LEVEL001
 370
13
   6
CONTINUOUS
  62
6
 100
AcDbDimension
   2
*D6
  10
 644.47555370545
  20
 369.99999999280
  30
0.0
  11
 644.47555370545
  21
 319.99999999280
  31
0.0
  70
0
   3
GMM004
 100
AcDbAlignedDimension
  13
 1269.4755537054
  23
 269.99999999280
  33
0.0
  14
 1269.4755537054
  24
 369.99999999280
  34
0.0
  50
 90.000000000000
 100
AcDbRotatedDimension
   0
DIMENSION
   5
189
 100
AcDbEntity
   8
LEVEL001
 370
13
   6
CONTINUOUS
  62
6
 100
AcDbDimension
   2
*D7
  10
 644.47555370545
  20
 1869.9999999928
  30
0.0
  11
 644.47555370545
  21
 1119.9999999928
  31
0.0
  70
0
   3
GMM004
 100
AcDbAlignedDimension
  13
 1269.4755537054
  23
 369.99999999280
  33
0.0
  14
 969.47561894041
  24
 1869.9999999928
  34
0.0
  50
 90.000000000000
 100
AcDbRotatedDimension
   0
DIMENSION
   5
18A
 100
AcDbEntity
   8
LEVEL001
 370
13
   6
CONTINUOUS
  62
6
 100
AcDbDimension
   2
*D8
  10
 644.47555370545
  20
 4369.9999999928
  30
0.0
  11
 644.47555370545
  21
 3119.9999999928
  31
0.0
  70
0
   1
\A1;2500(標準設置高さ)
   3
GMM005
 100
AcDbAlignedDimension
  13
 969.47561894041
  23
 1869.9999999928
  33
0.0
  14
 919.47562559297
  24
 4369.9999999928
  34
0.0
  50
 90.000000000000
 100
AcDbRotatedDimension
   0
LEADER
   5
18B
 100
AcDbEntity
   8
LEVEL001
 370
13
   6
CONTINUOUS
  62
1
 100
AcDbLeader
   3
GMM006
  73
3
  74
1
  75
0
  40
 66.000000000000
  41
0.0
  76
2
  10
 2316.0071966418
  20
 5336.6776084943
  30
0.0
  10
 2464.6057792731
  20
 5451.5338342811
  30
0.0
  77
1
   0
CIRCLE
   5
18C
 100
AcDbEntity
   8
LEVEL001
 370
13
 100
AcDbCircle
   6
CONTINUOUS
  62
1
  10
 2519.4755537054
  20
 4369.9999999928
  30
0.0
  40
 69.999997913838
   0
MTEXT
   5
18E
 100
AcDbEntity
   8
LEVEL001
 370
13
  62
7
 100
AcDbMText
  10
 2519.4755537054
  20
 4369.9999999928
  30
0.0
  40
 66.000000000000
  41
0.0
  71
5
  72
1
   1
\T1.000000;１
   7
GMM002
  44
 0.79999984000003
   0
LEADER
   5
18F
 100
AcDbEntity
   8
LEVEL001
 370
13
   6
CONTINUOUS
  62
1
 100
AcDbLeader
   3
GMM001
  73
3
  74
1
  75
0
  40
 66.000000000000
  41
0.0
  76
2
  10
 2834.9182029707
  20
 4494.9999999928
  30
0.0
  10
 2584.8307900832
  20
 4395.0737469396
  30
0.0
  77
1
   0
LEADER
   5
190
 100
AcDbEntity
   8
LEVEL001
 370
13
   6
CONTINUOUS
  62
1
 100
AcDbLeader
   3
GMM001
  73
3
  74
1
  75
0
  40
 66.000000000000
  41
0.0
  76
2
  10
 2269.4755537054
  20
 4494.9999999928
  30
0.0
  10
 2456.7228989089
  20
 4401.0178017190
  30
0.0
  77
1
   0
CIRCLE
   5
191
 100
AcDbEntity
   8
LEVEL001
 370
13
 100
AcDbCircle
   6
CONTINUOUS
  62
1
  10
 2394.4755537054
  20
 4244.9999999928
  30
0.0
  40
 69.999997913838
   0
MTEXT
   5
193
 100
AcDbEntity
   8
LEVEL001
 370
13
  62
7
 100
AcDbMText
  10
 2394.4755537054
  20
 4244.9999999928
  30
0.0
  40
 66.000000000000
  41
0.0
  71
5
  72
1
   1
\T1.000000;４
   7
GMM002
  44
 0.79999984000003
   0
LEADER
   5
194
 100
AcDbEntity
   8
LEVEL001
 370
13
   6
CONTINUOUS
  62
1
 100
AcDbLeader
   3
GMM001
  73
3
  74
1
  75
0
  40
 66.000000000000
  41
0.0
  76
2
  10
 2269.4755537054
  20
 4393.0303992915
  30
0.0
  10
 2348.3130151688
  20
 4297.6214760629
  30
0.0
  77
1
   0
CIRCLE
   5
195
 100
AcDbEntity
   8
LEVEL001
 370
13
 100
AcDbCircle
   6
CONTINUOUS
  62
1
  10
 1769.4755537054
  20
 3869.9999999928
  30
0.0
  40
 70.000000000000
   0
MTEXT
   5
197
 100
AcDbEntity
   8
LEVEL001
 370
13
  62
7
 100
AcDbMText
  10
 1769.4755537054
  20
 3869.9999999928
  30
0.0
  40
 66.000000000000
  41
0.0
  71
5
  72
1
   1
\T1.000000;１５
   7
GMM002
  44
 0.79999984000003
   0
LEADER
   5
198
 100
AcDbEntity
   8
LEVEL001
 370
13
   6
CONTINUOUS
  62
1
 100
AcDbLeader
   3
GMM001
  73
3
  74
1
  75
0
  40
 66.000000000000
  41
0.0
  76
2
  10
 1594.4755537056
  20
 3969.9999999928
  30
0.0
  10
 1707.3153343464
  20
 3902.1886180003
  30
0.0
  77
1
   0
CIRCLE
   5
199
 100
AcDbEntity
   8
LEVEL001
 370
13
 100
AcDbCircle
   6
CONTINUOUS
  62
1
  10
 3644.4755537054
  20
 4369.9999999928
  30
0.0
  40
 69.999997913838
   0
MTEXT
   5
19B
 100
AcDbEntity
   8
LEVEL001
 370
13
  62
7
 100
AcDbMText
  10
 3644.4755537054
  20
 4369.9999999928
  30
0.0
  40
 66.000000000000
  41
0.0
  71
5
  72
1
   1
\T1.000000;１０
   7
GMM002
  44
 0.79999984000003
   0
MTEXT
   5
19D
 100
AcDbEntity
   8
LEVEL001
 370
13
  62
7
 100
AcDbMText
  10
 3784.4755495331
  20
 4369.9999999928
  30
0.0
  40
 66.000000000000
  41
0.0
  71
5
  72
1
   1
\T1.000000;１１
   7
GMM002
  44
 0.79999984000003
   0
CIRCLE
   5
19E
 100
AcDbEntity
   8
LEVEL001
 370
13
 100
AcDbCircle
   6
CONTINUOUS
  62
1
  10
 3784.4755495331
  20
 4369.9999999928
  30
0.0
  40
 69.999997913838
   0
LEADER
   5
19F
 100
AcDbEntity
   8
LEVEL001
 370
13
   6
CONTINUOUS
  62
1
 100
AcDbLeader
   3
GMM001
  73
3
  74
1
  75
0
  40
 66.000000000000
  41
0.0
  76
2
  10
 3519.4755537054
  20
 4739.9999999999
  30
0.0
  10
 3621.9335602607
  20
 4436.2710965544
  30
0.0
  77
1
   0
CIRCLE
   5
1A0
 100
AcDbEntity
   8
LEVEL001
 370
13
 100
AcDbCircle
   6
CONTINUOUS
  62
1
  10
 3019.4755537054
  20
 5494.9999999928
  30
0.0
  40
 69.999997913838
   0
CIRCLE
   5
1A1
 100
AcDbEntity
   8
LEVEL001
 370
13
 100
AcDbCircle
   6
CONTINUOUS
  62
1
  10
 3159.4755495331
  20
 5494.9999999928
  30
0.0
  40
 69.999997913838
   0
MTEXT
   5
1A3
 100
AcDbEntity
   8
LEVEL001
 370
13
  62
7
 100
AcDbMText
  10
 3019.4755537054
  20
 5494.9999999928
  30
0.0
  40
 66.000000000000
  41
0.0
  71
5
  72
1
   1
\T1.000000;６
   7
GMM002
  44
 0.79999984000003
   0
MTEXT
   5
1A5
 100
AcDbEntity
   8
LEVEL001
 370
13
  62
7
 100
AcDbMText
  10
 3159.4755495331
  20
 5494.9999999928
  30
0.0
  40
 66.000000000000
  41
0.0
  71
5
  72
1
   1
\T1.000000;８
   7
GMM002
  44
 0.79999984000003
   0
CIRCLE
   5
1A6
 100
AcDbEntity
   8
LEVEL001
 370
13
 100
AcDbCircle
   6
CONTINUOUS
  62
1
  10
 3269.4755537054
  20
 5369.9999999928
  30
0.0
  40
 69.999997913838
   0
CIRCLE
   5
1A7
 100
AcDbEntity
   8
LEVEL001
 370
13
 100
AcDbCircle
   6
CONTINUOUS
  62
1
  10
 3409.4755495331
  20
 5369.9999999928
  30
0.0
  40
 69.999997913838
   0
MTEXT
   5
1A9
 100
AcDbEntity
   8
LEVEL001
 370
13
  62
7
 100
AcDbMText
  10
 3269.4755537054
  20
 5369.9999999928
  30
0.0
  40
 66.000000000000
  41
0.0
  71
5
  72
1
   1
\T1.000000;７
   7
GMM002
  44
 0.79999984000003
   0
MTEXT
   5
1AB
 100
AcDbEntity
   8
LEVEL001
 370
13
  62
7
 100
AcDbMText
  10
 3409.4755495331
  20
 5369.9999999928
  30
0.0
  40
 66.000000000000
  41
0.0
  71
5
  72
1
   1
\T1.000000;９
   7
GMM002
  44
 0.79999984000003
   0
LEADER
   5
1AC
 100
AcDbEntity
   8
LEVEL001
 370
13
   6
CONTINUOUS
  62
1
 100
AcDbLeader
   3
GMM001
  73
3
  74
1
  75
0
  40
 66.000000000000
  41
0.0
  76
2
  10
 2956.9755537054
  20
 4924.9999999999
  30
0.0
  10
 3010.1094346892
  20
 5425.6294333055
  30
0.0
  77
1
   0
LEADER
   5
1AD
 100
AcDbEntity
   8
LEVEL001
 370
13
   6
CONTINUOUS
  62
1
 100
AcDbLeader
   3
GMM001
  73
3
  74
1
  75
0
  40
 66.000000000000
  41
0.0
  76
2
  10
 3136.1344078598
  20
 4925.0000000000
  30
0.0
  10
 3249.5785085645
  20
 5302.8873536242
  30
0.0
  77
1
   0
LWPOLYLINE
   5
1AE
 100
AcDbEntity
   8
LEVEL001
 370
13
   6
CONTINUOUS
  62
7
 100
AcDbPolyline
  90
5
  70
1
  10
 2887.9502048709
  20
 5017.2822462541
  10
 2852.9502048709
  20
 5017.2822462541
  10
 2807.9502048709
  20
 5152.6366274560
  10
 2807.9502048709
  20
 5370.0000000000
  10
 2887.9502048709
  20
 5370.0000000000
   0
LWPOLYLINE
   5
1AF
 100
AcDbEntity
   8
LEVEL001
 370
13
   6
CONTINUOUS
  62
7
 100
AcDbPolyline
  90
4
  70
0
  10
 2852.9502048709
  20
 5017.2822462541
  10
 2852.9502048709
  20
 4370.0000000000
  10
 2887.9502048709
  20
 4370.0000000000
  10
 2887.9502048709
  20
 5033.0001069538
   0
ARC
   5
1B0
 100
AcDbEntity
   8
LEVEL001
 370
13
   6
DOT
  62
2
 100
AcDbCircle
  10
 5849.0359279150
  20
 4870.0000000000
  30
0.0
  40
 3037.3558665110
 100
AcDbArc
  50
 170.54414598144
  51
 175.42443917237
   0
LWPOLYLINE
   5
1B1
 100
AcDbEntity
   8
LEVEL001
 370
13
   6
DOT
  62
2
 100
AcDbPolyline
  90
4
  70
0
  10
 2887.9502048709
  20
 5033.0001069538
  10
 2887.9502048709
  20
 5370.0000000000
  10
 2852.9502048709
  20
 5370.0000000000
  10
 2852.9502048709
  20
 5017.2822462541
   0
ARC
   5
1B2
 100
AcDbEntity
   8
LEVEL001
 370
13
   6
CONTINUOUS
  62
7
 100
AcDbCircle
  10
 5849.0359279150
  20
 4870.0000000000
  30
0.0
  40
 3037.3558665110
 100
AcDbArc
  50
 175.42443917237
  51
 189.45585401856
   0
LINE
   5
1B3
 100
AcDbEntity
   8
LEVEL001
 370
13
 100
AcDbLine
   6
DASHDOT
  62
6
  10
 3622.4913074471
  20
 4870.0000000000
  30
0.0
  11
 4000.5602097314
  21
 4870.0000000000
  31
0.0
   0
CIRCLE
   5
1B4
 100
AcDbEntity
   8
LEVEL001
 370
13
 100
AcDbCircle
   6
CONTINUOUS
  62
1
  10
 3916.0009025400
  20
 5084.2674587026
  30
0.0
  40
 7.5000000000000
   0
ARC
   5
1B5
 100
AcDbEntity
   8
LEVEL001
 370
13
   6
CONTINUOUS
  62
1
 100
AcDbCircle
  10
 3916.0009025400
  20
 4370.0000000000
  30
0.0
  40
 7.5000000000000
 100
AcDbArc
  50
 180.00000000000
  51
0.0
   0
CIRCLE
   5
1B6
 100
AcDbEntity
   8
LEVEL001
 370
13
 100
AcDbCircle
   6
CONTINUOUS
  62
1
  10
 3916.0009025400
  20
 4475.9946674550
  30
0.0
  40
 7.5000000000000
   0
CIRCLE
   5
1B7
 100
AcDbEntity
   8
LEVEL001
 370
13
 100
AcDbCircle
   6
CONTINUOUS
  62
1
  10
 3916.0009025400
  20
 4749.0391219523
  30
0.0
  40
 7.5000000000000
   0
LWPOLYLINE
   5
1B8
 100
AcDbEntity
   8
LEVEL001
 370
13
   6
CONTINUOUS
  62
7
 100
AcDbPolyline
  90
4
  70
0
  10
 3901.0009025400
  20
 4815.0000000000
  10
 3814.3923209886
  20
 4815.0000000000
  10
 3814.3923209886
  20
 4925.0000000000
  10
 3901.0009025400
  20
 4925.0000000000
   0
CIRCLE
   5
1B9
 100
AcDbEntity
   8
LEVEL001
 370
13
 100
AcDbCircle
   6
CONTINUOUS
  62
1
  10
 3916.0009025400
  20
 5258.3845326614
  30
0.0
  40
 7.5000000000000
   0
CIRCLE
   5
1BA
 100
AcDbEntity
   8
LEVEL001
 370
13
 100
AcDbCircle
   6
CONTINUOUS
  62
1
  10
 3916.0009025400
  20
 5359.7243939286
  30
0.0
  40
 7.5000000000000
   0
LWPOLYLINE
   5
1BB
 100
AcDbEntity
   8
LEVEL001
 370
13
   6
CONTINUOUS
  62
7
 100
AcDbPolyline
  90
5
  70
1
  10
 3901.0009025400
  20
 5017.2822462541
  10
 3936.0009025400
  20
 5017.2822462541
  10
 3981.0009025400
  20
 5152.6366274560
  10
 3981.0009025400
  20
 5370.0000000000
  10
 3901.0009025400
  20
 5370.0000000000
   0
LWPOLYLINE
   5
1BC
 100
AcDbEntity
   8
LEVEL001
 370
13
   6
CONTINUOUS
  62
7
 100
AcDbPolyline
  90
4
  70
0
  10
 3936.0009025400
  20
 5017.2822462541
  10
 3936.0009025400
  20
 4370.0000000000
  10
 3901.0009025400
  20
 4370.0000000000
  10
 3901.0009025400
  20
 5033.0001069538
   0
ARC
   5
1BD
 100
AcDbEntity
   8
LEVEL001
 370
13
   6
DOT
  62
2
 100
AcDbCircle
  10
 939.91517949590
  20
 4870.0000000000
  30
0.0
  40
 3037.3558665110
 100
AcDbArc
  50
 4.5755608276339
  51
 9.4558540185633
   0
LWPOLYLINE
   5
1BE
 100
AcDbEntity
   8
LEVEL001
 370
13
   6
DOT
  62
2
 100
AcDbPolyline
  90
4
  70
0
  10
 3901.0009025400
  20
 5033.0001069538
  10
 3901.0009025400
  20
 5370.0000000000
  10
 3936.0009025400
  20
 5370.0000000000
  10
 3936.0009025400
  20
 5017.2822462541
   0
ARC
   5
1BF
 100
AcDbEntity
   8
LEVEL001
 370
13
   6
CONTINUOUS
  62
7
 100
AcDbCircle
  10
 939.91517949590
  20
 4870.0000000000
  30
0.0
  40
 3037.3558665110
 100
AcDbArc
  50
 350.54414598144
  51
 4.5755608276340
   0
LWPOLYLINE
   5
1C0
 100
AcDbEntity
   8
LEVEL001
 370
13
   6
CONTINUOUS
  62
7
 100
AcDbPolyline
  90
4
  70
1
  10
 3846.3923209886
  20
 4893.0000000000
  10
 3832.3923209886
  20
 4893.0000000000
  10
 3832.3923209886
  20
 4907.0000000000
  10
 3846.3923209886
  20
 4907.0000000000
   0
LWPOLYLINE
   5
1C1
 100
AcDbEntity
   8
LEVEL001
 370
13
   6
CONTINUOUS
  62
7
 100
AcDbPolyline
  90
4
  70
1
  10
 3846.3923209886
  20
 4833.0000000000
  10
 3832.3923209886
  20
 4833.0000000000
  10
 3832.3923209886
  20
 4847.0000000000
  10
 3846.3923209886
  20
 4847.0000000000
   0
ARC
   5
1C2
 100
AcDbEntity
   8
LEVEL001
 370
13
   6
CONTINUOUS
  62
7
 100
AcDbCircle
  10
 3796.4509318606
  20
 4865.5854138189
  30
0.0
  40
 8.0000000000000
 100
AcDbArc
  50
 35.000000000010
  51
 215.00000000001
   0
ARC
   5
1C3
 100
AcDbEntity
   8
LEVEL001
 370
13
   6
CONTINUOUS
  62
7
 100
AcDbCircle
  10
 3845.6000545179
  20
 4900.0000000000
  30
0.0
  40
 52.000000000000
 100
AcDbArc
  50
 214.99999999999
  51
 233.11945020299
   0
ARC
   5
1C4
 100
AcDbEntity
   8
LEVEL001
 370
13
   6
CONTINUOUS
  62
7
 100
AcDbCircle
  10
 3845.6000545179
  20
 4900.0000000000
  30
0.0
  40
 68.000000000000
 100
AcDbArc
  50
 215.00000000000
  51
 242.68144807227
   0
LINE
   5
1C5
 100
AcDbEntity
   8
LEVEL001
 370
13
 100
AcDbLine
   6
CONTINUOUS
  62
6
  10
 3765.6000545179
  20
 4820.0000000000
  30
0.0
  11
 3765.6000545179
  21
 4920.0000000000
  31
0.0
   0
LWPOLYLINE
   5
1C6
 100
AcDbEntity
   8
LEVEL001
 370
13
   6
CONTINUOUS
  62
7
 100
AcDbPolyline
  90
4
  70
0
  10
 3814.3923209886
  20
 4815.0000000000
  10
 3652.8166995511
  20
 4815.0000000000
  10
 3652.8166995511
  20
 4925.0000000000
  10
 3814.3923209886
  20
 4925.0000000000
   0
LWPOLYLINE
   5
1C7
 100
AcDbEntity
   8
LEVEL001
 370
13
   6
CONTINUOUS
  62
7
 100
AcDbPolyline
  90
4
  70
1
  10
 3679.8166995511
  20
 4893.0000000000
  10
 3665.8166995511
  20
 4893.0000000000
  10
 3665.8166995511
  20
 4907.0000000000
  10
 3679.8166995511
  20
 4907.0000000000
   0
LINE
   5
1C8
 100
AcDbEntity
   8
LEVEL001
 370
13
 100
AcDbLine
   6
CONTINUOUS
  62
6
  10
 3692.3886899972
  20
 4920.0000000000
  30
0.0
  11
 3692.3886899972
  21
 4820.0000000000
  31
0.0
   0
LWPOLYLINE
   5
1C9
 100
AcDbEntity
   8
LEVEL001
 370
13
   6
CONTINUOUS
  62
7
 100
AcDbPolyline
  90
4
  70
1
  10
 3679.8166995511
  20
 4833.0000000000
  10
 3665.8166995511
  20
 4833.0000000000
  10
 3665.8166995511
  20
 4847.0000000000
  10
 3679.8166995511
  20
 4847.0000000000
   0
LINE
   5
1CA
 100
AcDbEntity
   8
LEVEL001
 370
13
 100
AcDbLine
   6
DASHDOT
  62
6
  10
 3727.8167166537
  20
 4960.0000000000
  30
0.0
  11
 3727.8167166537
  21
 4705.0000000000
  31
0.0
   0
LWPOLYLINE
   5
1CB
 100
AcDbEntity
   8
LEVEL001
 370
13
   6
CONTINUOUS
  62
7
 100
AcDbPolyline
  90
4
  70
0
  10
 3765.9667166537
  20
 4815.0000000000
  10
 3765.9667166537
  20
 4725.0000000000
  10
 3689.6667166537
  20
 4725.0000000000
  10
 3689.6667166537
  20
 4740.0000000000
   0
LEADER
   5
1CC
 100
AcDbEntity
   8
LEVEL001
 370
13
   6
CONTINUOUS
  62
1
 100
AcDbLeader
   3
GMM001
  73
3
  74
1
  75
0
  40
 66.000000000000
  41
0.0
  76
2
  10
 2807.9502048709
  20
 5370.0000000000
  30
0.0
  10
 2583.8144614966
  20
 5467.4227511784
  30
0.0
  77
1
   0
MTEXT
   5
1CD
 100
AcDbEntity
   8
LEVEL001
 370
13
  62
1
 100
AcDbMText
  10
 1468.2880537056
  20
 3923.2499999928
  30
0.0
  40
 80.000000000000
  41
0.0
  71
4
  72
1
   1
{\T1.000000;注}\P{\T1.000000;意}
   7
GMM003
  44
 0.79999984000003
   0
LINE
   5
1CE
 100
AcDbEntity
   8
LEVEL001
 370
13
 100
AcDbLine
   6
DASHDOT
  62
6
  10
 1519.4755537054
  20
 5226.1960442952
  30
0.0
  11
 1519.4755537054
  21
 269.99999999280
  31
0.0
   0
LINE
   5
1CF
 100
AcDbEntity
   8
LEVEL001
 370
13
 100
AcDbLine
   6
DASHDOT
  62
6
  10
 3394.4755537054
  20
 5226.1960442952
  30
0.0
  11
 3394.4755537054
  21
 269.99999999280
  31
0.0
   0
CIRCLE
   5
1D0
 100
AcDbEntity
   8
LEVEL001
 370
13
 100
AcDbCircle
   6
CONTINUOUS
  62
7
  10
 4644.4752857427
  20
 4870.0000000000
  30
0.0
  40
 500.00000000000
   0
ARC
   5
1D1
 100
AcDbEntity
   8
LEVEL001
 370
13
   6
CONTINUOUS
  62
7
 100
AcDbCircle
  10
 4644.4752857427
  20
 4870.0000000000
  30
0.0
  40
 507.00000000000
 100
AcDbArc
  50
 18.753603132103
  51
 161.24639686790
   0
LINE
   5
1D2
 100
AcDbEntity
   8
LEVEL001
 370
13
 100
AcDbLine
   6
CONTINUOUS
  62
7
  10
 4164.3919596419
  20
 5033.0000000000
  30
0.0
  11
 4171.7904012795
  21
 5033.0000000000
  31
0.0
   0
LINE
   5
1D3
 100
AcDbEntity
   8
LEVEL001
 370
13
 100
AcDbLine
   6
CONTINUOUS
  62
7
  10
 5124.5586118435
  20
 5033.0000000000
  30
0.0
  11
 5117.1601702059
  21
 5033.0000000000
  31
0.0
   0
ARC
   5
1D4
 100
AcDbEntity
   8
LEVEL001
 370
13
   6
CONTINUOUS
  62
1
 100
AcDbCircle
  10
 4775.6965416096
  20
 5359.7243939285
  30
0.0
  40
 7.5000000000000
 100
AcDbArc
  50
 344.57621078476
  51
 165.42378921525
   0
ARC
   5
1D5
 100
AcDbEntity
   8
LEVEL001
 370
13
   6
CONTINUOUS
  62
1
 100
AcDbCircle
  10
 4513.2538890556
  20
 5359.7243561958
  30
0.0
  40
 7.5000000000000
 100
AcDbArc
  50
 14.576227260880
  51
 195.42380568989
   0
ARC
   5
1D6
 100
AcDbEntity
   8
LEVEL001
 370
13
   6
CONTINUOUS
  62
1
 100
AcDbCircle
  10
 5103.9733337702
  20
 5084.2674587026
  30
0.0
  40
 7.5000000000000
 100
AcDbArc
  50
 294.57621078464
  51
 115.42378921538
   0
ARC
   5
1D7
 100
AcDbEntity
   8
LEVEL001
 370
13
   6
CONTINUOUS
  62
1
 100
AcDbCircle
  10
 4184.9771761026
  20
 5084.2673265740
  30
0.0
  40
 7.5000000000000
 100
AcDbArc
  50
 64.576227259571
  51
 245.42380569119
   0
ARC
   5
1D8
 100
AcDbEntity
   8
LEVEL001
 370
13
   6
CONTINUOUS
  62
1
 100
AcDbCircle
  10
 4970.3686038537
  20
 5258.3845326614
  30
0.0
  40
 7.5000000000000
 100
AcDbArc
  50
 319.57621078434
  51
 140.42378921569
   0
ARC
   5
1D9
 100
AcDbEntity
   8
LEVEL001
 370
13
   6
CONTINUOUS
  62
1
 100
AcDbCircle
  10
 4318.5818559517
  20
 5258.3844389508
  30
0.0
  40
 7.5000000000000
 100
AcDbArc
  50
 39.576227259862
  51
 220.42380569090
   0
ARC
   5
1DA
 100
AcDbEntity
   8
LEVEL001
 370
13
   6
CONTINUOUS
  62
1
 100
AcDbCircle
  10
 5129.6231662718
  20
 4749.0391219523
  30
0.0
  40
 7.5000000000000
 100
AcDbArc
  50
 255.57028586317
  51
 76.429730612187
   0
ARC
   5
1DB
 100
AcDbEntity
   8
LEVEL001
 370
13
   6
CONTINUOUS
  62
1
 100
AcDbCircle
  10
 4159.3274399959
  20
 4749.0389824481
  30
0.0
  40
 7.5000000000000
 100
AcDbArc
  50
 103.57028586348
  51
 284.42973061197
   0
ARC
   5
1DC
 100
AcDbEntity
   8
LEVEL001
 370
13
   6
CONTINUOUS
  62
2
 100
AcDbCircle
  10
 4476.0859013804
  20
 4806.3995733689
  30
0.0
  40
 29.999999552965
 100
AcDbArc
  50
 20.690820101612
  51
 86.933683158184
   0
LINE
   5
1DD
 100
AcDbEntity
   8
LEVEL001
 370
13
 100
AcDbLine
   6
CONTINUOUS
  62
2
  10
 4477.6906548143
  20
 4836.3566216146
  30
0.0
  11
 4222.4062347902
  21
 4850.0288015866
  31
0.0
   0
ARC
   5
1DE
 100
AcDbEntity
   8
LEVEL001
 370
13
   6
CONTINUOUS
  62
2
 100
AcDbCircle
  10
 4476.0860253239
  20
 4933.6006791465
  30
0.0
  40
 29.999999552965
 100
AcDbArc
  50
 273.06549610976
  51
 339.30850994616
   0
LINE
   5
1DF
 100
AcDbEntity
   8
LEVEL001
 370
13
 100
AcDbLine
   6
CONTINUOUS
  62
2
  10
 4477.6903496385
  20
 4903.6436079166
  30
0.0
  11
 4222.4062347902
  21
 4889.9714279446
  31
0.0
   0
ARC
   5
1E0
 100
AcDbEntity
   8
LEVEL001
 370
13
   6
CONTINUOUS
  62
2
 100
AcDbCircle
  10
 4505.2014829633
  20
 4984.0294025041
  30
0.0
  40
 29.999999552965
 100
AcDbArc
  50
 320.69073349109
  51
 26.934436539243
   0
ARC
   5
1E1
 100
AcDbEntity
   8
LEVEL001
 370
13
   6
CONTINUOUS
  62
2
 100
AcDbCircle
  10
 4644.4750243911
  20
 4869.9992324074
  30
0.0
  40
 149.99999776483
 100
AcDbArc
  50
 140.69118347550
  51
 159.30810759659
   0
ARC
   5
1E2
 100
AcDbEntity
   8
LEVEL001
 370
13
   6
CONTINUOUS
  62
2
 100
AcDbCircle
  10
 4615.3608909105
  20
 5047.6297377599
  30
0.0
  40
 29.999999552965
 100
AcDbArc
  50
 213.06504559763
  51
 279.30759622405
   0
LINE
   5
1E3
 100
AcDbEntity
   8
LEVEL001
 370
13
 100
AcDbLine
   6
CONTINUOUS
  62
2
  10
 4531.9472458027
  20
 4997.6185210671
  30
0.0
  11
 4416.1446352236
  21
 5225.5378291942
  31
0.0
   0
LINE
   5
1E4
 100
AcDbEntity
   8
LEVEL001
 370
13
 100
AcDbLine
   6
CONTINUOUS
  62
2
  10
 4590.2193396609
  20
 5031.2620142181
  30
0.0
  11
 4450.7353939855
  21
 5245.5091423732
  31
0.0
   0
LINE
   5
1E5
 100
AcDbEntity
   8
LEVEL001
 370
13
 100
AcDbLine
   6
CONTINUOUS
  62
2
  10
 4531.9469406269
  20
 4742.3820136399
  30
0.0
  11
 4416.1452455752
  21
 4514.4630106885
  31
0.0
   0
LINE
   5
1E6
 100
AcDbEntity
   8
LEVEL001
 370
13
 100
AcDbLine
   6
CONTINUOUS
  62
2
  10
 4590.2190344852
  20
 4708.7382153131
  30
0.0
  11
 4450.7366146886
  21
 4494.4916975096
  31
0.0
   0
ARC
   5
1E7
 100
AcDbEntity
   8
LEVEL001
 370
13
   6
CONTINUOUS
  62
2
 100
AcDbCircle
  10
 4615.3604356359
  20
 4692.3702612152
  30
0.0
  40
 29.999999552965
 100
AcDbArc
  50
 80.691522663966
  51
 146.93442898003
   0
ARC
   5
1E8
 100
AcDbEntity
   8
LEVEL001
 370
13
   6
CONTINUOUS
  62
2
 100
AcDbCircle
  10
 4505.2009864296
  20
 4755.9707555704
  30
0.0
  40
 29.999999552965
 100
AcDbArc
  50
 333.06637029425
  51
 39.308689609811
   0
CIRCLE
   5
1E9
 100
AcDbEntity
   8
LEVEL001
 370
13
 100
AcDbCircle
   6
CONTINUOUS
  62
2
  10
 4644.4753202978
  20
 4870.0001147656
  30
0.0
  40
 124.99999813735
   0
ARC
   5
1EA
 100
AcDbEntity
   8
LEVEL001
 370
13
   6
CONTINUOUS
  62
2
 100
AcDbCircle
  10
 4644.4752857427
  20
 4870.0000000000
  30
0.0
  40
 149.99999776483
 100
AcDbArc
  50
 200.69160987412
  51
 219.30847493284
   0
ARC
   5
1EB
 100
AcDbEntity
   8
LEVEL001
 370
13
   6
CONTINUOUS
  62
2
 100
AcDbCircle
  10
 4433.9755637160
  20
 5234.5964150208
  30
0.0
  40
 19.999999701977
 100
AcDbArc
  50
 33.068162056360
  51
 206.93178057477
   0
ARC
   5
1EC
 100
AcDbEntity
   8
LEVEL001
 370
13
   6
CONTINUOUS
  62
2
 100
AcDbCircle
  10
 4223.4770466256
  20
 4870.0001147656
  30
0.0
  40
 19.999999701977
 100
AcDbArc
  50
 93.069117498801
  51
 266.93088250120
   0
ARC
   5
1ED
 100
AcDbEntity
   8
LEVEL001
 370
13
   6
CONTINUOUS
  62
2
 100
AcDbCircle
  10
 4433.9761740676
  20
 4505.4044248620
  30
0.0
  40
 19.999999701977
 100
AcDbArc
  50
 153.06821942523
  51
 326.93183794364
   0
ARC
   5
1EE
 100
AcDbEntity
   8
LEVEL001
 370
13
   6
CONTINUOUS
  62
2
 100
AcDbCircle
  10
 4854.9767950973
  20
 5234.5985855653
  30
0.0
  40
 19.999999701977
 100
AcDbArc
  50
 333.05928327149
  51
 146.93925766472
   0
ARC
   5
1EF
 100
AcDbEntity
   8
LEVEL001
 370
13
   6
CONTINUOUS
  62
2
 100
AcDbCircle
  10
 4673.5905101354
  20
 5047.6299683161
  30
0.0
  40
 29.999999552965
 100
AcDbArc
  50
 260.69152266397
  51
 326.93442898003
   0
LINE
   5
1F0
 100
AcDbEntity
   8
LEVEL001
 370
13
 100
AcDbLine
   6
CONTINUOUS
  62
2
  10
 4698.7319112862
  20
 5031.2620142181
  30
0.0
  11
 4838.2149414343
  21
 5245.5091423732
  31
0.0
   0
ARC
   5
1F1
 100
AcDbEntity
   8
LEVEL001
 370
13
   6
CONTINUOUS
  62
2
 100
AcDbCircle
  10
 4644.4764038180
  20
 4870.0001063908
  30
0.0
  40
 149.99999776483
 100
AcDbArc
  50
 80.691856705208
  51
 99.308863964694
   0
ARC
   5
1F2
 100
AcDbEntity
   8
LEVEL001
 370
13
   6
CONTINUOUS
  62
2
 100
AcDbCircle
  10
 4783.7495584877
  20
 4984.0295908201
  30
0.0
  40
 29.999999552965
 100
AcDbArc
  50
 153.06596687767
  51
 219.30897805813
   0
LINE
   5
1F3
 100
AcDbEntity
   8
LEVEL001
 370
13
 100
AcDbLine
   6
CONTINUOUS
  62
2
  10
 4757.0036999686
  20
 4997.6185210671
  30
0.0
  11
 4872.8063105477
  21
 5225.5372188427
  31
0.0
   0
ARC
   5
1F4
 100
AcDbEntity
   8
LEVEL001
 370
13
   6
CONTINUOUS
  62
2
 100
AcDbCircle
  10
 4673.5909654085
  20
 4692.3703358417
  30
0.0
  40
 29.999999552965
 100
AcDbArc
  50
 33.066096429618
  51
 99.309358447321
   0
ARC
   5
1F5
 100
AcDbEntity
   8
LEVEL001
 370
13
   6
CONTINUOUS
  62
2
 100
AcDbCircle
  10
 4783.7500307935
  20
 4755.9712155863
  30
0.0
  40
 29.999999552965
 100
AcDbArc
  50
 140.69244585415
  51
 206.93461516643
   0
LINE
   5
1F6
 100
AcDbEntity
   8
LEVEL001
 370
13
 100
AcDbLine
   6
CONTINUOUS
  62
2
  10
 4811.2605961328
  20
 4836.3566216146
  30
0.0
  11
 5066.5456265084
  21
 4850.0288015866
  31
0.0
   0
LINE
   5
1F7
 100
AcDbEntity
   8
LEVEL001
 370
13
 100
AcDbLine
   6
CONTINUOUS
  62
2
  10
 4811.2602909570
  20
 4903.6433027409
  30
0.0
  11
 5066.5453213327
  21
 4889.9717331204
  31
0.0
   0
LINE
   5
1F8
 100
AcDbEntity
   8
LEVEL001
 370
13
 100
AcDbLine
   6
CONTINUOUS
  62
2
  10
 4698.7322164619
  20
 4708.7385204889
  30
0.0
  11
 4838.2149414343
  21
 4494.4910871580
  31
0.0
   0
LINE
   5
1F9
 100
AcDbEntity
   8
LEVEL001
 370
13
 100
AcDbLine
   6
CONTINUOUS
  62
2
  10
 4757.0043103202
  20
 4742.3820136399
  30
0.0
  11
 4872.8057001962
  21
 4514.4620951612
  31
0.0
   0
ARC
   5
1FA
 100
AcDbEntity
   8
LEVEL001
 370
13
   6
CONTINUOUS
  62
2
 100
AcDbCircle
  10
 4644.4754728857
  20
 4869.9999705555
  30
0.0
  40
 149.99999776483
 100
AcDbArc
  50
 260.69149637044
  51
 279.30850362956
   0
ARC
   5
1FB
 100
AcDbEntity
   8
LEVEL001
 370
13
   6
CONTINUOUS
  62
2
 100
AcDbCircle
  10
 4644.4757074007
  20
 4870.0004305977
  30
0.0
  40
 149.99999776483
 100
AcDbArc
  50
 320.69131249564
  51
 339.30833891489
   0
ARC
   5
1FC
 100
AcDbEntity
   8
LEVEL001
 370
13
   6
CONTINUOUS
  62
2
 100
AcDbCircle
  10
 4812.8649204475
  20
 4806.3995503847
  30
0.0
  40
 29.999999552965
 100
AcDbArc
  50
 93.065496109764
  51
 159.30850994616
   0
ARC
   5
1FD
 100
AcDbEntity
   8
LEVEL001
 370
13
   6
CONTINUOUS
  62
2
 100
AcDbCircle
  10
 4812.8649267484
  20
 4933.6003572882
  30
0.0
  40
 29.999999552965
 100
AcDbArc
  50
 200.69145599578
  51
 266.93390816088
   0
ARC
   5
1FE
 100
AcDbEntity
   8
LEVEL001
 370
13
   6
CONTINUOUS
  62
2
 100
AcDbCircle
  10
 4644.4754934253
  20
 4870.0000602802
  30
0.0
  40
 149.99999776483
 100
AcDbArc
  50
 20.691429768673
  51
 39.308558486273
   0
ARC
   5
1FF
 100
AcDbEntity
   8
LEVEL001
 370
13
   6
CONTINUOUS
  62
2
 100
AcDbCircle
  10
 4854.9739946735
  20
 4505.4059450408
  30
0.0
  40
 19.999999701977
 100
AcDbArc
  50
 213.07544560321
  51
 26.924934790056
   0
ARC
   5
200
 100
AcDbEntity
   8
LEVEL001
 370
13
   6
CONTINUOUS
  62
2
 100
AcDbCircle
  10
 5065.4775117587
  20
 4870.0002591940
  30
0.0
  40
 19.999999701977
 100
AcDbArc
  50
 273.06137984711
  51
 86.939495666198
   0
CIRCLE
   5
201
 100
AcDbEntity
   8
LEVEL001
 370
13
 100
AcDbCircle
   6
CONTINUOUS
  62
7
  10
 4684.4754934253
  20
 4905.0000602802
  30
0.0
  40
 7.0000000000000
   0
LINE
   5
202
 100
AcDbEntity
   8
LEVEL001
 370
13
 100
AcDbLine
   6
DASHDOT
  62
6
  10
 4664.4754934253
  20
 4905.0000602802
  30
0.0
  11
 4704.4754934253
  21
 4905.0000602802
  31
0.0
   0
LINE
   5
203
 100
AcDbEntity
   8
LEVEL001
 370
13
 100
AcDbLine
   6
DASHDOT
  62
6
  10
 4684.4754934253
  20
 4885.0000602802
  30
0.0
  11
 4684.4754934253
  21
 4925.0000602802
  31
0.0
   0
CIRCLE
   5
204
 100
AcDbEntity
   8
LEVEL001
 370
13
 100
AcDbCircle
   6
CONTINUOUS
  62
7
  10
 4604.4754934253
  20
 4905.0000602802
  30
0.0
  40
 7.0000000000000
   0
LINE
   5
205
 100
AcDbEntity
   8
LEVEL001
 370
13
 100
AcDbLine
   6
DASHDOT
  62
6
  10
 4584.4754934253
  20
 4905.0000602802
  30
0.0
  11
 4624.4754934253
  21
 4905.0000602802
  31
0.0
   0
LINE
   5
206
 100
AcDbEntity
   8
LEVEL001
 370
13
 100
AcDbLine
   6
DASHDOT
  62
6
  10
 4604.4754934253
  20
 4885.0000602802
  30
0.0
  11
 4604.4754934253
  21
 4925.0000602802
  31
0.0
   0
CIRCLE
   5
207
 100
AcDbEntity
   8
LEVEL001
 370
13
 100
AcDbCircle
   6
CONTINUOUS
  62
7
  10
 4604.4754934253
  20
 4835.0000602802
  30
0.0
  40
 7.0000000000000
   0
LINE
   5
208
 100
AcDbEntity
   8
LEVEL001
 370
13
 100
AcDbLine
   6
DASHDOT
  62
6
  10
 4584.4754934253
  20
 4835.0000602802
  30
0.0
  11
 4624.4754934253
  21
 4835.0000602802
  31
0.0
   0
LINE
   5
209
 100
AcDbEntity
   8
LEVEL001
 370
13
 100
AcDbLine
   6
DASHDOT
  62
6
  10
 4604.4754934253
  20
 4815.0000602802
  30
0.0
  11
 4604.4754934253
  21
 4855.0000602802
  31
0.0
   0
CIRCLE
   5
20A
 100
AcDbEntity
   8
LEVEL001
 370
13
 100
AcDbCircle
   6
CONTINUOUS
  62
7
  10
 4684.4754934253
  20
 4835.0000602802
  30
0.0
  40
 7.0000000000000
   0
LINE
   5
20B
 100
AcDbEntity
   8
LEVEL001
 370
13
 100
AcDbLine
   6
DASHDOT
  62
6
  10
 4664.4754934253
  20
 4835.0000602802
  30
0.0
  11
 4704.4754934253
  21
 4835.0000602802
  31
0.0
   0
LINE
   5
20C
 100
AcDbEntity
   8
LEVEL001
 370
13
 100
AcDbLine
   6
DASHDOT
  62
6
  10
 4684.4754934253
  20
 4815.0000602802
  30
0.0
  11
 4684.4754934253
  21
 4855.0000602802
  31
0.0
   0
LINE
   5
20D
 100
AcDbEntity
   8
LEVEL001
 370
13
 100
AcDbLine
   6
CONTINUOUS
  62
6
  10
 4478.6534843898
  20
 4885.6693650204
  30
0.0
  11
 4267.3159020898
  21
 4874.3510058141
  31
0.0
   0
LINE
   5
20E
 100
AcDbEntity
   8
LEVEL001
 370
13
 100
AcDbLine
   6
CONTINUOUS
  62
6
  10
 4478.6531792140
  20
 4854.3308645108
  30
0.0
  11
 4267.3155969140
  21
 4865.6492237172
  31
0.0
   0
LINE
   5
20F
 100
AcDbEntity
   8
LEVEL001
 370
13
 100
AcDbLine
   6
CONTINUOUS
  62
6
  10
 4575.1338906670
  20
 5021.4408473722
  30
0.0
  11
 4459.6633113329
  21
 5198.8056518582
  31
0.0
   0
LINE
   5
210
 100
AcDbEntity
   8
LEVEL001
 370
13
 100
AcDbLine
   6
CONTINUOUS
  62
6
  10
 4547.9943036690
  20
 5005.7722074690
  30
0.0
  11
 4452.1276058788
  21
 5194.4550659855
  31
0.0
   0
LINE
   5
211
 100
AcDbEntity
   8
LEVEL001
 370
13
 100
AcDbLine
   6
CONTINUOUS
  62
6
  10
 4575.1345010185
  20
 4718.5593821590
  30
0.0
  11
 4459.6636165087
  21
 4541.1948828488
  31
0.0
   0
LINE
   5
212
 100
AcDbEntity
   8
LEVEL001
 370
13
 100
AcDbLine
   6
CONTINUOUS
  62
6
  10
 4547.9943036690
  20
 4734.2283272380
  30
0.0
  11
 4452.1276058788
  21
 4545.5454687215
  31
0.0
   0
LINE
   5
213
 100
AcDbEntity
   8
LEVEL001
 370
13
 100
AcDbLine
   6
CONTINUOUS
  62
6
  10
 4740.9566421023
  20
 5005.7719022932
  30
0.0
  11
 4836.8233398925
  21
 5194.4544556340
  31
0.0
   0
LINE
   5
214
 100
AcDbEntity
   8
LEVEL001
 370
13
 100
AcDbLine
   6
CONTINUOUS
  62
6
  10
 4713.8170551043
  20
 5021.4411525480
  30
0.0
  11
 4829.2879396142
  21
 5198.8056518582
  31
0.0
   0
LINE
   5
215
 100
AcDbEntity
   8
LEVEL001
 370
13
 100
AcDbLine
   6
CONTINUOUS
  62
6
  10
 4810.2980717331
  20
 4885.6690598446
  30
0.0
  11
 5021.6353488573
  21
 4874.3510058141
  31
0.0
   0
LINE
   5
216
 100
AcDbEntity
   8
LEVEL001
 370
13
 100
AcDbLine
   6
CONTINUOUS
  62
6
  10
 4810.2980717331
  20
 4854.3311696866
  30
0.0
  11
 5021.6356540331
  21
 4865.6495288929
  31
0.0
   0
LINE
   5
217
 100
AcDbEntity
   8
LEVEL001
 370
13
 100
AcDbLine
   6
CONTINUOUS
  62
6
  10
 4740.9563369265
  20
 4734.2280220622
  30
0.0
  11
 4836.8233398925
  21
 4545.5451635457
  31
0.0
   0
LINE
   5
218
 100
AcDbEntity
   8
LEVEL001
 370
13
 100
AcDbLine
   6
CONTINUOUS
  62
6
  10
 4713.8170551043
  20
 4718.5587718074
  30
0.0
  11
 4829.2876344384
  21
 4541.1945776730
  31
0.0
   0
LINE
   5
219
 100
AcDbEntity
   8
LEVEL001
 370
13
 100
AcDbLine
   6
DASHDOT
  62
6
  10
 5194.4754681364
  20
 4870.0000000000
  30
0.0
  11
 4094.4754681364
  21
 4870.0000000000
  31
0.0
   0
LINE
   5
21A
 100
AcDbEntity
   8
LEVEL001
 370
13
 100
AcDbLine
   6
DASHDOT
  62
6
  10
 4644.4755537054
  20
 5453.3224264899
  30
0.0
  11
 4644.4755537054
  21
 4320.0000349914
  31
0.0
   0
ARC
   5
21B
 100
AcDbEntity
   8
LEVEL001
 370
13
   6
CONTINUOUS
  62
1
 100
AcDbCircle
  10
 4644.4753576302
  20
 4370.0000000000
  30
0.0
  40
 7.5000000000000
 100
AcDbArc
  50
 179.57028586276
  51
 0.42973061259227
   0
ARC
   5
21C
 100
AcDbEntity
   8
LEVEL001
 370
13
   6
CONTINUOUS
  62
1
 100
AcDbCircle
  10
 4336.6446047279
  20
 4475.9945789383
  30
0.0
  40
 7.5000000000000
 100
AcDbArc
  50
 141.57028586228
  51
 322.42973061316
   0
ARC
   5
21D
 100
AcDbEntity
   8
LEVEL001
 370
13
   6
CONTINUOUS
  62
1
 100
AcDbCircle
  10
 4952.3060800537
  20
 4475.9946674549
  30
0.0
  40
 7.5000000000000
 100
AcDbArc
  50
 217.57028586158
  51
 38.429730613773
   0
MTEXT
   5
21F
 100
AcDbEntity
   8
LEVEL001
 370
13
  62
7
 100
AcDbMText
  10
 4269.4755537054
  20
 4369.9999999928
  30
0.0
  40
 66.000000000000
  41
0.0
  71
5
  72
1
   1
\T1.000000;２
   7
GMM002
  44
 0.79999984000003
   0
CIRCLE
   5
220
 100
AcDbEntity
   8
LEVEL001
 370
13
 100
AcDbCircle
   6
CONTINUOUS
  62
1
  10
 4269.4755537054
  20
 4369.9999999928
  30
0.0
  40
 69.999997913838
   0
LEADER
   5
221
 100
AcDbEntity
   8
LEVEL001
 370
13
   6
CONTINUOUS
  62
1
 100
AcDbLeader
   3
GMM001
  73
3
  74
1
  75
0
  40
 66.000000000000
  41
0.0
  76
2
  10
 4394.4755537054
  20
 4494.9999999928
  30
0.0
  10
 4318.6636591561
  20
 4419.8049193293
  30
0.0
  77
1
   0
LINE
   5
222
 100
AcDbEntity
   8
LEVEL002
 370
13
 100
AcDbLine
   6
CONTINUOUS
  62
5
  10
 3746.9755537054
  20
 1869.9999999928
  30
0.0
  11
 3694.4755537054
  21
 1817.4999999928
  31
0.0
   0
LINE
   5
223
 100
AcDbEntity
   8
LEVEL002
 370
13
 100
AcDbLine
   6
CONTINUOUS
  62
5
  10
 3710.3854562815
  20
 1817.4999999928
  30
0.0
  11
 3762.8854562815
  21
 1869.9999999928
  31
0.0
   0
LINE
   5
224
 100
AcDbEntity
   8
LEVEL002
 370
13
 100
AcDbLine
   6
CONTINUOUS
  62
5
  10
 3778.7953588591
  20
 1869.9999999928
  30
0.0
  11
 3726.2953588591
  21
 1817.4999999928
  31
0.0
   0
LINE
   5
225
 100
AcDbEntity
   8
LEVEL002
 370
13
 100
AcDbLine
   6
CONTINUOUS
  62
5
  10
 3742.2052614351
  20
 1817.4999999928
  30
0.0
  11
 3794.7052614351
  21
 1869.9999999928
  31
0.0
   0
LINE
   5
226
 100
AcDbEntity
   8
LEVEL002
 370
13
 100
AcDbLine
   6
CONTINUOUS
  62
5
  10
 3799.4755537057
  20
 1817.4999999928
  30
0.0
  11
 3770.8404075704
  21
 1846.1351461281
  31
0.0
   0
LINE
   5
227
 100
AcDbEntity
   8
LEVEL002
 370
13
 100
AcDbLine
   6
CONTINUOUS
  62
5
  10
 3778.7953588586
  20
 1854.0900974163
  30
0.0
  11
 3815.3854562821
  21
 1817.4999999928
  31
0.0
   0
LINE
   5
228
 100
AcDbEntity
   8
LEVEL002
 370
13
 100
AcDbLine
   6
CONTINUOUS
  62
5
  10
 3831.2953588586
  20
 1817.4999999928
  30
0.0
  11
 3786.7503101469
  21
 1862.0450487045
  31
0.0
   0
LINE
   5
229
 100
AcDbEntity
   8
LEVEL002
 370
13
 100
AcDbLine
   6
CONTINUOUS
  62
5
  10
 3794.7052614351
  20
 1869.9999999928
  30
0.0
  11
 3847.2052614353
  21
 1817.4999999928
  31
0.0
   0
LINE
   5
22A
 100
AcDbEntity
   8
LEVEL002
 370
13
 100
AcDbLine
   6
CONTINUOUS
  62
5
  10
 3847.2052614353
  20
 1817.4999999928
  30
0.0
  11
 3899.7052614353
  21
 1869.9999999928
  31
0.0
   0
LINE
   5
22B
 100
AcDbEntity
   8
LEVEL002
 370
13
 100
AcDbLine
   6
CONTINUOUS
  62
5
  10
 3851.9755537056
  20
 1869.9999999928
  30
0.0
  11
 3823.3404075704
  21
 1841.3648538576
  31
0.0
   0
LINE
   5
22C
 100
AcDbEntity
   8
LEVEL002
 370
13
 100
AcDbLine
   6
CONTINUOUS
  62
5
  10
 3831.2953588585
  20
 1833.4099025696
  30
0.0
  11
 3867.8854562817
  21
 1869.9999999928
  31
0.0
   0
LINE
   5
22D
 100
AcDbEntity
   8
LEVEL002
 370
13
 100
AcDbLine
   6
CONTINUOUS
  62
5
  10
 3883.7953588593
  20
 1869.9999999928
  30
0.0
  11
 3839.2503101473
  21
 1825.4549512808
  31
0.0
   0
LINE
   5
22E
 100
AcDbEntity
   8
LEVEL002
 370
13
 100
AcDbLine
   6
CONTINUOUS
  62
5
  10
 3904.4755537059
  20
 1817.4999999928
  30
0.0
  11
 3875.8404075706
  21
 1846.1351461281
  31
0.0
   0
LINE
   5
22F
 100
AcDbEntity
   8
LEVEL002
 370
13
 100
AcDbLine
   6
CONTINUOUS
  62
5
  10
 3883.7953588588
  20
 1854.0900974163
  30
0.0
  11
 3920.3854562823
  21
 1817.4999999928
  31
0.0
   0
LINE
   5
230
 100
AcDbEntity
   8
LEVEL002
 370
13
 100
AcDbLine
   6
CONTINUOUS
  62
5
  10
 3936.2953588588
  20
 1817.4999999928
  30
0.0
  11
 3891.7503101470
  21
 1862.0450487045
  31
0.0
   0
LINE
   5
231
 100
AcDbEntity
   8
LEVEL002
 370
13
 100
AcDbLine
   6
CONTINUOUS
  62
5
  10
 3899.7052614353
  20
 1869.9999999928
  30
0.0
  11
 3952.2052614355
  21
 1817.4999999928
  31
0.0
   0
LINE
   5
232
 100
AcDbEntity
   8
LEVEL002
 370
13
 100
AcDbLine
   6
CONTINUOUS
  62
5
  10
 3644.4755537054
  20
 1869.9999999928
  30
0.0
  11
 3944.4756189404
  21
 1869.9999999928
  31
0.0
   0
LWPOLYLINE
   5
233
 100
AcDbEntity
   8
LEVEL002
 370
13
   6
CONTINUOUS
  62
5
 100
AcDbPolyline
  90
6
  70
0
  10
 3343.6755537054
  20
 1869.9999999928
  10
 3144.4755537054
  20
 1869.9999999928
  10
 3144.4755537054
  20
 369.99999999280
  10
 3644.4755537054
  20
 369.99999999280
  10
 3644.4755537054
  20
 1869.9999999928
  10
 3445.2755537054
  20
 1869.9999999928
   0
LWPOLYLINE
   5
234
 100
AcDbEntity
   8
LEVEL001
 370
13
   6
CONTINUOUS
  62
7
 100
AcDbPolyline
  90
4
  70
0
  10
 1570.2755537054
  20
 777.49999999279
  10
 1644.4755356198
  20
 777.49999999279
  10
 1644.4755356198
  20
 762.49999999279
  10
 1570.2755537054
  20
 762.49999999279
   0
LWPOLYLINE
   5
235
 100
AcDbEntity
   8
LEVEL001
 370
13
   6
CONTINUOUS
  62
7
 100
AcDbPolyline
  90
4
  70
0
  10
 1468.6755537054
  20
 777.49999999279
  10
 1394.4755356198
  20
 777.49999999279
  10
 1394.4755356198
  20
 762.49999999279
  10
 1468.6755537054
  20
 762.49999999279
   0
LINE
   5
236
 100
AcDbEntity
   8
LEVEL002
 370
13
 100
AcDbLine
   6
CONTINUOUS
  62
5
  10
 1114.4755537053
  20
 1817.4999999928
  30
0.0
  11
 1166.9755537053
  21
 1869.9999999928
  31
0.0
   0
LINE
   5
237
 100
AcDbEntity
   8
LEVEL002
 370
13
 100
AcDbLine
   6
CONTINUOUS
  62
5
  10
 1098.5656511284
  20
 1833.4099025696
  30
0.0
  11
 1135.1557485516
  21
 1869.9999999928
  31
0.0
   0
LINE
   5
238
 100
AcDbEntity
   8
LEVEL002
 370
13
 100
AcDbLine
   6
CONTINUOUS
  62
5
  10
 1151.0656511292
  20
 1869.9999999928
  30
0.0
  11
 1106.5206024172
  21
 1825.4549512808
  31
0.0
   0
LINE
   5
239
 100
AcDbEntity
   8
LEVEL002
 370
13
 100
AcDbLine
   6
CONTINUOUS
  62
5
  10
 1171.7458459758
  20
 1817.4999999928
  30
0.0
  11
 1143.1106998406
  21
 1846.1351461281
  31
0.0
   0
LINE
   5
23A
 100
AcDbEntity
   8
LEVEL002
 370
13
 100
AcDbLine
   6
CONTINUOUS
  62
5
  10
 1151.0656511288
  20
 1854.0900974163
  30
0.0
  11
 1187.6557485523
  21
 1817.4999999928
  31
0.0
   0
LINE
   5
23B
 100
AcDbEntity
   8
LEVEL002
 370
13
 100
AcDbLine
   6
CONTINUOUS
  62
5
  10
 1203.5656511287
  20
 1817.4999999928
  30
0.0
  11
 1159.0206024170
  21
 1862.0450487045
  31
0.0
   0
LINE
   5
23C
 100
AcDbEntity
   8
LEVEL002
 370
13
 100
AcDbLine
   6
CONTINUOUS
  62
5
  10
 1166.9755537053
  20
 1869.9999999928
  30
0.0
  11
 1219.4755537054
  21
 1817.4999999928
  31
0.0
   0
LINE
   5
23D
 100
AcDbEntity
   8
LEVEL002
 370
13
 100
AcDbLine
   6
CONTINUOUS
  62
5
  10
 1014.2458459754
  20
 1869.9999999928
  30
0.0
  11
 961.74584597540
  21
 1817.4999999928
  31
0.0
   0
LINE
   5
23E
 100
AcDbEntity
   8
LEVEL002
 370
13
 100
AcDbLine
   6
CONTINUOUS
  62
5
  10
 977.65574855143
  20
 1817.4999999928
  30
0.0
  11
 1030.1557485514
  21
 1869.9999999928
  31
0.0
   0
LINE
   5
23F
 100
AcDbEntity
   8
LEVEL002
 370
13
 100
AcDbLine
   6
CONTINUOUS
  62
5
  10
 1046.0656511290
  20
 1869.9999999928
  30
0.0
  11
 993.56565112904
  21
 1817.4999999928
  31
0.0
   0
LINE
   5
240
 100
AcDbEntity
   8
LEVEL002
 370
13
 100
AcDbLine
   6
CONTINUOUS
  62
5
  10
 1009.4755537051
  20
 1817.4999999928
  30
0.0
  11
 1061.9755537051
  21
 1869.9999999928
  31
0.0
   0
LINE
   5
241
 100
AcDbEntity
   8
LEVEL002
 370
13
 100
AcDbLine
   6
CONTINUOUS
  62
5
  10
 1066.7458459757
  20
 1817.4999999928
  30
0.0
  11
 1038.1106998404
  21
 1846.1351461281
  31
0.0
   0
LINE
   5
242
 100
AcDbEntity
   8
LEVEL002
 370
13
 100
AcDbLine
   6
CONTINUOUS
  62
5
  10
 1046.0656511286
  20
 1854.0900974163
  30
0.0
  11
 1082.6557485521
  21
 1817.4999999928
  31
0.0
   0
LINE
   5
243
 100
AcDbEntity
   8
LEVEL002
 370
13
 100
AcDbLine
   6
CONTINUOUS
  62
5
  10
 1098.5656511285
  20
 1817.4999999928
  30
0.0
  11
 1054.0206024168
  21
 1862.0450487045
  31
0.0
   0
LINE
   5
244
 100
AcDbEntity
   8
LEVEL002
 370
13
 100
AcDbLine
   6
CONTINUOUS
  62
5
  10
 1061.9755537051
  20
 1869.9999999928
  30
0.0
  11
 1114.4755537053
  21
 1817.4999999928
  31
0.0
   0
LINE
   5
245
 100
AcDbEntity
   8
LEVEL002
 370
13
 100
AcDbLine
   6
CONTINUOUS
  62
5
  10
 1119.2458459756
  20
 1869.9999999928
  30
0.0
  11
 1090.6106998404
  21
 1841.3648538576
  31
0.0
   0
LINE
   5
246
 100
AcDbEntity
   8
LEVEL002
 370
13
 100
AcDbLine
   6
CONTINUOUS
  62
5
  10
 1871.9755537054
  20
 1869.9999999928
  30
0.0
  11
 1819.4755537054
  21
 1817.4999999928
  31
0.0
   0
LINE
   5
247
 100
AcDbEntity
   8
LEVEL002
 370
13
 100
AcDbLine
   6
CONTINUOUS
  62
5
  10
 1835.3854562815
  20
 1817.4999999928
  30
0.0
  11
 1887.8854562815
  21
 1869.9999999928
  31
0.0
   0
LINE
   5
248
 100
AcDbEntity
   8
LEVEL002
 370
13
 100
AcDbLine
   6
CONTINUOUS
  62
5
  10
 1903.7953588591
  20
 1869.9999999928
  30
0.0
  11
 1851.2953588591
  21
 1817.4999999928
  31
0.0
   0
LINE
   5
249
 100
AcDbEntity
   8
LEVEL002
 370
13
 100
AcDbLine
   6
CONTINUOUS
  62
5
  10
 1867.2052614351
  20
 1817.4999999928
  30
0.0
  11
 1919.7052614351
  21
 1869.9999999928
  31
0.0
   0
LINE
   5
24A
 100
AcDbEntity
   8
LEVEL002
 370
13
 100
AcDbLine
   6
CONTINUOUS
  62
5
  10
 1924.4755537057
  20
 1817.4999999928
  30
0.0
  11
 1895.8404075704
  21
 1846.1351461281
  31
0.0
   0
LINE
   5
24B
 100
AcDbEntity
   8
LEVEL002
 370
13
 100
AcDbLine
   6
CONTINUOUS
  62
5
  10
 1903.7953588586
  20
 1854.0900974163
  30
0.0
  11
 1940.3854562821
  21
 1817.4999999928
  31
0.0
   0
LINE
   5
24C
 100
AcDbEntity
   8
LEVEL002
 370
13
 100
AcDbLine
   6
CONTINUOUS
  62
5
  10
 1956.2953588586
  20
 1817.4999999928
  30
0.0
  11
 1911.7503101469
  21
 1862.0450487045
  31
0.0
   0
LINE
   5
24D
 100
AcDbEntity
   8
LEVEL002
 370
13
 100
AcDbLine
   6
CONTINUOUS
  62
5
  10
 1919.7052614351
  20
 1869.9999999928
  30
0.0
  11
 1972.2052614353
  21
 1817.4999999928
  31
0.0
   0
LINE
   5
24E
 100
AcDbEntity
   8
LEVEL002
 370
13
 100
AcDbLine
   6
CONTINUOUS
  62
5
  10
 1972.2052614353
  20
 1817.4999999928
  30
0.0
  11
 2024.7052614353
  21
 1869.9999999928
  31
0.0
   0
LINE
   5
24F
 100
AcDbEntity
   8
LEVEL002
 370
13
 100
AcDbLine
   6
CONTINUOUS
  62
5
  10
 1976.9755537056
  20
 1869.9999999928
  30
0.0
  11
 1948.3404075704
  21
 1841.3648538576
  31
0.0
   0
LINE
   5
250
 100
AcDbEntity
   8
LEVEL002
 370
13
 100
AcDbLine
   6
CONTINUOUS
  62
5
  10
 1956.2953588585
  20
 1833.4099025696
  30
0.0
  11
 1992.8854562817
  21
 1869.9999999928
  31
0.0
   0
LINE
   5
251
 100
AcDbEntity
   8
LEVEL002
 370
13
 100
AcDbLine
   6
CONTINUOUS
  62
5
  10
 2008.7953588593
  20
 1869.9999999928
  30
0.0
  11
 1964.2503101473
  21
 1825.4549512808
  31
0.0
   0
LINE
   5
252
 100
AcDbEntity
   8
LEVEL002
 370
13
 100
AcDbLine
   6
CONTINUOUS
  62
5
  10
 2029.4755537059
  20
 1817.4999999928
  30
0.0
  11
 2000.8404075706
  21
 1846.1351461281
  31
0.0
   0
LINE
   5
253
 100
AcDbEntity
   8
LEVEL002
 370
13
 100
AcDbLine
   6
CONTINUOUS
  62
5
  10
 2008.7953588588
  20
 1854.0900974163
  30
0.0
  11
 2045.3854562823
  21
 1817.4999999928
  31
0.0
   0
LINE
   5
254
 100
AcDbEntity
   8
LEVEL002
 370
13
 100
AcDbLine
   6
CONTINUOUS
  62
5
  10
 2061.2953588588
  20
 1817.4999999928
  30
0.0
  11
 2016.7503101470
  21
 1862.0450487045
  31
0.0
   0
LINE
   5
255
 100
AcDbEntity
   8
LEVEL002
 370
13
 100
AcDbLine
   6
CONTINUOUS
  62
5
  10
 2024.7052614353
  20
 1869.9999999928
  30
0.0
  11
 2077.2052614355
  21
 1817.4999999928
  31
0.0
   0
LINE
   5
256
 100
AcDbEntity
   8
LEVEL002
 370
13
 100
AcDbLine
   6
CONTINUOUS
  62
5
  10
 1769.4755537054
  20
 1869.9999999928
  30
0.0
  11
 2069.4756189404
  21
 1869.9999999928
  31
0.0
   0
LINE
   5
257
 100
AcDbEntity
   8
LEVEL002
 370
13
 100
AcDbLine
   6
CONTINUOUS
  62
5
  10
 1269.4755537054
  20
 1869.9999999928
  30
0.0
  11
 969.47561894041
  21
 1869.9999999928
  31
0.0
   0
LWPOLYLINE
   5
258
 100
AcDbEntity
   8
LEVEL002
 370
13
   6
CONTINUOUS
  62
5
 100
AcDbPolyline
  90
6
  70
0
  10
 1468.6755537054
  20
 1869.9999999928
  10
 1269.4755537054
  20
 1869.9999999928
  10
 1269.4755537054
  20
 369.99999999280
  10
 1769.4755537054
  20
 369.99999999280
  10
 1769.4755537054
  20
 1869.9999999928
  10
 1570.2755537054
  20
 1869.9999999928
   0
LINE
   5
259
 100
AcDbEntity
   8
LEVEL002
 370
13
 100
AcDbLine
   6
CONTINUOUS
  62
5
  10
 1419.4755537054
  20
 369.99999999280
  30
0.0
  11
 1369.4755537054
  21
 269.99999999280
  31
0.0
   0
LINE
   5
25A
 100
AcDbEntity
   8
LEVEL002
 370
13
 100
AcDbLine
   6
CONTINUOUS
  62
5
  10
 1369.4755537054
  20
 369.99999999279
  30
0.0
  11
 1409.4755537054
  21
 349.99999999279
  31
0.0
   0
LINE
   5
25B
 100
AcDbEntity
   8
LEVEL002
 370
13
 100
AcDbLine
   6
CONTINUOUS
  62
5
  10
 1369.4755537054
  20
 369.99999999280
  30
0.0
  11
 1319.4755537054
  21
 269.99999999280
  31
0.0
   0
LINE
   5
25C
 100
AcDbEntity
   8
LEVEL002
 370
13
 100
AcDbLine
   6
CONTINUOUS
  62
5
  10
 1319.4755537054
  20
 369.99999999279
  30
0.0
  11
 1359.4755537054
  21
 349.99999999279
  31
0.0
   0
LINE
   5
25D
 100
AcDbEntity
   8
LEVEL002
 370
13
 100
AcDbLine
   6
CONTINUOUS
  62
5
  10
 1319.4755537054
  20
 369.99999999280
  30
0.0
  11
 1269.4755537054
  21
 269.99999999280
  31
0.0
   0
LINE
   5
25E
 100
AcDbEntity
   8
LEVEL002
 370
13
 100
AcDbLine
   6
CONTINUOUS
  62
5
  10
 1269.4755537054
  20
 369.99999999279
  30
0.0
  11
 1309.4755537054
  21
 349.99999999279
  31
0.0
   0
LINE
   5
25F
 100
AcDbEntity
   8
LEVEL002
 370
13
 100
AcDbLine
   6
CONTINUOUS
  62
5
  10
 1419.4755537054
  20
 269.99999999280
  30
0.0
  11
 1379.4755537054
  21
 289.99999999280
  31
0.0
   0
LINE
   5
260
 100
AcDbEntity
   8
LEVEL002
 370
13
 100
AcDbLine
   6
CONTINUOUS
  62
5
  10
 1369.4755537054
  20
 269.99999999280
  30
0.0
  11
 1329.4755537054
  21
 289.99999999280
  31
0.0
   0
LINE
   5
261
 100
AcDbEntity
   8
LEVEL002
 370
13
 100
AcDbLine
   6
CONTINUOUS
  62
5
  10
 1319.4755537054
  20
 269.99999999280
  30
0.0
  11
 1279.4755537054
  21
 289.99999999280
  31
0.0
   0
LINE
   5
262
 100
AcDbEntity
   8
LEVEL002
 370
13
 100
AcDbLine
   6
CONTINUOUS
  62
5
  10
 1769.4755537054
  20
 369.99999999280
  30
0.0
  11
 1719.4755537054
  21
 269.99999999280
  31
0.0
   0
LINE
   5
263
 100
AcDbEntity
   8
LEVEL002
 370
13
 100
AcDbLine
   6
CONTINUOUS
  62
5
  10
 1719.4755537054
  20
 369.99999999279
  30
0.0
  11
 1759.4755537054
  21
 349.99999999279
  31
0.0
   0
LINE
   5
264
 100
AcDbEntity
   8
LEVEL002
 370
13
 100
AcDbLine
   6
CONTINUOUS
  62
5
  10
 1719.4755537054
  20
 369.99999999280
  30
0.0
  11
 1669.4755537054
  21
 269.99999999280
  31
0.0
   0
LINE
   5
265
 100
AcDbEntity
   8
LEVEL002
 370
13
 100
AcDbLine
   6
CONTINUOUS
  62
5
  10
 1669.4755537054
  20
 369.99999999279
  30
0.0
  11
 1709.4755537054
  21
 349.99999999279
  31
0.0
   0
LINE
   5
266
 100
AcDbEntity
   8
LEVEL002
 370
13
 100
AcDbLine
   6
CONTINUOUS
  62
5
  10
 1669.4755537054
  20
 369.99999999280
  30
0.0
  11
 1619.4755537054
  21
 269.99999999280
  31
0.0
   0
LINE
   5
267
 100
AcDbEntity
   8
LEVEL002
 370
13
 100
AcDbLine
   6
CONTINUOUS
  62
5
  10
 1619.4755537054
  20
 369.99999999279
  30
0.0
  11
 1659.4755537054
  21
 349.99999999279
  31
0.0
   0
LINE
   5
268
 100
AcDbEntity
   8
LEVEL002
 370
13
 100
AcDbLine
   6
CONTINUOUS
  62
5
  10
 1769.4755537054
  20
 269.99999999280
  30
0.0
  11
 1729.4755537054
  21
 289.99999999280
  31
0.0
   0
LINE
   5
269
 100
AcDbEntity
   8
LEVEL002
 370
13
 100
AcDbLine
   6
CONTINUOUS
  62
5
  10
 1719.4755537054
  20
 269.99999999280
  30
0.0
  11
 1679.4755537054
  21
 289.99999999280
  31
0.0
   0
LINE
   5
26A
 100
AcDbEntity
   8
LEVEL002
 370
13
 100
AcDbLine
   6
CONTINUOUS
  62
5
  10
 1669.4755537054
  20
 269.99999999280
  30
0.0
  11
 1629.4755537054
  21
 289.99999999280
  31
0.0
   0
LWPOLYLINE
   5
26B
 100
AcDbEntity
   8
LEVEL002
 370
13
   6
CONTINUOUS
  62
5
 100
AcDbPolyline
  90
4
  70
1
  10
 1769.4755537054
  20
 369.99999999280
  10
 1269.4755537054
  20
 369.99999999280
  10
 1269.4755537054
  20
 269.99999999280
  10
 1769.4755537054
  20
 269.99999999280
   0
CIRCLE
   5
26C
 100
AcDbEntity
   8
LEVEL001
 370
13
 100
AcDbCircle
   6
CONTINUOUS
  62
7
  10
 1519.4755537054
  20
 669.99999999279
  30
0.0
  40
 7.5000000000000
   0
LINE
   5
26D
 100
AcDbEntity
   8
LEVEL001
 370
13
 100
AcDbLine
   6
DASHDOT
  62
6
  10
 1549.4755537054
  20
 669.99999999279
  30
0.0
  11
 1489.4755537054
  21
 669.99999999279
  31
0.0
   0
LINE
   5
26E
 100
AcDbEntity
   8
LEVEL001
 370
13
 100
AcDbLine
   6
DASHDOT
  62
6
  10
 1592.1255537054
  20
 769.99999999279
  30
0.0
  11
 1446.8255537054
  21
 769.99999999279
  31
0.0
   0
MTEXT
   5
270
 100
AcDbEntity
   8
LEVEL002
 370
13
  62
1
 100
AcDbMText
  10
 1090.1242241499
  20
 1878.7299370331
  30
0.0
  40
 40.000000000000
  41
0.0
  71
7
  72
1
   1
\T1.000000;ＧＬ
   7
GMM004
  44
 0.79999984000003
   0
LWPOLYLINE
   5
271
 100
AcDbEntity
   8
LEVEL002
 370
13
   6
CONTINUOUS
  62
1
 100
AcDbPolyline
  90
3
  70
1
  10
 1061.9755537051
  20
 1869.9999999928
  10
 1036.9755537051
  20
 1919.9999999928
  10
 1086.9755537051
  20
 1919.9999999928
   0
LWPOLYLINE
   5
272
 100
AcDbEntity
   8
LEVEL001
 370
13
   6
CONTINUOUS
  62
7
 100
AcDbPolyline
  90
4
  70
0
  10
 3343.6755537054
  20
 677.49999999279
  10
 3269.4755356198
  20
 677.49999999279
  10
 3269.4755356198
  20
 662.49999999279
  10
 3343.6755537054
  20
 662.49999999279
   0
LWPOLYLINE
   5
273
 100
AcDbEntity
   8
LEVEL001
 370
13
   6
CONTINUOUS
  62
7
 100
AcDbPolyline
  90
4
  70
0
  10
 3445.2755537054
  20
 677.49999999279
  10
 3519.4755356198
  20
 677.49999999279
  10
 3519.4755356198
  20
 662.49999999279
  10
 3445.2755537054
  20
 662.49999999279
   0
LINE
   5
274
 100
AcDbEntity
   8
LEVEL002
 370
13
 100
AcDbLine
   6
CONTINUOUS
  62
5
  10
 2989.4755537053
  20
 1817.4999999928
  30
0.0
  11
 3041.9755537053
  21
 1869.9999999928
  31
0.0
   0
LINE
   5
275
 100
AcDbEntity
   8
LEVEL002
 370
13
 100
AcDbLine
   6
CONTINUOUS
  62
5
  10
 2973.5656511284
  20
 1833.4099025696
  30
0.0
  11
 3010.1557485516
  21
 1869.9999999928
  31
0.0
   0
LINE
   5
276
 100
AcDbEntity
   8
LEVEL002
 370
13
 100
AcDbLine
   6
CONTINUOUS
  62
5
  10
 3026.0656511292
  20
 1869.9999999928
  30
0.0
  11
 2981.5206024172
  21
 1825.4549512808
  31
0.0
   0
LINE
   5
277
 100
AcDbEntity
   8
LEVEL002
 370
13
 100
AcDbLine
   6
CONTINUOUS
  62
5
  10
 3046.7458459758
  20
 1817.4999999928
  30
0.0
  11
 3018.1106998406
  21
 1846.1351461281
  31
0.0
   0
LINE
   5
278
 100
AcDbEntity
   8
LEVEL002
 370
13
 100
AcDbLine
   6
CONTINUOUS
  62
5
  10
 3026.0656511288
  20
 1854.0900974163
  30
0.0
  11
 3062.6557485523
  21
 1817.4999999928
  31
0.0
   0
LINE
   5
279
 100
AcDbEntity
   8
LEVEL002
 370
13
 100
AcDbLine
   6
CONTINUOUS
  62
5
  10
 3078.5656511287
  20
 1817.4999999928
  30
0.0
  11
 3034.0206024170
  21
 1862.0450487045
  31
0.0
   0
LINE
   5
27A
 100
AcDbEntity
   8
LEVEL002
 370
13
 100
AcDbLine
   6
CONTINUOUS
  62
5
  10
 3041.9755537053
  20
 1869.9999999928
  30
0.0
  11
 3094.4755537054
  21
 1817.4999999928
  31
0.0
   0
LINE
   5
27B
 100
AcDbEntity
   8
LEVEL002
 370
13
 100
AcDbLine
   6
CONTINUOUS
  62
5
  10
 2889.2458459754
  20
 1869.9999999928
  30
0.0
  11
 2836.7458459754
  21
 1817.4999999928
  31
0.0
   0
LINE
   5
27C
 100
AcDbEntity
   8
LEVEL002
 370
13
 100
AcDbLine
   6
CONTINUOUS
  62
5
  10
 2852.6557485514
  20
 1817.4999999928
  30
0.0
  11
 2905.1557485514
  21
 1869.9999999928
  31
0.0
   0
LINE
   5
27D
 100
AcDbEntity
   8
LEVEL002
 370
13
 100
AcDbLine
   6
CONTINUOUS
  62
5
  10
 2921.0656511290
  20
 1869.9999999928
  30
0.0
  11
 2868.5656511290
  21
 1817.4999999928
  31
0.0
   0
LINE
   5
27E
 100
AcDbEntity
   8
LEVEL002
 370
13
 100
AcDbLine
   6
CONTINUOUS
  62
5
  10
 2884.4755537051
  20
 1817.4999999928
  30
0.0
  11
 2936.9755537051
  21
 1869.9999999928
  31
0.0
   0
LINE
   5
27F
 100
AcDbEntity
   8
LEVEL002
 370
13
 100
AcDbLine
   6
CONTINUOUS
  62
5
  10
 2941.7458459757
  20
 1817.4999999928
  30
0.0
  11
 2913.1106998404
  21
 1846.1351461281
  31
0.0
   0
LINE
   5
280
 100
AcDbEntity
   8
LEVEL002
 370
13
 100
AcDbLine
   6
CONTINUOUS
  62
5
  10
 2921.0656511286
  20
 1854.0900974163
  30
0.0
  11
 2957.6557485521
  21
 1817.4999999928
  31
0.0
   0
LINE
   5
281
 100
AcDbEntity
   8
LEVEL002
 370
13
 100
AcDbLine
   6
CONTINUOUS
  62
5
  10
 2973.5656511285
  20
 1817.4999999928
  30
0.0
  11
 2929.0206024168
  21
 1862.0450487045
  31
0.0
   0
LINE
   5
282
 100
AcDbEntity
   8
LEVEL002
 370
13
 100
AcDbLine
   6
CONTINUOUS
  62
5
  10
 2936.9755537051
  20
 1869.9999999928
  30
0.0
  11
 2989.4755537053
  21
 1817.4999999928
  31
0.0
   0
LINE
   5
283
 100
AcDbEntity
   8
LEVEL002
 370
13
 100
AcDbLine
   6
CONTINUOUS
  62
5
  10
 2994.2458459756
  20
 1869.9999999928
  30
0.0
  11
 2965.6106998404
  21
 1841.3648538576
  31
0.0
   0
LINE
   5
284
 100
AcDbEntity
   8
LEVEL002
 370
13
 100
AcDbLine
   6
CONTINUOUS
  62
5
  10
 3144.4755537054
  20
 1869.9999999928
  30
0.0
  11
 2844.4756189404
  21
 1869.9999999928
  31
0.0
   0
LINE
   5
285
 100
AcDbEntity
   8
LEVEL002
 370
13
 100
AcDbLine
   6
CONTINUOUS
  62
5
  10
 3294.4755537054
  20
 369.99999999280
  30
0.0
  11
 3244.4755537054
  21
 269.99999999280
  31
0.0
   0
LINE
   5
286
 100
AcDbEntity
   8
LEVEL002
 370
13
 100
AcDbLine
   6
CONTINUOUS
  62
5
  10
 3244.4755537054
  20
 369.99999999279
  30
0.0
  11
 3284.4755537054
  21
 349.99999999279
  31
0.0
   0
LINE
   5
287
 100
AcDbEntity
   8
LEVEL002
 370
13
 100
AcDbLine
   6
CONTINUOUS
  62
5
  10
 3244.4755537054
  20
 369.99999999280
  30
0.0
  11
 3194.4755537054
  21
 269.99999999280
  31
0.0
   0
LINE
   5
288
 100
AcDbEntity
   8
LEVEL002
 370
13
 100
AcDbLine
   6
CONTINUOUS
  62
5
  10
 3194.4755537054
  20
 369.99999999279
  30
0.0
  11
 3234.4755537054
  21
 349.99999999279
  31
0.0
   0
LINE
   5
289
 100
AcDbEntity
   8
LEVEL002
 370
13
 100
AcDbLine
   6
CONTINUOUS
  62
5
  10
 3194.4755537054
  20
 369.99999999280
  30
0.0
  11
 3144.4755537054
  21
 269.99999999280
  31
0.0
   0
LINE
   5
28A
 100
AcDbEntity
   8
LEVEL002
 370
13
 100
AcDbLine
   6
CONTINUOUS
  62
5
  10
 3144.4755537054
  20
 369.99999999279
  30
0.0
  11
 3184.4755537054
  21
 349.99999999279
  31
0.0
   0
LINE
   5
28B
 100
AcDbEntity
   8
LEVEL002
 370
13
 100
AcDbLine
   6
CONTINUOUS
  62
5
  10
 3294.4755537054
  20
 269.99999999280
  30
0.0
  11
 3254.4755537054
  21
 289.99999999280
  31
0.0
   0
LINE
   5
28C
 100
AcDbEntity
   8
LEVEL002
 370
13
 100
AcDbLine
   6
CONTINUOUS
  62
5
  10
 3244.4755537054
  20
 269.99999999280
  30
0.0
  11
 3204.4755537054
  21
 289.99999999280
  31
0.0
   0
LINE
   5
28D
 100
AcDbEntity
   8
LEVEL002
 370
13
 100
AcDbLine
   6
CONTINUOUS
  62
5
  10
 3194.4755537054
  20
 269.99999999280
  30
0.0
  11
 3154.4755537054
  21
 289.99999999280
  31
0.0
   0
LINE
   5
28E
 100
AcDbEntity
   8
LEVEL002
 370
13
 100
AcDbLine
   6
CONTINUOUS
  62
5
  10
 3644.4755537054
  20
 369.99999999280
  30
0.0
  11
 3594.4755537054
  21
 269.99999999280
  31
0.0
   0
LINE
   5
28F
 100
AcDbEntity
   8
LEVEL002
 370
13
 100
AcDbLine
   6
CONTINUOUS
  62
5
  10
 3594.4755537054
  20
 369.99999999279
  30
0.0
  11
 3634.4755537054
  21
 349.99999999279
  31
0.0
   0
LINE
   5
290
 100
AcDbEntity
   8
LEVEL002
 370
13
 100
AcDbLine
   6
CONTINUOUS
  62
5
  10
 3594.4755537054
  20
 369.99999999280
  30
0.0
  11
 3544.4755537054
  21
 269.99999999280
  31
0.0
   0
LINE
   5
291
 100
AcDbEntity
   8
LEVEL002
 370
13
 100
AcDbLine
   6
CONTINUOUS
  62
5
  10
 3544.4755537054
  20
 369.99999999279
  30
0.0
  11
 3584.4755537054
  21
 349.99999999279
  31
0.0
   0
LINE
   5
292
 100
AcDbEntity
   8
LEVEL002
 370
13
 100
AcDbLine
   6
CONTINUOUS
  62
5
  10
 3544.4755537054
  20
 369.99999999280
  30
0.0
  11
 3494.4755537054
  21
 269.99999999280
  31
0.0
   0
LINE
   5
293
 100
AcDbEntity
   8
LEVEL002
 370
13
 100
AcDbLine
   6
CONTINUOUS
  62
5
  10
 3494.4755537054
  20
 369.99999999279
  30
0.0
  11
 3534.4755537054
  21
 349.99999999279
  31
0.0
   0
LINE
   5
294
 100
AcDbEntity
   8
LEVEL002
 370
13
 100
AcDbLine
   6
CONTINUOUS
  62
5
  10
 3644.4755537054
  20
 269.99999999280
  30
0.0
  11
 3604.4755537054
  21
 289.99999999280
  31
0.0
   0
LINE
   5
295
 100
AcDbEntity
   8
LEVEL002
 370
13
 100
AcDbLine
   6
CONTINUOUS
  62
5
  10
 3594.4755537054
  20
 269.99999999280
  30
0.0
  11
 3554.4755537054
  21
 289.99999999280
  31
0.0
   0
LINE
   5
296
 100
AcDbEntity
   8
LEVEL002
 370
13
 100
AcDbLine
   6
CONTINUOUS
  62
5
  10
 3544.4755537054
  20
 269.99999999280
  30
0.0
  11
 3504.4755537054
  21
 289.99999999280
  31
0.0
   0
LWPOLYLINE
   5
297
 100
AcDbEntity
   8
LEVEL002
 370
13
   6
CONTINUOUS
  62
5
 100
AcDbPolyline
  90
4
  70
1
  10
 3644.4755537054
  20
 369.99999999280
  10
 3144.4755537054
  20
 369.99999999280
  10
 3144.4755537054
  20
 269.99999999280
  10
 3644.4755537054
  20
 269.99999999280
   0
MTEXT
   5
299
 100
AcDbEntity
   8
LEVEL002
 370
13
  62
1
 100
AcDbMText
  10
 2965.1242241499
  20
 1878.7299370331
  30
0.0
  40
 40.000000000000
  41
0.0
  71
7
  72
1
   1
\T1.000000;ＧＬ
   7
GMM004
  44
 0.79999984000003
   0
LWPOLYLINE
   5
29A
 100
AcDbEntity
   8
LEVEL002
 370
13
   6
CONTINUOUS
  62
1
 100
AcDbPolyline
  90
3
  70
1
  10
 2936.9755537051
  20
 1869.9999999928
  10
 2911.9755537051
  20
 1919.9999999928
  10
 2961.9755537051
  20
 1919.9999999928
   0
CIRCLE
   5
29B
 100
AcDbEntity
   8
LEVEL001
 370
13
 100
AcDbCircle
   6
CONTINUOUS
  62
7
  10
 3394.4755537054
  20
 769.99999999279
  30
0.0
  40
 7.5000000000000
   0
LINE
   5
29C
 100
AcDbEntity
   8
LEVEL001
 370
13
 100
AcDbLine
   6
DASHDOT
  62
6
  10
 3467.1255537054
  20
 669.99999999279
  30
0.0
  11
 3321.8255537054
  21
 669.99999999279
  31
0.0
   0
LINE
   5
29D
 100
AcDbEntity
   8
LEVEL001
 370
13
 100
AcDbLine
   6
DASHDOT
  62
6
  10
 3424.4755537054
  20
 669.99999999279
  30
0.0
  11
 3364.4755537054
  21
 669.99999999279
  31
0.0
   0
LINE
   5
29E
 100
AcDbEntity
   8
LEVEL001
 370
13
 100
AcDbLine
   6
DASHDOT
  62
6
  10
 3424.4755537054
  20
 769.99999999279
  30
0.0
  11
 3364.4755537054
  21
 769.99999999279
  31
0.0
   0
CIRCLE
   5
29F
 100
AcDbEntity
   8
LEVEL001
 370
13
 100
AcDbCircle
   6
CONTINUOUS
  62
1
  10
 3019.4755537054
  20
 494.99999999280
  30
0.0
  40
 69.999997913838
   0
MTEXT
   5
2A1
 100
AcDbEntity
   8
LEVEL001
 370
13
  62
7
 100
AcDbMText
  10
 3019.4755537054
  20
 494.99999999279
  30
0.0
  40
 66.000000000000
  41
0.0
  71
5
  72
1
   1
\T1.000000;１３
   7
GMM002
  44
 0.79999984000003
   0
LEADER
   5
2A2
 100
AcDbEntity
   8
LEVEL001
 370
13
   6
CONTINUOUS
  62
1
 100
AcDbLeader
   3
GMM001
  73
3
  74
1
  75
0
  40
 66.000000000000
  41
0.0
  76
2
  10
 3269.4755537054
  20
 662.50001211014
  30
0.0
  10
 3077.6294491269
  20
 533.96311274382
  30
0.0
  77
1
   0
DIMENSION
   5
2A3
 100
AcDbEntity
   8
LEVEL001
 370
13
   6
CONTINUOUS
  62
6
 100
AcDbDimension
   2
*D20
  10
 1769.4755537054
  20
 1494.9999999928
  30
0.0
  11
 1804.6822000223
  21
 1494.9999999928
  31
0.0
  70
128
   3
GMM007
 100
AcDbAlignedDimension
  13
 1269.4755537054
  23
 1494.9999999928
  33
0.0
  14
 1769.4755537054
  24
 1494.9999999928
  34
0.0
 100
AcDbRotatedDimension
   0
DIMENSION
   5
2A4
 100
AcDbEntity
   8
LEVEL001
 370
13
   6
CONTINUOUS
  62
6
 100
AcDbDimension
   2
*D21
  10
 3144.4755537054
  20
 1494.9999999928
  30
0.0
  11
 3109.2689073886
  21
 1494.9999999928
  31
0.0
  70
128
   3
GMM007
 100
AcDbAlignedDimension
  13
 3644.4755537054
  23
 1494.9999999928
  33
0.0
  14
 3144.4755537054
  24
 1494.9999999928
  34
0.0
  50
 180.00000000000
 100
AcDbRotatedDimension
   0
LINE
   5
2A5
 100
AcDbEntity
   8
LEVEL001
 370
13
 100
AcDbLine
   6
CONTINUOUS
  62
5
  10
 1769.4755537054
  20
 1405.3553390521
  30
0.0
  11
 1570.2755537054
  21
 1206.1553390521
  31
0.0
   0
LINE
   5
2A6
 100
AcDbEntity
   8
LEVEL001
 370
13
 100
AcDbLine
   6
CONTINUOUS
  62
5
  10
 1570.2755537054
  20
 1170.7999999928
  30
0.0
  11
 1769.4755537054
  21
 1369.9999999928
  31
0.0
   0
LINE
   5
2A7
 100
AcDbEntity
   8
LEVEL001
 370
13
 100
AcDbLine
   6
CONTINUOUS
  62
5
  10
 1769.4755537054
  20
 1334.6446609333
  30
0.0
  11
 1570.2755537054
  21
 1135.4446609333
  31
0.0
   0
LINE
   5
2A8
 100
AcDbEntity
   8
LEVEL001
 370
13
 100
AcDbLine
   6
CONTINUOUS
  62
5
  10
 1468.6755537054
  20
 1033.8446609333
  30
0.0
  11
 1269.4755537054
  21
 834.64466093331
  31
0.0
   0
LINE
   5
2A9
 100
AcDbEntity
   8
LEVEL001
 370
13
 100
AcDbLine
   6
CONTINUOUS
  62
5
  10
 1269.4755537054
  20
 869.99999999280
  30
0.0
  11
 1468.6755537054
  21
 1069.1999999928
  31
0.0
   0
LINE
   5
2AA
 100
AcDbEntity
   8
LEVEL001
 370
13
 100
AcDbLine
   6
CONTINUOUS
  62
5
  10
 1468.6755537054
  20
 1104.5553390521
  30
0.0
  11
 1269.4755537054
  21
 905.35533905213
  31
0.0
   0
LINE
   5
2AB
 100
AcDbEntity
   8
LEVEL001
 370
13
 100
AcDbLine
   6
CONTINUOUS
  62
5
  10
 3343.6755537054
  20
 1104.5553390521
  30
0.0
  11
 3144.4755537054
  21
 905.35533905213
  31
0.0
   0
LINE
   5
2AC
 100
AcDbEntity
   8
LEVEL001
 370
13
 100
AcDbLine
   6
CONTINUOUS
  62
5
  10
 3144.4755537054
  20
 869.99999999280
  30
0.0
  11
 3343.6755537054
  21
 1069.1999999928
  31
0.0
   0
LINE
   5
2AD
 100
AcDbEntity
   8
LEVEL001
 370
13
 100
AcDbLine
   6
CONTINUOUS
  62
5
  10
 3343.6755537054
  20
 1033.8446609333
  30
0.0
  11
 3144.4755537054
  21
 834.64466093331
  31
0.0
   0
LINE
   5
2AE
 100
AcDbEntity
   8
LEVEL001
 370
13
 100
AcDbLine
   6
CONTINUOUS
  62
5
  10
 3644.4755537054
  20
 1334.6446609333
  30
0.0
  11
 3445.2755537054
  21
 1135.4446609333
  31
0.0
   0
LINE
   5
2AF
 100
AcDbEntity
   8
LEVEL001
 370
13
 100
AcDbLine
   6
CONTINUOUS
  62
5
  10
 3445.2755537054
  20
 1170.7999999928
  30
0.0
  11
 3644.4755537054
  21
 1369.9999999928
  31
0.0
   0
LINE
   5
2B0
 100
AcDbEntity
   8
LEVEL001
 370
13
 100
AcDbLine
   6
CONTINUOUS
  62
5
  10
 3644.4755537054
  20
 1405.3553390521
  30
0.0
  11
 3445.2755537054
  21
 1206.1553390521
  31
0.0
   0
CIRCLE
   5
2B1
 100
AcDbEntity
   8
LEVEL001
 370
13
 100
AcDbCircle
   6
CONTINUOUS
  62
1
  10
 1769.4755537054
  20
 2494.9999999928
  30
0.0
  40
 69.999997913838
   0
MTEXT
   5
2B3
 100
AcDbEntity
   8
LEVEL001
 370
13
  62
7
 100
AcDbMText
  10
 1769.4755537054
  20
 2494.9999999928
  30
0.0
  40
 66.000000000000
  41
0.0
  71
5
  72
1
   1
\T1.000000;１２
   7
GMM002
  44
 0.79999984000003
   0
LEADER
   5
2B4
 100
AcDbEntity
   8
LEVEL001
 370
13
   6
CONTINUOUS
  62
1
 100
AcDbLeader
   3
GMM008
  73
3
  74
1
  75
0
  40
 66.000000000000
  41
0.0
  76
2
  10
 1570.2755537056
  20
 2369.9999999928
  30
0.0
  10
 1710.1826594559
  20
 2457.7931135409
  30
0.0
  77
1
   0
LWPOLYLINE
   5
2B5
 100
AcDbEntity
   8
LEVEL001
 370
13
   6
CONTINUOUS
  62
1
 100
AcDbPolyline
  90
4
  70
1
  10
 3445.2755537056
  20
 5173.9999999928
  10
 3343.6755537056
  20
 5173.9999999928
  10
 3343.6755537056
  20
 5170.9999999928
  10
 3445.2755537056
  20
 5170.9999999928
   0
LWPOLYLINE
   5
2B6
 100
AcDbEntity
   8
LEVEL001
 370
13
   6
CONTINUOUS
  62
1
 100
AcDbPolyline
  90
4
  70
1
  10
 1570.2755537056
  20
 5173.9999999928
  10
 1468.6755537056
  20
 5173.9999999928
  10
 1468.6755537056
  20
 5170.9999999928
  10
 1570.2755537056
  20
 5170.9999999928
   0
LWPOLYLINE
   5
2B7
 100
AcDbEntity
   8
LEVEL001
 370
13
   6
DOT
  62
6
 100
AcDbPolyline
  90
4
  70
0
  10
 3440.2755537056
  20
 5170.9999999928
  10
 3440.2755537056
  20
 5143.9999999928
  10
 3348.6755537056
  20
 5143.9999999928
  10
 3348.6755537056
  20
 5170.9999999928
   0
LWPOLYLINE
   5
2B8
 100
AcDbEntity
   8
LEVEL001
 370
13
   6
DOT
  62
6
 100
AcDbPolyline
  90
4
  70
0
  10
 1565.2755537056
  20
 5170.9999999928
  10
 1565.2755537056
  20
 5143.9999999928
  10
 1473.6755537056
  20
 5143.9999999928
  10
 1473.6755537056
  20
 5170.9999999928
   0
LINE
   5
2B9
 100
AcDbEntity
   8
LEVEL001
 370
13
 100
AcDbLine
   6
DOT
  62
1
  10
 3445.2755537054
  20
 662.49999999279
  30
0.0
  11
 3343.6755537054
  21
 662.49999999279
  31
0.0
   0
LINE
   5
2BA
 100
AcDbEntity
   8
LEVEL001
 370
13
 100
AcDbLine
   6
DOT
  62
1
  10
 3343.6755537054
  20
 677.49999999279
  30
0.0
  11
 3445.2755537054
  21
 677.49999999279
  31
0.0
   0
LINE
   5
2BB
 100
AcDbEntity
   8
LEVEL001
 370
13
 100
AcDbLine
   6
DOT
  62
1
  10
 1570.2755537054
  20
 762.49999999279
  30
0.0
  11
 1468.6755537054
  21
 762.49999999279
  31
0.0
   0
LINE
   5
2BC
 100
AcDbEntity
   8
LEVEL001
 370
13
 100
AcDbLine
   6
DOT
  62
1
  10
 1468.6755537054
  20
 777.49999999279
  30
0.0
  11
 1570.2755537054
  21
 777.49999999279
  31
0.0
   0
MTEXT
   5
2BE
 100
AcDbEntity
   8
LEVEL001
 370
13
  62
1
 100
AcDbMText
  10
 1864.1348816970
  20
 2531.4874529925
  30
0.0
  40
 66.000000000000
  41
0.0
  71
1
  72
1
   1
{\W0.787879;\T1.000000;支柱}\P%%c{\W0.787879;\T1.000000;１０１\W0.393939;\T1.000000;.\W0.787879;\T1.000000;６ｘ４\W0.393939;\T1.000000;.\W0.787879;\T1.000000;２ｔ}\P{\W0.787879;\T1.000000;ｘ４８００Ｌ}
   7
GMM002
  44
 0.79999984000003
   0
MTEXT
   5
2C0
 100
AcDbEntity
   8
LEVEL001
 370
13
  62
1
 100
AcDbMText
  10
 5776.3636183686
  20
 1673.5736076959
  30
0.0
  40
 80.000000000000
  41
0.0
  71
9
  72
1
   1
\T1.000000;１２
   7
GMM005
  44
 0.79999984000003
   0
MTEXT
   5
2C2
 100
AcDbEntity
   8
LEVEL001
 370
13
  62
1
 100
AcDbMText
  10
 5776.3636183686
  20
 1803.5736076959
  30
0.0
  40
 80.000000000000
  41
0.0
  71
9
  72
1
   1
\T1.000000;１１
   7
GMM005
  44
 0.79999984000003
   0
MTEXT
   5
2C4
 100
AcDbEntity
   8
LEVEL001
 370
13
  62
1
 100
AcDbMText
  10
 5776.3636183686
  20
 1933.5736076959
  30
0.0
  40
 80.000000000000
  41
0.0
  71
9
  72
1
   1
\T1.000000;１０
   7
GMM005
  44
 0.79999984000003
   0
MTEXT
   5
2C6
 100
AcDbEntity
   8
LEVEL001
 370
13
  62
1
 100
AcDbMText
  10
 5776.3636183686
  20
 2063.5736076959
  30
0.0
  40
 80.000000000000
  41
0.0
  71
9
  72
1
   1
\T1.000000;９
   7
GMM005
  44
 0.79999984000003
   0
MTEXT
   5
2C8
 100
AcDbEntity
   8
LEVEL001
 370
13
  62
1
 100
AcDbMText
  10
 5776.3636183686
  20
 2193.5736076959
  30
0.0
  40
 80.000000000000
  41
0.0
  71
9
  72
1
   1
\T1.000000;８
   7
GMM005
  44
 0.79999984000003
   0
MTEXT
   5
2CA
 100
AcDbEntity
   8
LEVEL001
 370
13
  62
1
 100
AcDbMText
  10
 5776.3636183686
  20
 2323.5736076959
  30
0.0
  40
 80.000000000000
  41
0.0
  71
9
  72
1
   1
\T1.000000;７
   7
GMM005
  44
 0.79999984000003
   0
MTEXT
   5
2CC
 100
AcDbEntity
   8
LEVEL001
 370
13
  62
1
 100
AcDbMText
  10
 5776.3636183686
  20
 2453.5736076959
  30
0.0
  40
 80.000000000000
  41
0.0
  71
9
  72
1
   1
\T1.000000;６
   7
GMM005
  44
 0.79999984000003
   0
MTEXT
   5
2CE
 100
AcDbEntity
   8
LEVEL001
 370
13
  62
1
 100
AcDbMText
  10
 5776.3636183686
  20
 2583.5736076959
  30
0.0
  40
 80.000000000000
  41
0.0
  71
9
  72
1
   1
\T1.000000;５
   7
GMM005
  44
 0.79999984000003
   0
MTEXT
   5
2D0
 100
AcDbEntity
   8
LEVEL001
 370
13
  62
1
 100
AcDbMText
  10
 5776.3636183686
  20
 2713.5736076959
  30
0.0
  40
 80.000000000000
  41
0.0
  71
9
  72
1
   1
\T1.000000;４
   7
GMM005
  44
 0.79999984000003
   0
MTEXT
   5
2D2
 100
AcDbEntity
   8
LEVEL001
 370
13
  62
1
 100
AcDbMText
  10
 5776.3636183686
  20
 2843.5736076959
  30
0.0
  40
 80.000000000000
  41
0.0
  71
9
  72
1
   1
\T1.000000;３
   7
GMM005
  44
 0.79999984000003
   0
MTEXT
   5
2D4
 100
AcDbEntity
   8
LEVEL001
 370
13
  62
1
 100
AcDbMText
  10
 5855.3846446145
  20
 2843.5736076959
  30
0.0
  40
 80.000000000000
  41
0.0
  71
7
  72
1
   1
\T1.000000;フード
   7
GMM006
  44
 0.79999984000003
   0
MTEXT
   5
2D6
 100
AcDbEntity
   8
LEVEL001
 370
13
  62
1
 100
AcDbMText
  10
 5776.3636183686
  20
 2973.5736076959
  30
0.0
  40
 80.000000000000
  41
0.0
  71
9
  72
1
   1
\T1.000000;２
   7
GMM005
  44
 0.79999984000003
   0
MTEXT
   5
2D8
 100
AcDbEntity
   8
LEVEL001
 370
13
  62
1
 100
AcDbMText
  10
 5855.3846446145
  20
 2973.5736076959
  30
0.0
  40
 80.000000000000
  41
0.0
  71
7
  72
1
   1
\T1.000000;バックプレート
   7
GMM006
  44
 0.79999984000003
   0
MTEXT
   5
2DA
 100
AcDbEntity
   8
LEVEL001
 370
13
  62
1
 100
AcDbMText
  10
 5776.3636183686
  20
 3103.5736076959
  30
0.0
  40
 80.000000000000
  41
0.0
  71
9
  72
1
   1
\T1.000000;１
   7
GMM005
  44
 0.79999984000003
   0
MTEXT
   5
2DC
 100
AcDbEntity
   8
LEVEL001
 370
13
  62
1
 100
AcDbMText
  10
 6755.3846446145
  20
 3280.0000000000
  30
0.0
  40
 80.000000000000
  41
0.0
  71
5
  72
1
   1
\T1.000000;個数
   7
GMM006
  44
 0.79999984000003
   0
MTEXT
   5
2DE
 100
AcDbEntity
   8
LEVEL001
 370
13
  62
1
 100
AcDbMText
  10
 7105.3846446145
  20
 3280.0000000000
  30
0.0
  40
 80.000000000000
  41
0.0
  71
5
  72
1
   1
\T1.000000;材　　質
   7
GMM006
  44
 0.79999984000003
   0
MTEXT
   5
2E0
 100
AcDbEntity
   8
LEVEL001
 370
13
  62
1
 100
AcDbMText
  10
 6230.3846446145
  20
 3280.0000000000
  30
0.0
  40
 80.000000000000
  41
0.0
  71
5
  72
1
   1
\T1.000000;名　　称
   7
GMM006
  44
 0.79999984000003
   0
LINE
   5
2E1
 100
AcDbEntity
   8
LEVEL001
 370
13
 100
AcDbLine
   6
CONTINUOUS
  62
6
  10
 5605.3846446145
  20
 1780.0000000000
  30
0.0
  11
 8121.1424238226
  21
 1780.0000000000
  31
0.0
   0
LINE
   5
2E2
 100
AcDbEntity
   8
LEVEL001
 370
13
 100
AcDbLine
   6
CONTINUOUS
  62
6
  10
 5605.3846446145
  20
 1910.0000000000
  30
0.0
  11
 8121.1424238226
  21
 1910.0000000000
  31
0.0
   0
LINE
   5
2E3
 100
AcDbEntity
   8
LEVEL001
 370
13
 100
AcDbLine
   6
CONTINUOUS
  62
6
  10
 5605.3846446145
  20
 2040.0000000000
  30
0.0
  11
 8121.1424238226
  21
 2040.0000000000
  31
0.0
   0
LINE
   5
2E4
 100
AcDbEntity
   8
LEVEL001
 370
13
 100
AcDbLine
   6
CONTINUOUS
  62
6
  10
 5605.3846446145
  20
 2170.0000000000
  30
0.0
  11
 8121.1424238226
  21
 2170.0000000000
  31
0.0
   0
LINE
   5
2E5
 100
AcDbEntity
   8
LEVEL001
 370
13
 100
AcDbLine
   6
CONTINUOUS
  62
6
  10
 5605.3846446145
  20
 2300.0000000000
  30
0.0
  11
 8121.1424238226
  21
 2300.0000000000
  31
0.0
   0
LINE
   5
2E6
 100
AcDbEntity
   8
LEVEL001
 370
13
 100
AcDbLine
   6
CONTINUOUS
  62
6
  10
 5605.3846446145
  20
 2430.0000000000
  30
0.0
  11
 8121.1424238226
  21
 2430.0000000000
  31
0.0
   0
LINE
   5
2E7
 100
AcDbEntity
   8
LEVEL001
 370
13
 100
AcDbLine
   6
CONTINUOUS
  62
6
  10
 5605.3846446145
  20
 2560.0000000000
  30
0.0
  11
 8121.1424238226
  21
 2560.0000000000
  31
0.0
   0
LINE
   5
2E8
 100
AcDbEntity
   8
LEVEL001
 370
13
 100
AcDbLine
   6
CONTINUOUS
  62
6
  10
 5605.3846446145
  20
 2690.0000000000
  30
0.0
  11
 8121.1424238226
  21
 2690.0000000000
  31
0.0
   0
LINE
   5
2E9
 100
AcDbEntity
   8
LEVEL001
 370
13
 100
AcDbLine
   6
CONTINUOUS
  62
6
  10
 5605.3846446145
  20
 2820.0000000000
  30
0.0
  11
 8121.1424238226
  21
 2820.0000000000
  31
0.0
   0
LINE
   5
2EA
 100
AcDbEntity
   8
LEVEL001
 370
13
 100
AcDbLine
   6
CONTINUOUS
  62
6
  10
 5605.3846446145
  20
 2950.0000000000
  30
0.0
  11
 8121.1424238226
  21
 2950.0000000000
  31
0.0
   0
LINE
   5
2EB
 100
AcDbEntity
   8
LEVEL001
 370
13
 100
AcDbLine
   6
CONTINUOUS
  62
6
  10
 5605.3846446145
  20
 3080.0000000000
  30
0.0
  11
 8121.1424238226
  21
 3080.0000000000
  31
0.0
   0
LINE
   5
2EC
 100
AcDbEntity
   8
LEVEL001
 370
13
 100
AcDbLine
   6
CONTINUOUS
  62
6
  10
 5605.3846446145
  20
 3210.0000000000
  30
0.0
  11
 8121.1424238226
  21
 3210.0000000000
  31
0.0
   0
LINE
   5
2ED
 100
AcDbEntity
   8
LEVEL001
 370
13
 100
AcDbLine
   6
CONTINUOUS
  62
6
  10
 5605.3846446145
  20
 3350.0000000000
  30
0.0
  11
 8121.1424238226
  21
 3350.0000000000
  31
0.0
   0
LINE
   5
2EE
 100
AcDbEntity
   8
LEVEL001
 370
13
 100
AcDbLine
   6
CONTINUOUS
  62
6
  10
 5605.3846446145
  20
 3650.0000000000
  30
0.0
  11
 8121.1424238226
  21
 3650.0000000000
  31
0.0
   0
MTEXT
   5
2F0
 100
AcDbEntity
   8
LEVEL001
 370
13
  62
1
 100
AcDbMText
  10
 6826.3636183686
  20
 3103.5736076959
  30
0.0
  40
 80.000000000000
  41
0.0
  71
9
  72
1
   1
\T1.000000;２
   7
GMM006
  44
 0.79999984000003
   0
MTEXT
   5
2F2
 100
AcDbEntity
   8
LEVEL001
 370
13
  62
1
 100
AcDbMText
  10
 6826.3636183686
  20
 2973.5736076959
  30
0.0
  40
 80.000000000000
  41
0.0
  71
9
  72
1
   1
\T1.000000;２
   7
GMM006
  44
 0.79999984000003
   0
MTEXT
   5
2F4
 100
AcDbEntity
   8
LEVEL001
 370
13
  62
1
 100
AcDbMText
  10
 6826.3636183686
  20
 2843.5736076959
  30
0.0
  40
 80.000000000000
  41
0.0
  71
9
  72
1
   1
\T1.000000;２
   7
GMM006
  44
 0.79999984000003
   0
MTEXT
   5
2F6
 100
AcDbEntity
   8
LEVEL001
 370
13
  62
1
 100
AcDbMText
  10
 5770.8125020902
  20
 3392.1545397593
  30
0.0
  40
 80.000000000000
  41
0.0
  71
7
  72
1
   1
%%c\T1.000000;１０００（ダブル）
   7
GMM001
  44
 0.79999984000003
   0
MTEXT
   5
2F8
 100
AcDbEntity
   8
LEVEL001
 370
13
  62
1
 100
AcDbMText
  10
 5855.3846446145
  20
 3103.5736076959
  30
0.0
  40
 80.000000000000
  41
0.0
  71
7
  72
1
   1
\T1.000000;鏡面　Ｒ＝３６００
   7
GMM006
  44
 0.79999984000003
   0
MTEXT
   5
2FA
 100
AcDbEntity
   8
LEVEL001
 370
13
  62
1
 100
AcDbMText
  10
 6905.3846446145
  20
 3103.5736076959
  30
0.0
  40
 80.000000000000
  41
0.0
  71
7
  72
1
   1
\T1.000000;ＰＭＭＡ
   7
GMM006
  44
 0.79999984000003
   0
MTEXT
   5
2FC
 100
AcDbEntity
   8
LEVEL001
 370
13
  62
1
 100
AcDbMText
  10
 6905.3846446145
  20
 2973.5736076959
  30
0.0
  40
 80.000000000000
  41
0.0
  71
7
  72
1
   1
\T1.000000;ＦＲＰ
   7
GMM006
  44
 0.79999984000003
   0
MTEXT
   5
2FE
 100
AcDbEntity
   8
LEVEL001
 370
13
  62
1
 100
AcDbMText
  10
 6905.3846446145
  20
 2843.5736076959
  30
0.0
  40
 80.000000000000
  41
0.0
  71
7
  72
1
   1
\T1.000000;ＰＣ
   7
GMM006
  44
 0.79999984000003
   0
MTEXT
   5
300
 100
AcDbEntity
   8
LEVEL001
 370
13
  62
1
 100
AcDbMText
  10
 6905.3846446145
  20
 2063.5736076959
  30
0.0
  40
 80.000000000000
  41
0.0
  71
7
  72
1
   1
\T1.000000;ＳＳ４００
   7
GMM006
  44
 0.79999984000003
   0
MTEXT
   5
302
 100
AcDbEntity
   8
LEVEL001
 370
13
  62
1
 100
AcDbMText
  10
 7405.3846446145
  20
 2063.5736076959
  30
0.0
  40
 80.000000000000
  41
0.0
  71
7
  72
1
   1
\T1.000000;溶融亜鉛メッキ
   7
GMM006
  44
 0.79999984000003
   0
MTEXT
   5
304
 100
AcDbEntity
   8
LEVEL001
 370
13
  62
1
 100
AcDbMText
  10
 5855.3846446145
  20
 2063.5736076959
  30
0.0
  40
 80.000000000000
  41
0.0
  71
7
  72
1
   1
\T1.000000;金具締付ボルトナット
   7
GMM006
  44
 0.79999984000003
   0
MTEXT
   5
306
 100
AcDbEntity
   8
LEVEL001
 370
13
  62
1
 100
AcDbMText
  10
 6905.3846446145
  20
 2193.5736076959
  30
0.0
  40
 80.000000000000
  41
0.0
  71
7
  72
1
   1
\T1.000000;ＳＳ４００
   7
GMM006
  44
 0.79999984000003
   0
MTEXT
   5
308
 100
AcDbEntity
   8
LEVEL001
 370
13
  62
1
 100
AcDbMText
  10
 7405.3846446145
  20
 2193.5736076959
  30
0.0
  40
 80.000000000000
  41
0.0
  71
7
  72
1
   1
\T1.000000;溶融亜鉛メッキ
   7
GMM006
  44
 0.79999984000003
   0
MTEXT
   5
30A
 100
AcDbEntity
   8
LEVEL001
 370
13
  62
1
 100
AcDbMText
  10
 5855.3846446145
  20
 2193.5736076959
  30
0.0
  40
 80.000000000000
  41
0.0
  71
7
  72
1
   1
\T1.000000;裏板金具取付ボルト
   7
GMM006
  44
 0.79999984000003
   0
MTEXT
   5
30C
 100
AcDbEntity
   8
LEVEL001
 370
13
  62
1
 100
AcDbMText
  10
 7405.3846446145
  20
 2323.5736076959
  30
0.0
  40
 80.000000000000
  41
0.0
  71
7
  72
1
   1
\T1.000000;溶融亜鉛メッキ
   7
GMM006
  44
 0.79999984000003
   0
MTEXT
   5
30E
 100
AcDbEntity
   8
LEVEL001
 370
13
  62
1
 100
AcDbMText
  10
 6905.3846446145
  20
 2323.5736076959
  30
0.0
  40
 80.000000000000
  41
0.0
  71
7
  72
1
   1
\T1.000000;ＳＳ４００
   7
GMM006
  44
 0.79999984000003
   0
MTEXT
   5
310
 100
AcDbEntity
   8
LEVEL001
 370
13
  62
1
 100
AcDbMText
  10
 5855.3846446145
  20
 2323.5736076959
  30
0.0
  40
 80.000000000000
  41
0.0
  71
7
  72
1
   1
\T1.000000;支柱取付金具
   7
GMM006
  44
 0.79999984000003
   0
MTEXT
   5
312
 100
AcDbEntity
   8
LEVEL001
 370
13
  62
1
 100
AcDbMText
  10
 5855.3846446145
  20
 2453.5736076959
  30
0.0
  40
 80.000000000000
  41
0.0
  71
7
  72
1
   1
\T1.000000;裏板取付金具
   7
GMM006
  44
 0.79999984000003
   0
MTEXT
   5
314
 100
AcDbEntity
   8
LEVEL001
 370
13
  62
1
 100
AcDbMText
  10
 6905.3846446145
  20
 2453.5736076959
  30
0.0
  40
 80.000000000000
  41
0.0
  71
7
  72
1
   1
\T1.000000;ＳＳ４００
   7
GMM006
  44
 0.79999984000003
   0
MTEXT
   5
316
 100
AcDbEntity
   8
LEVEL001
 370
13
  62
1
 100
AcDbMText
  10
 7405.3846446145
  20
 2453.5736076959
  30
0.0
  40
 80.000000000000
  41
0.0
  71
7
  72
1
   1
\T1.000000;溶融亜鉛メッキ
   7
GMM006
  44
 0.79999984000003
   0
MTEXT
   5
318
 100
AcDbEntity
   8
LEVEL001
 370
13
  62
1
 100
AcDbMText
  10
 6826.3636183686
  20
 2193.5736076959
  30
0.0
  40
 80.000000000000
  41
0.0
  71
9
  72
1
   1
\T1.000000;８
   7
GMM006
  44
 0.79999984000003
   0
MTEXT
   5
31A
 100
AcDbEntity
   8
LEVEL001
 370
13
  62
1
 100
AcDbMText
  10
 5855.3846446145
  20
 1673.5736076959
  30
0.0
  40
 80.000000000000
  41
0.0
  71
7
  72
1
   1
\T1.000000;支柱
   7
GMM006
  44
 0.79999984000003
   0
MTEXT
   5
31C
 100
AcDbEntity
   8
LEVEL001
 370
13
  62
1
 100
AcDbMText
  10
 6826.3636183686
  20
 1673.5736076959
  30
0.0
  40
 80.000000000000
  41
0.0
  71
9
  72
1
   1
\T1.000000;１
   7
GMM006
  44
 0.79999984000003
   0
MTEXT
   5
31E
 100
AcDbEntity
   8
LEVEL001
 370
13
  62
1
 100
AcDbMText
  10
 6905.3846446145
  20
 1673.5736076959
  30
0.0
  40
 80.000000000000
  41
0.0
  71
7
  72
1
   1
\T1.000000;ＳＴＫ４００
   7
GMM006
  44
 0.79999984000003
   0
MTEXT
   5
320
 100
AcDbEntity
   8
LEVEL001
 370
13
  62
1
 100
AcDbMText
  10
 7405.3846446145
  20
 1673.5736076959
  30
0.0
  40
 80.000000000000
  41
0.0
  71
7
  72
1
   1
\T1.000000;静電粉体塗装
   7
GMM006
  44
 0.79999984000003
   0
MTEXT
   5
322
 100
AcDbEntity
   8
LEVEL001
 370
13
  62
1
 100
AcDbMText
  10
 5855.3846446145
  20
 1803.5736076959
  30
0.0
  40
 80.000000000000
  41
0.0
  71
7
  72
1
   1
\T1.000000;同上ボルトナット
   7
GMM006
  44
 0.79999984000003
   0
MTEXT
   5
324
 100
AcDbEntity
   8
LEVEL001
 370
13
  62
1
 100
AcDbMText
  10
 6905.3846446145
  20
 1933.5736076959
  30
0.0
  40
 80.000000000000
  41
0.0
  71
7
  72
1
   1
\T1.000000;ＳＳ４００
   7
GMM006
  44
 0.79999984000003
   0
MTEXT
   5
326
 100
AcDbEntity
   8
LEVEL001
 370
13
  62
1
 100
AcDbMText
  10
 6905.3846446145
  20
 1803.5736076959
  30
0.0
  40
 80.000000000000
  41
0.0
  71
7
  72
1
   1
\T1.000000;ＳＳ４００
   7
GMM006
  44
 0.79999984000003
   0
MTEXT
   5
328
 100
AcDbEntity
   8
LEVEL001
 370
13
  62
1
 100
AcDbMText
  10
 7405.3846446145
  20
 1933.5736076959
  30
0.0
  40
 80.000000000000
  41
0.0
  71
7
  72
1
   1
\T1.000000;溶融亜鉛メッキ
   7
GMM006
  44
 0.79999984000003
   0
MTEXT
   5
32A
 100
AcDbEntity
   8
LEVEL001
 370
13
  62
1
 100
AcDbMText
  10
 7405.3846446145
  20
 1803.5736076959
  30
0.0
  40
 80.000000000000
  41
0.0
  71
7
  72
1
   1
\T1.000000;溶融亜鉛メッキ
   7
GMM006
  44
 0.79999984000003
   0
MTEXT
   5
32C
 100
AcDbEntity
   8
LEVEL001
 370
13
  62
1
 100
AcDbMText
  10
 5855.3846446145
  20
 1933.5736076959
  30
0.0
  40
 80.000000000000
  41
0.0
  71
7
  72
1
   1
\T1.000000;二面鏡用取付腕木
   7
GMM006
  44
 0.79999984000003
   0
MTEXT
   5
32E
 100
AcDbEntity
   8
LEVEL001
 370
13
  62
1
 100
AcDbMText
  10
 6826.3636183686
  20
 2063.5736076959
  30
0.0
  40
 80.000000000000
  41
0.0
  71
9
  72
1
   1
\T1.000000;８
   7
GMM006
  44
 0.79999984000003
   0
MTEXT
   5
330
 100
AcDbEntity
   8
LEVEL001
 370
13
  62
1
 100
AcDbMText
  10
 6826.3636183686
  20
 2713.5736076959
  30
0.0
  40
 80.000000000000
  41
0.0
  71
9
  72
1
   1
\T1.000000;２
   7
GMM006
  44
 0.79999984000003
   0
MTEXT
   5
332
 100
AcDbEntity
   8
LEVEL001
 370
13
  62
1
 100
AcDbMText
  10
 5855.3846446145
  20
 2713.5736076959
  30
0.0
  40
 80.000000000000
  41
0.0
  71
7
  72
1
   1
\T1.000000;取付枠
   7
GMM006
  44
 0.79999984000003
   0
MTEXT
   5
334
 100
AcDbEntity
   8
LEVEL001
 370
13
  62
1
 100
AcDbMText
  10
 5855.3846446145
  20
 2583.5736076959
  30
0.0
  40
 80.000000000000
  41
0.0
  71
7
  72
1
   1
\T1.000000;取付枠取付リベット
   7
GMM006
  44
 0.79999984000003
   0
MTEXT
   5
336
 100
AcDbEntity
   8
LEVEL001
 370
13
  62
1
 100
AcDbMText
  10
 6905.3846446145
  20
 2713.5736076959
  30
0.0
  40
 80.000000000000
  41
0.0
  71
7
  72
1
   1
\T1.000000;アルミニウム
   7
GMM006
  44
 0.79999984000003
   0
MTEXT
   5
338
 100
AcDbEntity
   8
LEVEL001
 370
13
  62
1
 100
AcDbMText
  10
 6905.3846446145
  20
 2583.5736076959
  30
0.0
  40
 80.000000000000
  41
0.0
  71
7
  72
1
   1
\T1.000000;アルミニウム
   7
GMM006
  44
 0.79999984000003
   0
MTEXT
   5
33A
 100
AcDbEntity
   8
LEVEL001
 370
13
  62
1
 100
AcDbMText
  10
 5770.8125020902
  20
 3529.5068305878
  30
0.0
  40
 80.000000000000
  41
0.0
  71
7
  72
1
   1
\T1.000000;アクリルミラ－
   7
GMM001
  44
 0.79999984000003
   0
MTEXT
   5
33C
 100
AcDbEntity
   8
LEVEL001
 370
13
  62
1
 100
AcDbMText
  10
 6826.3636183686
  20
 2583.5736076959
  30
0.0
  40
 80.000000000000
  41
0.0
  71
9
  72
1
   1
\T1.000000;２２
   7
GMM006
  44
 0.79999984000003
   0
MTEXT
   5
33E
 100
AcDbEntity
   8
LEVEL001
 370
13
  62
1
 100
AcDbMText
  10
 7405.3846446145
  20
 2973.5736076959
  30
0.0
  40
 80.000000000000
  41
0.0
  71
7
  72
1
   1
\T1.000000;ＳＭＣ成型
   7
GMM006
  44
 0.79999984000003
   0
MTEXT
   5
340
 100
AcDbEntity
   8
LEVEL001
 370
13
  62
1
 100
AcDbMText
  10
 7405.3846446145
  20
 3103.5736076959
  30
0.0
  40
 80.000000000000
  41
0.0
  71
7
  72
1
   1
\W0.450000;\T1.000000;t=3.0mm･\W0.900000;\T1.000000;真空蒸着
   7
GMM006
  44
 0.79999984000003
   0
MTEXT
   5
342
 100
AcDbEntity
   8
LEVEL001
 370
13
  62
1
 100
AcDbMText
  10
 6826.3636183686
  20
 2453.5736076959
  30
0.0
  40
 80.000000000000
  41
0.0
  71
9
  72
1
   1
\T1.000000;２
   7
GMM006
  44
 0.79999984000003
   0
MTEXT
   5
344
 100
AcDbEntity
   8
LEVEL001
 370
13
  62
1
 100
AcDbMText
  10
 6826.3636183686
  20
 2323.5736076959
  30
0.0
  40
 80.000000000000
  41
0.0
  71
9
  72
1
   1
\T1.000000;２
   7
GMM006
  44
 0.79999984000003
   0
MTEXT
   5
346
 100
AcDbEntity
   8
LEVEL001
 370
13
  62
1
 100
AcDbMText
  10
 6826.3636183686
  20
 1933.5736076959
  30
0.0
  40
 80.000000000000
  41
0.0
  71
9
  72
1
   1
\T1.000000;１
   7
GMM006
  44
 0.79999984000003
   0
MTEXT
   5
348
 100
AcDbEntity
   8
LEVEL001
 370
13
  62
1
 100
AcDbMText
  10
 7738.2635342186
  20
 3280.0000000000
  30
0.0
  40
 80.000000000000
  41
0.0
  71
5
  72
1
   1
\T1.000000;規格仕様
   7
GMM006
  44
 0.79999984000003
   0
MTEXT
   5
34A
 100
AcDbEntity
   8
LEVEL001
 370
13
  62
1
 100
AcDbMText
  10
 6826.3636183686
  20
 1803.5736076959
  30
0.0
  40
 80.000000000000
  41
0.0
  71
9
  72
1
   1
\T1.000000;４
   7
GMM006
  44
 0.79999984000003
   0
LINE
   5
34B
 100
AcDbEntity
   8
LEVEL001
 370
13
 100
AcDbLine
   6
CONTINUOUS
  62
6
  10
 5605.3846446145
  20
 1390.0000000000
  30
0.0
  11
 8121.1424238226
  21
 1390.0000000000
  31
0.0
   0
MTEXT
   5
34D
 100
AcDbEntity
   8
LEVEL001
 370
13
  62
1
 100
AcDbMText
  10
 5855.3846446145
  20
 1413.5736076959
  30
0.0
  40
 80.000000000000
  41
0.0
  71
7
  72
1
   1
\T1.000000;根入れ鉄筋
   7
GMM006
  44
 0.79999984000003
   0
LINE
   5
34E
 100
AcDbEntity
   8
LEVEL001
 370
13
 100
AcDbLine
   6
CONTINUOUS
  62
6
  10
 5605.3846446145
  20
 1130.0000000000
  30
0.0
  11
 8121.1424238226
  21
 1130.0000000000
  31
0.0
   0
LINE
   5
34F
 100
AcDbEntity
   8
LEVEL001
 370
13
 100
AcDbLine
   6
CONTINUOUS
  62
6
  10
 5605.3846446145
  20
 1260.0000000000
  30
0.0
  11
 8121.1424238226
  21
 1260.0000000000
  31
0.0
   0
LINE
   5
350
 100
AcDbEntity
   8
LEVEL001
 370
13
 100
AcDbLine
   6
CONTINUOUS
  62
6
  10
 5605.3846446145
  20
 1000.0000000000
  30
0.0
  11
 8121.1424238226
  21
 1000.0000000000
  31
0.0
   0
MTEXT
   5
352
 100
AcDbEntity
   8
LEVEL001
 370
13
  62
1
 100
AcDbMText
  10
 5855.3846446145
  20
 893.57360769589
  30
0.0
  40
 80.000000000000
  41
0.0
  71
7
  72
1
   1
\T1.000000;同上ボルトナット
   7
GMM006
  44
 0.79999984000003
   0
MTEXT
   5
354
 100
AcDbEntity
   8
LEVEL001
 370
13
  62
1
 100
AcDbMText
  10
 5855.3846446145
  20
 1023.5736076959
  30
0.0
  40
 80.000000000000
  41
0.0
  71
7
  72
1
   1
\T1.000000;注意板取付バンド
   7
GMM006
  44
 0.79999984000003
   0
MTEXT
   5
356
 100
AcDbEntity
   8
LEVEL001
 370
13
  62
1
 100
AcDbMText
  10
 6826.3636183686
  20
 1153.5736076959
  30
0.0
  40
 80.000000000000
  41
0.0
  71
9
  72
1
   1
\T1.000000;１
   7
GMM006
  44
 0.79999984000003
   0
MTEXT
   5
358
 100
AcDbEntity
   8
LEVEL001
 370
13
  62
1
 100
AcDbMText
  10
 5855.3846446145
  20
 1283.5736076959
  30
0.0
  40
 80.000000000000
  41
0.0
  71
7
  72
1
   1
\T1.000000;キャップ
   7
GMM006
  44
 0.79999984000003
   0
MTEXT
   5
35A
 100
AcDbEntity
   8
LEVEL001
 370
13
  62
1
 100
AcDbMText
  10
 6826.3636183686
  20
 1283.5736076959
  30
0.0
  40
 80.000000000000
  41
0.0
  71
9
  72
1
   1
\T1.000000;１
   7
GMM006
  44
 0.79999984000003
   0
MTEXT
   5
35C
 100
AcDbEntity
   8
LEVEL001
 370
13
  62
1
 100
AcDbMText
  10
 6905.3846446145
  20
 1283.5736076959
  30
0.0
  40
 80.000000000000
  41
0.0
  71
7
  72
1
   1
\T1.000000;ＰＥ
   7
GMM006
  44
 0.79999984000003
   0
MTEXT
   5
35E
 100
AcDbEntity
   8
LEVEL001
 370
13
  62
1
 100
AcDbMText
  10
 6826.3636183686
  20
 1413.5736076959
  30
0.0
  40
 80.000000000000
  41
0.0
  71
9
  72
1
   1
\T1.000000;２
   7
GMM006
  44
 0.79999984000003
   0
MTEXT
   5
360
 100
AcDbEntity
   8
LEVEL001
 370
13
  62
1
 100
AcDbMText
  10
 6905.3846446145
  20
 1413.5736076959
  30
0.0
  40
 80.000000000000
  41
0.0
  71
7
  72
1
   1
\T1.000000;ＳＤ２９５Ａ
   7
GMM006
  44
 0.79999984000003
   0
MTEXT
   5
362
 100
AcDbEntity
   8
LEVEL001
 370
13
  62
1
 100
AcDbMText
  10
 5776.3636183686
  20
 1413.5736076959
  30
0.0
  40
 80.000000000000
  41
0.0
  71
9
  72
1
   1
\T1.000000;１３
   7
GMM005
  44
 0.79999984000003
   0
MTEXT
   5
364
 100
AcDbEntity
   8
LEVEL001
 370
13
  62
1
 100
AcDbMText
  10
 5776.3636183686
  20
 1283.5736076959
  30
0.0
  40
 80.000000000000
  41
0.0
  71
9
  72
1
   1
\T1.000000;１４
   7
GMM005
  44
 0.79999984000003
   0
MTEXT
   5
366
 100
AcDbEntity
   8
LEVEL001
 370
13
  62
1
 100
AcDbMText
  10
 5776.3636183686
  20
 1153.5736076959
  30
0.0
  40
 80.000000000000
  41
0.0
  71
9
  72
1
   1
\T1.000000;１５
   7
GMM005
  44
 0.79999984000003
   0
MTEXT
   5
368
 100
AcDbEntity
   8
LEVEL001
 370
13
  62
1
 100
AcDbMText
  10
 5776.3636183686
  20
 1023.5736076959
  30
0.0
  40
 80.000000000000
  41
0.0
  71
9
  72
1
   1
\T1.000000;１６
   7
GMM005
  44
 0.79999984000003
   0
MTEXT
   5
36A
 100
AcDbEntity
   8
LEVEL001
 370
13
  62
1
 100
AcDbMText
  10
 5776.3636183686
  20
 893.57360769589
  30
0.0
  40
 80.000000000000
  41
0.0
  71
9
  72
1
   1
\T1.000000;１７
   7
GMM005
  44
 0.79999984000003
   0
LINE
   5
36B
 100
AcDbEntity
   8
LEVEL001
 370
13
 100
AcDbLine
   6
CONTINUOUS
  62
6
  10
 5605.3846446145
  20
 1520.0000000000
  30
0.0
  11
 8121.1424238226
  21
 1520.0000000000
  31
0.0
   0
LINE
   5
36C
 100
AcDbEntity
   8
LEVEL001
 370
13
 100
AcDbLine
   6
CONTINUOUS
  62
6
  10
 5805.3846446145
  20
 3350.0000000000
  30
0.0
  11
 5805.3846446145
  21
 870.00000000000
  31
0.0
   0
LINE
   5
36D
 100
AcDbEntity
   8
LEVEL001
 370
13
 100
AcDbLine
   6
CONTINUOUS
  62
6
  10
 6655.3846446145
  20
 3350.0000000000
  30
0.0
  11
 6655.3846446145
  21
 870.00000000000
  31
0.0
   0
LINE
   5
36E
 100
AcDbEntity
   8
LEVEL001
 370
13
 100
AcDbLine
   6
CONTINUOUS
  62
6
  10
 6855.3846446145
  20
 3350.0000000000
  30
0.0
  11
 6855.3846446145
  21
 870.00000000000
  31
0.0
   0
LINE
   5
36F
 100
AcDbEntity
   8
LEVEL001
 370
13
 100
AcDbLine
   6
CONTINUOUS
  62
6
  10
 7355.3846446145
  20
 3350.0000000000
  30
0.0
  11
 7355.3846446145
  21
 870.00000000000
  31
0.0
   0
LINE
   5
370
 100
AcDbEntity
   8
LEVEL001
 370
13
 100
AcDbLine
   6
CONTINUOUS
  62
6
  10
 5605.3846446145
  20
 3650.0000000000
  30
0.0
  11
 5605.3846446145
  21
 870.00000000000
  31
0.0
   0
LINE
   5
371
 100
AcDbEntity
   8
LEVEL001
 370
13
 100
AcDbLine
   6
CONTINUOUS
  62
6
  10
 6655.3846446145
  20
 1650.0000000000
  30
0.0
  11
 8121.1424238226
  21
 1650.0000000000
  31
0.0
   0
MTEXT
   5
373
 100
AcDbEntity
   8
LEVEL001
 370
13
  62
1
 100
AcDbMText
  10
 6826.3636183686
  20
 1543.5736076959
  30
0.0
  40
 80.000000000000
  41
0.0
  71
9
  72
1
   1
\T1.000000;１
   7
GMM006
  44
 0.79999984000003
   0
MTEXT
   5
375
 100
AcDbEntity
   8
LEVEL001
 370
13
  62
1
 100
AcDbMText
  10
 6905.3846446145
  20
 1543.5736076959
  30
0.0
  40
 80.000000000000
  41
0.0
  71
7
  72
1
   1
\T1.000000;ＳＴＫ４００
   7
GMM006
  44
 0.79999984000003
   0
MTEXT
   5
377
 100
AcDbEntity
   8
LEVEL001
 370
13
  62
1
 100
AcDbMText
  10
 7405.3846446145
  20
 1585.0000000000
  30
0.0
  40
 44.000000000000
  41
0.0
  71
4
  72
1
   1
{\T1.000000;下地亜鉛メッキ}\P{\T1.000000;＋静電粉体塗装}
   7
GMM007
  44
 0.79999984000003
   0
MTEXT
   5
379
 100
AcDbEntity
   8
LEVEL001
 370
13
  62
1
 100
AcDbMText
  10
 5661.7908772708
  20
 3914.3113553114
  30
0.0
  40
 80.000000000000
  41
0.0
  71
4
  72
1
   1
{\T1.000000;※構成部材は改良のため、変更する場合があります。}\P{\T1.000000;※本図は道路反射鏡ハンドブックに基づいています。}
   7
GMM006
  44
 0.94999981000004
   0
MTEXT
   5
37B
 100
AcDbEntity
   8
LEVEL001
 370
13
  62
1
 100
AcDbMText
  10
 6905.3846446145
  20
 1153.5736076959
  30
0.0
  40
 80.000000000000
  41
0.0
  71
7
  72
1
   1
\T1.000000;―
   7
GMM006
  44
 0.79999984000003
   0
MTEXT
   5
37D
 100
AcDbEntity
   8
LEVEL001
 370
13
  62
1
 100
AcDbMText
  10
 6905.3846446145
  20
 1023.5736076959
  30
0.0
  40
 80.000000000000
  41
0.0
  71
7
  72
1
   1
\T1.000000;―
   7
GMM006
  44
 0.79999984000003
   0
MTEXT
   5
37F
 100
AcDbEntity
   8
LEVEL001
 370
13
  62
1
 100
AcDbMText
  10
 6905.3846446145
  20
 893.57360769589
  30
0.0
  40
 80.000000000000
  41
0.0
  71
7
  72
1
   1
\T1.000000;―
   7
GMM006
  44
 0.79999984000003
   0
MTEXT
   5
381
 100
AcDbEntity
   8
LEVEL001
 370
13
  62
1
 100
AcDbMText
  10
 7397.5057550105
  20
 1153.5736076959
  30
0.0
  40
 80.000000000000
  41
0.0
  71
7
  72
1
   1
\T1.000000;―
   7
GMM006
  44
 0.79999984000003
   0
MTEXT
   5
383
 100
AcDbEntity
   8
LEVEL001
 370
13
  62
1
 100
AcDbMText
  10
 7397.5057550105
  20
 1023.5736076959
  30
0.0
  40
 80.000000000000
  41
0.0
  71
7
  72
1
   1
\T1.000000;―
   7
GMM006
  44
 0.79999984000003
   0
MTEXT
   5
385
 100
AcDbEntity
   8
LEVEL001
 370
13
  62
1
 100
AcDbMText
  10
 7397.5057550105
  20
 893.57360769589
  30
0.0
  40
 80.000000000000
  41
0.0
  71
7
  72
1
   1
\T1.000000;―
   7
GMM006
  44
 0.79999984000003
   0
MTEXT
   5
387
 100
AcDbEntity
   8
LEVEL001
 370
13
  62
1
 100
AcDbMText
  10
 6421.1628571644
  20
 711.30447100831
  30
0.0
  40
 66.000000000000
  41
0.0
  71
5
  72
1
   1
\T1.000000;ＭＡ１００Ｗ
   7
GMM002
  44
 0.79999984000003
   0
MTEXT
   5
389
 100
AcDbEntity
   8
LEVEL001
 370
13
  62
1
 100
AcDbMText
  10
 6826.3636183686
  20
 1023.5736076959
  30
0.0
  40
 80.000000000000
  41
0.0
  71
9
  72
1
   1
\T1.000000;１式
   7
GMM006
  44
 0.79999984000003
   0
MTEXT
   5
38B
 100
AcDbEntity
   8
LEVEL001
 370
13
  62
1
 100
AcDbMText
  10
 6826.3636183686
  20
 893.57360769589
  30
0.0
  40
 80.000000000000
  41
0.0
  71
9
  72
1
   1
\T1.000000;１式
   7
GMM006
  44
 0.79999984000003
   0
MTEXT
   5
38C
 100
AcDbEntity
   8
LEVEL001
 370
13
  62
1
 100
AcDbMText
  10
 5628.3110515409
  20
 813.78497023810
  30
0.0
  40
 37.142857142857
  41
0.0
  71
7
  72
1
   1
\T1.269231;図面番号
   7
GMM008
  44
 0.79999984000003
   0
MTEXT
   5
38E
 100
AcDbEntity
   8
LEVEL001
 370
13
  62
1
 100
AcDbMText
  10
 5855.3846446145
  20
 1153.5736076959
  30
0.0
  40
 80.000000000000
  41
0.0
  71
7
  72
1
   1
\T1.000000;注意板
   7
GMM006
  44
 0.79999984000003
   0
ENDSEC
  0
SECTION
  2
OBJECTS
  0
DICTIONARY
  5
C
100
AcDbDictionary
  3
ACAD_GROUP
350
D
  3
ACAD_MLINESTYLE
350
1B
  3
DWGPROPS
350
1C
  0
DICTIONARY
  5
D
102
{ACAD_REACTORS
330
C
102
}
100
AcDbDictionary
  0
DICTIONARY
  5
1B
102
{ACAD_REACTORS
330
C
102
}
100
AcDbDictionary
  3
STANDARD
350
1D
  0
MLINESTYLE
  5
1D
102
{ACAD_REACTORS
330
1B
102
}
100
AcDbMlineStyle
  2
STANDARD
 70
     0
  3

 62
   256
 51
90.0
 52
90.0
 71
     2
 49
0.5
 62
   256
  6
BYLAYER
 49
-0.5
 62
   256
  6
BYLAYER
   0
XRECORD
   5
1C
 102
{ACAD_REACTORS
 330
C
 102
}
 330
C
 100
AcDbXrecord
 280
1
   1
DWGPROPS COOKIE
   2
 
   3
 
   4
 
   6
 
   7
A1000W直柱_MA100W
   8
 
   9

 300
 = 
 301
 = 
 302
 = 
 303
 = 
 304
 = 
 305
 = 
 306
 = 
 307
 = 
 308
 = 
 309
 = 
  40
0.0
  41
 2460327.5000000
  42
 2460327.5000000
   1

  90
10
   0
ENDSEC
   0
EOF
