   0
SECTION
   2
HEADER
   9
$ACADVER
   1
AC1015
   9
$DWGCODEPAGE
   3
ANSI_932
   9
$LIMMIN
  10
0.0
  20
0.0
   9
$LIMMAX
  10
 8400.0000000000
  20
 5940.0000000000
   9
$EXTMIN
  10
0.0
  20
0.0
  30
0.0
   9
$EXTMAX
  10
 8400.0000000000
  20
 5940.0000000000
  30
0.0
   9
$LTSCALE
  40
 168.00000000000
   9
$HANDSEED
   5
32A
   0
ENDSEC
   0
SECTION
   2
TABLES
  0
TABLE
  2
VPORT
  5
8
100
AcDbSymbolTable
 70
     1
  0
VPORT
  5
329
100
AcDbSymbolTableRecord
100
AcDbViewportTableRecord
  2
*ACTIVE
 70
     0
 10
0.0
 20
0.0
 11
1.0
 21
1.0
  12
 4200.0000000000
  22
 2970.0000000000
 13
0.0
 23
0.0
 14
1.0
 24
1.0
 15
0.0
 25
0.0
 16
0.0
 26
0.0
 36
1.0
 17
0.0
 27
0.0
 37
0.0
  40
 8400.0000000000
  41
 1.4787878787879
 42
50.0
 43
0.0
 44
0.0
 50
0.0
 51
0.0
 71
     0
 72
   100
 73
     1
 74
     1
 75
     0
 76
     0
 77
     0
 78
     0
  0
ENDTAB
  0
TABLE
  2
LTYPE
  5
5
100
AcDbSymbolTable
 70
    25
  0
LTYPE
  5
12
100
AcDbSymbolTableRecord
100
AcDbLinetypeTableRecord
  2
BYBLOCK
 70
     0
  3

 72
    65
 73
     0
 40
0.0
  0
LTYPE
  5
13
100
AcDbSymbolTableRecord
100
AcDbLinetypeTableRecord
  2
BYLAYER
 70
     0
  3

 72
    65
 73
     0
 40
0.0
  0
LTYPE
  5
14
100
AcDbSymbolTableRecord
100
AcDbLinetypeTableRecord
  2
CONTINUOUS
 70
     0
  3
Solid line
 72
    65
 73
     0
 40
0.0
  0
LTYPE
  5
20
100
AcDbSymbolTableRecord
100
AcDbLinetypeTableRecord
  2
BORDER
 70
     0
  3
__ __ . __ __ . __ __ . __ __ . __ __ . __ __ .
 72
    65
 73
     6
 40
1.75
 49
0.5
 74
     0
 49
-0.25
 74
     0
 49
0.5
 74
     0
 49
-0.25
 74
     0
 49
0.0
 74
     0
 49
-0.25
 74
     0
  0
LTYPE
  5
21
100
AcDbSymbolTableRecord
100
AcDbLinetypeTableRecord
  2
BORDER2
 70
     0
  3
__.__.__.__.__.__.__.__.__.__.__.__.__.__.__.__
 72
    65
 73
     6
 40
0.875
 49
0.25
 74
     0
 49
-0.125
 74
     0
 49
0.25
 74
     0
 49
-0.125
 74
     0
 49
0.0
 74
     0
 49
-0.125
 74
     0
  0
LTYPE
  5
22
100
AcDbSymbolTableRecord
100
AcDbLinetypeTableRecord
  2
BORDERX2
 70
     0
  3
____  ____  .  ____  ____  .  ____  ____  .  __
 72
    65
 73
     6
 40
3.5
 49
1.0
 74
     0
 49
-0.5
 74
     0
 49
1.0
 74
     0
 49
-0.5
 74
     0
 49
0.0
 74
     0
 49
-0.5
 74
     0
  0
LTYPE
  5
23
100
AcDbSymbolTableRecord
100
AcDbLinetypeTableRecord
  2
CENTER
 70
     0
  3
____ _ ____ _ ____ _ ____ _ ____ _ ____ _ ____ 
 72
    65
 73
     4
 40
2.0
 49
1.25
 74
     0
 49
-0.25
 74
     0
 49
0.25
 74
     0
 49
-0.25
 74
     0
  0
LTYPE
  5
24
100
AcDbSymbolTableRecord
100
AcDbLinetypeTableRecord
  2
CENTER2
 70
     0
  3
___ _ ___ _ ___ _ ___ _ ___ _ ___ _ ___ _ ___ _
 72
    65
 73
     4
 40
1.125
 49
0.75
 74
     0
 49
-0.125
 74
     0
 49
0.125
 74
     0
 49
-0.125
 74
     0
  0
LTYPE
  5
25
100
AcDbSymbolTableRecord
100
AcDbLinetypeTableRecord
  2
CENTERX2
 70
     0
  3
________  __  ________  __  ________  __  _____
 72
    65
 73
     4
 40
4.0
 49
2.5
 74
     0
 49
-0.5
 74
     0
 49
0.5
 74
     0
 49
-0.5
 74
     0
  0
LTYPE
  5
26
100
AcDbSymbolTableRecord
100
AcDbLinetypeTableRecord
  2
DASHDOT
 70
     0
  3
__ . __ . __ . __ . __ . __ . __ . __ . __ . __
 72
    65
 73
     4
 40
1.0
 49
0.5
 74
     0
 49
-0.25
 74
     0
 49
0.0
 74
     0
 49
-0.25
 74
     0
  0
LTYPE
  5
27
100
AcDbSymbolTableRecord
100
AcDbLinetypeTableRecord
  2
DASHDOT2
 70
     0
  3
_._._._._._._._._._._._._._._._._._._._._._._._
 72
    65
 73
     4
 40
0.5
 49
0.25
 74
     0
 49
-0.125
 74
     0
 49
0.0
 74
     0
 49
-0.125
 74
     0
  0
LTYPE
  5
28
100
AcDbSymbolTableRecord
100
AcDbLinetypeTableRecord
  2
DASHDOTX2
 70
     0
  3
____  .  ____  .  ____  .  ____  .  ____  .  __
 72
    65
 73
     4
 40
2.0
 49
1.0
 74
     0
 49
-0.5
 74
     0
 49
0.0
 74
     0
 49
-0.5
 74
     0
  0
LTYPE
  5
29
100
AcDbSymbolTableRecord
100
AcDbLinetypeTableRecord
  2
DASHED
 70
     0
  3
__ __ __ __ __ __ __ __ __ __ __ __ __ __ __ __
 72
    65
 73
     2
 40
0.75
 49
0.5
 74
     0
 49
-0.25
 74
     0
  0
LTYPE
  5
2A
100
AcDbSymbolTableRecord
100
AcDbLinetypeTableRecord
  2
DASHED2
 70
     0
  3
_ _ _ _ _ _ _ _ _ _ _ _ _ _ _ _ _ _ _ _ _ _ _ _
 72
    65
 73
     2
 40
0.375
 49
0.25
 74
     0
 49
-0.125
 74
     0
  0
LTYPE
  5
2B
100
AcDbSymbolTableRecord
100
AcDbLinetypeTableRecord
  2
DASHEDX2
 70
     0
  3
____  ____  ____  ____  ____  ____  ____  ____ 
 72
    65
 73
     2
 40
1.5
 49
1.0
 74
     0
 49
-0.5
 74
     0
  0
LTYPE
  5
2C
100
AcDbSymbolTableRecord
100
AcDbLinetypeTableRecord
  2
DIVIDE
 70
     0
  3
____ . . ____ . . ____ . . ____ . . ____ . . __
 72
    65
 73
     6
 40
1.25
 49
0.5
 74
     0
 49
-0.25
 74
     0
 49
0.0
 74
     0
 49
-0.25
 74
     0
 49
0.0
 74
     0
 49
-0.25
 74
     0
  0
LTYPE
  5
2D
100
AcDbSymbolTableRecord
100
AcDbLinetypeTableRecord
  2
DIVIDE2
 70
     0
  3
__..__..__..__..__..__..__..__..__..__..__..__.
 72
    65
 73
     6
 40
0.625
 49
0.25
 74
     0
 49
-0.125
 74
     0
 49
0.0
 74
     0
 49
-0.125
 74
     0
 49
0.0
 74
     0
 49
-0.125
 74
     0
  0
LTYPE
  5
2E
100
AcDbSymbolTableRecord
100
AcDbLinetypeTableRecord
  2
DIVIDEX2
 70
     0
  3
________  .  .  ________  .  .  ________  .  . 
 72
    65
 73
     6
 40
2.5
 49
1.0
 74
     0
 49
-0.5
 74
     0
 49
0.0
 74
     0
 49
-0.5
 74
     0
 49
0.0
 74
     0
 49
-0.5
 74
     0
  0
LTYPE
  5
2F
100
AcDbSymbolTableRecord
100
AcDbLinetypeTableRecord
  2
DOT
 70
     0
  3
. . . . . . . . . . . . . . . . . . . . . . . .
 72
    65
 73
     2
 40
0.25
 49
0.0
 74
     0
 49
-0.25
 74
     0
  0
LTYPE
  5
30
100
AcDbSymbolTableRecord
100
AcDbLinetypeTableRecord
  2
DOT2
 70
     0
  3
...............................................
 72
    65
 73
     2
 40
0.125
 49
0.0
 74
     0
 49
-0.125
 74
     0
  0
LTYPE
  5
31
100
AcDbSymbolTableRecord
100
AcDbLinetypeTableRecord
  2
DOTX2
 70
     0
  3
.  .  .  .  .  .  .  .  .  .  .  .  .  .  .  . 
 72
    65
 73
     2
 40
0.5
 49
0.0
 74
     0
 49
-0.5
 74
     0
  0
LTYPE
  5
32
100
AcDbSymbolTableRecord
100
AcDbLinetypeTableRecord
  2
HIDDEN
 70
     0
  3
__ __ __ __ __ __ __ __ __ __ __ __ __ __ __ __
 72
    65
 73
     2
 40
0.375
 49
0.25
 74
     0
 49
-0.125
 74
     0
  0
LTYPE
  5
33
100
AcDbSymbolTableRecord
100
AcDbLinetypeTableRecord
  2
HIDDEN2
 70
     0
  3
_ _ _ _ _ _ _ _ _ _ _ _ _ _ _ _ _ _ _ _ _ _ _ _
 72
    65
 73
     2
 40
0.1875
 49
0.125
 74
     0
 49
-0.0625
 74
     0
  0
LTYPE
  5
34
100
AcDbSymbolTableRecord
100
AcDbLinetypeTableRecord
  2
HIDDENX2
 70
     0
  3
____ ____ ____ ____ ____ ____ ____ ____ ____ __
 72
    65
 73
     2
 40
0.75
 49
0.5
 74
     0
 49
-0.25
 74
     0
  0
LTYPE
  5
35
100
AcDbSymbolTableRecord
100
AcDbLinetypeTableRecord
  2
PHANTOM
 70
     0
  3
______  __  __  ______  __  __  ______  __  __ 
 72
    65
 73
     6
 40
2.5
 49
1.25
 74
     0
 49
-0.25
 74
     0
 49
0.25
 74
     0
 49
-0.25
 74
     0
 49
0.25
 74
     0
 49
-0.25
 74
     0
  0
LTYPE
  5
36
100
AcDbSymbolTableRecord
100
AcDbLinetypeTableRecord
  2
PHANTOM2
 70
     0
  3
___ _ _ ___ _ _ ___ _ _ ___ _ _ ___ _ _ ___ _ _
 72
    65
 73
     6
 40
1.25
 49
0.625
 74
     0
 49
-0.125
 74
     0
 49
0.125
 74
     0
 49
-0.125
 74
     0
 49
0.125
 74
     0
 49
-0.125
 74
     0
  0
LTYPE
  5
37
100
AcDbSymbolTableRecord
100
AcDbLinetypeTableRecord
  2
PHANTOMX2
 70
     0
  3
____________    ____    ____    ____________   
 72
    65
 73
     6
 40
5.0
 49
2.5
 74
     0
 49
-0.5
 74
     0
 49
0.5
 74
     0
 49
-0.5
 74
     0
 49
0.5
 74
     0
 49
-0.5
 74
     0
  0
ENDTAB
   0
TABLE
   2
LAYER
   5
2
 100
AcDbSymbolTable
  70
3
   0
LAYER
   5
E
 100
AcDbSymbolTableRecord
 100
AcDbLayerTableRecord
   2
0
  70
0
  62
7
   6
CONTINUOUS
 390
30
   0
LAYER
   5
39
 100
AcDbSymbolTableRecord
 100
AcDbLayerTableRecord
   2
LEVEL001
  70
0
  62
7
   6
CONTINUOUS
 390
30
   0
LAYER
   5
3A
 100
AcDbSymbolTableRecord
 100
AcDbLayerTableRecord
   2
LEVEL002
  70
0
  62
7
   6
CONTINUOUS
 390
30
   0
ENDTAB
  0
TABLE
  2
STYLE
  5
3
100
AcDbSymbolTable
  70
10
  0
STYLE
  5
F
100
AcDbSymbolTableRecord
100
AcDbTextStyleTableRecord
  2
STANDARD
 70
     0
 40
0.0
 41
1.0
 50
0.0
 71
     0
 42
0.2
  3
TXT
  4
BIGFONT
  0
STYLE
  5
38
100
AcDbSymbolTableRecord
100
AcDbTextStyleTableRecord
  2
STANDARD1
 70
     4
 40
0.0
 41
1.0
 50
0.0
 71
     0
 42
0.2
  3
TXT
  4
BIGFONT
   0
STYLE
   5
3B
 100
AcDbSymbolTableRecord
 100
AcDbTextStyleTableRecord
   2
GMM001
  70
0
  40
0.0
  41
 0.87500000000000
  50
0.0
  71
     0
  42
1.0
   3
txt.shx
   4
bigfont.shx
   0
STYLE
   5
3C
 100
AcDbSymbolTableRecord
 100
AcDbTextStyleTableRecord
   2
GMM002
  70
0
  40
0.0
  41
 0.90000000000000
  50
0.0
  71
     0
  42
1.0
   3
txt.shx
   4
bigfont.shx
   0
STYLE
   5
3D
 100
AcDbSymbolTableRecord
 100
AcDbTextStyleTableRecord
   2
GMM003
  70
0
  40
0.0
  41
 1.0000000000000
  50
0.0
  71
     0
  42
1.0
   3
txt.shx
   4
bigfont.shx
   0
STYLE
   5
3E
 100
AcDbSymbolTableRecord
 100
AcDbTextStyleTableRecord
   2
GMM004
  70
0
  40
0.0
  41
 0.78787878787879
  50
0.0
  71
     0
  42
1.0
   3
txt.shx
   4
bigfont.shx
   0
STYLE
   5
3F
 100
AcDbSymbolTableRecord
 100
AcDbTextStyleTableRecord
   2
GMM005
  70
0
  40
0.0
  41
 0.90000000000000
  50
0.0
  71
     0
  42
1.0
   3

   4

1001
ACAD
1000
ＭＳ 明朝
1071
33587217
   0
STYLE
   5
40
 100
AcDbSymbolTableRecord
 100
AcDbTextStyleTableRecord
   2
GMM006
  70
0
  40
0.0
  41
 0.75000000000000
  50
0.0
  71
     0
  42
1.0
   3
txt.shx
   4
bigfont.shx
   0
STYLE
   5
41
 100
AcDbSymbolTableRecord
 100
AcDbTextStyleTableRecord
   2
GMM007
  70
0
  40
0.0
  41
 1.0000000000000
  50
0.0
  71
     0
  42
1.0
   3

   4

1001
ACAD
1000
ＭＳ 明朝
1071
32785
   0
STYLE
   5
42
 100
AcDbSymbolTableRecord
 100
AcDbTextStyleTableRecord
   2
GMM008
  70
0
  40
0.0
  41
 1.6363636363636
  50
0.0
  71
     0
  42
1.0
   3
txt.shx
   4
bigfont.shx
   0
ENDTAB
  0
TABLE
  2
VIEW
  5
6
100
AcDbSymbolTable
 70
     0
  0
ENDTAB
  0
TABLE
  2
UCS
  5
7
100
AcDbSymbolTable
 70
     0
  0
ENDTAB
  0
TABLE
  2
APPID
  5
9
100
AcDbSymbolTable
 70
     1
  0
APPID
  5
10
100
AcDbSymbolTableRecord
100
AcDbRegAppTableRecord
  2
ACAD
 70
     0
  0
ENDTAB
   0
TABLE
   2
DIMSTYLE
   5
A
 100
AcDbSymbolTable
  70
11
 100
AcDbDimStyleTable
  0
DIMSTYLE
105
1D
100
AcDbSymbolTableRecord
100
AcDbDimStyleTableRecord
  2
STANDARD
 70
     0
  3

  4

  5

  6

  7

 40
1.0
 41
0.18
 42
0.0625
 43
0.38
 44
0.18
 45
0.0
 46
0.0
 47
0.0
 48
0.0
140
0.18
141
0.09
142
0.0
143
25.4
144
1.0
145
0.0
146
1.0
147
0.09
 71
     0
 72
     0
 73
     1
 74
     1
 75
     0
 76
     0
 77
     0
 78
     0
170
     0
171
     2
172
     0
173
     0
174
     0
175
     0
176
     0
177
     0
178
     0
270
     2
271
     4
272
     4
273
     2
274
     2
340
F
275
     0
280
     0
281
     0
282
     0
283
     1
284
     0
285
     0
286
     0
287
     3
288
     0
   0
DIMSTYLE
 105
43
 100
AcDbSymbolTableRecord
 100
AcDbDimStyleTableRecord
   2
GMM001
  70
0
   3
%%c<>
   4

   5

   6
_OPEN
   7
_OPEN
  40
 1.0000000000000
  41
 30.000000000000
  42
 30.000000000000
  43
 160.00000000000
  44
 30.000000000000
  45
0.0
  46
 37.500000000000
  47
0.0
  48
0.0
 140
 66.000000000000
 141
 20.000000000000
 142
0.0
 143
 0.39400000000000E-1
 144
 1.0000000000000
 145
0.0
 146
 0.62500000000000
 147
 28.285714285714
  71
0
  72
0
  73
0
  74
0
  75
1
  76
1
  77
1
  78
8
 170
0
 171
2
 172
1
 173
1
 174
0
 175
0
 176
6
 177
6
 178
1
 270
2
 271
1
 272
0
 273
2
 274
2
 340
3E
 275
0
 280
0
 281
0
 282
0
 283
1
 284
0
 285
0
 286
0
 287
0
 288
0
   0
DIMSTYLE
 105
44
 100
AcDbSymbolTableRecord
 100
AcDbDimStyleTableRecord
   2
GMM002
  70
0
   3

   4

   5

   6
_OPEN
   7
_OPEN
  40
 1.0000000000000
  41
 30.000000000000
  42
 30.000000000000
  43
 160.00000000000
  44
 30.000000000000
  45
0.0
  46
 37.500000000000
  47
0.0
  48
0.0
 140
 66.000000000000
 141
 20.000000000000
 142
0.0
 143
 0.39400000000000E-1
 144
 1.0000000000000
 145
0.0
 146
 0.62500000000000
 147
0.0
  71
0
  72
0
  73
0
  74
0
  75
1
  76
1
  77
0
  78
8
 170
0
 171
2
 172
1
 173
1
 174
0
 175
0
 176
1
 177
1
 178
1
 270
2
 271
1
 272
0
 273
2
 274
2
 340
F
 275
0
 280
0
 281
0
 282
0
 283
1
 284
0
 285
0
 286
0
 287
3
 288
0
   0
DIMSTYLE
 105
45
 100
AcDbSymbolTableRecord
 100
AcDbDimStyleTableRecord
   2
GMM003
  70
0
   3

   4

   5

   6
_OPEN
   7
_OPEN
  40
 1.0000000000000
  41
 30.000000000000
  42
 30.000000000000
  43
 160.00000000000
  44
 30.000000000000
  45
0.0
  46
 37.500000000000
  47
0.0
  48
0.0
 140
 66.000000000000
 141
 20.000000000000
 142
0.0
 143
 0.39400000000000E-1
 144
 1.0000000000000
 145
0.0
 146
 0.62500000000000
 147
 28.285714285714
  71
0
  72
0
  73
0
  74
0
  75
0
  76
1
  77
1
  78
8
 170
0
 171
2
 172
1
 173
1
 174
0
 175
0
 176
6
 177
6
 178
1
 270
2
 271
1
 272
0
 273
2
 274
2
 340
3E
 275
0
 280
0
 281
0
 282
0
 283
1
 284
0
 285
0
 286
0
 287
3
 288
0
   0
DIMSTYLE
 105
46
 100
AcDbSymbolTableRecord
 100
AcDbDimStyleTableRecord
   2
GMM004
  70
0
   3
<>(標準設置高さ
   4

   5

   6
_OPEN
   7
_OPEN
  40
 1.0000000000000
  41
 30.000000000000
  42
 30.000000000000
  43
 160.00000000000
  44
 30.000000000000
  45
0.0
  46
 37.500000000000
  47
0.0
  48
0.0
 140
 66.000000000000
 141
 20.000000000000
 142
0.0
 143
 0.39400000000000E-1
 144
 1.0000000000000
 145
0.0
 146
 0.62500000000000
 147
 28.285714285714
  71
0
  72
0
  73
0
  74
0
  75
0
  76
0
  77
1
  78
8
 170
0
 171
2
 172
1
 173
1
 174
0
 175
0
 176
6
 177
6
 178
1
 270
2
 271
1
 272
0
 273
2
 274
2
 340
3E
 275
0
 280
0
 281
0
 282
0
 283
1
 284
0
 285
0
 286
0
 287
3
 288
0
   0
DIMSTYLE
 105
47
 100
AcDbSymbolTableRecord
 100
AcDbDimStyleTableRecord
   2
GMM005
  70
0
   3

   4

   5

   6
_OPEN
   7
_OPEN
  40
 1.0000000000000
  41
 30.000000000000
  42
 30.000000000000
  43
 160.00000000000
  44
 30.000000000000
  45
0.0
  46
 37.500000000000
  47
0.0
  48
0.0
 140
 66.000000000000
 141
 20.000000000000
 142
0.0
 143
 0.39400000000000E-1
 144
 1.0000000000000
 145
0.0
 146
 0.62500000000000
 147
0.0
  71
0
  72
0
  73
0
  74
0
  75
1
  76
1
  77
0
  78
8
 170
0
 171
2
 172
1
 173
1
 174
0
 175
0
 176
1
 177
1
 178
1
 270
2
 271
1
 272
0
 273
2
 274
2
 340
F
 275
0
 280
0
 281
0
 282
0
 283
1
 284
0
 285
0
 286
0
 287
3
 288
0
   0
DIMSTYLE
 105
48
 100
AcDbSymbolTableRecord
 100
AcDbDimStyleTableRecord
   2
GMM006
  70
0
   3
□<>
   4

   5

   6
_OPEN
   7
_OPEN
  40
 1.0000000000000
  41
 30.000000000000
  42
 30.000000000000
  43
 160.00000000000
  44
 30.000000000000
  45
0.0
  46
 37.500000000000
  47
0.0
  48
0.0
 140
 66.000000000000
 141
 20.000000000000
 142
0.0
 143
 0.39400000000000E-1
 144
 1.0000000000000
 145
0.0
 146
 0.62500000000000
 147
 28.285714285714
  71
0
  72
0
  73
0
  74
0
  75
0
  76
0
  77
1
  78
8
 170
0
 171
2
 172
1
 173
1
 174
0
 175
0
 176
6
 177
6
 178
1
 270
2
 271
1
 272
0
 273
2
 274
2
 340
3E
 275
0
 280
0
 281
0
 282
0
 283
1
 284
0
 285
0
 286
0
 287
3
 288
0
   0
DIMSTYLE
 105
49
 100
AcDbSymbolTableRecord
 100
AcDbDimStyleTableRecord
   2
GMM007
  70
0
   3

   4

   5

   6
_OPEN
   7
_OPEN
  40
 1.0000000000000
  41
 30.000000000000
  42
 30.000000000000
  43
 160.00000000000
  44
 30.000000000000
  45
0.0
  46
 37.500000000000
  47
0.0
  48
0.0
 140
 66.000000000000
 141
 20.000000000000
 142
0.0
 143
 0.39400000000000E-1
 144
 1.0000000000000
 145
0.0
 146
 0.62500000000000
 147
0.0
  71
0
  72
0
  73
0
  74
0
  75
1
  76
1
  77
0
  78
8
 170
0
 171
2
 172
1
 173
1
 174
0
 175
0
 176
1
 177
1
 178
1
 270
2
 271
1
 272
0
 273
2
 274
2
 340
F
 275
0
 280
0
 281
0
 282
0
 283
1
 284
0
 285
0
 286
0
 287
3
 288
0
   0
DIMSTYLE
 105
4A
 100
AcDbSymbolTableRecord
 100
AcDbDimStyleTableRecord
   2
GMM008
  70
0
   3
□<>
   4

   5

   6
_OPEN
   7
_OPEN
  40
 1.0000000000000
  41
 30.000000000000
  42
 30.000000000000
  43
 160.00000000000
  44
 30.000000000000
  45
0.0
  46
 37.500000000000
  47
0.0
  48
0.0
 140
 66.000000000000
 141
 20.000000000000
 142
0.0
 143
 0.39400000000000E-1
 144
 1.0000000000000
 145
0.0
 146
 0.62500000000000
 147
 28.285714285714
  71
0
  72
0
  73
0
  74
0
  75
0
  76
0
  77
1
  78
8
 170
0
 171
2
 172
1
 173
1
 174
0
 175
0
 176
6
 177
6
 178
1
 270
2
 271
1
 272
0
 273
2
 274
2
 340
3E
 275
0
 280
0
 281
0
 282
0
 283
1
 284
0
 285
0
 286
0
 287
3
 288
0
   0
DIMSTYLE
 105
4B
 100
AcDbSymbolTableRecord
 100
AcDbDimStyleTableRecord
   2
GMM009
  70
0
   3

   4

   5

   6
_OPEN
   7
_OPEN
  40
 1.0000000000000
  41
 30.000000000000
  42
 30.000000000000
  43
 160.00000000000
  44
 30.000000000000
  45
0.0
  46
 37.500000000000
  47
0.0
  48
0.0
 140
 66.000000000000
 141
 20.000000000000
 142
0.0
 143
 0.39400000000000E-1
 144
 1.0000000000000
 145
0.0
 146
 0.62500000000000
 147
0.0
  71
0
  72
0
  73
0
  74
0
  75
1
  76
1
  77
0
  78
8
 170
0
 171
2
 172
1
 173
1
 174
0
 175
0
 176
1
 177
1
 178
1
 270
2
 271
1
 272
0
 273
2
 274
2
 340
F
 275
0
 280
0
 281
0
 282
0
 283
1
 284
0
 285
0
 286
0
 287
3
 288
0
   0
ENDTAB
  0
TABLE
  2
BLOCK_RECORD
  5
1
100
AcDbSymbolTable
 70
     0
  0
BLOCK_RECORD
  5
18
100
AcDbSymbolTableRecord
100
AcDbBlockTableRecord
  2
*MODEL_SPACE
  0
BLOCK_RECORD
  5
15
100
AcDbSymbolTableRecord
100
AcDbBlockTableRecord
  2
*PAPER_SPACE
   0
BLOCK_RECORD
   5
4C
 100
AcDbSymbolTableRecord
 100
AcDbBlockTableRecord
   2
*D1
   0
BLOCK_RECORD
   5
4D
 100
AcDbSymbolTableRecord
 100
AcDbBlockTableRecord
   2
*D5
   0
BLOCK_RECORD
   5
4E
 100
AcDbSymbolTableRecord
 100
AcDbBlockTableRecord
   2
*D6
   0
BLOCK_RECORD
   5
4F
 100
AcDbSymbolTableRecord
 100
AcDbBlockTableRecord
   2
*D7
   0
BLOCK_RECORD
   5
50
 100
AcDbSymbolTableRecord
 100
AcDbBlockTableRecord
   2
*D17
   0
BLOCK_RECORD
   5
51
 100
AcDbSymbolTableRecord
 100
AcDbBlockTableRecord
   2
*D19
   0
BLOCK_RECORD
   5
52
 100
AcDbSymbolTableRecord
 100
AcDbBlockTableRecord
   2
_ARCHTICK
   0
BLOCK_RECORD
   5
53
 100
AcDbSymbolTableRecord
 100
AcDbBlockTableRecord
   2
_BOXBLANK
   0
BLOCK_RECORD
   5
54
 100
AcDbSymbolTableRecord
 100
AcDbBlockTableRecord
   2
_BOXFILLED
   0
BLOCK_RECORD
   5
55
 100
AcDbSymbolTableRecord
 100
AcDbBlockTableRecord
   2
_CLOSED
   0
BLOCK_RECORD
   5
56
 100
AcDbSymbolTableRecord
 100
AcDbBlockTableRecord
   2
_CLOSEDBLANK
   0
BLOCK_RECORD
   5
57
 100
AcDbSymbolTableRecord
 100
AcDbBlockTableRecord
   2
_DATUMBLANK
   0
BLOCK_RECORD
   5
58
 100
AcDbSymbolTableRecord
 100
AcDbBlockTableRecord
   2
_DATUMFILLED
   0
BLOCK_RECORD
   5
59
 100
AcDbSymbolTableRecord
 100
AcDbBlockTableRecord
   2
_DOT
   0
BLOCK_RECORD
   5
5A
 100
AcDbSymbolTableRecord
 100
AcDbBlockTableRecord
   2
_DOTBLANK
   0
BLOCK_RECORD
   5
5B
 100
AcDbSymbolTableRecord
 100
AcDbBlockTableRecord
   2
_DOTSMALL
   0
BLOCK_RECORD
   5
5C
 100
AcDbSymbolTableRecord
 100
AcDbBlockTableRecord
   2
_INTEGRAL
   0
BLOCK_RECORD
   5
5D
 100
AcDbSymbolTableRecord
 100
AcDbBlockTableRecord
   2
_NONE
   0
BLOCK_RECORD
   5
5E
 100
AcDbSymbolTableRecord
 100
AcDbBlockTableRecord
   2
_OBLIQUE
   0
BLOCK_RECORD
   5
5F
 100
AcDbSymbolTableRecord
 100
AcDbBlockTableRecord
   2
_OPEN
   0
BLOCK_RECORD
   5
60
 100
AcDbSymbolTableRecord
 100
AcDbBlockTableRecord
   2
_OPEN30
   0
BLOCK_RECORD
   5
61
 100
AcDbSymbolTableRecord
 100
AcDbBlockTableRecord
   2
_OPEN90
   0
BLOCK_RECORD
   5
62
 100
AcDbSymbolTableRecord
 100
AcDbBlockTableRecord
   2
_ORIGIN
   0
ENDTAB
   0
ENDSEC
  0
SECTION
  2
BLOCKS
  0
BLOCK
  5
19
100
AcDbEntity
  8
0
100
AcDbBlockBegin
  2
*MODEL_SPACE
 70
     0
 10
0.0
 20
0.0
 30
0.0
  3
*MODEL_SPACE
  1

  0
ENDBLK
  5
1A
100
AcDbEntity
  8
0
100
AcDbBlockEnd
  0
BLOCK
  5
16
100
AcDbEntity
 67
     1
  8
0
100
AcDbBlockBegin
  2
*PAPER_SPACE
 70
     0
 10
0.0
 20
0.0
 30
0.0
  3
*PAPER_SPACE
  1

  0
ENDBLK
  5
17
100
AcDbEntity
 67
     1
  8
0
100
AcDbBlockEnd
   0
BLOCK
   5
63
 100
AcDbEntity
   8
0
 100
AcDbBlockBegin
   2
_ARCHTICK
  70
0
  10
0.0
  20
0.0
  30
0.0
   3
_ARCHTICK
   0
POLYLINE
   5
64
 100
AcDbEntity
   8
0
 370
-2
   6
BYBLOCK
  62
0
 100
AcDb2dPolyline
  66
1
  10
0.0
  20
0.0
  30
0.0
  70
1
  40
 0.15000000000000
  41
 0.15000000000000
   0
VERTEX
   5
65
 100
AcDbEntity
   8
0
   6
BYBLOCK
  62
0
 100
AcDbVertex
 100
AcDb2dVertex
  10
-0.50000000000000
  20
-0.50000000000000
  30
0.0
  40
 0.15000000000000
  41
 0.15000000000000
   0
VERTEX
   5
66
 100
AcDbEntity
   8
0
   6
BYBLOCK
  62
0
 100
AcDbVertex
 100
AcDb2dVertex
  10
 0.50000000000000
  20
 0.50000000000000
  30
0.0
  40
 0.15000000000000
  41
 0.15000000000000
   0
SEQEND
   5
67
 100
AcDbEntity
   8
0
   6
BYBLOCK
  62
0
   0
ENDBLK
   5
68
 100
AcDbEntity
   8
0
 100
AcDbBlockEnd
   0
BLOCK
   5
69
 100
AcDbEntity
   8
0
 100
AcDbBlockBegin
   2
_OBLIQUE
  70
0
  10
0.0
  20
0.0
  30
0.0
   3
_OBLIQUE
   0
LINE
   5
6A
 100
AcDbEntity
   8
0
 370
-2
 100
AcDbLine
   6
BYBLOCK
  62
0
  10
-0.50000000000000
  20
-0.50000000000000
  30
0.0
  11
 0.50000000000000
  21
 0.50000000000000
  31
0.0
   0
ENDBLK
   5
6B
 100
AcDbEntity
   8
0
 100
AcDbBlockEnd
   0
BLOCK
   5
6C
 100
AcDbEntity
   8
0
 100
AcDbBlockBegin
   2
_BOXBLANK
  70
0
  10
0.0
  20
0.0
  30
0.0
   3
_BOXBLANK
   0
LINE
   5
6D
 100
AcDbEntity
   8
0
 370
-2
 100
AcDbLine
   6
BYBLOCK
  62
0
  10
-0.50000000000000
  20
-0.50000000000000
  30
0.0
  11
 0.50000000000000
  21
-0.50000000000000
  31
0.0
   0
LINE
   5
6E
 100
AcDbEntity
   8
0
 370
-2
 100
AcDbLine
   6
BYBLOCK
  62
0
  10
 0.50000000000000
  20
-0.50000000000000
  30
0.0
  11
 0.50000000000000
  21
 0.50000000000000
  31
0.0
   0
LINE
   5
6F
 100
AcDbEntity
   8
0
 370
-2
 100
AcDbLine
   6
BYBLOCK
  62
0
  10
 0.50000000000000
  20
 0.50000000000000
  30
0.0
  11
-0.50000000000000
  21
 0.50000000000000
  31
0.0
   0
LINE
   5
70
 100
AcDbEntity
   8
0
 370
-2
 100
AcDbLine
   6
BYBLOCK
  62
0
  10
-0.50000000000000
  20
 0.50000000000000
  30
0.0
  11
-0.50000000000000
  21
-0.50000000000000
  31
0.0
   0
LINE
   5
71
 100
AcDbEntity
   8
0
 370
-2
 100
AcDbLine
   6
BYBLOCK
  62
0
  10
-0.50000000000000
  20
0.0
  30
0.0
  11
-1.0000000000000
  21
0.0
  31
0.0
   0
ENDBLK
   5
72
 100
AcDbEntity
   8
0
 100
AcDbBlockEnd
   0
BLOCK
   5
73
 100
AcDbEntity
   8
0
 100
AcDbBlockBegin
   2
_BOXFILLED
  70
0
  10
0.0
  20
0.0
  30
0.0
   3
_BOXFILLED
   0
SOLID
   5
74
 100
AcDbEntity
   8
0
 100
AcDbTrace
   6
BYBLOCK
  62
0
  10
-0.50000000000000
  20
 0.50000000000000
  30
0.0
  11
 0.50000000000000
  21
 0.50000000000000
  31
0.0
  12
-0.50000000000000
  22
-0.50000000000000
  32
0.0
  13
 0.50000000000000
  23
-0.50000000000000
  33
0.0
   0
LINE
   5
75
 100
AcDbEntity
   8
0
 370
-2
 100
AcDbLine
   6
BYBLOCK
  62
0
  10
-0.50000000000000
  20
0.0
  30
0.0
  11
-1.0000000000000
  21
0.0
  31
0.0
   0
ENDBLK
   5
76
 100
AcDbEntity
   8
0
 100
AcDbBlockEnd
   0
BLOCK
   5
77
 100
AcDbEntity
   8
0
 100
AcDbBlockBegin
   2
_CLOSED
  70
0
  10
0.0
  20
0.0
  30
0.0
   3
_CLOSED
   0
LINE
   5
78
 100
AcDbEntity
   8
0
 370
-2
 100
AcDbLine
   6
BYBLOCK
  62
0
  10
-1.0000000000000
  20
 0.16666666666667
  30
0.0
  11
0.0
  21
0.0
  31
0.0
   0
LINE
   5
79
 100
AcDbEntity
   8
0
 370
-2
 100
AcDbLine
   6
BYBLOCK
  62
0
  10
0.0
  20
0.0
  30
0.0
  11
-1.0000000000000
  21
-0.16666666666667
  31
0.0
   0
LINE
   5
7A
 100
AcDbEntity
   8
0
 370
-2
 100
AcDbLine
   6
BYBLOCK
  62
0
  10
-1.0000000000000
  20
 0.16666666666667
  30
0.0
  11
-1.0000000000000
  21
-0.16666666666667
  31
0.0
   0
LINE
   5
7B
 100
AcDbEntity
   8
0
 370
-2
 100
AcDbLine
   6
BYBLOCK
  62
0
  10
0.0
  20
0.0
  30
0.0
  11
-1.0000000000000
  21
0.0
  31
0.0
   0
ENDBLK
   5
7C
 100
AcDbEntity
   8
0
 100
AcDbBlockEnd
   0
BLOCK
   5
7D
 100
AcDbEntity
   8
0
 100
AcDbBlockBegin
   2
_OPEN
  70
0
  10
0.0
  20
0.0
  30
0.0
   3
_OPEN
   0
LINE
   5
7E
 100
AcDbEntity
   8
0
 370
-2
 100
AcDbLine
   6
BYBLOCK
  62
0
  10
-1.0000000000000
  20
 0.16666666666667
  30
0.0
  11
0.0
  21
0.0
  31
0.0
   0
LINE
   5
7F
 100
AcDbEntity
   8
0
 370
-2
 100
AcDbLine
   6
BYBLOCK
  62
0
  10
0.0
  20
0.0
  30
0.0
  11
-1.0000000000000
  21
-0.16666666666667
  31
0.0
   0
LINE
   5
80
 100
AcDbEntity
   8
0
 370
-2
 100
AcDbLine
   6
BYBLOCK
  62
0
  10
0.0
  20
0.0
  30
0.0
  11
-1.0000000000000
  21
0.0
  31
0.0
   0
ENDBLK
   5
81
 100
AcDbEntity
   8
0
 100
AcDbBlockEnd
   0
BLOCK
   5
82
 100
AcDbEntity
   8
0
 100
AcDbBlockBegin
   2
_OPEN30
  70
0
  10
0.0
  20
0.0
  30
0.0
   3
_OPEN30
   0
LINE
   5
83
 100
AcDbEntity
   8
0
 370
-2
 100
AcDbLine
   6
BYBLOCK
  62
0
  10
-1.0000000000000
  20
 0.26794919243110
  30
0.0
  11
0.0
  21
0.0
  31
0.0
   0
LINE
   5
84
 100
AcDbEntity
   8
0
 370
-2
 100
AcDbLine
   6
BYBLOCK
  62
0
  10
0.0
  20
0.0
  30
0.0
  11
-1.0000000000000
  21
-0.26794919243110
  31
0.0
   0
LINE
   5
85
 100
AcDbEntity
   8
0
 370
-2
 100
AcDbLine
   6
BYBLOCK
  62
0
  10
0.0
  20
0.0
  30
0.0
  11
-1.0000000000000
  21
0.0
  31
0.0
   0
ENDBLK
   5
86
 100
AcDbEntity
   8
0
 100
AcDbBlockEnd
   0
BLOCK
   5
87
 100
AcDbEntity
   8
0
 100
AcDbBlockBegin
   2
_OPEN90
  70
0
  10
0.0
  20
0.0
  30
0.0
   3
_OPEN90
   0
LINE
   5
88
 100
AcDbEntity
   8
0
 370
-2
 100
AcDbLine
   6
BYBLOCK
  62
0
  10
-0.50000000000000
  20
 0.50000000000000
  30
0.0
  11
0.0
  21
0.0
  31
0.0
   0
LINE
   5
89
 100
AcDbEntity
   8
0
 370
-2
 100
AcDbLine
   6
BYBLOCK
  62
0
  10
0.0
  20
0.0
  30
0.0
  11
-0.50000000000000
  21
-0.50000000000000
  31
0.0
   0
LINE
   5
8A
 100
AcDbEntity
   8
0
 370
-2
 100
AcDbLine
   6
BYBLOCK
  62
0
  10
0.0
  20
0.0
  30
0.0
  11
-1.0000000000000
  21
0.0
  31
0.0
   0
ENDBLK
   5
8B
 100
AcDbEntity
   8
0
 100
AcDbBlockEnd
   0
BLOCK
   5
8C
 100
AcDbEntity
   8
0
 100
AcDbBlockBegin
   2
_CLOSEDBLANK
  70
0
  10
0.0
  20
0.0
  30
0.0
   3
_CLOSEDBLANK
   0
LINE
   5
8D
 100
AcDbEntity
   8
0
 370
-2
 100
AcDbLine
   6
BYBLOCK
  62
0
  10
-1.0000000000000
  20
 0.16666666666667
  30
0.0
  11
0.0
  21
0.0
  31
0.0
   0
LINE
   5
8E
 100
AcDbEntity
   8
0
 370
-2
 100
AcDbLine
   6
BYBLOCK
  62
0
  10
0.0
  20
0.0
  30
0.0
  11
-1.0000000000000
  21
-0.16666666666667
  31
0.0
   0
LINE
   5
8F
 100
AcDbEntity
   8
0
 370
-2
 100
AcDbLine
   6
BYBLOCK
  62
0
  10
-1.0000000000000
  20
 0.16666666666667
  30
0.0
  11
-1.0000000000000
  21
-0.16666666666667
  31
0.0
   0
ENDBLK
   5
90
 100
AcDbEntity
   8
0
 100
AcDbBlockEnd
   0
BLOCK
   5
91
 100
AcDbEntity
   8
0
 100
AcDbBlockBegin
   2
_DOT
  70
0
  10
0.0
  20
0.0
  30
0.0
   3
_DOT
   0
POLYLINE
   5
92
 100
AcDbEntity
   8
0
 370
-2
   6
BYBLOCK
  62
0
 100
AcDb2dPolyline
  66
1
  10
0.0
  20
0.0
  30
0.0
  70
1
  40
 0.50000000000000
  41
 0.50000000000000
   0
VERTEX
   5
93
 100
AcDbEntity
   8
0
   6
BYBLOCK
  62
0
 100
AcDbVertex
 100
AcDb2dVertex
  10
-0.25000000000000
  20
0.0
  30
0.0
  42
 1.0000000000000
  40
 0.50000000000000
  41
 0.50000000000000
   0
VERTEX
   5
94
 100
AcDbEntity
   8
0
   6
BYBLOCK
  62
0
 100
AcDbVertex
 100
AcDb2dVertex
  10
 0.25000000000000
  20
0.0
  30
0.0
  42
 1.0000000000000
  40
 0.50000000000000
  41
 0.50000000000000
   0
SEQEND
   5
95
 100
AcDbEntity
   8
0
   6
BYBLOCK
  62
0
   0
LINE
   5
96
 100
AcDbEntity
   8
0
 370
-2
 100
AcDbLine
   6
BYBLOCK
  62
0
  10
-0.50000000000000
  20
0.0
  30
0.0
  11
-1.0000000000000
  21
0.0
  31
0.0
   0
ENDBLK
   5
97
 100
AcDbEntity
   8
0
 100
AcDbBlockEnd
   0
BLOCK
   5
98
 100
AcDbEntity
   8
0
 100
AcDbBlockBegin
   2
_DOTSMALL
  70
0
  10
0.0
  20
0.0
  30
0.0
   3
_DOTSMALL
   0
POLYLINE
   5
99
 100
AcDbEntity
   8
0
 370
-2
   6
BYBLOCK
  62
0
 100
AcDb2dPolyline
  66
1
  10
0.0
  20
0.0
  30
0.0
  70
1
  40
 0.50000000000000
  41
 0.50000000000000
   0
VERTEX
   5
9A
 100
AcDbEntity
   8
0
   6
BYBLOCK
  62
0
 100
AcDbVertex
 100
AcDb2dVertex
  10
-0.62500000000000E-1
  20
0.0
  30
0.0
  42
 1.0000000000000
  40
 0.50000000000000
  41
 0.50000000000000
   0
VERTEX
   5
9B
 100
AcDbEntity
   8
0
   6
BYBLOCK
  62
0
 100
AcDbVertex
 100
AcDb2dVertex
  10
 0.62500000000000E-1
  20
0.0
  30
0.0
  42
 1.0000000000000
  40
 0.50000000000000
  41
 0.50000000000000
   0
SEQEND
   5
9C
 100
AcDbEntity
   8
0
   6
BYBLOCK
  62
0
   0
ENDBLK
   5
9D
 100
AcDbEntity
   8
0
 100
AcDbBlockEnd
   0
BLOCK
   5
9E
 100
AcDbEntity
   8
0
 100
AcDbBlockBegin
   2
_DATUMBLANK
  70
0
  10
0.0
  20
0.0
  30
0.0
   3
_DATUMBLANK
   0
LINE
   5
9F
 100
AcDbEntity
   8
0
 370
-2
 100
AcDbLine
   6
BYBLOCK
  62
0
  10
0.0
  20
 0.57735027000000
  30
0.0
  11
-1.0000000000000
  21
0.0
  31
0.0
   0
LINE
   5
A0
 100
AcDbEntity
   8
0
 370
-2
 100
AcDbLine
   6
BYBLOCK
  62
0
  10
-1.0000000000000
  20
0.0
  30
0.0
  11
0.0
  21
-0.57735027000000
  31
0.0
   0
LINE
   5
A1
 100
AcDbEntity
   8
0
 370
-2
 100
AcDbLine
   6
BYBLOCK
  62
0
  10
0.0
  20
-0.57735027000000
  30
0.0
  11
0.0
  21
 0.57735027000000
  31
0.0
   0
ENDBLK
   5
A2
 100
AcDbEntity
   8
0
 100
AcDbBlockEnd
   0
BLOCK
   5
A3
 100
AcDbEntity
   8
0
 100
AcDbBlockBegin
   2
_DATUMFILLED
  70
0
  10
0.0
  20
0.0
  30
0.0
   3
_DATUMFILLED
   0
SOLID
   5
A4
 100
AcDbEntity
   8
0
 100
AcDbTrace
   6
BYBLOCK
  62
0
  10
0.0
  20
 0.57735027000000
  30
0.0
  11
-1.0000000000000
  21
0.0
  31
0.0
  12
0.0
  22
-0.57735027000000
  32
0.0
  13
0.0
  23
-0.57735027000000
  33
0.0
   0
ENDBLK
   5
A5
 100
AcDbEntity
   8
0
 100
AcDbBlockEnd
   0
BLOCK
   5
A6
 100
AcDbEntity
   8
0
 100
AcDbBlockBegin
   2
_ORIGIN
  70
0
  10
0.0
  20
0.0
  30
0.0
   3
_ORIGIN
   0
CIRCLE
   5
A7
 100
AcDbEntity
   8
0
 370
-2
 100
AcDbCircle
   6
BYBLOCK
  62
0
  10
0.0
  20
0.0
  30
0.0
  40
 0.50000000000000
   0
LINE
   5
A8
 100
AcDbEntity
   8
0
 370
-2
 100
AcDbLine
   6
BYBLOCK
  62
0
  10
0.0
  20
0.0
  30
0.0
  11
-1.0000000000000
  21
0.0
  31
0.0
   0
ENDBLK
   5
A9
 100
AcDbEntity
   8
0
 100
AcDbBlockEnd
   0
BLOCK
   5
AA
 100
AcDbEntity
   8
0
 100
AcDbBlockBegin
   2
_NONE
  70
0
  10
0.0
  20
0.0
  30
0.0
   3
_NONE
   0
CIRCLE
   5
AB
 100
AcDbEntity
   8
0
 370
-2
 100
AcDbCircle
   6
BYBLOCK
  62
0
  10
0.0
  20
0.0
  30
0.0
  40
 0.25000000000000
   0
ENDBLK
   5
AC
 100
AcDbEntity
   8
0
 100
AcDbBlockEnd
   0
BLOCK
   5
AD
 100
AcDbEntity
   8
0
 100
AcDbBlockBegin
   2
_DOTBLANK
  70
0
  10
0.0
  20
0.0
  30
0.0
   3
_DOTBLANK
   0
CIRCLE
   5
AE
 100
AcDbEntity
   8
0
 370
-2
 100
AcDbCircle
   6
BYBLOCK
  62
0
  10
0.0
  20
0.0
  30
0.0
  40
 0.50000000000000
   0
LINE
   5
AF
 100
AcDbEntity
   8
0
 370
-2
 100
AcDbLine
   6
BYBLOCK
  62
0
  10
-0.50000000000000
  20
0.0
  30
0.0
  11
-1.0000000000000
  21
0.0
  31
0.0
   0
ENDBLK
   5
B0
 100
AcDbEntity
   8
0
 100
AcDbBlockEnd
   0
BLOCK
   5
B1
 100
AcDbEntity
   8
0
 100
AcDbBlockBegin
   2
_INTEGRAL
  70
0
  10
0.0
  20
0.0
  30
0.0
   3
_INTEGRAL
   0
ARC
   5
B2
 100
AcDbEntity
   8
0
 370
-2
   6
BYBLOCK
  62
0
 100
AcDbCircle
  10
 0.44488800000000
  20
-0.91335000000000E-1
  30
0.0
  40
 0.45416700000000
 100
AcDbArc
  50
 102.00000000000
  51
 168.00000000000
   0
ARC
   5
B3
 100
AcDbEntity
   8
0
 370
-2
   6
BYBLOCK
  62
0
 100
AcDbCircle
  10
-0.44488800000000
  20
 0.91335000000000E-1
  30
0.0
  40
 0.45416700000000
 100
AcDbArc
  50
 282.00000000000
  51
 348.00000000000
   0
ENDBLK
   5
B4
 100
AcDbEntity
   8
0
 100
AcDbBlockEnd
   0
BLOCK
   5
B5
 100
AcDbEntity
   8
0
 100
AcDbBlockBegin
   2
*D1
  70
65
  10
0.0
  20
0.0
  30
0.0
   3
*D1
   0
LINE
   5
B6
 100
AcDbEntity
   8
LEVEL001
 370
13
 100
AcDbLine
   6
CONTINUOUS
  62
6
  10
 1933.0126955700
  20
 5120.0000109503
  30
0.0
  11
 1066.9873044300
  21
 4619.9999890497
  31
0.0
   0
INSERT
   5
B7
 100
AcDbEntity
   8
LEVEL001
   6
CONTINUOUS
  62
6
 100
AcDbBlockReference
   2
_OPEN
  10
 1933.0126955700
  20
 5120.0000109503
  30
0.0
  41
 30.000000000000
  42
 30.000000000000
  43
 30.000000000000
  50
 30.000001448936
   0
INSERT
   5
B8
 100
AcDbEntity
   8
LEVEL001
   6
CONTINUOUS
  62
6
 100
AcDbBlockReference
   2
_OPEN
  10
 1066.9873044300
  20
 4619.9999890497
  30
0.0
  41
 30.000000000000
  42
 30.000000000000
  43
 30.000000000000
  50
 210.00000144894
   0
MTEXT
   5
B9
 100
AcDbEntity
   8
LEVEL001
 370
13
  62
1
 100
AcDbMText
  10
 1485.8571422377
  20
 4894.4961467780
  30
0.0
  40
 66.000000000000
  41
0.0
  71
8
  72
1
   1
\A1;%%c1000
   7
GMM004
  11
 0.86602539114009
  21
 0.50000002190065
  31
0.0
   0
ENDBLK
   5
BA
 100
AcDbEntity
   8
0
 100
AcDbBlockEnd
   0
BLOCK
   5
BB
 100
AcDbEntity
   8
0
 100
AcDbBlockBegin
   2
*D5
  70
65
  10
0.0
  20
0.0
  30
0.0
   3
*D5
   0
LINE
   5
BC
 100
AcDbEntity
   8
LEVEL001
 370
13
 100
AcDbLine
   6
CONTINUOUS
  62
6
  10
 1219.9999747112
  20
 669.99999999960
  30
0.0
  11
 720.00000000000
  21
 669.99999999960
  31
0.0
   0
LINE
   5
BD
 100
AcDbEntity
   8
LEVEL001
 370
13
 100
AcDbLine
   6
CONTINUOUS
  62
6
  10
 1219.9999747112
  20
 769.99999999960
  30
0.0
  11
 720.00000000000
  21
 769.99999999960
  31
0.0
   0
LINE
   5
BE
 100
AcDbEntity
   8
LEVEL001
 370
13
 100
AcDbLine
   6
CONTINUOUS
  62
6
  10
 750.00000000000
  20
 669.99999999960
  30
0.0
  11
 750.00000000000
  21
 769.99999999960
  31
0.0
   0
INSERT
   5
BF
 100
AcDbEntity
   8
LEVEL001
   6
CONTINUOUS
  62
6
 100
AcDbBlockReference
   2
_OPEN
  10
 750.00000000000
  20
 669.99999999960
  30
0.0
  41
 30.000000000000
  42
 30.000000000000
  43
 30.000000000000
  50
 270.00000000000
   0
INSERT
   5
C0
 100
AcDbEntity
   8
LEVEL001
   6
CONTINUOUS
  62
6
 100
AcDbBlockReference
   2
_OPEN
  10
 750.00000000000
  20
 769.99999999960
  30
0.0
  41
 30.000000000000
  42
 30.000000000000
  43
 30.000000000000
  50
 90.000000000000
   0
MTEXT
   5
C1
 100
AcDbEntity
   8
LEVEL001
 370
13
  62
1
 100
AcDbMText
  10
 721.71428571429
  20
 719.99999999960
  30
0.0
  40
 66.000000000000
  41
0.0
  71
8
  72
1
   1
\A1;100
   7
GMM004
  11
0.0
  21
 1.0000000000000
  31
0.0
   0
ENDBLK
   5
C2
 100
AcDbEntity
   8
0
 100
AcDbBlockEnd
   0
BLOCK
   5
C3
 100
AcDbEntity
   8
0
 100
AcDbBlockBegin
   2
*D6
  70
65
  10
0.0
  20
0.0
  30
0.0
   3
*D6
   0
LINE
   5
C4
 100
AcDbEntity
   8
LEVEL001
 370
13
 100
AcDbLine
   6
CONTINUOUS
  62
6
  10
 1219.9999747112
  20
 769.99999999960
  30
0.0
  11
 720.00000000000
  21
 769.99999999960
  31
0.0
   0
LINE
   5
C5
 100
AcDbEntity
   8
LEVEL001
 370
13
 100
AcDbLine
   6
CONTINUOUS
  62
6
  10
 920.00003994615
  20
 1869.9999999996
  30
0.0
  11
 720.00000000000
  21
 1869.9999999996
  31
0.0
   0
LINE
   5
C6
 100
AcDbEntity
   8
LEVEL001
 370
13
 100
AcDbLine
   6
CONTINUOUS
  62
6
  10
 750.00000000000
  20
 769.99999999960
  30
0.0
  11
 750.00000000000
  21
 1869.9999999996
  31
0.0
   0
INSERT
   5
C7
 100
AcDbEntity
   8
LEVEL001
   6
CONTINUOUS
  62
6
 100
AcDbBlockReference
   2
_OPEN
  10
 750.00000000000
  20
 769.99999999960
  30
0.0
  41
 30.000000000000
  42
 30.000000000000
  43
 30.000000000000
  50
 270.00000000000
   0
INSERT
   5
C8
 100
AcDbEntity
   8
LEVEL001
   6
CONTINUOUS
  62
6
 100
AcDbBlockReference
   2
_OPEN
  10
 750.00000000000
  20
 1869.9999999996
  30
0.0
  41
 30.000000000000
  42
 30.000000000000
  43
 30.000000000000
  50
 90.000000000000
   0
MTEXT
   5
C9
 100
AcDbEntity
   8
LEVEL001
 370
13
  62
1
 100
AcDbMText
  10
 721.71428571429
  20
 1319.9999999996
  30
0.0
  40
 66.000000000000
  41
0.0
  71
8
  72
1
   1
\A1;1100
   7
GMM004
  11
0.0
  21
 1.0000000000000
  31
0.0
   0
ENDBLK
   5
CA
 100
AcDbEntity
   8
0
 100
AcDbBlockEnd
   0
BLOCK
   5
CB
 100
AcDbEntity
   8
0
 100
AcDbBlockBegin
   2
*D7
  70
65
  10
0.0
  20
0.0
  30
0.0
   3
*D7
   0
LINE
   5
CC
 100
AcDbEntity
   8
LEVEL001
 370
13
 100
AcDbLine
   6
CONTINUOUS
  62
6
  10
 920.00003994615
  20
 1869.9999999996
  30
0.0
  11
 720.00000000000
  21
 1869.9999999996
  31
0.0
   0
LINE
   5
CD
 100
AcDbEntity
   8
LEVEL001
 370
13
 100
AcDbLine
   6
CONTINUOUS
  62
6
  10
 1470.0000718874
  20
 4370.0000000074
  30
0.0
  11
 720.00000000000
  21
 4370.0000000074
  31
0.0
   0
LINE
   5
CE
 100
AcDbEntity
   8
LEVEL001
 370
13
 100
AcDbLine
   6
CONTINUOUS
  62
6
  10
 750.00000000000
  20
 1869.9999999996
  30
0.0
  11
 750.00000000000
  21
 4370.0000000074
  31
0.0
   0
INSERT
   5
CF
 100
AcDbEntity
   8
LEVEL001
   6
CONTINUOUS
  62
6
 100
AcDbBlockReference
   2
_OPEN
  10
 750.00000000000
  20
 1869.9999999996
  30
0.0
  41
 30.000000000000
  42
 30.000000000000
  43
 30.000000000000
  50
 270.00000000000
   0
INSERT
   5
D0
 100
AcDbEntity
   8
LEVEL001
   6
CONTINUOUS
  62
6
 100
AcDbBlockReference
   2
_OPEN
  10
 750.00000000000
  20
 4370.0000000074
  30
0.0
  41
 30.000000000000
  42
 30.000000000000
  43
 30.000000000000
  50
 90.000000000000
   0
MTEXT
   5
D1
 100
AcDbEntity
   8
LEVEL001
 370
13
  62
1
 100
AcDbMText
  10
 721.71428571429
  20
 3120.0000000035
  30
0.0
  40
 66.000000000000
  41
0.0
  71
8
  72
1
   1
\A1;2500(標準設置高さ)
   7
GMM004
  11
0.0
  21
 1.0000000000000
  31
0.0
   0
ENDBLK
   5
D2
 100
AcDbEntity
   8
0
 100
AcDbBlockEnd
   0
BLOCK
   5
D3
 100
AcDbEntity
   8
0
 100
AcDbBlockBegin
   2
*D17
  70
65
  10
0.0
  20
0.0
  30
0.0
   3
*D17
   0
LINE
   5
D4
 100
AcDbEntity
   8
LEVEL001
 370
13
 100
AcDbLine
   6
CONTINUOUS
  62
6
  10
 1249.9999747112
  20
 639.99999999960
  30
0.0
  11
 1249.9999747112
  21
 439.99999999960
  31
0.0
   0
LINE
   5
D5
 100
AcDbEntity
   8
LEVEL001
 370
13
 100
AcDbLine
   6
CONTINUOUS
  62
6
  10
 1749.9999747112
  20
 639.99999999960
  30
0.0
  11
 1749.9999747112
  21
 439.99999999960
  31
0.0
   0
LINE
   5
D6
 100
AcDbEntity
   8
LEVEL001
 370
13
 100
AcDbLine
   6
CONTINUOUS
  62
6
  10
 1249.9999747112
  20
 469.99999999960
  30
0.0
  11
 1749.9999747112
  21
 469.99999999960
  31
0.0
   0
INSERT
   5
D7
 100
AcDbEntity
   8
LEVEL001
   6
CONTINUOUS
  62
6
 100
AcDbBlockReference
   2
_OPEN
  10
 1249.9999747112
  20
 469.99999999960
  30
0.0
  41
 30.000000000000
  42
 30.000000000000
  43
 30.000000000000
  50
 180.00000000000
   0
INSERT
   5
D8
 100
AcDbEntity
   8
LEVEL001
   6
CONTINUOUS
  62
6
 100
AcDbBlockReference
   2
_OPEN
  10
 1749.9999747112
  20
 469.99999999960
  30
0.0
  41
 30.000000000000
  42
 30.000000000000
  43
 30.000000000000
  50
0.0
   0
MTEXT
   5
D9
 100
AcDbEntity
   8
LEVEL001
 370
13
  62
1
 100
AcDbMText
  10
 1499.9999747112
  20
 498.28571428531
  30
0.0
  40
 66.000000000000
  41
0.0
  71
8
  72
1
   1
\A1;□500
   7
GMM004
   0
ENDBLK
   5
DA
 100
AcDbEntity
   8
0
 100
AcDbBlockEnd
   0
BLOCK
   5
DB
 100
AcDbEntity
   8
0
 100
AcDbBlockBegin
   2
*D19
  70
65
  10
0.0
  20
0.0
  30
0.0
   3
*D19
   0
LINE
   5
DC
 100
AcDbEntity
   8
LEVEL001
 370
13
 100
AcDbLine
   6
CONTINUOUS
  62
6
  10
 2875.0000000000
  20
 639.99999999960
  30
0.0
  11
 2875.0000000000
  21
 439.99999999960
  31
0.0
   0
LINE
   5
DD
 100
AcDbEntity
   8
LEVEL001
 370
13
 100
AcDbLine
   6
CONTINUOUS
  62
6
  10
 3375.0000000000
  20
 639.99999999960
  30
0.0
  11
 3375.0000000000
  21
 439.99999999960
  31
0.0
   0
LINE
   5
DE
 100
AcDbEntity
   8
LEVEL001
 370
13
 100
AcDbLine
   6
CONTINUOUS
  62
6
  10
 2875.0000000000
  20
 469.99999999960
  30
0.0
  11
 3375.0000000000
  21
 469.99999999960
  31
0.0
   0
INSERT
   5
DF
 100
AcDbEntity
   8
LEVEL001
   6
CONTINUOUS
  62
6
 100
AcDbBlockReference
   2
_OPEN
  10
 2875.0000000000
  20
 469.99999999960
  30
0.0
  41
 30.000000000000
  42
 30.000000000000
  43
 30.000000000000
  50
 180.00000000000
   0
INSERT
   5
E0
 100
AcDbEntity
   8
LEVEL001
   6
CONTINUOUS
  62
6
 100
AcDbBlockReference
   2
_OPEN
  10
 3375.0000000000
  20
 469.99999999960
  30
0.0
  41
 30.000000000000
  42
 30.000000000000
  43
 30.000000000000
  50
0.0
   0
MTEXT
   5
E1
 100
AcDbEntity
   8
LEVEL001
 370
13
  62
1
 100
AcDbMText
  10
 3125.0000000000
  20
 498.28571428531
  30
0.0
  40
 66.000000000000
  41
0.0
  71
8
  72
1
   1
\A1;□500
   7
GMM004
   0
ENDBLK
   5
E2
 100
AcDbEntity
   8
0
 100
AcDbBlockEnd
   0
ENDSEC
   0
SECTION
   2
ENTITIES
   0
LINE
   5
E3
 100
AcDbEntity
   8
LEVEL001
 370
13
 100
AcDbLine
   6
CONTINUOUS
  62
6
  10
 8226.6668701172
  20
 3260.0000000000
  30
0.0
  11
 8226.6668701172
  21
 870.00000000000
  31
0.0
   0
LINE
   5
E4
 100
AcDbEntity
   8
LEVEL001
 370
13
 100
AcDbLine
   6
CONTINUOUS
  62
6
  10
 5710.9090909091
  20
 870.00000000000
  30
0.0
  11
 8226.6668701172
  21
 870.00000000000
  31
0.0
   0
LINE
   5
E5
 100
AcDbEntity
   8
LEVEL001
 370
13
 100
AcDbLine
   6
CONTINUOUS
  62
6
  10
 5710.9090909091
  20
 1520.0000000000
  30
0.0
  11
 8226.6668701172
  21
 1520.0000000000
  31
0.0
   0
LINE
   5
E6
 100
AcDbEntity
   8
LEVEL001
 370
13
 100
AcDbLine
   6
CONTINUOUS
  62
6
  10
 5710.9090909091
  20
 1390.0000000000
  30
0.0
  11
 8226.6668701172
  21
 1390.0000000000
  31
0.0
   0
LINE
   5
E7
 100
AcDbEntity
   8
LEVEL001
 370
13
 100
AcDbLine
   6
CONTINUOUS
  62
6
  10
 5710.9090909091
  20
 1260.0000000000
  30
0.0
  11
 8226.6668701172
  21
 1260.0000000000
  31
0.0
   0
LINE
   5
E8
 100
AcDbEntity
   8
LEVEL001
 370
13
 100
AcDbLine
   6
CONTINUOUS
  62
6
  10
 5710.9090909091
  20
 1130.0000000000
  30
0.0
  11
 8226.6668701172
  21
 1130.0000000000
  31
0.0
   0
MTEXT
   5
EA
 100
AcDbEntity
   8
LEVEL001
 370
13
  62
1
 100
AcDbMText
  10
 5881.8880646631
  20
 1153.5736076959
  30
0.0
  40
 80.000000000000
  41
0.0
  71
9
  72
1
   1
\T1.000000;１３
   7
GMM001
  44
 0.79999984000003
   0
MTEXT
   5
EC
 100
AcDbEntity
   8
LEVEL001
 370
13
  62
1
 100
AcDbMText
  10
 5881.8880646631
  20
 1283.5736076959
  30
0.0
  40
 80.000000000000
  41
0.0
  71
9
  72
1
   1
\T1.000000;１２
   7
GMM001
  44
 0.79999984000003
   0
MTEXT
   5
EE
 100
AcDbEntity
   8
LEVEL001
 370
13
  62
1
 100
AcDbMText
  10
 5881.8880646631
  20
 1413.5736076959
  30
0.0
  40
 80.000000000000
  41
0.0
  71
9
  72
1
   1
\T1.000000;１１
   7
GMM001
  44
 0.79999984000003
   0
LINE
   5
EF
 100
AcDbEntity
   8
LEVEL001
 370
13
 100
AcDbLine
   6
CONTINUOUS
  62
6
  10
 5710.9090909091
  20
 1000.0000000000
  30
0.0
  11
 8226.6668701172
  21
 1000.0000000000
  31
0.0
   0
MTEXT
   5
F1
 100
AcDbEntity
   8
LEVEL001
 370
13
  62
1
 100
AcDbMText
  10
 5960.9090909091
  20
 893.57360769589
  30
0.0
  40
 80.000000000000
  41
0.0
  71
7
  72
1
   1
\T1.000000;同上ボルトナット
   7
GMM002
  44
 0.79999984000003
   0
MTEXT
   5
F3
 100
AcDbEntity
   8
LEVEL001
 370
13
  62
1
 100
AcDbMText
  10
 5960.9090909091
  20
 1023.5736076959
  30
0.0
  40
 80.000000000000
  41
0.0
  71
7
  72
1
   1
\T1.000000;注意板取付バンド
   7
GMM002
  44
 0.79999984000003
   0
MTEXT
   5
F5
 100
AcDbEntity
   8
LEVEL001
 370
13
  62
1
 100
AcDbMText
  10
 6931.8880646631
  20
 1153.5736076959
  30
0.0
  40
 80.000000000000
  41
0.0
  71
9
  72
1
   1
\T1.000000;１
   7
GMM002
  44
 0.79999984000003
   0
MTEXT
   5
F7
 100
AcDbEntity
   8
LEVEL001
 370
13
  62
1
 100
AcDbMText
  10
 5960.9090909091
  20
 1283.5736076959
  30
0.0
  40
 80.000000000000
  41
0.0
  71
7
  72
1
   1
\T1.000000;キャップ
   7
GMM002
  44
 0.79999984000003
   0
MTEXT
   5
F9
 100
AcDbEntity
   8
LEVEL001
 370
13
  62
1
 100
AcDbMText
  10
 6931.8880646631
  20
 1283.5736076959
  30
0.0
  40
 80.000000000000
  41
0.0
  71
9
  72
1
   1
\T1.000000;１
   7
GMM002
  44
 0.79999984000003
   0
MTEXT
   5
FB
 100
AcDbEntity
   8
LEVEL001
 370
13
  62
1
 100
AcDbMText
  10
 7010.9090909091
  20
 1283.5736076959
  30
0.0
  40
 80.000000000000
  41
0.0
  71
7
  72
1
   1
\T1.000000;ＰＥ
   7
GMM002
  44
 0.79999984000003
   0
MTEXT
   5
FD
 100
AcDbEntity
   8
LEVEL001
 370
13
  62
1
 100
AcDbMText
  10
 5960.9090909091
  20
 1413.5736076959
  30
0.0
  40
 80.000000000000
  41
0.0
  71
7
  72
1
   1
\T1.000000;根入れ鉄筋
   7
GMM002
  44
 0.79999984000003
   0
MTEXT
   5
FF
 100
AcDbEntity
   8
LEVEL001
 370
13
  62
1
 100
AcDbMText
  10
 6931.8880646631
  20
 1413.5736076959
  30
0.0
  40
 80.000000000000
  41
0.0
  71
9
  72
1
   1
\T1.000000;２
   7
GMM002
  44
 0.79999984000003
   0
MTEXT
   5
101
 100
AcDbEntity
   8
LEVEL001
 370
13
  62
1
 100
AcDbMText
  10
 5881.8880646631
  20
 1023.5736076959
  30
0.0
  40
 80.000000000000
  41
0.0
  71
9
  72
1
   1
\T1.000000;１４
   7
GMM001
  44
 0.79999984000003
   0
MTEXT
   5
103
 100
AcDbEntity
   8
LEVEL001
 370
13
  62
1
 100
AcDbMText
  10
 5881.8880646631
  20
 893.57360769589
  30
0.0
  40
 80.000000000000
  41
0.0
  71
9
  72
1
   1
\T1.000000;１５
   7
GMM001
  44
 0.79999984000003
   0
MTEXT
   5
105
 100
AcDbEntity
   8
LEVEL001
 370
13
  62
1
 100
AcDbMText
  10
 7010.9090909091
  20
 1413.5736076959
  30
0.0
  40
 80.000000000000
  41
0.0
  71
7
  72
1
   1
\T1.000000;ＳＤ２９５Ａ
   7
GMM002
  44
 0.79999984000003
   0
LWPOLYLINE
   5
106
 100
AcDbEntity
   8
LEVEL001
 370
13
   6
CONTINUOUS
  62
7
 100
AcDbPolyline
  90
4
  70
1
  10
 440.00000000000
  20
 170.00000000000
  10
 440.00000000000
  20
 5770.0000000000
  10
 8226.6668701172
  20
 5770.0000000000
  10
 8226.6668701172
  20
 170.00000000000
   0
LINE
   5
107
 100
AcDbEntity
   8
LEVEL001
 370
13
 100
AcDbLine
   6
CONTINUOUS
  62
1
  10
 5710.9090909091
  20
 650.00000000000
  30
0.0
  11
 7350.9090909091
  21
 650.00000000000
  31
0.0
   0
MTEXT
   5
109
 100
AcDbEntity
   8
LEVEL001
 370
13
  62
1
 100
AcDbMText
  10
 1500.0000000000
  20
 5670.0000000000
  30
0.0
  40
 80.000000000000
  41
0.0
  71
5
  72
1
   1
\T1.000000;正　面　図
   7
GMM003
  44
 0.79999984000003
   0
MTEXT
   5
10B
 100
AcDbEntity
   8
LEVEL001
 370
13
  62
1
 100
AcDbMText
  10
 4250.0000000000
  20
 5670.0000000000
  30
0.0
  40
 80.000000000000
  41
0.0
  71
5
  72
1
   1
\T1.000000;背　面　図
   7
GMM003
  44
 0.79999984000003
   0
MTEXT
   5
10D
 100
AcDbEntity
   8
LEVEL001
 370
13
  62
1
 100
AcDbMText
  10
 3125.0000000000
  20
 5670.0000000000
  30
0.0
  40
 80.000000000000
  41
0.0
  71
5
  72
1
   1
\T1.000000;側　面　図
   7
GMM003
  44
 0.79999984000003
   0
ARC
   5
10E
 100
AcDbEntity
   8
LEVEL001
 370
13
   6
CONTINUOUS
  62
1
 100
AcDbCircle
  10
 1985.1478552401
  20
 4749.0391219523
  30
0.0
  40
 7.5000000000000
 100
AcDbArc
  50
 255.57028586410
  51
 76.429730611256
   0
ARC
   5
10F
 100
AcDbEntity
   8
LEVEL001
 370
13
   6
CONTINUOUS
  62
1
 100
AcDbCircle
  10
 1014.8521289645
  20
 4749.0389824481
  30
0.0
  40
 7.5000000000000
 100
AcDbArc
  50
 103.57028586424
  51
 284.42973061119
   0
CIRCLE
   5
110
 100
AcDbEntity
   8
LEVEL001
 370
13
 100
AcDbCircle
   6
CONTINUOUS
  62
7
  10
 1500.0000000000
  20
 4870.0000000000
  30
0.0
  40
 500.00000000000
   0
ARC
   5
111
 100
AcDbEntity
   8
LEVEL001
 370
13
   6
CONTINUOUS
  62
7
 100
AcDbCircle
  10
 1500.0000000000
  20
 4870.0000000000
  30
0.0
  40
 507.00000000000
 100
AcDbArc
  50
 18.753603132103
  51
 161.24639686790
   0
LINE
   5
112
 100
AcDbEntity
   8
LEVEL001
 370
13
 100
AcDbLine
   6
CONTINUOUS
  62
7
  10
 1019.9166738992
  20
 5033.0000000000
  30
0.0
  11
 1027.3151155368
  21
 5033.0000000000
  31
0.0
   0
LINE
   5
113
 100
AcDbEntity
   8
LEVEL001
 370
13
 100
AcDbLine
   6
CONTINUOUS
  62
7
  10
 1980.0833261008
  20
 5033.0000000000
  30
0.0
  11
 1972.6848844632
  21
 5033.0000000000
  31
0.0
   0
CIRCLE
   5
114
 100
AcDbEntity
   8
LEVEL001
 370
13
 100
AcDbCircle
   6
CONTINUOUS
  62
2
  10
 1500.0000000000
  20
 4870.0000000000
  30
0.0
  40
 483.00000000000
   0
ARC
   5
115
 100
AcDbEntity
   8
LEVEL001
 370
13
   6
CONTINUOUS
  62
1
 100
AcDbCircle
  10
 1500.0000718875
  20
 4370.0000000000
  30
0.0
  40
 7.5000000000000
 100
AcDbArc
  50
 179.57028586264
  51
 0.42973061271037
   0
ARC
   5
116
 100
AcDbEntity
   8
LEVEL001
 370
13
   6
CONTINUOUS
  62
1
 100
AcDbCircle
  10
 1631.2212558670
  20
 5359.7243939286
  30
0.0
  40
 7.5000000000000
 100
AcDbArc
  50
 344.57621078407
  51
 165.42378921595
   0
ARC
   5
117
 100
AcDbEntity
   8
LEVEL001
 370
13
   6
CONTINUOUS
  62
1
 100
AcDbCircle
  10
 1368.7786033129
  20
 5359.7243561959
  30
0.0
  40
 7.5000000000000
 100
AcDbArc
  50
 14.576227259976
  51
 195.42380569080
   0
ARC
   5
118
 100
AcDbEntity
   8
LEVEL001
 370
13
   6
CONTINUOUS
  62
1
 100
AcDbCircle
  10
 1959.4980480274
  20
 5084.2674587026
  30
0.0
  40
 7.5000000000000
 100
AcDbArc
  50
 294.57621078537
  51
 115.42378921466
   0
ARC
   5
119
 100
AcDbEntity
   8
LEVEL001
 370
13
   6
CONTINUOUS
  62
1
 100
AcDbCircle
  10
 1040.5018903599
  20
 5084.2673265740
  30
0.0
  40
 7.5000000000000
 100
AcDbArc
  50
 64.576227259574
  51
 245.42380569118
   0
ARC
   5
11A
 100
AcDbEntity
   8
LEVEL001
 370
13
   6
CONTINUOUS
  62
1
 100
AcDbCircle
  10
 1825.8933181111
  20
 5258.3845326614
  30
0.0
  40
 7.5000000000000
 100
AcDbArc
  50
 319.57621078395
  51
 140.42378921609
   0
ARC
   5
11B
 100
AcDbEntity
   8
LEVEL001
 370
13
   6
CONTINUOUS
  62
1
 100
AcDbCircle
  10
 1174.1065702091
  20
 5258.3844389507
  30
0.0
  40
 7.5000000000000
 100
AcDbArc
  50
 39.576227260164
  51
 220.42380569060
   0
ARC
   5
11C
 100
AcDbEntity
   8
LEVEL001
 370
13
   6
CONTINUOUS
  62
1
 100
AcDbCircle
  10
 1807.8307943109
  20
 4475.9946674550
  30
0.0
  40
 7.5000000000000
 100
AcDbArc
  50
 217.57028586267
  51
 38.429730612673
   0
ARC
   5
11D
 100
AcDbEntity
   8
LEVEL001
 370
13
   6
CONTINUOUS
  62
1
 100
AcDbCircle
  10
 1985.1478805290
  20
 4749.0391219523
  30
0.0
  40
 7.5000000000000
 100
AcDbArc
  50
 255.57028586410
  51
 76.429730611256
   0
ARC
   5
11E
 100
AcDbEntity
   8
LEVEL001
 370
13
   6
CONTINUOUS
  62
1
 100
AcDbCircle
  10
 1192.1693189853
  20
 4475.9945789383
  30
0.0
  40
 7.5000000000000
 100
AcDbArc
  50
 141.57028586247
  51
 322.42973061298
   0
ARC
   5
11F
 100
AcDbEntity
   8
LEVEL001
 370
13
   6
CONTINUOUS
  62
1
 100
AcDbCircle
  10
 1014.8521542534
  20
 4749.0389824481
  30
0.0
  40
 7.5000000000000
 100
AcDbArc
  50
 103.57028586424
  51
 284.42973061119
   0
LINE
   5
120
 100
AcDbEntity
   8
LEVEL001
 370
13
 100
AcDbLine
   6
DASHDOT
  62
6
  10
 2050.0000000000
  20
 4870.0000000000
  30
0.0
  11
 950.00000000000
  21
 4870.0000000000
  31
0.0
   0
DIMENSION
   5
121
 100
AcDbEntity
   8
LEVEL001
 370
13
   6
CONTINUOUS
  62
6
 100
AcDbDimension
   2
*D1
  10
 1933.0126955700
  20
 5120.0000109503
  30
0.0
  11
 1485.8571422377
  21
 4894.4961467780
  31
0.0
  70
3
   3
GMM001
 100
AcDbDiametricDimension
  15
 1066.9873044300
  25
 4619.9999890497
  35
0.0
   0
LINE
   5
122
 100
AcDbEntity
   8
LEVEL001
 370
13
 100
AcDbLine
   6
CONTINUOUS
  62
7
  10
 1455.4500252888
  20
 4371.9886549955
  30
0.0
  11
 1455.4500252888
  21
 4169.9999999996
  31
0.0
   0
LINE
   5
123
 100
AcDbEntity
   8
LEVEL001
 370
13
 100
AcDbLine
   6
CONTINUOUS
  62
7
  10
 1544.5500252888
  20
 4169.9999999996
  30
0.0
  11
 1544.5500252888
  21
 4371.9886595199
  31
0.0
   0
CIRCLE
   5
124
 100
AcDbEntity
   8
LEVEL001
 370
13
 100
AcDbCircle
   6
CONTINUOUS
  62
7
  10
 4249.9997923174
  20
 4869.9999397198
  30
0.0
  40
 500.00000000000
   0
ARC
   5
125
 100
AcDbEntity
   8
LEVEL001
 370
13
   6
CONTINUOUS
  62
7
 100
AcDbCircle
  10
 4249.9997923174
  20
 4869.9999397198
  30
0.0
  40
 507.00000000000
 100
AcDbArc
  50
 18.753603132103
  51
 161.24639686790
   0
LINE
   5
126
 100
AcDbEntity
   8
LEVEL001
 370
13
 100
AcDbLine
   6
CONTINUOUS
  62
7
  10
 3769.9164662166
  20
 5032.9999397198
  30
0.0
  11
 3777.3149078542
  21
 5032.9999397198
  31
0.0
   0
LINE
   5
127
 100
AcDbEntity
   8
LEVEL001
 370
13
 100
AcDbLine
   6
CONTINUOUS
  62
7
  10
 4730.0831184182
  20
 5032.9999397198
  30
0.0
  11
 4722.6846767806
  21
 5032.9999397198
  31
0.0
   0
ARC
   5
128
 100
AcDbEntity
   8
LEVEL001
 370
13
   6
CONTINUOUS
  62
1
 100
AcDbCircle
  10
 4249.9998642049
  20
 4369.9999397199
  30
0.0
  40
 7.5000000000000
 100
AcDbArc
  50
 179.57028586322
  51
 0.42973061213366
   0
ARC
   5
129
 100
AcDbEntity
   8
LEVEL001
 370
13
   6
CONTINUOUS
  62
1
 100
AcDbCircle
  10
 4381.2210481843
  20
 5359.7243336484
  30
0.0
  40
 7.5000000000000
 100
AcDbArc
  50
 344.57621078464
  51
 165.42378921538
   0
ARC
   5
12A
 100
AcDbEntity
   8
LEVEL001
 370
13
   6
CONTINUOUS
  62
1
 100
AcDbCircle
  10
 4118.7783956303
  20
 5359.7242959157
  30
0.0
  40
 7.5000000000000
 100
AcDbArc
  50
 14.576227259977
  51
 195.42380569080
   0
ARC
   5
12B
 100
AcDbEntity
   8
LEVEL001
 370
13
   6
CONTINUOUS
  62
1
 100
AcDbCircle
  10
 4709.4978403450
  20
 5084.2673984225
  30
0.0
  40
 7.5000000000000
 100
AcDbArc
  50
 294.57621078377
  51
 115.42378921627
   0
ARC
   5
12C
 100
AcDbEntity
   8
LEVEL001
 370
13
   6
CONTINUOUS
  62
1
 100
AcDbCircle
  10
 3790.5016826773
  20
 5084.2672662938
  30
0.0
  40
 7.5000000000000
 100
AcDbArc
  50
 64.576227260000
  51
 245.42380569076
   0
ARC
   5
12D
 100
AcDbEntity
   8
LEVEL001
 370
13
   6
CONTINUOUS
  62
1
 100
AcDbCircle
  10
 4575.8931104285
  20
 5258.3844723812
  30
0.0
  40
 7.5000000000000
 100
AcDbArc
  50
 319.57621078428
  51
 140.42378921574
   0
ARC
   5
12E
 100
AcDbEntity
   8
LEVEL001
 370
13
   6
CONTINUOUS
  62
1
 100
AcDbCircle
  10
 3924.1063625264
  20
 5258.3843786707
  30
0.0
  40
 7.5000000000000
 100
AcDbArc
  50
 39.576227259198
  51
 220.42380569156
   0
ARC
   5
12F
 100
AcDbEntity
   8
LEVEL001
 370
13
   6
CONTINUOUS
  62
1
 100
AcDbCircle
  10
 4557.8305866285
  20
 4475.9946071747
  30
0.0
  40
 7.5000000000000
 100
AcDbArc
  50
 217.57028586122
  51
 38.429730614139
   0
ARC
   5
130
 100
AcDbEntity
   8
LEVEL001
 370
13
   6
CONTINUOUS
  62
1
 100
AcDbCircle
  10
 4735.1476728466
  20
 4749.0390616721
  30
0.0
  40
 7.5000000000000
 100
AcDbArc
  50
 255.57028586261
  51
 76.429730612744
   0
ARC
   5
131
 100
AcDbEntity
   8
LEVEL001
 370
13
   6
CONTINUOUS
  62
1
 100
AcDbCircle
  10
 3942.1691113027
  20
 4475.9945186581
  30
0.0
  40
 7.5000000000000
 100
AcDbArc
  50
 141.57028586283
  51
 322.42973061262
   0
ARC
   5
132
 100
AcDbEntity
   8
LEVEL001
 370
13
   6
CONTINUOUS
  62
1
 100
AcDbCircle
  10
 3764.8519465707
  20
 4749.0389221679
  30
0.0
  40
 7.5000000000000
 100
AcDbArc
  50
 103.57028586387
  51
 284.42973061157
   0
LINE
   5
133
 100
AcDbEntity
   8
LEVEL001
 370
13
 100
AcDbLine
   6
DASHDOT
  62
6
  10
 4799.9997923174
  20
 4869.9999397198
  30
0.0
  11
 3699.9997923174
  21
 4869.9999397198
  31
0.0
   0
LINE
   5
134
 100
AcDbEntity
   8
LEVEL001
 370
13
 100
AcDbLine
   6
DASHDOT
  62
6
  10
 4249.9997132412
  20
 5419.9999397198
  30
0.0
  11
 4249.9998713936
  21
 4319.9999397198
  31
0.0
   0
ARC
   5
135
 100
AcDbEntity
   8
LEVEL001
 370
13
   6
CONTINUOUS
  62
2
 100
AcDbCircle
  10
 4081.6104079552
  20
 4806.3995130887
  30
0.0
  40
 29.999999552965
 100
AcDbArc
  50
 20.690820101612
  51
 86.933683158182
   0
LINE
   5
136
 100
AcDbEntity
   8
LEVEL001
 370
13
 100
AcDbLine
   6
CONTINUOUS
  62
2
  10
 4083.2151613890
  20
 4836.3565613344
  30
0.0
  11
 3827.9307413650
  21
 4850.0287413065
  31
0.0
   0
ARC
   5
137
 100
AcDbEntity
   8
LEVEL001
 370
13
   6
CONTINUOUS
  62
2
 100
AcDbCircle
  10
 4081.6105318986
  20
 4933.6006188663
  30
0.0
  40
 29.999999552965
 100
AcDbArc
  50
 273.06549610976
  51
 339.30850994616
   0
LINE
   5
138
 100
AcDbEntity
   8
LEVEL001
 370
13
 100
AcDbLine
   6
CONTINUOUS
  62
2
  10
 4083.2148562133
  20
 4903.6435476364
  30
0.0
  11
 3827.9307413650
  21
 4889.9713676644
  31
0.0
   0
ARC
   5
139
 100
AcDbEntity
   8
LEVEL001
 370
13
   6
CONTINUOUS
  62
2
 100
AcDbCircle
  10
 4110.7259895381
  20
 4984.0293422239
  30
0.0
  40
 29.999999552965
 100
AcDbArc
  50
 320.69073349109
  51
 26.934436539243
   0
ARC
   5
13A
 100
AcDbEntity
   8
LEVEL001
 370
13
   6
CONTINUOUS
  62
2
 100
AcDbCircle
  10
 4249.9995309659
  20
 4869.9991721272
  30
0.0
  40
 149.99999776483
 100
AcDbArc
  50
 140.69118347550
  51
 159.30810759659
   0
ARC
   5
13B
 100
AcDbEntity
   8
LEVEL001
 370
13
   6
CONTINUOUS
  62
2
 100
AcDbCircle
  10
 4220.8853974853
  20
 5047.6296774797
  30
0.0
  40
 29.999999552965
 100
AcDbArc
  50
 213.06504559763
  51
 279.30759622405
   0
LINE
   5
13C
 100
AcDbEntity
   8
LEVEL001
 370
13
 100
AcDbLine
   6
CONTINUOUS
  62
2
  10
 4137.4717523774
  20
 4997.6184607869
  30
0.0
  11
 4021.6691417983
  21
 5225.5377689141
  31
0.0
   0
LINE
   5
13D
 100
AcDbEntity
   8
LEVEL001
 370
13
 100
AcDbLine
   6
CONTINUOUS
  62
2
  10
 4195.7438462357
  20
 5031.2619539379
  30
0.0
  11
 4056.2599005602
  21
 5245.5090820930
  31
0.0
   0
LINE
   5
13E
 100
AcDbEntity
   8
LEVEL001
 370
13
 100
AcDbLine
   6
CONTINUOUS
  62
2
  10
 4137.4714472017
  20
 4742.3819533597
  30
0.0
  11
 4021.6697521499
  21
 4514.4629504083
  31
0.0
   0
LINE
   5
13F
 100
AcDbEntity
   8
LEVEL001
 370
13
 100
AcDbLine
   6
CONTINUOUS
  62
2
  10
 4195.7435410599
  20
 4708.7381550329
  30
0.0
  11
 4056.2611212634
  21
 4494.4916372294
  31
0.0
   0
ARC
   5
140
 100
AcDbEntity
   8
LEVEL001
 370
13
   6
CONTINUOUS
  62
2
 100
AcDbCircle
  10
 4220.8849422107
  20
 4692.3702009350
  30
0.0
  40
 29.999999552965
 100
AcDbArc
  50
 80.691522663968
  51
 146.93442898004
   0
ARC
   5
141
 100
AcDbEntity
   8
LEVEL001
 370
13
   6
CONTINUOUS
  62
2
 100
AcDbCircle
  10
 4110.7254930043
  20
 4755.9706952902
  30
0.0
  40
 29.999999552965
 100
AcDbArc
  50
 333.06637029425
  51
 39.308689609811
   0
CIRCLE
   5
142
 100
AcDbEntity
   8
LEVEL001
 370
13
 100
AcDbCircle
   6
CONTINUOUS
  62
2
  10
 4249.9998268725
  20
 4870.0000544854
  30
0.0
  40
 124.99999813735
   0
ARC
   5
143
 100
AcDbEntity
   8
LEVEL001
 370
13
   6
CONTINUOUS
  62
2
 100
AcDbCircle
  10
 4249.9997923174
  20
 4869.9999397198
  30
0.0
  40
 149.99999776483
 100
AcDbArc
  50
 200.69160987412
  51
 219.30847493285
   0
ARC
   5
144
 100
AcDbEntity
   8
LEVEL001
 370
13
   6
CONTINUOUS
  62
2
 100
AcDbCircle
  10
 4039.5000702908
  20
 5234.5963547406
  30
0.0
  40
 19.999999701977
 100
AcDbArc
  50
 33.068162056382
  51
 206.93178057475
   0
ARC
   5
145
 100
AcDbEntity
   8
LEVEL001
 370
13
   6
CONTINUOUS
  62
2
 100
AcDbCircle
  10
 3829.0015532003
  20
 4870.0000544854
  30
0.0
  40
 19.999999701977
 100
AcDbArc
  50
 93.069117498800
  51
 266.93088250120
   0
ARC
   5
146
 100
AcDbEntity
   8
LEVEL001
 370
13
   6
CONTINUOUS
  62
2
 100
AcDbCircle
  10
 4039.5006806423
  20
 4505.4043645818
  30
0.0
  40
 19.999999701977
 100
AcDbArc
  50
 153.06821942525
  51
 326.93183794362
   0
ARC
   5
147
 100
AcDbEntity
   8
LEVEL001
 370
13
   6
CONTINUOUS
  62
2
 100
AcDbCircle
  10
 4460.5013016720
  20
 5234.5985252851
  30
0.0
  40
 19.999999701977
 100
AcDbArc
  50
 333.05928327147
  51
 146.93925766474
   0
ARC
   5
148
 100
AcDbEntity
   8
LEVEL001
 370
13
   6
CONTINUOUS
  62
2
 100
AcDbCircle
  10
 4279.1150167101
  20
 5047.6299080359
  30
0.0
  40
 29.999999552965
 100
AcDbArc
  50
 260.69152266396
  51
 326.93442898003
   0
LINE
   5
149
 100
AcDbEntity
   8
LEVEL001
 370
13
 100
AcDbLine
   6
CONTINUOUS
  62
2
  10
 4304.2564178609
  20
 5031.2619539379
  30
0.0
  11
 4443.7394480090
  21
 5245.5090820930
  31
0.0
   0
ARC
   5
14A
 100
AcDbEntity
   8
LEVEL001
 370
13
   6
CONTINUOUS
  62
2
 100
AcDbCircle
  10
 4250.0009103927
  20
 4870.0000461106
  30
0.0
  40
 149.99999776483
 100
AcDbArc
  50
 80.691856705209
  51
 99.308863964695
   0
ARC
   5
14B
 100
AcDbEntity
   8
LEVEL001
 370
13
   6
CONTINUOUS
  62
2
 100
AcDbCircle
  10
 4389.2740650624
  20
 4984.0295305399
  30
0.0
  40
 29.999999552965
 100
AcDbArc
  50
 153.06596687767
  51
 219.30897805813
   0
LINE
   5
14C
 100
AcDbEntity
   8
LEVEL001
 370
13
 100
AcDbLine
   6
CONTINUOUS
  62
2
  10
 4362.5282065434
  20
 4997.6184607869
  30
0.0
  11
 4478.3308171225
  21
 5225.5371585625
  31
0.0
   0
ARC
   5
14D
 100
AcDbEntity
   8
LEVEL001
 370
13
   6
CONTINUOUS
  62
2
 100
AcDbCircle
  10
 4279.1154719832
  20
 4692.3702755616
  30
0.0
  40
 29.999999552965
 100
AcDbArc
  50
 33.066096429619
  51
 99.309358447319
   0
ARC
   5
14E
 100
AcDbEntity
   8
LEVEL001
 370
13
   6
CONTINUOUS
  62
2
 100
AcDbCircle
  10
 4389.2745373683
  20
 4755.9711553061
  30
0.0
  40
 29.999999552965
 100
AcDbArc
  50
 140.69244585414
  51
 206.93461516643
   0
LINE
   5
14F
 100
AcDbEntity
   8
LEVEL001
 370
13
 100
AcDbLine
   6
CONTINUOUS
  62
2
  10
 4416.7851027075
  20
 4836.3565613344
  30
0.0
  11
 4672.0701330832
  21
 4850.0287413065
  31
0.0
   0
LINE
   5
150
 100
AcDbEntity
   8
LEVEL001
 370
13
 100
AcDbLine
   6
CONTINUOUS
  62
2
  10
 4416.7847975318
  20
 4903.6432424607
  30
0.0
  11
 4672.0698279074
  21
 4889.9716728402
  31
0.0
   0
LINE
   5
151
 100
AcDbEntity
   8
LEVEL001
 370
13
 100
AcDbLine
   6
CONTINUOUS
  62
2
  10
 4304.2567230367
  20
 4708.7384602087
  30
0.0
  11
 4443.7394480090
  21
 4494.4910268778
  31
0.0
   0
LINE
   5
152
 100
AcDbEntity
   8
LEVEL001
 370
13
 100
AcDbLine
   6
CONTINUOUS
  62
2
  10
 4362.5288168949
  20
 4742.3819533597
  30
0.0
  11
 4478.3302067709
  21
 4514.4620348810
  31
0.0
   0
ARC
   5
153
 100
AcDbEntity
   8
LEVEL001
 370
13
   6
CONTINUOUS
  62
2
 100
AcDbCircle
  10
 4249.9999794604
  20
 4869.9999102754
  30
0.0
  40
 149.99999776483
 100
AcDbArc
  50
 260.69149637044
  51
 279.30850362956
   0
ARC
   5
154
 100
AcDbEntity
   8
LEVEL001
 370
13
   6
CONTINUOUS
  62
2
 100
AcDbCircle
  10
 4250.0002139755
  20
 4870.0003703175
  30
0.0
  40
 149.99999776483
 100
AcDbArc
  50
 320.69131249565
  51
 339.30833891489
   0
ARC
   5
155
 100
AcDbEntity
   8
LEVEL001
 370
13
   6
CONTINUOUS
  62
2
 100
AcDbCircle
  10
 4418.3894270222
  20
 4806.3994901045
  30
0.0
  40
 29.999999552965
 100
AcDbArc
  50
 93.065496109764
  51
 159.30850994616
   0
ARC
   5
156
 100
AcDbEntity
   8
LEVEL001
 370
13
   6
CONTINUOUS
  62
2
 100
AcDbCircle
  10
 4418.3894333231
  20
 4933.6002970080
  30
0.0
  40
 29.999999552965
 100
AcDbArc
  50
 200.69145599578
  51
 266.93390816088
   0
ARC
   5
157
 100
AcDbEntity
   8
LEVEL001
 370
13
   6
CONTINUOUS
  62
2
 100
AcDbCircle
  10
 4250.0000000000
  20
 4870.0000000000
  30
0.0
  40
 149.99999776483
 100
AcDbArc
  50
 20.691429768671
  51
 39.308558486271
   0
ARC
   5
158
 100
AcDbEntity
   8
LEVEL001
 370
13
   6
CONTINUOUS
  62
2
 100
AcDbCircle
  10
 4460.4985012483
  20
 4505.4058847607
  30
0.0
  40
 19.999999701977
 100
AcDbArc
  50
 213.07544560321
  51
 26.924934790056
   0
ARC
   5
159
 100
AcDbEntity
   8
LEVEL001
 370
13
   6
CONTINUOUS
  62
2
 100
AcDbCircle
  10
 4671.0020183335
  20
 4870.0001989138
  30
0.0
  40
 19.999999701977
 100
AcDbArc
  50
 273.06137984714
  51
 86.939495666172
   0
CIRCLE
   5
15A
 100
AcDbEntity
   8
LEVEL001
 370
13
 100
AcDbCircle
   6
CONTINUOUS
  62
7
  10
 4290.0000000000
  20
 4905.0000000000
  30
0.0
  40
 7.0000000000000
   0
LINE
   5
15B
 100
AcDbEntity
   8
LEVEL001
 370
13
 100
AcDbLine
   6
DASHDOT
  62
6
  10
 4270.0000000000
  20
 4905.0000000000
  30
0.0
  11
 4310.0000000000
  21
 4905.0000000000
  31
0.0
   0
LINE
   5
15C
 100
AcDbEntity
   8
LEVEL001
 370
13
 100
AcDbLine
   6
DASHDOT
  62
6
  10
 4290.0000000000
  20
 4885.0000000000
  30
0.0
  11
 4290.0000000000
  21
 4925.0000000000
  31
0.0
   0
CIRCLE
   5
15D
 100
AcDbEntity
   8
LEVEL001
 370
13
 100
AcDbCircle
   6
CONTINUOUS
  62
7
  10
 4210.0000000000
  20
 4905.0000000000
  30
0.0
  40
 7.0000000000000
   0
LINE
   5
15E
 100
AcDbEntity
   8
LEVEL001
 370
13
 100
AcDbLine
   6
DASHDOT
  62
6
  10
 4190.0000000000
  20
 4905.0000000000
  30
0.0
  11
 4230.0000000000
  21
 4905.0000000000
  31
0.0
   0
LINE
   5
15F
 100
AcDbEntity
   8
LEVEL001
 370
13
 100
AcDbLine
   6
DASHDOT
  62
6
  10
 4210.0000000000
  20
 4885.0000000000
  30
0.0
  11
 4210.0000000000
  21
 4925.0000000000
  31
0.0
   0
CIRCLE
   5
160
 100
AcDbEntity
   8
LEVEL001
 370
13
 100
AcDbCircle
   6
CONTINUOUS
  62
7
  10
 4210.0000000000
  20
 4835.0000000000
  30
0.0
  40
 7.0000000000000
   0
LINE
   5
161
 100
AcDbEntity
   8
LEVEL001
 370
13
 100
AcDbLine
   6
DASHDOT
  62
6
  10
 4190.0000000000
  20
 4835.0000000000
  30
0.0
  11
 4230.0000000000
  21
 4835.0000000000
  31
0.0
   0
LINE
   5
162
 100
AcDbEntity
   8
LEVEL001
 370
13
 100
AcDbLine
   6
DASHDOT
  62
6
  10
 4210.0000000000
  20
 4815.0000000000
  30
0.0
  11
 4210.0000000000
  21
 4855.0000000000
  31
0.0
   0
CIRCLE
   5
163
 100
AcDbEntity
   8
LEVEL001
 370
13
 100
AcDbCircle
   6
CONTINUOUS
  62
7
  10
 4290.0000000000
  20
 4835.0000000000
  30
0.0
  40
 7.0000000000000
   0
LINE
   5
164
 100
AcDbEntity
   8
LEVEL001
 370
13
 100
AcDbLine
   6
DASHDOT
  62
6
  10
 4270.0000000000
  20
 4835.0000000000
  30
0.0
  11
 4310.0000000000
  21
 4835.0000000000
  31
0.0
   0
LINE
   5
165
 100
AcDbEntity
   8
LEVEL001
 370
13
 100
AcDbLine
   6
DASHDOT
  62
6
  10
 4290.0000000000
  20
 4815.0000000000
  30
0.0
  11
 4290.0000000000
  21
 4855.0000000000
  31
0.0
   0
LINE
   5
166
 100
AcDbEntity
   8
LEVEL001
 370
13
 100
AcDbLine
   6
CONTINUOUS
  62
6
  10
 4084.1779909645
  20
 4885.6693047402
  30
0.0
  11
 3872.8404086645
  21
 4874.3509455339
  31
0.0
   0
LINE
   5
167
 100
AcDbEntity
   8
LEVEL001
 370
13
 100
AcDbLine
   6
CONTINUOUS
  62
6
  10
 4084.1776857888
  20
 4854.3308042306
  30
0.0
  11
 3872.8401034887
  21
 4865.6491634370
  31
0.0
   0
LINE
   5
168
 100
AcDbEntity
   8
LEVEL001
 370
13
 100
AcDbLine
   6
CONTINUOUS
  62
6
  10
 4180.6583972417
  20
 5021.4407870921
  30
0.0
  11
 4065.1878179077
  21
 5198.8055915780
  31
0.0
   0
LINE
   5
169
 100
AcDbEntity
   8
LEVEL001
 370
13
 100
AcDbLine
   6
CONTINUOUS
  62
6
  10
 4153.5188102438
  20
 5005.7721471888
  30
0.0
  11
 4057.6521124536
  21
 5194.4550057054
  31
0.0
   0
LINE
   5
16A
 100
AcDbEntity
   8
LEVEL001
 370
13
 100
AcDbLine
   6
CONTINUOUS
  62
6
  10
 4180.6590075933
  20
 4718.5593218788
  30
0.0
  11
 4065.1881230835
  21
 4541.1948225686
  31
0.0
   0
LINE
   5
16B
 100
AcDbEntity
   8
LEVEL001
 370
13
 100
AcDbLine
   6
CONTINUOUS
  62
6
  10
 4153.5188102438
  20
 4734.2282669578
  30
0.0
  11
 4057.6521124536
  21
 4545.5454084413
  31
0.0
   0
LINE
   5
16C
 100
AcDbEntity
   8
LEVEL001
 370
13
 100
AcDbLine
   6
CONTINUOUS
  62
6
  10
 4346.4811486770
  20
 5005.7718420130
  30
0.0
  11
 4442.3478464672
  21
 5194.4543953538
  31
0.0
   0
LINE
   5
16D
 100
AcDbEntity
   8
LEVEL001
 370
13
 100
AcDbLine
   6
CONTINUOUS
  62
6
  10
 4319.3415616791
  20
 5021.4410922678
  30
0.0
  11
 4434.8124461889
  21
 5198.8055915780
  31
0.0
   0
LINE
   5
16E
 100
AcDbEntity
   8
LEVEL001
 370
13
 100
AcDbLine
   6
CONTINUOUS
  62
6
  10
 4415.8225783078
  20
 4885.6689995644
  30
0.0
  11
 4627.1598554321
  21
 4874.3509455339
  31
0.0
   0
LINE
   5
16F
 100
AcDbEntity
   8
LEVEL001
 370
13
 100
AcDbLine
   6
CONTINUOUS
  62
6
  10
 4415.8225783078
  20
 4854.3311094064
  30
0.0
  11
 4627.1601606079
  21
 4865.6494686128
  31
0.0
   0
LINE
   5
170
 100
AcDbEntity
   8
LEVEL001
 370
13
 100
AcDbLine
   6
CONTINUOUS
  62
6
  10
 4346.4808435012
  20
 4734.2279617820
  30
0.0
  11
 4442.3478464672
  21
 4545.5451032655
  31
0.0
   0
LINE
   5
171
 100
AcDbEntity
   8
LEVEL001
 370
13
 100
AcDbLine
   6
CONTINUOUS
  62
6
  10
 4319.3415616791
  20
 4718.5587115272
  30
0.0
  11
 4434.8121410131
  21
 4541.1945173928
  31
0.0
   0
CIRCLE
   5
172
 100
AcDbEntity
   8
LEVEL001
 370
13
 100
AcDbCircle
   6
CONTINUOUS
  62
1
  10
 3937.2078298220
  20
 4319.8711370832
  30
0.0
  40
 69.999997913838
   0
MTEXT
   5
174
 100
AcDbEntity
   8
LEVEL001
 370
13
  62
7
 100
AcDbMText
  10
 3937.2078298220
  20
 4319.8711370832
  30
0.0
  40
 66.000000000000
  41
0.0
  71
5
  72
1
   1
\T1.000000;２
   7
GMM004
  44
 0.79999984000003
   0
LEADER
   5
175
 100
AcDbEntity
   8
LEVEL001
 370
13
   6
CONTINUOUS
  62
1
 100
AcDbLeader
   3
GMM002
  73
3
  74
1
  75
0
  40
 66.000000000000
  41
0.0
  76
2
  10
 4154.3953603298
  20
 4445.2644162867
  30
0.0
  10
 3997.8296062802
  20
 4354.8711360402
  30
0.0
  77
1
   0
LEADER
   5
176
 100
AcDbEntity
   8
LEVEL001
 370
13
   6
CONTINUOUS
  62
1
 100
AcDbLeader
   3
GMM002
  73
3
  74
1
  75
0
  40
 66.000000000000
  41
0.0
  76
2
  10
 1723.6067977498
  20
 4422.7864045000
  30
0.0
  10
 1843.6950492480
  20
 4182.6099015037
  30
0.0
  77
1
   0
LEADER
   5
177
 100
AcDbEntity
   8
LEVEL001
 370
13
   6
CONTINUOUS
  62
1
 100
AcDbLeader
   3
GMM002
  73
3
  74
1
  75
0
  40
 66.000000000000
  41
0.0
  76
2
  10
 1498.0539010340
  20
 4362.7568986310
  30
0.0
  10
 1300.2454160920
  20
 4168.7380536095
  30
0.0
  77
1
   0
DIMENSION
   5
178
 100
AcDbEntity
   8
LEVEL001
 370
13
   6
CONTINUOUS
  62
6
 100
AcDbDimension
   2
*D5
  10
 750.00000000000
  20
 769.99999999960
  30
0.0
  11
 750.00000000000
  21
 719.99999999960
  31
0.0
  70
0
   3
GMM003
 100
AcDbAlignedDimension
  13
 1249.9999747112
  23
 669.99999999960
  33
0.0
  14
 1249.9999747112
  24
 769.99999999960
  34
0.0
  50
 90.000000000000
 100
AcDbRotatedDimension
   0
DIMENSION
   5
179
 100
AcDbEntity
   8
LEVEL001
 370
13
   6
CONTINUOUS
  62
6
 100
AcDbDimension
   2
*D6
  10
 750.00000000000
  20
 1869.9999999996
  30
0.0
  11
 750.00000000000
  21
 1319.9999999996
  31
0.0
  70
0
   3
GMM003
 100
AcDbAlignedDimension
  13
 1249.9999747112
  23
 769.99999999960
  33
0.0
  14
 950.00003994615
  24
 1869.9999999996
  34
0.0
  50
 90.000000000000
 100
AcDbRotatedDimension
   0
DIMENSION
   5
17A
 100
AcDbEntity
   8
LEVEL001
 370
13
   6
CONTINUOUS
  62
6
 100
AcDbDimension
   2
*D7
  10
 750.00000000000
  20
 4370.0000000074
  30
0.0
  11
 750.00000000000
  21
 3120.0000000035
  31
0.0
  70
0
   1
\A1;2500(標準設置高さ)
   3
GMM004
 100
AcDbAlignedDimension
  13
 950.00003994615
  23
 1869.9999999996
  33
0.0
  14
 1500.0000718874
  24
 4370.0000000074
  34
0.0
  50
 90.000000000000
 100
AcDbRotatedDimension
   0
LINE
   5
17B
 100
AcDbEntity
   8
LEVEL001
 370
13
 100
AcDbLine
   6
DASHDOT
  62
6
  10
 3217.2040058116
  20
 4870.0000000000
  30
0.0
  11
 2839.1351035274
  21
 4870.0000000000
  31
0.0
   0
LINE
   5
17C
 100
AcDbEntity
   8
LEVEL001
 370
13
 100
AcDbLine
   6
CONTINUOUS
  62
1
  10
 2942.1029454827
  20
 4864.9999984394
  30
0.0
  11
 2942.1029496441
  21
 4865.0000000000
  31
0.0
   0
ARC
   5
17D
 100
AcDbEntity
   8
LEVEL001
 370
13
   6
CONTINUOUS
  62
1
 100
AcDbCircle
  10
 2937.3040757346
  20
 4870.0000000000
  30
0.0
  40
 4.7988739094943
 100
AcDbArc
  50
 303.26696871547
  51
 56.733031284531
   0
LINE
   5
17E
 100
AcDbEntity
   8
LEVEL001
 370
13
 100
AcDbLine
   6
CONTINUOUS
  62
1
  10
 2939.9364542517
  20
 4874.0124523850
  30
0.0
  11
 2938.6944107187
  21
 4874.2553484154
  31
0.0
   0
LINE
   5
17F
 100
AcDbEntity
   8
LEVEL001
 370
13
 100
AcDbLine
   6
CONTINUOUS
  62
1
  10
 2939.9364542517
  20
 4865.9875476150
  30
0.0
  11
 2938.6944107187
  21
 4865.7446517546
  31
0.0
   0
LINE
   5
180
 100
AcDbEntity
   8
LEVEL001
 370
13
 100
AcDbLine
   6
CONTINUOUS
  62
1
  10
 2938.6944107187
  20
 4870.0000000000
  30
0.0
  11
 2939.9364542517
  21
 4870.0000000000
  31
0.0
   0
LWPOLYLINE
   5
181
 100
AcDbEntity
   8
LEVEL001
 370
13
   6
CONTINUOUS
  62
7
 100
AcDbPolyline
  90
4
  70
0
  10
 2938.6944107187
  20
 4815.0000000000
  10
 3025.3029922702
  20
 4815.0000000000
  10
 3025.3029922702
  20
 4925.0000000000
  10
 2938.6944107187
  20
 4925.0000000000
   0
ARC
   5
182
 100
AcDbEntity
   8
LEVEL001
 370
13
   6
CONTINUOUS
  62
1
 100
AcDbCircle
  10
 2923.6944107187
  20
 4370.0000000000
  30
0.0
  40
 7.5000000000000
 100
AcDbArc
  50
 180.00000000000
  51
0.0
   0
CIRCLE
   5
183
 100
AcDbEntity
   8
LEVEL001
 370
13
 100
AcDbCircle
   6
CONTINUOUS
  62
1
  10
 2923.6944107187
  20
 4475.9946674550
  30
0.0
  40
 7.5000000000000
   0
CIRCLE
   5
184
 100
AcDbEntity
   8
LEVEL001
 370
13
 100
AcDbCircle
   6
CONTINUOUS
  62
1
  10
 2923.6944107187
  20
 4749.0391219523
  30
0.0
  40
 7.5000000000000
   0
CIRCLE
   5
185
 100
AcDbEntity
   8
LEVEL001
 370
13
 100
AcDbCircle
   6
CONTINUOUS
  62
1
  10
 2923.6944107187
  20
 5084.2674587026
  30
0.0
  40
 7.5000000000000
   0
CIRCLE
   5
186
 100
AcDbEntity
   8
LEVEL001
 370
13
 100
AcDbCircle
   6
CONTINUOUS
  62
1
  10
 2923.6944107187
  20
 5258.3845326614
  30
0.0
  40
 7.5000000000000
   0
CIRCLE
   5
187
 100
AcDbEntity
   8
LEVEL001
 370
13
 100
AcDbCircle
   6
CONTINUOUS
  62
1
  10
 2923.6944107187
  20
 5359.7243939286
  30
0.0
  40
 7.5000000000000
   0
LWPOLYLINE
   5
188
 100
AcDbEntity
   8
LEVEL001
 370
13
   6
CONTINUOUS
  62
7
 100
AcDbPolyline
  90
4
  70
1
  10
 2993.3029922702
  20
 4893.0000000000
  10
 3007.3029922702
  20
 4893.0000000000
  10
 3007.3029922702
  20
 4907.0000000000
  10
 2993.3029922702
  20
 4907.0000000000
   0
LWPOLYLINE
   5
189
 100
AcDbEntity
   8
LEVEL001
 370
13
   6
CONTINUOUS
  62
7
 100
AcDbPolyline
  90
4
  70
1
  10
 2993.3029922702
  20
 4833.0000000000
  10
 3007.3029922702
  20
 4833.0000000000
  10
 3007.3029922702
  20
 4847.0000000000
  10
 2993.3029922702
  20
 4847.0000000000
   0
ARC
   5
18A
 100
AcDbEntity
   8
LEVEL001
 370
13
   6
CONTINUOUS
  62
7
 100
AcDbCircle
  10
 3049.4521149275
  20
 4865.5854138189
  30
0.0
  40
 8.0000000000000
 100
AcDbArc
  50
 325.00000000000
  51
 145.00000000000
   0
LINE
   5
18B
 100
AcDbEntity
   8
LEVEL001
 370
13
 100
AcDbLine
   6
CONTINUOUS
  62
6
  10
 3080.3029922702
  20
 4920.0000000000
  30
0.0
  11
 3080.3029922702
  21
 4820.0000000000
  31
0.0
   0
ARC
   5
18C
 100
AcDbEntity
   8
LEVEL001
 370
13
   6
CONTINUOUS
  62
7
 100
AcDbCircle
  10
 3000.3029922702
  20
 4900.0000000000
  30
0.0
  40
 52.000000000000
 100
AcDbArc
  50
 298.73565374490
  51
 324.99999999999
   0
ARC
   5
18D
 100
AcDbEntity
   8
LEVEL001
 370
13
   6
CONTINUOUS
  62
7
 100
AcDbCircle
  10
 3000.3029922702
  20
 4900.0000000000
  30
0.0
  40
 68.000000000000
 100
AcDbArc
  50
 291.57057830161
  51
 325.00000000000
   0
LWPOLYLINE
   5
18E
 100
AcDbEntity
   8
LEVEL001
 370
13
   6
CONTINUOUS
  62
7
 100
AcDbPolyline
  90
4
  70
1
  10
 3181.0000085199
  20
 4893.0000000000
  10
 3195.0000085199
  20
 4893.0000000000
  10
 3195.0000085199
  20
 4907.0000000000
  10
 3181.0000085199
  20
 4907.0000000000
   0
LWPOLYLINE
   5
18F
 100
AcDbEntity
   8
LEVEL001
 370
13
   6
CONTINUOUS
  62
7
 100
AcDbPolyline
  90
4
  70
1
  10
 3181.0000085199
  20
 4833.0000000000
  10
 3195.0000085199
  20
 4833.0000000000
  10
 3195.0000085199
  20
 4847.0000000000
  10
 3181.0000085199
  20
 4847.0000000000
   0
LINE
   5
190
 100
AcDbEntity
   8
LEVEL001
 370
13
 100
AcDbLine
   6
CONTINUOUS
  62
6
  10
 3167.5647253449
  20
 4820.0000000000
  30
0.0
  11
 3167.5647253449
  21
 4920.0000000000
  31
0.0
   0
LWPOLYLINE
   5
191
 100
AcDbEntity
   8
LEVEL001
 370
13
   6
CONTINUOUS
  62
7
 100
AcDbPolyline
  90
4
  70
0
  10
 3025.3029922702
  20
 4815.0000000000
  10
 3208.0000085199
  20
 4815.0000000000
  10
 3208.0000085199
  20
 4925.0000000000
  10
 3025.3029922702
  20
 4925.0000000000
   0
LINE
   5
192
 100
AcDbEntity
   8
LEVEL001
 370
13
 100
AcDbLine
   6
CONTINUOUS
  62
7
  10
 3080.4500000000
  20
 4815.0000000000
  30
0.0
  11
 3080.4500000000
  21
 3988.5000000004
  31
0.0
   0
LINE
   5
193
 100
AcDbEntity
   8
LEVEL001
 370
13
 100
AcDbLine
   6
CONTINUOUS
  62
7
  10
 3169.5500000000
  20
 3988.5000000004
  30
0.0
  11
 3169.5500000000
  21
 4815.0000000000
  31
0.0
   0
CIRCLE
   5
194
 100
AcDbEntity
   8
LEVEL001
 370
13
 100
AcDbCircle
   6
CONTINUOUS
  62
1
  10
 3375.0000000000
  20
 5369.9999999996
  30
0.0
  40
 69.999997913838
   0
MTEXT
   5
196
 100
AcDbEntity
   8
LEVEL001
 370
13
  62
7
 100
AcDbMText
  10
 3375.0000000000
  20
 5369.9999999996
  30
0.0
  40
 66.000000000000
  41
0.0
  71
5
  72
1
   1
\T1.000000;１２
   7
GMM004
  44
 0.79999984000003
   0
LEADER
   5
197
 100
AcDbEntity
   8
LEVEL001
 370
13
   6
CONTINUOUS
  62
1
 100
AcDbLeader
   3
GMM005
  73
3
  74
1
  75
0
  40
 66.000000000000
  41
0.0
  76
2
  10
 3208.0000085199
  20
 4925.0000000000
  30
0.0
  10
 3329.4670643414
  20
 5066.8327969676
  30
0.0
  77
1
   0
CIRCLE
   5
198
 100
AcDbEntity
   8
LEVEL001
 370
13
 100
AcDbCircle
   6
CONTINUOUS
  62
1
  10
 3062.5000000000
  20
 5369.9999999996
  30
0.0
  40
 69.999997913838
   0
CIRCLE
   5
199
 100
AcDbEntity
   8
LEVEL001
 370
13
 100
AcDbCircle
   6
CONTINUOUS
  62
1
  10
 3202.4999958277
  20
 5369.9999999996
  30
0.0
  40
 69.999997913838
   0
MTEXT
   5
19B
 100
AcDbEntity
   8
LEVEL001
 370
13
  62
7
 100
AcDbMText
  10
 3062.5000000000
  20
 5369.9999999996
  30
0.0
  40
 66.000000000000
  41
0.0
  71
5
  72
1
   1
\T1.000000;６
   7
GMM004
  44
 0.79999984000003
   0
MTEXT
   5
19D
 100
AcDbEntity
   8
LEVEL001
 370
13
  62
7
 100
AcDbMText
  10
 3202.4999958277
  20
 5369.9999999996
  30
0.0
  40
 66.000000000000
  41
0.0
  71
5
  72
1
   1
\T1.000000;８
   7
GMM004
  44
 0.79999984000003
   0
CIRCLE
   5
19E
 100
AcDbEntity
   8
LEVEL001
 370
13
 100
AcDbCircle
   6
CONTINUOUS
  62
1
  10
 3375.0000000000
  20
 5119.9999999996
  30
0.0
  40
 69.999997913838
   0
CIRCLE
   5
19F
 100
AcDbEntity
   8
LEVEL001
 370
13
 100
AcDbCircle
   6
CONTINUOUS
  62
1
  10
 3514.9999958277
  20
 5119.9999999996
  30
0.0
  40
 69.999997913838
   0
MTEXT
   5
1A1
 100
AcDbEntity
   8
LEVEL001
 370
13
  62
7
 100
AcDbMText
  10
 3375.0000000000
  20
 5119.9999999996
  30
0.0
  40
 66.000000000000
  41
0.0
  71
5
  72
1
   1
\T1.000000;７
   7
GMM004
  44
 0.79999984000003
   0
MTEXT
   5
1A3
 100
AcDbEntity
   8
LEVEL001
 370
13
  62
7
 100
AcDbMText
  10
 3514.9999958277
  20
 5119.9999999996
  30
0.0
  40
 66.000000000000
  41
0.0
  71
5
  72
1
   1
\T1.000000;９
   7
GMM004
  44
 0.79999984000003
   0
LEADER
   5
1A4
 100
AcDbEntity
   8
LEVEL001
 370
13
   6
CONTINUOUS
  62
1
 100
AcDbLeader
   3
GMM002
  73
3
  74
1
  75
0
  40
 66.000000000000
  41
0.0
  76
2
  10
 3000.0000000000
  20
 4925.0000000000
  30
0.0
  10
 3052.7640961197
  20
 5300.6803643718
  30
0.0
  77
1
   0
CIRCLE
   5
1A5
 100
AcDbEntity
   8
LEVEL001
 370
13
 100
AcDbCircle
   6
CONTINUOUS
  62
1
  10
 2375.0000000000
  20
 5369.9999999996
  30
0.0
  40
 69.999997913838
   0
MTEXT
   5
1A7
 100
AcDbEntity
   8
LEVEL001
 370
13
  62
7
 100
AcDbMText
  10
 2375.0000000000
  20
 5369.9999999996
  30
0.0
  40
 66.000000000000
  41
0.0
  71
5
  72
1
   1
\T1.000000;３
   7
GMM004
  44
 0.79999984000003
   0
CIRCLE
   5
1A8
 100
AcDbEntity
   8
LEVEL001
 370
13
 100
AcDbCircle
   6
CONTINUOUS
  62
1
  10
 2375.0000000000
  20
 4619.9999999996
  30
0.0
  40
 69.999997913838
   0
MTEXT
   5
1AA
 100
AcDbEntity
   8
LEVEL001
 370
13
  62
7
 100
AcDbMText
  10
 2375.0000000000
  20
 4619.9999999996
  30
0.0
  40
 66.000000000000
  41
0.0
  71
5
  72
1
   1
\T1.000000;１
   7
GMM004
  44
 0.79999984000003
   0
LEADER
   5
1AB
 100
AcDbEntity
   8
LEVEL001
 370
13
   6
CONTINUOUS
  62
1
 100
AcDbLeader
   3
GMM002
  73
3
  74
1
  75
0
  40
 66.000000000000
  41
0.0
  76
2
  10
 1750.0000000000
  20
 4744.9999999996
  30
0.0
  10
 2305.9935580793
  20
 4631.7520500923
  30
0.0
  77
1
   0
LEADER
   5
1AC
 100
AcDbEntity
   8
LEVEL001
 370
13
   6
CONTINUOUS
  62
1
 100
AcDbLeader
   3
GMM002
  73
3
  74
1
  75
0
  40
 66.000000000000
  41
0.0
  76
2
  10
 2864.9974957757
  20
 4744.9999999996
  30
0.0
  10
 2442.8099545109
  20
 4637.3726732876
  30
0.0
  77
1
   0
LEADER
   5
1AD
 100
AcDbEntity
   8
LEVEL001
 370
13
   6
CONTINUOUS
  62
1
 100
AcDbLeader
   3
GMM002
  73
3
  74
1
  75
0
  40
 66.000000000000
  41
0.0
  76
2
  10
 1899.2402159104
  20
 5182.4999999996
  30
0.0
  10
 2309.7962249667
  20
 5344.5349763525
  30
0.0
  77
1
   0
LWPOLYLINE
   5
1AE
 100
AcDbEntity
   8
LEVEL001
 370
13
   6
CONTINUOUS
  62
3
 100
AcDbPolyline
  90
5
  70
1
  10
 2938.6944107187
  20
 5017.2822462541
  10
 2903.6944107187
  20
 5017.2822462541
  10
 2858.6944107187
  20
 5152.6366274560
  10
 2858.6944107187
  20
 5370.0000000000
  10
 2938.6944107187
  20
 5370.0000000000
   0
ARC
   5
1AF
 100
AcDbEntity
   8
LEVEL001
 370
13
   6
DOT
  62
2
 100
AcDbCircle
  10
 5899.7801337629
  20
 4870.0000000000
  30
0.0
  40
 3037.3558665110
 100
AcDbArc
  50
 170.54414598144
  51
 175.42443917237
   0
LWPOLYLINE
   5
1B0
 100
AcDbEntity
   8
LEVEL001
 370
13
   6
CONTINUOUS
  62
7
 100
AcDbPolyline
  90
4
  70
0
  10
 2903.6944107187
  20
 5017.2822462541
  10
 2903.6944107187
  20
 4370.0000000000
  10
 2938.6944107187
  20
 4370.0000000000
  10
 2938.6944107187
  20
 5033.0001069538
   0
LWPOLYLINE
   5
1B1
 100
AcDbEntity
   8
LEVEL001
 370
13
   6
DOT
  62
2
 100
AcDbPolyline
  90
4
  70
0
  10
 2938.6944107187
  20
 5033.0001069538
  10
 2938.6944107187
  20
 5370.0000000000
  10
 2903.6944107187
  20
 5370.0000000000
  10
 2903.6944107187
  20
 5017.2822462541
   0
ARC
   5
1B2
 100
AcDbEntity
   8
LEVEL001
 370
13
   6
CONTINUOUS
  62
7
 100
AcDbCircle
  10
 5899.7801337629
  20
 4870.0000000000
  30
0.0
  40
 3037.3558665110
 100
AcDbArc
  50
 175.42443917237
  51
 189.45585401856
   0
LEADER
   5
1B3
 100
AcDbEntity
   8
LEVEL001
 370
13
   6
CONTINUOUS
  62
1
 100
AcDbLeader
   3
GMM002
  73
3
  74
1
  75
0
  40
 66.000000000000
  41
0.0
  76
2
  10
 2858.6944107187
  20
 5182.4999999996
  30
0.0
  10
 2439.7272333164
  20
 5343.3469518599
  30
0.0
  77
1
   0
LWPOLYLINE
   5
1B4
 100
AcDbEntity
   8
LEVEL001
 370
13
   6
CONTINUOUS
  62
7
 100
AcDbPolyline
  90
4
  70
0
  10
 3169.5500000000
  20
 4925.0000000000
  10
 3169.5500000000
  20
 5169.9999999996
  10
 3080.4500000000
  20
 5169.9999999996
  10
 3080.4500000000
  20
 4925.0000000000
   0
LEADER
   5
1B5
 100
AcDbEntity
   8
LEVEL001
 370
13
   6
CONTINUOUS
  62
1
 100
AcDbLeader
   3
GMM002
  73
3
  74
1
  75
0
  40
 66.000000000000
  41
0.0
  76
2
  10
 3125.0000000000
  20
 5173.9999999996
  30
0.0
  10
 3321.2167946231
  20
 5325.1963558697
  30
0.0
  77
1
   0
ARC
   5
1B6
 100
AcDbEntity
   8
LEVEL001
 370
13
   6
CONTINUOUS
  62
7
 100
AcDbCircle
  10
 1555.0000000002
  20
 4149.9999999996
  30
0.0
  40
 20.000000000000
 100
AcDbArc
  50
0.0
  51
 90.000000000000
   0
LINE
   5
1B7
 100
AcDbEntity
   8
LEVEL001
 370
13
 100
AcDbLine
   6
CONTINUOUS
  62
7
  10
 1575.0000000002
  20
 3789.9999999996
  30
0.0
  11
 1575.0000000002
  21
 4149.9999999996
  31
0.0
   0
LINE
   5
1B8
 100
AcDbEntity
   8
LEVEL001
 370
13
 100
AcDbLine
   6
CONTINUOUS
  62
7
  10
 1555.0000000002
  20
 4169.9999999996
  30
0.0
  11
 1445.0000000002
  21
 4169.9999999996
  31
0.0
   0
ARC
   5
1B9
 100
AcDbEntity
   8
LEVEL001
 370
13
   6
CONTINUOUS
  62
7
 100
AcDbCircle
  10
 1445.0000000002
  20
 4149.9999999996
  30
0.0
  40
 20.000000000000
 100
AcDbArc
  50
 90.000000000000
  51
 180.00000000000
   0
LINE
   5
1BA
 100
AcDbEntity
   8
LEVEL001
 370
13
 100
AcDbLine
   6
CONTINUOUS
  62
7
  10
 1425.0000000002
  20
 4149.9999999996
  30
0.0
  11
 1425.0000000002
  21
 3789.9999999996
  31
0.0
   0
ARC
   5
1BB
 100
AcDbEntity
   8
LEVEL001
 370
13
   6
CONTINUOUS
  62
7
 100
AcDbCircle
  10
 1445.0000000002
  20
 3789.9999999996
  30
0.0
  40
 20.000000000000
 100
AcDbArc
  50
 180.00000000000
  51
 270.00000000000
   0
LWPOLYLINE
   5
1BC
 100
AcDbEntity
   8
LEVEL001
 370
13
   6
CONTINUOUS
  62
5
 100
AcDbPolyline
  90
7
  70
1
  10
 1500.0000000002
  20
 4129.9999999996
  10
 1463.7000010820
  20
 4083.8000013765
  10
 1483.5000004919
  20
 4083.8000013765
  10
 1483.5000004919
  20
 4064.0000019665
  10
 1516.4999995084
  20
 4064.0000019665
  10
 1516.4999995084
  20
 4083.8000013765
  10
 1536.2999989183
  20
 4083.8000013765
   0
ARC
   5
1BD
 100
AcDbEntity
   8
LEVEL001
 370
13
   6
CONTINUOUS
  62
7
 100
AcDbCircle
  10
 1555.0000000002
  20
 3789.9999999996
  30
0.0
  40
 20.000000000000
 100
AcDbArc
  50
 270.00000000000
  51
 360.00000000000
   0
LINE
   5
1BE
 100
AcDbEntity
   8
LEVEL001
 370
13
 100
AcDbLine
   6
CONTINUOUS
  62
7
  10
 1445.0000000002
  20
 3769.9999999996
  30
0.0
  11
 1555.0000000002
  21
 3769.9999999996
  31
0.0
   0
LWPOLYLINE
   5
1BF
 100
AcDbEntity
   8
LEVEL001
 370
13
   6
CONTINUOUS
  62
7
 100
AcDbPolyline
  90
4
  70
0
  10
 1455.4500000000
  20
 3769.9999999996
  10
 1455.4500000000
  20
 769.99999999960
  10
 1544.5500000000
  20
 769.99999999960
  10
 1544.5500000000
  20
 3769.9999999996
   0
CIRCLE
   5
1C0
 100
AcDbEntity
   8
LEVEL001
 370
13
 100
AcDbCircle
   6
CONTINUOUS
  62
1
  10
 1875.0000000000
  20
 4119.9999999996
  30
0.0
  40
 69.999997913838
   0
MTEXT
   5
1C2
 100
AcDbEntity
   8
LEVEL001
 370
13
  62
7
 100
AcDbMText
  10
 1875.0000000000
  20
 4119.9999999996
  30
0.0
  40
 66.000000000000
  41
0.0
  71
5
  72
1
   1
\T1.000000;４
   7
GMM004
  44
 0.79999984000003
   0
CIRCLE
   5
1C3
 100
AcDbEntity
   8
LEVEL001
 370
13
 100
AcDbCircle
   6
CONTINUOUS
  62
1
  10
 1250.0000000000
  20
 4119.9999999996
  30
0.0
  40
 69.999997913838
   0
MTEXT
   5
1C5
 100
AcDbEntity
   8
LEVEL001
 370
13
  62
7
 100
AcDbMText
  10
 1250.0000000000
  20
 4119.9999999996
  30
0.0
  40
 66.000000000000
  41
0.0
  71
5
  72
1
   1
\T1.000000;５
   7
GMM004
  44
 0.79999984000003
   0
CIRCLE
   5
1C6
 100
AcDbEntity
   8
LEVEL001
 370
13
 100
AcDbCircle
   6
CONTINUOUS
  62
1
  10
 1750.0000000000
  20
 3844.9999999996
  30
0.0
  40
 69.999997913838
   0
MTEXT
   5
1C8
 100
AcDbEntity
   8
LEVEL001
 370
13
  62
7
 100
AcDbMText
  10
 1750.0000000000
  20
 3844.9999999996
  30
0.0
  40
 66.000000000000
  41
0.0
  71
5
  72
1
   1
\T1.000000;１３
   7
GMM004
  44
 0.79999984000003
   0
LEADER
   5
1C9
 100
AcDbEntity
   8
LEVEL001
 370
13
   6
CONTINUOUS
  62
1
 100
AcDbLeader
   3
GMM002
  73
3
  74
1
  75
0
  40
 66.000000000000
  41
0.0
  76
2
  10
 1575.0000000002
  20
 3969.9999999996
  30
0.0
  10
 1693.0386587131
  20
 3885.6866723474
  30
0.0
  77
1
   0
ARC
   5
1CA
 100
AcDbEntity
   8
LEVEL001
 370
13
   6
CONTINUOUS
  62
7
 100
AcDbCircle
  10
 3069.9488080880
  20
 3778.6417202902
  30
0.0
  40
 5.0000000000000
 100
AcDbArc
  50
 180.00000000001
  51
 201.80140948637
   0
LINE
   5
1CB
 100
AcDbEntity
   8
LEVEL001
 370
13
 100
AcDbLine
   6
CONTINUOUS
  62
7
  10
 3068.0203313971
  20
 3769.9999999996
  30
0.0
  11
 3065.3064246335
  21
 3776.7847669084
  31
0.0
   0
ARC
   5
1CC
 100
AcDbEntity
   8
LEVEL001
 370
13
   6
CONTINUOUS
  62
7
 100
AcDbCircle
  10
 3063.9488080880
  20
 3785.8476464587
  30
0.0
  40
 5.0000000000000
 100
AcDbArc
  50
 338.19859051367
  51
 0.26055103950549E-10
   0
LINE
   5
1CD
 100
AcDbEntity
   8
LEVEL001
 370
13
 100
AcDbLine
   6
CONTINUOUS
  62
7
  10
 3066.7889206877
  20
 3779.4850159402
  30
0.0
  11
 3068.5911915424
  21
 3783.9906930769
  31
0.0
   0
ARC
   5
1CE
 100
AcDbEntity
   8
LEVEL001
 370
13
   6
CONTINUOUS
  62
7
 100
AcDbCircle
  10
 3071.4313041421
  20
 3777.6280625584
  30
0.0
  40
 5.0000000000000
 100
AcDbArc
  50
 158.19859051364
  51
 201.80140948636
   0
LWPOLYLINE
   5
1CF
 100
AcDbEntity
   8
LEVEL001
 370
13
   6
CONTINUOUS
  62
7
 100
AcDbPolyline
  90
3
  70
0
  10
 3068.0203313971
  20
 3769.9999999996
  10
 3068.9488080880
  20
 3770.3713906760
  10
 3066.7889206877
  20
 3775.7711091766
   0
LINE
   5
1D0
 100
AcDbEntity
   8
LEVEL001
 370
13
 100
AcDbLine
   6
CONTINUOUS
  62
7
  10
 3068.0203313971
  20
 4170.0000000012
  30
0.0
  11
 3065.3064246335
  21
 4163.2152330924
  31
0.0
   0
ARC
   5
1D1
 100
AcDbEntity
   8
LEVEL001
 370
13
   6
CONTINUOUS
  62
7
 100
AcDbCircle
  10
 3069.9488080880
  20
 4161.3582797106
  30
0.0
  40
 5.0000000000000
 100
AcDbArc
  50
 158.19859051363
  51
 179.99999999999
   0
ARC
   5
1D2
 100
AcDbEntity
   8
LEVEL001
 370
13
   6
CONTINUOUS
  62
7
 100
AcDbCircle
  10
 3063.9488080880
  20
 4154.1523535421
  30
0.0
  40
 5.0000000000000
 100
AcDbArc
  50
 359.99999999997
  51
 21.801409486323
   0
LINE
   5
1D3
 100
AcDbEntity
   8
LEVEL001
 370
13
 100
AcDbLine
   6
CONTINUOUS
  62
7
  10
 3066.7889206877
  20
 4160.5149840606
  30
0.0
  11
 3068.5911915424
  21
 4156.0093069239
  31
0.0
   0
ARC
   5
1D4
 100
AcDbEntity
   8
LEVEL001
 370
13
   6
CONTINUOUS
  62
7
 100
AcDbCircle
  10
 3071.4313041421
  20
 4162.3719374424
  30
0.0
  40
 5.0000000000000
 100
AcDbArc
  50
 158.19859051366
  51
 201.80140948634
   0
LWPOLYLINE
   5
1D5
 100
AcDbEntity
   8
LEVEL001
 370
13
   6
CONTINUOUS
  62
7
 100
AcDbPolyline
  90
3
  70
0
  10
 3068.0203313971
  20
 4170.0000000012
  10
 3068.9488080880
  20
 4169.6286093249
  10
 3066.7889206877
  20
 4164.2288908242
   0
LINE
   5
1D6
 100
AcDbEntity
   8
LEVEL001
 370
13
 100
AcDbLine
   6
CONTINUOUS
  62
7
  10
 3064.9488080880
  20
 4161.3582797106
  30
0.0
  11
 3064.9488080880
  21
 3778.6417202902
  31
0.0
   0
LINE
   5
1D7
 100
AcDbEntity
   8
LEVEL001
 370
13
 100
AcDbLine
   6
CONTINUOUS
  62
7
  10
 3068.9488080880
  20
 4154.1523535421
  30
0.0
  11
 3068.9488080880
  21
 3785.8476464587
  31
0.0
   0
LINE
   5
1D8
 100
AcDbEntity
   8
LEVEL001
 370
13
 100
AcDbLine
   6
CONTINUOUS
  62
6
  10
 3071.9488080880
  20
 4005.0000607586
  30
0.0
  11
 3071.9488080880
  21
 4005.9999997195
  31
0.0
   0
LINE
   5
1D9
 100
AcDbEntity
   8
LEVEL001
 370
13
 100
AcDbLine
   6
CONTINUOUS
  62
7
  10
 3072.4042868670
  20
 3990.9996335671
  30
0.0
  11
 3072.4047446310
  21
 3948.9997252837
  31
0.0
   0
LINE
   5
1DA
 100
AcDbEntity
   8
LEVEL001
 370
13
 100
AcDbLine
   6
CONTINUOUS
  62
7
  10
 3071.9488080880
  20
 4005.9999997195
  30
0.0
  11
 3068.9488080880
  21
 4005.9999997195
  31
0.0
   0
LINE
   5
1DB
 100
AcDbEntity
   8
LEVEL001
 370
13
 100
AcDbLine
   6
CONTINUOUS
  62
6
  10
 3068.9488080880
  20
 4005.0000607586
  30
0.0
  11
 3071.9488080880
  21
 4005.0000607586
  31
0.0
   0
LWPOLYLINE
   5
1DC
 100
AcDbEntity
   8
LEVEL001
 370
13
   6
CONTINUOUS
  62
6
 100
AcDbPolyline
  90
3
  70
0
  10
 3071.9488080880
  20
 3934.0000000004
  10
 3071.9488080880
  20
 3935.0000305141
  10
 3068.9488080880
  20
 3935.0000305141
   0
ELLIPSE
   5
1DD
 100
AcDbEntity
   8
LEVEL001
 370
13
   6
CONTINUOUS
  62
7
 100
AcDbEllipse
  10
 3068.4047420798
  20
 3948.9997864362
  30
0.0
  11
 4.0000025516047
  21
0.0
  31
0.0
  40
 0.99999938800000
  41
-1.4343569865528
  42
-0.15288126465474E-4
   0
LINE
   5
1DE
 100
AcDbEntity
   8
LEVEL001
 370
13
 100
AcDbLine
   6
CONTINUOUS
  62
7
  10
 3068.9488080880
  20
 3934.0000000004
  30
0.0
  11
 3071.9488080880
  21
 3934.0000000004
  31
0.0
   0
ELLIPSE
   5
1DF
 100
AcDbEntity
   8
LEVEL001
 370
13
   6
CONTINUOUS
  62
7
 100
AcDbEllipse
  10
 3068.4042843173
  20
 3990.9997555183
  30
0.0
  11
 4.0000025516047
  21
0.0
  31
0.0
  40
 0.99999938800000
  41
-0.30487804121538E-4
  42
 1.4342414715499
   0
LINE
   5
1E0
 100
AcDbEntity
   8
LEVEL001
 370
13
 100
AcDbLine
   6
CONTINUOUS
  62
6
  10
 3168.7768090875
  20
 3953.5000000004
  30
0.0
  11
 3168.7768090875
  21
 3962.5000000004
  31
0.0
   0
LINE
   5
1E1
 100
AcDbEntity
   8
LEVEL001
 370
13
 100
AcDbLine
   6
CONTINUOUS
  62
6
  10
 3168.7768090875
  20
 3977.5000000004
  30
0.0
  11
 3168.7768090875
  21
 3986.5000000004
  31
0.0
   0
LINE
   5
1E2
 100
AcDbEntity
   8
LEVEL001
 370
13
 100
AcDbLine
   6
CONTINUOUS
  62
6
  10
 3171.0953341289
  20
 3963.5000000004
  30
0.0
  11
 3171.0953341289
  21
 3976.5000000004
  31
0.0
   0
LINE
   5
1E3
 100
AcDbEntity
   8
LEVEL001
 370
13
 100
AcDbLine
   6
CONTINUOUS
  62
6
  10
 3081.4351206427
  20
 3964.5000000004
  30
0.0
  11
 3081.4351206427
  21
 3975.5000000004
  31
0.0
   0
LINE
   5
1E4
 100
AcDbEntity
   8
LEVEL001
 370
13
 100
AcDbLine
   6
CONTINUOUS
  62
6
  10
 3081.4351206427
  20
 3977.5000000004
  30
0.0
  11
 3081.4351206427
  21
 3986.5000000004
  31
0.0
   0
LINE
   5
1E5
 100
AcDbEntity
   8
LEVEL001
 370
13
 100
AcDbLine
   6
CONTINUOUS
  62
6
  10
 3081.4351206427
  20
 3953.5000000004
  30
0.0
  11
 3081.4351206427
  21
 3962.5000000004
  31
0.0
   0
LINE
   5
1E6
 100
AcDbEntity
   8
LEVEL001
 370
13
 100
AcDbLine
   6
CONTINUOUS
  62
6
  10
 3168.7768090875
  20
 3976.5000000004
  30
0.0
  11
 3082.6960152123
  21
 3976.5000000004
  31
0.0
   0
LINE
   5
1E7
 100
AcDbEntity
   8
LEVEL001
 370
13
 100
AcDbLine
   6
CONTINUOUS
  62
6
  10
 3082.6960152123
  20
 3963.5000000004
  30
0.0
  11
 3168.7768090875
  21
 3963.5000000004
  31
0.0
   0
LWPOLYLINE
   5
1E8
 100
AcDbEntity
   8
LEVEL001
 370
13
   6
CONTINUOUS
  62
7
 100
AcDbPolyline
  90
4
  70
0
  10
 3072.4047173801
  20
 3951.5000000004
  10
 3189.9488080880
  20
 3951.5000000004
  10
 3189.9488080880
  20
 3988.5000000004
  10
 3072.4043141110
  20
 3988.5000000004
   0
LWPOLYLINE
   5
1E9
 100
AcDbEntity
   8
LEVEL001
 370
13
   6
CONTINUOUS
  62
7
 100
AcDbPolyline
  90
4
  70
1
  10
 3174.9488080880
  20
 3965.0000000004
  10
 3184.9488080880
  20
 3965.0000000004
  10
 3184.9488080880
  20
 3975.0000000004
  10
 3174.9488080880
  20
 3975.0000000004
   0
LWPOLYLINE
   5
1EA
 100
AcDbEntity
   8
LEVEL001
 370
13
   6
CONTINUOUS
  62
7
 100
AcDbPolyline
  90
4
  70
0
  10
 3080.4500000000
  20
 3951.5000000004
  10
 3080.4500000000
  20
 769.99999999960
  10
 3169.5500000000
  20
 769.99999999960
  10
 3169.5500000000
  20
 3951.5000000004
   0
CIRCLE
   5
1EB
 100
AcDbEntity
   8
LEVEL001
 370
13
 100
AcDbCircle
   6
CONTINUOUS
  62
1
  10
 3375.0000000000
  20
 4119.9999999996
  30
0.0
  40
 69.999997913838
   0
CIRCLE
   5
1EC
 100
AcDbEntity
   8
LEVEL001
 370
13
 100
AcDbCircle
   6
CONTINUOUS
  62
1
  10
 3514.9999958277
  20
 4119.9999999996
  30
0.0
  40
 69.999997913838
   0
MTEXT
   5
1EE
 100
AcDbEntity
   8
LEVEL001
 370
13
  62
7
 100
AcDbMText
  10
 3375.0000000000
  20
 4119.9999999996
  30
0.0
  40
 66.000000000000
  41
0.0
  71
5
  72
1
   1
\T1.000000;１４
   7
GMM004
  44
 0.79999984000003
   0
MTEXT
   5
1F0
 100
AcDbEntity
   8
LEVEL001
 370
13
  62
7
 100
AcDbMText
  10
 3514.9999958277
  20
 4119.9999999996
  30
0.0
  40
 66.000000000000
  41
0.0
  71
5
  72
1
   1
\T1.000000;１５
   7
GMM004
  44
 0.79999984000003
   0
LEADER
   5
1F1
 100
AcDbEntity
   8
LEVEL001
 370
13
   6
CONTINUOUS
  62
1
 100
AcDbLeader
   3
GMM002
  73
3
  74
1
  75
0
  40
 66.000000000000
  41
0.0
  76
2
  10
 3189.9488080880
  20
 3988.5000000004
  30
0.0
  10
 3317.9397402652
  20
 4079.4521706257
  30
0.0
  77
1
   0
MTEXT
   5
1F2
 100
AcDbEntity
   8
LEVEL001
 370
13
  62
1
 100
AcDbMText
  10
 1448.8125000002
  20
 3923.2499999996
  30
0.0
  40
 80.000000000000
  41
0.0
  71
4
  72
1
   1
{\T1.000000;注}\P{\T1.000000;意}
   7
GMM005
  44
 0.79999984000003
   0
LWPOLYLINE
   5
1F3
 100
AcDbEntity
   8
LEVEL001
 370
13
   6
CONTINUOUS
  62
7
 100
AcDbPolyline
  90
4
  70
0
  10
 1455.4499747112
  20
 1177.4999999996
  10
 1383.5999566255
  20
 1177.4999999996
  10
 1383.5999566255
  20
 1162.4999999996
  10
 1455.4499747112
  20
 1162.4999999996
   0
LWPOLYLINE
   5
1F4
 100
AcDbEntity
   8
LEVEL001
 370
13
   6
CONTINUOUS
  62
7
 100
AcDbPolyline
  90
4
  70
0
  10
 1544.5499747112
  20
 1177.4999999996
  10
 1616.3999566255
  20
 1177.4999999996
  10
 1616.3999566255
  20
 1162.4999999996
  10
 1544.5499747112
  20
 1162.4999999996
   0
LINE
   5
1F5
 100
AcDbEntity
   8
LEVEL001
 370
13
 100
AcDbLine
   6
CONTINUOUS
  62
5
  10
 1399.9999747112
  20
 769.99999999960
  30
0.0
  11
 1349.9999747112
  21
 669.99999999960
  31
0.0
   0
LINE
   5
1F6
 100
AcDbEntity
   8
LEVEL001
 370
13
 100
AcDbLine
   6
CONTINUOUS
  62
5
  10
 1349.9999747112
  20
 769.99999999960
  30
0.0
  11
 1389.9999747112
  21
 749.99999999960
  31
0.0
   0
LINE
   5
1F7
 100
AcDbEntity
   8
LEVEL001
 370
13
 100
AcDbLine
   6
CONTINUOUS
  62
5
  10
 1349.9999747112
  20
 769.99999999960
  30
0.0
  11
 1299.9999747112
  21
 669.99999999960
  31
0.0
   0
LINE
   5
1F8
 100
AcDbEntity
   8
LEVEL001
 370
13
 100
AcDbLine
   6
CONTINUOUS
  62
5
  10
 1299.9999747112
  20
 769.99999999960
  30
0.0
  11
 1339.9999747112
  21
 749.99999999960
  31
0.0
   0
LINE
   5
1F9
 100
AcDbEntity
   8
LEVEL001
 370
13
 100
AcDbLine
   6
CONTINUOUS
  62
5
  10
 1299.9999747112
  20
 769.99999999960
  30
0.0
  11
 1249.9999747112
  21
 669.99999999960
  31
0.0
   0
LINE
   5
1FA
 100
AcDbEntity
   8
LEVEL001
 370
13
 100
AcDbLine
   6
CONTINUOUS
  62
5
  10
 1249.9999747112
  20
 769.99999999960
  30
0.0
  11
 1289.9999747112
  21
 749.99999999960
  31
0.0
   0
LINE
   5
1FB
 100
AcDbEntity
   8
LEVEL001
 370
13
 100
AcDbLine
   6
CONTINUOUS
  62
5
  10
 1399.9999747112
  20
 669.99999999960
  30
0.0
  11
 1359.9999747112
  21
 689.99999999960
  31
0.0
   0
LINE
   5
1FC
 100
AcDbEntity
   8
LEVEL001
 370
13
 100
AcDbLine
   6
CONTINUOUS
  62
5
  10
 1349.9999747112
  20
 669.99999999960
  30
0.0
  11
 1309.9999747112
  21
 689.99999999960
  31
0.0
   0
LINE
   5
1FD
 100
AcDbEntity
   8
LEVEL001
 370
13
 100
AcDbLine
   6
CONTINUOUS
  62
5
  10
 1299.9999747112
  20
 669.99999999960
  30
0.0
  11
 1259.9999747112
  21
 689.99999999960
  31
0.0
   0
LINE
   5
1FE
 100
AcDbEntity
   8
LEVEL001
 370
13
 100
AcDbLine
   6
CONTINUOUS
  62
5
  10
 1749.9999747112
  20
 769.99999999960
  30
0.0
  11
 1699.9999747112
  21
 669.99999999960
  31
0.0
   0
LINE
   5
1FF
 100
AcDbEntity
   8
LEVEL001
 370
13
 100
AcDbLine
   6
CONTINUOUS
  62
5
  10
 1699.9999747112
  20
 769.99999999960
  30
0.0
  11
 1739.9999747112
  21
 749.99999999960
  31
0.0
   0
LINE
   5
200
 100
AcDbEntity
   8
LEVEL001
 370
13
 100
AcDbLine
   6
CONTINUOUS
  62
5
  10
 1699.9999747112
  20
 769.99999999960
  30
0.0
  11
 1649.9999747112
  21
 669.99999999960
  31
0.0
   0
LINE
   5
201
 100
AcDbEntity
   8
LEVEL001
 370
13
 100
AcDbLine
   6
CONTINUOUS
  62
5
  10
 1649.9999747112
  20
 769.99999999960
  30
0.0
  11
 1689.9999747112
  21
 749.99999999960
  31
0.0
   0
LINE
   5
202
 100
AcDbEntity
   8
LEVEL001
 370
13
 100
AcDbLine
   6
CONTINUOUS
  62
5
  10
 1649.9999747112
  20
 769.99999999960
  30
0.0
  11
 1599.9999747112
  21
 669.99999999960
  31
0.0
   0
LINE
   5
203
 100
AcDbEntity
   8
LEVEL001
 370
13
 100
AcDbLine
   6
CONTINUOUS
  62
5
  10
 1599.9999747112
  20
 769.99999999960
  30
0.0
  11
 1639.9999747112
  21
 749.99999999960
  31
0.0
   0
LINE
   5
204
 100
AcDbEntity
   8
LEVEL001
 370
13
 100
AcDbLine
   6
CONTINUOUS
  62
5
  10
 1749.9999747112
  20
 669.99999999960
  30
0.0
  11
 1709.9999747112
  21
 689.99999999960
  31
0.0
   0
LINE
   5
205
 100
AcDbEntity
   8
LEVEL001
 370
13
 100
AcDbLine
   6
CONTINUOUS
  62
5
  10
 1699.9999747112
  20
 669.99999999960
  30
0.0
  11
 1659.9999747112
  21
 689.99999999960
  31
0.0
   0
LINE
   5
206
 100
AcDbEntity
   8
LEVEL001
 370
13
 100
AcDbLine
   6
CONTINUOUS
  62
5
  10
 1649.9999747112
  20
 669.99999999960
  30
0.0
  11
 1609.9999747112
  21
 689.99999999960
  31
0.0
   0
LWPOLYLINE
   5
207
 100
AcDbEntity
   8
LEVEL001
 370
13
   6
CONTINUOUS
  62
5
 100
AcDbPolyline
  90
4
  70
1
  10
 1749.9999747112
  20
 769.99999999960
  10
 1249.9999747112
  20
 769.99999999960
  10
 1249.9999747112
  20
 669.99999999960
  10
 1749.9999747112
  20
 669.99999999960
   0
CIRCLE
   5
208
 100
AcDbEntity
   8
LEVEL001
 370
13
 100
AcDbCircle
   6
CONTINUOUS
  62
7
  10
 1499.9999661979
  20
 1069.9999999996
  30
0.0
  40
 7.5000000000000
   0
LINE
   5
209
 100
AcDbEntity
   8
LEVEL001
 370
13
 100
AcDbLine
   6
DASHDOT
  62
6
  10
 1469.9999661979
  20
 1069.9999999996
  30
0.0
  11
 1529.9999661979
  21
 1069.9999999996
  31
0.0
   0
LINE
   5
20A
 100
AcDbEntity
   8
LEVEL001
 370
13
 100
AcDbLine
   6
DASHDOT
  62
6
  10
 1433.5999819144
  20
 1169.9999999996
  30
0.0
  11
 1566.3999819144
  21
 1169.9999999996
  31
0.0
   0
DIMENSION
   5
20B
 100
AcDbEntity
   8
LEVEL001
 370
13
   6
CONTINUOUS
  62
6
 100
AcDbDimension
   2
*D17
  10
 1749.9999747112
  20
 469.99999999960
  30
0.0
  11
 1499.9999747112
  21
 469.99999999960
  31
0.0
  70
0
   3
GMM006
 100
AcDbAlignedDimension
  13
 1249.9999747112
  23
 669.99999999960
  33
0.0
  14
 1749.9999747112
  24
 669.99999999960
  34
0.0
 100
AcDbRotatedDimension
   0
LINE
   5
20C
 100
AcDbEntity
   8
LEVEL001
 370
13
 100
AcDbLine
   6
CONTINUOUS
  62
5
  10
 1749.9999747112
  20
 1655.3553137701
  30
0.0
  11
 1544.5500000000
  21
 1449.9053390590
  31
0.0
   0
LINE
   5
20D
 100
AcDbEntity
   8
LEVEL001
 370
13
 100
AcDbLine
   6
CONTINUOUS
  62
5
  10
 1455.4500000000
  20
 1360.8053390590
  30
0.0
  11
 1249.9999747112
  21
 1155.3553137701
  31
0.0
   0
LINE
   5
20E
 100
AcDbEntity
   8
LEVEL001
 370
13
 100
AcDbLine
   6
CONTINUOUS
  62
5
  10
 1544.5500000000
  20
 1414.5499999996
  30
0.0
  11
 1749.9999747112
  21
 1619.9999747108
  31
0.0
   0
LINE
   5
20F
 100
AcDbEntity
   8
LEVEL001
 370
13
 100
AcDbLine
   6
CONTINUOUS
  62
5
  10
 1249.9999747112
  20
 1119.9999747108
  30
0.0
  11
 1455.4500000000
  21
 1325.4499999996
  31
0.0
   0
LINE
   5
210
 100
AcDbEntity
   8
LEVEL001
 370
13
 100
AcDbLine
   6
CONTINUOUS
  62
5
  10
 1749.9999747112
  20
 1584.6446356515
  30
0.0
  11
 1544.5500000000
  21
 1379.1946609403
  31
0.0
   0
LINE
   5
211
 100
AcDbEntity
   8
LEVEL001
 370
13
 100
AcDbLine
   6
CONTINUOUS
  62
5
  10
 1455.4500000000
  20
 1290.0946609403
  30
0.0
  11
 1249.9999747112
  21
 1084.6446356515
  31
0.0
   0
LWPOLYLINE
   5
212
 100
AcDbEntity
   8
LEVEL001
 370
13
   6
CONTINUOUS
  62
7
 100
AcDbPolyline
  90
4
  70
0
  10
 3080.4500000000
  20
 1077.4999999996
  10
 3008.5999819144
  20
 1077.4999999996
  10
 3008.5999819144
  20
 1062.4999999996
  10
 3080.4500000000
  20
 1062.4999999996
   0
LWPOLYLINE
   5
213
 100
AcDbEntity
   8
LEVEL001
 370
13
   6
CONTINUOUS
  62
7
 100
AcDbPolyline
  90
4
  70
0
  10
 3169.5500000000
  20
 1077.4999999996
  10
 3241.3999819144
  20
 1077.4999999996
  10
 3241.3999819144
  20
 1062.4999999996
  10
 3169.5500000000
  20
 1062.4999999996
   0
LINE
   5
214
 100
AcDbEntity
   8
LEVEL001
 370
13
 100
AcDbLine
   6
CONTINUOUS
  62
5
  10
 3025.0000000000
  20
 769.99999999960
  30
0.0
  11
 2975.0000000000
  21
 669.99999999960
  31
0.0
   0
LINE
   5
215
 100
AcDbEntity
   8
LEVEL001
 370
13
 100
AcDbLine
   6
CONTINUOUS
  62
5
  10
 2975.0000000000
  20
 769.99999999960
  30
0.0
  11
 3015.0000000000
  21
 749.99999999960
  31
0.0
   0
LINE
   5
216
 100
AcDbEntity
   8
LEVEL001
 370
13
 100
AcDbLine
   6
CONTINUOUS
  62
5
  10
 2975.0000000000
  20
 769.99999999960
  30
0.0
  11
 2925.0000000000
  21
 669.99999999960
  31
0.0
   0
LINE
   5
217
 100
AcDbEntity
   8
LEVEL001
 370
13
 100
AcDbLine
   6
CONTINUOUS
  62
5
  10
 2925.0000000000
  20
 769.99999999960
  30
0.0
  11
 2965.0000000000
  21
 749.99999999960
  31
0.0
   0
LINE
   5
218
 100
AcDbEntity
   8
LEVEL001
 370
13
 100
AcDbLine
   6
CONTINUOUS
  62
5
  10
 2925.0000000000
  20
 769.99999999960
  30
0.0
  11
 2875.0000000000
  21
 669.99999999960
  31
0.0
   0
LINE
   5
219
 100
AcDbEntity
   8
LEVEL001
 370
13
 100
AcDbLine
   6
CONTINUOUS
  62
5
  10
 2875.0000000000
  20
 769.99999999960
  30
0.0
  11
 2915.0000000000
  21
 749.99999999960
  31
0.0
   0
LINE
   5
21A
 100
AcDbEntity
   8
LEVEL001
 370
13
 100
AcDbLine
   6
CONTINUOUS
  62
5
  10
 3025.0000000000
  20
 669.99999999960
  30
0.0
  11
 2985.0000000000
  21
 689.99999999960
  31
0.0
   0
LINE
   5
21B
 100
AcDbEntity
   8
LEVEL001
 370
13
 100
AcDbLine
   6
CONTINUOUS
  62
5
  10
 2975.0000000000
  20
 669.99999999960
  30
0.0
  11
 2935.0000000000
  21
 689.99999999960
  31
0.0
   0
LINE
   5
21C
 100
AcDbEntity
   8
LEVEL001
 370
13
 100
AcDbLine
   6
CONTINUOUS
  62
5
  10
 2925.0000000000
  20
 669.99999999960
  30
0.0
  11
 2885.0000000000
  21
 689.99999999960
  31
0.0
   0
LINE
   5
21D
 100
AcDbEntity
   8
LEVEL001
 370
13
 100
AcDbLine
   6
CONTINUOUS
  62
5
  10
 3375.0000000000
  20
 769.99999999960
  30
0.0
  11
 3325.0000000000
  21
 669.99999999960
  31
0.0
   0
LINE
   5
21E
 100
AcDbEntity
   8
LEVEL001
 370
13
 100
AcDbLine
   6
CONTINUOUS
  62
5
  10
 3325.0000000000
  20
 769.99999999960
  30
0.0
  11
 3365.0000000000
  21
 749.99999999960
  31
0.0
   0
LINE
   5
21F
 100
AcDbEntity
   8
LEVEL001
 370
13
 100
AcDbLine
   6
CONTINUOUS
  62
5
  10
 3325.0000000000
  20
 769.99999999960
  30
0.0
  11
 3275.0000000000
  21
 669.99999999960
  31
0.0
   0
LINE
   5
220
 100
AcDbEntity
   8
LEVEL001
 370
13
 100
AcDbLine
   6
CONTINUOUS
  62
5
  10
 3275.0000000000
  20
 769.99999999960
  30
0.0
  11
 3315.0000000000
  21
 749.99999999960
  31
0.0
   0
LINE
   5
221
 100
AcDbEntity
   8
LEVEL001
 370
13
 100
AcDbLine
   6
CONTINUOUS
  62
5
  10
 3275.0000000000
  20
 769.99999999960
  30
0.0
  11
 3225.0000000000
  21
 669.99999999960
  31
0.0
   0
LINE
   5
222
 100
AcDbEntity
   8
LEVEL001
 370
13
 100
AcDbLine
   6
CONTINUOUS
  62
5
  10
 3225.0000000000
  20
 769.99999999960
  30
0.0
  11
 3265.0000000000
  21
 749.99999999960
  31
0.0
   0
LINE
   5
223
 100
AcDbEntity
   8
LEVEL001
 370
13
 100
AcDbLine
   6
CONTINUOUS
  62
5
  10
 3375.0000000000
  20
 669.99999999960
  30
0.0
  11
 3335.0000000000
  21
 689.99999999960
  31
0.0
   0
LINE
   5
224
 100
AcDbEntity
   8
LEVEL001
 370
13
 100
AcDbLine
   6
CONTINUOUS
  62
5
  10
 3325.0000000000
  20
 669.99999999960
  30
0.0
  11
 3285.0000000000
  21
 689.99999999960
  31
0.0
   0
LINE
   5
225
 100
AcDbEntity
   8
LEVEL001
 370
13
 100
AcDbLine
   6
CONTINUOUS
  62
5
  10
 3275.0000000000
  20
 669.99999999960
  30
0.0
  11
 3235.0000000000
  21
 689.99999999960
  31
0.0
   0
LWPOLYLINE
   5
226
 100
AcDbEntity
   8
LEVEL001
 370
13
   6
CONTINUOUS
  62
5
 100
AcDbPolyline
  90
4
  70
1
  10
 3375.0000000000
  20
 769.99999999960
  10
 2875.0000000000
  20
 769.99999999960
  10
 2875.0000000000
  20
 669.99999999960
  10
 3375.0000000000
  20
 669.99999999960
   0
CIRCLE
   5
227
 100
AcDbEntity
   8
LEVEL001
 370
13
 100
AcDbCircle
   6
CONTINUOUS
  62
7
  10
 3124.9999661979
  20
 1169.9999999996
  30
0.0
  40
 7.5000000000000
   0
LINE
   5
228
 100
AcDbEntity
   8
LEVEL001
 370
13
 100
AcDbLine
   6
DASHDOT
  62
6
  10
 3094.9999661979
  20
 1169.9999999996
  30
0.0
  11
 3154.9999661979
  21
 1169.9999999996
  31
0.0
   0
LINE
   5
229
 100
AcDbEntity
   8
LEVEL001
 370
13
 100
AcDbLine
   6
DASHDOT
  62
6
  10
 3058.5999819144
  20
 1069.9999999996
  30
0.0
  11
 3191.3999819144
  21
 1069.9999999996
  31
0.0
   0
CIRCLE
   5
22A
 100
AcDbEntity
   8
LEVEL001
 370
13
 100
AcDbCircle
   6
CONTINUOUS
  62
1
  10
 2750.0000000000
  20
 969.99999999960
  30
0.0
  40
 69.999997913838
   0
MTEXT
   5
22C
 100
AcDbEntity
   8
LEVEL001
 370
13
  62
7
 100
AcDbMText
  10
 2750.0000000000
  20
 969.99999999960
  30
0.0
  40
 66.000000000000
  41
0.0
  71
5
  72
1
   1
\T1.000000;１１
   7
GMM004
  44
 0.79999984000003
   0
LEADER
   5
22D
 100
AcDbEntity
   8
LEVEL001
 370
13
   6
CONTINUOUS
  62
1
 100
AcDbLeader
   3
GMM007
  73
3
  74
1
  75
0
  40
 66.000000000000
  41
0.0
  76
2
  10
 3008.5999819144
  20
 1062.4999999996
  30
0.0
  10
 2815.9103906594
  20
 993.57583744104
  30
0.0
  77
1
   0
DIMENSION
   5
22E
 100
AcDbEntity
   8
LEVEL001
 370
13
   6
CONTINUOUS
  62
6
 100
AcDbDimension
   2
*D19
  10
 3375.0000000000
  20
 469.99999999960
  30
0.0
  11
 3125.0000000000
  21
 469.99999999960
  31
0.0
  70
0
   3
GMM008
 100
AcDbAlignedDimension
  13
 2875.0000000000
  23
 669.99999999960
  33
0.0
  14
 3375.0000000000
  24
 669.99999999960
  34
0.0
 100
AcDbRotatedDimension
   0
LINE
   5
22F
 100
AcDbEntity
   8
LEVEL001
 370
13
 100
AcDbLine
   6
CONTINUOUS
  62
5
  10
 3080.4500000000
  20
 1360.8053390590
  30
0.0
  11
 2874.9999747112
  21
 1155.3553137701
  31
0.0
   0
LINE
   5
230
 100
AcDbEntity
   8
LEVEL001
 370
13
 100
AcDbLine
   6
CONTINUOUS
  62
5
  10
 3374.9999747112
  20
 1655.3553137701
  30
0.0
  11
 3169.5500000000
  21
 1449.9053390590
  31
0.0
   0
LINE
   5
231
 100
AcDbEntity
   8
LEVEL001
 370
13
 100
AcDbLine
   6
CONTINUOUS
  62
5
  10
 3169.5500000000
  20
 1414.5499999996
  30
0.0
  11
 3374.9999747112
  21
 1619.9999747108
  31
0.0
   0
LINE
   5
232
 100
AcDbEntity
   8
LEVEL001
 370
13
 100
AcDbLine
   6
CONTINUOUS
  62
5
  10
 2874.9999747112
  20
 1119.9999747108
  30
0.0
  11
 3080.4500000000
  21
 1325.4499999996
  31
0.0
   0
LINE
   5
233
 100
AcDbEntity
   8
LEVEL001
 370
13
 100
AcDbLine
   6
CONTINUOUS
  62
5
  10
 3080.4500000000
  20
 1290.0946609403
  30
0.0
  11
 2874.9999747112
  21
 1084.6446356515
  31
0.0
   0
LINE
   5
234
 100
AcDbEntity
   8
LEVEL001
 370
13
 100
AcDbLine
   6
CONTINUOUS
  62
5
  10
 3374.9999747112
  20
 1584.6446356515
  30
0.0
  11
 3169.5500000000
  21
 1379.1946609403
  31
0.0
   0
LINE
   5
235
 100
AcDbEntity
   8
LEVEL002
 370
13
 100
AcDbLine
   6
CONTINUOUS
  62
5
  10
 1094.9999747110
  20
 1817.4999999996
  30
0.0
  11
 1147.4999747110
  21
 1869.9999999996
  31
0.0
   0
LINE
   5
236
 100
AcDbEntity
   8
LEVEL002
 370
13
 100
AcDbLine
   6
CONTINUOUS
  62
5
  10
 1079.0900721342
  20
 1833.4099025764
  30
0.0
  11
 1115.6801695574
  21
 1869.9999999996
  31
0.0
   0
LINE
   5
237
 100
AcDbEntity
   8
LEVEL002
 370
13
 100
AcDbLine
   6
CONTINUOUS
  62
5
  10
 1131.5900721350
  20
 1869.9999999996
  30
0.0
  11
 1087.0450234230
  21
 1825.4549512876
  31
0.0
   0
LINE
   5
238
 100
AcDbEntity
   8
LEVEL002
 370
13
 100
AcDbLine
   6
CONTINUOUS
  62
5
  10
 1152.2702669816
  20
 1817.4999999996
  30
0.0
  11
 1123.6351208463
  21
 1846.1351461349
  31
0.0
   0
LINE
   5
239
 100
AcDbEntity
   8
LEVEL002
 370
13
 100
AcDbLine
   6
CONTINUOUS
  62
5
  10
 1131.5900721345
  20
 1854.0900974231
  30
0.0
  11
 1168.1801695580
  21
 1817.4999999996
  31
0.0
   0
LINE
   5
23A
 100
AcDbEntity
   8
LEVEL002
 370
13
 100
AcDbLine
   6
CONTINUOUS
  62
5
  10
 1184.0900721344
  20
 1817.4999999996
  30
0.0
  11
 1139.5450234227
  21
 1862.0450487113
  31
0.0
   0
LINE
   5
23B
 100
AcDbEntity
   8
LEVEL002
 370
13
 100
AcDbLine
   6
CONTINUOUS
  62
5
  10
 1147.4999747110
  20
 1869.9999999996
  30
0.0
  11
 1199.9999747112
  21
 1817.4999999996
  31
0.0
   0
LINE
   5
23C
 100
AcDbEntity
   8
LEVEL002
 370
13
 100
AcDbLine
   6
CONTINUOUS
  62
5
  10
 994.77026698113
  20
 1869.9999999996
  30
0.0
  11
 942.27026698113
  21
 1817.4999999996
  31
0.0
   0
LINE
   5
23D
 100
AcDbEntity
   8
LEVEL002
 370
13
 100
AcDbLine
   6
CONTINUOUS
  62
5
  10
 958.18016955717
  20
 1817.4999999996
  30
0.0
  11
 1010.6801695572
  21
 1869.9999999996
  31
0.0
   0
LINE
   5
23E
 100
AcDbEntity
   8
LEVEL002
 370
13
 100
AcDbLine
   6
CONTINUOUS
  62
5
  10
 1026.5900721348
  20
 1869.9999999996
  30
0.0
  11
 974.09007213478
  21
 1817.4999999996
  31
0.0
   0
LINE
   5
23F
 100
AcDbEntity
   8
LEVEL002
 370
13
 100
AcDbLine
   6
CONTINUOUS
  62
5
  10
 989.99997471082
  20
 1817.4999999996
  30
0.0
  11
 1042.4999747108
  21
 1869.9999999996
  31
0.0
   0
LINE
   5
240
 100
AcDbEntity
   8
LEVEL002
 370
13
 100
AcDbLine
   6
CONTINUOUS
  62
5
  10
 1047.2702669814
  20
 1817.4999999996
  30
0.0
  11
 1018.6351208461
  21
 1846.1351461349
  31
0.0
   0
LINE
   5
241
 100
AcDbEntity
   8
LEVEL002
 370
13
 100
AcDbLine
   6
CONTINUOUS
  62
5
  10
 1026.5900721343
  20
 1854.0900974231
  30
0.0
  11
 1063.1801695578
  21
 1817.4999999996
  31
0.0
   0
LINE
   5
242
 100
AcDbEntity
   8
LEVEL002
 370
13
 100
AcDbLine
   6
CONTINUOUS
  62
5
  10
 1079.0900721343
  20
 1817.4999999996
  30
0.0
  11
 1034.5450234225
  21
 1862.0450487113
  31
0.0
   0
LINE
   5
243
 100
AcDbEntity
   8
LEVEL002
 370
13
 100
AcDbLine
   6
CONTINUOUS
  62
5
  10
 1042.4999747108
  20
 1869.9999999996
  30
0.0
  11
 1094.9999747110
  21
 1817.4999999996
  31
0.0
   0
LINE
   5
244
 100
AcDbEntity
   8
LEVEL002
 370
13
 100
AcDbLine
   6
CONTINUOUS
  62
5
  10
 1099.7702669813
  20
 1869.9999999996
  30
0.0
  11
 1071.1351208461
  21
 1841.3648538644
  31
0.0
   0
MTEXT
   5
246
 100
AcDbEntity
   8
LEVEL002
 370
13
  62
1
 100
AcDbMText
  10
 1070.6486451556
  20
 1878.7299370399
  30
0.0
  40
 40.000000000000
  41
0.0
  71
7
  72
1
   1
\T1.000000;ＧＬ
   7
GMM006
  44
 0.79999984000003
   0
LWPOLYLINE
   5
247
 100
AcDbEntity
   8
LEVEL002
 370
13
   6
CONTINUOUS
  62
1
 100
AcDbPolyline
  90
3
  70
1
  10
 1042.4999747108
  20
 1869.9999999996
  10
 1017.4999747108
  20
 1919.9999999996
  10
 1067.4999747108
  20
 1919.9999999996
   0
LINE
   5
248
 100
AcDbEntity
   8
LEVEL002
 370
13
 100
AcDbLine
   6
CONTINUOUS
  62
5
  10
 1249.9999747112
  20
 1869.9999999996
  30
0.0
  11
 950.00003994615
  21
 1869.9999999996
  31
0.0
   0
LWPOLYLINE
   5
249
 100
AcDbEntity
   8
LEVEL002
 370
13
   6
CONTINUOUS
  62
5
 100
AcDbPolyline
  90
6
  70
0
  10
 1455.4499747112
  20
 1869.9999999996
  10
 1249.9999747112
  20
 1869.9999999996
  10
 1249.9999747112
  20
 769.99999999960
  10
 1749.9999747112
  20
 769.99999999960
  10
 1749.9999747112
  20
 1869.9999999996
  10
 1544.5499747112
  20
 1869.9999999996
   0
LINE
   5
24A
 100
AcDbEntity
   8
LEVEL002
 370
13
 100
AcDbLine
   6
CONTINUOUS
  62
5
  10
 1852.4999747112
  20
 1869.9999999996
  30
0.0
  11
 1799.9999747112
  21
 1817.4999999996
  31
0.0
   0
LINE
   5
24B
 100
AcDbEntity
   8
LEVEL002
 370
13
 100
AcDbLine
   6
CONTINUOUS
  62
5
  10
 1815.9098772872
  20
 1817.4999999996
  30
0.0
  11
 1868.4098772872
  21
 1869.9999999996
  31
0.0
   0
LINE
   5
24C
 100
AcDbEntity
   8
LEVEL002
 370
13
 100
AcDbLine
   6
CONTINUOUS
  62
5
  10
 1884.3197798648
  20
 1869.9999999996
  30
0.0
  11
 1831.8197798648
  21
 1817.4999999996
  31
0.0
   0
LINE
   5
24D
 100
AcDbEntity
   8
LEVEL002
 370
13
 100
AcDbLine
   6
CONTINUOUS
  62
5
  10
 1847.7296824409
  20
 1817.4999999996
  30
0.0
  11
 1900.2296824409
  21
 1869.9999999996
  31
0.0
   0
LINE
   5
24E
 100
AcDbEntity
   8
LEVEL002
 370
13
 100
AcDbLine
   6
CONTINUOUS
  62
5
  10
 1904.9999747115
  20
 1817.4999999996
  30
0.0
  11
 1876.3648285762
  21
 1846.1351461349
  31
0.0
   0
LINE
   5
24F
 100
AcDbEntity
   8
LEVEL002
 370
13
 100
AcDbLine
   6
CONTINUOUS
  62
5
  10
 1884.3197798644
  20
 1854.0900974231
  30
0.0
  11
 1920.9098772879
  21
 1817.4999999996
  31
0.0
   0
LINE
   5
250
 100
AcDbEntity
   8
LEVEL002
 370
13
 100
AcDbLine
   6
CONTINUOUS
  62
5
  10
 1936.8197798643
  20
 1817.4999999996
  30
0.0
  11
 1892.2747311526
  21
 1862.0450487113
  31
0.0
   0
LINE
   5
251
 100
AcDbEntity
   8
LEVEL002
 370
13
 100
AcDbLine
   6
CONTINUOUS
  62
5
  10
 1900.2296824409
  20
 1869.9999999996
  30
0.0
  11
 1952.7296824411
  21
 1817.4999999996
  31
0.0
   0
LINE
   5
252
 100
AcDbEntity
   8
LEVEL002
 370
13
 100
AcDbLine
   6
CONTINUOUS
  62
5
  10
 1952.7296824411
  20
 1817.4999999996
  30
0.0
  11
 2005.2296824411
  21
 1869.9999999996
  31
0.0
   0
LINE
   5
253
 100
AcDbEntity
   8
LEVEL002
 370
13
 100
AcDbLine
   6
CONTINUOUS
  62
5
  10
 1957.4999747114
  20
 1869.9999999996
  30
0.0
  11
 1928.8648285762
  21
 1841.3648538644
  31
0.0
   0
LINE
   5
254
 100
AcDbEntity
   8
LEVEL002
 370
13
 100
AcDbLine
   6
CONTINUOUS
  62
5
  10
 1936.8197798642
  20
 1833.4099025764
  30
0.0
  11
 1973.4098772874
  21
 1869.9999999996
  31
0.0
   0
LINE
   5
255
 100
AcDbEntity
   8
LEVEL002
 370
13
 100
AcDbLine
   6
CONTINUOUS
  62
5
  10
 1989.3197798650
  20
 1869.9999999996
  30
0.0
  11
 1944.7747311530
  21
 1825.4549512876
  31
0.0
   0
LINE
   5
256
 100
AcDbEntity
   8
LEVEL002
 370
13
 100
AcDbLine
   6
CONTINUOUS
  62
5
  10
 2009.9999747116
  20
 1817.4999999996
  30
0.0
  11
 1981.3648285763
  21
 1846.1351461349
  31
0.0
   0
LINE
   5
257
 100
AcDbEntity
   8
LEVEL002
 370
13
 100
AcDbLine
   6
CONTINUOUS
  62
5
  10
 1989.3197798646
  20
 1854.0900974231
  30
0.0
  11
 2025.9098772881
  21
 1817.4999999996
  31
0.0
   0
LINE
   5
258
 100
AcDbEntity
   8
LEVEL002
 370
13
 100
AcDbLine
   6
CONTINUOUS
  62
5
  10
 2041.8197798645
  20
 1817.4999999996
  30
0.0
  11
 1997.2747311528
  21
 1862.0450487113
  31
0.0
   0
LINE
   5
259
 100
AcDbEntity
   8
LEVEL002
 370
13
 100
AcDbLine
   6
CONTINUOUS
  62
5
  10
 2005.2296824411
  20
 1869.9999999996
  30
0.0
  11
 2057.7296824412
  21
 1817.4999999996
  31
0.0
   0
LINE
   5
25A
 100
AcDbEntity
   8
LEVEL002
 370
13
 100
AcDbLine
   6
CONTINUOUS
  62
5
  10
 1749.9999747112
  20
 1869.9999999996
  30
0.0
  11
 2050.0000399461
  21
 1869.9999999996
  31
0.0
   0
CIRCLE
   5
25B
 100
AcDbEntity
   8
LEVEL001
 370
13
 100
AcDbCircle
   6
CONTINUOUS
  62
1
  10
 1750.0000000000
  20
 2744.9999999996
  30
0.0
  40
 69.999997913838
   0
MTEXT
   5
25D
 100
AcDbEntity
   8
LEVEL001
 370
13
  62
7
 100
AcDbMText
  10
 1750.0000000000
  20
 2744.9999999996
  30
0.0
  40
 66.000000000000
  41
0.0
  71
5
  72
1
   1
\T1.000000;１０
   7
GMM004
  44
 0.79999984000003
   0
LEADER
   5
25E
 100
AcDbEntity
   8
LEVEL001
 370
13
   6
CONTINUOUS
  62
1
 100
AcDbLeader
   3
GMM009
  73
3
  74
1
  75
0
  40
 66.000000000000
  41
0.0
  76
2
  10
 1544.5500000000
  20
 2619.9999999996
  30
0.0
  10
 1690.1987971268
  20
 2708.6157198384
  30
0.0
  77
1
   0
LINE
   5
25F
 100
AcDbEntity
   8
LEVEL002
 370
13
 100
AcDbLine
   6
CONTINUOUS
  62
5
  10
 2719.9999999998
  20
 1817.4999999996
  30
0.0
  11
 2772.4999999998
  21
 1869.9999999996
  31
0.0
   0
LINE
   5
260
 100
AcDbEntity
   8
LEVEL002
 370
13
 100
AcDbLine
   6
CONTINUOUS
  62
5
  10
 2704.0900974230
  20
 1833.4099025764
  30
0.0
  11
 2740.6801948462
  21
 1869.9999999996
  31
0.0
   0
LINE
   5
261
 100
AcDbEntity
   8
LEVEL002
 370
13
 100
AcDbLine
   6
CONTINUOUS
  62
5
  10
 2756.5900974238
  20
 1869.9999999996
  30
0.0
  11
 2712.0450487118
  21
 1825.4549512876
  31
0.0
   0
LINE
   5
262
 100
AcDbEntity
   8
LEVEL002
 370
13
 100
AcDbLine
   6
CONTINUOUS
  62
5
  10
 2777.2702922704
  20
 1817.4999999996
  30
0.0
  11
 2748.6351461351
  21
 1846.1351461349
  31
0.0
   0
LINE
   5
263
 100
AcDbEntity
   8
LEVEL002
 370
13
 100
AcDbLine
   6
CONTINUOUS
  62
5
  10
 2756.5900974233
  20
 1854.0900974231
  30
0.0
  11
 2793.1801948468
  21
 1817.4999999996
  31
0.0
   0
LINE
   5
264
 100
AcDbEntity
   8
LEVEL002
 370
13
 100
AcDbLine
   6
CONTINUOUS
  62
5
  10
 2809.0900974233
  20
 1817.4999999996
  30
0.0
  11
 2764.5450487115
  21
 1862.0450487113
  31
0.0
   0
LINE
   5
265
 100
AcDbEntity
   8
LEVEL002
 370
13
 100
AcDbLine
   6
CONTINUOUS
  62
5
  10
 2772.4999999998
  20
 1869.9999999996
  30
0.0
  11
 2825.0000000000
  21
 1817.4999999996
  31
0.0
   0
LINE
   5
266
 100
AcDbEntity
   8
LEVEL002
 370
13
 100
AcDbLine
   6
CONTINUOUS
  62
5
  10
 2583.1801948460
  20
 1817.4999999996
  30
0.0
  11
 2635.6801948460
  21
 1869.9999999996
  31
0.0
   0
LINE
   5
267
 100
AcDbEntity
   8
LEVEL002
 370
13
 100
AcDbLine
   6
CONTINUOUS
  62
5
  10
 2651.5900974236
  20
 1869.9999999996
  30
0.0
  11
 2599.0900974236
  21
 1817.4999999996
  31
0.0
   0
LINE
   5
268
 100
AcDbEntity
   8
LEVEL002
 370
13
 100
AcDbLine
   6
CONTINUOUS
  62
5
  10
 2614.9999999996
  20
 1817.4999999996
  30
0.0
  11
 2667.4999999996
  21
 1869.9999999996
  31
0.0
   0
LINE
   5
269
 100
AcDbEntity
   8
LEVEL002
 370
13
 100
AcDbLine
   6
CONTINUOUS
  62
5
  10
 2672.2702922702
  20
 1817.4999999996
  30
0.0
  11
 2643.6351461349
  21
 1846.1351461349
  31
0.0
   0
LINE
   5
26A
 100
AcDbEntity
   8
LEVEL002
 370
13
 100
AcDbLine
   6
CONTINUOUS
  62
5
  10
 2651.5900974231
  20
 1854.0900974231
  30
0.0
  11
 2688.1801948466
  21
 1817.4999999996
  31
0.0
   0
LINE
   5
26B
 100
AcDbEntity
   8
LEVEL002
 370
13
 100
AcDbLine
   6
CONTINUOUS
  62
5
  10
 2704.0900974231
  20
 1817.4999999996
  30
0.0
  11
 2659.5450487114
  21
 1862.0450487113
  31
0.0
   0
LINE
   5
26C
 100
AcDbEntity
   8
LEVEL002
 370
13
 100
AcDbLine
   6
CONTINUOUS
  62
5
  10
 2667.4999999996
  20
 1869.9999999996
  30
0.0
  11
 2719.9999999998
  21
 1817.4999999996
  31
0.0
   0
LINE
   5
26D
 100
AcDbEntity
   8
LEVEL002
 370
13
 100
AcDbLine
   6
CONTINUOUS
  62
5
  10
 2724.7702922701
  20
 1869.9999999996
  30
0.0
  11
 2696.1351461349
  21
 1841.3648538644
  31
0.0
   0
LINE
   5
26E
 100
AcDbEntity
   8
LEVEL002
 370
13
 100
AcDbLine
   6
CONTINUOUS
  62
5
  10
 2875.0000000000
  20
 1869.9999999996
  30
0.0
  11
 2575.0000652350
  21
 1869.9999999996
  31
0.0
   0
LWPOLYLINE
   5
26F
 100
AcDbEntity
   8
LEVEL002
 370
13
   6
CONTINUOUS
  62
5
 100
AcDbPolyline
  90
6
  70
0
  10
 3080.4500000000
  20
 1869.9999999996
  10
 2875.0000000000
  20
 1869.9999999996
  10
 2875.0000000000
  20
 769.99999999960
  10
 3375.0000000000
  20
 769.99999999960
  10
 3375.0000000000
  20
 1869.9999999996
  10
 3169.5500000000
  20
 1869.9999999996
   0
MTEXT
   5
271
 100
AcDbEntity
   8
LEVEL002
 370
13
  62
1
 100
AcDbMText
  10
 2695.6486704444
  20
 1878.7299370399
  30
0.0
  40
 40.000000000000
  41
0.0
  71
7
  72
1
   1
\T1.000000;ＧＬ
   7
GMM006
  44
 0.79999984000003
   0
LWPOLYLINE
   5
272
 100
AcDbEntity
   8
LEVEL002
 370
13
   6
CONTINUOUS
  62
1
 100
AcDbPolyline
  90
3
  70
1
  10
 2667.4999999996
  20
 1869.9999999996
  10
 2642.4999999996
  20
 1919.9999999996
  10
 2692.4999999996
  20
 1919.9999999996
   0
LINE
   5
273
 100
AcDbEntity
   8
LEVEL002
 370
13
 100
AcDbLine
   6
CONTINUOUS
  62
5
  10
 2619.7702922699
  20
 1869.9999999996
  30
0.0
  11
 2567.2702922699
  21
 1817.4999999996
  31
0.0
   0
LINE
   5
274
 100
AcDbEntity
   8
LEVEL002
 370
13
 100
AcDbLine
   6
CONTINUOUS
  62
5
  10
 3477.5000000000
  20
 1869.9999999996
  30
0.0
  11
 3425.0000000000
  21
 1817.4999999996
  31
0.0
   0
LINE
   5
275
 100
AcDbEntity
   8
LEVEL002
 370
13
 100
AcDbLine
   6
CONTINUOUS
  62
5
  10
 3440.9099025760
  20
 1817.4999999996
  30
0.0
  11
 3493.4099025760
  21
 1869.9999999996
  31
0.0
   0
LINE
   5
276
 100
AcDbEntity
   8
LEVEL002
 370
13
 100
AcDbLine
   6
CONTINUOUS
  62
5
  10
 3509.3198051536
  20
 1869.9999999996
  30
0.0
  11
 3456.8198051536
  21
 1817.4999999996
  31
0.0
   0
LINE
   5
277
 100
AcDbEntity
   8
LEVEL002
 370
13
 100
AcDbLine
   6
CONTINUOUS
  62
5
  10
 3472.7297077297
  20
 1817.4999999996
  30
0.0
  11
 3525.2297077297
  21
 1869.9999999996
  31
0.0
   0
LINE
   5
278
 100
AcDbEntity
   8
LEVEL002
 370
13
 100
AcDbLine
   6
CONTINUOUS
  62
5
  10
 3530.0000000003
  20
 1817.4999999996
  30
0.0
  11
 3501.3648538650
  21
 1846.1351461349
  31
0.0
   0
LINE
   5
279
 100
AcDbEntity
   8
LEVEL002
 370
13
 100
AcDbLine
   6
CONTINUOUS
  62
5
  10
 3509.3198051532
  20
 1854.0900974231
  30
0.0
  11
 3545.9099025767
  21
 1817.4999999996
  31
0.0
   0
LINE
   5
27A
 100
AcDbEntity
   8
LEVEL002
 370
13
 100
AcDbLine
   6
CONTINUOUS
  62
5
  10
 3561.8198051531
  20
 1817.4999999996
  30
0.0
  11
 3517.2747564414
  21
 1862.0450487113
  31
0.0
   0
LINE
   5
27B
 100
AcDbEntity
   8
LEVEL002
 370
13
 100
AcDbLine
   6
CONTINUOUS
  62
5
  10
 3525.2297077297
  20
 1869.9999999996
  30
0.0
  11
 3577.7297077299
  21
 1817.4999999996
  31
0.0
   0
LINE
   5
27C
 100
AcDbEntity
   8
LEVEL002
 370
13
 100
AcDbLine
   6
CONTINUOUS
  62
5
  10
 3577.7297077299
  20
 1817.4999999996
  30
0.0
  11
 3630.2297077299
  21
 1869.9999999996
  31
0.0
   0
LINE
   5
27D
 100
AcDbEntity
   8
LEVEL002
 370
13
 100
AcDbLine
   6
CONTINUOUS
  62
5
  10
 3582.5000000002
  20
 1869.9999999996
  30
0.0
  11
 3553.8648538650
  21
 1841.3648538644
  31
0.0
   0
LINE
   5
27E
 100
AcDbEntity
   8
LEVEL002
 370
13
 100
AcDbLine
   6
CONTINUOUS
  62
5
  10
 3561.8198051530
  20
 1833.4099025764
  30
0.0
  11
 3598.4099025762
  21
 1869.9999999996
  31
0.0
   0
LINE
   5
27F
 100
AcDbEntity
   8
LEVEL002
 370
13
 100
AcDbLine
   6
CONTINUOUS
  62
5
  10
 3614.3198051538
  20
 1869.9999999996
  30
0.0
  11
 3569.7747564418
  21
 1825.4549512876
  31
0.0
   0
LINE
   5
280
 100
AcDbEntity
   8
LEVEL002
 370
13
 100
AcDbLine
   6
CONTINUOUS
  62
5
  10
 3635.0000000005
  20
 1817.4999999996
  30
0.0
  11
 3606.3648538652
  21
 1846.1351461349
  31
0.0
   0
LINE
   5
281
 100
AcDbEntity
   8
LEVEL002
 370
13
 100
AcDbLine
   6
CONTINUOUS
  62
5
  10
 3614.3198051534
  20
 1854.0900974231
  30
0.0
  11
 3650.9099025769
  21
 1817.4999999996
  31
0.0
   0
LINE
   5
282
 100
AcDbEntity
   8
LEVEL002
 370
13
 100
AcDbLine
   6
CONTINUOUS
  62
5
  10
 3666.8198051533
  20
 1817.4999999996
  30
0.0
  11
 3622.2747564416
  21
 1862.0450487113
  31
0.0
   0
LINE
   5
283
 100
AcDbEntity
   8
LEVEL002
 370
13
 100
AcDbLine
   6
CONTINUOUS
  62
5
  10
 3630.2297077299
  20
 1869.9999999996
  30
0.0
  11
 3682.7297077301
  21
 1817.4999999996
  31
0.0
   0
LINE
   5
284
 100
AcDbEntity
   8
LEVEL002
 370
13
 100
AcDbLine
   6
CONTINUOUS
  62
5
  10
 3375.0000000000
  20
 1869.9999999996
  30
0.0
  11
 3675.0000652350
  21
 1869.9999999996
  31
0.0
   0
LWPOLYLINE
   5
285
 100
AcDbEntity
   8
LEVEL001
 370
13
   6
CONTINUOUS
  62
1
 100
AcDbPolyline
  90
4
  70
1
  10
 3169.5500000000
  20
 5173.9999999996
  10
 3080.4500000000
  20
 5173.9999999996
  10
 3080.4500000000
  20
 5170.9999999996
  10
 3169.5500000000
  20
 5170.9999999996
   0
LINE
   5
286
 100
AcDbEntity
   8
LEVEL001
 370
13
 100
AcDbLine
   6
DOT
  62
1
  10
 1544.5499747112
  20
 1162.4999999996
  30
0.0
  11
 1455.4499747112
  21
 1162.4999999996
  31
0.0
   0
LINE
   5
287
 100
AcDbEntity
   8
LEVEL001
 370
13
 100
AcDbLine
   6
DOT
  62
1
  10
 1455.4499747112
  20
 1177.4999999996
  30
0.0
  11
 1544.5499747112
  21
 1177.4999999996
  31
0.0
   0
LINE
   5
288
 100
AcDbEntity
   8
LEVEL001
 370
13
 100
AcDbLine
   6
DOT
  62
1
  10
 3169.5500000000
  20
 1062.4999999996
  30
0.0
  11
 3080.4500000000
  21
 1062.4999999996
  31
0.0
   0
LINE
   5
289
 100
AcDbEntity
   8
LEVEL001
 370
13
 100
AcDbLine
   6
DOT
  62
1
  10
 3080.4500000000
  20
 1077.4999999996
  30
0.0
  11
 3169.5500000000
  21
 1077.4999999996
  31
0.0
   0
LWPOLYLINE
   5
28A
 100
AcDbEntity
   8
LEVEL001
 370
13
   6
DOT
  62
6
 100
AcDbPolyline
  90
4
  70
0
  10
 3164.5500000000
  20
 5170.9999999996
  10
 3164.5500000000
  20
 5143.9999999996
  10
 3085.4500000000
  20
 5143.9999999996
  10
 3085.4500000000
  20
 5170.9999999996
   0
LINE
   5
28B
 100
AcDbEntity
   8
LEVEL001
 370
13
 100
AcDbLine
   6
DASHDOT
  62
6
  10
 3125.0000000000
  20
 5226.1960443020
  30
0.0
  11
 3125.0000000000
  21
 669.99999999960
  31
0.0
   0
LINE
   5
28C
 100
AcDbEntity
   8
LEVEL001
 370
13
 100
AcDbLine
   6
DASHDOT
  62
6
  10
 1500.0000000000
  20
 5420.0000000000
  30
0.0
  11
 1500.0000000000
  21
 669.99999999960
  31
0.0
   0
MTEXT
   5
28E
 100
AcDbEntity
   8
LEVEL001
 370
13
  62
1
 100
AcDbMText
  10
 1844.6593279915
  20
 2781.4874529993
  30
0.0
  40
 66.000000000000
  41
0.0
  71
1
  72
1
   1
{\W0.787879;\T1.000000;支柱}\P%%c{\W0.787879;\T1.000000;８９\W0.393939;\T1.000000;.\W0.787879;\T1.000000;１ｘ３\W0.393939;\T1.000000;.\W0.787879;\T1.000000;２ｔ}\P{\W0.787879;\T1.000000;ｘ４４００Ｌ}
   7
GMM004
  44
 0.79999984000003
   0
MTEXT
   5
290
 100
AcDbEntity
   8
LEVEL001
 370
13
  62
1
 100
AcDbMText
  10
 7010.9090909091
  20
 1153.5736076959
  30
0.0
  40
 80.000000000000
  41
0.0
  71
7
  72
1
   1
\T1.000000;―
   7
GMM002
  44
 0.79999984000003
   0
MTEXT
   5
292
 100
AcDbEntity
   8
LEVEL001
 370
13
  62
1
 100
AcDbMText
  10
 7503.0302013050
  20
 1153.5736076959
  30
0.0
  40
 80.000000000000
  41
0.0
  71
7
  72
1
   1
\T1.000000;―
   7
GMM002
  44
 0.79999984000003
   0
MTEXT
   5
294
 100
AcDbEntity
   8
LEVEL001
 370
13
  62
1
 100
AcDbMText
  10
 7503.0302013050
  20
 1023.5736076959
  30
0.0
  40
 80.000000000000
  41
0.0
  71
7
  72
1
   1
\T1.000000;―
   7
GMM002
  44
 0.79999984000003
   0
MTEXT
   5
296
 100
AcDbEntity
   8
LEVEL001
 370
13
  62
1
 100
AcDbMText
  10
 7010.9090909091
  20
 1023.5736076959
  30
0.0
  40
 80.000000000000
  41
0.0
  71
7
  72
1
   1
\T1.000000;―
   7
GMM002
  44
 0.79999984000003
   0
MTEXT
   5
298
 100
AcDbEntity
   8
LEVEL001
 370
13
  62
1
 100
AcDbMText
  10
 7503.0302013050
  20
 893.57360769589
  30
0.0
  40
 80.000000000000
  41
0.0
  71
7
  72
1
   1
\T1.000000;―
   7
GMM002
  44
 0.79999984000003
   0
MTEXT
   5
29A
 100
AcDbEntity
   8
LEVEL001
 370
13
  62
1
 100
AcDbMText
  10
 7010.9090909091
  20
 893.57360769589
  30
0.0
  40
 80.000000000000
  41
0.0
  71
7
  72
1
   1
\T1.000000;―
   7
GMM002
  44
 0.79999984000003
   0
LINE
   5
29B
 100
AcDbEntity
   8
LEVEL001
 370
13
 100
AcDbLine
   6
CONTINUOUS
  62
6
  10
 5710.9090909091
  20
 1780.0000000000
  30
0.0
  11
 8226.6668701172
  21
 1780.0000000000
  31
0.0
   0
LINE
   5
29C
 100
AcDbEntity
   8
LEVEL001
 370
13
 100
AcDbLine
   6
CONTINUOUS
  62
6
  10
 5710.9090909091
  20
 1910.0000000000
  30
0.0
  11
 8226.6668701172
  21
 1910.0000000000
  31
0.0
   0
LINE
   5
29D
 100
AcDbEntity
   8
LEVEL001
 370
13
 100
AcDbLine
   6
CONTINUOUS
  62
6
  10
 5710.9090909091
  20
 2040.0000000000
  30
0.0
  11
 8226.6668701172
  21
 2040.0000000000
  31
0.0
   0
LINE
   5
29E
 100
AcDbEntity
   8
LEVEL001
 370
13
 100
AcDbLine
   6
CONTINUOUS
  62
6
  10
 5710.9090909091
  20
 2170.0000000000
  30
0.0
  11
 8226.6668701172
  21
 2170.0000000000
  31
0.0
   0
LINE
   5
29F
 100
AcDbEntity
   8
LEVEL001
 370
13
 100
AcDbLine
   6
CONTINUOUS
  62
6
  10
 5710.9090909091
  20
 2300.0000000000
  30
0.0
  11
 8226.6668701172
  21
 2300.0000000000
  31
0.0
   0
LINE
   5
2A0
 100
AcDbEntity
   8
LEVEL001
 370
13
 100
AcDbLine
   6
CONTINUOUS
  62
6
  10
 5710.9090909091
  20
 2430.0000000000
  30
0.0
  11
 8226.6668701172
  21
 2430.0000000000
  31
0.0
   0
LINE
   5
2A1
 100
AcDbEntity
   8
LEVEL001
 370
13
 100
AcDbLine
   6
CONTINUOUS
  62
6
  10
 5710.9090909091
  20
 2560.0000000000
  30
0.0
  11
 8226.6668701172
  21
 2560.0000000000
  31
0.0
   0
LINE
   5
2A2
 100
AcDbEntity
   8
LEVEL001
 370
13
 100
AcDbLine
   6
CONTINUOUS
  62
6
  10
 5710.9090909091
  20
 2690.0000000000
  30
0.0
  11
 8226.6668701172
  21
 2690.0000000000
  31
0.0
   0
LINE
   5
2A3
 100
AcDbEntity
   8
LEVEL001
 370
13
 100
AcDbLine
   6
CONTINUOUS
  62
6
  10
 5710.9090909091
  20
 2820.0000000000
  30
0.0
  11
 8226.6668701172
  21
 2820.0000000000
  31
0.0
   0
LINE
   5
2A4
 100
AcDbEntity
   8
LEVEL001
 370
13
 100
AcDbLine
   6
CONTINUOUS
  62
6
  10
 5710.9090909091
  20
 3090.0000000000
  30
0.0
  11
 8226.6668701172
  21
 3090.0000000000
  31
0.0
   0
LINE
   5
2A5
 100
AcDbEntity
   8
LEVEL001
 370
13
 100
AcDbLine
   6
CONTINUOUS
  62
6
  10
 5710.9090909091
  20
 3390.0000000000
  30
0.0
  11
 8226.6668701172
  21
 3390.0000000000
  31
0.0
   0
MTEXT
   5
2A7
 100
AcDbEntity
   8
LEVEL001
 370
13
  62
1
 100
AcDbMText
  10
 5881.8880646631
  20
 1673.5736076959
  30
0.0
  40
 80.000000000000
  41
0.0
  71
9
  72
1
   1
\T1.000000;１０
   7
GMM001
  44
 0.79999984000003
   0
MTEXT
   5
2A9
 100
AcDbEntity
   8
LEVEL001
 370
13
  62
1
 100
AcDbMText
  10
 5881.8880646631
  20
 1803.5736076959
  30
0.0
  40
 80.000000000000
  41
0.0
  71
9
  72
1
   1
\T1.000000;９
   7
GMM001
  44
 0.79999984000003
   0
MTEXT
   5
2AB
 100
AcDbEntity
   8
LEVEL001
 370
13
  62
1
 100
AcDbMText
  10
 5881.8880646631
  20
 1933.5736076959
  30
0.0
  40
 80.000000000000
  41
0.0
  71
9
  72
1
   1
\T1.000000;８
   7
GMM001
  44
 0.79999984000003
   0
MTEXT
   5
2AD
 100
AcDbEntity
   8
LEVEL001
 370
13
  62
1
 100
AcDbMText
  10
 5881.8880646631
  20
 2063.5736076959
  30
0.0
  40
 80.000000000000
  41
0.0
  71
9
  72
1
   1
\T1.000000;７
   7
GMM001
  44
 0.79999984000003
   0
MTEXT
   5
2AF
 100
AcDbEntity
   8
LEVEL001
 370
13
  62
1
 100
AcDbMText
  10
 5881.8880646631
  20
 2193.5736076959
  30
0.0
  40
 80.000000000000
  41
0.0
  71
9
  72
1
   1
\T1.000000;６
   7
GMM001
  44
 0.79999984000003
   0
MTEXT
   5
2B1
 100
AcDbEntity
   8
LEVEL001
 370
13
  62
1
 100
AcDbMText
  10
 5881.8880646631
  20
 2323.5736076959
  30
0.0
  40
 80.000000000000
  41
0.0
  71
9
  72
1
   1
\T1.000000;５
   7
GMM001
  44
 0.79999984000003
   0
MTEXT
   5
2B3
 100
AcDbEntity
   8
LEVEL001
 370
13
  62
1
 100
AcDbMText
  10
 5881.8880646631
  20
 2453.5736076959
  30
0.0
  40
 80.000000000000
  41
0.0
  71
9
  72
1
   1
\T1.000000;４
   7
GMM001
  44
 0.79999984000003
   0
MTEXT
   5
2B5
 100
AcDbEntity
   8
LEVEL001
 370
13
  62
1
 100
AcDbMText
  10
 5881.8880646631
  20
 2583.5736076959
  30
0.0
  40
 80.000000000000
  41
0.0
  71
9
  72
1
   1
\T1.000000;３
   7
GMM001
  44
 0.79999984000003
   0
MTEXT
   5
2B7
 100
AcDbEntity
   8
LEVEL001
 370
13
  62
1
 100
AcDbMText
  10
 6931.8880646631
  20
 2583.5736076959
  30
0.0
  40
 80.000000000000
  41
0.0
  71
9
  72
1
   1
\T1.000000;１
   7
GMM002
  44
 0.79999984000003
   0
MTEXT
   5
2B9
 100
AcDbEntity
   8
LEVEL001
 370
13
  62
1
 100
AcDbMText
  10
 5960.9090909091
  20
 2583.5736076959
  30
0.0
  40
 80.000000000000
  41
0.0
  71
7
  72
1
   1
\T1.000000;フード
   7
GMM002
  44
 0.79999984000003
   0
MTEXT
   5
2BB
 100
AcDbEntity
   8
LEVEL001
 370
13
  62
1
 100
AcDbMText
  10
 5881.8880646631
  20
 2713.5736076959
  30
0.0
  40
 80.000000000000
  41
0.0
  71
9
  72
1
   1
\T1.000000;２
   7
GMM001
  44
 0.79999984000003
   0
MTEXT
   5
2BD
 100
AcDbEntity
   8
LEVEL001
 370
13
  62
1
 100
AcDbMText
  10
 6931.8880646631
  20
 2713.5736076959
  30
0.0
  40
 80.000000000000
  41
0.0
  71
9
  72
1
   1
\T1.000000;１
   7
GMM002
  44
 0.79999984000003
   0
MTEXT
   5
2BF
 100
AcDbEntity
   8
LEVEL001
 370
13
  62
1
 100
AcDbMText
  10
 5960.9090909091
  20
 2713.5736076959
  30
0.0
  40
 80.000000000000
  41
0.0
  71
7
  72
1
   1
\T1.000000;バックプレート
   7
GMM002
  44
 0.79999984000003
   0
MTEXT
   5
2C1
 100
AcDbEntity
   8
LEVEL001
 370
13
  62
1
 100
AcDbMText
  10
 5881.8880646631
  20
 2843.5736076959
  30
0.0
  40
 80.000000000000
  41
0.0
  71
9
  72
1
   1
\T1.000000;１
   7
GMM001
  44
 0.79999984000003
   0
MTEXT
   5
2C3
 100
AcDbEntity
   8
LEVEL001
 370
13
  62
1
 100
AcDbMText
  10
 6931.8880646631
  20
 2843.5736076959
  30
0.0
  40
 80.000000000000
  41
0.0
  71
9
  72
1
   1
\T1.000000;１
   7
GMM002
  44
 0.79999984000003
   0
MTEXT
   5
2C5
 100
AcDbEntity
   8
LEVEL001
 370
13
  62
1
 100
AcDbMText
  10
 6860.9090909091
  20
 3020.0000000000
  30
0.0
  40
 80.000000000000
  41
0.0
  71
5
  72
1
   1
\T1.000000;個数
   7
GMM002
  44
 0.79999984000003
   0
MTEXT
   5
2C7
 100
AcDbEntity
   8
LEVEL001
 370
13
  62
1
 100
AcDbMText
  10
 7210.9090909091
  20
 3020.0000000000
  30
0.0
  40
 80.000000000000
  41
0.0
  71
5
  72
1
   1
\T1.000000;材　　質
   7
GMM002
  44
 0.79999984000003
   0
MTEXT
   5
2C9
 100
AcDbEntity
   8
LEVEL001
 370
13
  62
1
 100
AcDbMText
  10
 6335.9090909091
  20
 3020.0000000000
  30
0.0
  40
 80.000000000000
  41
0.0
  71
5
  72
1
   1
\T1.000000;名　　称
   7
GMM002
  44
 0.79999984000003
   0
MTEXT
   5
2CB
 100
AcDbEntity
   8
LEVEL001
 370
13
  62
1
 100
AcDbMText
  10
 5960.9090909091
  20
 2843.5736076959
  30
0.0
  40
 80.000000000000
  41
0.0
  71
7
  72
1
   1
\T1.000000;鏡面　Ｒ＝３６００
   7
GMM002
  44
 0.79999984000003
   0
MTEXT
   5
2CD
 100
AcDbEntity
   8
LEVEL001
 370
13
  62
1
 100
AcDbMText
  10
 7010.9090909091
  20
 2843.5736076959
  30
0.0
  40
 80.000000000000
  41
0.0
  71
7
  72
1
   1
\T1.000000;ＰＭＭＡ
   7
GMM002
  44
 0.79999984000003
   0
MTEXT
   5
2CF
 100
AcDbEntity
   8
LEVEL001
 370
13
  62
1
 100
AcDbMText
  10
 7010.9090909091
  20
 2713.5736076959
  30
0.0
  40
 80.000000000000
  41
0.0
  71
7
  72
1
   1
\T1.000000;ＦＲＰ
   7
GMM002
  44
 0.79999984000003
   0
MTEXT
   5
2D1
 100
AcDbEntity
   8
LEVEL001
 370
13
  62
1
 100
AcDbMText
  10
 7010.9090909091
  20
 2583.5736076959
  30
0.0
  40
 80.000000000000
  41
0.0
  71
7
  72
1
   1
\T1.000000;ＰＣ
   7
GMM002
  44
 0.79999984000003
   0
MTEXT
   5
2D3
 100
AcDbEntity
   8
LEVEL001
 370
13
  62
1
 100
AcDbMText
  10
 5960.9090909091
  20
 1673.5736076959
  30
0.0
  40
 80.000000000000
  41
0.0
  71
7
  72
1
   1
\T1.000000;支柱
   7
GMM002
  44
 0.79999984000003
   0
MTEXT
   5
2D5
 100
AcDbEntity
   8
LEVEL001
 370
13
  62
1
 100
AcDbMText
  10
 6931.8880646631
  20
 1673.5736076959
  30
0.0
  40
 80.000000000000
  41
0.0
  71
9
  72
1
   1
\T1.000000;１
   7
GMM002
  44
 0.79999984000003
   0
MTEXT
   5
2D7
 100
AcDbEntity
   8
LEVEL001
 370
13
  62
1
 100
AcDbMText
  10
 7010.9090909091
  20
 1673.5736076959
  30
0.0
  40
 80.000000000000
  41
0.0
  71
7
  72
1
   1
\T1.000000;ＳＴＫ４００
   7
GMM002
  44
 0.79999984000003
   0
MTEXT
   5
2D9
 100
AcDbEntity
   8
LEVEL001
 370
13
  62
1
 100
AcDbMText
  10
 7510.9090909091
  20
 1673.5736076959
  30
0.0
  40
 80.000000000000
  41
0.0
  71
7
  72
1
   1
\T1.000000;静電粉体塗装
   7
GMM002
  44
 0.79999984000003
   0
MTEXT
   5
2DB
 100
AcDbEntity
   8
LEVEL001
 370
13
  62
1
 100
AcDbMText
  10
 7010.9090909091
  20
 1803.5736076959
  30
0.0
  40
 80.000000000000
  41
0.0
  71
7
  72
1
   1
\T1.000000;ＳＳ４００
   7
GMM002
  44
 0.79999984000003
   0
MTEXT
   5
2DD
 100
AcDbEntity
   8
LEVEL001
 370
13
  62
1
 100
AcDbMText
  10
 7510.9090909091
  20
 1803.5736076959
  30
0.0
  40
 80.000000000000
  41
0.0
  71
7
  72
1
   1
\T1.000000;溶融亜鉛メッキ
   7
GMM002
  44
 0.79999984000003
   0
MTEXT
   5
2DF
 100
AcDbEntity
   8
LEVEL001
 370
13
  62
1
 100
AcDbMText
  10
 5960.9090909091
  20
 1803.5736076959
  30
0.0
  40
 80.000000000000
  41
0.0
  71
7
  72
1
   1
\T1.000000;金具締付ボルトナット
   7
GMM002
  44
 0.79999984000003
   0
MTEXT
   5
2E1
 100
AcDbEntity
   8
LEVEL001
 370
13
  62
1
 100
AcDbMText
  10
 7010.9090909091
  20
 1933.5736076959
  30
0.0
  40
 80.000000000000
  41
0.0
  71
7
  72
1
   1
\T1.000000;ＳＳ４００
   7
GMM002
  44
 0.79999984000003
   0
MTEXT
   5
2E3
 100
AcDbEntity
   8
LEVEL001
 370
13
  62
1
 100
AcDbMText
  10
 7510.9090909091
  20
 1933.5736076959
  30
0.0
  40
 80.000000000000
  41
0.0
  71
7
  72
1
   1
\T1.000000;溶融亜鉛メッキ
   7
GMM002
  44
 0.79999984000003
   0
MTEXT
   5
2E5
 100
AcDbEntity
   8
LEVEL001
 370
13
  62
1
 100
AcDbMText
  10
 5960.9090909091
  20
 1933.5736076959
  30
0.0
  40
 80.000000000000
  41
0.0
  71
7
  72
1
   1
\T1.000000;裏板金具取付ボルト
   7
GMM002
  44
 0.79999984000003
   0
MTEXT
   5
2E7
 100
AcDbEntity
   8
LEVEL001
 370
13
  62
1
 100
AcDbMText
  10
 6931.8880646631
  20
 1933.5736076959
  30
0.0
  40
 80.000000000000
  41
0.0
  71
9
  72
1
   1
\T1.000000;４
   7
GMM002
  44
 0.79999984000003
   0
MTEXT
   5
2E9
 100
AcDbEntity
   8
LEVEL001
 370
13
  62
1
 100
AcDbMText
  10
 7510.9090909091
  20
 2063.5736076959
  30
0.0
  40
 80.000000000000
  41
0.0
  71
7
  72
1
   1
\T1.000000;溶融亜鉛メッキ
   7
GMM002
  44
 0.79999984000003
   0
MTEXT
   5
2EB
 100
AcDbEntity
   8
LEVEL001
 370
13
  62
1
 100
AcDbMText
  10
 7010.9090909091
  20
 2063.5736076959
  30
0.0
  40
 80.000000000000
  41
0.0
  71
7
  72
1
   1
\T1.000000;ＳＳ４００
   7
GMM002
  44
 0.79999984000003
   0
MTEXT
   5
2ED
 100
AcDbEntity
   8
LEVEL001
 370
13
  62
1
 100
AcDbMText
  10
 5960.9090909091
  20
 2063.5736076959
  30
0.0
  40
 80.000000000000
  41
0.0
  71
7
  72
1
   1
\T1.000000;支柱取付金具
   7
GMM002
  44
 0.79999984000003
   0
MTEXT
   5
2EF
 100
AcDbEntity
   8
LEVEL001
 370
13
  62
1
 100
AcDbMText
  10
 5960.9090909091
  20
 2193.5736076959
  30
0.0
  40
 80.000000000000
  41
0.0
  71
7
  72
1
   1
\T1.000000;裏板取付金具
   7
GMM002
  44
 0.79999984000003
   0
MTEXT
   5
2F1
 100
AcDbEntity
   8
LEVEL001
 370
13
  62
1
 100
AcDbMText
  10
 7010.9090909091
  20
 2193.5736076959
  30
0.0
  40
 80.000000000000
  41
0.0
  71
7
  72
1
   1
\T1.000000;ＳＳ４００
   7
GMM002
  44
 0.79999984000003
   0
MTEXT
   5
2F3
 100
AcDbEntity
   8
LEVEL001
 370
13
  62
1
 100
AcDbMText
  10
 7510.9090909091
  20
 2193.5736076959
  30
0.0
  40
 80.000000000000
  41
0.0
  71
7
  72
1
   1
\T1.000000;溶融亜鉛メッキ
   7
GMM002
  44
 0.79999984000003
   0
MTEXT
   5
2F5
 100
AcDbEntity
   8
LEVEL001
 370
13
  62
1
 100
AcDbMText
  10
 6931.8880646631
  20
 1803.5736076959
  30
0.0
  40
 80.000000000000
  41
0.0
  71
9
  72
1
   1
\T1.000000;４
   7
GMM002
  44
 0.79999984000003
   0
MTEXT
   5
2F7
 100
AcDbEntity
   8
LEVEL001
 370
13
  62
1
 100
AcDbMText
  10
 6931.8880646631
  20
 2453.5736076959
  30
0.0
  40
 80.000000000000
  41
0.0
  71
9
  72
1
   1
\T1.000000;１
   7
GMM002
  44
 0.79999984000003
   0
MTEXT
   5
2F9
 100
AcDbEntity
   8
LEVEL001
 370
13
  62
1
 100
AcDbMText
  10
 5960.9090909091
  20
 2453.5736076959
  30
0.0
  40
 80.000000000000
  41
0.0
  71
7
  72
1
   1
\T1.000000;取付枠
   7
GMM002
  44
 0.79999984000003
   0
MTEXT
   5
2FB
 100
AcDbEntity
   8
LEVEL001
 370
13
  62
1
 100
AcDbMText
  10
 7010.9090909091
  20
 2453.5736076959
  30
0.0
  40
 80.000000000000
  41
0.0
  71
7
  72
1
   1
\T1.000000;アルミニウム
   7
GMM002
  44
 0.79999984000003
   0
MTEXT
   5
2FD
 100
AcDbEntity
   8
LEVEL001
 370
13
  62
1
 100
AcDbMText
  10
 5960.9090909091
  20
 2323.5736076959
  30
0.0
  40
 80.000000000000
  41
0.0
  71
7
  72
1
   1
\T1.000000;取付枠取付リベット
   7
GMM002
  44
 0.79999984000003
   0
MTEXT
   5
2FF
 100
AcDbEntity
   8
LEVEL001
 370
13
  62
1
 100
AcDbMText
  10
 6931.8880646631
  20
 2323.5736076959
  30
0.0
  40
 80.000000000000
  41
0.0
  71
9
  72
1
   1
\T1.000000;１１
   7
GMM002
  44
 0.79999984000003
   0
MTEXT
   5
301
 100
AcDbEntity
   8
LEVEL001
 370
13
  62
1
 100
AcDbMText
  10
 7010.9090909091
  20
 2323.5736076959
  30
0.0
  40
 80.000000000000
  41
0.0
  71
7
  72
1
   1
\T1.000000;アルミニウム
   7
GMM002
  44
 0.79999984000003
   0
MTEXT
   5
303
 100
AcDbEntity
   8
LEVEL001
 370
13
  62
1
 100
AcDbMText
  10
 5876.3369483847
  20
 3269.5068305878
  30
0.0
  40
 80.000000000000
  41
0.0
  71
7
  72
1
   1
\T1.000000;アクリルミラー
   7
GMM003
  44
 0.79999984000003
   0
MTEXT
   5
305
 100
AcDbEntity
   8
LEVEL001
 370
13
  62
1
 100
AcDbMText
  10
 7510.9090909091
  20
 2713.5736076959
  30
0.0
  40
 80.000000000000
  41
0.0
  71
7
  72
1
   1
\T1.000000;ＳＭＣ成型
   7
GMM002
  44
 0.79999984000003
   0
MTEXT
   5
307
 100
AcDbEntity
   8
LEVEL001
 370
13
  62
1
 100
AcDbMText
  10
 7510.9090909091
  20
 2843.5736076959
  30
0.0
  40
 80.000000000000
  41
0.0
  71
7
  72
1
   1
\W0.450000;\T1.000000;t=3.0mm･\W0.900000;\T1.000000;真空蒸着
   7
GMM002
  44
 0.79999984000003
   0
MTEXT
   5
309
 100
AcDbEntity
   8
LEVEL001
 370
13
  62
1
 100
AcDbMText
  10
 6931.8880646631
  20
 2193.5736076959
  30
0.0
  40
 80.000000000000
  41
0.0
  71
9
  72
1
   1
\T1.000000;１
   7
GMM002
  44
 0.79999984000003
   0
MTEXT
   5
30B
 100
AcDbEntity
   8
LEVEL001
 370
13
  62
1
 100
AcDbMText
  10
 6931.8880646631
  20
 2063.5736076959
  30
0.0
  40
 80.000000000000
  41
0.0
  71
9
  72
1
   1
\T1.000000;１
   7
GMM002
  44
 0.79999984000003
   0
LINE
   5
30C
 100
AcDbEntity
   8
LEVEL001
 370
13
 100
AcDbLine
   6
CONTINUOUS
  62
6
  10
 5710.9090909091
  20
 2950.0000000000
  30
0.0
  11
 8226.6668701172
  21
 2950.0000000000
  31
0.0
   0
MTEXT
   5
30E
 100
AcDbEntity
   8
LEVEL001
 370
13
  62
1
 100
AcDbMText
  10
 7843.7879805131
  20
 3020.0000000000
  30
0.0
  40
 80.000000000000
  41
0.0
  71
5
  72
1
   1
\T1.000000;規格仕様
   7
GMM002
  44
 0.79999984000003
   0
MTEXT
   5
310
 100
AcDbEntity
   8
LEVEL001
 370
13
  62
1
 100
AcDbMText
  10
 5876.3369483847
  20
 3132.1545397593
  30
0.0
  40
 80.000000000000
  41
0.0
  71
7
  72
1
   1
%%c\T1.000000;１０００（シングル）
   7
GMM003
  44
 0.79999984000003
   0
LINE
   5
311
 100
AcDbEntity
   8
LEVEL001
 370
13
 100
AcDbLine
   6
CONTINUOUS
  62
6
  10
 5710.9090909091
  20
 870.00000000000
  30
0.0
  11
 8226.6668701172
  21
 870.00000000000
  31
0.0
   0
MTEXT
   5
313
 100
AcDbEntity
   8
LEVEL001
 370
13
  62
1
 100
AcDbMText
  10
 6530.9090909091
  20
 714.75997365643
  30
0.0
  40
 66.000000000000
  41
0.0
  71
5
  72
1
   1
\T1.000000;ＭＡ１００Ｓ
   7
GMM004
  44
 0.79999984000003
   0
MTEXT
   5
314
 100
AcDbEntity
   8
LEVEL001
 370
13
  62
1
 100
AcDbMText
  10
 5733.8354978355
  20
 813.78497023809
  30
0.0
  40
 37.142860000000
  41
0.0
  71
7
  72
1
   1
\T1.269231;図面番号
   7
GMM007
  44
 0.79999984000003
   0
LINE
   5
315
 100
AcDbEntity
   8
LEVEL001
 370
13
 100
AcDbLine
   6
CONTINUOUS
  62
6
  10
 5710.9090909091
  20
 3390.0000000000
  30
0.0
  11
 5710.9090909091
  21
 870.00000000000
  31
0.0
   0
LINE
   5
316
 100
AcDbEntity
   8
LEVEL001
 370
13
 100
AcDbLine
   6
CONTINUOUS
  62
6
  10
 5910.9090909091
  20
 3090.0000000000
  30
0.0
  11
 5910.9090909091
  21
 870.00000000000
  31
0.0
   0
MTEXT
   5
318
 100
AcDbEntity
   8
LEVEL001
 370
13
  62
1
 100
AcDbMText
  10
 6931.8880646631
  20
 1543.5736076959
  30
0.0
  40
 80.000000000000
  41
0.0
  71
9
  72
1
   1
\T1.000000;１
   7
GMM002
  44
 0.79999984000003
   0
MTEXT
   5
31A
 100
AcDbEntity
   8
LEVEL001
 370
13
  62
1
 100
AcDbMText
  10
 7010.9090909091
  20
 1543.5736076959
  30
0.0
  40
 80.000000000000
  41
0.0
  71
7
  72
1
   1
\T1.000000;ＳＴＫ４００
   7
GMM002
  44
 0.79999984000003
   0
LINE
   5
31B
 100
AcDbEntity
   8
LEVEL001
 370
13
 100
AcDbLine
   6
CONTINUOUS
  62
6
  10
 6760.9090909091
  20
 3090.0000000000
  30
0.0
  11
 6760.9090909091
  21
 870.00000000000
  31
0.0
   0
LINE
   5
31C
 100
AcDbEntity
   8
LEVEL001
 370
13
 100
AcDbLine
   6
CONTINUOUS
  62
6
  10
 6960.9090909091
  20
 3090.0000000000
  30
0.0
  11
 6960.9090909091
  21
 870.00000000000
  31
0.0
   0
LINE
   5
31D
 100
AcDbEntity
   8
LEVEL001
 370
13
 100
AcDbLine
   6
CONTINUOUS
  62
6
  10
 7460.9090909091
  20
 3090.0000000000
  30
0.0
  11
 7460.9090909091
  21
 870.00000000000
  31
0.0
   0
LINE
   5
31E
 100
AcDbEntity
   8
LEVEL001
 370
13
 100
AcDbLine
   6
CONTINUOUS
  62
6
  10
 6760.9090909091
  20
 1650.0000000000
  30
0.0
  11
 8226.6668701172
  21
 1650.0000000000
  31
0.0
   0
MTEXT
   5
320
 100
AcDbEntity
   8
LEVEL001
 370
13
  62
1
 100
AcDbMText
  10
 7510.9090909091
  20
 1585.0000000000
  30
0.0
  40
 44.000000000000
  41
0.0
  71
4
  72
1
   1
{\T1.000000;下地亜鉛メッキ}\P{\T1.000000;＋静電粉体塗装}
   7
GMM008
  44
 0.79999984000003
   0
MTEXT
   5
322
 100
AcDbEntity
   8
LEVEL001
 370
13
  62
1
 100
AcDbMText
  10
 6931.8880646631
  20
 1023.5736076959
  30
0.0
  40
 80.000000000000
  41
0.0
  71
9
  72
1
   1
\T1.000000;１式
   7
GMM002
  44
 0.79999984000003
   0
MTEXT
   5
324
 100
AcDbEntity
   8
LEVEL001
 370
13
  62
1
 100
AcDbMText
  10
 6931.8880646631
  20
 893.57360769589
  30
0.0
  40
 80.000000000000
  41
0.0
  71
9
  72
1
   1
\T1.000000;１式
   7
GMM002
  44
 0.79999984000003
   0
MTEXT
   5
326
 100
AcDbEntity
   8
LEVEL001
 370
13
  62
1
 100
AcDbMText
  10
 5767.3153235653
  20
 3644.3113553114
  30
0.0
  40
 80.000000000000
  41
0.0
  71
4
  72
1
   1
{\T1.000000;※構成部材は改良のため、変更する場合があります。}\P{\T1.000000;※本図は道路反射鏡ハンドブックに基づいています。}
   7
GMM002
  44
 0.94999981000004
   0
MTEXT
   5
328
 100
AcDbEntity
   8
LEVEL001
 370
13
  62
1
 100
AcDbMText
  10
 5960.9090909091
  20
 1153.5736076959
  30
0.0
  40
 80.000000000000
  41
0.0
  71
7
  72
1
   1
\T1.000000;注意板
   7
GMM002
  44
 0.79999984000003
   0
ENDSEC
  0
SECTION
  2
OBJECTS
  0
DICTIONARY
  5
C
100
AcDbDictionary
  3
ACAD_GROUP
350
D
  3
ACAD_MLINESTYLE
350
1B
  3
DWGPROPS
350
1C
  0
DICTIONARY
  5
D
102
{ACAD_REACTORS
330
C
102
}
100
AcDbDictionary
  0
DICTIONARY
  5
1B
102
{ACAD_REACTORS
330
C
102
}
100
AcDbDictionary
  3
STANDARD
350
1D
  0
MLINESTYLE
  5
1D
102
{ACAD_REACTORS
330
1B
102
}
100
AcDbMlineStyle
  2
STANDARD
 70
     0
  3

 62
   256
 51
90.0
 52
90.0
 71
     2
 49
0.5
 62
   256
  6
BYLAYER
 49
-0.5
 62
   256
  6
BYLAYER
   0
XRECORD
   5
1C
 102
{ACAD_REACTORS
 330
C
 102
}
 330
C
 100
AcDbXrecord
 280
1
   1
DWGPROPS COOKIE
   2
 
   3
 
   4
 
   6
 
   7
MA100S
   8
 
   9

 300
 = 
 301
 = 
 302
 = 
 303
 = 
 304
 = 
 305
 = 
 306
 = 
 307
 = 
 308
 = 
 309
 = 
  40
0.0
  41
 2460327.5000000
  42
 2460327.5000000
   1

  90
10
   0
ENDSEC
   0
EOF
