   0
SECTION
   2
HEADER
   9
$ACADVER
   1
AC1015
   9
$DWGCODEPAGE
   3
ANSI_932
   9
$LIMMIN
  10
0.0
  20
0.0
   9
$LIMMAX
  10
 8400.0000000000
  20
 5940.0000000000
   9
$EXTMIN
  10
0.0
  20
0.0
  30
0.0
   9
$EXTMAX
  10
 8400.0000000000
  20
 5940.0000000000
  30
0.0
   9
$LTSCALE
  40
 168.00000000000
   9
$HANDSEED
   5
39D
   0
ENDSEC
   0
SECTION
   2
TABLES
  0
TABLE
  2
VPORT
  5
8
100
AcDbSymbolTable
 70
     1
  0
VPORT
  5
39C
100
AcDbSymbolTableRecord
100
AcDbViewportTableRecord
  2
*ACTIVE
 70
     0
 10
0.0
 20
0.0
 11
1.0
 21
1.0
  12
 4200.0000000000
  22
 2970.0000000000
 13
0.0
 23
0.0
 14
1.0
 24
1.0
 15
0.0
 25
0.0
 16
0.0
 26
0.0
 36
1.0
 17
0.0
 27
0.0
 37
0.0
  40
 8400.0000000000
  41
 1.4787878787879
 42
50.0
 43
0.0
 44
0.0
 50
0.0
 51
0.0
 71
     0
 72
   100
 73
     1
 74
     1
 75
     0
 76
     0
 77
     0
 78
     0
  0
ENDTAB
  0
TABLE
  2
LTYPE
  5
5
100
AcDbSymbolTable
 70
    25
  0
LTYPE
  5
12
100
AcDbSymbolTableRecord
100
AcDbLinetypeTableRecord
  2
BYBLOCK
 70
     0
  3

 72
    65
 73
     0
 40
0.0
  0
LTYPE
  5
13
100
AcDbSymbolTableRecord
100
AcDbLinetypeTableRecord
  2
BYLAYER
 70
     0
  3

 72
    65
 73
     0
 40
0.0
  0
LTYPE
  5
14
100
AcDbSymbolTableRecord
100
AcDbLinetypeTableRecord
  2
CONTINUOUS
 70
     0
  3
Solid line
 72
    65
 73
     0
 40
0.0
  0
LTYPE
  5
20
100
AcDbSymbolTableRecord
100
AcDbLinetypeTableRecord
  2
BORDER
 70
     0
  3
__ __ . __ __ . __ __ . __ __ . __ __ . __ __ .
 72
    65
 73
     6
 40
1.75
 49
0.5
 74
     0
 49
-0.25
 74
     0
 49
0.5
 74
     0
 49
-0.25
 74
     0
 49
0.0
 74
     0
 49
-0.25
 74
     0
  0
LTYPE
  5
21
100
AcDbSymbolTableRecord
100
AcDbLinetypeTableRecord
  2
BORDER2
 70
     0
  3
__.__.__.__.__.__.__.__.__.__.__.__.__.__.__.__
 72
    65
 73
     6
 40
0.875
 49
0.25
 74
     0
 49
-0.125
 74
     0
 49
0.25
 74
     0
 49
-0.125
 74
     0
 49
0.0
 74
     0
 49
-0.125
 74
     0
  0
LTYPE
  5
22
100
AcDbSymbolTableRecord
100
AcDbLinetypeTableRecord
  2
BORDERX2
 70
     0
  3
____  ____  .  ____  ____  .  ____  ____  .  __
 72
    65
 73
     6
 40
3.5
 49
1.0
 74
     0
 49
-0.5
 74
     0
 49
1.0
 74
     0
 49
-0.5
 74
     0
 49
0.0
 74
     0
 49
-0.5
 74
     0
  0
LTYPE
  5
23
100
AcDbSymbolTableRecord
100
AcDbLinetypeTableRecord
  2
CENTER
 70
     0
  3
____ _ ____ _ ____ _ ____ _ ____ _ ____ _ ____ 
 72
    65
 73
     4
 40
2.0
 49
1.25
 74
     0
 49
-0.25
 74
     0
 49
0.25
 74
     0
 49
-0.25
 74
     0
  0
LTYPE
  5
24
100
AcDbSymbolTableRecord
100
AcDbLinetypeTableRecord
  2
CENTER2
 70
     0
  3
___ _ ___ _ ___ _ ___ _ ___ _ ___ _ ___ _ ___ _
 72
    65
 73
     4
 40
1.125
 49
0.75
 74
     0
 49
-0.125
 74
     0
 49
0.125
 74
     0
 49
-0.125
 74
     0
  0
LTYPE
  5
25
100
AcDbSymbolTableRecord
100
AcDbLinetypeTableRecord
  2
CENTERX2
 70
     0
  3
________  __  ________  __  ________  __  _____
 72
    65
 73
     4
 40
4.0
 49
2.5
 74
     0
 49
-0.5
 74
     0
 49
0.5
 74
     0
 49
-0.5
 74
     0
  0
LTYPE
  5
26
100
AcDbSymbolTableRecord
100
AcDbLinetypeTableRecord
  2
DASHDOT
 70
     0
  3
__ . __ . __ . __ . __ . __ . __ . __ . __ . __
 72
    65
 73
     4
 40
1.0
 49
0.5
 74
     0
 49
-0.25
 74
     0
 49
0.0
 74
     0
 49
-0.25
 74
     0
  0
LTYPE
  5
27
100
AcDbSymbolTableRecord
100
AcDbLinetypeTableRecord
  2
DASHDOT2
 70
     0
  3
_._._._._._._._._._._._._._._._._._._._._._._._
 72
    65
 73
     4
 40
0.5
 49
0.25
 74
     0
 49
-0.125
 74
     0
 49
0.0
 74
     0
 49
-0.125
 74
     0
  0
LTYPE
  5
28
100
AcDbSymbolTableRecord
100
AcDbLinetypeTableRecord
  2
DASHDOTX2
 70
     0
  3
____  .  ____  .  ____  .  ____  .  ____  .  __
 72
    65
 73
     4
 40
2.0
 49
1.0
 74
     0
 49
-0.5
 74
     0
 49
0.0
 74
     0
 49
-0.5
 74
     0
  0
LTYPE
  5
29
100
AcDbSymbolTableRecord
100
AcDbLinetypeTableRecord
  2
DASHED
 70
     0
  3
__ __ __ __ __ __ __ __ __ __ __ __ __ __ __ __
 72
    65
 73
     2
 40
0.75
 49
0.5
 74
     0
 49
-0.25
 74
     0
  0
LTYPE
  5
2A
100
AcDbSymbolTableRecord
100
AcDbLinetypeTableRecord
  2
DASHED2
 70
     0
  3
_ _ _ _ _ _ _ _ _ _ _ _ _ _ _ _ _ _ _ _ _ _ _ _
 72
    65
 73
     2
 40
0.375
 49
0.25
 74
     0
 49
-0.125
 74
     0
  0
LTYPE
  5
2B
100
AcDbSymbolTableRecord
100
AcDbLinetypeTableRecord
  2
DASHEDX2
 70
     0
  3
____  ____  ____  ____  ____  ____  ____  ____ 
 72
    65
 73
     2
 40
1.5
 49
1.0
 74
     0
 49
-0.5
 74
     0
  0
LTYPE
  5
2C
100
AcDbSymbolTableRecord
100
AcDbLinetypeTableRecord
  2
DIVIDE
 70
     0
  3
____ . . ____ . . ____ . . ____ . . ____ . . __
 72
    65
 73
     6
 40
1.25
 49
0.5
 74
     0
 49
-0.25
 74
     0
 49
0.0
 74
     0
 49
-0.25
 74
     0
 49
0.0
 74
     0
 49
-0.25
 74
     0
  0
LTYPE
  5
2D
100
AcDbSymbolTableRecord
100
AcDbLinetypeTableRecord
  2
DIVIDE2
 70
     0
  3
__..__..__..__..__..__..__..__..__..__..__..__.
 72
    65
 73
     6
 40
0.625
 49
0.25
 74
     0
 49
-0.125
 74
     0
 49
0.0
 74
     0
 49
-0.125
 74
     0
 49
0.0
 74
     0
 49
-0.125
 74
     0
  0
LTYPE
  5
2E
100
AcDbSymbolTableRecord
100
AcDbLinetypeTableRecord
  2
DIVIDEX2
 70
     0
  3
________  .  .  ________  .  .  ________  .  . 
 72
    65
 73
     6
 40
2.5
 49
1.0
 74
     0
 49
-0.5
 74
     0
 49
0.0
 74
     0
 49
-0.5
 74
     0
 49
0.0
 74
     0
 49
-0.5
 74
     0
  0
LTYPE
  5
2F
100
AcDbSymbolTableRecord
100
AcDbLinetypeTableRecord
  2
DOT
 70
     0
  3
. . . . . . . . . . . . . . . . . . . . . . . .
 72
    65
 73
     2
 40
0.25
 49
0.0
 74
     0
 49
-0.25
 74
     0
  0
LTYPE
  5
30
100
AcDbSymbolTableRecord
100
AcDbLinetypeTableRecord
  2
DOT2
 70
     0
  3
...............................................
 72
    65
 73
     2
 40
0.125
 49
0.0
 74
     0
 49
-0.125
 74
     0
  0
LTYPE
  5
31
100
AcDbSymbolTableRecord
100
AcDbLinetypeTableRecord
  2
DOTX2
 70
     0
  3
.  .  .  .  .  .  .  .  .  .  .  .  .  .  .  . 
 72
    65
 73
     2
 40
0.5
 49
0.0
 74
     0
 49
-0.5
 74
     0
  0
LTYPE
  5
32
100
AcDbSymbolTableRecord
100
AcDbLinetypeTableRecord
  2
HIDDEN
 70
     0
  3
__ __ __ __ __ __ __ __ __ __ __ __ __ __ __ __
 72
    65
 73
     2
 40
0.375
 49
0.25
 74
     0
 49
-0.125
 74
     0
  0
LTYPE
  5
33
100
AcDbSymbolTableRecord
100
AcDbLinetypeTableRecord
  2
HIDDEN2
 70
     0
  3
_ _ _ _ _ _ _ _ _ _ _ _ _ _ _ _ _ _ _ _ _ _ _ _
 72
    65
 73
     2
 40
0.1875
 49
0.125
 74
     0
 49
-0.0625
 74
     0
  0
LTYPE
  5
34
100
AcDbSymbolTableRecord
100
AcDbLinetypeTableRecord
  2
HIDDENX2
 70
     0
  3
____ ____ ____ ____ ____ ____ ____ ____ ____ __
 72
    65
 73
     2
 40
0.75
 49
0.5
 74
     0
 49
-0.25
 74
     0
  0
LTYPE
  5
35
100
AcDbSymbolTableRecord
100
AcDbLinetypeTableRecord
  2
PHANTOM
 70
     0
  3
______  __  __  ______  __  __  ______  __  __ 
 72
    65
 73
     6
 40
2.5
 49
1.25
 74
     0
 49
-0.25
 74
     0
 49
0.25
 74
     0
 49
-0.25
 74
     0
 49
0.25
 74
     0
 49
-0.25
 74
     0
  0
LTYPE
  5
36
100
AcDbSymbolTableRecord
100
AcDbLinetypeTableRecord
  2
PHANTOM2
 70
     0
  3
___ _ _ ___ _ _ ___ _ _ ___ _ _ ___ _ _ ___ _ _
 72
    65
 73
     6
 40
1.25
 49
0.625
 74
     0
 49
-0.125
 74
     0
 49
0.125
 74
     0
 49
-0.125
 74
     0
 49
0.125
 74
     0
 49
-0.125
 74
     0
  0
LTYPE
  5
37
100
AcDbSymbolTableRecord
100
AcDbLinetypeTableRecord
  2
PHANTOMX2
 70
     0
  3
____________    ____    ____    ____________   
 72
    65
 73
     6
 40
5.0
 49
2.5
 74
     0
 49
-0.5
 74
     0
 49
0.5
 74
     0
 49
-0.5
 74
     0
 49
0.5
 74
     0
 49
-0.5
 74
     0
  0
ENDTAB
   0
TABLE
   2
LAYER
   5
2
 100
AcDbSymbolTable
  70
3
   0
LAYER
   5
E
 100
AcDbSymbolTableRecord
 100
AcDbLayerTableRecord
   2
0
  70
0
  62
7
   6
CONTINUOUS
 390
30
   0
LAYER
   5
39
 100
AcDbSymbolTableRecord
 100
AcDbLayerTableRecord
   2
LEVEL001
  70
0
  62
7
   6
CONTINUOUS
 390
30
   0
LAYER
   5
3A
 100
AcDbSymbolTableRecord
 100
AcDbLayerTableRecord
   2
LEVEL002
  70
0
  62
7
   6
CONTINUOUS
 390
30
   0
ENDTAB
  0
TABLE
  2
STYLE
  5
3
100
AcDbSymbolTable
  70
10
  0
STYLE
  5
F
100
AcDbSymbolTableRecord
100
AcDbTextStyleTableRecord
  2
STANDARD
 70
     0
 40
0.0
 41
1.0
 50
0.0
 71
     0
 42
0.2
  3
TXT
  4
BIGFONT
  0
STYLE
  5
38
100
AcDbSymbolTableRecord
100
AcDbTextStyleTableRecord
  2
STANDARD1
 70
     4
 40
0.0
 41
1.0
 50
0.0
 71
     0
 42
0.2
  3
TXT
  4
BIGFONT
   0
STYLE
   5
3B
 100
AcDbSymbolTableRecord
 100
AcDbTextStyleTableRecord
   2
GMM001
  70
0
  40
0.0
  41
 1.0000000000000
  50
0.0
  71
     0
  42
1.0
   3
txt.shx
   4
bigfont.shx
   0
STYLE
   5
3C
 100
AcDbSymbolTableRecord
 100
AcDbTextStyleTableRecord
   2
GMM002
  70
0
  40
0.0
  41
 0.78787878787879
  50
0.0
  71
     0
  42
1.0
   3
txt.shx
   4
bigfont.shx
   0
STYLE
   5
3D
 100
AcDbSymbolTableRecord
 100
AcDbTextStyleTableRecord
   2
GMM003
  70
0
  40
0.0
  41
 0.75000000000000
  50
0.0
  71
     0
  42
1.0
   3
txt.shx
   4
bigfont.shx
   0
STYLE
   5
3E
 100
AcDbSymbolTableRecord
 100
AcDbTextStyleTableRecord
   2
GMM004
  70
0
  40
0.0
  41
 0.90000000000000
  50
0.0
  71
     0
  42
1.0
   3

   4

1001
ACAD
1000
ＭＳ 明朝
1071
33587217
   0
STYLE
   5
3F
 100
AcDbSymbolTableRecord
 100
AcDbTextStyleTableRecord
   2
GMM005
  70
0
  40
0.0
  41
 1.0000000000000
  50
0.0
  71
     0
  42
1.0
   3

   4

1001
ACAD
1000
ＭＳ 明朝
1071
32785
   0
STYLE
   5
40
 100
AcDbSymbolTableRecord
 100
AcDbTextStyleTableRecord
   2
GMM006
  70
0
  40
0.0
  41
 0.87500000000000
  50
0.0
  71
     0
  42
1.0
   3
txt.shx
   4
bigfont.shx
   0
STYLE
   5
41
 100
AcDbSymbolTableRecord
 100
AcDbTextStyleTableRecord
   2
GMM007
  70
0
  40
0.0
  41
 0.90000000000000
  50
0.0
  71
     0
  42
1.0
   3
txt.shx
   4
bigfont.shx
   0
STYLE
   5
42
 100
AcDbSymbolTableRecord
 100
AcDbTextStyleTableRecord
   2
GMM008
  70
0
  40
0.0
  41
 1.6363636363636
  50
0.0
  71
     0
  42
1.0
   3
txt.shx
   4
bigfont.shx
   0
ENDTAB
  0
TABLE
  2
VIEW
  5
6
100
AcDbSymbolTable
 70
     0
  0
ENDTAB
  0
TABLE
  2
UCS
  5
7
100
AcDbSymbolTable
 70
     0
  0
ENDTAB
  0
TABLE
  2
APPID
  5
9
100
AcDbSymbolTable
 70
     1
  0
APPID
  5
10
100
AcDbSymbolTableRecord
100
AcDbRegAppTableRecord
  2
ACAD
 70
     0
  0
ENDTAB
   0
TABLE
   2
DIMSTYLE
   5
A
 100
AcDbSymbolTable
  70
9
 100
AcDbDimStyleTable
  0
DIMSTYLE
105
1D
100
AcDbSymbolTableRecord
100
AcDbDimStyleTableRecord
  2
STANDARD
 70
     0
  3

  4

  5

  6

  7

 40
1.0
 41
0.18
 42
0.0625
 43
0.38
 44
0.18
 45
0.0
 46
0.0
 47
0.0
 48
0.0
140
0.18
141
0.09
142
0.0
143
25.4
144
1.0
145
0.0
146
1.0
147
0.09
 71
     0
 72
     0
 73
     1
 74
     1
 75
     0
 76
     0
 77
     0
 78
     0
170
     0
171
     2
172
     0
173
     0
174
     0
175
     0
176
     0
177
     0
178
     0
270
     2
271
     4
272
     4
273
     2
274
     2
340
F
275
     0
280
     0
281
     0
282
     0
283
     1
284
     0
285
     0
286
     0
287
     3
288
     0
   0
DIMSTYLE
 105
43
 100
AcDbSymbolTableRecord
 100
AcDbDimStyleTableRecord
   2
GMM001
  70
0
   3
%%c<>
   4

   5

   6
_OPEN
   7
_OPEN
  40
 1.0000000000000
  41
 30.000000000000
  42
 30.000000000000
  43
 160.00000000000
  44
 30.000000000000
  45
0.0
  46
 37.500000000000
  47
0.0
  48
0.0
 140
 66.000000000000
 141
 20.000000000000
 142
0.0
 143
 0.39400000000000E-1
 144
 1.0000000000000
 145
0.0
 146
 0.62500000000000
 147
 28.285714285714
  71
0
  72
0
  73
0
  74
0
  75
1
  76
1
  77
1
  78
8
 170
0
 171
2
 172
1
 173
1
 174
0
 175
0
 176
6
 177
6
 178
1
 270
2
 271
1
 272
0
 273
2
 274
2
 340
3C
 275
0
 280
0
 281
0
 282
0
 283
1
 284
0
 285
0
 286
0
 287
0
 288
0
   0
DIMSTYLE
 105
44
 100
AcDbSymbolTableRecord
 100
AcDbDimStyleTableRecord
   2
GMM002
  70
0
   3

   4

   5

   6
_OPEN
   7
_OPEN
  40
 1.0000000000000
  41
 30.000000000000
  42
 30.000000000000
  43
 160.00000000000
  44
 30.000000000000
  45
0.0
  46
 37.500000000000
  47
0.0
  48
0.0
 140
 66.000000000000
 141
 20.000000000000
 142
0.0
 143
 0.39400000000000E-1
 144
 1.0000000000000
 145
0.0
 146
 0.62500000000000
 147
0.0
  71
0
  72
0
  73
0
  74
0
  75
1
  76
1
  77
0
  78
8
 170
0
 171
2
 172
1
 173
1
 174
0
 175
0
 176
1
 177
1
 178
1
 270
2
 271
1
 272
0
 273
2
 274
2
 340
F
 275
0
 280
0
 281
0
 282
0
 283
1
 284
0
 285
0
 286
0
 287
3
 288
0
   0
DIMSTYLE
 105
45
 100
AcDbSymbolTableRecord
 100
AcDbDimStyleTableRecord
   2
GMM003
  70
0
   3

   4

   5

   6
_OPEN
   7
_OPEN
  40
 1.0000000000000
  41
 30.000000000000
  42
 30.000000000000
  43
 160.00000000000
  44
 30.000000000000
  45
0.0
  46
 37.500000000000
  47
0.0
  48
0.0
 140
 66.000000000000
 141
 20.000000000000
 142
0.0
 143
 0.39400000000000E-1
 144
 1.0000000000000
 145
0.0
 146
 0.62500000000000
 147
 28.285714285714
  71
0
  72
0
  73
0
  74
0
  75
0
  76
1
  77
1
  78
8
 170
0
 171
2
 172
1
 173
1
 174
0
 175
0
 176
6
 177
6
 178
1
 270
2
 271
1
 272
0
 273
2
 274
2
 340
3C
 275
0
 280
0
 281
0
 282
0
 283
1
 284
0
 285
0
 286
0
 287
3
 288
0
   0
DIMSTYLE
 105
46
 100
AcDbSymbolTableRecord
 100
AcDbDimStyleTableRecord
   2
GMM004
  70
0
   3
<>(標準設置高さ
   4

   5

   6
_OPEN
   7
_OPEN
  40
 1.0000000000000
  41
 30.000000000000
  42
 30.000000000000
  43
 160.00000000000
  44
 30.000000000000
  45
0.0
  46
 37.500000000000
  47
0.0
  48
0.0
 140
 66.000000000000
 141
 20.000000000000
 142
0.0
 143
 0.39400000000000E-1
 144
 1.0000000000000
 145
0.0
 146
 0.62500000000000
 147
 28.285714285714
  71
0
  72
0
  73
0
  74
0
  75
0
  76
0
  77
1
  78
8
 170
0
 171
2
 172
1
 173
1
 174
0
 175
0
 176
6
 177
6
 178
1
 270
2
 271
1
 272
0
 273
2
 274
2
 340
3C
 275
0
 280
0
 281
0
 282
0
 283
1
 284
0
 285
0
 286
0
 287
3
 288
0
   0
DIMSTYLE
 105
47
 100
AcDbSymbolTableRecord
 100
AcDbDimStyleTableRecord
   2
GMM005
  70
0
   3

   4

   5

   6
_OPEN
   7
_OPEN
  40
 1.0000000000000
  41
 30.000000000000
  42
 30.000000000000
  43
 160.00000000000
  44
 30.000000000000
  45
0.0
  46
 37.500000000000
  47
0.0
  48
0.0
 140
 66.000000000000
 141
 20.000000000000
 142
0.0
 143
 0.39400000000000E-1
 144
 1.0000000000000
 145
0.0
 146
 0.62500000000000
 147
0.0
  71
0
  72
0
  73
0
  74
0
  75
1
  76
1
  77
0
  78
8
 170
0
 171
2
 172
1
 173
1
 174
0
 175
0
 176
1
 177
1
 178
1
 270
2
 271
1
 272
0
 273
2
 274
2
 340
F
 275
0
 280
0
 281
0
 282
0
 283
1
 284
0
 285
0
 286
0
 287
3
 288
0
   0
DIMSTYLE
 105
48
 100
AcDbSymbolTableRecord
 100
AcDbDimStyleTableRecord
   2
GMM006
  70
0
   3
□<>
   4

   5

   6
_OPEN
   7
_OPEN
  40
 1.0000000000000
  41
 30.000000000000
  42
 30.000000000000
  43
 160.00000000000
  44
 30.000000000000
  45
0.0
  46
 37.500000000000
  47
0.0
  48
0.0
 140
 66.000000000000
 141
 20.000000000000
 142
0.0
 143
 0.39400000000000E-1
 144
 1.0000000000000
 145
0.0
 146
 0.62500000000000
 147
 28.285714285714
  71
0
  72
0
  73
0
  74
0
  75
0
  76
0
  77
1
  78
8
 170
0
 171
2
 172
1
 173
1
 174
0
 175
0
 176
6
 177
6
 178
1
 270
2
 271
1
 272
0
 273
2
 274
2
 340
3C
 275
0
 280
0
 281
0
 282
0
 283
1
 284
0
 285
0
 286
0
 287
3
 288
0
   0
DIMSTYLE
 105
49
 100
AcDbSymbolTableRecord
 100
AcDbDimStyleTableRecord
   2
GMM007
  70
0
   3

   4

   5

   6
_OPEN
   7
_OPEN
  40
 1.0000000000000
  41
 30.000000000000
  42
 30.000000000000
  43
 160.00000000000
  44
 30.000000000000
  45
0.0
  46
 37.500000000000
  47
0.0
  48
0.0
 140
 66.000000000000
 141
 20.000000000000
 142
0.0
 143
 0.39400000000000E-1
 144
 1.0000000000000
 145
0.0
 146
 0.62500000000000
 147
0.0
  71
0
  72
0
  73
0
  74
0
  75
1
  76
1
  77
0
  78
8
 170
0
 171
2
 172
1
 173
1
 174
0
 175
0
 176
1
 177
1
 178
1
 270
2
 271
1
 272
0
 273
2
 274
2
 340
F
 275
0
 280
0
 281
0
 282
0
 283
1
 284
0
 285
0
 286
0
 287
3
 288
0
   0
ENDTAB
  0
TABLE
  2
BLOCK_RECORD
  5
1
100
AcDbSymbolTable
 70
     0
  0
BLOCK_RECORD
  5
18
100
AcDbSymbolTableRecord
100
AcDbBlockTableRecord
  2
*MODEL_SPACE
  0
BLOCK_RECORD
  5
15
100
AcDbSymbolTableRecord
100
AcDbBlockTableRecord
  2
*PAPER_SPACE
   0
BLOCK_RECORD
   5
4A
 100
AcDbSymbolTableRecord
 100
AcDbBlockTableRecord
   2
*D1
   0
BLOCK_RECORD
   5
4B
 100
AcDbSymbolTableRecord
 100
AcDbBlockTableRecord
   2
*D2
   0
BLOCK_RECORD
   5
4C
 100
AcDbSymbolTableRecord
 100
AcDbBlockTableRecord
   2
*D13
   0
BLOCK_RECORD
   5
4D
 100
AcDbSymbolTableRecord
 100
AcDbBlockTableRecord
   2
*D14
   0
BLOCK_RECORD
   5
4E
 100
AcDbSymbolTableRecord
 100
AcDbBlockTableRecord
   2
*D15
   0
BLOCK_RECORD
   5
4F
 100
AcDbSymbolTableRecord
 100
AcDbBlockTableRecord
   2
*D19
   0
BLOCK_RECORD
   5
50
 100
AcDbSymbolTableRecord
 100
AcDbBlockTableRecord
   2
*D20
   0
BLOCK_RECORD
   5
51
 100
AcDbSymbolTableRecord
 100
AcDbBlockTableRecord
   2
_ARCHTICK
   0
BLOCK_RECORD
   5
52
 100
AcDbSymbolTableRecord
 100
AcDbBlockTableRecord
   2
_BOXBLANK
   0
BLOCK_RECORD
   5
53
 100
AcDbSymbolTableRecord
 100
AcDbBlockTableRecord
   2
_BOXFILLED
   0
BLOCK_RECORD
   5
54
 100
AcDbSymbolTableRecord
 100
AcDbBlockTableRecord
   2
_CLOSED
   0
BLOCK_RECORD
   5
55
 100
AcDbSymbolTableRecord
 100
AcDbBlockTableRecord
   2
_CLOSEDBLANK
   0
BLOCK_RECORD
   5
56
 100
AcDbSymbolTableRecord
 100
AcDbBlockTableRecord
   2
_DATUMBLANK
   0
BLOCK_RECORD
   5
57
 100
AcDbSymbolTableRecord
 100
AcDbBlockTableRecord
   2
_DATUMFILLED
   0
BLOCK_RECORD
   5
58
 100
AcDbSymbolTableRecord
 100
AcDbBlockTableRecord
   2
_DOT
   0
BLOCK_RECORD
   5
59
 100
AcDbSymbolTableRecord
 100
AcDbBlockTableRecord
   2
_DOTBLANK
   0
BLOCK_RECORD
   5
5A
 100
AcDbSymbolTableRecord
 100
AcDbBlockTableRecord
   2
_DOTSMALL
   0
BLOCK_RECORD
   5
5B
 100
AcDbSymbolTableRecord
 100
AcDbBlockTableRecord
   2
_INTEGRAL
   0
BLOCK_RECORD
   5
5C
 100
AcDbSymbolTableRecord
 100
AcDbBlockTableRecord
   2
_NONE
   0
BLOCK_RECORD
   5
5D
 100
AcDbSymbolTableRecord
 100
AcDbBlockTableRecord
   2
_OBLIQUE
   0
BLOCK_RECORD
   5
5E
 100
AcDbSymbolTableRecord
 100
AcDbBlockTableRecord
   2
_OPEN
   0
BLOCK_RECORD
   5
5F
 100
AcDbSymbolTableRecord
 100
AcDbBlockTableRecord
   2
_OPEN30
   0
BLOCK_RECORD
   5
60
 100
AcDbSymbolTableRecord
 100
AcDbBlockTableRecord
   2
_OPEN90
   0
BLOCK_RECORD
   5
61
 100
AcDbSymbolTableRecord
 100
AcDbBlockTableRecord
   2
_ORIGIN
   0
ENDTAB
   0
ENDSEC
  0
SECTION
  2
BLOCKS
  0
BLOCK
  5
19
100
AcDbEntity
  8
0
100
AcDbBlockBegin
  2
*MODEL_SPACE
 70
     0
 10
0.0
 20
0.0
 30
0.0
  3
*MODEL_SPACE
  1

  0
ENDBLK
  5
1A
100
AcDbEntity
  8
0
100
AcDbBlockEnd
  0
BLOCK
  5
16
100
AcDbEntity
 67
     1
  8
0
100
AcDbBlockBegin
  2
*PAPER_SPACE
 70
     0
 10
0.0
 20
0.0
 30
0.0
  3
*PAPER_SPACE
  1

  0
ENDBLK
  5
17
100
AcDbEntity
 67
     1
  8
0
100
AcDbBlockEnd
   0
BLOCK
   5
62
 100
AcDbEntity
   8
0
 100
AcDbBlockBegin
   2
_ARCHTICK
  70
0
  10
0.0
  20
0.0
  30
0.0
   3
_ARCHTICK
   0
POLYLINE
   5
63
 100
AcDbEntity
   8
0
 370
-2
   6
BYBLOCK
  62
0
 100
AcDb2dPolyline
  66
1
  10
0.0
  20
0.0
  30
0.0
  70
1
  40
 0.15000000000000
  41
 0.15000000000000
   0
VERTEX
   5
64
 100
AcDbEntity
   8
0
   6
BYBLOCK
  62
0
 100
AcDbVertex
 100
AcDb2dVertex
  10
-0.50000000000000
  20
-0.50000000000000
  30
0.0
  40
 0.15000000000000
  41
 0.15000000000000
   0
VERTEX
   5
65
 100
AcDbEntity
   8
0
   6
BYBLOCK
  62
0
 100
AcDbVertex
 100
AcDb2dVertex
  10
 0.50000000000000
  20
 0.50000000000000
  30
0.0
  40
 0.15000000000000
  41
 0.15000000000000
   0
SEQEND
   5
66
 100
AcDbEntity
   8
0
   6
BYBLOCK
  62
0
   0
ENDBLK
   5
67
 100
AcDbEntity
   8
0
 100
AcDbBlockEnd
   0
BLOCK
   5
68
 100
AcDbEntity
   8
0
 100
AcDbBlockBegin
   2
_OBLIQUE
  70
0
  10
0.0
  20
0.0
  30
0.0
   3
_OBLIQUE
   0
LINE
   5
69
 100
AcDbEntity
   8
0
 370
-2
 100
AcDbLine
   6
BYBLOCK
  62
0
  10
-0.50000000000000
  20
-0.50000000000000
  30
0.0
  11
 0.50000000000000
  21
 0.50000000000000
  31
0.0
   0
ENDBLK
   5
6A
 100
AcDbEntity
   8
0
 100
AcDbBlockEnd
   0
BLOCK
   5
6B
 100
AcDbEntity
   8
0
 100
AcDbBlockBegin
   2
_BOXBLANK
  70
0
  10
0.0
  20
0.0
  30
0.0
   3
_BOXBLANK
   0
LINE
   5
6C
 100
AcDbEntity
   8
0
 370
-2
 100
AcDbLine
   6
BYBLOCK
  62
0
  10
-0.50000000000000
  20
-0.50000000000000
  30
0.0
  11
 0.50000000000000
  21
-0.50000000000000
  31
0.0
   0
LINE
   5
6D
 100
AcDbEntity
   8
0
 370
-2
 100
AcDbLine
   6
BYBLOCK
  62
0
  10
 0.50000000000000
  20
-0.50000000000000
  30
0.0
  11
 0.50000000000000
  21
 0.50000000000000
  31
0.0
   0
LINE
   5
6E
 100
AcDbEntity
   8
0
 370
-2
 100
AcDbLine
   6
BYBLOCK
  62
0
  10
 0.50000000000000
  20
 0.50000000000000
  30
0.0
  11
-0.50000000000000
  21
 0.50000000000000
  31
0.0
   0
LINE
   5
6F
 100
AcDbEntity
   8
0
 370
-2
 100
AcDbLine
   6
BYBLOCK
  62
0
  10
-0.50000000000000
  20
 0.50000000000000
  30
0.0
  11
-0.50000000000000
  21
-0.50000000000000
  31
0.0
   0
LINE
   5
70
 100
AcDbEntity
   8
0
 370
-2
 100
AcDbLine
   6
BYBLOCK
  62
0
  10
-0.50000000000000
  20
0.0
  30
0.0
  11
-1.0000000000000
  21
0.0
  31
0.0
   0
ENDBLK
   5
71
 100
AcDbEntity
   8
0
 100
AcDbBlockEnd
   0
BLOCK
   5
72
 100
AcDbEntity
   8
0
 100
AcDbBlockBegin
   2
_BOXFILLED
  70
0
  10
0.0
  20
0.0
  30
0.0
   3
_BOXFILLED
   0
SOLID
   5
73
 100
AcDbEntity
   8
0
 100
AcDbTrace
   6
BYBLOCK
  62
0
  10
-0.50000000000000
  20
 0.50000000000000
  30
0.0
  11
 0.50000000000000
  21
 0.50000000000000
  31
0.0
  12
-0.50000000000000
  22
-0.50000000000000
  32
0.0
  13
 0.50000000000000
  23
-0.50000000000000
  33
0.0
   0
LINE
   5
74
 100
AcDbEntity
   8
0
 370
-2
 100
AcDbLine
   6
BYBLOCK
  62
0
  10
-0.50000000000000
  20
0.0
  30
0.0
  11
-1.0000000000000
  21
0.0
  31
0.0
   0
ENDBLK
   5
75
 100
AcDbEntity
   8
0
 100
AcDbBlockEnd
   0
BLOCK
   5
76
 100
AcDbEntity
   8
0
 100
AcDbBlockBegin
   2
_CLOSED
  70
0
  10
0.0
  20
0.0
  30
0.0
   3
_CLOSED
   0
LINE
   5
77
 100
AcDbEntity
   8
0
 370
-2
 100
AcDbLine
   6
BYBLOCK
  62
0
  10
-1.0000000000000
  20
 0.16666666666667
  30
0.0
  11
0.0
  21
0.0
  31
0.0
   0
LINE
   5
78
 100
AcDbEntity
   8
0
 370
-2
 100
AcDbLine
   6
BYBLOCK
  62
0
  10
0.0
  20
0.0
  30
0.0
  11
-1.0000000000000
  21
-0.16666666666667
  31
0.0
   0
LINE
   5
79
 100
AcDbEntity
   8
0
 370
-2
 100
AcDbLine
   6
BYBLOCK
  62
0
  10
-1.0000000000000
  20
 0.16666666666667
  30
0.0
  11
-1.0000000000000
  21
-0.16666666666667
  31
0.0
   0
LINE
   5
7A
 100
AcDbEntity
   8
0
 370
-2
 100
AcDbLine
   6
BYBLOCK
  62
0
  10
0.0
  20
0.0
  30
0.0
  11
-1.0000000000000
  21
0.0
  31
0.0
   0
ENDBLK
   5
7B
 100
AcDbEntity
   8
0
 100
AcDbBlockEnd
   0
BLOCK
   5
7C
 100
AcDbEntity
   8
0
 100
AcDbBlockBegin
   2
_OPEN
  70
0
  10
0.0
  20
0.0
  30
0.0
   3
_OPEN
   0
LINE
   5
7D
 100
AcDbEntity
   8
0
 370
-2
 100
AcDbLine
   6
BYBLOCK
  62
0
  10
-1.0000000000000
  20
 0.16666666666667
  30
0.0
  11
0.0
  21
0.0
  31
0.0
   0
LINE
   5
7E
 100
AcDbEntity
   8
0
 370
-2
 100
AcDbLine
   6
BYBLOCK
  62
0
  10
0.0
  20
0.0
  30
0.0
  11
-1.0000000000000
  21
-0.16666666666667
  31
0.0
   0
LINE
   5
7F
 100
AcDbEntity
   8
0
 370
-2
 100
AcDbLine
   6
BYBLOCK
  62
0
  10
0.0
  20
0.0
  30
0.0
  11
-1.0000000000000
  21
0.0
  31
0.0
   0
ENDBLK
   5
80
 100
AcDbEntity
   8
0
 100
AcDbBlockEnd
   0
BLOCK
   5
81
 100
AcDbEntity
   8
0
 100
AcDbBlockBegin
   2
_OPEN30
  70
0
  10
0.0
  20
0.0
  30
0.0
   3
_OPEN30
   0
LINE
   5
82
 100
AcDbEntity
   8
0
 370
-2
 100
AcDbLine
   6
BYBLOCK
  62
0
  10
-1.0000000000000
  20
 0.26794919243110
  30
0.0
  11
0.0
  21
0.0
  31
0.0
   0
LINE
   5
83
 100
AcDbEntity
   8
0
 370
-2
 100
AcDbLine
   6
BYBLOCK
  62
0
  10
0.0
  20
0.0
  30
0.0
  11
-1.0000000000000
  21
-0.26794919243110
  31
0.0
   0
LINE
   5
84
 100
AcDbEntity
   8
0
 370
-2
 100
AcDbLine
   6
BYBLOCK
  62
0
  10
0.0
  20
0.0
  30
0.0
  11
-1.0000000000000
  21
0.0
  31
0.0
   0
ENDBLK
   5
85
 100
AcDbEntity
   8
0
 100
AcDbBlockEnd
   0
BLOCK
   5
86
 100
AcDbEntity
   8
0
 100
AcDbBlockBegin
   2
_OPEN90
  70
0
  10
0.0
  20
0.0
  30
0.0
   3
_OPEN90
   0
LINE
   5
87
 100
AcDbEntity
   8
0
 370
-2
 100
AcDbLine
   6
BYBLOCK
  62
0
  10
-0.50000000000000
  20
 0.50000000000000
  30
0.0
  11
0.0
  21
0.0
  31
0.0
   0
LINE
   5
88
 100
AcDbEntity
   8
0
 370
-2
 100
AcDbLine
   6
BYBLOCK
  62
0
  10
0.0
  20
0.0
  30
0.0
  11
-0.50000000000000
  21
-0.50000000000000
  31
0.0
   0
LINE
   5
89
 100
AcDbEntity
   8
0
 370
-2
 100
AcDbLine
   6
BYBLOCK
  62
0
  10
0.0
  20
0.0
  30
0.0
  11
-1.0000000000000
  21
0.0
  31
0.0
   0
ENDBLK
   5
8A
 100
AcDbEntity
   8
0
 100
AcDbBlockEnd
   0
BLOCK
   5
8B
 100
AcDbEntity
   8
0
 100
AcDbBlockBegin
   2
_CLOSEDBLANK
  70
0
  10
0.0
  20
0.0
  30
0.0
   3
_CLOSEDBLANK
   0
LINE
   5
8C
 100
AcDbEntity
   8
0
 370
-2
 100
AcDbLine
   6
BYBLOCK
  62
0
  10
-1.0000000000000
  20
 0.16666666666667
  30
0.0
  11
0.0
  21
0.0
  31
0.0
   0
LINE
   5
8D
 100
AcDbEntity
   8
0
 370
-2
 100
AcDbLine
   6
BYBLOCK
  62
0
  10
0.0
  20
0.0
  30
0.0
  11
-1.0000000000000
  21
-0.16666666666667
  31
0.0
   0
LINE
   5
8E
 100
AcDbEntity
   8
0
 370
-2
 100
AcDbLine
   6
BYBLOCK
  62
0
  10
-1.0000000000000
  20
 0.16666666666667
  30
0.0
  11
-1.0000000000000
  21
-0.16666666666667
  31
0.0
   0
ENDBLK
   5
8F
 100
AcDbEntity
   8
0
 100
AcDbBlockEnd
   0
BLOCK
   5
90
 100
AcDbEntity
   8
0
 100
AcDbBlockBegin
   2
_DOT
  70
0
  10
0.0
  20
0.0
  30
0.0
   3
_DOT
   0
POLYLINE
   5
91
 100
AcDbEntity
   8
0
 370
-2
   6
BYBLOCK
  62
0
 100
AcDb2dPolyline
  66
1
  10
0.0
  20
0.0
  30
0.0
  70
1
  40
 0.50000000000000
  41
 0.50000000000000
   0
VERTEX
   5
92
 100
AcDbEntity
   8
0
   6
BYBLOCK
  62
0
 100
AcDbVertex
 100
AcDb2dVertex
  10
-0.25000000000000
  20
0.0
  30
0.0
  42
 1.0000000000000
  40
 0.50000000000000
  41
 0.50000000000000
   0
VERTEX
   5
93
 100
AcDbEntity
   8
0
   6
BYBLOCK
  62
0
 100
AcDbVertex
 100
AcDb2dVertex
  10
 0.25000000000000
  20
0.0
  30
0.0
  42
 1.0000000000000
  40
 0.50000000000000
  41
 0.50000000000000
   0
SEQEND
   5
94
 100
AcDbEntity
   8
0
   6
BYBLOCK
  62
0
   0
LINE
   5
95
 100
AcDbEntity
   8
0
 370
-2
 100
AcDbLine
   6
BYBLOCK
  62
0
  10
-0.50000000000000
  20
0.0
  30
0.0
  11
-1.0000000000000
  21
0.0
  31
0.0
   0
ENDBLK
   5
96
 100
AcDbEntity
   8
0
 100
AcDbBlockEnd
   0
BLOCK
   5
97
 100
AcDbEntity
   8
0
 100
AcDbBlockBegin
   2
_DOTSMALL
  70
0
  10
0.0
  20
0.0
  30
0.0
   3
_DOTSMALL
   0
POLYLINE
   5
98
 100
AcDbEntity
   8
0
 370
-2
   6
BYBLOCK
  62
0
 100
AcDb2dPolyline
  66
1
  10
0.0
  20
0.0
  30
0.0
  70
1
  40
 0.50000000000000
  41
 0.50000000000000
   0
VERTEX
   5
99
 100
AcDbEntity
   8
0
   6
BYBLOCK
  62
0
 100
AcDbVertex
 100
AcDb2dVertex
  10
-0.62500000000000E-1
  20
0.0
  30
0.0
  42
 1.0000000000000
  40
 0.50000000000000
  41
 0.50000000000000
   0
VERTEX
   5
9A
 100
AcDbEntity
   8
0
   6
BYBLOCK
  62
0
 100
AcDbVertex
 100
AcDb2dVertex
  10
 0.62500000000000E-1
  20
0.0
  30
0.0
  42
 1.0000000000000
  40
 0.50000000000000
  41
 0.50000000000000
   0
SEQEND
   5
9B
 100
AcDbEntity
   8
0
   6
BYBLOCK
  62
0
   0
ENDBLK
   5
9C
 100
AcDbEntity
   8
0
 100
AcDbBlockEnd
   0
BLOCK
   5
9D
 100
AcDbEntity
   8
0
 100
AcDbBlockBegin
   2
_DATUMBLANK
  70
0
  10
0.0
  20
0.0
  30
0.0
   3
_DATUMBLANK
   0
LINE
   5
9E
 100
AcDbEntity
   8
0
 370
-2
 100
AcDbLine
   6
BYBLOCK
  62
0
  10
0.0
  20
 0.57735027000000
  30
0.0
  11
-1.0000000000000
  21
0.0
  31
0.0
   0
LINE
   5
9F
 100
AcDbEntity
   8
0
 370
-2
 100
AcDbLine
   6
BYBLOCK
  62
0
  10
-1.0000000000000
  20
0.0
  30
0.0
  11
0.0
  21
-0.57735027000000
  31
0.0
   0
LINE
   5
A0
 100
AcDbEntity
   8
0
 370
-2
 100
AcDbLine
   6
BYBLOCK
  62
0
  10
0.0
  20
-0.57735027000000
  30
0.0
  11
0.0
  21
 0.57735027000000
  31
0.0
   0
ENDBLK
   5
A1
 100
AcDbEntity
   8
0
 100
AcDbBlockEnd
   0
BLOCK
   5
A2
 100
AcDbEntity
   8
0
 100
AcDbBlockBegin
   2
_DATUMFILLED
  70
0
  10
0.0
  20
0.0
  30
0.0
   3
_DATUMFILLED
   0
SOLID
   5
A3
 100
AcDbEntity
   8
0
 100
AcDbTrace
   6
BYBLOCK
  62
0
  10
0.0
  20
 0.57735027000000
  30
0.0
  11
-1.0000000000000
  21
0.0
  31
0.0
  12
0.0
  22
-0.57735027000000
  32
0.0
  13
0.0
  23
-0.57735027000000
  33
0.0
   0
ENDBLK
   5
A4
 100
AcDbEntity
   8
0
 100
AcDbBlockEnd
   0
BLOCK
   5
A5
 100
AcDbEntity
   8
0
 100
AcDbBlockBegin
   2
_ORIGIN
  70
0
  10
0.0
  20
0.0
  30
0.0
   3
_ORIGIN
   0
CIRCLE
   5
A6
 100
AcDbEntity
   8
0
 370
-2
 100
AcDbCircle
   6
BYBLOCK
  62
0
  10
0.0
  20
0.0
  30
0.0
  40
 0.50000000000000
   0
LINE
   5
A7
 100
AcDbEntity
   8
0
 370
-2
 100
AcDbLine
   6
BYBLOCK
  62
0
  10
0.0
  20
0.0
  30
0.0
  11
-1.0000000000000
  21
0.0
  31
0.0
   0
ENDBLK
   5
A8
 100
AcDbEntity
   8
0
 100
AcDbBlockEnd
   0
BLOCK
   5
A9
 100
AcDbEntity
   8
0
 100
AcDbBlockBegin
   2
_NONE
  70
0
  10
0.0
  20
0.0
  30
0.0
   3
_NONE
   0
CIRCLE
   5
AA
 100
AcDbEntity
   8
0
 370
-2
 100
AcDbCircle
   6
BYBLOCK
  62
0
  10
0.0
  20
0.0
  30
0.0
  40
 0.25000000000000
   0
ENDBLK
   5
AB
 100
AcDbEntity
   8
0
 100
AcDbBlockEnd
   0
BLOCK
   5
AC
 100
AcDbEntity
   8
0
 100
AcDbBlockBegin
   2
_DOTBLANK
  70
0
  10
0.0
  20
0.0
  30
0.0
   3
_DOTBLANK
   0
CIRCLE
   5
AD
 100
AcDbEntity
   8
0
 370
-2
 100
AcDbCircle
   6
BYBLOCK
  62
0
  10
0.0
  20
0.0
  30
0.0
  40
 0.50000000000000
   0
LINE
   5
AE
 100
AcDbEntity
   8
0
 370
-2
 100
AcDbLine
   6
BYBLOCK
  62
0
  10
-0.50000000000000
  20
0.0
  30
0.0
  11
-1.0000000000000
  21
0.0
  31
0.0
   0
ENDBLK
   5
AF
 100
AcDbEntity
   8
0
 100
AcDbBlockEnd
   0
BLOCK
   5
B0
 100
AcDbEntity
   8
0
 100
AcDbBlockBegin
   2
_INTEGRAL
  70
0
  10
0.0
  20
0.0
  30
0.0
   3
_INTEGRAL
   0
ARC
   5
B1
 100
AcDbEntity
   8
0
 370
-2
   6
BYBLOCK
  62
0
 100
AcDbCircle
  10
 0.44488800000000
  20
-0.91335000000000E-1
  30
0.0
  40
 0.45416700000000
 100
AcDbArc
  50
 102.00000000000
  51
 168.00000000000
   0
ARC
   5
B2
 100
AcDbEntity
   8
0
 370
-2
   6
BYBLOCK
  62
0
 100
AcDbCircle
  10
-0.44488800000000
  20
 0.91335000000000E-1
  30
0.0
  40
 0.45416700000000
 100
AcDbArc
  50
 282.00000000000
  51
 348.00000000000
   0
ENDBLK
   5
B3
 100
AcDbEntity
   8
0
 100
AcDbBlockEnd
   0
BLOCK
   5
B4
 100
AcDbEntity
   8
0
 100
AcDbBlockBegin
   2
*D1
  70
65
  10
0.0
  20
0.0
  30
0.0
   3
*D1
   0
LINE
   5
B5
 100
AcDbEntity
   8
LEVEL001
 370
13
 100
AcDbLine
   6
CONTINUOUS
  62
6
  10
 1240.5165710650
  20
 4869.9997342197
  30
0.0
  11
 547.69594160516
  21
 4470.0002657803
  31
0.0
   0
INSERT
   5
B6
 100
AcDbEntity
   8
LEVEL001
   6
CONTINUOUS
  62
6
 100
AcDbBlockReference
   2
_OPEN
  10
 1240.5165710650
  20
 4869.9997342197
  30
0.0
  41
 30.000000000000
  42
 30.000000000000
  43
 30.000000000000
  50
 29.999956056924
   0
INSERT
   5
B7
 100
AcDbEntity
   8
LEVEL001
   6
CONTINUOUS
  62
6
 100
AcDbBlockReference
   2
_OPEN
  10
 547.69594160516
  20
 4470.0002657803
  30
0.0
  41
 30.000000000000
  42
 30.000000000000
  43
 30.000000000000
  50
 209.99995605692
   0
MTEXT
   5
B8
 100
AcDbEntity
   8
LEVEL001
 370
13
  62
1
 100
AcDbMText
  10
 879.96341797960
  20
 4694.4961579825
  30
0.0
  40
 66.000000000000
  41
0.0
  71
8
  72
1
   1
\A1;%%c800
   7
GMM002
  11
 0.86602578725987
  21
 0.49999933580048
  31
0.0
   0
ENDBLK
   5
B9
 100
AcDbEntity
   8
0
 100
AcDbBlockEnd
   0
BLOCK
   5
BA
 100
AcDbEntity
   8
0
 100
AcDbBlockBegin
   2
*D2
  70
65
  10
0.0
  20
0.0
  30
0.0
   3
*D2
   0
LINE
   5
BB
 100
AcDbEntity
   8
LEVEL001
 370
13
 100
AcDbLine
   6
CONTINUOUS
  62
6
  10
 2190.5165710650
  20
 4869.9997342197
  30
0.0
  11
 1497.6959416052
  21
 4470.0002657803
  31
0.0
   0
INSERT
   5
BC
 100
AcDbEntity
   8
LEVEL001
   6
CONTINUOUS
  62
6
 100
AcDbBlockReference
   2
_OPEN
  10
 2190.5165710650
  20
 4869.9997342197
  30
0.0
  41
 30.000000000000
  42
 30.000000000000
  43
 30.000000000000
  50
 29.999956056924
   0
INSERT
   5
BD
 100
AcDbEntity
   8
LEVEL001
   6
CONTINUOUS
  62
6
 100
AcDbBlockReference
   2
_OPEN
  10
 1497.6959416052
  20
 4470.0002657803
  30
0.0
  41
 30.000000000000
  42
 30.000000000000
  43
 30.000000000000
  50
 209.99995605692
   0
MTEXT
   5
BE
 100
AcDbEntity
   8
LEVEL001
 370
13
  62
1
 100
AcDbMText
  10
 1829.9634179796
  20
 4694.4961579825
  30
0.0
  40
 66.000000000000
  41
0.0
  71
8
  72
1
   1
\A1;%%c800
   7
GMM002
  11
 0.86602578725987
  21
 0.49999933580048
  31
0.0
   0
ENDBLK
   5
BF
 100
AcDbEntity
   8
0
 100
AcDbBlockEnd
   0
BLOCK
   5
C0
 100
AcDbEntity
   8
0
 100
AcDbBlockBegin
   2
*D13
  70
65
  10
0.0
  20
0.0
  30
0.0
   3
*D13
   0
LINE
   5
C1
 100
AcDbEntity
   8
LEVEL001
 370
13
 100
AcDbLine
   6
CONTINUOUS
  62
6
  10
 1089.1064089230
  20
 470.00000000000
  30
0.0
  11
 589.10640892299
  21
 470.00000000000
  31
0.0
   0
LINE
   5
C2
 100
AcDbEntity
   8
LEVEL001
 370
13
 100
AcDbLine
   6
CONTINUOUS
  62
6
  10
 1089.1064089230
  20
 570.00000000000
  30
0.0
  11
 589.10640892299
  21
 570.00000000000
  31
0.0
   0
LINE
   5
C3
 100
AcDbEntity
   8
LEVEL001
 370
13
 100
AcDbLine
   6
CONTINUOUS
  62
6
  10
 619.10640892299
  20
 470.00000000000
  30
0.0
  11
 619.10640892299
  21
 570.00000000000
  31
0.0
   0
INSERT
   5
C4
 100
AcDbEntity
   8
LEVEL001
   6
CONTINUOUS
  62
6
 100
AcDbBlockReference
   2
_OPEN
  10
 619.10640892299
  20
 470.00000000000
  30
0.0
  41
 30.000000000000
  42
 30.000000000000
  43
 30.000000000000
  50
 270.00000000000
   0
INSERT
   5
C5
 100
AcDbEntity
   8
LEVEL001
   6
CONTINUOUS
  62
6
 100
AcDbBlockReference
   2
_OPEN
  10
 619.10640892299
  20
 570.00000000000
  30
0.0
  41
 30.000000000000
  42
 30.000000000000
  43
 30.000000000000
  50
 90.000000000000
   0
MTEXT
   5
C6
 100
AcDbEntity
   8
LEVEL001
 370
13
  62
1
 100
AcDbMText
  10
 590.82069463727
  20
 520.00000000000
  30
0.0
  40
 66.000000000000
  41
0.0
  71
8
  72
1
   1
\A1;100
   7
GMM002
  11
0.0
  21
 1.0000000000000
  31
0.0
   0
ENDBLK
   5
C7
 100
AcDbEntity
   8
0
 100
AcDbBlockEnd
   0
BLOCK
   5
C8
 100
AcDbEntity
   8
0
 100
AcDbBlockBegin
   2
*D14
  70
65
  10
0.0
  20
0.0
  30
0.0
   3
*D14
   0
LINE
   5
C9
 100
AcDbEntity
   8
LEVEL001
 370
13
 100
AcDbLine
   6
CONTINUOUS
  62
6
  10
 1089.1064089230
  20
 570.00000000000
  30
0.0
  11
 589.10640892299
  21
 570.00000000000
  31
0.0
   0
LINE
   5
CA
 100
AcDbEntity
   8
LEVEL001
 370
13
 100
AcDbLine
   6
CONTINUOUS
  62
6
  10
 789.10647415795
  20
 1770.0000002040
  30
0.0
  11
 589.10640892299
  21
 1770.0000002040
  31
0.0
   0
LINE
   5
CB
 100
AcDbEntity
   8
LEVEL001
 370
13
 100
AcDbLine
   6
CONTINUOUS
  62
6
  10
 619.10640892299
  20
 570.00000000000
  30
0.0
  11
 619.10640892299
  21
 1770.0000002040
  31
0.0
   0
INSERT
   5
CC
 100
AcDbEntity
   8
LEVEL001
   6
CONTINUOUS
  62
6
 100
AcDbBlockReference
   2
_OPEN
  10
 619.10640892299
  20
 570.00000000000
  30
0.0
  41
 30.000000000000
  42
 30.000000000000
  43
 30.000000000000
  50
 270.00000000000
   0
INSERT
   5
CD
 100
AcDbEntity
   8
LEVEL001
   6
CONTINUOUS
  62
6
 100
AcDbBlockReference
   2
_OPEN
  10
 619.10640892299
  20
 1770.0000002040
  30
0.0
  41
 30.000000000000
  42
 30.000000000000
  43
 30.000000000000
  50
 90.000000000000
   0
MTEXT
   5
CE
 100
AcDbEntity
   8
LEVEL001
 370
13
  62
1
 100
AcDbMText
  10
 590.82069463727
  20
 1170.0000001020
  30
0.0
  40
 66.000000000000
  41
0.0
  71
8
  72
1
   1
\A1;1200
   7
GMM002
  11
0.0
  21
 1.0000000000000
  31
0.0
   0
ENDBLK
   5
CF
 100
AcDbEntity
   8
0
 100
AcDbBlockEnd
   0
BLOCK
   5
D0
 100
AcDbEntity
   8
0
 100
AcDbBlockBegin
   2
*D15
  70
65
  10
0.0
  20
0.0
  30
0.0
   3
*D15
   0
LINE
   5
D1
 100
AcDbEntity
   8
LEVEL001
 370
13
 100
AcDbLine
   6
CONTINUOUS
  62
6
  10
 789.10647415795
  20
 1770.0000002040
  30
0.0
  11
 589.10640892299
  21
 1770.0000002040
  31
0.0
   0
LINE
   5
D2
 100
AcDbEntity
   8
LEVEL001
 370
13
 100
AcDbLine
   6
CONTINUOUS
  62
6
  10
 864.10640892292
  20
 4270.0000002077
  30
0.0
  11
 589.10640892299
  21
 4270.0000002077
  31
0.0
   0
LINE
   5
D3
 100
AcDbEntity
   8
LEVEL001
 370
13
 100
AcDbLine
   6
CONTINUOUS
  62
6
  10
 619.10640892299
  20
 1770.0000002040
  30
0.0
  11
 619.10640892299
  21
 4270.0000002077
  31
0.0
   0
INSERT
   5
D4
 100
AcDbEntity
   8
LEVEL001
   6
CONTINUOUS
  62
6
 100
AcDbBlockReference
   2
_OPEN
  10
 619.10640892299
  20
 1770.0000002040
  30
0.0
  41
 30.000000000000
  42
 30.000000000000
  43
 30.000000000000
  50
 270.00000000000
   0
INSERT
   5
D5
 100
AcDbEntity
   8
LEVEL001
   6
CONTINUOUS
  62
6
 100
AcDbBlockReference
   2
_OPEN
  10
 619.10640892299
  20
 4270.0000002077
  30
0.0
  41
 30.000000000000
  42
 30.000000000000
  43
 30.000000000000
  50
 90.000000000000
   0
MTEXT
   5
D6
 100
AcDbEntity
   8
LEVEL001
 370
13
  62
1
 100
AcDbMText
  10
 590.82069463727
  20
 3020.0000002058
  30
0.0
  40
 66.000000000000
  41
0.0
  71
8
  72
1
   1
\A1;2500(標準設置高さ)
   7
GMM002
  11
0.0
  21
 1.0000000000000
  31
0.0
   0
ENDBLK
   5
D7
 100
AcDbEntity
   8
0
 100
AcDbBlockEnd
   0
BLOCK
   5
D8
 100
AcDbEntity
   8
0
 100
AcDbBlockBegin
   2
*D19
  70
65
  10
0.0
  20
0.0
  30
0.0
   3
*D19
   0
LINE
   5
D9
 100
AcDbEntity
   8
LEVEL001
 370
13
 100
AcDbLine
   6
CONTINUOUS
  62
6
  10
 1119.1064089230
  20
 440.00000000000
  30
0.0
  11
 1119.1064089230
  21
 240.00000020398
  31
0.0
   0
LINE
   5
DA
 100
AcDbEntity
   8
LEVEL001
 370
13
 100
AcDbLine
   6
CONTINUOUS
  62
6
  10
 1619.1064089230
  20
 440.00000000000
  30
0.0
  11
 1619.1064089230
  21
 240.00000020398
  31
0.0
   0
LINE
   5
DB
 100
AcDbEntity
   8
LEVEL001
 370
13
 100
AcDbLine
   6
CONTINUOUS
  62
6
  10
 1119.1064089230
  20
 270.00000020398
  30
0.0
  11
 1619.1064089230
  21
 270.00000020398
  31
0.0
   0
INSERT
   5
DC
 100
AcDbEntity
   8
LEVEL001
   6
CONTINUOUS
  62
6
 100
AcDbBlockReference
   2
_OPEN
  10
 1119.1064089230
  20
 270.00000020398
  30
0.0
  41
 30.000000000000
  42
 30.000000000000
  43
 30.000000000000
  50
 180.00000000000
   0
INSERT
   5
DD
 100
AcDbEntity
   8
LEVEL001
   6
CONTINUOUS
  62
6
 100
AcDbBlockReference
   2
_OPEN
  10
 1619.1064089230
  20
 270.00000020398
  30
0.0
  41
 30.000000000000
  42
 30.000000000000
  43
 30.000000000000
  50
0.0
   0
MTEXT
   5
DE
 100
AcDbEntity
   8
LEVEL001
 370
13
  62
1
 100
AcDbMText
  10
 1369.1064089230
  20
 298.28571448969
  30
0.0
  40
 66.000000000000
  41
0.0
  71
8
  72
1
   1
\A1;□500
   7
GMM002
   0
ENDBLK
   5
DF
 100
AcDbEntity
   8
0
 100
AcDbBlockEnd
   0
BLOCK
   5
E0
 100
AcDbEntity
   8
0
 100
AcDbBlockBegin
   2
*D20
  70
65
  10
0.0
  20
0.0
  30
0.0
   3
*D20
   0
LINE
   5
E1
 100
AcDbEntity
   8
LEVEL001
 370
13
 100
AcDbLine
   6
CONTINUOUS
  62
6
  10
 2869.1064089230
  20
 440.00000000000
  30
0.0
  11
 2869.1064089230
  21
 240.00000020398
  31
0.0
   0
LINE
   5
E2
 100
AcDbEntity
   8
LEVEL001
 370
13
 100
AcDbLine
   6
CONTINUOUS
  62
6
  10
 3369.1064089230
  20
 440.00000000000
  30
0.0
  11
 3369.1064089230
  21
 240.00000020398
  31
0.0
   0
LINE
   5
E3
 100
AcDbEntity
   8
LEVEL001
 370
13
 100
AcDbLine
   6
CONTINUOUS
  62
6
  10
 2869.1064089230
  20
 270.00000020398
  30
0.0
  11
 3369.1064089230
  21
 270.00000020398
  31
0.0
   0
INSERT
   5
E4
 100
AcDbEntity
   8
LEVEL001
   6
CONTINUOUS
  62
6
 100
AcDbBlockReference
   2
_OPEN
  10
 2869.1064089230
  20
 270.00000020398
  30
0.0
  41
 30.000000000000
  42
 30.000000000000
  43
 30.000000000000
  50
 180.00000000000
   0
INSERT
   5
E5
 100
AcDbEntity
   8
LEVEL001
   6
CONTINUOUS
  62
6
 100
AcDbBlockReference
   2
_OPEN
  10
 3369.1064089230
  20
 270.00000020398
  30
0.0
  41
 30.000000000000
  42
 30.000000000000
  43
 30.000000000000
  50
0.0
   0
MTEXT
   5
E6
 100
AcDbEntity
   8
LEVEL001
 370
13
  62
1
 100
AcDbMText
  10
 3119.1064089230
  20
 298.28571448969
  30
0.0
  40
 66.000000000000
  41
0.0
  71
8
  72
1
   1
\A1;□500
   7
GMM002
   0
ENDBLK
   5
E7
 100
AcDbEntity
   8
0
 100
AcDbBlockEnd
   0
ENDSEC
   0
SECTION
   2
ENTITIES
   0
LINE
   5
E8
 100
AcDbEntity
   8
LEVEL001
 370
13
 100
AcDbLine
   6
CONTINUOUS
  62
6
  10
 8095.7732790402
  20
 3520.0000000000
  30
0.0
  11
 8095.7732790402
  21
 870.00000000000
  31
0.0
   0
LINE
   5
E9
 100
AcDbEntity
   8
LEVEL001
 370
13
 100
AcDbLine
   6
CONTINUOUS
  62
6
  10
 5580.0154998321
  20
 870.00000000000
  30
0.0
  11
 8095.7732790402
  21
 870.00000000000
  31
0.0
   0
LWPOLYLINE
   5
EA
 100
AcDbEntity
   8
LEVEL001
 370
13
   6
CONTINUOUS
  62
7
 100
AcDbPolyline
  90
4
  70
1
  10
 309.10640892299
  20
 170.00000000000
  10
 309.10640892299
  20
 5770.0000000000
  10
 8095.7732790402
  20
 5770.0000000000
  10
 8095.7732790402
  20
 170.00000000000
   0
LINE
   5
EB
 100
AcDbEntity
   8
LEVEL001
 370
13
 100
AcDbLine
   6
CONTINUOUS
  62
1
  10
 5580.0154998321
  20
 650.00000000000
  30
0.0
  11
 7220.0154998321
  21
 650.00000000000
  31
0.0
   0
MTEXT
   5
ED
 100
AcDbEntity
   8
LEVEL001
 370
13
  62
1
 100
AcDbMText
  10
 1369.1064089230
  20
 5520.0000000000
  30
0.0
  40
 80.000000000000
  41
0.0
  71
5
  72
1
   1
\T1.000000;正　面　図
   7
GMM001
  44
 0.79999984000003
   0
MTEXT
   5
EF
 100
AcDbEntity
   8
LEVEL001
 370
13
  62
1
 100
AcDbMText
  10
 3119.1064089230
  20
 5520.0000000000
  30
0.0
  40
 80.000000000000
  41
0.0
  71
5
  72
1
   1
\T1.000000;側　面　図
   7
GMM001
  44
 0.79999984000003
   0
MTEXT
   5
F1
 100
AcDbEntity
   8
LEVEL001
 370
13
  62
1
 100
AcDbMText
  10
 4369.1064089230
  20
 5520.0000000000
  30
0.0
  40
 80.000000000000
  41
0.0
  71
5
  72
1
   1
\T1.000000;背　面　図
   7
GMM001
  44
 0.79999984000003
   0
LWPOLYLINE
   5
F2
 100
AcDbEntity
   8
LEVEL001
 370
13
   6
CONTINUOUS
  62
7
 100
AcDbPolyline
  90
4
  70
1
  10
 1425.1064174429
  20
 4727.9999584717
  10
 1439.1064174429
  20
 4727.9999584717
  10
 1439.1064174429
  20
 4741.9999584717
  10
 1425.1064174429
  20
 4741.9999584717
   0
LWPOLYLINE
   5
F3
 100
AcDbEntity
   8
LEVEL001
 370
13
   6
CONTINUOUS
  62
7
 100
AcDbPolyline
  90
4
  70
1
  10
 1313.1064004031
  20
 4557.9999584717
  10
 1299.1064004031
  20
 4557.9999584717
  10
 1299.1064004031
  20
 4571.9999584717
  10
 1313.1064004031
  20
 4571.9999584717
   0
LWPOLYLINE
   5
F4
 100
AcDbEntity
   8
LEVEL001
 370
13
   6
CONTINUOUS
  62
7
 100
AcDbPolyline
  90
4
  70
0
  10
 1413.6564089230
  20
 4759.9999584717
  10
 1413.6564089230
  20
 4970.0000000000
  10
 1324.5564089230
  20
 4970.0000000000
  10
 1324.5564089230
  20
 4759.9999584717
   0
CIRCLE
   5
F5
 100
AcDbEntity
   8
LEVEL001
 370
13
 100
AcDbCircle
   6
CONTINUOUS
  62
7
  10
 894.10625633510
  20
 4670.0000000000
  30
0.0
  40
 399.99999979907
   0
DIMENSION
   5
F6
 100
AcDbEntity
   8
LEVEL001
 370
13
   6
CONTINUOUS
  62
6
 100
AcDbDimension
   2
*D1
  10
 1240.5165710650
  20
 4869.9997342197
  30
0.0
  11
 879.96341797960
  21
 4694.4961579825
  31
0.0
  70
3
   3
GMM001
 100
AcDbDiametricDimension
  15
 547.69594160516
  25
 4470.0002657803
  35
0.0
   0
CIRCLE
   5
F7
 100
AcDbEntity
   8
LEVEL001
 370
13
 100
AcDbCircle
   6
CONTINUOUS
  62
2
  10
 894.10640892299
  20
 4670.0000000000
  30
0.0
  40
 382.20001201504
   0
ARC
   5
F8
 100
AcDbEntity
   8
LEVEL001
 370
13
   6
CONTINUOUS
  62
7
 100
AcDbCircle
  10
 894.10640892299
  20
 4670.0000000000
  30
0.0
  40
 406.99999979904
 100
AcDbArc
  50
 18.850250860434
  51
 161.14974913957
   0
LINE
   5
F9
 100
AcDbEntity
   8
LEVEL001
 370
13
 100
AcDbLine
   6
CONTINUOUS
  62
7
  10
 1279.2774746021
  20
 4801.5000000000
  30
0.0
  11
 1271.8730492633
  21
 4801.5000000000
  31
0.0
   0
LINE
   5
FA
 100
AcDbEntity
   8
LEVEL001
 370
13
 100
AcDbLine
   6
CONTINUOUS
  62
7
  10
 508.93534324383
  20
 4801.5000000000
  30
0.0
  11
 516.33976858268
  21
 4801.5000000000
  31
0.0
   0
ARC
   5
FB
 100
AcDbEntity
   8
LEVEL001
 370
13
   6
CONTINUOUS
  62
1
 100
AcDbCircle
  10
 999.44576022763
  20
 5063.1318111055
  30
0.0
  40
 7.5000000000000
 100
AcDbArc
  50
 344.47208301380
  51
 165.52791698622
   0
ARC
   5
FC
 100
AcDbEntity
   8
LEVEL001
 370
13
   6
CONTINUOUS
  62
1
 100
AcDbCircle
  10
 788.76705761834
  20
 5063.1318111055
  30
0.0
  40
 7.5000000000000
 100
AcDbArc
  50
 14.472083013896
  51
 195.52791698613
   0
ARC
   5
FD
 100
AcDbEntity
   8
LEVEL001
 370
13
   6
CONTINUOUS
  62
1
 100
AcDbCircle
  10
 525.23913978144
  20
 4842.0056324437
  30
0.0
  40
 7.5000000000000
 100
AcDbArc
  50
 64.472083013724
  51
 245.52791698629
   0
ARC
   5
FE
 100
AcDbEntity
   8
LEVEL001
 370
13
   6
CONTINUOUS
  62
1
 100
AcDbCircle
  10
 1262.9736780645
  20
 4842.0056324437
  30
0.0
  40
 7.5000000000000
 100
AcDbArc
  50
 294.47208301366
  51
 115.52791698632
   0
ARC
   5
FF
 100
AcDbEntity
   8
LEVEL001
 370
13
   6
CONTINUOUS
  62
1
 100
AcDbCircle
  10
 1155.7209659360
  20
 4981.7800881956
  30
0.0
  40
 7.5000000000000
 100
AcDbArc
  50
 319.47208301402
  51
 140.52791698596
   0
ARC
   5
100
 100
AcDbEntity
   8
LEVEL001
 370
13
   6
CONTINUOUS
  62
1
 100
AcDbCircle
  10
 632.49185190993
  20
 4981.7800881956
  30
0.0
  40
 7.5000000000000
 100
AcDbArc
  50
 39.472083013928
  51
 220.52791698609
   0
ARC
   5
101
 100
AcDbEntity
   8
LEVEL001
 370
13
   6
CONTINUOUS
  62
1
 100
AcDbCircle
  10
 1288.0295099300
  20
 4600.5407289681
  30
0.0
  40
 7.5000000000000
 100
AcDbArc
  50
 259.46286605474
  51
 80.537177658472
   0
LINE
   5
102
 100
AcDbEntity
   8
LEVEL001
 370
13
 100
AcDbLine
   6
DASHDOT
  62
6
  10
 1344.1064089230
  20
 4670.0000000000
  30
0.0
  11
 444.10640892299
  21
 4670.0000000000
  31
0.0
   0
ARC
   5
103
 100
AcDbEntity
   8
LEVEL001
 370
13
   6
CONTINUOUS
  62
1
 100
AcDbCircle
  10
 636.99136517754
  20
 4363.5822229063
  30
0.0
  40
 7.5000000000000
 100
AcDbArc
  50
 139.46282234149
  51
 320.53713394529
   0
ARC
   5
104
 100
AcDbEntity
   8
LEVEL001
 370
13
   6
CONTINUOUS
  62
1
 100
AcDbCircle
  10
 894.10640892299
  20
 4270.0000002010
  30
0.0
  40
 7.5000000000000
 100
AcDbArc
  50
 179.46286605470
  51
 0.53717765851624
   0
ARC
   5
105
 100
AcDbEntity
   8
LEVEL001
 370
13
   6
CONTINUOUS
  62
1
 100
AcDbCircle
  10
 500.18330791601
  20
 4600.5407289681
  30
0.0
  40
 7.5000000000000
 100
AcDbArc
  50
 99.462822341528
  51
 280.53713394526
   0
ARC
   5
106
 100
AcDbEntity
   8
LEVEL001
 370
13
   6
CONTINUOUS
  62
1
 100
AcDbCircle
  10
 1151.2214526684
  20
 4363.5822229064
  30
0.0
  40
 7.5000000000000
 100
AcDbArc
  50
 219.46286605478
  51
 40.537177658439
   0
LINE
   5
107
 100
AcDbEntity
   8
LEVEL001
 370
13
 100
AcDbLine
   6
DASHDOT
  62
6
  10
 894.10640892299
  20
 5120.0000000000
  30
0.0
  11
 894.10640892299
  21
 4220.0000000000
  31
0.0
   0
LWPOLYLINE
   5
108
 100
AcDbEntity
   8
LEVEL001
 370
13
   6
CONTINUOUS
  62
7
 100
AcDbPolyline
  90
4
  70
0
  10
 1416.8564089230
  20
 4554.9999584717
  10
 1416.8564089230
  20
 4539.9999584717
  10
 1286.1064004031
  20
 4539.9999584717
  10
 1286.1064004031
  20
 4590.4017155341
   0
LWPOLYLINE
   5
109
 100
AcDbEntity
   8
LEVEL001
 370
13
   6
CONTINUOUS
  62
7
 100
AcDbPolyline
  90
3
  70
0
  10
 1293.6059411637
  20
 4649.9999584717
  10
 1416.8564089230
  20
 4649.9999584717
  10
 1416.8564089230
  20
 4614.9999584717
   0
LWPOLYLINE
   5
10A
 100
AcDbEntity
   8
LEVEL001
 370
13
   6
CONTINUOUS
  62
7
 100
AcDbPolyline
  90
4
  70
0
  10
 1290.5590381995
  20
 4723.1525313716
  10
 1323.0762829184
  20
 4739.7208951033
  10
 1323.0762829184
  20
 4672.3813208453
  10
 1293.9115566457
  20
 4657.5211505818
   0
CIRCLE
   5
10B
 100
AcDbEntity
   8
LEVEL001
 370
13
 100
AcDbCircle
   6
CONTINUOUS
  62
7
  10
 1844.1062563351
  20
 4670.0000000000
  30
0.0
  40
 399.99999979907
   0
DIMENSION
   5
10C
 100
AcDbEntity
   8
LEVEL001
 370
13
   6
CONTINUOUS
  62
6
 100
AcDbDimension
   2
*D2
  10
 2190.5165710650
  20
 4869.9997342197
  30
0.0
  11
 1829.9634179796
  21
 4694.4961579825
  31
0.0
  70
3
   3
GMM001
 100
AcDbDiametricDimension
  15
 1497.6959416052
  25
 4470.0002657803
  35
0.0
   0
CIRCLE
   5
10D
 100
AcDbEntity
   8
LEVEL001
 370
13
 100
AcDbCircle
   6
CONTINUOUS
  62
2
  10
 1844.1064089230
  20
 4670.0000000000
  30
0.0
  40
 382.20001201504
   0
ARC
   5
10E
 100
AcDbEntity
   8
LEVEL001
 370
13
   6
CONTINUOUS
  62
7
 100
AcDbCircle
  10
 1844.1064089230
  20
 4670.0000000000
  30
0.0
  40
 406.99999979904
 100
AcDbArc
  50
 18.850250860434
  51
 161.14974913957
   0
LINE
   5
10F
 100
AcDbEntity
   8
LEVEL001
 370
13
 100
AcDbLine
   6
CONTINUOUS
  62
7
  10
 2229.2774746021
  20
 4801.5000000000
  30
0.0
  11
 2221.8730492633
  21
 4801.5000000000
  31
0.0
   0
LINE
   5
110
 100
AcDbEntity
   8
LEVEL001
 370
13
 100
AcDbLine
   6
CONTINUOUS
  62
7
  10
 1458.9353432438
  20
 4801.5000000000
  30
0.0
  11
 1466.3397685827
  21
 4801.5000000000
  31
0.0
   0
ARC
   5
111
 100
AcDbEntity
   8
LEVEL001
 370
13
   6
CONTINUOUS
  62
1
 100
AcDbCircle
  10
 1949.4457602276
  20
 5063.1318111055
  30
0.0
  40
 7.5000000000000
 100
AcDbArc
  50
 344.47208301380
  51
 165.52791698622
   0
ARC
   5
112
 100
AcDbEntity
   8
LEVEL001
 370
13
   6
CONTINUOUS
  62
1
 100
AcDbCircle
  10
 1738.7670576183
  20
 5063.1318111055
  30
0.0
  40
 7.5000000000000
 100
AcDbArc
  50
 14.472083014040
  51
 195.52791698599
   0
ARC
   5
113
 100
AcDbEntity
   8
LEVEL001
 370
13
   6
CONTINUOUS
  62
1
 100
AcDbCircle
  10
 1475.2391397814
  20
 4842.0056324437
  30
0.0
  40
 7.5000000000000
 100
AcDbArc
  50
 64.472083013761
  51
 245.52791698625
   0
ARC
   5
114
 100
AcDbEntity
   8
LEVEL001
 370
13
   6
CONTINUOUS
  62
1
 100
AcDbCircle
  10
 2212.9736780645
  20
 4842.0056324437
  30
0.0
  40
 7.5000000000000
 100
AcDbArc
  50
 294.47208301366
  51
 115.52791698632
   0
ARC
   5
115
 100
AcDbEntity
   8
LEVEL001
 370
13
   6
CONTINUOUS
  62
1
 100
AcDbCircle
  10
 2105.7209659360
  20
 4981.7800881956
  30
0.0
  40
 7.5000000000000
 100
AcDbArc
  50
 319.47208301402
  51
 140.52791698596
   0
ARC
   5
116
 100
AcDbEntity
   8
LEVEL001
 370
13
   6
CONTINUOUS
  62
1
 100
AcDbCircle
  10
 1582.4918519099
  20
 4981.7800881956
  30
0.0
  40
 7.5000000000000
 100
AcDbArc
  50
 39.472083014035
  51
 220.52791698598
   0
LINE
   5
117
 100
AcDbEntity
   8
LEVEL001
 370
13
 100
AcDbLine
   6
DASHDOT
  62
6
  10
 1844.1064089230
  20
 5120.0000000000
  30
0.0
  11
 1844.1064089230
  21
 4220.0000000000
  31
0.0
   0
ARC
   5
118
 100
AcDbEntity
   8
LEVEL001
 370
13
   6
CONTINUOUS
  62
1
 100
AcDbCircle
  10
 2238.0295099300
  20
 4600.5407289681
  30
0.0
  40
 7.5000000000000
 100
AcDbArc
  50
 259.46286605474
  51
 80.537177658472
   0
ARC
   5
119
 100
AcDbEntity
   8
LEVEL001
 370
13
   6
CONTINUOUS
  62
1
 100
AcDbCircle
  10
 1844.1064089230
  20
 4270.0000002010
  30
0.0
  40
 7.5000000000000
 100
AcDbArc
  50
 179.46286605484
  51
 0.53717765837727
   0
ARC
   5
11A
 100
AcDbEntity
   8
LEVEL001
 370
13
   6
CONTINUOUS
  62
1
 100
AcDbCircle
  10
 2101.2214526684
  20
 4363.5822229063
  30
0.0
  40
 7.5000000000000
 100
AcDbArc
  50
 219.46286605457
  51
 40.537177658650
   0
ARC
   5
11B
 100
AcDbEntity
   8
LEVEL001
 370
13
   6
CONTINUOUS
  62
1
 100
AcDbCircle
  10
 1586.9913651776
  20
 4363.5822229064
  30
0.0
  40
 7.5000000000000
 100
AcDbArc
  50
 139.46282234163
  51
 320.53713394515
   0
ARC
   5
11C
 100
AcDbEntity
   8
LEVEL001
 370
13
   6
CONTINUOUS
  62
1
 100
AcDbCircle
  10
 1450.1833079160
  20
 4600.5407289681
  30
0.0
  40
 7.5000000000000
 100
AcDbArc
  50
 99.462822341528
  51
 280.53713394526
   0
LINE
   5
11D
 100
AcDbEntity
   8
LEVEL001
 370
13
 100
AcDbLine
   6
DASHDOT
  62
6
  10
 2294.1064089230
  20
 4670.0000000000
  30
0.0
  11
 1394.1064089230
  21
 4670.0000000000
  31
0.0
   0
LWPOLYLINE
   5
11E
 100
AcDbEntity
   8
LEVEL001
 370
13
   6
CONTINUOUS
  62
7
 100
AcDbPolyline
  90
4
  70
0
  10
 1447.9055555897
  20
 4614.9999584717
  10
 1415.1365349276
  20
 4614.9999584717
  10
 1415.1365349276
  20
 4554.9999584717
  10
 1460.9940139208
  20
 4554.9999584717
   0
LWPOLYLINE
   5
11F
 100
AcDbEntity
   8
LEVEL001
 370
13
   6
CONTINUOUS
  62
7
 100
AcDbPolyline
  90
4
  70
1
  10
 1425.1064174429
  20
 4681.9999584717
  10
 1439.1064174429
  20
 4681.9999584717
  10
 1439.1064174429
  20
 4667.9999584717
  10
 1425.1064174429
  20
 4667.9999584717
   0
LWPOLYLINE
   5
120
 100
AcDbEntity
   8
LEVEL001
 370
13
   6
CONTINUOUS
  62
7
 100
AcDbPolyline
  90
3
  70
0
  10
 1444.6068766823
  20
 4649.9999584717
  10
 1321.3564089230
  20
 4649.9999584717
  10
 1321.3564089230
  20
 4671.5050012747
   0
LWPOLYLINE
   5
121
 100
AcDbEntity
   8
LEVEL001
 370
13
   6
CONTINUOUS
  62
7
 100
AcDbPolyline
  90
4
  70
0
  10
 1321.3564089230
  20
 4738.8445755327
  10
 1321.3564089230
  20
 4759.9999584717
  10
 1452.1064174429
  20
 4759.9999584717
  10
 1452.1064174429
  20
 4749.5997873598
   0
LWPOLYLINE
   5
122
 100
AcDbEntity
   8
LEVEL001
 370
13
   6
CONTINUOUS
  62
7
 100
AcDbPolyline
  90
4
  70
0
  10
 2700.5266254340
  20
 4615.0000000000
  10
 2862.1022468715
  20
 4615.0000000000
  10
 2862.1022468715
  20
 4725.0000000000
  10
 2700.5266254340
  20
 4725.0000000000
   0
LWPOLYLINE
   5
123
 100
AcDbEntity
   8
LEVEL001
 370
13
   6
CONTINUOUS
  62
7
 100
AcDbPolyline
  90
4
  70
1
  10
 2835.1022468715
  20
 4693.0000000000
  10
 2849.1022468715
  20
 4693.0000000000
  10
 2849.1022468715
  20
 4707.0000000000
  10
 2835.1022468715
  20
 4707.0000000000
   0
LINE
   5
124
 100
AcDbEntity
   8
LEVEL001
 370
13
 100
AcDbLine
   6
CONTINUOUS
  62
6
  10
 2822.5302564254
  20
 4720.0000000000
  30
0.0
  11
 2822.5302564254
  21
 4620.0000000000
  31
0.0
   0
LWPOLYLINE
   5
125
 100
AcDbEntity
   8
LEVEL001
 370
13
   6
CONTINUOUS
  62
7
 100
AcDbPolyline
  90
4
  70
1
  10
 2835.1022468715
  20
 4633.0000000000
  10
 2849.1022468715
  20
 4633.0000000000
  10
 2849.1022468715
  20
 4647.0000000000
  10
 2835.1022468715
  20
 4647.0000000000
   0
LINE
   5
126
 100
AcDbEntity
   8
LEVEL001
 370
13
 100
AcDbLine
   6
CONTINUOUS
  62
6
  10
 2749.3188919047
  20
 4620.0000000000
  30
0.0
  11
 2749.3188919047
  21
 4720.0000000000
  31
0.0
   0
LWPOLYLINE
   5
127
 100
AcDbEntity
   8
LEVEL001
 370
13
   6
CONTINUOUS
  62
7
 100
AcDbPolyline
  90
4
  70
1
  10
 3073.0762829184
  20
 4739.7209366316
  10
 3073.0762829184
  20
 4672.3813623736
  10
 2823.0762829184
  20
 4545.0000000000
  10
 2823.0762829184
  20
 4612.3395742580
   0
LINE
   5
128
 100
AcDbEntity
   8
LEVEL001
 370
13
 100
AcDbLine
   6
DASHDOT
  62
6
  10
 2787.1022297689
  20
 4760.0000000000
  30
0.0
  11
 2787.1022297689
  21
 4520.0000000000
  31
0.0
   0
LWPOLYLINE
   5
129
 100
AcDbEntity
   8
LEVEL001
 370
13
   6
CONTINUOUS
  62
7
 100
AcDbPolyline
  90
4
  70
0
  10
 2748.9522297689
  20
 4615.0000000000
  10
 2748.9522297689
  20
 4540.0000000000
  10
 2825.2522297689
  20
 4540.0000000000
  10
 2825.2522297689
  20
 4546.1087002971
   0
LINE
   5
12A
 100
AcDbEntity
   8
LEVEL001
 370
13
 100
AcDbLine
   6
CONTINUOUS
  62
7
  10
 2825.2522297689
  20
 4613.4482745551
  30
0.0
  11
 2825.2522297689
  21
 4615.0000000000
  31
0.0
   0
LWPOLYLINE
   5
12B
 100
AcDbEntity
   8
LEVEL001
 370
13
   6
CONTINUOUS
  62
7
 100
AcDbPolyline
  90
4
  70
0
  10
 2825.2522297689
  20
 4725.0000000000
  10
 2825.2522297689
  20
 4740.0000000000
  10
 2748.9522297689
  20
 4740.0000000000
  10
 2748.9522297689
  20
 4725.0000000000
   0
LWPOLYLINE
   5
12C
 100
AcDbEntity
   8
LEVEL001
 370
13
   6
CONTINUOUS
  62
7
 100
AcDbPolyline
  90
4
  70
1
  10
 2668.5266254340
  20
 4693.0000000000
  10
 2682.5266254340
  20
 4693.0000000000
  10
 2682.5266254340
  20
 4707.0000000000
  10
 2668.5266254340
  20
 4707.0000000000
   0
LWPOLYLINE
   5
12D
 100
AcDbEntity
   8
LEVEL001
 370
13
   6
CONTINUOUS
  62
7
 100
AcDbPolyline
  90
4
  70
1
  10
 2668.5266254340
  20
 4633.0000000000
  10
 2682.5266254340
  20
 4633.0000000000
  10
 2682.5266254340
  20
 4647.0000000000
  10
 2668.5266254340
  20
 4647.0000000000
   0
ARC
   5
12E
 100
AcDbEntity
   8
LEVEL001
 370
13
   6
CONTINUOUS
  62
7
 100
AcDbCircle
  10
 2718.4680145620
  20
 4665.5854138189
  30
0.0
  40
 8.0000000000000
 100
AcDbArc
  50
 324.99999999999
  51
 145.00000000000
   0
ARC
   5
12F
 100
AcDbEntity
   8
LEVEL001
 370
13
   6
CONTINUOUS
  62
7
 100
AcDbCircle
  10
 2669.3188919047
  20
 4700.0000000000
  30
0.0
  40
 52.000000000000
 100
AcDbArc
  50
 306.88054979700
  51
 325.00000000000
   0
ARC
   5
130
 100
AcDbEntity
   8
LEVEL001
 370
13
   6
CONTINUOUS
  62
7
 100
AcDbCircle
  10
 2669.3188919047
  20
 4700.0000000000
  30
0.0
  40
 68.000000000000
 100
AcDbArc
  50
 297.31855192773
  51
 325.00000000000
   0
LWPOLYLINE
   5
131
 100
AcDbEntity
   8
LEVEL001
 370
13
   6
CONTINUOUS
  62
7
 100
AcDbPolyline
  90
4
  70
1
  10
 3175.1064174429
  20
 4668.0000000000
  10
 3189.1064174429
  20
 4668.0000000000
  10
 3189.1064174429
  20
 4682.0000000000
  10
 3175.1064174429
  20
 4682.0000000000
   0
LWPOLYLINE
   5
132
 100
AcDbEntity
   8
LEVEL001
 370
13
   6
CONTINUOUS
  62
7
 100
AcDbPolyline
  90
4
  70
1
  10
 3063.1064004031
  20
 4618.0000000000
  10
 3049.1064004031
  20
 4618.0000000000
  10
 3049.1064004031
  20
 4632.0000000000
  10
 3063.1064004031
  20
 4632.0000000000
   0
LWPOLYLINE
   5
133
 100
AcDbEntity
   8
LEVEL001
 370
13
   6
CONTINUOUS
  62
7
 100
AcDbPolyline
  90
4
  70
1
  10
 3415.1365349276
  20
 4615.0000000000
  10
 3165.1365349276
  20
 4615.0000000000
  10
 3165.1365349276
  20
 4555.0000000000
  10
 3415.1365349276
  20
 4555.0000000000
   0
LWPOLYLINE
   5
134
 100
AcDbEntity
   8
LEVEL001
 370
13
   6
CONTINUOUS
  62
7
 100
AcDbPolyline
  90
6
  70
0
  10
 3166.8564089230
  20
 4555.0000000000
  10
 3166.8564089230
  20
 4540.0000000000
  10
 3036.1064004031
  20
 4540.0000000000
  10
 3036.1064004031
  20
 4650.0000000000
  10
 3166.8564089230
  20
 4650.0000000000
  10
 3166.8564089230
  20
 4615.0000000000
   0
LWPOLYLINE
   5
135
 100
AcDbEntity
   8
LEVEL001
 370
13
   6
CONTINUOUS
  62
7
 100
AcDbPolyline
  90
6
  70
0
  10
 3071.3564089230
  20
 4671.5050428030
  10
 3071.3564089230
  20
 4650.0000000000
  10
 3202.1064174429
  20
 4650.0000000000
  10
 3202.1064174429
  20
 4760.0000000000
  10
 3071.3564089230
  20
 4760.0000000000
  10
 3071.3564089230
  20
 4738.8446170610
   0
LWPOLYLINE
   5
136
 100
AcDbEntity
   8
LEVEL001
 370
13
   6
CONTINUOUS
  62
7
 100
AcDbPolyline
  90
4
  70
1
  10
 3063.1064004031
  20
 4558.0000000000
  10
 3049.1064004031
  20
 4558.0000000000
  10
 3049.1064004031
  20
 4572.0000000000
  10
 3063.1064004031
  20
 4572.0000000000
   0
LWPOLYLINE
   5
137
 100
AcDbEntity
   8
LEVEL001
 370
13
   6
CONTINUOUS
  62
7
 100
AcDbPolyline
  90
4
  70
1
  10
 3175.1064174429
  20
 4728.0000000000
  10
 3189.1064174429
  20
 4728.0000000000
  10
 3189.1064174429
  20
 4742.0000000000
  10
 3175.1064174429
  20
 4742.0000000000
   0
LWPOLYLINE
   5
138
 100
AcDbEntity
   8
LEVEL001
 370
13
   6
CONTINUOUS
  62
7
 100
AcDbPolyline
  90
4
  70
0
  10
 3537.6861924120
  20
 4615.0000000000
  10
 3376.1105709745
  20
 4615.0000000000
  10
 3376.1105709745
  20
 4725.0000000000
  10
 3537.6861924120
  20
 4725.0000000000
   0
LWPOLYLINE
   5
139
 100
AcDbEntity
   8
LEVEL001
 370
13
   6
CONTINUOUS
  62
7
 100
AcDbPolyline
  90
4
  70
1
  10
 3569.6861924120
  20
 4693.0000000000
  10
 3555.6861924120
  20
 4693.0000000000
  10
 3555.6861924120
  20
 4707.0000000000
  10
 3569.6861924120
  20
 4707.0000000000
   0
LWPOLYLINE
   5
13A
 100
AcDbEntity
   8
LEVEL001
 370
13
   6
CONTINUOUS
  62
7
 100
AcDbPolyline
  90
4
  70
1
  10
 3569.6861924120
  20
 4633.0000000000
  10
 3555.6861924120
  20
 4633.0000000000
  10
 3555.6861924120
  20
 4647.0000000000
  10
 3569.6861924120
  20
 4647.0000000000
   0
ARC
   5
13B
 100
AcDbEntity
   8
LEVEL001
 370
13
   6
CONTINUOUS
  62
7
 100
AcDbCircle
  10
 3568.8939259413
  20
 4700.0000000000
  30
0.0
  40
 52.000000000000
 100
AcDbArc
  50
 215.00000000000
  51
 233.11945020300
   0
ARC
   5
13C
 100
AcDbEntity
   8
LEVEL001
 370
13
   6
CONTINUOUS
  62
7
 100
AcDbCircle
  10
 3568.8939259413
  20
 4700.0000000000
  30
0.0
  40
 68.000000000000
 100
AcDbArc
  50
 215.00000000000
  51
 242.68144807227
   0
LWPOLYLINE
   5
13D
 100
AcDbEntity
   8
LEVEL001
 370
13
   6
CONTINUOUS
  62
7
 100
AcDbPolyline
  90
4
  70
1
  10
 3403.1105709745
  20
 4693.0000000000
  10
 3389.1105709745
  20
 4693.0000000000
  10
 3389.1105709745
  20
 4707.0000000000
  10
 3403.1105709745
  20
 4707.0000000000
   0
LINE
   5
13E
 100
AcDbEntity
   8
LEVEL001
 370
13
 100
AcDbLine
   6
CONTINUOUS
  62
6
  10
 3415.6825614205
  20
 4720.0000000000
  30
0.0
  11
 3415.6825614205
  21
 4620.0000000000
  31
0.0
   0
LWPOLYLINE
   5
13F
 100
AcDbEntity
   8
LEVEL001
 370
13
   6
CONTINUOUS
  62
7
 100
AcDbPolyline
  90
4
  70
1
  10
 3403.1105709745
  20
 4633.0000000000
  10
 3389.1105709745
  20
 4633.0000000000
  10
 3389.1105709745
  20
 4647.0000000000
  10
 3403.1105709745
  20
 4647.0000000000
   0
ARC
   5
140
 100
AcDbEntity
   8
LEVEL001
 370
13
   6
CONTINUOUS
  62
7
 100
AcDbCircle
  10
 3519.7448032840
  20
 4665.5854138189
  30
0.0
  40
 8.0000000000000
 100
AcDbArc
  50
 35.000000000005
  51
 215.00000000001
   0
LINE
   5
141
 100
AcDbEntity
   8
LEVEL001
 370
13
 100
AcDbLine
   6
CONTINUOUS
  62
6
  10
 3488.8939259413
  20
 4620.0000000000
  30
0.0
  11
 3488.8939259413
  21
 4720.0000000000
  31
0.0
   0
LINE
   5
142
 100
AcDbEntity
   8
LEVEL001
 370
13
 100
AcDbLine
   6
DASHDOT
  62
6
  10
 3451.1105880771
  20
 4760.0000000000
  30
0.0
  11
 3451.1105880771
  21
 4520.0000000000
  31
0.0
   0
LWPOLYLINE
   5
143
 100
AcDbEntity
   8
LEVEL001
 370
13
   6
CONTINUOUS
  62
7
 100
AcDbPolyline
  90
4
  70
0
  10
 3412.9605880771
  20
 4725.0000000000
  10
 3412.9605880771
  20
 4740.0000000000
  10
 3489.2605880771
  20
 4740.0000000000
  10
 3489.2605880771
  20
 4725.0000000000
   0
LWPOLYLINE
   5
144
 100
AcDbEntity
   8
LEVEL001
 370
13
   6
CONTINUOUS
  62
7
 100
AcDbPolyline
  90
4
  70
0
  10
 3489.2605880771
  20
 4615.0000000000
  10
 3489.2605880771
  20
 4540.0000000000
  10
 3412.9605880771
  20
 4540.0000000000
  10
 3412.9605880771
  20
 4555.0000000000
   0
LWPOLYLINE
   5
145
 100
AcDbEntity
   8
LEVEL001
 370
13
   6
CONTINUOUS
  62
7
 100
AcDbPolyline
  90
4
  70
0
  10
 3163.6564089230
  20
 4760.0000000000
  10
 3163.6564089230
  20
 4970.0000000000
  10
 3074.5564089230
  20
 4970.0000000000
  10
 3074.5564089230
  20
 4760.0000000000
   0
LINE
   5
146
 100
AcDbEntity
   8
LEVEL001
 370
13
 100
AcDbLine
   6
DASHDOT
  62
6
  10
 2879.3062355806
  20
 4670.0000000000
  30
0.0
  11
 2514.3587366912
  21
 4670.0000000000
  31
0.0
   0
LINE
   5
147
 100
AcDbEntity
   8
LEVEL001
 370
13
 100
AcDbLine
   6
DASHDOT
  62
6
  10
 3358.9065822654
  20
 4670.0000000000
  30
0.0
  11
 3723.8540811547
  21
 4670.0000000000
  31
0.0
   0
LINE
   5
148
 100
AcDbEntity
   8
LEVEL001
 370
13
 100
AcDbLine
   6
DOT
  62
2
  10
 2588.9174799434
  20
 5069.9999999304
  30
0.0
  11
 2613.9178642391
  21
 5069.9999999304
  31
0.0
   0
CIRCLE
   5
149
 100
AcDbEntity
   8
LEVEL001
 370
13
 100
AcDbCircle
   6
CONTINUOUS
  62
1
  10
 2601.9178642391
  20
 5063.1318111056
  30
0.0
  40
 7.5000000000000
   0
CIRCLE
   5
14A
 100
AcDbEntity
   8
LEVEL001
 370
13
 100
AcDbCircle
   6
CONTINUOUS
  62
1
  10
 2601.9178642391
  20
 4981.7800881956
  30
0.0
  40
 7.5000000000000
   0
CIRCLE
   5
14B
 100
AcDbEntity
   8
LEVEL001
 370
13
 100
AcDbCircle
   6
CONTINUOUS
  62
1
  10
 2601.9178642391
  20
 4842.0056324437
  30
0.0
  40
 7.5000000000000
   0
CIRCLE
   5
14C
 100
AcDbEntity
   8
LEVEL001
 370
13
 100
AcDbCircle
   6
CONTINUOUS
  62
1
  10
 2601.9178642391
  20
 4600.5407289681
  30
0.0
  40
 7.5000000000000
   0
CIRCLE
   5
14D
 100
AcDbEntity
   8
LEVEL001
 370
13
 100
AcDbCircle
   6
CONTINUOUS
  62
1
  10
 2601.9178642391
  20
 4363.5822229063
  30
0.0
  40
 7.5000000000000
   0
ARC
   5
14E
 100
AcDbEntity
   8
LEVEL001
 370
13
   6
CONTINUOUS
  62
1
 100
AcDbCircle
  10
 2601.9178642391
  20
 4270.0000000696
  30
0.0
  40
 7.5000000000000
 100
AcDbArc
  50
 180.00000000000
  51
0.0
   0
LWPOLYLINE
   5
14F
 100
AcDbEntity
   8
LEVEL001
 370
13
   6
CONTINUOUS
  62
7
 100
AcDbPolyline
  90
4
  70
0
  10
 2613.9178642391
  20
 4615.0000000000
  10
 2700.5266254340
  20
 4615.0000000000
  10
 2700.5266254340
  20
 4725.0000000000
  10
 2613.9178642391
  20
 4725.0000000000
   0
LINE
   5
150
 100
AcDbEntity
   8
LEVEL001
 370
13
 100
AcDbLine
   6
DOT
  62
2
  10
 3649.2953379026
  20
 5069.9999999304
  30
0.0
  11
 3624.2949536069
  21
 5069.9999999304
  31
0.0
   0
CIRCLE
   5
151
 100
AcDbEntity
   8
LEVEL001
 370
13
 100
AcDbCircle
   6
CONTINUOUS
  62
1
  10
 3636.2949536069
  20
 5063.1318111056
  30
0.0
  40
 7.5000000000000
   0
CIRCLE
   5
152
 100
AcDbEntity
   8
LEVEL001
 370
13
 100
AcDbCircle
   6
CONTINUOUS
  62
1
  10
 3636.2949536069
  20
 4981.7800881956
  30
0.0
  40
 7.5000000000000
   0
CIRCLE
   5
153
 100
AcDbEntity
   8
LEVEL001
 370
13
 100
AcDbCircle
   6
CONTINUOUS
  62
1
  10
 3636.2949536069
  20
 4842.0056324437
  30
0.0
  40
 7.5000000000000
   0
LWPOLYLINE
   5
154
 100
AcDbEntity
   8
LEVEL001
 370
13
   6
CONTINUOUS
  62
7
 100
AcDbPolyline
  90
4
  70
0
  10
 3624.2949536069
  20
 4615.0000000000
  10
 3537.6861924120
  20
 4615.0000000000
  10
 3537.6861924120
  20
 4725.0000000000
  10
 3624.2949536069
  20
 4725.0000000000
   0
CIRCLE
   5
155
 100
AcDbEntity
   8
LEVEL001
 370
13
 100
AcDbCircle
   6
CONTINUOUS
  62
1
  10
 3636.2949536069
  20
 4600.5407289681
  30
0.0
  40
 7.5000000000000
   0
CIRCLE
   5
156
 100
AcDbEntity
   8
LEVEL001
 370
13
 100
AcDbCircle
   6
CONTINUOUS
  62
1
  10
 3636.2949536069
  20
 4363.5822229063
  30
0.0
  40
 7.5000000000000
   0
ARC
   5
157
 100
AcDbEntity
   8
LEVEL001
 370
13
   6
CONTINUOUS
  62
1
 100
AcDbCircle
  10
 3636.2949536069
  20
 4270.0000000696
  30
0.0
  40
 7.5000000000000
 100
AcDbArc
  50
 180.00000000000
  51
0.0
   0
CIRCLE
   5
158
 100
AcDbEntity
   8
LEVEL001
 370
13
 100
AcDbCircle
   6
CONTINUOUS
  62
1
  10
 4062.0652441393
  20
 4236.0766211411
  30
0.0
  40
 69.999997913838
   0
LEADER
   5
159
 100
AcDbEntity
   8
LEVEL001
 370
13
   6
CONTINUOUS
  62
1
 100
AcDbLeader
   3
GMM002
  73
3
  74
1
  75
0
  40
 66.000000000000
  41
0.0
  76
2
  10
 4279.2527746471
  20
 4361.4699003446
  30
0.0
  10
 4122.6870205975
  20
 4271.0766200981
  30
0.0
  77
1
   0
MTEXT
   5
15B
 100
AcDbEntity
   8
LEVEL001
 370
13
  62
7
 100
AcDbMText
  10
 4062.0652441393
  20
 4236.0766211411
  30
0.0
  40
 66.000000000000
  41
0.0
  71
5
  72
1
   1
\T1.000000;２
   7
GMM002
  44
 0.79999984000003
   0
CIRCLE
   5
15C
 100
AcDbEntity
   8
LEVEL001
 370
13
 100
AcDbCircle
   6
CONTINUOUS
  62
7
  10
 4409.1064089230
  20
 4705.0000000000
  30
0.0
  40
 7.0000000000000
   0
LINE
   5
15D
 100
AcDbEntity
   8
LEVEL001
 370
13
 100
AcDbLine
   6
DASHDOT
  62
6
  10
 4389.1064089230
  20
 4705.0000000000
  30
0.0
  11
 4429.1064089230
  21
 4705.0000000000
  31
0.0
   0
LINE
   5
15E
 100
AcDbEntity
   8
LEVEL001
 370
13
 100
AcDbLine
   6
DASHDOT
  62
6
  10
 4409.1064089230
  20
 4685.0000000000
  30
0.0
  11
 4409.1064089230
  21
 4725.0000000000
  31
0.0
   0
CIRCLE
   5
15F
 100
AcDbEntity
   8
LEVEL001
 370
13
 100
AcDbCircle
   6
CONTINUOUS
  62
7
  10
 4329.1064089230
  20
 4705.0000000000
  30
0.0
  40
 7.0000000000000
   0
LINE
   5
160
 100
AcDbEntity
   8
LEVEL001
 370
13
 100
AcDbLine
   6
DASHDOT
  62
6
  10
 4309.1064089230
  20
 4705.0000000000
  30
0.0
  11
 4349.1064089230
  21
 4705.0000000000
  31
0.0
   0
LINE
   5
161
 100
AcDbEntity
   8
LEVEL001
 370
13
 100
AcDbLine
   6
DASHDOT
  62
6
  10
 4329.1064089230
  20
 4685.0000000000
  30
0.0
  11
 4329.1064089230
  21
 4725.0000000000
  31
0.0
   0
CIRCLE
   5
162
 100
AcDbEntity
   8
LEVEL001
 370
13
 100
AcDbCircle
   6
CONTINUOUS
  62
7
  10
 4329.1064089230
  20
 4635.0000000000
  30
0.0
  40
 7.0000000000000
   0
LINE
   5
163
 100
AcDbEntity
   8
LEVEL001
 370
13
 100
AcDbLine
   6
DASHDOT
  62
6
  10
 4309.1064089230
  20
 4635.0000000000
  30
0.0
  11
 4349.1064089230
  21
 4635.0000000000
  31
0.0
   0
LINE
   5
164
 100
AcDbEntity
   8
LEVEL001
 370
13
 100
AcDbLine
   6
DASHDOT
  62
6
  10
 4329.1064089230
  20
 4615.0000000000
  30
0.0
  11
 4329.1064089230
  21
 4655.0000000000
  31
0.0
   0
CIRCLE
   5
165
 100
AcDbEntity
   8
LEVEL001
 370
13
 100
AcDbCircle
   6
CONTINUOUS
  62
7
  10
 4409.1064089230
  20
 4635.0000000000
  30
0.0
  40
 7.0000000000000
   0
LINE
   5
166
 100
AcDbEntity
   8
LEVEL001
 370
13
 100
AcDbLine
   6
DASHDOT
  62
6
  10
 4389.1064089230
  20
 4635.0000000000
  30
0.0
  11
 4429.1064089230
  21
 4635.0000000000
  31
0.0
   0
LINE
   5
167
 100
AcDbEntity
   8
LEVEL001
 370
13
 100
AcDbLine
   6
DASHDOT
  62
6
  10
 4409.1064089230
  20
 4615.0000000000
  30
0.0
  11
 4409.1064089230
  21
 4655.0000000000
  31
0.0
   0
CIRCLE
   5
168
 100
AcDbEntity
   8
LEVEL001
 370
13
 100
AcDbCircle
   6
CONTINUOUS
  62
7
  10
 4369.1062563351
  20
 4670.0000000000
  30
0.0
  40
 399.99999979907
   0
ARC
   5
169
 100
AcDbEntity
   8
LEVEL001
 370
13
   6
CONTINUOUS
  62
7
 100
AcDbCircle
  10
 4369.1064089230
  20
 4670.0000000000
  30
0.0
  40
 406.99999979904
 100
AcDbArc
  50
 18.850250860434
  51
 161.14974913957
   0
LINE
   5
16A
 100
AcDbEntity
   8
LEVEL001
 370
13
 100
AcDbLine
   6
CONTINUOUS
  62
7
  10
 4754.2774746021
  20
 4801.5000000000
  30
0.0
  11
 4746.8730492633
  21
 4801.5000000000
  31
0.0
   0
LINE
   5
16B
 100
AcDbEntity
   8
LEVEL001
 370
13
 100
AcDbLine
   6
CONTINUOUS
  62
7
  10
 3983.9353432438
  20
 4801.5000000000
  30
0.0
  11
 3991.3397685827
  21
 4801.5000000000
  31
0.0
   0
ARC
   5
16C
 100
AcDbEntity
   8
LEVEL001
 370
13
   6
CONTINUOUS
  62
1
 100
AcDbCircle
  10
 4474.4457602276
  20
 5063.1318111055
  30
0.0
  40
 7.5000000000000
 100
AcDbArc
  50
 344.47208301389
  51
 165.52791698612
   0
ARC
   5
16D
 100
AcDbEntity
   8
LEVEL001
 370
13
   6
CONTINUOUS
  62
1
 100
AcDbCircle
  10
 4263.7670576183
  20
 5063.1318111056
  30
0.0
  40
 7.5000000000000
 100
AcDbArc
  50
 14.472083013559
  51
 195.52791698646
   0
ARC
   5
16E
 100
AcDbEntity
   8
LEVEL001
 370
13
   6
CONTINUOUS
  62
1
 100
AcDbCircle
  10
 4000.2391397814
  20
 4842.0056324438
  30
0.0
  40
 7.5000000000000
 100
AcDbArc
  50
 64.472083013076
  51
 245.52791698693
   0
ARC
   5
16F
 100
AcDbEntity
   8
LEVEL001
 370
13
   6
CONTINUOUS
  62
1
 100
AcDbCircle
  10
 4737.9736780646
  20
 4842.0056324438
  30
0.0
  40
 7.5000000000000
 100
AcDbArc
  50
 294.47208301307
  51
 115.52791698692
   0
ARC
   5
170
 100
AcDbEntity
   8
LEVEL001
 370
13
   6
CONTINUOUS
  62
1
 100
AcDbCircle
  10
 4630.7209659360
  20
 4981.7800881956
  30
0.0
  40
 7.5000000000000
 100
AcDbArc
  50
 319.47208301407
  51
 140.52791698592
   0
ARC
   5
171
 100
AcDbEntity
   8
LEVEL001
 370
13
   6
CONTINUOUS
  62
1
 100
AcDbCircle
  10
 4107.4918519099
  20
 4981.7800881956
  30
0.0
  40
 7.5000000000000
 100
AcDbArc
  50
 39.472083013791
  51
 220.52791698622
   0
ARC
   5
172
 100
AcDbEntity
   8
LEVEL001
 370
13
   6
CONTINUOUS
  62
1
 100
AcDbCircle
  10
 4626.2214526684
  20
 4363.5822229064
  30
0.0
  40
 7.5000000000000
 100
AcDbArc
  50
 219.46286605475
  51
 40.537177658457
   0
ARC
   5
173
 100
AcDbEntity
   8
LEVEL001
 370
13
   6
CONTINUOUS
  62
1
 100
AcDbCircle
  10
 4763.0295099300
  20
 4600.5407289681
  30
0.0
  40
 7.5000000000000
 100
AcDbArc
  50
 259.46286605474
  51
 80.537177658472
   0
ARC
   5
174
 100
AcDbEntity
   8
LEVEL001
 370
13
   6
CONTINUOUS
  62
1
 100
AcDbCircle
  10
 3975.1833079160
  20
 4600.5407289681
  30
0.0
  40
 7.5000000000000
 100
AcDbArc
  50
 99.462822341528
  51
 280.53713394526
   0
ARC
   5
175
 100
AcDbEntity
   8
LEVEL001
 370
13
   6
CONTINUOUS
  62
1
 100
AcDbCircle
  10
 4111.9913651775
  20
 4363.5822229063
  30
0.0
  40
 7.5000000000000
 100
AcDbArc
  50
 139.46282234126
  51
 320.53713394553
   0
LINE
   5
176
 100
AcDbEntity
   8
LEVEL001
 370
13
 100
AcDbLine
   6
DASHDOT
  62
6
  10
 4369.1064089230
  20
 5120.0000000000
  30
0.0
  11
 4369.1064089230
  21
 4220.0000000000
  31
0.0
   0
LINE
   5
177
 100
AcDbEntity
   8
LEVEL001
 370
13
 100
AcDbLine
   6
DASHDOT
  62
6
  10
 4819.1064089230
  20
 4670.0000000000
  30
0.0
  11
 3919.1064089230
  21
 4670.0000000000
  31
0.0
   0
ARC
   5
178
 100
AcDbEntity
   8
LEVEL001
 370
13
   6
CONTINUOUS
  62
1
 100
AcDbCircle
  10
 4369.1064089230
  20
 4270.0000002010
  30
0.0
  40
 7.5000000000000
 100
AcDbArc
  50
 179.46286605511
  51
 0.53717765809933
   0
CIRCLE
   5
179
 100
AcDbEntity
   8
LEVEL001
 370
13
 100
AcDbCircle
   6
CONTINUOUS
  62
1
  10
 2369.1064089230
  20
 5020.0000002040
  30
0.0
  40
 69.999997913838
   0
MTEXT
   5
17B
 100
AcDbEntity
   8
LEVEL001
 370
13
  62
7
 100
AcDbMText
  10
 2369.1064089230
  20
 5020.0000002040
  30
0.0
  40
 66.000000000000
  41
0.0
  71
5
  72
1
   1
\T1.000000;３
   7
GMM002
  44
 0.79999984000003
   0
CIRCLE
   5
17C
 100
AcDbEntity
   8
LEVEL001
 370
13
 100
AcDbCircle
   6
CONTINUOUS
  62
1
  10
 2369.1064089230
  20
 4270.0000002040
  30
0.0
  40
 69.999997913838
   0
MTEXT
   5
17E
 100
AcDbEntity
   8
LEVEL001
 370
13
  62
7
 100
AcDbMText
  10
 2369.1064089230
  20
 4270.0000002040
  30
0.0
  40
 66.000000000000
  41
0.0
  71
5
  72
1
   1
\T1.000000;１
   7
GMM002
  44
 0.79999984000003
   0
LEADER
   5
17F
 100
AcDbEntity
   8
LEVEL001
 370
13
   6
CONTINUOUS
  62
1
 100
AcDbLeader
   3
GMM002
  73
3
  74
1
  75
0
  40
 66.000000000000
  41
0.0
  76
2
  10
 2132.1910314197
  20
 4957.5000002040
  30
0.0
  10
 2301.4220232268
  20
 5002.1443668948
  30
0.0
  77
1
   0
LEADER
   5
180
 100
AcDbEntity
   8
LEVEL001
 370
13
   6
CONTINUOUS
  62
1
 100
AcDbLeader
   3
GMM002
  73
3
  74
1
  75
0
  40
 66.000000000000
  41
0.0
  76
2
  10
 2564.6654350078
  20
 4395.0000002040
  30
0.0
  10
 2428.0870007430
  20
 4307.6999935262
  30
0.0
  77
1
   0
LEADER
   5
181
 100
AcDbEntity
   8
LEVEL001
 370
13
   6
CONTINUOUS
  62
1
 100
AcDbLeader
   3
GMM002
  73
3
  74
1
  75
0
  40
 66.000000000000
  41
0.0
  76
2
  10
 1994.1064089230
  20
 4395.0000002040
  30
0.0
  10
 2302.6985800386
  20
 4292.1359431654
  30
0.0
  77
1
   0
CIRCLE
   5
182
 100
AcDbEntity
   8
LEVEL001
 370
13
 100
AcDbCircle
   6
CONTINUOUS
  62
1
  10
 3369.1064089230
  20
 5145.0000002040
  30
0.0
  40
 70.000000000000
   0
MTEXT
   5
184
 100
AcDbEntity
   8
LEVEL001
 370
13
  62
7
 100
AcDbMText
  10
 3369.1064089230
  20
 5145.0000002040
  30
0.0
  40
 66.000000000000
  41
0.0
  71
5
  72
1
   1
\T1.000000;１４
   7
GMM002
  44
 0.79999984000003
   0
LEADER
   5
185
 100
AcDbEntity
   8
LEVEL001
 370
13
   6
CONTINUOUS
  62
1
 100
AcDbLeader
   3
GMM002
  73
3
  74
1
  75
0
  40
 66.000000000000
  41
0.0
  76
2
  10
 3119.1064089230
  20
 4974.0000000000
  30
0.0
  10
 3311.3292325475
  20
 5105.4804115159
  30
0.0
  77
1
   0
CIRCLE
   5
186
 100
AcDbEntity
   8
LEVEL001
 370
13
 100
AcDbCircle
   6
CONTINUOUS
  62
1
  10
 3369.1064089230
  20
 4270.0000002040
  30
0.0
  40
 69.999997913838
   0
CIRCLE
   5
187
 100
AcDbEntity
   8
LEVEL001
 370
13
 100
AcDbCircle
   6
CONTINUOUS
  62
1
  10
 3509.1064068368
  20
 4270.0000002040
  30
0.0
  40
 70.000000000000
   0
MTEXT
   5
189
 100
AcDbEntity
   8
LEVEL001
 370
13
  62
7
 100
AcDbMText
  10
 3369.1064089230
  20
 4270.0000002040
  30
0.0
  40
 66.000000000000
  41
0.0
  71
5
  72
1
   1
\T1.000000;１０
   7
GMM002
  44
 0.79999984000003
   0
MTEXT
   5
18B
 100
AcDbEntity
   8
LEVEL001
 370
13
  62
7
 100
AcDbMText
  10
 3509.1064068368
  20
 4270.0000002040
  30
0.0
  40
 66.000000000000
  41
0.0
  71
5
  72
1
   1
\T1.000000;１１
   7
GMM002
  44
 0.79999984000003
   0
LEADER
   5
18C
 100
AcDbEntity
   8
LEVEL001
 370
13
   6
CONTINUOUS
  62
1
 100
AcDbLeader
   3
GMM002
  73
3
  74
1
  75
0
  40
 66.000000000000
  41
0.0
  76
2
  10
 3236.0287560077
  20
 4555.0000000000
  30
0.0
  10
 3339.4902369387
  20
 4333.4261940432
  30
0.0
  77
1
   0
LEADER
   5
18D
 100
AcDbEntity
   8
LEVEL001
 370
13
   6
CONTINUOUS
  62
1
 100
AcDbLeader
   3
GMM002
  73
3
  74
1
  75
0
  40
 66.000000000000
  41
0.0
  76
2
  10
 1981.8702736145
  20
 4294.4722708210
  30
0.0
  10
 2087.8014581709
  20
 4082.6099017081
  30
0.0
  77
1
   0
LEADER
   5
18E
 100
AcDbEntity
   8
LEVEL001
 370
13
   6
CONTINUOUS
  62
1
 100
AcDbLeader
   3
GMM002
  73
3
  74
1
  75
0
  40
 66.000000000000
  41
0.0
  76
2
  10
 890.35640892308
  20
 4263.5048096711
  30
0.0
  10
 780.14776479259
  20
 4080.0085027267
  30
0.0
  77
1
   0
LINE
   5
18F
 100
AcDbEntity
   8
LEVEL001
 370
13
 100
AcDbLine
   6
CONTINUOUS
  62
7
  10
 3163.6564089230
  20
 3888.5000002040
  30
0.0
  11
 3163.6564089230
  21
 4540.0000000000
  31
0.0
   0
LINE
   5
190
 100
AcDbEntity
   8
LEVEL001
 370
13
 100
AcDbLine
   6
CONTINUOUS
  62
7
  10
 3074.5564089230
  20
 4540.0000000000
  30
0.0
  11
 3074.5564089230
  21
 3888.5000002040
  31
0.0
   0
CIRCLE
   5
191
 100
AcDbEntity
   8
LEVEL001
 370
13
 100
AcDbCircle
   6
CONTINUOUS
  62
1
  10
 2744.1064089230
  20
 5270.0000002040
  30
0.0
  40
 69.999997913838
   0
CIRCLE
   5
192
 100
AcDbEntity
   8
LEVEL001
 370
13
 100
AcDbCircle
   6
CONTINUOUS
  62
1
  10
 2884.1064047507
  20
 5270.0000002040
  30
0.0
  40
 69.999997913838
   0
MTEXT
   5
194
 100
AcDbEntity
   8
LEVEL001
 370
13
  62
7
 100
AcDbMText
  10
 2744.1064089230
  20
 5270.0000002040
  30
0.0
  40
 66.000000000000
  41
0.0
  71
5
  72
1
   1
\T1.000000;６
   7
GMM002
  44
 0.79999984000003
   0
MTEXT
   5
196
 100
AcDbEntity
   8
LEVEL001
 370
13
  62
7
 100
AcDbMText
  10
 2884.1064047507
  20
 5270.0000002040
  30
0.0
  40
 66.000000000000
  41
0.0
  71
5
  72
1
   1
\T1.000000;８
   7
GMM002
  44
 0.79999984000003
   0
LEADER
   5
197
 100
AcDbEntity
   8
LEVEL001
 370
13
   6
CONTINUOUS
  62
1
 100
AcDbLeader
   3
GMM002
  73
3
  74
1
  75
0
  40
 66.000000000000
  41
0.0
  76
2
  10
 2681.6064089230
  20
 4725.0000000000
  30
0.0
  10
 2736.1311571978
  20
 5200.4558051345
  30
0.0
  77
1
   0
CIRCLE
   5
198
 100
AcDbEntity
   8
LEVEL001
 370
13
 100
AcDbCircle
   6
CONTINUOUS
  62
1
  10
 2994.1064089230
  20
 5145.0000002040
  30
0.0
  40
 69.999997913838
   0
CIRCLE
   5
199
 100
AcDbEntity
   8
LEVEL001
 370
13
 100
AcDbCircle
   6
CONTINUOUS
  62
1
  10
 3134.1064047507
  20
 5145.0000002040
  30
0.0
  40
 69.999997913838
   0
MTEXT
   5
19B
 100
AcDbEntity
   8
LEVEL001
 370
13
  62
7
 100
AcDbMText
  10
 2994.1064089230
  20
 5145.0000002040
  30
0.0
  40
 66.000000000000
  41
0.0
  71
5
  72
1
   1
\T1.000000;７
   7
GMM002
  44
 0.79999984000003
   0
MTEXT
   5
19D
 100
AcDbEntity
   8
LEVEL001
 370
13
  62
7
 100
AcDbMText
  10
 3134.1064047507
  20
 5145.0000002040
  30
0.0
  40
 66.000000000000
  41
0.0
  71
5
  72
1
   1
\T1.000000;９
   7
GMM002
  44
 0.79999984000003
   0
LEADER
   5
19E
 100
AcDbEntity
   8
LEVEL001
 370
13
   6
CONTINUOUS
  62
1
 100
AcDbLeader
   3
GMM002
  73
3
  74
1
  75
0
  40
 66.000000000000
  41
0.0
  76
2
  10
 2861.3966292566
  20
 4723.0890125464
  30
0.0
  10
 2972.2926949505
  20
 5078.4856288947
  30
0.0
  77
1
   0
DIMENSION
   5
19F
 100
AcDbEntity
   8
LEVEL001
 370
13
   6
CONTINUOUS
  62
6
 100
AcDbDimension
   2
*D13
  10
 619.10640892299
  20
 570.00000000000
  30
0.0
  11
 619.10640892299
  21
 520.00000000000
  31
0.0
  70
0
   3
GMM003
 100
AcDbAlignedDimension
  13
 1119.1064089230
  23
 470.00000000000
  33
0.0
  14
 1119.1064089230
  24
 570.00000000000
  34
0.0
  50
 90.000000000000
 100
AcDbRotatedDimension
   0
DIMENSION
   5
1A0
 100
AcDbEntity
   8
LEVEL001
 370
13
   6
CONTINUOUS
  62
6
 100
AcDbDimension
   2
*D14
  10
 619.10640892299
  20
 1770.0000002040
  30
0.0
  11
 619.10640892299
  21
 1170.0000001020
  31
0.0
  70
0
   3
GMM003
 100
AcDbAlignedDimension
  13
 1119.1064089230
  23
 570.00000000000
  33
0.0
  14
 819.10647415795
  24
 1770.0000002040
  34
0.0
  50
 90.000000000000
 100
AcDbRotatedDimension
   0
DIMENSION
   5
1A1
 100
AcDbEntity
   8
LEVEL001
 370
13
   6
CONTINUOUS
  62
6
 100
AcDbDimension
   2
*D15
  10
 619.10640892299
  20
 4270.0000002077
  30
0.0
  11
 619.10640892299
  21
 3020.0000002058
  31
0.0
  70
0
   1
\A1;2500(標準設置高さ)
   3
GMM004
 100
AcDbAlignedDimension
  13
 819.10647415795
  23
 1770.0000002040
  33
0.0
  14
 894.10640892292
  24
 4270.0000002077
  34
0.0
  50
 90.000000000000
 100
AcDbRotatedDimension
   0
LINE
   5
1A2
 100
AcDbEntity
   8
LEVEL001
 370
13
 100
AcDbLine
   6
CONTINUOUS
  62
6
  10
 3161.6711342679
  20
 4754.9999584717
  30
0.0
  11
 3161.6711342679
  21
 4655.0000000000
  31
0.0
   0
LINE
   5
1A3
 100
AcDbEntity
   8
LEVEL001
 370
13
 100
AcDbLine
   6
CONTINUOUS
  62
6
  10
 3076.5416835781
  20
 4644.9999584717
  30
0.0
  11
 3076.5416835781
  21
 4545.0000000000
  31
0.0
   0
LINE
   5
1A4
 100
AcDbEntity
   8
LEVEL001
 370
13
 100
AcDbLine
   6
CONTINUOUS
  62
6
  10
 1411.6711342679
  20
 4754.9999584717
  30
0.0
  11
 1411.6711342679
  21
 4654.9999584717
  31
0.0
   0
LINE
   5
1A5
 100
AcDbEntity
   8
LEVEL001
 370
13
 100
AcDbLine
   6
CONTINUOUS
  62
6
  10
 1326.5416835781
  20
 4644.9999584717
  30
0.0
  11
 1326.5416835781
  21
 4544.9999584717
  31
0.0
   0
LWPOLYLINE
   5
1A6
 100
AcDbEntity
   8
LEVEL001
 370
13
   6
CONTINUOUS
  62
7
 100
AcDbPolyline
  90
4
  70
1
  10
 1313.1064004031
  20
 4617.9999584717
  10
 1299.1064004031
  20
 4617.9999584717
  10
 1299.1064004031
  20
 4631.9999584717
  10
 1313.1064004031
  20
 4631.9999584717
   0
LWPOLYLINE
   5
1A7
 100
AcDbEntity
   8
LEVEL001
 370
13
   6
CONTINUOUS
  62
3
 100
AcDbPolyline
  90
5
  70
0
  10
 2613.9178642391
  20
 5073.7500000000
  10
 2553.9178642391
  20
 5073.7500000000
  10
 2553.9178642391
  20
 4837.0354772097
  10
 2593.9178642391
  20
 4780.7954655988
  10
 2613.9178642391
  20
 4780.7954655988
   0
ARC
   5
1A8
 100
AcDbEntity
   8
LEVEL001
 370
13
   6
DOT
  62
2
 100
AcDbCircle
  10
 4316.3082295520
  20
 4670.0021444431
  30
0.0
  40
 1773.0981603475
 100
AcDbArc
  50
 166.96221629918
  51
 173.70000699026
   0
LWPOLYLINE
   5
1A9
 100
AcDbEntity
   8
LEVEL001
 370
13
   6
CONTINUOUS
  62
7
 100
AcDbPolyline
  90
4
  70
0
  10
 2613.9178642391
  20
 5073.7500000000
  10
 2613.9178642391
  20
 4270.0000000696
  10
 2588.9178642391
  20
 4270.0000000696
  10
 2588.9178642391
  20
 4787.8254670501
   0
ARC
   5
1AA
 100
AcDbEntity
   8
LEVEL001
 370
13
   6
CONTINUOUS
  62
7
 100
AcDbCircle
  10
 4316.3081172750
  20
 4670.0000000000
  30
0.0
  40
 1773.0981603475
 100
AcDbArc
  50
 173.69993771522
  51
 193.03779978333
   0
LINE
   5
1AB
 100
AcDbEntity
   8
LEVEL001
 370
13
 100
AcDbLine
   6
DOT
  62
2
  10
 2588.9178642391
  20
 4787.8254670501
  30
0.0
  11
 2588.9178642391
  21
 5070.0016595076
  31
0.0
   0
LEADER
   5
1AC
 100
AcDbEntity
   8
LEVEL001
 370
13
   6
CONTINUOUS
  62
1
 100
AcDbLeader
   3
GMM005
  73
3
  74
1
  75
0
  40
 66.000000000000
  41
0.0
  76
2
  10
 2553.9178642391
  20
 4957.5000002040
  30
0.0
  10
 2435.4408284851
  20
 4997.6450345522
  30
0.0
  77
1
   0
LWPOLYLINE
   5
1AD
 100
AcDbEntity
   8
LEVEL001
 370
13
   6
CONTINUOUS
  62
3
 100
AcDbPolyline
  90
5
  70
0
  10
 3624.2949536069
  20
 5073.7500000000
  10
 3684.2949536069
  20
 5073.7500000000
  10
 3684.2949536069
  20
 4837.0354772097
  10
 3644.2949536069
  20
 4780.7954655988
  10
 3624.2949536069
  20
 4780.7954655988
   0
ARC
   5
1AE
 100
AcDbEntity
   8
LEVEL001
 370
13
   6
DOT
  62
2
 100
AcDbCircle
  10
 1921.9045882940
  20
 4670.0021444431
  30
0.0
  40
 1773.0981603475
 100
AcDbArc
  50
 6.2999930097402
  51
 13.037783700824
   0
LWPOLYLINE
   5
1AF
 100
AcDbEntity
   8
LEVEL001
 370
13
   6
CONTINUOUS
  62
7
 100
AcDbPolyline
  90
4
  70
0
  10
 3624.2949536069
  20
 5073.7500000000
  10
 3624.2949536069
  20
 4270.0000000696
  10
 3649.2949536069
  20
 4270.0000000696
  10
 3649.2949536069
  20
 4787.8254670501
   0
LINE
   5
1B0
 100
AcDbEntity
   8
LEVEL001
 370
13
 100
AcDbLine
   6
DOT
  62
2
  10
 3649.2949536069
  20
 4787.8254670501
  30
0.0
  11
 3649.2949536069
  21
 5070.0016595076
  31
0.0
   0
ARC
   5
1B1
 100
AcDbEntity
   8
LEVEL001
 370
13
   6
CONTINUOUS
  62
7
 100
AcDbCircle
  10
 1921.9047005710
  20
 4670.0000000000
  30
0.0
  40
 1773.0981603475
 100
AcDbArc
  50
 346.96220021667
  51
 6.3000622847836
   0
ARC
   5
1B2
 100
AcDbEntity
   8
LEVEL001
 370
13
   6
CONTINUOUS
  62
2
 100
AcDbCircle
  10
 4204.5004548896
  20
 4728.1149993717
  30
0.0
  40
 29.925185329180
 100
AcDbArc
  50
 274.14136530443
  51
 340.55392640748
   0
LINE
   5
1B3
 100
AcDbEntity
   8
LEVEL001
 370
13
 100
AcDbLine
   6
CONTINUOUS
  62
2
  10
 4206.6615781205
  20
 4698.2679515550
  30
0.0
  11
 4022.3902113876
  21
 4684.9236275795
  31
0.0
   0
LINE
   5
1B4
 100
AcDbEntity
   8
LEVEL001
 370
13
 100
AcDbLine
   6
CONTINUOUS
  62
2
  10
 4206.6615781205
  20
 4641.7332661039
  30
0.0
  11
 4022.3902113876
  21
 4655.0763724205
  31
0.0
   0
ARC
   5
1B5
 100
AcDbEntity
   8
LEVEL001
 370
13
   6
CONTINUOUS
  62
2
 100
AcDbCircle
  10
 4204.5004548896
  20
 4611.8862182872
  30
0.0
  40
 29.925185329180
 100
AcDbArc
  50
 19.446073592523
  51
 85.858634695571
   0
ARC
   5
1B6
 100
AcDbEntity
   8
LEVEL001
 370
13
   6
CONTINUOUS
  62
2
 100
AcDbCircle
  10
 4369.1063838700
  20
 4670.0009498320
  30
0.0
  40
 144.63836721882
 100
AcDbArc
  50
 199.44570402826
  51
 220.55442164438
   0
CIRCLE
   5
1B7
 100
AcDbEntity
   8
LEVEL001
 370
13
 100
AcDbCircle
   6
CONTINUOUS
  62
2
  10
 4369.1064089230
  20
 4670.0000000000
  30
0.0
  40
 124.68827220492
   0
ARC
   5
1B8
 100
AcDbEntity
   8
LEVEL001
 370
13
   6
CONTINUOUS
  62
2
 100
AcDbCircle
  10
 4023.4695710585
  20
 4670.0000000000
  30
0.0
  40
 14.962609312270
 100
AcDbArc
  50
 94.136746090313
  51
 265.86325390969
   0
LINE
   5
1B9
 100
AcDbEntity
   8
LEVEL001
 370
13
 100
AcDbLine
   6
CONTINUOUS
  62
6
  10
 4207.7422504015
  20
 4656.6568936834
  30
0.0
  11
 4052.7184418154
  21
 4667.8824911585
  31
0.0
   0
LINE
   5
1BA
 100
AcDbEntity
   8
LEVEL001
 370
13
 100
AcDbLine
   6
CONTINUOUS
  62
6
  10
 4207.7422504015
  20
 4683.3443239755
  30
0.0
  11
 4052.7184418154
  21
 4672.1187265004
  31
0.0
   0
LINE
   5
1BB
 100
AcDbEntity
   8
LEVEL001
 370
13
 100
AcDbLine
   6
CONTINUOUS
  62
6
  10
 4234.6111118710
  20
 4690.2472323264
  30
0.0
  11
 4227.5672595015
  21
 4699.7815015780
  31
0.0
   0
LINE
   5
1BC
 100
AcDbEntity
   8
LEVEL001
 370
13
 100
AcDbLine
   6
CONTINUOUS
  62
6
  10
 4227.5672595015
  20
 4640.2197160809
  30
0.0
  11
 4234.6105030416
  21
 4649.7527676736
  31
0.0
   0
ARC
   5
1BD
 100
AcDbEntity
   8
LEVEL001
 370
13
   6
CONTINUOUS
  62
2
 100
AcDbCircle
  10
 4236.4751977993
  20
 4556.5046839946
  30
0.0
  40
 29.925185329180
 100
AcDbArc
  50
 334.14054601454
  51
 40.555122017427
   0
LINE
   5
1BE
 100
AcDbEntity
   8
LEVEL001
 370
13
 100
AcDbLine
   6
CONTINUOUS
  62
2
  10
 4263.4038744155
  20
 4543.4523626422
  30
0.0
  11
 4182.8240785031
  21
 4377.1968682863
  31
0.0
   0
ARC
   5
1BF
 100
AcDbEntity
   8
LEVEL001
 370
13
   6
CONTINUOUS
  62
2
 100
AcDbCircle
  10
 4196.2888068107
  20
 4370.6714741193
  30
0.0
  40
 14.962609312270
 100
AcDbArc
  50
 154.14383864627
  51
 325.85554262841
   0
LINE
   5
1C0
 100
AcDbEntity
   8
LEVEL001
 370
13
 100
AcDbLine
   6
CONTINUOUS
  62
2
  10
 4312.3641126279
  20
 4515.1856287460
  30
0.0
  11
 4208.6722373927
  21
 4362.2732407068
  31
0.0
   0
ARC
   5
1C1
 100
AcDbEntity
   8
LEVEL001
 370
13
   6
CONTINUOUS
  62
2
 100
AcDbCircle
  10
 4337.1316616399
  20
 4498.3902355406
  30
0.0
  40
 29.925185329180
 100
AcDbArc
  50
 79.445274345879
  51
 145.85798307978
   0
ARC
   5
1C2
 100
AcDbEntity
   8
LEVEL001
 370
13
   6
CONTINUOUS
  62
2
 100
AcDbCircle
  10
 4369.1064089230
  20
 4670.0004025303
  30
0.0
  40
 144.63836721882
 100
AcDbArc
  50
 259.44562091362
  51
 280.55437908638
   0
LINE
   5
1C3
 100
AcDbEntity
   8
LEVEL001
 370
13
 100
AcDbLine
   6
CONTINUOUS
  62
6
  10
 4299.9802171163
  20
 4523.5826045773
  30
0.0
  11
 4212.7465240997
  21
 4394.9418115562
  31
0.0
   0
LINE
   5
1C4
 100
AcDbEntity
   8
LEVEL001
 370
13
 100
AcDbLine
   6
CONTINUOUS
  62
6
  10
 4276.8684422082
  20
 4536.9269285529
  30
0.0
  11
 4209.0783266386
  21
 4397.0593203977
  31
0.0
   0
LINE
   5
1C5
 100
AcDbEntity
   8
LEVEL001
 370
13
 100
AcDbLine
   6
CONTINUOUS
  62
6
  10
 4272.5457530839
  20
 4562.3138991310
  30
0.0
  11
 4284.3241677035
  21
 4563.6472356355
  31
0.0
   0
LINE
   5
1C6
 100
AcDbEntity
   8
LEVEL001
 370
13
 100
AcDbLine
   6
CONTINUOUS
  62
6
  10
 4319.3930486758
  20
 4543.4012209680
  30
0.0
  11
 4324.1279153406
  21
 4532.5336152119
  31
0.0
   0
ARC
   5
1C7
 100
AcDbEntity
   8
LEVEL001
 370
13
   6
CONTINUOUS
  62
2
 100
AcDbCircle
  10
 4369.1064339760
  20
 4670.0009498320
  30
0.0
  40
 144.63836721882
 100
AcDbArc
  50
 319.44557835562
  51
 340.55429597174
   0
ARC
   5
1C8
 100
AcDbEntity
   8
LEVEL001
 370
13
   6
CONTINUOUS
  62
2
 100
AcDbCircle
  10
 4501.7376200466
  20
 4556.5046839946
  30
0.0
  40
 29.925185329180
 100
AcDbArc
  50
 139.44487798257
  51
 205.85945398546
   0
LINE
   5
1C9
 100
AcDbEntity
   8
LEVEL001
 370
13
 100
AcDbLine
   6
CONTINUOUS
  62
2
  10
 4474.8089434305
  20
 4543.4523626422
  30
0.0
  11
 4555.3887393429
  21
 4377.1968682863
  31
0.0
   0
ARC
   5
1CA
 100
AcDbEntity
   8
LEVEL001
 370
13
   6
CONTINUOUS
  62
2
 100
AcDbCircle
  10
 4541.9240110353
  20
 4370.6714741193
  30
0.0
  40
 14.962609312270
 100
AcDbArc
  50
 214.14445737157
  51
 25.856161353751
   0
LINE
   5
1CB
 100
AcDbEntity
   8
LEVEL001
 370
13
 100
AcDbLine
   6
CONTINUOUS
  62
2
  10
 4425.8487052180
  20
 4515.1856287460
  30
0.0
  11
 4529.5405804533
  21
 4362.2732407068
  31
0.0
   0
ARC
   5
1CC
 100
AcDbEntity
   8
LEVEL001
 370
13
   6
CONTINUOUS
  62
2
 100
AcDbCircle
  10
 4401.0811562060
  20
 4498.3902355406
  30
0.0
  40
 29.925185329180
 100
AcDbArc
  50
 34.142016920221
  51
 100.55472565412
   0
LINE
   5
1CD
 100
AcDbEntity
   8
LEVEL001
 370
13
 100
AcDbLine
   6
CONTINUOUS
  62
6
  10
 4461.3443756377
  20
 4536.9269285529
  30
0.0
  11
 4529.1344912074
  21
 4397.0593203977
  31
0.0
   0
LINE
   5
1CE
 100
AcDbEntity
   8
LEVEL001
 370
13
 100
AcDbLine
   6
CONTINUOUS
  62
6
  10
 4438.2326007297
  20
 4523.5826045773
  30
0.0
  11
 4525.4662937462
  21
 4394.9418115562
  31
0.0
   0
LINE
   5
1CF
 100
AcDbEntity
   8
LEVEL001
 370
13
 100
AcDbLine
   6
CONTINUOUS
  62
6
  10
 4418.8197691702
  20
 4543.4012209680
  30
0.0
  11
 4414.0849025054
  21
 4532.5336152119
  31
0.0
   0
LINE
   5
1D0
 100
AcDbEntity
   8
LEVEL001
 370
13
 100
AcDbLine
   6
CONTINUOUS
  62
6
  10
 4465.6670647620
  20
 4562.3138991310
  30
0.0
  11
 4453.8886501425
  21
 4563.6472356355
  31
0.0
   0
ARC
   5
1D1
 100
AcDbEntity
   8
LEVEL001
 370
13
   6
CONTINUOUS
  62
2
 100
AcDbCircle
  10
 4369.1064339760
  20
 4670.0002678269
  30
0.0
  40
 144.63836721882
 100
AcDbArc
  50
 19.445704028260
  51
 40.554421644381
   0
ARC
   5
1D2
 100
AcDbEntity
   8
LEVEL001
 370
13
   6
CONTINUOUS
  62
2
 100
AcDbCircle
  10
 4533.7123629563
  20
 4728.1149993717
  30
0.0
  40
 29.925185329180
 100
AcDbArc
  50
 199.44607359252
  51
 265.85863469557
   0
LINE
   5
1D3
 100
AcDbEntity
   8
LEVEL001
 370
13
 100
AcDbLine
   6
CONTINUOUS
  62
2
  10
 4531.5512397255
  20
 4698.2679515550
  30
0.0
  11
 4715.8229108731
  21
 4684.9236275795
  31
0.0
   0
LINE
   5
1D4
 100
AcDbEntity
   8
LEVEL001
 370
13
 100
AcDbLine
   6
CONTINUOUS
  62
2
  10
 4531.5512397255
  20
 4641.7332661039
  30
0.0
  11
 4715.8229108731
  21
 4655.0763724205
  31
0.0
   0
ARC
   5
1D5
 100
AcDbEntity
   8
LEVEL001
 370
13
   6
CONTINUOUS
  62
2
 100
AcDbCircle
  10
 4533.7123629563
  20
 4611.8862182872
  30
0.0
  40
 29.925185329180
 100
AcDbArc
  50
 94.141365304432
  51
 160.55392640748
   0
ARC
   5
1D6
 100
AcDbEntity
   8
LEVEL001
 370
13
   6
CONTINUOUS
  62
2
 100
AcDbCircle
  10
 4714.7435512022
  20
 4670.0000000000
  30
0.0
  40
 14.962609312270
 100
AcDbArc
  50
 274.13674609031
  51
 85.863253909687
   0
LINE
   5
1D7
 100
AcDbEntity
   8
LEVEL001
 370
13
 100
AcDbLine
   6
CONTINUOUS
  62
6
  10
 4530.4705674444
  20
 4683.3443239755
  30
0.0
  11
 4685.4943760306
  21
 4672.1187265004
  31
0.0
   0
LINE
   5
1D8
 100
AcDbEntity
   8
LEVEL001
 370
13
 100
AcDbLine
   6
CONTINUOUS
  62
6
  10
 4530.4705674444
  20
 4656.6568936834
  30
0.0
  11
 4685.4943760306
  21
 4667.8824911585
  31
0.0
   0
LINE
   5
1D9
 100
AcDbEntity
   8
LEVEL001
 370
13
 100
AcDbLine
   6
CONTINUOUS
  62
6
  10
 4510.6455583445
  20
 4640.2197160809
  30
0.0
  11
 4503.6023148044
  21
 4649.7527676736
  31
0.0
   0
LINE
   5
1DA
 100
AcDbEntity
   8
LEVEL001
 370
13
 100
AcDbLine
   6
CONTINUOUS
  62
6
  10
 4503.6017059750
  20
 4690.2472323264
  30
0.0
  11
 4510.6455583445
  21
 4699.7815015780
  31
0.0
   0
ARC
   5
1DB
 100
AcDbEntity
   8
LEVEL001
 370
13
   6
CONTINUOUS
  62
2
 100
AcDbCircle
  10
 4401.0811562060
  20
 4841.6109821183
  30
0.0
  40
 29.925185329180
 100
AcDbArc
  50
 259.44527434588
  51
 325.85798307978
   0
LINE
   5
1DC
 100
AcDbEntity
   8
LEVEL001
 370
13
 100
AcDbLine
   6
CONTINUOUS
  62
2
  10
 4425.8487052180
  20
 4824.8155889129
  30
0.0
  11
 4529.5405804533
  21
 4977.7279769521
  31
0.0
   0
LINE
   5
1DD
 100
AcDbEntity
   8
LEVEL001
 370
13
 100
AcDbLine
   6
CONTINUOUS
  62
2
  10
 4474.8089434305
  20
 4796.5476373578
  30
0.0
  11
 4555.3887393429
  21
 4962.8043493726
  31
0.0
   0
ARC
   5
1DE
 100
AcDbEntity
   8
LEVEL001
 370
13
   6
CONTINUOUS
  62
2
 100
AcDbCircle
  10
 4501.7379968205
  20
 4783.4960933686
  30
0.0
  40
 29.925185329180
 100
AcDbArc
  50
 154.14219998810
  51
 220.55401248931
   0
ARC
   5
1DF
 100
AcDbEntity
   8
LEVEL001
 370
13
   6
CONTINUOUS
  62
2
 100
AcDbCircle
  10
 4541.9240110353
  20
 4969.3297435396
  30
0.0
  40
 14.962609312270
 100
AcDbArc
  50
 334.14383864622
  51
 145.85554262845
   0
ARC
   5
1E0
 100
AcDbEntity
   8
LEVEL001
 370
13
   6
CONTINUOUS
  62
2
 100
AcDbCircle
  10
 4369.1064089230
  20
 4670.0008151287
  30
0.0
  40
 144.63836721882
 100
AcDbArc
  50
 79.445620913618
  51
 100.55437908638
   0
LINE
   5
1E1
 100
AcDbEntity
   8
LEVEL001
 370
13
 100
AcDbLine
   6
CONTINUOUS
  62
6
  10
 4438.2326007297
  20
 4816.4173954227
  30
0.0
  11
 4525.4659893315
  21
 4945.0594061027
  31
0.0
   0
LINE
   5
1E2
 100
AcDbEntity
   8
LEVEL001
 370
13
 100
AcDbLine
   6
CONTINUOUS
  62
6
  10
 4461.3443756377
  20
 4803.0742891060
  30
0.0
  11
 4529.1344912074
  21
 4942.9418972612
  31
0.0
   0
LINE
   5
1E3
 100
AcDbEntity
   8
LEVEL001
 370
13
 100
AcDbLine
   6
CONTINUOUS
  62
6
  10
 4453.8886501425
  20
 4776.3539820234
  30
0.0
  11
 4465.6670647620
  21
 4777.6861008690
  31
0.0
   0
LINE
   5
1E4
 100
AcDbEntity
   8
LEVEL001
 370
13
 100
AcDbLine
   6
CONTINUOUS
  62
6
  10
 4414.0849025054
  20
 4807.4676024470
  30
0.0
  11
 4418.8197691702
  21
 4796.6012143498
  31
0.0
   0
ARC
   5
1E5
 100
AcDbEntity
   8
LEVEL001
 370
13
   6
CONTINUOUS
  62
2
 100
AcDbCircle
  10
 4337.1316616399
  20
 4841.6109821183
  30
0.0
  40
 29.925185329180
 100
AcDbArc
  50
 214.14201692022
  51
 280.55472565412
   0
LINE
   5
1E6
 100
AcDbEntity
   8
LEVEL001
 370
13
 100
AcDbLine
   6
CONTINUOUS
  62
2
  10
 4312.3641126279
  20
 4824.8155889129
  30
0.0
  11
 4208.6722373927
  21
 4977.7279769521
  31
0.0
   0
LINE
   5
1E7
 100
AcDbEntity
   8
LEVEL001
 370
13
 100
AcDbLine
   6
CONTINUOUS
  62
2
  10
 4263.4038744155
  20
 4796.5476373578
  30
0.0
  11
 4182.8240785031
  21
 4962.8043493726
  31
0.0
   0
ARC
   5
1E8
 100
AcDbEntity
   8
LEVEL001
 370
13
   6
CONTINUOUS
  62
2
 100
AcDbCircle
  10
 4236.4748210255
  20
 4783.4960933686
  30
0.0
  40
 29.925185329180
 100
AcDbArc
  50
 319.44598751069
  51
 25.857800011901
   0
ARC
   5
1E9
 100
AcDbEntity
   8
LEVEL001
 370
13
   6
CONTINUOUS
  62
2
 100
AcDbCircle
  10
 4196.2888068107
  20
 4969.3297435396
  30
0.0
  40
 14.962609312270
 100
AcDbArc
  50
 34.144457371568
  51
 205.85616135376
   0
ARC
   5
1EA
 100
AcDbEntity
   8
LEVEL001
 370
13
   6
CONTINUOUS
  62
2
 100
AcDbCircle
  10
 4369.1063838700
  20
 4670.0002678269
  30
0.0
  40
 144.63836721882
 100
AcDbArc
  50
 139.44557835562
  51
 160.55429597174
   0
LINE
   5
1EB
 100
AcDbEntity
   8
LEVEL001
 370
13
 100
AcDbLine
   6
CONTINUOUS
  62
6
  10
 4276.8684422082
  20
 4803.0742891060
  30
0.0
  11
 4209.0783266386
  21
 4942.9418972612
  31
0.0
   0
LINE
   5
1EC
 100
AcDbEntity
   8
LEVEL001
 370
13
 100
AcDbLine
   6
CONTINUOUS
  62
6
  10
 4299.9802171163
  20
 4816.4173954227
  30
0.0
  11
 4212.7468285145
  21
 4945.0594061027
  31
0.0
   0
LINE
   5
1ED
 100
AcDbEntity
   8
LEVEL001
 370
13
 100
AcDbLine
   6
CONTINUOUS
  62
6
  10
 4324.1279153406
  20
 4807.4676024470
  30
0.0
  11
 4319.3930486758
  21
 4796.6012143498
  31
0.0
   0
LINE
   5
1EE
 100
AcDbEntity
   8
LEVEL001
 370
13
 100
AcDbLine
   6
CONTINUOUS
  62
6
  10
 4284.3241677035
  20
 4776.3539820234
  30
0.0
  11
 4272.5457530839
  21
 4777.6861008690
  31
0.0
   0
LWPOLYLINE
   5
1EF
 100
AcDbEntity
   8
LEVEL001
 370
13
   6
CONTINUOUS
  62
1
 100
AcDbPolyline
  90
4
  70
1
  10
 3163.6564089230
  20
 4974.0000000000
  10
 3074.5564089230
  20
 4974.0000000000
  10
 3074.5564089230
  20
 4971.0000000000
  10
 3163.6564089230
  20
 4971.0000000000
   0
LWPOLYLINE
   5
1F0
 100
AcDbEntity
   8
LEVEL001
 370
13
   6
CONTINUOUS
  62
1
 100
AcDbPolyline
  90
4
  70
1
  10
 1413.6564089230
  20
 4974.0000000000
  10
 1324.5564089230
  20
 4974.0000000000
  10
 1324.5564089230
  20
 4971.0000000000
  10
 1413.6564089230
  20
 4971.0000000000
   0
LWPOLYLINE
   5
1F1
 100
AcDbEntity
   8
LEVEL001
 370
13
   6
DOT
  62
6
 100
AcDbPolyline
  90
4
  70
0
  10
 1408.6564089230
  20
 4971.0000000000
  10
 1408.6564089230
  20
 4944.0000000000
  10
 1329.5564089230
  20
 4944.0000000000
  10
 1329.5564089230
  20
 4971.0000000000
   0
LWPOLYLINE
   5
1F2
 100
AcDbEntity
   8
LEVEL001
 370
13
   6
DOT
  62
6
 100
AcDbPolyline
  90
4
  70
0
  10
 3158.6564089230
  20
 4971.0000000000
  10
 3158.6564089230
  20
 4944.0000000000
  10
 3079.5564089230
  20
 4944.0000000000
  10
 3079.5564089230
  20
 4971.0000000000
   0
LINE
   5
1F3
 100
AcDbEntity
   8
LEVEL001
 370
13
 100
AcDbLine
   6
DASHDOT
  62
6
  10
 3119.1064089230
  20
 5014.1260297685
  30
0.0
  11
 3119.1064089230
  21
 470.00000000000
  31
0.0
   0
LINE
   5
1F4
 100
AcDbEntity
   8
LEVEL001
 370
13
 100
AcDbLine
   6
DASHDOT
  62
6
  10
 1369.1064089230
  20
 5026.1960443024
  30
0.0
  11
 1369.1064089230
  21
 470.00000000000
  31
0.0
   0
CIRCLE
   5
1F5
 100
AcDbEntity
   8
LEVEL001
 370
13
 100
AcDbCircle
   6
CONTINUOUS
  62
1
  10
 2119.1064089230
  20
 4020.0000002040
  30
0.0
  40
 69.999997913838
   0
MTEXT
   5
1F7
 100
AcDbEntity
   8
LEVEL001
 370
13
  62
7
 100
AcDbMText
  10
 2119.1064089230
  20
 4020.0000002040
  30
0.0
  40
 66.000000000000
  41
0.0
  71
5
  72
1
   1
\T1.000000;４
   7
GMM002
  44
 0.79999984000003
   0
CIRCLE
   5
1F8
 100
AcDbEntity
   8
LEVEL001
 370
13
 100
AcDbCircle
   6
CONTINUOUS
  62
1
  10
 744.10640892299
  20
 4020.0000002040
  30
0.0
  40
 69.999997913838
   0
MTEXT
   5
1FA
 100
AcDbEntity
   8
LEVEL001
 370
13
  62
7
 100
AcDbMText
  10
 744.10640892299
  20
 4020.0000002040
  30
0.0
  40
 66.000000000000
  41
0.0
  71
5
  72
1
   1
\T1.000000;５
   7
GMM002
  44
 0.79999984000003
   0
LINE
   5
1FB
 100
AcDbEntity
   8
LEVEL001
 370
13
 100
AcDbLine
   6
CONTINUOUS
  62
6
  10
 3162.8832180105
  20
 3876.5000002040
  30
0.0
  11
 3076.8024241352
  21
 3876.5000002040
  31
0.0
   0
LINE
   5
1FC
 100
AcDbEntity
   8
LEVEL001
 370
13
 100
AcDbLine
   6
CONTINUOUS
  62
6
  10
 3076.8024241352
  20
 3863.5000002040
  30
0.0
  11
 3162.8832180105
  21
 3863.5000002040
  31
0.0
   0
LWPOLYLINE
   5
1FD
 100
AcDbEntity
   8
LEVEL001
 370
13
   6
CONTINUOUS
  62
7
 100
AcDbPolyline
  90
4
  70
0
  10
 3066.5111263031
  20
 3851.5000002040
  10
 3184.0552170109
  20
 3851.5000002040
  10
 3184.0552170109
  20
 3888.5000002040
  10
 3066.5107230339
  20
 3888.5000002040
   0
LINE
   5
1FE
 100
AcDbEntity
   8
LEVEL001
 370
13
 100
AcDbLine
   6
CONTINUOUS
  62
6
  10
 3162.8832180105
  20
 3853.5000002040
  30
0.0
  11
 3162.8832180105
  21
 3862.5000002040
  31
0.0
   0
LINE
   5
1FF
 100
AcDbEntity
   8
LEVEL001
 370
13
 100
AcDbLine
   6
CONTINUOUS
  62
6
  10
 3162.8832180105
  20
 3877.5000002040
  30
0.0
  11
 3162.8832180105
  21
 3886.5000002040
  31
0.0
   0
LINE
   5
200
 100
AcDbEntity
   8
LEVEL001
 370
13
 100
AcDbLine
   6
CONTINUOUS
  62
6
  10
 3165.2017430519
  20
 3863.5000002040
  30
0.0
  11
 3165.2017430519
  21
 3876.5000002040
  31
0.0
   0
LWPOLYLINE
   5
201
 100
AcDbEntity
   8
LEVEL001
 370
13
   6
CONTINUOUS
  62
7
 100
AcDbPolyline
  90
4
  70
1
  10
 3169.0552170109
  20
 3865.0000002040
  10
 3179.0552170109
  20
 3865.0000002040
  10
 3179.0552170109
  20
 3875.0000002040
  10
 3169.0552170109
  20
 3875.0000002040
   0
LINE
   5
202
 100
AcDbEntity
   8
LEVEL001
 370
13
 100
AcDbLine
   6
CONTINUOUS
  62
6
  10
 3075.5415295657
  20
 3864.5000002040
  30
0.0
  11
 3075.5415295657
  21
 3875.5000002040
  31
0.0
   0
LINE
   5
203
 100
AcDbEntity
   8
LEVEL001
 370
13
 100
AcDbLine
   6
CONTINUOUS
  62
6
  10
 3075.5415295657
  20
 3877.5000002040
  30
0.0
  11
 3075.5415295657
  21
 3886.5000002040
  31
0.0
   0
LINE
   5
204
 100
AcDbEntity
   8
LEVEL001
 370
13
 100
AcDbLine
   6
CONTINUOUS
  62
6
  10
 3075.5415295657
  20
 3853.5000002040
  30
0.0
  11
 3075.5415295657
  21
 3862.5000002040
  31
0.0
   0
LINE
   5
205
 100
AcDbEntity
   8
LEVEL001
 370
13
 100
AcDbLine
   6
CONTINUOUS
  62
7
  10
 3062.1267403201
  20
 4070.0000002048
  30
0.0
  11
 3059.4128335565
  21
 4063.2152332959
  31
0.0
   0
ARC
   5
206
 100
AcDbEntity
   8
LEVEL001
 370
13
   6
CONTINUOUS
  62
7
 100
AcDbCircle
  10
 3064.0552170109
  20
 4061.3582799142
  30
0.0
  40
 5.0000000000000
 100
AcDbArc
  50
 158.19859051364
  51
 180.00000000000
   0
ARC
   5
207
 100
AcDbEntity
   8
LEVEL001
 370
13
   6
CONTINUOUS
  62
7
 100
AcDbCircle
  10
 3058.0552170109
  20
 4054.1523537457
  30
0.0
  40
 5.0000000000000
 100
AcDbArc
  50
 0.26055103950549E-10
  51
 21.801409486384
   0
LINE
   5
208
 100
AcDbEntity
   8
LEVEL001
 370
13
 100
AcDbLine
   6
CONTINUOUS
  62
7
  10
 3060.8953296107
  20
 4060.5149842642
  30
0.0
  11
 3062.6976004654
  21
 4056.0093071275
  31
0.0
   0
ARC
   5
209
 100
AcDbEntity
   8
LEVEL001
 370
13
   6
CONTINUOUS
  62
7
 100
AcDbCircle
  10
 3065.5377130651
  20
 4062.3719376460
  30
0.0
  40
 5.0000000000000
 100
AcDbArc
  50
 158.19859051365
  51
 201.80140948635
   0
LWPOLYLINE
   5
20A
 100
AcDbEntity
   8
LEVEL001
 370
13
   6
CONTINUOUS
  62
7
 100
AcDbPolyline
  90
3
  70
0
  10
 3062.1267403201
  20
 4070.0000002048
  10
 3063.0552170109
  20
 4069.6286095284
  10
 3060.8953296107
  20
 4064.2288910278
   0
LINE
   5
20B
 100
AcDbEntity
   8
LEVEL001
 370
13
 100
AcDbLine
   6
CONTINUOUS
  62
7
  10
 3059.0552170109
  20
 4061.3582799142
  30
0.0
  11
 3059.0552170109
  21
 3678.6417204938
  31
0.0
   0
LINE
   5
20C
 100
AcDbEntity
   8
LEVEL001
 370
13
 100
AcDbLine
   6
CONTINUOUS
  62
7
  10
 3063.0552170109
  20
 4054.1523537457
  30
0.0
  11
 3063.0552170109
  21
 3685.8476466622
  31
0.0
   0
LINE
   5
20D
 100
AcDbEntity
   8
LEVEL001
 370
13
 100
AcDbLine
   6
CONTINUOUS
  62
6
  10
 3066.0552170109
  20
 3905.0000609621
  30
0.0
  11
 3066.0552170109
  21
 3905.9999999231
  31
0.0
   0
LINE
   5
20E
 100
AcDbEntity
   8
LEVEL001
 370
13
 100
AcDbLine
   6
CONTINUOUS
  62
7
  10
 3066.0552170109
  20
 3905.9999999231
  30
0.0
  11
 3063.0552170109
  21
 3905.9999999231
  31
0.0
   0
LINE
   5
20F
 100
AcDbEntity
   8
LEVEL001
 370
13
 100
AcDbLine
   6
CONTINUOUS
  62
6
  10
 3063.0552170109
  20
 3905.0000609621
  30
0.0
  11
 3066.0552170109
  21
 3905.0000609621
  31
0.0
   0
LINE
   5
210
 100
AcDbEntity
   8
LEVEL001
 370
13
 100
AcDbLine
   6
CONTINUOUS
  62
7
  10
 3066.5106957900
  20
 3890.9996337707
  30
0.0
  11
 3066.5111535540
  21
 3848.9997254873
  31
0.0
   0
ELLIPSE
   5
211
 100
AcDbEntity
   8
LEVEL001
 370
13
   6
CONTINUOUS
  62
7
 100
AcDbEllipse
  10
 3062.5106932403
  20
 3890.9997557219
  30
0.0
  11
 4.0000025516047
  21
0.0
  31
0.0
  40
 0.99999938800000
  41
-0.30487804007851E-4
  42
 1.4342414715497
   0
LWPOLYLINE
   5
212
 100
AcDbEntity
   8
LEVEL001
 370
13
   6
CONTINUOUS
  62
6
 100
AcDbPolyline
  90
3
  70
0
  10
 3066.0552170109
  20
 3834.0000002040
  10
 3066.0552170109
  20
 3835.0000307177
  10
 3063.0552170109
  20
 3835.0000307177
   0
ELLIPSE
   5
213
 100
AcDbEntity
   8
LEVEL001
 370
13
   6
CONTINUOUS
  62
7
 100
AcDbEllipse
  10
 3062.5111510028
  20
 3848.9997866398
  30
0.0
  11
 4.0000025516047
  21
0.0
  31
0.0
  40
 0.99999938800000
  41
-1.4343569865528
  42
-0.15288126351787E-4
   0
LINE
   5
214
 100
AcDbEntity
   8
LEVEL001
 370
13
 100
AcDbLine
   6
CONTINUOUS
  62
7
  10
 3063.0552170109
  20
 3834.0000002040
  30
0.0
  11
 3066.0552170109
  21
 3834.0000002040
  31
0.0
   0
ARC
   5
215
 100
AcDbEntity
   8
LEVEL001
 370
13
   6
CONTINUOUS
  62
7
 100
AcDbCircle
  10
 3064.0552170109
  20
 3678.6417204938
  30
0.0
  40
 5.0000000000000
 100
AcDbArc
  50
 180.00000000000
  51
 201.80140948636
   0
LINE
   5
216
 100
AcDbEntity
   8
LEVEL001
 370
13
 100
AcDbLine
   6
CONTINUOUS
  62
7
  10
 3062.1267403201
  20
 3670.0000002032
  30
0.0
  11
 3059.4128335565
  21
 3676.7847671120
  31
0.0
   0
ARC
   5
217
 100
AcDbEntity
   8
LEVEL001
 370
13
   6
CONTINUOUS
  62
7
 100
AcDbCircle
  10
 3058.0552170109
  20
 3685.8476466623
  30
0.0
  40
 5.0000000000000
 100
AcDbArc
  50
 338.19859051362
  51
 359.99999999997
   0
LINE
   5
218
 100
AcDbEntity
   8
LEVEL001
 370
13
 100
AcDbLine
   6
CONTINUOUS
  62
7
  10
 3060.8953296107
  20
 3679.4850161437
  30
0.0
  11
 3062.6976004654
  21
 3683.9906932805
  31
0.0
   0
ARC
   5
219
 100
AcDbEntity
   8
LEVEL001
 370
13
   6
CONTINUOUS
  62
7
 100
AcDbCircle
  10
 3065.5377130651
  20
 3677.6280627620
  30
0.0
  40
 5.0000000000000
 100
AcDbArc
  50
 158.19859051364
  51
 201.80140948636
   0
LWPOLYLINE
   5
21A
 100
AcDbEntity
   8
LEVEL001
 370
13
   6
CONTINUOUS
  62
7
 100
AcDbPolyline
  90
3
  70
0
  10
 3062.1267403201
  20
 3670.0000002032
  10
 3063.0552170109
  20
 3670.3713908795
  10
 3060.8953296107
  20
 3675.7711093802
   0
CIRCLE
   5
21B
 100
AcDbEntity
   8
LEVEL001
 370
13
 100
AcDbCircle
   6
CONTINUOUS
  62
1
  10
 3369.1064089230
  20
 3795.0000419363
  30
0.0
  40
 70.000000000000
   0
CIRCLE
   5
21C
 100
AcDbEntity
   8
LEVEL001
 370
13
 100
AcDbCircle
   6
CONTINUOUS
  62
1
  10
 3509.1064089230
  20
 3795.0000419363
  30
0.0
  40
 70.000000000000
   0
MTEXT
   5
21E
 100
AcDbEntity
   8
LEVEL001
 370
13
  62
7
 100
AcDbMText
  10
 3509.1064089230
  20
 3795.0000419363
  30
0.0
  40
 66.000000000000
  41
0.0
  71
5
  72
1
   1
\T1.000000;１７
   7
GMM002
  44
 0.79999984000003
   0
MTEXT
   5
220
 100
AcDbEntity
   8
LEVEL001
 370
13
  62
7
 100
AcDbMText
  10
 3369.1064089230
  20
 3795.0000419363
  30
0.0
  40
 66.000000000000
  41
0.0
  71
5
  72
1
   1
\T1.000000;１６
   7
GMM002
  44
 0.79999984000003
   0
LEADER
   5
221
 100
AcDbEntity
   8
LEVEL001
 370
13
   6
CONTINUOUS
  62
1
 100
AcDbLeader
   3
GMM002
  73
3
  74
1
  75
0
  40
 66.000000000000
  41
0.0
  76
2
  10
 3184.0552170109
  20
 3851.5000002040
  30
0.0
  10
 3302.1574062710
  20
 3815.4409578624
  30
0.0
  77
1
   0
LWPOLYLINE
   5
222
 100
AcDbEntity
   8
LEVEL001
 370
13
   6
CONTINUOUS
  62
7
 100
AcDbPolyline
  90
4
  70
0
  10
 3163.6564089230
  20
 3851.5000002040
  10
 3163.6564089230
  20
 570.00000000000
  10
 3074.5564089230
  20
 570.00000000000
  10
 3074.5564089230
  20
 3851.5000002040
   0
LINE
   5
223
 100
AcDbEntity
   8
LEVEL001
 370
13
 100
AcDbLine
   6
CONTINUOUS
  62
5
  10
 964.10640892280
  20
 1717.5000002040
  30
0.0
  11
 1016.6064089228
  21
 1770.0000002040
  31
0.0
   0
LINE
   5
224
 100
AcDbEntity
   8
LEVEL001
 370
13
 100
AcDbLine
   6
CONTINUOUS
  62
5
  10
 948.19650634595
  20
 1733.4099027808
  30
0.0
  11
 984.78660376916
  21
 1770.0000002040
  31
0.0
   0
LINE
   5
225
 100
AcDbEntity
   8
LEVEL001
 370
13
 100
AcDbLine
   6
CONTINUOUS
  62
5
  10
 1000.6965063468
  20
 1770.0000002040
  30
0.0
  11
 956.15145763477
  21
 1725.4549514920
  31
0.0
   0
LINE
   5
226
 100
AcDbEntity
   8
LEVEL001
 370
13
 100
AcDbLine
   6
CONTINUOUS
  62
5
  10
 1021.3767011934
  20
 1717.5000002040
  30
0.0
  11
 992.74155505809
  21
 1746.1351463393
  31
0.0
   0
LINE
   5
227
 100
AcDbEntity
   8
LEVEL001
 370
13
 100
AcDbLine
   6
CONTINUOUS
  62
5
  10
 1000.6965063463
  20
 1754.0900976275
  30
0.0
  11
 1037.2866037698
  21
 1717.5000002040
  31
0.0
   0
LINE
   5
228
 100
AcDbEntity
   8
LEVEL001
 370
13
 100
AcDbLine
   6
CONTINUOUS
  62
5
  10
 1053.1965063462
  20
 1717.5000002040
  30
0.0
  11
 1008.6514576345
  21
 1762.0450489157
  31
0.0
   0
LINE
   5
229
 100
AcDbEntity
   8
LEVEL001
 370
13
 100
AcDbLine
   6
CONTINUOUS
  62
5
  10
 1016.6064089228
  20
 1770.0000002040
  30
0.0
  11
 1069.1064089230
  21
 1717.5000002040
  31
0.0
   0
LINE
   5
22A
 100
AcDbEntity
   8
LEVEL001
 370
13
 100
AcDbLine
   6
CONTINUOUS
  62
5
  10
 863.87670119293
  20
 1770.0000002040
  30
0.0
  11
 811.37670119293
  21
 1717.5000002040
  31
0.0
   0
LINE
   5
22B
 100
AcDbEntity
   8
LEVEL001
 370
13
 100
AcDbLine
   6
CONTINUOUS
  62
5
  10
 827.28660376897
  20
 1717.5000002040
  30
0.0
  11
 879.78660376897
  21
 1770.0000002040
  31
0.0
   0
LINE
   5
22C
 100
AcDbEntity
   8
LEVEL001
 370
13
 100
AcDbLine
   6
CONTINUOUS
  62
5
  10
 895.69650634658
  20
 1770.0000002040
  30
0.0
  11
 843.19650634658
  21
 1717.5000002040
  31
0.0
   0
LINE
   5
22D
 100
AcDbEntity
   8
LEVEL001
 370
13
 100
AcDbLine
   6
CONTINUOUS
  62
5
  10
 859.10640892262
  20
 1717.5000002040
  30
0.0
  11
 911.60640892262
  21
 1770.0000002040
  31
0.0
   0
LINE
   5
22E
 100
AcDbEntity
   8
LEVEL001
 370
13
 100
AcDbLine
   6
CONTINUOUS
  62
5
  10
 916.37670119320
  20
 1717.5000002040
  30
0.0
  11
 887.74155505791
  21
 1746.1351463393
  31
0.0
   0
LINE
   5
22F
 100
AcDbEntity
   8
LEVEL001
 370
13
 100
AcDbLine
   6
CONTINUOUS
  62
5
  10
 895.69650634613
  20
 1754.0900976275
  30
0.0
  11
 932.28660376964
  21
 1717.5000002040
  31
0.0
   0
LINE
   5
230
 100
AcDbEntity
   8
LEVEL001
 370
13
 100
AcDbLine
   6
CONTINUOUS
  62
5
  10
 948.19650634607
  20
 1717.5000002040
  30
0.0
  11
 903.65145763434
  21
 1762.0450489157
  31
0.0
   0
LINE
   5
231
 100
AcDbEntity
   8
LEVEL001
 370
13
 100
AcDbLine
   6
CONTINUOUS
  62
5
  10
 911.60640892262
  20
 1770.0000002040
  30
0.0
  11
 964.10640892280
  21
 1717.5000002040
  31
0.0
   0
LINE
   5
232
 100
AcDbEntity
   8
LEVEL001
 370
13
 100
AcDbLine
   6
CONTINUOUS
  62
5
  10
 968.87670119312
  20
 1770.0000002040
  30
0.0
  11
 940.24155505792
  21
 1741.3648540688
  31
0.0
   0
MTEXT
   5
234
 100
AcDbEntity
   8
LEVEL001
 370
13
  62
1
 100
AcDbMText
  10
 939.75507936743
  20
 1778.7299372443
  30
0.0
  40
 40.000000000000
  41
0.0
  71
7
  72
1
   1
\T1.000000;ＧＬ
   7
GMM003
  44
 0.79999984000003
   0
LWPOLYLINE
   5
235
 100
AcDbEntity
   8
LEVEL001
 370
13
   6
CONTINUOUS
  62
1
 100
AcDbPolyline
  90
3
  70
1
  10
 911.60640892262
  20
 1770.0000002040
  10
 886.60640892262
  20
 1820.0000002040
  10
 936.60640892262
  20
 1820.0000002040
   0
LINE
   5
236
 100
AcDbEntity
   8
LEVEL001
 370
13
 100
AcDbLine
   6
CONTINUOUS
  62
5
  10
 1721.6064089230
  20
 1770.0000002040
  30
0.0
  11
 1669.1064089230
  21
 1717.5000002040
  31
0.0
   0
LINE
   5
237
 100
AcDbEntity
   8
LEVEL001
 370
13
 100
AcDbLine
   6
CONTINUOUS
  62
5
  10
 1685.0163114990
  20
 1717.5000002040
  30
0.0
  11
 1737.5163114990
  21
 1770.0000002040
  31
0.0
   0
LINE
   5
238
 100
AcDbEntity
   8
LEVEL001
 370
13
 100
AcDbLine
   6
CONTINUOUS
  62
5
  10
 1753.4262140766
  20
 1770.0000002040
  30
0.0
  11
 1700.9262140766
  21
 1717.5000002040
  31
0.0
   0
LINE
   5
239
 100
AcDbEntity
   8
LEVEL001
 370
13
 100
AcDbLine
   6
CONTINUOUS
  62
5
  10
 1716.8361166527
  20
 1717.5000002040
  30
0.0
  11
 1769.3361166527
  21
 1770.0000002040
  31
0.0
   0
LINE
   5
23A
 100
AcDbEntity
   8
LEVEL001
 370
13
 100
AcDbLine
   6
CONTINUOUS
  62
5
  10
 1774.1064089233
  20
 1717.5000002040
  30
0.0
  11
 1745.4712627880
  21
 1746.1351463393
  31
0.0
   0
LINE
   5
23B
 100
AcDbEntity
   8
LEVEL001
 370
13
 100
AcDbLine
   6
CONTINUOUS
  62
5
  10
 1753.4262140762
  20
 1754.0900976275
  30
0.0
  11
 1790.0163114997
  21
 1717.5000002040
  31
0.0
   0
LINE
   5
23C
 100
AcDbEntity
   8
LEVEL001
 370
13
 100
AcDbLine
   6
CONTINUOUS
  62
5
  10
 1805.9262140761
  20
 1717.5000002040
  30
0.0
  11
 1761.3811653644
  21
 1762.0450489157
  31
0.0
   0
LINE
   5
23D
 100
AcDbEntity
   8
LEVEL001
 370
13
 100
AcDbLine
   6
CONTINUOUS
  62
5
  10
 1769.3361166527
  20
 1770.0000002040
  30
0.0
  11
 1821.8361166529
  21
 1717.5000002040
  31
0.0
   0
LINE
   5
23E
 100
AcDbEntity
   8
LEVEL001
 370
13
 100
AcDbLine
   6
CONTINUOUS
  62
5
  10
 1821.8361166529
  20
 1717.5000002040
  30
0.0
  11
 1874.3361166529
  21
 1770.0000002040
  31
0.0
   0
LINE
   5
23F
 100
AcDbEntity
   8
LEVEL001
 370
13
 100
AcDbLine
   6
CONTINUOUS
  62
5
  10
 1826.6064089232
  20
 1770.0000002040
  30
0.0
  11
 1797.9712627880
  21
 1741.3648540688
  31
0.0
   0
LINE
   5
240
 100
AcDbEntity
   8
LEVEL001
 370
13
 100
AcDbLine
   6
CONTINUOUS
  62
5
  10
 1805.9262140760
  20
 1733.4099027808
  30
0.0
  11
 1842.5163114992
  21
 1770.0000002040
  31
0.0
   0
LINE
   5
241
 100
AcDbEntity
   8
LEVEL001
 370
13
 100
AcDbLine
   6
CONTINUOUS
  62
5
  10
 1858.4262140768
  20
 1770.0000002040
  30
0.0
  11
 1813.8811653648
  21
 1725.4549514920
  31
0.0
   0
LINE
   5
242
 100
AcDbEntity
   8
LEVEL001
 370
13
 100
AcDbLine
   6
CONTINUOUS
  62
5
  10
 1879.1064089234
  20
 1717.5000002040
  30
0.0
  11
 1850.4712627881
  21
 1746.1351463393
  31
0.0
   0
LINE
   5
243
 100
AcDbEntity
   8
LEVEL001
 370
13
 100
AcDbLine
   6
CONTINUOUS
  62
5
  10
 1858.4262140764
  20
 1754.0900976275
  30
0.0
  11
 1895.0163114999
  21
 1717.5000002040
  31
0.0
   0
LINE
   5
244
 100
AcDbEntity
   8
LEVEL001
 370
13
 100
AcDbLine
   6
CONTINUOUS
  62
5
  10
 1910.9262140763
  20
 1717.5000002040
  30
0.0
  11
 1866.3811653646
  21
 1762.0450489157
  31
0.0
   0
LINE
   5
245
 100
AcDbEntity
   8
LEVEL001
 370
13
 100
AcDbLine
   6
CONTINUOUS
  62
5
  10
 1874.3361166529
  20
 1770.0000002040
  30
0.0
  11
 1926.8361166530
  21
 1717.5000002040
  31
0.0
   0
LINE
   5
246
 100
AcDbEntity
   8
LEVEL002
 370
13
 100
AcDbLine
   6
CONTINUOUS
  62
5
  10
 2714.1064089228
  20
 1717.5000002040
  30
0.0
  11
 2766.6064089228
  21
 1770.0000002040
  31
0.0
   0
LINE
   5
247
 100
AcDbEntity
   8
LEVEL002
 370
13
 100
AcDbLine
   6
CONTINUOUS
  62
5
  10
 2698.1965063460
  20
 1733.4099027808
  30
0.0
  11
 2734.7866037692
  21
 1770.0000002040
  31
0.0
   0
LINE
   5
248
 100
AcDbEntity
   8
LEVEL002
 370
13
 100
AcDbLine
   6
CONTINUOUS
  62
5
  10
 2750.6965063468
  20
 1770.0000002040
  30
0.0
  11
 2706.1514576348
  21
 1725.4549514920
  31
0.0
   0
LINE
   5
249
 100
AcDbEntity
   8
LEVEL002
 370
13
 100
AcDbLine
   6
CONTINUOUS
  62
5
  10
 2771.3767011934
  20
 1717.5000002040
  30
0.0
  11
 2742.7415550581
  21
 1746.1351463393
  31
0.0
   0
LINE
   5
24A
 100
AcDbEntity
   8
LEVEL002
 370
13
 100
AcDbLine
   6
CONTINUOUS
  62
5
  10
 2750.6965063463
  20
 1754.0900976275
  30
0.0
  11
 2787.2866037698
  21
 1717.5000002040
  31
0.0
   0
LINE
   5
24B
 100
AcDbEntity
   8
LEVEL002
 370
13
 100
AcDbLine
   6
CONTINUOUS
  62
5
  10
 2803.1965063462
  20
 1717.5000002040
  30
0.0
  11
 2758.6514576345
  21
 1762.0450489157
  31
0.0
   0
LINE
   5
24C
 100
AcDbEntity
   8
LEVEL002
 370
13
 100
AcDbLine
   6
CONTINUOUS
  62
5
  10
 2766.6064089228
  20
 1770.0000002040
  30
0.0
  11
 2819.1064089230
  21
 1717.5000002040
  31
0.0
   0
LINE
   5
24D
 100
AcDbEntity
   8
LEVEL002
 370
13
 100
AcDbLine
   6
CONTINUOUS
  62
5
  10
 2613.8767011929
  20
 1770.0000002040
  30
0.0
  11
 2561.3767011929
  21
 1717.5000002040
  31
0.0
   0
LINE
   5
24E
 100
AcDbEntity
   8
LEVEL002
 370
13
 100
AcDbLine
   6
CONTINUOUS
  62
5
  10
 2577.2866037690
  20
 1717.5000002040
  30
0.0
  11
 2629.7866037690
  21
 1770.0000002040
  31
0.0
   0
LINE
   5
24F
 100
AcDbEntity
   8
LEVEL002
 370
13
 100
AcDbLine
   6
CONTINUOUS
  62
5
  10
 2645.6965063466
  20
 1770.0000002040
  30
0.0
  11
 2593.1965063466
  21
 1717.5000002040
  31
0.0
   0
LINE
   5
250
 100
AcDbEntity
   8
LEVEL002
 370
13
 100
AcDbLine
   6
CONTINUOUS
  62
5
  10
 2609.1064089226
  20
 1717.5000002040
  30
0.0
  11
 2661.6064089226
  21
 1770.0000002040
  31
0.0
   0
LINE
   5
251
 100
AcDbEntity
   8
LEVEL002
 370
13
 100
AcDbLine
   6
CONTINUOUS
  62
5
  10
 2666.3767011932
  20
 1717.5000002040
  30
0.0
  11
 2637.7415550579
  21
 1746.1351463393
  31
0.0
   0
LINE
   5
252
 100
AcDbEntity
   8
LEVEL002
 370
13
 100
AcDbLine
   6
CONTINUOUS
  62
5
  10
 2645.6965063461
  20
 1754.0900976275
  30
0.0
  11
 2682.2866037696
  21
 1717.5000002040
  31
0.0
   0
LINE
   5
253
 100
AcDbEntity
   8
LEVEL002
 370
13
 100
AcDbLine
   6
CONTINUOUS
  62
5
  10
 2698.1965063461
  20
 1717.5000002040
  30
0.0
  11
 2653.6514576343
  21
 1762.0450489157
  31
0.0
   0
LINE
   5
254
 100
AcDbEntity
   8
LEVEL002
 370
13
 100
AcDbLine
   6
CONTINUOUS
  62
5
  10
 2661.6064089226
  20
 1770.0000002040
  30
0.0
  11
 2714.1064089228
  21
 1717.5000002040
  31
0.0
   0
LINE
   5
255
 100
AcDbEntity
   8
LEVEL002
 370
13
 100
AcDbLine
   6
CONTINUOUS
  62
5
  10
 2718.8767011931
  20
 1770.0000002040
  30
0.0
  11
 2690.2415550579
  21
 1741.3648540688
  31
0.0
   0
LINE
   5
256
 100
AcDbEntity
   8
LEVEL002
 370
13
 100
AcDbLine
   6
CONTINUOUS
  62
5
  10
 3471.6064089230
  20
 1770.0000002040
  30
0.0
  11
 3419.1064089230
  21
 1717.5000002040
  31
0.0
   0
LINE
   5
257
 100
AcDbEntity
   8
LEVEL002
 370
13
 100
AcDbLine
   6
CONTINUOUS
  62
5
  10
 3435.0163114990
  20
 1717.5000002040
  30
0.0
  11
 3487.5163114990
  21
 1770.0000002040
  31
0.0
   0
LINE
   5
258
 100
AcDbEntity
   8
LEVEL002
 370
13
 100
AcDbLine
   6
CONTINUOUS
  62
5
  10
 3503.4262140766
  20
 1770.0000002040
  30
0.0
  11
 3450.9262140766
  21
 1717.5000002040
  31
0.0
   0
LINE
   5
259
 100
AcDbEntity
   8
LEVEL002
 370
13
 100
AcDbLine
   6
CONTINUOUS
  62
5
  10
 3466.8361166527
  20
 1717.5000002040
  30
0.0
  11
 3519.3361166527
  21
 1770.0000002040
  31
0.0
   0
LINE
   5
25A
 100
AcDbEntity
   8
LEVEL002
 370
13
 100
AcDbLine
   6
CONTINUOUS
  62
5
  10
 3524.1064089233
  20
 1717.5000002040
  30
0.0
  11
 3495.4712627880
  21
 1746.1351463393
  31
0.0
   0
LINE
   5
25B
 100
AcDbEntity
   8
LEVEL002
 370
13
 100
AcDbLine
   6
CONTINUOUS
  62
5
  10
 3503.4262140762
  20
 1754.0900976275
  30
0.0
  11
 3540.0163114997
  21
 1717.5000002040
  31
0.0
   0
LINE
   5
25C
 100
AcDbEntity
   8
LEVEL002
 370
13
 100
AcDbLine
   6
CONTINUOUS
  62
5
  10
 3555.9262140761
  20
 1717.5000002040
  30
0.0
  11
 3511.3811653644
  21
 1762.0450489157
  31
0.0
   0
LINE
   5
25D
 100
AcDbEntity
   8
LEVEL002
 370
13
 100
AcDbLine
   6
CONTINUOUS
  62
5
  10
 3519.3361166527
  20
 1770.0000002040
  30
0.0
  11
 3571.8361166529
  21
 1717.5000002040
  31
0.0
   0
LINE
   5
25E
 100
AcDbEntity
   8
LEVEL002
 370
13
 100
AcDbLine
   6
CONTINUOUS
  62
5
  10
 3571.8361166529
  20
 1717.5000002040
  30
0.0
  11
 3624.3361166529
  21
 1770.0000002040
  31
0.0
   0
LINE
   5
25F
 100
AcDbEntity
   8
LEVEL002
 370
13
 100
AcDbLine
   6
CONTINUOUS
  62
5
  10
 3576.6064089232
  20
 1770.0000002040
  30
0.0
  11
 3547.9712627880
  21
 1741.3648540688
  31
0.0
   0
LINE
   5
260
 100
AcDbEntity
   8
LEVEL002
 370
13
 100
AcDbLine
   6
CONTINUOUS
  62
5
  10
 3555.9262140760
  20
 1733.4099027808
  30
0.0
  11
 3592.5163114992
  21
 1770.0000002040
  31
0.0
   0
LINE
   5
261
 100
AcDbEntity
   8
LEVEL002
 370
13
 100
AcDbLine
   6
CONTINUOUS
  62
5
  10
 3608.4262140768
  20
 1770.0000002040
  30
0.0
  11
 3563.8811653648
  21
 1725.4549514920
  31
0.0
   0
LINE
   5
262
 100
AcDbEntity
   8
LEVEL002
 370
13
 100
AcDbLine
   6
CONTINUOUS
  62
5
  10
 3629.1064089234
  20
 1717.5000002040
  30
0.0
  11
 3600.4712627881
  21
 1746.1351463393
  31
0.0
   0
LINE
   5
263
 100
AcDbEntity
   8
LEVEL002
 370
13
 100
AcDbLine
   6
CONTINUOUS
  62
5
  10
 3608.4262140764
  20
 1754.0900976275
  30
0.0
  11
 3645.0163114999
  21
 1717.5000002040
  31
0.0
   0
LINE
   5
264
 100
AcDbEntity
   8
LEVEL002
 370
13
 100
AcDbLine
   6
CONTINUOUS
  62
5
  10
 3660.9262140763
  20
 1717.5000002040
  30
0.0
  11
 3616.3811653646
  21
 1762.0450489157
  31
0.0
   0
LINE
   5
265
 100
AcDbEntity
   8
LEVEL002
 370
13
 100
AcDbLine
   6
CONTINUOUS
  62
5
  10
 3624.3361166529
  20
 1770.0000002040
  30
0.0
  11
 3676.8361166530
  21
 1717.5000002040
  31
0.0
   0
MTEXT
   5
267
 100
AcDbEntity
   8
LEVEL001
 370
13
  62
1
 100
AcDbMText
  10
 2689.7550793674
  20
 1778.7299372443
  30
0.0
  40
 40.000000000000
  41
0.0
  71
7
  72
1
   1
\T1.000000;ＧＬ
   7
GMM003
  44
 0.79999984000003
   0
LWPOLYLINE
   5
268
 100
AcDbEntity
   8
LEVEL001
 370
13
   6
CONTINUOUS
  62
1
 100
AcDbPolyline
  90
3
  70
1
  10
 2661.6064089226
  20
 1770.0000002040
  10
 2636.6064089226
  20
 1820.0000002040
  10
 2686.6064089226
  20
 1820.0000002040
   0
LWPOLYLINE
   5
269
 100
AcDbEntity
   8
LEVEL001
 370
13
   6
CONTINUOUS
  62
7
 100
AcDbPolyline
  90
4
  70
0
  10
 1324.5564089230
  20
 977.50000000000
  10
 1252.7063908373
  20
 977.50000000000
  10
 1252.7063908373
  20
 962.50000000000
  10
 1324.5564089230
  20
 962.50000000000
   0
LWPOLYLINE
   5
26A
 100
AcDbEntity
   8
LEVEL001
 370
13
   6
CONTINUOUS
  62
7
 100
AcDbPolyline
  90
4
  70
0
  10
 1413.6564089230
  20
 977.50000000000
  10
 1485.5063908373
  20
 977.50000000000
  10
 1485.5063908373
  20
 962.50000000000
  10
 1413.6564089230
  20
 962.50000000000
   0
LINE
   5
26B
 100
AcDbEntity
   8
LEVEL001
 370
13
 100
AcDbLine
   6
DASHDOT
  62
6
  10
 1302.7063908373
  20
 970.00000000000
  30
0.0
  11
 1435.5063908373
  21
 970.00000000000
  31
0.0
   0
CIRCLE
   5
26C
 100
AcDbEntity
   8
LEVEL001
 370
13
 100
AcDbCircle
   6
CONTINUOUS
  62
7
  10
 1369.1063751209
  20
 870.00000000000
  30
0.0
  40
 7.5000000000000
   0
LINE
   5
26D
 100
AcDbEntity
   8
LEVEL001
 370
13
 100
AcDbLine
   6
DASHDOT
  62
6
  10
 1339.1063751209
  20
 870.00000000000
  30
0.0
  11
 1399.1063751209
  21
 870.00000000000
  31
0.0
   0
LWPOLYLINE
   5
26E
 100
AcDbEntity
   8
LEVEL001
 370
13
   6
CONTINUOUS
  62
7
 100
AcDbPolyline
  90
4
  70
0
  10
 3074.5564089230
  20
 877.50000000000
  10
 3002.7063908373
  20
 877.50000000000
  10
 3002.7063908373
  20
 862.50000000000
  10
 3074.5564089230
  20
 862.50000000000
   0
LWPOLYLINE
   5
26F
 100
AcDbEntity
   8
LEVEL001
 370
13
   6
CONTINUOUS
  62
7
 100
AcDbPolyline
  90
4
  70
0
  10
 3163.6564089230
  20
 877.50000000000
  10
 3235.5063908373
  20
 877.50000000000
  10
 3235.5063908373
  20
 862.50000000000
  10
 3163.6564089230
  20
 862.50000000000
   0
CIRCLE
   5
270
 100
AcDbEntity
   8
LEVEL001
 370
13
 100
AcDbCircle
   6
CONTINUOUS
  62
7
  10
 3119.1064089230
  20
 970.00000000000
  30
0.0
  40
 7.5000000000000
   0
LINE
   5
271
 100
AcDbEntity
   8
LEVEL001
 370
13
 100
AcDbLine
   6
DASHDOT
  62
6
  10
 3089.1064089230
  20
 970.00000000000
  30
0.0
  11
 3149.1064089230
  21
 970.00000000000
  31
0.0
   0
LINE
   5
272
 100
AcDbEntity
   8
LEVEL001
 370
13
 100
AcDbLine
   6
DASHDOT
  62
6
  10
 3052.7064089230
  20
 870.00000000000
  30
0.0
  11
 3185.5064089230
  21
 870.00000000000
  31
0.0
   0
CIRCLE
   5
273
 100
AcDbEntity
   8
LEVEL001
 370
13
 100
AcDbCircle
   6
CONTINUOUS
  62
1
  10
 2744.1064089230
  20
 770.00000000000
  30
0.0
  40
 70.000000000000
   0
MTEXT
   5
275
 100
AcDbEntity
   8
LEVEL001
 370
13
  62
7
 100
AcDbMText
  10
 2744.1064089230
  20
 770.00000000000
  30
0.0
  40
 66.000000000000
  41
0.0
  71
5
  72
1
   1
\T1.000000;１３
   7
GMM002
  44
 0.79999984000003
   0
LEADER
   5
276
 100
AcDbEntity
   8
LEVEL001
 370
13
   6
CONTINUOUS
  62
1
 100
AcDbLeader
   3
GMM002
  73
3
  74
1
  75
0
  40
 66.000000000000
  41
0.0
  76
2
  10
 3002.7063908373
  20
 862.50000000000
  30
0.0
  10
 2810.0168015466
  20
 793.57583814411
  30
0.0
  77
1
   0
LINE
   5
277
 100
AcDbEntity
   8
LEVEL001
 370
13
 100
AcDbLine
   6
CONTINUOUS
  62
5
  10
 1219.1064089230
  20
 570.00000000000
  30
0.0
  11
 1169.1064089230
  21
 470.00000000000
  31
0.0
   0
LINE
   5
278
 100
AcDbEntity
   8
LEVEL001
 370
13
 100
AcDbLine
   6
CONTINUOUS
  62
5
  10
 1169.1064089230
  20
 570.00000000000
  30
0.0
  11
 1209.1064089230
  21
 550.00000000000
  31
0.0
   0
LINE
   5
279
 100
AcDbEntity
   8
LEVEL001
 370
13
 100
AcDbLine
   6
CONTINUOUS
  62
5
  10
 1169.1064089230
  20
 570.00000000000
  30
0.0
  11
 1119.1064089230
  21
 470.00000000000
  31
0.0
   0
LINE
   5
27A
 100
AcDbEntity
   8
LEVEL001
 370
13
 100
AcDbLine
   6
CONTINUOUS
  62
5
  10
 1119.1064089230
  20
 570.00000000000
  30
0.0
  11
 1159.1064089230
  21
 550.00000000000
  31
0.0
   0
LINE
   5
27B
 100
AcDbEntity
   8
LEVEL001
 370
13
 100
AcDbLine
   6
CONTINUOUS
  62
5
  10
 1219.1064089230
  20
 470.00000000000
  30
0.0
  11
 1179.1064089230
  21
 490.00000000000
  31
0.0
   0
LINE
   5
27C
 100
AcDbEntity
   8
LEVEL001
 370
13
 100
AcDbLine
   6
CONTINUOUS
  62
5
  10
 1169.1064089230
  20
 470.00000000000
  30
0.0
  11
 1129.1064089230
  21
 490.00000000000
  31
0.0
   0
LINE
   5
27D
 100
AcDbEntity
   8
LEVEL001
 370
13
 100
AcDbLine
   6
CONTINUOUS
  62
5
  10
 1269.1064089230
  20
 570.00000000000
  30
0.0
  11
 1219.1064089230
  21
 470.00000000000
  31
0.0
   0
LINE
   5
27E
 100
AcDbEntity
   8
LEVEL001
 370
13
 100
AcDbLine
   6
CONTINUOUS
  62
5
  10
 1219.1064089230
  20
 570.00000000000
  30
0.0
  11
 1259.1064089230
  21
 550.00000000000
  31
0.0
   0
LINE
   5
27F
 100
AcDbEntity
   8
LEVEL001
 370
13
 100
AcDbLine
   6
CONTINUOUS
  62
5
  10
 1269.1064089230
  20
 470.00000000000
  30
0.0
  11
 1229.1064089230
  21
 490.00000000000
  31
0.0
   0
LINE
   5
280
 100
AcDbEntity
   8
LEVEL002
 370
13
 100
AcDbLine
   6
CONTINUOUS
  62
5
  10
 3019.1064089230
  20
 570.00000000000
  30
0.0
  11
 2969.1064089230
  21
 470.00000000000
  31
0.0
   0
LINE
   5
281
 100
AcDbEntity
   8
LEVEL002
 370
13
 100
AcDbLine
   6
CONTINUOUS
  62
5
  10
 2969.1064089230
  20
 570.00000000000
  30
0.0
  11
 3009.1064089230
  21
 550.00000000000
  31
0.0
   0
LINE
   5
282
 100
AcDbEntity
   8
LEVEL002
 370
13
 100
AcDbLine
   6
CONTINUOUS
  62
5
  10
 2969.1064089230
  20
 570.00000000000
  30
0.0
  11
 2919.1064089230
  21
 470.00000000000
  31
0.0
   0
LINE
   5
283
 100
AcDbEntity
   8
LEVEL002
 370
13
 100
AcDbLine
   6
CONTINUOUS
  62
5
  10
 2919.1064089230
  20
 570.00000000000
  30
0.0
  11
 2959.1064089230
  21
 550.00000000000
  31
0.0
   0
LINE
   5
284
 100
AcDbEntity
   8
LEVEL002
 370
13
 100
AcDbLine
   6
CONTINUOUS
  62
5
  10
 2919.1064089230
  20
 570.00000000000
  30
0.0
  11
 2869.1064089230
  21
 470.00000000000
  31
0.0
   0
LINE
   5
285
 100
AcDbEntity
   8
LEVEL002
 370
13
 100
AcDbLine
   6
CONTINUOUS
  62
5
  10
 2869.1064089230
  20
 570.00000000000
  30
0.0
  11
 2909.1064089230
  21
 550.00000000000
  31
0.0
   0
LINE
   5
286
 100
AcDbEntity
   8
LEVEL002
 370
13
 100
AcDbLine
   6
CONTINUOUS
  62
5
  10
 3019.1064089230
  20
 470.00000000000
  30
0.0
  11
 2979.1064089230
  21
 490.00000000000
  31
0.0
   0
LINE
   5
287
 100
AcDbEntity
   8
LEVEL002
 370
13
 100
AcDbLine
   6
CONTINUOUS
  62
5
  10
 2969.1064089230
  20
 470.00000000000
  30
0.0
  11
 2929.1064089230
  21
 490.00000000000
  31
0.0
   0
LINE
   5
288
 100
AcDbEntity
   8
LEVEL002
 370
13
 100
AcDbLine
   6
CONTINUOUS
  62
5
  10
 2919.1064089230
  20
 470.00000000000
  30
0.0
  11
 2879.1064089230
  21
 490.00000000000
  31
0.0
   0
LINE
   5
289
 100
AcDbEntity
   8
LEVEL001
 370
13
 100
AcDbLine
   6
CONTINUOUS
  62
5
  10
 1619.1064089230
  20
 570.00000000000
  30
0.0
  11
 1569.1064089230
  21
 470.00000000000
  31
0.0
   0
LINE
   5
28A
 100
AcDbEntity
   8
LEVEL001
 370
13
 100
AcDbLine
   6
CONTINUOUS
  62
5
  10
 1569.1064089230
  20
 570.00000000000
  30
0.0
  11
 1519.1064089230
  21
 470.00000000000
  31
0.0
   0
LINE
   5
28B
 100
AcDbEntity
   8
LEVEL001
 370
13
 100
AcDbLine
   6
CONTINUOUS
  62
5
  10
 1519.1064089230
  20
 570.00000000000
  30
0.0
  11
 1559.1064089230
  21
 550.00000000000
  31
0.0
   0
LINE
   5
28C
 100
AcDbEntity
   8
LEVEL001
 370
13
 100
AcDbLine
   6
CONTINUOUS
  62
5
  10
 1519.1064089230
  20
 570.00000000000
  30
0.0
  11
 1469.1064089230
  21
 470.00000000000
  31
0.0
   0
LINE
   5
28D
 100
AcDbEntity
   8
LEVEL001
 370
13
 100
AcDbLine
   6
CONTINUOUS
  62
5
  10
 1469.1064089230
  20
 570.00000000000
  30
0.0
  11
 1509.1064089230
  21
 550.00000000000
  31
0.0
   0
LINE
   5
28E
 100
AcDbEntity
   8
LEVEL001
 370
13
 100
AcDbLine
   6
CONTINUOUS
  62
5
  10
 1619.1064089230
  20
 470.00000000000
  30
0.0
  11
 1579.1064089230
  21
 490.00000000000
  31
0.0
   0
LINE
   5
28F
 100
AcDbEntity
   8
LEVEL001
 370
13
 100
AcDbLine
   6
CONTINUOUS
  62
5
  10
 1569.1064089230
  20
 470.00000000000
  30
0.0
  11
 1529.1064089230
  21
 490.00000000000
  31
0.0
   0
LINE
   5
290
 100
AcDbEntity
   8
LEVEL001
 370
13
 100
AcDbLine
   6
CONTINUOUS
  62
5
  10
 1519.1064089230
  20
 470.00000000000
  30
0.0
  11
 1479.1064089230
  21
 490.00000000000
  31
0.0
   0
LINE
   5
291
 100
AcDbEntity
   8
LEVEL001
 370
13
 100
AcDbLine
   6
CONTINUOUS
  62
5
  10
 1569.1064089230
  20
 570.00000000000
  30
0.0
  11
 1609.1064089230
  21
 550.00000000000
  31
0.0
   0
LINE
   5
292
 100
AcDbEntity
   8
LEVEL002
 370
13
 100
AcDbLine
   6
CONTINUOUS
  62
5
  10
 3369.1064089230
  20
 570.00000000000
  30
0.0
  11
 3319.1064089230
  21
 470.00000000000
  31
0.0
   0
LINE
   5
293
 100
AcDbEntity
   8
LEVEL002
 370
13
 100
AcDbLine
   6
CONTINUOUS
  62
5
  10
 3319.1064089230
  20
 570.00000000000
  30
0.0
  11
 3359.1064089230
  21
 550.00000000000
  31
0.0
   0
LINE
   5
294
 100
AcDbEntity
   8
LEVEL002
 370
13
 100
AcDbLine
   6
CONTINUOUS
  62
5
  10
 3319.1064089230
  20
 570.00000000000
  30
0.0
  11
 3269.1064089230
  21
 470.00000000000
  31
0.0
   0
LINE
   5
295
 100
AcDbEntity
   8
LEVEL002
 370
13
 100
AcDbLine
   6
CONTINUOUS
  62
5
  10
 3269.1064089230
  20
 570.00000000000
  30
0.0
  11
 3309.1064089230
  21
 550.00000000000
  31
0.0
   0
LINE
   5
296
 100
AcDbEntity
   8
LEVEL002
 370
13
 100
AcDbLine
   6
CONTINUOUS
  62
5
  10
 3269.1064089230
  20
 570.00000000000
  30
0.0
  11
 3219.1064089230
  21
 470.00000000000
  31
0.0
   0
LINE
   5
297
 100
AcDbEntity
   8
LEVEL002
 370
13
 100
AcDbLine
   6
CONTINUOUS
  62
5
  10
 3219.1064089230
  20
 570.00000000000
  30
0.0
  11
 3259.1064089230
  21
 550.00000000000
  31
0.0
   0
LINE
   5
298
 100
AcDbEntity
   8
LEVEL002
 370
13
 100
AcDbLine
   6
CONTINUOUS
  62
5
  10
 3369.1064089230
  20
 470.00000000000
  30
0.0
  11
 3329.1064089230
  21
 490.00000000000
  31
0.0
   0
LINE
   5
299
 100
AcDbEntity
   8
LEVEL002
 370
13
 100
AcDbLine
   6
CONTINUOUS
  62
5
  10
 3319.1064089230
  20
 470.00000000000
  30
0.0
  11
 3279.1064089230
  21
 490.00000000000
  31
0.0
   0
LINE
   5
29A
 100
AcDbEntity
   8
LEVEL002
 370
13
 100
AcDbLine
   6
CONTINUOUS
  62
5
  10
 3269.1064089230
  20
 470.00000000000
  30
0.0
  11
 3229.1064089230
  21
 490.00000000000
  31
0.0
   0
LWPOLYLINE
   5
29B
 100
AcDbEntity
   8
LEVEL001
 370
13
   6
CONTINUOUS
  62
5
 100
AcDbPolyline
  90
4
  70
1
  10
 1119.1064089230
  20
 570.00000000000
  10
 1119.1064089230
  20
 470.00000000000
  10
 1619.1064089230
  20
 470.00000000000
  10
 1619.1064089230
  20
 570.00000000000
   0
LWPOLYLINE
   5
29C
 100
AcDbEntity
   8
LEVEL002
 370
13
   6
CONTINUOUS
  62
5
 100
AcDbPolyline
  90
4
  70
1
  10
 2869.1064089230
  20
 570.00000000000
  10
 2869.1064089230
  20
 470.00000000000
  10
 3369.1064089230
  20
 470.00000000000
  10
 3369.1064089230
  20
 570.00000000000
   0
LINE
   5
29D
 100
AcDbEntity
   8
LEVEL001
 370
13
 100
AcDbLine
   6
CONTINUOUS
  62
5
  10
 1419.1064089230
  20
 1770.0000002040
  30
0.0
  11
 1919.1064741579
  21
 1770.0000002040
  31
0.0
   0
LINE
   5
29E
 100
AcDbEntity
   8
LEVEL001
 370
13
 100
AcDbLine
   6
CONTINUOUS
  62
5
  10
 1319.1064089230
  20
 1770.0000002040
  30
0.0
  11
 819.10647415795
  21
 1770.0000002040
  31
0.0
   0
LWPOLYLINE
   5
29F
 100
AcDbEntity
   8
LEVEL001
 370
13
   6
CONTINUOUS
  62
5
 100
AcDbPolyline
  90
6
  70
0
  10
 1324.5564089230
  20
 1770.0000002040
  10
 1119.1064089230
  20
 1770.0000002040
  10
 1119.1064089230
  20
 570.00000000000
  10
 1619.1064089230
  20
 570.00000000000
  10
 1619.1064089230
  20
 1770.0000002040
  10
 1413.6564089230
  20
 1770.0000002040
   0
LINE
   5
2A0
 100
AcDbEntity
   8
LEVEL002
 370
13
 100
AcDbLine
   6
CONTINUOUS
  62
5
  10
 3069.1064089230
  20
 1770.0000002040
  30
0.0
  11
 2569.1064741579
  21
 1770.0000002040
  31
0.0
   0
LINE
   5
2A1
 100
AcDbEntity
   8
LEVEL002
 370
13
 100
AcDbLine
   6
CONTINUOUS
  62
5
  10
 3169.1064089230
  20
 1770.0000002040
  30
0.0
  11
 3669.1064741579
  21
 1770.0000002040
  31
0.0
   0
LWPOLYLINE
   5
2A2
 100
AcDbEntity
   8
LEVEL002
 370
13
   6
CONTINUOUS
  62
5
 100
AcDbPolyline
  90
6
  70
0
  10
 3074.5564089230
  20
 1770.0000002040
  10
 2869.1064089230
  20
 1770.0000002040
  10
 2869.1064089230
  20
 570.00000000000
  10
 3369.1064089230
  20
 570.00000000000
  10
 3369.1064089230
  20
 1770.0000002040
  10
 3163.6564089230
  20
 1770.0000002040
   0
DIMENSION
   5
2A3
 100
AcDbEntity
   8
LEVEL001
 370
13
   6
CONTINUOUS
  62
6
 100
AcDbDimension
   2
*D19
  10
 1619.1064089230
  20
 270.00000020398
  30
0.0
  11
 1369.1064089230
  21
 270.00000020398
  31
0.0
  70
0
   3
GMM006
 100
AcDbAlignedDimension
  13
 1119.1064089230
  23
 470.00000000000
  33
0.0
  14
 1619.1064089230
  24
 470.00000000000
  34
0.0
 100
AcDbRotatedDimension
   0
DIMENSION
   5
2A4
 100
AcDbEntity
   8
LEVEL001
 370
13
   6
CONTINUOUS
  62
6
 100
AcDbDimension
   2
*D20
  10
 3369.1064089230
  20
 270.00000020398
  30
0.0
  11
 3119.1064089230
  21
 270.00000020398
  31
0.0
  70
0
   3
GMM006
 100
AcDbAlignedDimension
  13
 2869.1064089230
  23
 470.00000000000
  33
0.0
  14
 3369.1064089230
  24
 470.00000000000
  34
0.0
 100
AcDbRotatedDimension
   0
LINE
   5
2A5
 100
AcDbEntity
   8
LEVEL001
 370
13
 100
AcDbLine
   6
CONTINUOUS
  62
5
  10
 3369.1064089230
  20
 1455.3553390594
  30
0.0
  11
 3163.6564089230
  21
 1249.9053390594
  31
0.0
   0
LINE
   5
2A6
 100
AcDbEntity
   8
LEVEL001
 370
13
 100
AcDbLine
   6
CONTINUOUS
  62
5
  10
 3163.6564089230
  20
 1214.5500000000
  30
0.0
  11
 3369.1064089230
  21
 1420.0000000000
  31
0.0
   0
LINE
   5
2A7
 100
AcDbEntity
   8
LEVEL001
 370
13
 100
AcDbLine
   6
CONTINUOUS
  62
5
  10
 3369.1064089230
  20
 1384.6446609410
  30
0.0
  11
 3163.6564089230
  21
 1179.1946609410
  31
0.0
   0
LINE
   5
2A8
 100
AcDbEntity
   8
LEVEL001
 370
13
 100
AcDbLine
   6
CONTINUOUS
  62
5
  10
 3074.5564089230
  20
 1090.0946609410
  30
0.0
  11
 2869.1064089230
  21
 884.64466094103
  31
0.0
   0
LINE
   5
2A9
 100
AcDbEntity
   8
LEVEL001
 370
13
 100
AcDbLine
   6
CONTINUOUS
  62
5
  10
 2869.1064089230
  20
 920.00000000003
  30
0.0
  11
 3074.5564089230
  21
 1125.4500000000
  31
0.0
   0
LINE
   5
2AA
 100
AcDbEntity
   8
LEVEL001
 370
13
 100
AcDbLine
   6
CONTINUOUS
  62
5
  10
 3074.5564089230
  20
 1160.8053390594
  30
0.0
  11
 2869.1064089230
  21
 955.35533905936
  31
0.0
   0
LINE
   5
2AB
 100
AcDbEntity
   8
LEVEL001
 370
13
 100
AcDbLine
   6
CONTINUOUS
  62
5
  10
 1619.1064089230
  20
 1455.3553390594
  30
0.0
  11
 1413.6564089230
  21
 1249.9053390594
  31
0.0
   0
LINE
   5
2AC
 100
AcDbEntity
   8
LEVEL001
 370
13
 100
AcDbLine
   6
CONTINUOUS
  62
5
  10
 1413.6564089230
  20
 1214.5500000000
  30
0.0
  11
 1619.1064089230
  21
 1420.0000000000
  31
0.0
   0
LINE
   5
2AD
 100
AcDbEntity
   8
LEVEL001
 370
13
 100
AcDbLine
   6
CONTINUOUS
  62
5
  10
 1619.1064089230
  20
 1384.6446609410
  30
0.0
  11
 1413.6564089230
  21
 1179.1946609410
  31
0.0
   0
LINE
   5
2AE
 100
AcDbEntity
   8
LEVEL001
 370
13
 100
AcDbLine
   6
CONTINUOUS
  62
5
  10
 1324.5564089230
  20
 1160.8053390594
  30
0.0
  11
 1119.1064089230
  21
 955.35533905936
  31
0.0
   0
LINE
   5
2AF
 100
AcDbEntity
   8
LEVEL001
 370
13
 100
AcDbLine
   6
CONTINUOUS
  62
5
  10
 1119.1064089230
  20
 920.00000000003
  30
0.0
  11
 1324.5564089230
  21
 1125.4500000000
  31
0.0
   0
LINE
   5
2B0
 100
AcDbEntity
   8
LEVEL001
 370
13
 100
AcDbLine
   6
CONTINUOUS
  62
5
  10
 1324.5564089230
  20
 1090.0946609410
  30
0.0
  11
 1119.1064089230
  21
 884.64466094103
  31
0.0
   0
LINE
   5
2B1
 100
AcDbEntity
   8
LEVEL001
 370
13
 100
AcDbLine
   6
DOT
  62
1
  10
 1413.6564089230
  20
 962.50000000000
  30
0.0
  11
 1324.5564089230
  21
 962.50000000000
  31
0.0
   0
LINE
   5
2B2
 100
AcDbEntity
   8
LEVEL001
 370
13
 100
AcDbLine
   6
DOT
  62
1
  10
 1324.5564089230
  20
 977.50000000000
  30
0.0
  11
 1413.6564089230
  21
 977.50000000000
  31
0.0
   0
LINE
   5
2B3
 100
AcDbEntity
   8
LEVEL001
 370
13
 100
AcDbLine
   6
DOT
  62
1
  10
 3163.6564089230
  20
 862.50000000000
  30
0.0
  11
 3074.5564089230
  21
 862.50000000000
  31
0.0
   0
LINE
   5
2B4
 100
AcDbEntity
   8
LEVEL001
 370
13
 100
AcDbLine
   6
DOT
  62
1
  10
 3074.5564089230
  20
 877.50000000000
  30
0.0
  11
 3163.6564089230
  21
 877.50000000000
  31
0.0
   0
CIRCLE
   5
2B5
 100
AcDbEntity
   8
LEVEL001
 370
13
 100
AcDbCircle
   6
CONTINUOUS
  62
1
  10
 1619.1064089230
  20
 2645.0000002040
  30
0.0
  40
 70.000000000000
   0
MTEXT
   5
2B7
 100
AcDbEntity
   8
LEVEL001
 370
13
  62
7
 100
AcDbMText
  10
 1619.1064089230
  20
 2645.0000002040
  30
0.0
  40
 66.000000000000
  41
0.0
  71
5
  72
1
   1
\T1.000000;１２
   7
GMM002
  44
 0.79999984000003
   0
LEADER
   5
2B8
 100
AcDbEntity
   8
LEVEL001
 370
13
   6
CONTINUOUS
  62
1
 100
AcDbLeader
   3
GMM007
  73
3
  74
1
  75
0
  40
 66.000000000000
  41
0.0
  76
2
  10
 1413.6564089230
  20
 2520.0000002040
  30
0.0
  10
 1559.3052042675
  20
 2608.6157189584
  30
0.0
  77
1
   0
LINE
   5
2B9
 100
AcDbEntity
   8
LEVEL001
 370
13
 100
AcDbLine
   6
CONTINUOUS
  62
7
  10
 1324.5564089230
  20
 4539.9999584717
  30
0.0
  11
 1324.5564089230
  21
 4070.0000002040
  31
0.0
   0
LINE
   5
2BA
 100
AcDbEntity
   8
LEVEL001
 370
13
 100
AcDbLine
   6
CONTINUOUS
  62
7
  10
 1413.6564089230
  20
 4070.0000002040
  30
0.0
  11
 1413.6564089230
  21
 4539.9999584717
  31
0.0
   0
LWPOLYLINE
   5
2BB
 100
AcDbEntity
   8
LEVEL001
 370
13
   6
CONTINUOUS
  62
5
 100
AcDbPolyline
  90
7
  70
1
  10
 1369.1064089231
  20
 4030.0000002040
  10
 1332.8064100050
  20
 3983.8000015808
  10
 1352.6064094149
  20
 3983.8000015808
  10
 1352.6064094149
  20
 3964.0000021709
  10
 1385.6064084314
  20
 3964.0000021709
  10
 1385.6064084314
  20
 3983.8000015808
  10
 1405.4064078413
  20
 3983.8000015808
   0
ARC
   5
2BC
 100
AcDbEntity
   8
LEVEL001
 370
13
   6
CONTINUOUS
  62
7
 100
AcDbCircle
  10
 1424.1064089231
  20
 4050.0000002040
  30
0.0
  40
 20.000000000000
 100
AcDbArc
  50
0.0
  51
 90.000000000000
   0
ARC
   5
2BD
 100
AcDbEntity
   8
LEVEL001
 370
13
   6
CONTINUOUS
  62
7
 100
AcDbCircle
  10
 1314.1064089231
  20
 4050.0000002040
  30
0.0
  40
 20.000000000000
 100
AcDbArc
  50
 90.000000000000
  51
 180.00000000000
   0
LINE
   5
2BE
 100
AcDbEntity
   8
LEVEL001
 370
13
 100
AcDbLine
   6
CONTINUOUS
  62
7
  10
 1294.1064089231
  20
 4050.0000002040
  30
0.0
  11
 1294.1064089231
  21
 3690.0000002040
  31
0.0
   0
LINE
   5
2BF
 100
AcDbEntity
   8
LEVEL001
 370
13
 100
AcDbLine
   6
CONTINUOUS
  62
7
  10
 1444.1064089231
  20
 3690.0000002040
  30
0.0
  11
 1444.1064089231
  21
 4050.0000002040
  31
0.0
   0
LINE
   5
2C0
 100
AcDbEntity
   8
LEVEL001
 370
13
 100
AcDbLine
   6
CONTINUOUS
  62
7
  10
 1424.1064089231
  20
 4070.0000002040
  30
0.0
  11
 1314.1064089231
  21
 4070.0000002040
  31
0.0
   0
LINE
   5
2C1
 100
AcDbEntity
   8
LEVEL001
 370
13
 100
AcDbLine
   6
CONTINUOUS
  62
7
  10
 1314.1064089231
  20
 3670.0000002040
  30
0.0
  11
 1424.1064089231
  21
 3670.0000002040
  31
0.0
   0
ARC
   5
2C2
 100
AcDbEntity
   8
LEVEL001
 370
13
   6
CONTINUOUS
  62
7
 100
AcDbCircle
  10
 1314.1064089231
  20
 3690.0000002040
  30
0.0
  40
 20.000000000000
 100
AcDbArc
  50
 180.00000000000
  51
 270.00000000000
   0
ARC
   5
2C3
 100
AcDbEntity
   8
LEVEL001
 370
13
   6
CONTINUOUS
  62
7
 100
AcDbCircle
  10
 1424.1064089231
  20
 3690.0000002040
  30
0.0
  40
 20.000000000000
 100
AcDbArc
  50
 270.00000000000
  51
 360.00000000000
   0
CIRCLE
   5
2C4
 100
AcDbEntity
   8
LEVEL001
 370
13
 100
AcDbCircle
   6
CONTINUOUS
  62
1
  10
 1619.1064089230
  20
 3745.0000002040
  30
0.0
  40
 70.000000000000
   0
MTEXT
   5
2C6
 100
AcDbEntity
   8
LEVEL001
 370
13
  62
7
 100
AcDbMText
  10
 1619.1064089230
  20
 3745.0000002040
  30
0.0
  40
 66.000000000000
  41
0.0
  71
5
  72
1
   1
\T1.000000;１５
   7
GMM002
  44
 0.79999984000003
   0
LEADER
   5
2C7
 100
AcDbEntity
   8
LEVEL001
 370
13
   6
CONTINUOUS
  62
1
 100
AcDbLeader
   3
GMM002
  73
3
  74
1
  75
0
  40
 66.000000000000
  41
0.0
  76
2
  10
 1444.1064089231
  20
 3870.0000002040
  30
0.0
  10
 1562.1450659386
  20
 3785.6866737644
  30
0.0
  77
1
   0
LWPOLYLINE
   5
2C8
 100
AcDbEntity
   8
LEVEL001
 370
13
   6
CONTINUOUS
  62
7
 100
AcDbPolyline
  90
4
  70
0
  10
 1324.5564089230
  20
 3670.0000002040
  10
 1324.5564089230
  20
 570.00000000000
  10
 1413.6564089230
  20
 570.00000000000
  10
 1413.6564089230
  20
 3670.0000002040
   0
MTEXT
   5
2C9
 100
AcDbEntity
   8
LEVEL001
 370
13
  62
1
 100
AcDbMText
  10
 1317.9189089231
  20
 3823.2500002040
  30
0.0
  40
 80.000000000000
  41
0.0
  71
4
  72
1
   1
{\T1.000000;注}\P{\T1.000000;意}
   7
GMM004
  44
 0.79999984000003
   0
MTEXT
   5
2CB
 100
AcDbEntity
   8
LEVEL001
 370
13
  62
1
 100
AcDbMText
  10
 6400.0154998321
  20
 713.24230857537
  30
0.0
  40
 66.000000000000
  41
0.0
  71
5
  72
1
   1
\T1.000000;ＭＡ０８０Ｗ
   7
GMM002
  44
 0.79999984000003
   0
MTEXT
   5
2CC
 100
AcDbEntity
   8
LEVEL001
 370
13
  62
1
 100
AcDbMText
  10
 5602.9419067585
  20
 813.78497023809
  30
0.0
  40
 37.142860000000
  41
0.0
  71
7
  72
1
   1
\T1.269231;図面番号
   7
GMM005
  44
 0.79999984000003
   0
MTEXT
   5
2CE
 100
AcDbEntity
   8
LEVEL001
 370
13
  62
1
 100
AcDbMText
  10
 5750.9944735861
  20
 1803.5736076959
  30
0.0
  40
 80.000000000000
  41
0.0
  71
9
  72
1
   1
\T1.000000;１１
   7
GMM006
  44
 0.79999984000003
   0
MTEXT
   5
2D0
 100
AcDbEntity
   8
LEVEL001
 370
13
  62
1
 100
AcDbMText
  10
 5750.9944735861
  20
 1933.5736076959
  30
0.0
  40
 80.000000000000
  41
0.0
  71
9
  72
1
   1
\T1.000000;１０
   7
GMM006
  44
 0.79999984000003
   0
MTEXT
   5
2D2
 100
AcDbEntity
   8
LEVEL001
 370
13
  62
1
 100
AcDbMText
  10
 5750.9944735861
  20
 2063.5736076959
  30
0.0
  40
 80.000000000000
  41
0.0
  71
9
  72
1
   1
\T1.000000;９
   7
GMM006
  44
 0.79999984000003
   0
MTEXT
   5
2D4
 100
AcDbEntity
   8
LEVEL001
 370
13
  62
1
 100
AcDbMText
  10
 5750.9944735861
  20
 2193.5736076959
  30
0.0
  40
 80.000000000000
  41
0.0
  71
9
  72
1
   1
\T1.000000;８
   7
GMM006
  44
 0.79999984000003
   0
MTEXT
   5
2D6
 100
AcDbEntity
   8
LEVEL001
 370
13
  62
1
 100
AcDbMText
  10
 5750.9944735861
  20
 2323.5736076959
  30
0.0
  40
 80.000000000000
  41
0.0
  71
9
  72
1
   1
\T1.000000;７
   7
GMM006
  44
 0.79999984000003
   0
MTEXT
   5
2D8
 100
AcDbEntity
   8
LEVEL001
 370
13
  62
1
 100
AcDbMText
  10
 5750.9944735861
  20
 2453.5736076959
  30
0.0
  40
 80.000000000000
  41
0.0
  71
9
  72
1
   1
\T1.000000;６
   7
GMM006
  44
 0.79999984000003
   0
MTEXT
   5
2DA
 100
AcDbEntity
   8
LEVEL001
 370
13
  62
1
 100
AcDbMText
  10
 5750.9944735861
  20
 2583.5736076959
  30
0.0
  40
 80.000000000000
  41
0.0
  71
9
  72
1
   1
\T1.000000;５
   7
GMM006
  44
 0.79999984000003
   0
MTEXT
   5
2DC
 100
AcDbEntity
   8
LEVEL001
 370
13
  62
1
 100
AcDbMText
  10
 5750.9944735861
  20
 2713.5736076959
  30
0.0
  40
 80.000000000000
  41
0.0
  71
9
  72
1
   1
\T1.000000;４
   7
GMM006
  44
 0.79999984000003
   0
MTEXT
   5
2DE
 100
AcDbEntity
   8
LEVEL001
 370
13
  62
1
 100
AcDbMText
  10
 5750.9944735861
  20
 2843.5736076959
  30
0.0
  40
 80.000000000000
  41
0.0
  71
9
  72
1
   1
\T1.000000;３
   7
GMM006
  44
 0.79999984000003
   0
MTEXT
   5
2E0
 100
AcDbEntity
   8
LEVEL001
 370
13
  62
1
 100
AcDbMText
  10
 5830.0154998321
  20
 2843.5736076959
  30
0.0
  40
 80.000000000000
  41
0.0
  71
7
  72
1
   1
\T1.000000;フード
   7
GMM007
  44
 0.79999984000003
   0
MTEXT
   5
2E2
 100
AcDbEntity
   8
LEVEL001
 370
13
  62
1
 100
AcDbMText
  10
 5750.9944735861
  20
 2973.5736076959
  30
0.0
  40
 80.000000000000
  41
0.0
  71
9
  72
1
   1
\T1.000000;２
   7
GMM006
  44
 0.79999984000003
   0
MTEXT
   5
2E4
 100
AcDbEntity
   8
LEVEL001
 370
13
  62
1
 100
AcDbMText
  10
 5830.0154998321
  20
 2973.5736076959
  30
0.0
  40
 80.000000000000
  41
0.0
  71
7
  72
1
   1
\T1.000000;バックプレート
   7
GMM007
  44
 0.79999984000003
   0
MTEXT
   5
2E6
 100
AcDbEntity
   8
LEVEL001
 370
13
  62
1
 100
AcDbMText
  10
 5750.9944735861
  20
 3103.5736076959
  30
0.0
  40
 80.000000000000
  41
0.0
  71
9
  72
1
   1
\T1.000000;１
   7
GMM006
  44
 0.79999984000003
   0
MTEXT
   5
2E8
 100
AcDbEntity
   8
LEVEL001
 370
13
  62
1
 100
AcDbMText
  10
 6730.0154998321
  20
 3280.0000000000
  30
0.0
  40
 80.000000000000
  41
0.0
  71
5
  72
1
   1
\T1.000000;個数
   7
GMM007
  44
 0.79999984000003
   0
MTEXT
   5
2EA
 100
AcDbEntity
   8
LEVEL001
 370
13
  62
1
 100
AcDbMText
  10
 7080.0154998321
  20
 3280.0000000000
  30
0.0
  40
 80.000000000000
  41
0.0
  71
5
  72
1
   1
\T1.000000;材　　質
   7
GMM007
  44
 0.79999984000003
   0
MTEXT
   5
2EC
 100
AcDbEntity
   8
LEVEL001
 370
13
  62
1
 100
AcDbMText
  10
 6205.0154998321
  20
 3280.0000000000
  30
0.0
  40
 80.000000000000
  41
0.0
  71
5
  72
1
   1
\T1.000000;名　　称
   7
GMM007
  44
 0.79999984000003
   0
LINE
   5
2ED
 100
AcDbEntity
   8
LEVEL001
 370
13
 100
AcDbLine
   6
CONTINUOUS
  62
6
  10
 5580.0154998321
  20
 1780.0000000000
  30
0.0
  11
 8095.7732790402
  21
 1780.0000000000
  31
0.0
   0
LINE
   5
2EE
 100
AcDbEntity
   8
LEVEL001
 370
13
 100
AcDbLine
   6
CONTINUOUS
  62
6
  10
 5580.0154998321
  20
 1910.0000000000
  30
0.0
  11
 8095.7732790402
  21
 1910.0000000000
  31
0.0
   0
LINE
   5
2EF
 100
AcDbEntity
   8
LEVEL001
 370
13
 100
AcDbLine
   6
CONTINUOUS
  62
6
  10
 5580.0154998321
  20
 2040.0000000000
  30
0.0
  11
 8095.7732790402
  21
 2040.0000000000
  31
0.0
   0
LINE
   5
2F0
 100
AcDbEntity
   8
LEVEL001
 370
13
 100
AcDbLine
   6
CONTINUOUS
  62
6
  10
 5580.0154998321
  20
 2170.0000000000
  30
0.0
  11
 8095.7732790402
  21
 2170.0000000000
  31
0.0
   0
LINE
   5
2F1
 100
AcDbEntity
   8
LEVEL001
 370
13
 100
AcDbLine
   6
CONTINUOUS
  62
6
  10
 5580.0154998321
  20
 2300.0000000000
  30
0.0
  11
 8095.7732790402
  21
 2300.0000000000
  31
0.0
   0
LINE
   5
2F2
 100
AcDbEntity
   8
LEVEL001
 370
13
 100
AcDbLine
   6
CONTINUOUS
  62
6
  10
 5580.0154998321
  20
 2430.0000000000
  30
0.0
  11
 8095.7732790402
  21
 2430.0000000000
  31
0.0
   0
LINE
   5
2F3
 100
AcDbEntity
   8
LEVEL001
 370
13
 100
AcDbLine
   6
CONTINUOUS
  62
6
  10
 5580.0154998321
  20
 2560.0000000000
  30
0.0
  11
 8095.7732790402
  21
 2560.0000000000
  31
0.0
   0
LINE
   5
2F4
 100
AcDbEntity
   8
LEVEL001
 370
13
 100
AcDbLine
   6
CONTINUOUS
  62
6
  10
 5580.0154998321
  20
 2690.0000000000
  30
0.0
  11
 8095.7732790402
  21
 2690.0000000000
  31
0.0
   0
LINE
   5
2F5
 100
AcDbEntity
   8
LEVEL001
 370
13
 100
AcDbLine
   6
CONTINUOUS
  62
6
  10
 5580.0154998321
  20
 2820.0000000000
  30
0.0
  11
 8095.7732790402
  21
 2820.0000000000
  31
0.0
   0
LINE
   5
2F6
 100
AcDbEntity
   8
LEVEL001
 370
13
 100
AcDbLine
   6
CONTINUOUS
  62
6
  10
 5580.0154998321
  20
 2950.0000000000
  30
0.0
  11
 8095.7732790402
  21
 2950.0000000000
  31
0.0
   0
LINE
   5
2F7
 100
AcDbEntity
   8
LEVEL001
 370
13
 100
AcDbLine
   6
CONTINUOUS
  62
6
  10
 5580.0154998321
  20
 3080.0000000000
  30
0.0
  11
 8095.7732790402
  21
 3080.0000000000
  31
0.0
   0
LINE
   5
2F8
 100
AcDbEntity
   8
LEVEL001
 370
13
 100
AcDbLine
   6
CONTINUOUS
  62
6
  10
 5580.0154998321
  20
 3210.0000000000
  30
0.0
  11
 8095.7732790402
  21
 3210.0000000000
  31
0.0
   0
LINE
   5
2F9
 100
AcDbEntity
   8
LEVEL001
 370
13
 100
AcDbLine
   6
CONTINUOUS
  62
6
  10
 5580.0154998321
  20
 3350.0000000000
  30
0.0
  11
 8095.7732790402
  21
 3350.0000000000
  31
0.0
   0
LINE
   5
2FA
 100
AcDbEntity
   8
LEVEL001
 370
13
 100
AcDbLine
   6
CONTINUOUS
  62
6
  10
 5580.0154998321
  20
 3650.0000000000
  30
0.0
  11
 8095.7732790402
  21
 3650.0000000000
  31
0.0
   0
MTEXT
   5
2FC
 100
AcDbEntity
   8
LEVEL001
 370
13
  62
1
 100
AcDbMText
  10
 6800.9944735861
  20
 3103.5736076959
  30
0.0
  40
 80.000000000000
  41
0.0
  71
9
  72
1
   1
\T1.000000;２
   7
GMM007
  44
 0.79999984000003
   0
MTEXT
   5
2FE
 100
AcDbEntity
   8
LEVEL001
 370
13
  62
1
 100
AcDbMText
  10
 6800.9944735861
  20
 2973.5736076959
  30
0.0
  40
 80.000000000000
  41
0.0
  71
9
  72
1
   1
\T1.000000;２
   7
GMM007
  44
 0.79999984000003
   0
MTEXT
   5
300
 100
AcDbEntity
   8
LEVEL001
 370
13
  62
1
 100
AcDbMText
  10
 6800.9944735861
  20
 2843.5736076959
  30
0.0
  40
 80.000000000000
  41
0.0
  71
9
  72
1
   1
\T1.000000;２
   7
GMM007
  44
 0.79999984000003
   0
MTEXT
   5
302
 100
AcDbEntity
   8
LEVEL001
 370
13
  62
1
 100
AcDbMText
  10
 5830.0154998321
  20
 3103.5736076959
  30
0.0
  40
 80.000000000000
  41
0.0
  71
7
  72
1
   1
\T1.000000;鏡面　Ｒ＝３０００
   7
GMM007
  44
 0.79999984000003
   0
MTEXT
   5
304
 100
AcDbEntity
   8
LEVEL001
 370
13
  62
1
 100
AcDbMText
  10
 5745.4433573077
  20
 3392.1545397593
  30
0.0
  40
 80.000000000000
  41
0.0
  71
7
  72
1
   1
%%c\T1.000000;８００（ダブル）
   7
GMM001
  44
 0.79999984000003
   0
MTEXT
   5
306
 100
AcDbEntity
   8
LEVEL001
 370
13
  62
1
 100
AcDbMText
  10
 5745.4433573077
  20
 3529.5068305878
  30
0.0
  40
 80.000000000000
  41
0.0
  71
7
  72
1
   1
\T1.000000;アクリルミラ－
   7
GMM001
  44
 0.79999984000003
   0
MTEXT
   5
308
 100
AcDbEntity
   8
LEVEL001
 370
13
  62
1
 100
AcDbMText
  10
 6880.0154998321
  20
 3103.5736076959
  30
0.0
  40
 80.000000000000
  41
0.0
  71
7
  72
1
   1
\T1.000000;ＰＭＭＡ
   7
GMM007
  44
 0.79999984000003
   0
MTEXT
   5
30A
 100
AcDbEntity
   8
LEVEL001
 370
13
  62
1
 100
AcDbMText
  10
 6880.0154998321
  20
 2973.5736076959
  30
0.0
  40
 80.000000000000
  41
0.0
  71
7
  72
1
   1
\T1.000000;ＦＲＰ
   7
GMM007
  44
 0.79999984000003
   0
MTEXT
   5
30C
 100
AcDbEntity
   8
LEVEL001
 370
13
  62
1
 100
AcDbMText
  10
 6880.0154998321
  20
 2843.5736076959
  30
0.0
  40
 80.000000000000
  41
0.0
  71
7
  72
1
   1
\T1.000000;ＰＣ
   7
GMM007
  44
 0.79999984000003
   0
MTEXT
   5
30E
 100
AcDbEntity
   8
LEVEL001
 370
13
  62
1
 100
AcDbMText
  10
 6880.0154998321
  20
 2063.5736076959
  30
0.0
  40
 80.000000000000
  41
0.0
  71
7
  72
1
   1
\T1.000000;ＳＳ４００
   7
GMM007
  44
 0.79999984000003
   0
MTEXT
   5
310
 100
AcDbEntity
   8
LEVEL001
 370
13
  62
1
 100
AcDbMText
  10
 7380.0154998321
  20
 2063.5736076959
  30
0.0
  40
 80.000000000000
  41
0.0
  71
7
  72
1
   1
\T1.000000;溶融亜鉛メッキ
   7
GMM007
  44
 0.79999984000003
   0
MTEXT
   5
312
 100
AcDbEntity
   8
LEVEL001
 370
13
  62
1
 100
AcDbMText
  10
 5830.0154998321
  20
 2063.5736076959
  30
0.0
  40
 80.000000000000
  41
0.0
  71
7
  72
1
   1
\T1.000000;金具締付ボルトナット
   7
GMM007
  44
 0.79999984000003
   0
MTEXT
   5
314
 100
AcDbEntity
   8
LEVEL001
 370
13
  62
1
 100
AcDbMText
  10
 6880.0154998321
  20
 2193.5736076959
  30
0.0
  40
 80.000000000000
  41
0.0
  71
7
  72
1
   1
\T1.000000;ＳＳ４００
   7
GMM007
  44
 0.79999984000003
   0
MTEXT
   5
316
 100
AcDbEntity
   8
LEVEL001
 370
13
  62
1
 100
AcDbMText
  10
 7380.0154998321
  20
 2193.5736076959
  30
0.0
  40
 80.000000000000
  41
0.0
  71
7
  72
1
   1
\T1.000000;溶融亜鉛メッキ
   7
GMM007
  44
 0.79999984000003
   0
MTEXT
   5
318
 100
AcDbEntity
   8
LEVEL001
 370
13
  62
1
 100
AcDbMText
  10
 5830.0154998321
  20
 2193.5736076959
  30
0.0
  40
 80.000000000000
  41
0.0
  71
7
  72
1
   1
\T1.000000;裏板金具取付ボルト
   7
GMM007
  44
 0.79999984000003
   0
MTEXT
   5
31A
 100
AcDbEntity
   8
LEVEL001
 370
13
  62
1
 100
AcDbMText
  10
 7380.0154998321
  20
 2323.5736076959
  30
0.0
  40
 80.000000000000
  41
0.0
  71
7
  72
1
   1
\T1.000000;溶融亜鉛メッキ
   7
GMM007
  44
 0.79999984000003
   0
MTEXT
   5
31C
 100
AcDbEntity
   8
LEVEL001
 370
13
  62
1
 100
AcDbMText
  10
 6880.0154998321
  20
 2323.5736076959
  30
0.0
  40
 80.000000000000
  41
0.0
  71
7
  72
1
   1
\T1.000000;ＳＳ４００
   7
GMM007
  44
 0.79999984000003
   0
MTEXT
   5
31E
 100
AcDbEntity
   8
LEVEL001
 370
13
  62
1
 100
AcDbMText
  10
 5830.0154998321
  20
 2323.5736076959
  30
0.0
  40
 80.000000000000
  41
0.0
  71
7
  72
1
   1
\T1.000000;支柱取付金具
   7
GMM007
  44
 0.79999984000003
   0
MTEXT
   5
320
 100
AcDbEntity
   8
LEVEL001
 370
13
  62
1
 100
AcDbMText
  10
 5830.0154998321
  20
 2453.5736076959
  30
0.0
  40
 80.000000000000
  41
0.0
  71
7
  72
1
   1
\T1.000000;裏板取付金具
   7
GMM007
  44
 0.79999984000003
   0
MTEXT
   5
322
 100
AcDbEntity
   8
LEVEL001
 370
13
  62
1
 100
AcDbMText
  10
 6880.0154998321
  20
 2453.5736076959
  30
0.0
  40
 80.000000000000
  41
0.0
  71
7
  72
1
   1
\T1.000000;ＳＳ４００
   7
GMM007
  44
 0.79999984000003
   0
MTEXT
   5
324
 100
AcDbEntity
   8
LEVEL001
 370
13
  62
1
 100
AcDbMText
  10
 6800.9944735861
  20
 2193.5736076959
  30
0.0
  40
 80.000000000000
  41
0.0
  71
9
  72
1
   1
\T1.000000;８
   7
GMM007
  44
 0.79999984000003
   0
MTEXT
   5
326
 100
AcDbEntity
   8
LEVEL001
 370
13
  62
1
 100
AcDbMText
  10
 5830.0154998321
  20
 1803.5736076959
  30
0.0
  40
 80.000000000000
  41
0.0
  71
7
  72
1
   1
\T1.000000;同上ボルトナット
   7
GMM007
  44
 0.79999984000003
   0
MTEXT
   5
328
 100
AcDbEntity
   8
LEVEL001
 370
13
  62
1
 100
AcDbMText
  10
 6880.0154998321
  20
 1933.5736076959
  30
0.0
  40
 80.000000000000
  41
0.0
  71
7
  72
1
   1
\T1.000000;ＳＳ４００
   7
GMM007
  44
 0.79999984000003
   0
MTEXT
   5
32A
 100
AcDbEntity
   8
LEVEL001
 370
13
  62
1
 100
AcDbMText
  10
 6880.0154998321
  20
 1803.5736076959
  30
0.0
  40
 80.000000000000
  41
0.0
  71
7
  72
1
   1
\T1.000000;ＳＳ４００
   7
GMM007
  44
 0.79999984000003
   0
MTEXT
   5
32C
 100
AcDbEntity
   8
LEVEL001
 370
13
  62
1
 100
AcDbMText
  10
 7380.0154998321
  20
 1933.5736076959
  30
0.0
  40
 80.000000000000
  41
0.0
  71
7
  72
1
   1
\T1.000000;溶融亜鉛メッキ
   7
GMM007
  44
 0.79999984000003
   0
MTEXT
   5
32E
 100
AcDbEntity
   8
LEVEL001
 370
13
  62
1
 100
AcDbMText
  10
 7380.0154998321
  20
 1803.5736076959
  30
0.0
  40
 80.000000000000
  41
0.0
  71
7
  72
1
   1
\T1.000000;溶融亜鉛メッキ
   7
GMM007
  44
 0.79999984000003
   0
MTEXT
   5
330
 100
AcDbEntity
   8
LEVEL001
 370
13
  62
1
 100
AcDbMText
  10
 5830.0154998321
  20
 1933.5736076959
  30
0.0
  40
 80.000000000000
  41
0.0
  71
7
  72
1
   1
\T1.000000;二面鏡用取付腕木
   7
GMM007
  44
 0.79999984000003
   0
MTEXT
   5
332
 100
AcDbEntity
   8
LEVEL001
 370
13
  62
1
 100
AcDbMText
  10
 6800.9944735861
  20
 2063.5736076959
  30
0.0
  40
 80.000000000000
  41
0.0
  71
9
  72
1
   1
\T1.000000;８
   7
GMM007
  44
 0.79999984000003
   0
MTEXT
   5
334
 100
AcDbEntity
   8
LEVEL001
 370
13
  62
1
 100
AcDbMText
  10
 6800.9944735861
  20
 2713.5736076959
  30
0.0
  40
 80.000000000000
  41
0.0
  71
9
  72
1
   1
\T1.000000;２
   7
GMM007
  44
 0.79999984000003
   0
MTEXT
   5
336
 100
AcDbEntity
   8
LEVEL001
 370
13
  62
1
 100
AcDbMText
  10
 5830.0154998321
  20
 2713.5736076959
  30
0.0
  40
 80.000000000000
  41
0.0
  71
7
  72
1
   1
\T1.000000;取付枠
   7
GMM007
  44
 0.79999984000003
   0
MTEXT
   5
338
 100
AcDbEntity
   8
LEVEL001
 370
13
  62
1
 100
AcDbMText
  10
 6880.0154998321
  20
 2713.5736076959
  30
0.0
  40
 80.000000000000
  41
0.0
  71
7
  72
1
   1
\T1.000000;アルミニウム
   7
GMM007
  44
 0.79999984000003
   0
MTEXT
   5
33A
 100
AcDbEntity
   8
LEVEL001
 370
13
  62
1
 100
AcDbMText
  10
 5830.0154998321
  20
 2583.5736076959
  30
0.0
  40
 80.000000000000
  41
0.0
  71
7
  72
1
   1
\T1.000000;取付枠取付リベット
   7
GMM007
  44
 0.79999984000003
   0
MTEXT
   5
33C
 100
AcDbEntity
   8
LEVEL001
 370
13
  62
1
 100
AcDbMText
  10
 6880.0154998321
  20
 2583.5736076959
  30
0.0
  40
 80.000000000000
  41
0.0
  71
7
  72
1
   1
\T1.000000;アルミニウム
   7
GMM007
  44
 0.79999984000003
   0
MTEXT
   5
33E
 100
AcDbEntity
   8
LEVEL001
 370
13
  62
1
 100
AcDbMText
  10
 7380.0154998321
  20
 2453.5736076959
  30
0.0
  40
 80.000000000000
  41
0.0
  71
7
  72
1
   1
\T1.000000;溶融亜鉛メッキ
   7
GMM007
  44
 0.79999984000003
   0
MTEXT
   5
340
 100
AcDbEntity
   8
LEVEL001
 370
13
  62
1
 100
AcDbMText
  10
 7380.0154998321
  20
 2973.5736076959
  30
0.0
  40
 80.000000000000
  41
0.0
  71
7
  72
1
   1
\T1.000000;ＳＭＣ成型
   7
GMM007
  44
 0.79999984000003
   0
MTEXT
   5
342
 100
AcDbEntity
   8
LEVEL001
 370
13
  62
1
 100
AcDbMText
  10
 6800.9944735861
  20
 2583.5736076959
  30
0.0
  40
 80.000000000000
  41
0.0
  71
9
  72
1
   1
\T1.000000;２２
   7
GMM007
  44
 0.79999984000003
   0
MTEXT
   5
344
 100
AcDbEntity
   8
LEVEL001
 370
13
  62
1
 100
AcDbMText
  10
 6800.9944735861
  20
 2453.5736076959
  30
0.0
  40
 80.000000000000
  41
0.0
  71
9
  72
1
   1
\T1.000000;２
   7
GMM007
  44
 0.79999984000003
   0
MTEXT
   5
346
 100
AcDbEntity
   8
LEVEL001
 370
13
  62
1
 100
AcDbMText
  10
 6800.9944735861
  20
 2323.5736076959
  30
0.0
  40
 80.000000000000
  41
0.0
  71
9
  72
1
   1
\T1.000000;２
   7
GMM007
  44
 0.79999984000003
   0
MTEXT
   5
348
 100
AcDbEntity
   8
LEVEL001
 370
13
  62
1
 100
AcDbMText
  10
 6800.9944735861
  20
 1933.5736076959
  30
0.0
  40
 80.000000000000
  41
0.0
  71
9
  72
1
   1
\T1.000000;１
   7
GMM007
  44
 0.79999984000003
   0
MTEXT
   5
34A
 100
AcDbEntity
   8
LEVEL001
 370
13
  62
1
 100
AcDbMText
  10
 7380.0154998321
  20
 3103.5736076959
  30
0.0
  40
 80.000000000000
  41
0.0
  71
7
  72
1
   1
\W0.450000;\T1.000000;t=3.0mm･\W0.900000;\T1.000000;真空蒸着
   7
GMM007
  44
 0.79999984000003
   0
MTEXT
   5
34C
 100
AcDbEntity
   8
LEVEL001
 370
13
  62
1
 100
AcDbMText
  10
 7712.8943894361
  20
 3280.0000000000
  30
0.0
  40
 80.000000000000
  41
0.0
  71
5
  72
1
   1
\T1.000000;規格仕様
   7
GMM007
  44
 0.79999984000003
   0
MTEXT
   5
34E
 100
AcDbEntity
   8
LEVEL001
 370
13
  62
1
 100
AcDbMText
  10
 6800.9944735861
  20
 1803.5736076959
  30
0.0
  40
 80.000000000000
  41
0.0
  71
9
  72
1
   1
\T1.000000;４
   7
GMM007
  44
 0.79999984000003
   0
MTEXT
   5
350
 100
AcDbEntity
   8
LEVEL001
 370
13
  62
1
 100
AcDbMText
  10
 5750.9944735861
  20
 1413.5736076959
  30
0.0
  40
 80.000000000000
  41
0.0
  71
9
  72
1
   1
\T1.000000;１３
   7
GMM006
  44
 0.79999984000003
   0
LINE
   5
351
 100
AcDbEntity
   8
LEVEL001
 370
13
 100
AcDbLine
   6
CONTINUOUS
  62
6
  10
 5580.0154998321
  20
 1130.0000000000
  30
0.0
  11
 8095.7732790402
  21
 1130.0000000000
  31
0.0
   0
LINE
   5
352
 100
AcDbEntity
   8
LEVEL001
 370
13
 100
AcDbLine
   6
CONTINUOUS
  62
6
  10
 5580.0154998321
  20
 1260.0000000000
  30
0.0
  11
 8095.7732790402
  21
 1260.0000000000
  31
0.0
   0
LINE
   5
353
 100
AcDbEntity
   8
LEVEL001
 370
13
 100
AcDbLine
   6
CONTINUOUS
  62
6
  10
 5580.0154998321
  20
 1390.0000000000
  30
0.0
  11
 8095.7732790402
  21
 1390.0000000000
  31
0.0
   0
LINE
   5
354
 100
AcDbEntity
   8
LEVEL001
 370
13
 100
AcDbLine
   6
CONTINUOUS
  62
6
  10
 5580.0154998321
  20
 1520.0000000000
  30
0.0
  11
 8095.7732790402
  21
 1520.0000000000
  31
0.0
   0
MTEXT
   5
356
 100
AcDbEntity
   8
LEVEL001
 370
13
  62
1
 100
AcDbMText
  10
 5750.9944735861
  20
 1283.5736076959
  30
0.0
  40
 80.000000000000
  41
0.0
  71
9
  72
1
   1
\T1.000000;１４
   7
GMM006
  44
 0.79999984000003
   0
MTEXT
   5
358
 100
AcDbEntity
   8
LEVEL001
 370
13
  62
1
 100
AcDbMText
  10
 5750.9944735861
  20
 1153.5736076959
  30
0.0
  40
 80.000000000000
  41
0.0
  71
9
  72
1
   1
\T1.000000;１５
   7
GMM006
  44
 0.79999984000003
   0
LINE
   5
359
 100
AcDbEntity
   8
LEVEL001
 370
13
 100
AcDbLine
   6
CONTINUOUS
  62
6
  10
 5580.0154998321
  20
 1000.0000000000
  30
0.0
  11
 8095.7732790402
  21
 1000.0000000000
  31
0.0
   0
MTEXT
   5
35B
 100
AcDbEntity
   8
LEVEL001
 370
13
  62
1
 100
AcDbMText
  10
 5830.0154998321
  20
 893.57360769589
  30
0.0
  40
 80.000000000000
  41
0.0
  71
7
  72
1
   1
\T1.000000;同上ボルトナット
   7
GMM007
  44
 0.79999984000003
   0
MTEXT
   5
35D
 100
AcDbEntity
   8
LEVEL001
 370
13
  62
1
 100
AcDbMText
  10
 5830.0154998321
  20
 1023.5736076959
  30
0.0
  40
 80.000000000000
  41
0.0
  71
7
  72
1
   1
\T1.000000;注意板取付バンド
   7
GMM007
  44
 0.79999984000003
   0
MTEXT
   5
35F
 100
AcDbEntity
   8
LEVEL001
 370
13
  62
1
 100
AcDbMText
  10
 6800.9944735861
  20
 1153.5736076959
  30
0.0
  40
 80.000000000000
  41
0.0
  71
9
  72
1
   1
\T1.000000;１
   7
GMM007
  44
 0.79999984000003
   0
MTEXT
   5
361
 100
AcDbEntity
   8
LEVEL001
 370
13
  62
1
 100
AcDbMText
  10
 5830.0154998321
  20
 1283.5736076959
  30
0.0
  40
 80.000000000000
  41
0.0
  71
7
  72
1
   1
\T1.000000;キャップ
   7
GMM007
  44
 0.79999984000003
   0
MTEXT
   5
363
 100
AcDbEntity
   8
LEVEL001
 370
13
  62
1
 100
AcDbMText
  10
 6800.9944735861
  20
 1283.5736076959
  30
0.0
  40
 80.000000000000
  41
0.0
  71
9
  72
1
   1
\T1.000000;１
   7
GMM007
  44
 0.79999984000003
   0
MTEXT
   5
365
 100
AcDbEntity
   8
LEVEL001
 370
13
  62
1
 100
AcDbMText
  10
 6880.0154998321
  20
 1283.5736076959
  30
0.0
  40
 80.000000000000
  41
0.0
  71
7
  72
1
   1
\T1.000000;ＰＥ
   7
GMM007
  44
 0.79999984000003
   0
MTEXT
   5
367
 100
AcDbEntity
   8
LEVEL001
 370
13
  62
1
 100
AcDbMText
  10
 5830.0154998321
  20
 1413.5736076959
  30
0.0
  40
 80.000000000000
  41
0.0
  71
7
  72
1
   1
\T1.000000;根入れ鉄筋
   7
GMM007
  44
 0.79999984000003
   0
MTEXT
   5
369
 100
AcDbEntity
   8
LEVEL001
 370
13
  62
1
 100
AcDbMText
  10
 6800.9944735861
  20
 1413.5736076959
  30
0.0
  40
 80.000000000000
  41
0.0
  71
9
  72
1
   1
\T1.000000;２
   7
GMM007
  44
 0.79999984000003
   0
MTEXT
   5
36B
 100
AcDbEntity
   8
LEVEL001
 370
13
  62
1
 100
AcDbMText
  10
 5750.9944735861
  20
 1023.5736076959
  30
0.0
  40
 80.000000000000
  41
0.0
  71
9
  72
1
   1
\T1.000000;１６
   7
GMM006
  44
 0.79999984000003
   0
MTEXT
   5
36D
 100
AcDbEntity
   8
LEVEL001
 370
13
  62
1
 100
AcDbMText
  10
 5750.9944735861
  20
 893.57360769589
  30
0.0
  40
 80.000000000000
  41
0.0
  71
9
  72
1
   1
\T1.000000;１７
   7
GMM006
  44
 0.79999984000003
   0
MTEXT
   5
36F
 100
AcDbEntity
   8
LEVEL001
 370
13
  62
1
 100
AcDbMText
  10
 6880.0154998321
  20
 1413.5736076959
  30
0.0
  40
 80.000000000000
  41
0.0
  71
7
  72
1
   1
\T1.000000;ＳＤ２９５Ａ
   7
GMM007
  44
 0.79999984000003
   0
MTEXT
   5
371
 100
AcDbEntity
   8
LEVEL001
 370
13
  62
1
 100
AcDbMText
  10
 5750.9944735861
  20
 1673.5736076959
  30
0.0
  40
 80.000000000000
  41
0.0
  71
9
  72
1
   1
\T1.000000;１２
   7
GMM006
  44
 0.79999984000003
   0
MTEXT
   5
373
 100
AcDbEntity
   8
LEVEL001
 370
13
  62
1
 100
AcDbMText
  10
 5830.0154998321
  20
 1673.5736076959
  30
0.0
  40
 80.000000000000
  41
0.0
  71
7
  72
1
   1
\T1.000000;支柱
   7
GMM007
  44
 0.79999984000003
   0
MTEXT
   5
375
 100
AcDbEntity
   8
LEVEL001
 370
13
  62
1
 100
AcDbMText
  10
 6800.9944735861
  20
 1673.5736076959
  30
0.0
  40
 80.000000000000
  41
0.0
  71
9
  72
1
   1
\T1.000000;１
   7
GMM007
  44
 0.79999984000003
   0
MTEXT
   5
377
 100
AcDbEntity
   8
LEVEL001
 370
13
  62
1
 100
AcDbMText
  10
 6880.0154998321
  20
 1673.5736076959
  30
0.0
  40
 80.000000000000
  41
0.0
  71
7
  72
1
   1
\T1.000000;ＳＴＫ４００
   7
GMM007
  44
 0.79999984000003
   0
MTEXT
   5
379
 100
AcDbEntity
   8
LEVEL001
 370
13
  62
1
 100
AcDbMText
  10
 7380.0154998321
  20
 1673.5736076959
  30
0.0
  40
 80.000000000000
  41
0.0
  71
7
  72
1
   1
\T1.000000;静電粉体塗装
   7
GMM007
  44
 0.79999984000003
   0
LINE
   5
37A
 100
AcDbEntity
   8
LEVEL001
 370
13
 100
AcDbLine
   6
CONTINUOUS
  62
6
  10
 5580.0154998321
  20
 3650.0000000000
  30
0.0
  11
 5580.0154998321
  21
 870.00000000000
  31
0.0
   0
LINE
   5
37B
 100
AcDbEntity
   8
LEVEL001
 370
13
 100
AcDbLine
   6
CONTINUOUS
  62
6
  10
 5780.0154998321
  20
 870.00000000000
  30
0.0
  11
 5780.0154998321
  21
 3350.0000000000
  31
0.0
   0
LINE
   5
37C
 100
AcDbEntity
   8
LEVEL001
 370
13
 100
AcDbLine
   6
CONTINUOUS
  62
6
  10
 6630.0154998321
  20
 870.00000000000
  30
0.0
  11
 6630.0154998321
  21
 3350.0000000000
  31
0.0
   0
LINE
   5
37D
 100
AcDbEntity
   8
LEVEL001
 370
13
 100
AcDbLine
   6
CONTINUOUS
  62
6
  10
 6830.0154998321
  20
 870.00000000000
  30
0.0
  11
 6830.0154998321
  21
 3350.0000000000
  31
0.0
   0
LINE
   5
37E
 100
AcDbEntity
   8
LEVEL001
 370
13
 100
AcDbLine
   6
CONTINUOUS
  62
6
  10
 7330.0154998321
  20
 870.00000000000
  30
0.0
  11
 7330.0154998321
  21
 3350.0000000000
  31
0.0
   0
MTEXT
   5
380
 100
AcDbEntity
   8
LEVEL001
 370
13
  62
1
 100
AcDbMText
  10
 6880.0154998321
  20
 1543.5736076959
  30
0.0
  40
 80.000000000000
  41
0.0
  71
7
  72
1
   1
\T1.000000;ＳＴＫ４００
   7
GMM007
  44
 0.79999984000003
   0
MTEXT
   5
382
 100
AcDbEntity
   8
LEVEL001
 370
13
  62
1
 100
AcDbMText
  10
 6800.9944735861
  20
 1543.5736076959
  30
0.0
  40
 80.000000000000
  41
0.0
  71
9
  72
1
   1
\T1.000000;１
   7
GMM007
  44
 0.79999984000003
   0
LINE
   5
383
 100
AcDbEntity
   8
LEVEL001
 370
13
 100
AcDbLine
   6
CONTINUOUS
  62
6
  10
 6630.0154998321
  20
 1650.0000000000
  30
0.0
  11
 8095.7732790402
  21
 1650.0000000000
  31
0.0
   0
MTEXT
   5
385
 100
AcDbEntity
   8
LEVEL001
 370
13
  62
1
 100
AcDbMText
  10
 5636.4217324883
  20
 3914.3113553114
  30
0.0
  40
 80.000000000000
  41
0.0
  71
4
  72
1
   1
{\T1.000000;※構成部材は改良のため、変更する場合があります。}\P{\T1.000000;※本図は道路反射鏡ハンドブックに基づいています。}
   7
GMM007
  44
 0.94999981000004
   0
MTEXT
   5
387
 100
AcDbEntity
   8
LEVEL001
 370
13
  62
1
 100
AcDbMText
  10
 7380.0154998321
  20
 1585.0000000000
  30
0.0
  40
 44.000000000000
  41
0.0
  71
4
  72
1
   1
{\T1.000000;下地亜鉛メッキ}\P{\T1.000000;＋静電粉体塗装}
   7
GMM008
  44
 0.79999984000003
   0
MTEXT
   5
389
 100
AcDbEntity
   8
LEVEL001
 370
13
  62
1
 100
AcDbMText
  10
 6880.0154998321
  20
 1153.5736076959
  30
0.0
  40
 80.000000000000
  41
0.0
  71
7
  72
1
   1
\T1.000000;―
   7
GMM007
  44
 0.79999984000003
   0
MTEXT
   5
38B
 100
AcDbEntity
   8
LEVEL001
 370
13
  62
1
 100
AcDbMText
  10
 6880.0154998321
  20
 1023.5736076959
  30
0.0
  40
 80.000000000000
  41
0.0
  71
7
  72
1
   1
\T1.000000;―
   7
GMM007
  44
 0.79999984000003
   0
MTEXT
   5
38D
 100
AcDbEntity
   8
LEVEL001
 370
13
  62
1
 100
AcDbMText
  10
 6800.9944735861
  20
 1023.5736076959
  30
0.0
  40
 80.000000000000
  41
0.0
  71
9
  72
1
   1
\T1.000000;１式
   7
GMM007
  44
 0.79999984000003
   0
MTEXT
   5
38F
 100
AcDbEntity
   8
LEVEL001
 370
13
  62
1
 100
AcDbMText
  10
 6800.9944735861
  20
 893.57360769589
  30
0.0
  40
 80.000000000000
  41
0.0
  71
9
  72
1
   1
\T1.000000;１式
   7
GMM007
  44
 0.79999984000003
   0
MTEXT
   5
391
 100
AcDbEntity
   8
LEVEL001
 370
13
  62
1
 100
AcDbMText
  10
 6880.0154998321
  20
 893.57360769589
  30
0.0
  40
 80.000000000000
  41
0.0
  71
7
  72
1
   1
\T1.000000;―
   7
GMM007
  44
 0.79999984000003
   0
MTEXT
   5
393
 100
AcDbEntity
   8
LEVEL001
 370
13
  62
1
 100
AcDbMText
  10
 7372.1366102280
  20
 893.57360769589
  30
0.0
  40
 80.000000000000
  41
0.0
  71
7
  72
1
   1
\T1.000000;―
   7
GMM007
  44
 0.79999984000003
   0
MTEXT
   5
395
 100
AcDbEntity
   8
LEVEL001
 370
13
  62
1
 100
AcDbMText
  10
 7372.1366102280
  20
 1023.5736076959
  30
0.0
  40
 80.000000000000
  41
0.0
  71
7
  72
1
   1
\T1.000000;―
   7
GMM007
  44
 0.79999984000003
   0
MTEXT
   5
397
 100
AcDbEntity
   8
LEVEL001
 370
13
  62
1
 100
AcDbMText
  10
 7372.1366102280
  20
 1153.5736076959
  30
0.0
  40
 80.000000000000
  41
0.0
  71
7
  72
1
   1
\T1.000000;―
   7
GMM007
  44
 0.79999984000003
   0
MTEXT
   5
399
 100
AcDbEntity
   8
LEVEL001
 370
13
  62
1
 100
AcDbMText
  10
 5830.0154998321
  20
 1153.5736076959
  30
0.0
  40
 80.000000000000
  41
0.0
  71
7
  72
1
   1
\T1.000000;注意板
   7
GMM007
  44
 0.79999984000003
   0
MTEXT
   5
39B
 100
AcDbEntity
   8
LEVEL001
 370
13
  62
1
 100
AcDbMText
  10
 1713.7657369145
  20
 2681.4874532037
  30
0.0
  40
 66.000000000000
  41
0.0
  71
1
  72
1
   1
{\W0.787879;\T1.000000;支柱}\P%%c{\W0.787879;\T1.000000;８９\W0.393939;\T1.000000;.\W0.787879;\T1.000000;１ｘ３\W0.393939;\T1.000000;.\W0.787879;\T1.000000;２ｔ}\P{\W0.787879;\T1.000000;ｘ４４００Ｌ}
   7
GMM002
  44
 0.79999984000003
   0
ENDSEC
  0
SECTION
  2
OBJECTS
  0
DICTIONARY
  5
C
100
AcDbDictionary
  3
ACAD_GROUP
350
D
  3
ACAD_MLINESTYLE
350
1B
  3
DWGPROPS
350
1C
  0
DICTIONARY
  5
D
102
{ACAD_REACTORS
330
C
102
}
100
AcDbDictionary
  0
DICTIONARY
  5
1B
102
{ACAD_REACTORS
330
C
102
}
100
AcDbDictionary
  3
STANDARD
350
1D
  0
MLINESTYLE
  5
1D
102
{ACAD_REACTORS
330
1B
102
}
100
AcDbMlineStyle
  2
STANDARD
 70
     0
  3

 62
   256
 51
90.0
 52
90.0
 71
     2
 49
0.5
 62
   256
  6
BYLAYER
 49
-0.5
 62
   256
  6
BYLAYER
   0
XRECORD
   5
1C
 102
{ACAD_REACTORS
 330
C
 102
}
 330
C
 100
AcDbXrecord
 280
1
   1
DWGPROPS COOKIE
   2
 
   3
 
   4
 
   6
 
   7
MA080W
   8
 
   9

 300
 = 
 301
 = 
 302
 = 
 303
 = 
 304
 = 
 305
 = 
 306
 = 
 307
 = 
 308
 = 
 309
 = 
  40
0.0
  41
 2460327.5000000
  42
 2460327.5000000
   1

  90
10
   0
ENDSEC
   0
EOF
