   0
SECTION
   2
HEADER
   9
$ACADVER
   1
AC1015
   9
$DWGCODEPAGE
   3
ANSI_932
   9
$LIMMIN
  10
0.0
  20
0.0
   9
$LIMMAX
  10
 8400.0000000000
  20
 5940.0000000000
   9
$EXTMIN
  10
0.0
  20
0.0
  30
0.0
   9
$EXTMAX
  10
 8400.0000000000
  20
 5940.0000000000
  30
0.0
   9
$LTSCALE
  40
 168.00000000000
   9
$HANDSEED
   5
340
   0
ENDSEC
   0
SECTION
   2
TABLES
  0
TABLE
  2
VPORT
  5
8
100
AcDbSymbolTable
 70
     1
  0
VPORT
  5
33F
100
AcDbSymbolTableRecord
100
AcDbViewportTableRecord
  2
*ACTIVE
 70
     0
 10
0.0
 20
0.0
 11
1.0
 21
1.0
  12
 4200.0000000000
  22
 2970.0000000000
 13
0.0
 23
0.0
 14
1.0
 24
1.0
 15
0.0
 25
0.0
 16
0.0
 26
0.0
 36
1.0
 17
0.0
 27
0.0
 37
0.0
  40
 8400.0000000000
  41
 1.4787878787879
 42
50.0
 43
0.0
 44
0.0
 50
0.0
 51
0.0
 71
     0
 72
   100
 73
     1
 74
     1
 75
     0
 76
     0
 77
     0
 78
     0
  0
ENDTAB
  0
TABLE
  2
LTYPE
  5
5
100
AcDbSymbolTable
 70
    25
  0
LTYPE
  5
12
100
AcDbSymbolTableRecord
100
AcDbLinetypeTableRecord
  2
BYBLOCK
 70
     0
  3

 72
    65
 73
     0
 40
0.0
  0
LTYPE
  5
13
100
AcDbSymbolTableRecord
100
AcDbLinetypeTableRecord
  2
BYLAYER
 70
     0
  3

 72
    65
 73
     0
 40
0.0
  0
LTYPE
  5
14
100
AcDbSymbolTableRecord
100
AcDbLinetypeTableRecord
  2
CONTINUOUS
 70
     0
  3
Solid line
 72
    65
 73
     0
 40
0.0
  0
LTYPE
  5
20
100
AcDbSymbolTableRecord
100
AcDbLinetypeTableRecord
  2
BORDER
 70
     0
  3
__ __ . __ __ . __ __ . __ __ . __ __ . __ __ .
 72
    65
 73
     6
 40
1.75
 49
0.5
 74
     0
 49
-0.25
 74
     0
 49
0.5
 74
     0
 49
-0.25
 74
     0
 49
0.0
 74
     0
 49
-0.25
 74
     0
  0
LTYPE
  5
21
100
AcDbSymbolTableRecord
100
AcDbLinetypeTableRecord
  2
BORDER2
 70
     0
  3
__.__.__.__.__.__.__.__.__.__.__.__.__.__.__.__
 72
    65
 73
     6
 40
0.875
 49
0.25
 74
     0
 49
-0.125
 74
     0
 49
0.25
 74
     0
 49
-0.125
 74
     0
 49
0.0
 74
     0
 49
-0.125
 74
     0
  0
LTYPE
  5
22
100
AcDbSymbolTableRecord
100
AcDbLinetypeTableRecord
  2
BORDERX2
 70
     0
  3
____  ____  .  ____  ____  .  ____  ____  .  __
 72
    65
 73
     6
 40
3.5
 49
1.0
 74
     0
 49
-0.5
 74
     0
 49
1.0
 74
     0
 49
-0.5
 74
     0
 49
0.0
 74
     0
 49
-0.5
 74
     0
  0
LTYPE
  5
23
100
AcDbSymbolTableRecord
100
AcDbLinetypeTableRecord
  2
CENTER
 70
     0
  3
____ _ ____ _ ____ _ ____ _ ____ _ ____ _ ____ 
 72
    65
 73
     4
 40
2.0
 49
1.25
 74
     0
 49
-0.25
 74
     0
 49
0.25
 74
     0
 49
-0.25
 74
     0
  0
LTYPE
  5
24
100
AcDbSymbolTableRecord
100
AcDbLinetypeTableRecord
  2
CENTER2
 70
     0
  3
___ _ ___ _ ___ _ ___ _ ___ _ ___ _ ___ _ ___ _
 72
    65
 73
     4
 40
1.125
 49
0.75
 74
     0
 49
-0.125
 74
     0
 49
0.125
 74
     0
 49
-0.125
 74
     0
  0
LTYPE
  5
25
100
AcDbSymbolTableRecord
100
AcDbLinetypeTableRecord
  2
CENTERX2
 70
     0
  3
________  __  ________  __  ________  __  _____
 72
    65
 73
     4
 40
4.0
 49
2.5
 74
     0
 49
-0.5
 74
     0
 49
0.5
 74
     0
 49
-0.5
 74
     0
  0
LTYPE
  5
26
100
AcDbSymbolTableRecord
100
AcDbLinetypeTableRecord
  2
DASHDOT
 70
     0
  3
__ . __ . __ . __ . __ . __ . __ . __ . __ . __
 72
    65
 73
     4
 40
1.0
 49
0.5
 74
     0
 49
-0.25
 74
     0
 49
0.0
 74
     0
 49
-0.25
 74
     0
  0
LTYPE
  5
27
100
AcDbSymbolTableRecord
100
AcDbLinetypeTableRecord
  2
DASHDOT2
 70
     0
  3
_._._._._._._._._._._._._._._._._._._._._._._._
 72
    65
 73
     4
 40
0.5
 49
0.25
 74
     0
 49
-0.125
 74
     0
 49
0.0
 74
     0
 49
-0.125
 74
     0
  0
LTYPE
  5
28
100
AcDbSymbolTableRecord
100
AcDbLinetypeTableRecord
  2
DASHDOTX2
 70
     0
  3
____  .  ____  .  ____  .  ____  .  ____  .  __
 72
    65
 73
     4
 40
2.0
 49
1.0
 74
     0
 49
-0.5
 74
     0
 49
0.0
 74
     0
 49
-0.5
 74
     0
  0
LTYPE
  5
29
100
AcDbSymbolTableRecord
100
AcDbLinetypeTableRecord
  2
DASHED
 70
     0
  3
__ __ __ __ __ __ __ __ __ __ __ __ __ __ __ __
 72
    65
 73
     2
 40
0.75
 49
0.5
 74
     0
 49
-0.25
 74
     0
  0
LTYPE
  5
2A
100
AcDbSymbolTableRecord
100
AcDbLinetypeTableRecord
  2
DASHED2
 70
     0
  3
_ _ _ _ _ _ _ _ _ _ _ _ _ _ _ _ _ _ _ _ _ _ _ _
 72
    65
 73
     2
 40
0.375
 49
0.25
 74
     0
 49
-0.125
 74
     0
  0
LTYPE
  5
2B
100
AcDbSymbolTableRecord
100
AcDbLinetypeTableRecord
  2
DASHEDX2
 70
     0
  3
____  ____  ____  ____  ____  ____  ____  ____ 
 72
    65
 73
     2
 40
1.5
 49
1.0
 74
     0
 49
-0.5
 74
     0
  0
LTYPE
  5
2C
100
AcDbSymbolTableRecord
100
AcDbLinetypeTableRecord
  2
DIVIDE
 70
     0
  3
____ . . ____ . . ____ . . ____ . . ____ . . __
 72
    65
 73
     6
 40
1.25
 49
0.5
 74
     0
 49
-0.25
 74
     0
 49
0.0
 74
     0
 49
-0.25
 74
     0
 49
0.0
 74
     0
 49
-0.25
 74
     0
  0
LTYPE
  5
2D
100
AcDbSymbolTableRecord
100
AcDbLinetypeTableRecord
  2
DIVIDE2
 70
     0
  3
__..__..__..__..__..__..__..__..__..__..__..__.
 72
    65
 73
     6
 40
0.625
 49
0.25
 74
     0
 49
-0.125
 74
     0
 49
0.0
 74
     0
 49
-0.125
 74
     0
 49
0.0
 74
     0
 49
-0.125
 74
     0
  0
LTYPE
  5
2E
100
AcDbSymbolTableRecord
100
AcDbLinetypeTableRecord
  2
DIVIDEX2
 70
     0
  3
________  .  .  ________  .  .  ________  .  . 
 72
    65
 73
     6
 40
2.5
 49
1.0
 74
     0
 49
-0.5
 74
     0
 49
0.0
 74
     0
 49
-0.5
 74
     0
 49
0.0
 74
     0
 49
-0.5
 74
     0
  0
LTYPE
  5
2F
100
AcDbSymbolTableRecord
100
AcDbLinetypeTableRecord
  2
DOT
 70
     0
  3
. . . . . . . . . . . . . . . . . . . . . . . .
 72
    65
 73
     2
 40
0.25
 49
0.0
 74
     0
 49
-0.25
 74
     0
  0
LTYPE
  5
30
100
AcDbSymbolTableRecord
100
AcDbLinetypeTableRecord
  2
DOT2
 70
     0
  3
...............................................
 72
    65
 73
     2
 40
0.125
 49
0.0
 74
     0
 49
-0.125
 74
     0
  0
LTYPE
  5
31
100
AcDbSymbolTableRecord
100
AcDbLinetypeTableRecord
  2
DOTX2
 70
     0
  3
.  .  .  .  .  .  .  .  .  .  .  .  .  .  .  . 
 72
    65
 73
     2
 40
0.5
 49
0.0
 74
     0
 49
-0.5
 74
     0
  0
LTYPE
  5
32
100
AcDbSymbolTableRecord
100
AcDbLinetypeTableRecord
  2
HIDDEN
 70
     0
  3
__ __ __ __ __ __ __ __ __ __ __ __ __ __ __ __
 72
    65
 73
     2
 40
0.375
 49
0.25
 74
     0
 49
-0.125
 74
     0
  0
LTYPE
  5
33
100
AcDbSymbolTableRecord
100
AcDbLinetypeTableRecord
  2
HIDDEN2
 70
     0
  3
_ _ _ _ _ _ _ _ _ _ _ _ _ _ _ _ _ _ _ _ _ _ _ _
 72
    65
 73
     2
 40
0.1875
 49
0.125
 74
     0
 49
-0.0625
 74
     0
  0
LTYPE
  5
34
100
AcDbSymbolTableRecord
100
AcDbLinetypeTableRecord
  2
HIDDENX2
 70
     0
  3
____ ____ ____ ____ ____ ____ ____ ____ ____ __
 72
    65
 73
     2
 40
0.75
 49
0.5
 74
     0
 49
-0.25
 74
     0
  0
LTYPE
  5
35
100
AcDbSymbolTableRecord
100
AcDbLinetypeTableRecord
  2
PHANTOM
 70
     0
  3
______  __  __  ______  __  __  ______  __  __ 
 72
    65
 73
     6
 40
2.5
 49
1.25
 74
     0
 49
-0.25
 74
     0
 49
0.25
 74
     0
 49
-0.25
 74
     0
 49
0.25
 74
     0
 49
-0.25
 74
     0
  0
LTYPE
  5
36
100
AcDbSymbolTableRecord
100
AcDbLinetypeTableRecord
  2
PHANTOM2
 70
     0
  3
___ _ _ ___ _ _ ___ _ _ ___ _ _ ___ _ _ ___ _ _
 72
    65
 73
     6
 40
1.25
 49
0.625
 74
     0
 49
-0.125
 74
     0
 49
0.125
 74
     0
 49
-0.125
 74
     0
 49
0.125
 74
     0
 49
-0.125
 74
     0
  0
LTYPE
  5
37
100
AcDbSymbolTableRecord
100
AcDbLinetypeTableRecord
  2
PHANTOMX2
 70
     0
  3
____________    ____    ____    ____________   
 72
    65
 73
     6
 40
5.0
 49
2.5
 74
     0
 49
-0.5
 74
     0
 49
0.5
 74
     0
 49
-0.5
 74
     0
 49
0.5
 74
     0
 49
-0.5
 74
     0
  0
ENDTAB
   0
TABLE
   2
LAYER
   5
2
 100
AcDbSymbolTable
  70
2
   0
LAYER
   5
E
 100
AcDbSymbolTableRecord
 100
AcDbLayerTableRecord
   2
0
  70
0
  62
7
   6
CONTINUOUS
 390
30
   0
LAYER
   5
39
 100
AcDbSymbolTableRecord
 100
AcDbLayerTableRecord
   2
LEVEL001
  70
0
  62
7
   6
CONTINUOUS
 390
30
   0
ENDTAB
  0
TABLE
  2
STYLE
  5
3
100
AcDbSymbolTable
  70
9
  0
STYLE
  5
F
100
AcDbSymbolTableRecord
100
AcDbTextStyleTableRecord
  2
STANDARD
 70
     0
 40
0.0
 41
1.0
 50
0.0
 71
     0
 42
0.2
  3
TXT
  4
BIGFONT
  0
STYLE
  5
38
100
AcDbSymbolTableRecord
100
AcDbTextStyleTableRecord
  2
STANDARD1
 70
     4
 40
0.0
 41
1.0
 50
0.0
 71
     0
 42
0.2
  3
TXT
  4
BIGFONT
   0
STYLE
   5
3A
 100
AcDbSymbolTableRecord
 100
AcDbTextStyleTableRecord
   2
GMM001
  70
0
  40
0.0
  41
 0.87500000000000
  50
0.0
  71
     0
  42
1.0
   3
txt.shx
   4
bigfont.shx
   0
STYLE
   5
3B
 100
AcDbSymbolTableRecord
 100
AcDbTextStyleTableRecord
   2
GMM002
  70
0
  40
0.0
  41
 0.90000000000000
  50
0.0
  71
     0
  42
1.0
   3
txt.shx
   4
bigfont.shx
   0
STYLE
   5
3C
 100
AcDbSymbolTableRecord
 100
AcDbTextStyleTableRecord
   2
GMM003
  70
0
  40
0.0
  41
 1.0000000000000
  50
0.0
  71
     0
  42
1.0
   3
txt.shx
   4
bigfont.shx
   0
STYLE
   5
3D
 100
AcDbSymbolTableRecord
 100
AcDbTextStyleTableRecord
   2
GMM004
  70
0
  40
0.0
  41
 0.78787878787879
  50
0.0
  71
     0
  42
1.0
   3
txt.shx
   4
bigfont.shx
   0
STYLE
   5
3E
 100
AcDbSymbolTableRecord
 100
AcDbTextStyleTableRecord
   2
GMM005
  70
0
  40
0.0
  41
 0.75000000000000
  50
0.0
  71
     0
  42
1.0
   3
txt.shx
   4
bigfont.shx
   0
STYLE
   5
3F
 100
AcDbSymbolTableRecord
 100
AcDbTextStyleTableRecord
   2
GMM006
  70
0
  40
0.0
  41
 0.90000000000000
  50
0.0
  71
     0
  42
1.0
   3

   4

1001
ACAD
1000
ＭＳ 明朝
1071
33587217
   0
STYLE
   5
40
 100
AcDbSymbolTableRecord
 100
AcDbTextStyleTableRecord
   2
GMM007
  70
0
  40
0.0
  41
 1.0000000000000
  50
0.0
  71
     0
  42
1.0
   3

   4

1001
ACAD
1000
ＭＳ 明朝
1071
32785
   0
ENDTAB
  0
TABLE
  2
VIEW
  5
6
100
AcDbSymbolTable
 70
     0
  0
ENDTAB
  0
TABLE
  2
UCS
  5
7
100
AcDbSymbolTable
 70
     0
  0
ENDTAB
  0
TABLE
  2
APPID
  5
9
100
AcDbSymbolTable
 70
     1
  0
APPID
  5
10
100
AcDbSymbolTableRecord
100
AcDbRegAppTableRecord
  2
ACAD
 70
     0
  0
ENDTAB
   0
TABLE
   2
DIMSTYLE
   5
A
 100
AcDbSymbolTable
  70
12
 100
AcDbDimStyleTable
  0
DIMSTYLE
105
1D
100
AcDbSymbolTableRecord
100
AcDbDimStyleTableRecord
  2
STANDARD
 70
     0
  3

  4

  5

  6

  7

 40
1.0
 41
0.18
 42
0.0625
 43
0.38
 44
0.18
 45
0.0
 46
0.0
 47
0.0
 48
0.0
140
0.18
141
0.09
142
0.0
143
25.4
144
1.0
145
0.0
146
1.0
147
0.09
 71
     0
 72
     0
 73
     1
 74
     1
 75
     0
 76
     0
 77
     0
 78
     0
170
     0
171
     2
172
     0
173
     0
174
     0
175
     0
176
     0
177
     0
178
     0
270
     2
271
     4
272
     4
273
     2
274
     2
340
F
275
     0
280
     0
281
     0
282
     0
283
     1
284
     0
285
     0
286
     0
287
     3
288
     0
   0
DIMSTYLE
 105
41
 100
AcDbSymbolTableRecord
 100
AcDbDimStyleTableRecord
   2
GMM001
  70
0
   3
%%c<>
   4

   5

   6
_OPEN
   7
_OPEN
  40
 1.0000000000000
  41
 30.000000000000
  42
 30.000000000000
  43
 160.00000000000
  44
 30.000000000000
  45
0.0
  46
0.0
  47
0.0
  48
0.0
 140
 66.000000000000
 141
 20.000000000000
 142
0.0
 143
 0.39400000000000E-1
 144
 1.0000000000000
 145
0.0
 146
 0.75757575757576
 147
 28.285714285714
  71
0
  72
0
  73
0
  74
0
  75
0
  76
0
  77
3
  78
8
 170
0
 171
2
 172
1
 173
1
 174
0
 175
0
 176
6
 177
6
 178
1
 270
2
 271
1
 272
0
 273
2
 274
2
 340
3D
 275
0
 280
0
 281
0
 282
0
 283
1
 284
0
 285
0
 286
0
 287
0
 288
0
   0
DIMSTYLE
 105
42
 100
AcDbSymbolTableRecord
 100
AcDbDimStyleTableRecord
   2
GMM002
  70
0
   3

   4

   5

   6
_OPEN
   7
_OPEN
  40
 1.0000000000000
  41
 30.000000000000
  42
 30.000000000000
  43
 160.00000000000
  44
 30.000000000000
  45
0.0
  46
0.0
  47
0.0
  48
0.0
 140
 66.000000000000
 141
 20.000000000000
 142
0.0
 143
 0.39400000000000E-1
 144
 1.0000000000000
 145
0.0
 146
 0.75757575757576
 147
0.0
  71
0
  72
0
  73
0
  74
0
  75
0
  76
0
  77
0
  78
8
 170
0
 171
2
 172
1
 173
1
 174
0
 175
0
 176
1
 177
1
 178
1
 270
2
 271
1
 272
0
 273
2
 274
2
 340
3C
 275
0
 280
0
 281
0
 282
0
 283
1
 284
0
 285
0
 286
0
 287
5
 288
1
   0
DIMSTYLE
 105
43
 100
AcDbSymbolTableRecord
 100
AcDbDimStyleTableRecord
   2
GMM003
  70
0
   3

   4

   5

   6
_OPEN
   7
_OPEN
  40
 1.0000000000000
  41
 30.000000000000
  42
 30.000000000000
  43
 160.00000000000
  44
 30.000000000000
  45
0.0
  46
0.0
  47
0.0
  48
0.0
 140
 66.000000000000
 141
 20.000000000000
 142
0.0
 143
 0.39400000000000E-1
 144
 1.0000000000000
 145
0.0
 146
 0.75757575757576
 147
 28.285714285714
  71
0
  72
0
  73
0
  74
0
  75
0
  76
0
  77
3
  78
8
 170
0
 171
2
 172
1
 173
1
 174
0
 175
0
 176
6
 177
6
 178
1
 270
2
 271
1
 272
0
 273
2
 274
2
 340
3D
 275
0
 280
0
 281
0
 282
0
 283
1
 284
0
 285
0
 286
0
 287
5
 288
1
   0
DIMSTYLE
 105
44
 100
AcDbSymbolTableRecord
 100
AcDbDimStyleTableRecord
   2
GMM004
  70
0
   3

   4

   5

   6
_OPEN
   7
_OPEN
  40
 1.0000000000000
  41
 30.000000000000
  42
 30.000000000000
  43
 160.00000000000
  44
 30.000000000000
  45
0.0
  46
0.0
  47
0.0
  48
0.0
 140
 66.000000000000
 141
 20.000000000000
 142
0.0
 143
 0.39400000000000E-1
 144
 1.0000000000000
 145
0.0
 146
 0.75757575757576
 147
 28.285714285714
  71
0
  72
0
  73
0
  74
0
  75
0
  76
0
  77
3
  78
8
 170
0
 171
2
 172
1
 173
1
 174
0
 175
0
 176
6
 177
6
 178
1
 270
2
 271
1
 272
0
 273
2
 274
2
 340
3D
 275
0
 280
0
 281
0
 282
0
 283
1
 284
0
 285
0
 286
0
 287
5
 288
1
   0
DIMSTYLE
 105
45
 100
AcDbSymbolTableRecord
 100
AcDbDimStyleTableRecord
   2
GMM005
  70
0
   3

   4

   5

   6
_OPEN
   7
_OPEN
  40
 1.0000000000000
  41
 30.000000000000
  42
 30.000000000000
  43
 160.00000000000
  44
 30.000000000000
  45
0.0
  46
0.0
  47
0.0
  48
0.0
 140
 66.000000000000
 141
 20.000000000000
 142
0.0
 143
 0.39400000000000E-1
 144
 1.0000000000000
 145
0.0
 146
 0.75757575757576
 147
0.0
  71
0
  72
0
  73
0
  74
0
  75
0
  76
0
  77
0
  78
8
 170
0
 171
2
 172
1
 173
1
 174
0
 175
0
 176
1
 177
1
 178
1
 270
2
 271
1
 272
0
 273
2
 274
2
 340
3C
 275
0
 280
0
 281
0
 282
0
 283
1
 284
0
 285
0
 286
0
 287
5
 288
1
   0
DIMSTYLE
 105
46
 100
AcDbSymbolTableRecord
 100
AcDbDimStyleTableRecord
   2
GMM006
  70
0
   3
□<>
   4

   5

   6
_OPEN
   7
_OPEN
  40
 1.0000000000000
  41
 30.000000000000
  42
 30.000000000000
  43
 160.00000000000
  44
 30.000000000000
  45
0.0
  46
0.0
  47
0.0
  48
0.0
 140
 66.000000000000
 141
 20.000000000000
 142
0.0
 143
 0.39400000000000E-1
 144
 1.0000000000000
 145
0.0
 146
 0.75757575757576
 147
 28.285714285714
  71
0
  72
0
  73
0
  74
0
  75
0
  76
0
  77
3
  78
8
 170
0
 171
2
 172
1
 173
1
 174
0
 175
0
 176
6
 177
6
 178
1
 270
2
 271
1
 272
0
 273
2
 274
2
 340
3D
 275
0
 280
0
 281
0
 282
0
 283
1
 284
0
 285
0
 286
0
 287
5
 288
1
   0
DIMSTYLE
 105
47
 100
AcDbSymbolTableRecord
 100
AcDbDimStyleTableRecord
   2
GMM007
  70
0
   3

   4

   5

   6
_OPEN
   7
_OPEN
  40
 1.0000000000000
  41
 30.000000000000
  42
 30.000000000000
  43
 160.00000000000
  44
 30.000000000000
  45
0.0
  46
0.0
  47
0.0
  48
0.0
 140
 66.000000000000
 141
 20.000000000000
 142
0.0
 143
 0.39400000000000E-1
 144
 1.0000000000000
 145
0.0
 146
 0.75757575757576
 147
0.0
  71
0
  72
0
  73
0
  74
0
  75
0
  76
0
  77
0
  78
8
 170
0
 171
2
 172
1
 173
1
 174
0
 175
0
 176
1
 177
1
 178
1
 270
2
 271
1
 272
0
 273
2
 274
2
 340
3C
 275
0
 280
0
 281
0
 282
0
 283
1
 284
0
 285
0
 286
0
 287
5
 288
1
   0
DIMSTYLE
 105
48
 100
AcDbSymbolTableRecord
 100
AcDbDimStyleTableRecord
   2
GMM008
  70
0
   3
□<>
   4

   5

   6
_OPEN
   7
_OPEN
  40
 1.0000000000000
  41
 30.000000000000
  42
 30.000000000000
  43
 160.00000000000
  44
 30.000000000000
  45
0.0
  46
0.0
  47
0.0
  48
0.0
 140
 66.000000000000
 141
 20.000000000000
 142
0.0
 143
 0.39400000000000E-1
 144
 1.0000000000000
 145
0.0
 146
 0.75757575757576
 147
 28.285714285714
  71
0
  72
0
  73
0
  74
0
  75
0
  76
0
  77
3
  78
8
 170
0
 171
2
 172
1
 173
1
 174
0
 175
0
 176
6
 177
6
 178
1
 270
2
 271
1
 272
0
 273
2
 274
2
 340
3D
 275
0
 280
0
 281
0
 282
0
 283
1
 284
0
 285
0
 286
0
 287
5
 288
1
   0
DIMSTYLE
 105
49
 100
AcDbSymbolTableRecord
 100
AcDbDimStyleTableRecord
   2
GMM009
  70
0
   3

   4

   5

   6
_OPEN
   7
_OPEN
  40
 1.0000000000000
  41
 30.000000000000
  42
 30.000000000000
  43
 160.00000000000
  44
 30.000000000000
  45
0.0
  46
0.0
  47
0.0
  48
0.0
 140
 66.000000000000
 141
 20.000000000000
 142
0.0
 143
 0.39400000000000E-1
 144
 1.0000000000000
 145
0.0
 146
 0.75757575757576
 147
0.0
  71
0
  72
0
  73
0
  74
0
  75
0
  76
0
  77
0
  78
8
 170
0
 171
2
 172
1
 173
1
 174
0
 175
0
 176
1
 177
1
 178
1
 270
2
 271
1
 272
0
 273
2
 274
2
 340
3C
 275
0
 280
0
 281
0
 282
0
 283
1
 284
0
 285
0
 286
0
 287
5
 288
1
   0
DIMSTYLE
 105
4A
 100
AcDbSymbolTableRecord
 100
AcDbDimStyleTableRecord
   2
GMM010
  70
0
   3

   4

   5

   6
_OPEN
   7
_OPEN
  40
 1.0000000000000
  41
 30.000000000000
  42
 30.000000000000
  43
 160.00000000000
  44
 30.000000000000
  45
0.0
  46
0.0
  47
0.0
  48
0.0
 140
 66.000000000000
 141
 20.000000000000
 142
0.0
 143
 0.39400000000000E-1
 144
 1.0000000000000
 145
0.0
 146
 0.75757575757576
 147
 28.285714285714
  71
0
  72
0
  73
0
  74
0
  75
0
  76
0
  77
3
  78
8
 170
0
 171
2
 172
1
 173
1
 174
0
 175
0
 176
6
 177
6
 178
1
 270
2
 271
1
 272
0
 273
2
 274
2
 340
3D
 275
0
 280
0
 281
0
 282
0
 283
1
 284
0
 285
0
 286
0
 287
5
 288
1
   0
ENDTAB
  0
TABLE
  2
BLOCK_RECORD
  5
1
100
AcDbSymbolTable
 70
     0
  0
BLOCK_RECORD
  5
18
100
AcDbSymbolTableRecord
100
AcDbBlockTableRecord
  2
*MODEL_SPACE
  0
BLOCK_RECORD
  5
15
100
AcDbSymbolTableRecord
100
AcDbBlockTableRecord
  2
*PAPER_SPACE
   0
BLOCK_RECORD
   5
4B
 100
AcDbSymbolTableRecord
 100
AcDbBlockTableRecord
   2
*D1
   0
BLOCK_RECORD
   5
4C
 100
AcDbSymbolTableRecord
 100
AcDbBlockTableRecord
   2
*D8
   0
BLOCK_RECORD
   5
4D
 100
AcDbSymbolTableRecord
 100
AcDbBlockTableRecord
   2
*D9
   0
BLOCK_RECORD
   5
4E
 100
AcDbSymbolTableRecord
 100
AcDbBlockTableRecord
   2
*D10
   0
BLOCK_RECORD
   5
4F
 100
AcDbSymbolTableRecord
 100
AcDbBlockTableRecord
   2
*D13
   0
BLOCK_RECORD
   5
50
 100
AcDbSymbolTableRecord
 100
AcDbBlockTableRecord
   2
*D15
   0
BLOCK_RECORD
   5
51
 100
AcDbSymbolTableRecord
 100
AcDbBlockTableRecord
   2
*D21
   0
BLOCK_RECORD
   5
52
 100
AcDbSymbolTableRecord
 100
AcDbBlockTableRecord
   2
_ARCHTICK
   0
BLOCK_RECORD
   5
53
 100
AcDbSymbolTableRecord
 100
AcDbBlockTableRecord
   2
_BOXBLANK
   0
BLOCK_RECORD
   5
54
 100
AcDbSymbolTableRecord
 100
AcDbBlockTableRecord
   2
_BOXFILLED
   0
BLOCK_RECORD
   5
55
 100
AcDbSymbolTableRecord
 100
AcDbBlockTableRecord
   2
_CLOSED
   0
BLOCK_RECORD
   5
56
 100
AcDbSymbolTableRecord
 100
AcDbBlockTableRecord
   2
_CLOSEDBLANK
   0
BLOCK_RECORD
   5
57
 100
AcDbSymbolTableRecord
 100
AcDbBlockTableRecord
   2
_DATUMBLANK
   0
BLOCK_RECORD
   5
58
 100
AcDbSymbolTableRecord
 100
AcDbBlockTableRecord
   2
_DATUMFILLED
   0
BLOCK_RECORD
   5
59
 100
AcDbSymbolTableRecord
 100
AcDbBlockTableRecord
   2
_DOT
   0
BLOCK_RECORD
   5
5A
 100
AcDbSymbolTableRecord
 100
AcDbBlockTableRecord
   2
_DOTBLANK
   0
BLOCK_RECORD
   5
5B
 100
AcDbSymbolTableRecord
 100
AcDbBlockTableRecord
   2
_DOTSMALL
   0
BLOCK_RECORD
   5
5C
 100
AcDbSymbolTableRecord
 100
AcDbBlockTableRecord
   2
_INTEGRAL
   0
BLOCK_RECORD
   5
5D
 100
AcDbSymbolTableRecord
 100
AcDbBlockTableRecord
   2
_NONE
   0
BLOCK_RECORD
   5
5E
 100
AcDbSymbolTableRecord
 100
AcDbBlockTableRecord
   2
_OBLIQUE
   0
BLOCK_RECORD
   5
5F
 100
AcDbSymbolTableRecord
 100
AcDbBlockTableRecord
   2
_OPEN
   0
BLOCK_RECORD
   5
60
 100
AcDbSymbolTableRecord
 100
AcDbBlockTableRecord
   2
_OPEN30
   0
BLOCK_RECORD
   5
61
 100
AcDbSymbolTableRecord
 100
AcDbBlockTableRecord
   2
_OPEN90
   0
BLOCK_RECORD
   5
62
 100
AcDbSymbolTableRecord
 100
AcDbBlockTableRecord
   2
_ORIGIN
   0
ENDTAB
   0
ENDSEC
  0
SECTION
  2
BLOCKS
  0
BLOCK
  5
19
100
AcDbEntity
  8
0
100
AcDbBlockBegin
  2
*MODEL_SPACE
 70
     0
 10
0.0
 20
0.0
 30
0.0
  3
*MODEL_SPACE
  1

  0
ENDBLK
  5
1A
100
AcDbEntity
  8
0
100
AcDbBlockEnd
  0
BLOCK
  5
16
100
AcDbEntity
 67
     1
  8
0
100
AcDbBlockBegin
  2
*PAPER_SPACE
 70
     0
 10
0.0
 20
0.0
 30
0.0
  3
*PAPER_SPACE
  1

  0
ENDBLK
  5
17
100
AcDbEntity
 67
     1
  8
0
100
AcDbBlockEnd
   0
BLOCK
   5
63
 100
AcDbEntity
   8
0
 100
AcDbBlockBegin
   2
_ARCHTICK
  70
0
  10
0.0
  20
0.0
  30
0.0
   3
_ARCHTICK
   0
POLYLINE
   5
64
 100
AcDbEntity
   8
0
 370
-2
   6
BYBLOCK
  62
0
 100
AcDb2dPolyline
  66
1
  10
0.0
  20
0.0
  30
0.0
  70
1
  40
 0.15000000000000
  41
 0.15000000000000
   0
VERTEX
   5
65
 100
AcDbEntity
   8
0
   6
BYBLOCK
  62
0
 100
AcDbVertex
 100
AcDb2dVertex
  10
-0.50000000000000
  20
-0.50000000000000
  30
0.0
  40
 0.15000000000000
  41
 0.15000000000000
   0
VERTEX
   5
66
 100
AcDbEntity
   8
0
   6
BYBLOCK
  62
0
 100
AcDbVertex
 100
AcDb2dVertex
  10
 0.50000000000000
  20
 0.50000000000000
  30
0.0
  40
 0.15000000000000
  41
 0.15000000000000
   0
SEQEND
   5
67
 100
AcDbEntity
   8
0
   6
BYBLOCK
  62
0
   0
ENDBLK
   5
68
 100
AcDbEntity
   8
0
 100
AcDbBlockEnd
   0
BLOCK
   5
69
 100
AcDbEntity
   8
0
 100
AcDbBlockBegin
   2
_OBLIQUE
  70
0
  10
0.0
  20
0.0
  30
0.0
   3
_OBLIQUE
   0
LINE
   5
6A
 100
AcDbEntity
   8
0
 370
-2
 100
AcDbLine
   6
BYBLOCK
  62
0
  10
-0.50000000000000
  20
-0.50000000000000
  30
0.0
  11
 0.50000000000000
  21
 0.50000000000000
  31
0.0
   0
ENDBLK
   5
6B
 100
AcDbEntity
   8
0
 100
AcDbBlockEnd
   0
BLOCK
   5
6C
 100
AcDbEntity
   8
0
 100
AcDbBlockBegin
   2
_BOXBLANK
  70
0
  10
0.0
  20
0.0
  30
0.0
   3
_BOXBLANK
   0
LINE
   5
6D
 100
AcDbEntity
   8
0
 370
-2
 100
AcDbLine
   6
BYBLOCK
  62
0
  10
-0.50000000000000
  20
-0.50000000000000
  30
0.0
  11
 0.50000000000000
  21
-0.50000000000000
  31
0.0
   0
LINE
   5
6E
 100
AcDbEntity
   8
0
 370
-2
 100
AcDbLine
   6
BYBLOCK
  62
0
  10
 0.50000000000000
  20
-0.50000000000000
  30
0.0
  11
 0.50000000000000
  21
 0.50000000000000
  31
0.0
   0
LINE
   5
6F
 100
AcDbEntity
   8
0
 370
-2
 100
AcDbLine
   6
BYBLOCK
  62
0
  10
 0.50000000000000
  20
 0.50000000000000
  30
0.0
  11
-0.50000000000000
  21
 0.50000000000000
  31
0.0
   0
LINE
   5
70
 100
AcDbEntity
   8
0
 370
-2
 100
AcDbLine
   6
BYBLOCK
  62
0
  10
-0.50000000000000
  20
 0.50000000000000
  30
0.0
  11
-0.50000000000000
  21
-0.50000000000000
  31
0.0
   0
LINE
   5
71
 100
AcDbEntity
   8
0
 370
-2
 100
AcDbLine
   6
BYBLOCK
  62
0
  10
-0.50000000000000
  20
0.0
  30
0.0
  11
-1.0000000000000
  21
0.0
  31
0.0
   0
ENDBLK
   5
72
 100
AcDbEntity
   8
0
 100
AcDbBlockEnd
   0
BLOCK
   5
73
 100
AcDbEntity
   8
0
 100
AcDbBlockBegin
   2
_BOXFILLED
  70
0
  10
0.0
  20
0.0
  30
0.0
   3
_BOXFILLED
   0
SOLID
   5
74
 100
AcDbEntity
   8
0
 100
AcDbTrace
   6
BYBLOCK
  62
0
  10
-0.50000000000000
  20
 0.50000000000000
  30
0.0
  11
 0.50000000000000
  21
 0.50000000000000
  31
0.0
  12
-0.50000000000000
  22
-0.50000000000000
  32
0.0
  13
 0.50000000000000
  23
-0.50000000000000
  33
0.0
   0
LINE
   5
75
 100
AcDbEntity
   8
0
 370
-2
 100
AcDbLine
   6
BYBLOCK
  62
0
  10
-0.50000000000000
  20
0.0
  30
0.0
  11
-1.0000000000000
  21
0.0
  31
0.0
   0
ENDBLK
   5
76
 100
AcDbEntity
   8
0
 100
AcDbBlockEnd
   0
BLOCK
   5
77
 100
AcDbEntity
   8
0
 100
AcDbBlockBegin
   2
_CLOSED
  70
0
  10
0.0
  20
0.0
  30
0.0
   3
_CLOSED
   0
LINE
   5
78
 100
AcDbEntity
   8
0
 370
-2
 100
AcDbLine
   6
BYBLOCK
  62
0
  10
-1.0000000000000
  20
 0.16666666666667
  30
0.0
  11
0.0
  21
0.0
  31
0.0
   0
LINE
   5
79
 100
AcDbEntity
   8
0
 370
-2
 100
AcDbLine
   6
BYBLOCK
  62
0
  10
0.0
  20
0.0
  30
0.0
  11
-1.0000000000000
  21
-0.16666666666667
  31
0.0
   0
LINE
   5
7A
 100
AcDbEntity
   8
0
 370
-2
 100
AcDbLine
   6
BYBLOCK
  62
0
  10
-1.0000000000000
  20
 0.16666666666667
  30
0.0
  11
-1.0000000000000
  21
-0.16666666666667
  31
0.0
   0
LINE
   5
7B
 100
AcDbEntity
   8
0
 370
-2
 100
AcDbLine
   6
BYBLOCK
  62
0
  10
0.0
  20
0.0
  30
0.0
  11
-1.0000000000000
  21
0.0
  31
0.0
   0
ENDBLK
   5
7C
 100
AcDbEntity
   8
0
 100
AcDbBlockEnd
   0
BLOCK
   5
7D
 100
AcDbEntity
   8
0
 100
AcDbBlockBegin
   2
_OPEN
  70
0
  10
0.0
  20
0.0
  30
0.0
   3
_OPEN
   0
LINE
   5
7E
 100
AcDbEntity
   8
0
 370
-2
 100
AcDbLine
   6
BYBLOCK
  62
0
  10
-1.0000000000000
  20
 0.16666666666667
  30
0.0
  11
0.0
  21
0.0
  31
0.0
   0
LINE
   5
7F
 100
AcDbEntity
   8
0
 370
-2
 100
AcDbLine
   6
BYBLOCK
  62
0
  10
0.0
  20
0.0
  30
0.0
  11
-1.0000000000000
  21
-0.16666666666667
  31
0.0
   0
LINE
   5
80
 100
AcDbEntity
   8
0
 370
-2
 100
AcDbLine
   6
BYBLOCK
  62
0
  10
0.0
  20
0.0
  30
0.0
  11
-1.0000000000000
  21
0.0
  31
0.0
   0
ENDBLK
   5
81
 100
AcDbEntity
   8
0
 100
AcDbBlockEnd
   0
BLOCK
   5
82
 100
AcDbEntity
   8
0
 100
AcDbBlockBegin
   2
_OPEN30
  70
0
  10
0.0
  20
0.0
  30
0.0
   3
_OPEN30
   0
LINE
   5
83
 100
AcDbEntity
   8
0
 370
-2
 100
AcDbLine
   6
BYBLOCK
  62
0
  10
-1.0000000000000
  20
 0.26794919243110
  30
0.0
  11
0.0
  21
0.0
  31
0.0
   0
LINE
   5
84
 100
AcDbEntity
   8
0
 370
-2
 100
AcDbLine
   6
BYBLOCK
  62
0
  10
0.0
  20
0.0
  30
0.0
  11
-1.0000000000000
  21
-0.26794919243110
  31
0.0
   0
LINE
   5
85
 100
AcDbEntity
   8
0
 370
-2
 100
AcDbLine
   6
BYBLOCK
  62
0
  10
0.0
  20
0.0
  30
0.0
  11
-1.0000000000000
  21
0.0
  31
0.0
   0
ENDBLK
   5
86
 100
AcDbEntity
   8
0
 100
AcDbBlockEnd
   0
BLOCK
   5
87
 100
AcDbEntity
   8
0
 100
AcDbBlockBegin
   2
_OPEN90
  70
0
  10
0.0
  20
0.0
  30
0.0
   3
_OPEN90
   0
LINE
   5
88
 100
AcDbEntity
   8
0
 370
-2
 100
AcDbLine
   6
BYBLOCK
  62
0
  10
-0.50000000000000
  20
 0.50000000000000
  30
0.0
  11
0.0
  21
0.0
  31
0.0
   0
LINE
   5
89
 100
AcDbEntity
   8
0
 370
-2
 100
AcDbLine
   6
BYBLOCK
  62
0
  10
0.0
  20
0.0
  30
0.0
  11
-0.50000000000000
  21
-0.50000000000000
  31
0.0
   0
LINE
   5
8A
 100
AcDbEntity
   8
0
 370
-2
 100
AcDbLine
   6
BYBLOCK
  62
0
  10
0.0
  20
0.0
  30
0.0
  11
-1.0000000000000
  21
0.0
  31
0.0
   0
ENDBLK
   5
8B
 100
AcDbEntity
   8
0
 100
AcDbBlockEnd
   0
BLOCK
   5
8C
 100
AcDbEntity
   8
0
 100
AcDbBlockBegin
   2
_CLOSEDBLANK
  70
0
  10
0.0
  20
0.0
  30
0.0
   3
_CLOSEDBLANK
   0
LINE
   5
8D
 100
AcDbEntity
   8
0
 370
-2
 100
AcDbLine
   6
BYBLOCK
  62
0
  10
-1.0000000000000
  20
 0.16666666666667
  30
0.0
  11
0.0
  21
0.0
  31
0.0
   0
LINE
   5
8E
 100
AcDbEntity
   8
0
 370
-2
 100
AcDbLine
   6
BYBLOCK
  62
0
  10
0.0
  20
0.0
  30
0.0
  11
-1.0000000000000
  21
-0.16666666666667
  31
0.0
   0
LINE
   5
8F
 100
AcDbEntity
   8
0
 370
-2
 100
AcDbLine
   6
BYBLOCK
  62
0
  10
-1.0000000000000
  20
 0.16666666666667
  30
0.0
  11
-1.0000000000000
  21
-0.16666666666667
  31
0.0
   0
ENDBLK
   5
90
 100
AcDbEntity
   8
0
 100
AcDbBlockEnd
   0
BLOCK
   5
91
 100
AcDbEntity
   8
0
 100
AcDbBlockBegin
   2
_DOT
  70
0
  10
0.0
  20
0.0
  30
0.0
   3
_DOT
   0
POLYLINE
   5
92
 100
AcDbEntity
   8
0
 370
-2
   6
BYBLOCK
  62
0
 100
AcDb2dPolyline
  66
1
  10
0.0
  20
0.0
  30
0.0
  70
1
  40
 0.50000000000000
  41
 0.50000000000000
   0
VERTEX
   5
93
 100
AcDbEntity
   8
0
   6
BYBLOCK
  62
0
 100
AcDbVertex
 100
AcDb2dVertex
  10
-0.25000000000000
  20
0.0
  30
0.0
  42
 1.0000000000000
  40
 0.50000000000000
  41
 0.50000000000000
   0
VERTEX
   5
94
 100
AcDbEntity
   8
0
   6
BYBLOCK
  62
0
 100
AcDbVertex
 100
AcDb2dVertex
  10
 0.25000000000000
  20
0.0
  30
0.0
  42
 1.0000000000000
  40
 0.50000000000000
  41
 0.50000000000000
   0
SEQEND
   5
95
 100
AcDbEntity
   8
0
   6
BYBLOCK
  62
0
   0
LINE
   5
96
 100
AcDbEntity
   8
0
 370
-2
 100
AcDbLine
   6
BYBLOCK
  62
0
  10
-0.50000000000000
  20
0.0
  30
0.0
  11
-1.0000000000000
  21
0.0
  31
0.0
   0
ENDBLK
   5
97
 100
AcDbEntity
   8
0
 100
AcDbBlockEnd
   0
BLOCK
   5
98
 100
AcDbEntity
   8
0
 100
AcDbBlockBegin
   2
_DOTSMALL
  70
0
  10
0.0
  20
0.0
  30
0.0
   3
_DOTSMALL
   0
POLYLINE
   5
99
 100
AcDbEntity
   8
0
 370
-2
   6
BYBLOCK
  62
0
 100
AcDb2dPolyline
  66
1
  10
0.0
  20
0.0
  30
0.0
  70
1
  40
 0.50000000000000
  41
 0.50000000000000
   0
VERTEX
   5
9A
 100
AcDbEntity
   8
0
   6
BYBLOCK
  62
0
 100
AcDbVertex
 100
AcDb2dVertex
  10
-0.62500000000000E-1
  20
0.0
  30
0.0
  42
 1.0000000000000
  40
 0.50000000000000
  41
 0.50000000000000
   0
VERTEX
   5
9B
 100
AcDbEntity
   8
0
   6
BYBLOCK
  62
0
 100
AcDbVertex
 100
AcDb2dVertex
  10
 0.62500000000000E-1
  20
0.0
  30
0.0
  42
 1.0000000000000
  40
 0.50000000000000
  41
 0.50000000000000
   0
SEQEND
   5
9C
 100
AcDbEntity
   8
0
   6
BYBLOCK
  62
0
   0
ENDBLK
   5
9D
 100
AcDbEntity
   8
0
 100
AcDbBlockEnd
   0
BLOCK
   5
9E
 100
AcDbEntity
   8
0
 100
AcDbBlockBegin
   2
_DATUMBLANK
  70
0
  10
0.0
  20
0.0
  30
0.0
   3
_DATUMBLANK
   0
LINE
   5
9F
 100
AcDbEntity
   8
0
 370
-2
 100
AcDbLine
   6
BYBLOCK
  62
0
  10
0.0
  20
 0.57735027000000
  30
0.0
  11
-1.0000000000000
  21
0.0
  31
0.0
   0
LINE
   5
A0
 100
AcDbEntity
   8
0
 370
-2
 100
AcDbLine
   6
BYBLOCK
  62
0
  10
-1.0000000000000
  20
0.0
  30
0.0
  11
0.0
  21
-0.57735027000000
  31
0.0
   0
LINE
   5
A1
 100
AcDbEntity
   8
0
 370
-2
 100
AcDbLine
   6
BYBLOCK
  62
0
  10
0.0
  20
-0.57735027000000
  30
0.0
  11
0.0
  21
 0.57735027000000
  31
0.0
   0
ENDBLK
   5
A2
 100
AcDbEntity
   8
0
 100
AcDbBlockEnd
   0
BLOCK
   5
A3
 100
AcDbEntity
   8
0
 100
AcDbBlockBegin
   2
_DATUMFILLED
  70
0
  10
0.0
  20
0.0
  30
0.0
   3
_DATUMFILLED
   0
SOLID
   5
A4
 100
AcDbEntity
   8
0
 100
AcDbTrace
   6
BYBLOCK
  62
0
  10
0.0
  20
 0.57735027000000
  30
0.0
  11
-1.0000000000000
  21
0.0
  31
0.0
  12
0.0
  22
-0.57735027000000
  32
0.0
  13
0.0
  23
-0.57735027000000
  33
0.0
   0
ENDBLK
   5
A5
 100
AcDbEntity
   8
0
 100
AcDbBlockEnd
   0
BLOCK
   5
A6
 100
AcDbEntity
   8
0
 100
AcDbBlockBegin
   2
_ORIGIN
  70
0
  10
0.0
  20
0.0
  30
0.0
   3
_ORIGIN
   0
CIRCLE
   5
A7
 100
AcDbEntity
   8
0
 370
-2
 100
AcDbCircle
   6
BYBLOCK
  62
0
  10
0.0
  20
0.0
  30
0.0
  40
 0.50000000000000
   0
LINE
   5
A8
 100
AcDbEntity
   8
0
 370
-2
 100
AcDbLine
   6
BYBLOCK
  62
0
  10
0.0
  20
0.0
  30
0.0
  11
-1.0000000000000
  21
0.0
  31
0.0
   0
ENDBLK
   5
A9
 100
AcDbEntity
   8
0
 100
AcDbBlockEnd
   0
BLOCK
   5
AA
 100
AcDbEntity
   8
0
 100
AcDbBlockBegin
   2
_NONE
  70
0
  10
0.0
  20
0.0
  30
0.0
   3
_NONE
   0
CIRCLE
   5
AB
 100
AcDbEntity
   8
0
 370
-2
 100
AcDbCircle
   6
BYBLOCK
  62
0
  10
0.0
  20
0.0
  30
0.0
  40
 0.25000000000000
   0
ENDBLK
   5
AC
 100
AcDbEntity
   8
0
 100
AcDbBlockEnd
   0
BLOCK
   5
AD
 100
AcDbEntity
   8
0
 100
AcDbBlockBegin
   2
_DOTBLANK
  70
0
  10
0.0
  20
0.0
  30
0.0
   3
_DOTBLANK
   0
CIRCLE
   5
AE
 100
AcDbEntity
   8
0
 370
-2
 100
AcDbCircle
   6
BYBLOCK
  62
0
  10
0.0
  20
0.0
  30
0.0
  40
 0.50000000000000
   0
LINE
   5
AF
 100
AcDbEntity
   8
0
 370
-2
 100
AcDbLine
   6
BYBLOCK
  62
0
  10
-0.50000000000000
  20
0.0
  30
0.0
  11
-1.0000000000000
  21
0.0
  31
0.0
   0
ENDBLK
   5
B0
 100
AcDbEntity
   8
0
 100
AcDbBlockEnd
   0
BLOCK
   5
B1
 100
AcDbEntity
   8
0
 100
AcDbBlockBegin
   2
_INTEGRAL
  70
0
  10
0.0
  20
0.0
  30
0.0
   3
_INTEGRAL
   0
ARC
   5
B2
 100
AcDbEntity
   8
0
 370
-2
   6
BYBLOCK
  62
0
 100
AcDbCircle
  10
 0.44488800000000
  20
-0.91335000000000E-1
  30
0.0
  40
 0.45416700000000
 100
AcDbArc
  50
 102.00000000000
  51
 168.00000000000
   0
ARC
   5
B3
 100
AcDbEntity
   8
0
 370
-2
   6
BYBLOCK
  62
0
 100
AcDbCircle
  10
-0.44488800000000
  20
 0.91335000000000E-1
  30
0.0
  40
 0.45416700000000
 100
AcDbArc
  50
 282.00000000000
  51
 348.00000000000
   0
ENDBLK
   5
B4
 100
AcDbEntity
   8
0
 100
AcDbBlockEnd
   0
BLOCK
   5
B5
 100
AcDbEntity
   8
0
 100
AcDbBlockBegin
   2
*D1
  70
65
  10
0.0
  20
0.0
  30
0.0
   3
*D1
   0
LINE
   5
B6
 100
AcDbEntity
   8
LEVEL001
 370
9
 100
AcDbLine
   6
CONTINUOUS
  62
6
  10
 1846.4101621420
  20
 4869.9997342197
  30
0.0
  11
 1499.9998474121
  21
 4670.0000000000
  31
0.0
   0
LINE
   5
B7
 100
AcDbEntity
   8
LEVEL001
 370
9
 100
AcDbLine
   6
CONTINUOUS
  62
6
  10
 1499.9998474121
  20
 4670.0000000000
  30
0.0
  11
 1153.5895326822
  21
 4470.0002657803
  31
0.0
   0
INSERT
   5
B8
 100
AcDbEntity
   8
LEVEL001
   6
CONTINUOUS
  62
6
 100
AcDbBlockReference
   2
_OPEN
  10
 1846.4101621420
  20
 4869.9997342197
  30
0.0
  41
 30.000000000000
  42
 30.000000000000
  43
 30.000000000000
  50
 29.999956056924
   0
INSERT
   5
B9
 100
AcDbEntity
   8
LEVEL001
   6
CONTINUOUS
  62
6
 100
AcDbBlockReference
   2
_OPEN
  10
 1153.5895326822
  20
 4470.0002657803
  30
0.0
  41
 30.000000000000
  42
 30.000000000000
  43
 30.000000000000
  50
 209.99995605692
   0
MTEXT
   5
BA
 100
AcDbEntity
   8
LEVEL001
 370
13
  62
1
 100
AcDbMText
  10
 1485.8570090566
  20
 4694.4961579825
  30
0.0
  40
 66.000000000000
  41
0.0
  71
8
  72
1
   1
\A1;%%c800
   7
GMM004
  11
 0.86602578725987
  21
 0.49999933580048
  31
0.0
   0
ENDBLK
   5
BB
 100
AcDbEntity
   8
0
 100
AcDbBlockEnd
   0
BLOCK
   5
BC
 100
AcDbEntity
   8
0
 100
AcDbBlockBegin
   2
*D8
  70
65
  10
0.0
  20
0.0
  30
0.0
   3
*D8
   0
LINE
   5
BD
 100
AcDbEntity
   8
LEVEL001
 370
9
 100
AcDbLine
   6
CONTINUOUS
  62
6
  10
 1220.0000000000
  20
 769.99921545549
  30
0.0
  11
 720.00000000000
  21
 769.99921545549
  31
0.0
   0
LINE
   5
BE
 100
AcDbEntity
   8
LEVEL001
 370
9
 100
AcDbLine
   6
CONTINUOUS
  62
6
  10
 750.00000000000
  20
 769.99921545549
  30
0.0
  11
 750.00000000000
  21
 819.99921545549
  31
0.0
   0
LINE
   5
BF
 100
AcDbEntity
   8
LEVEL001
 370
9
 100
AcDbLine
   6
CONTINUOUS
  62
6
  10
 750.00000000000
  20
 869.99921545549
  30
0.0
  11
 750.00000000000
  21
 819.99921545549
  31
0.0
   0
INSERT
   5
C0
 100
AcDbEntity
   8
LEVEL001
   6
CONTINUOUS
  62
6
 100
AcDbBlockReference
   2
_OPEN
  10
 750.00000000000
  20
 769.99921545549
  30
0.0
  41
 30.000000000000
  42
 30.000000000000
  43
 30.000000000000
  50
 270.00000000000
   0
INSERT
   5
C1
 100
AcDbEntity
   8
LEVEL001
   6
CONTINUOUS
  62
6
 100
AcDbBlockReference
   2
_OPEN
  10
 750.00000000000
  20
 869.99921545549
  30
0.0
  41
 30.000000000000
  42
 30.000000000000
  43
 30.000000000000
  50
 90.000000000000
   0
MTEXT
   5
C2
 100
AcDbEntity
   8
LEVEL001
 370
13
  62
1
 100
AcDbMText
  10
 721.71428571429
  20
 819.99921545549
  30
0.0
  40
 66.000000000000
  41
0.0
  71
8
  72
1
   1
\A1;100
   7
GMM004
  11
0.0
  21
 1.0000000000000
  31
0.0
   0
ENDBLK
   5
C3
 100
AcDbEntity
   8
0
 100
AcDbBlockEnd
   0
BLOCK
   5
C4
 100
AcDbEntity
   8
0
 100
AcDbBlockBegin
   2
*D9
  70
65
  10
0.0
  20
0.0
  30
0.0
   3
*D9
   0
LINE
   5
C5
 100
AcDbEntity
   8
LEVEL001
 370
9
 100
AcDbLine
   6
CONTINUOUS
  62
6
  10
 1220.0000000000
  20
 869.99921545549
  30
0.0
  11
 720.00000000000
  21
 869.99921545549
  31
0.0
   0
LINE
   5
C6
 100
AcDbEntity
   8
LEVEL001
 370
9
 100
AcDbLine
   6
CONTINUOUS
  62
6
  10
 750.00000000000
  20
 869.99921545549
  30
0.0
  11
 750.00000000000
  21
 1319.9992154555
  31
0.0
   0
LINE
   5
C7
 100
AcDbEntity
   8
LEVEL001
 370
9
 100
AcDbLine
   6
CONTINUOUS
  62
6
  10
 750.00000000000
  20
 1769.9992154555
  30
0.0
  11
 750.00000000000
  21
 1319.9992154555
  31
0.0
   0
INSERT
   5
C8
 100
AcDbEntity
   8
LEVEL001
   6
CONTINUOUS
  62
6
 100
AcDbBlockReference
   2
_OPEN
  10
 750.00000000000
  20
 869.99921545549
  30
0.0
  41
 30.000000000000
  42
 30.000000000000
  43
 30.000000000000
  50
 270.00000000000
   0
INSERT
   5
C9
 100
AcDbEntity
   8
LEVEL001
   6
CONTINUOUS
  62
6
 100
AcDbBlockReference
   2
_OPEN
  10
 750.00000000000
  20
 1769.9992154555
  30
0.0
  41
 30.000000000000
  42
 30.000000000000
  43
 30.000000000000
  50
 90.000000000000
   0
MTEXT
   5
CA
 100
AcDbEntity
   8
LEVEL001
 370
13
  62
1
 100
AcDbMText
  10
 721.71428571429
  20
 1319.9992154555
  30
0.0
  40
 66.000000000000
  41
0.0
  71
8
  72
1
   1
\A1;900
   7
GMM004
  11
0.0
  21
 1.0000000000000
  31
0.0
   0
ENDBLK
   5
CB
 100
AcDbEntity
   8
0
 100
AcDbBlockEnd
   0
BLOCK
   5
CC
 100
AcDbEntity
   8
0
 100
AcDbBlockBegin
   2
*D10
  70
65
  10
0.0
  20
0.0
  30
0.0
   3
*D10
   0
LINE
   5
CD
 100
AcDbEntity
   8
LEVEL001
 370
9
 100
AcDbLine
   6
CONTINUOUS
  62
6
  10
 970.00000000000
  20
 1769.9992154555
  30
0.0
  11
 720.00000000000
  21
 1769.9992154555
  31
0.0
   0
LINE
   5
CE
 100
AcDbEntity
   8
LEVEL001
 370
9
 100
AcDbLine
   6
CONTINUOUS
  62
6
  10
 1469.9999999999
  20
 4270.0000002139
  30
0.0
  11
 720.00000000000
  21
 4270.0000002139
  31
0.0
   0
LINE
   5
CF
 100
AcDbEntity
   8
LEVEL001
 370
9
 100
AcDbLine
   6
CONTINUOUS
  62
6
  10
 750.00000000000
  20
 1769.9992154555
  30
0.0
  11
 750.00000000000
  21
 3019.9996078347
  31
0.0
   0
LINE
   5
D0
 100
AcDbEntity
   8
LEVEL001
 370
9
 100
AcDbLine
   6
CONTINUOUS
  62
6
  10
 750.00000000000
  20
 4270.0000002139
  30
0.0
  11
 750.00000000000
  21
 3019.9996078347
  31
0.0
   0
INSERT
   5
D1
 100
AcDbEntity
   8
LEVEL001
   6
CONTINUOUS
  62
6
 100
AcDbBlockReference
   2
_OPEN
  10
 750.00000000000
  20
 1769.9992154555
  30
0.0
  41
 30.000000000000
  42
 30.000000000000
  43
 30.000000000000
  50
 270.00000000000
   0
INSERT
   5
D2
 100
AcDbEntity
   8
LEVEL001
   6
CONTINUOUS
  62
6
 100
AcDbBlockReference
   2
_OPEN
  10
 750.00000000000
  20
 4270.0000002139
  30
0.0
  41
 30.000000000000
  42
 30.000000000000
  43
 30.000000000000
  50
 90.000000000000
   0
MTEXT
   5
D3
 100
AcDbEntity
   8
LEVEL001
 370
13
  62
1
 100
AcDbMText
  10
 721.71428571429
  20
 3019.9996078347
  30
0.0
  40
 66.000000000000
  41
0.0
  71
8
  72
1
   1
\A1;2500(標準設置高さ)
   7
GMM004
  11
0.0
  21
 1.0000000000000
  31
0.0
   0
ENDBLK
   5
D4
 100
AcDbEntity
   8
0
 100
AcDbBlockEnd
   0
BLOCK
   5
D5
 100
AcDbEntity
   8
0
 100
AcDbBlockBegin
   2
*D13
  70
65
  10
0.0
  20
0.0
  30
0.0
   3
*D13
   0
LINE
   5
D6
 100
AcDbEntity
   8
LEVEL001
 370
9
 100
AcDbLine
   6
CONTINUOUS
  62
6
  10
 1250.0000000000
  20
 739.99921545549
  30
0.0
  11
 1250.0000000000
  21
 489.99921545549
  31
0.0
   0
LINE
   5
D7
 100
AcDbEntity
   8
LEVEL001
 370
9
 100
AcDbLine
   6
CONTINUOUS
  62
6
  10
 1750.0000000000
  20
 739.99921545549
  30
0.0
  11
 1750.0000000000
  21
 489.99921545549
  31
0.0
   0
LINE
   5
D8
 100
AcDbEntity
   8
LEVEL001
 370
9
 100
AcDbLine
   6
CONTINUOUS
  62
6
  10
 1250.0000000000
  20
 519.99921545549
  30
0.0
  11
 1500.0000000000
  21
 519.99921545549
  31
0.0
   0
LINE
   5
D9
 100
AcDbEntity
   8
LEVEL001
 370
9
 100
AcDbLine
   6
CONTINUOUS
  62
6
  10
 1750.0000000000
  20
 519.99921545549
  30
0.0
  11
 1500.0000000000
  21
 519.99921545549
  31
0.0
   0
INSERT
   5
DA
 100
AcDbEntity
   8
LEVEL001
   6
CONTINUOUS
  62
6
 100
AcDbBlockReference
   2
_OPEN
  10
 1250.0000000000
  20
 519.99921545549
  30
0.0
  41
 30.000000000000
  42
 30.000000000000
  43
 30.000000000000
  50
 180.00000000000
   0
INSERT
   5
DB
 100
AcDbEntity
   8
LEVEL001
   6
CONTINUOUS
  62
6
 100
AcDbBlockReference
   2
_OPEN
  10
 1750.0000000000
  20
 519.99921545549
  30
0.0
  41
 30.000000000000
  42
 30.000000000000
  43
 30.000000000000
  50
0.0
   0
MTEXT
   5
DC
 100
AcDbEntity
   8
LEVEL001
 370
13
  62
1
 100
AcDbMText
  10
 1500.0000000000
  20
 548.28492974120
  30
0.0
  40
 66.000000000000
  41
0.0
  71
8
  72
1
   1
\A1;□500
   7
GMM004
   0
ENDBLK
   5
DD
 100
AcDbEntity
   8
0
 100
AcDbBlockEnd
   0
BLOCK
   5
DE
 100
AcDbEntity
   8
0
 100
AcDbBlockBegin
   2
*D15
  70
65
  10
0.0
  20
0.0
  30
0.0
   3
*D15
   0
LINE
   5
DF
 100
AcDbEntity
   8
LEVEL001
 370
9
 100
AcDbLine
   6
CONTINUOUS
  62
6
  10
 2400.0000000000
  20
 739.99921545549
  30
0.0
  11
 2400.0000000000
  21
 489.99921545549
  31
0.0
   0
LINE
   5
E0
 100
AcDbEntity
   8
LEVEL001
 370
9
 100
AcDbLine
   6
CONTINUOUS
  62
6
  10
 2900.0000000000
  20
 739.99921545549
  30
0.0
  11
 2900.0000000000
  21
 489.99921545549
  31
0.0
   0
LINE
   5
E1
 100
AcDbEntity
   8
LEVEL001
 370
9
 100
AcDbLine
   6
CONTINUOUS
  62
6
  10
 2400.0000000000
  20
 519.99921545549
  30
0.0
  11
 2650.0000000000
  21
 519.99921545549
  31
0.0
   0
LINE
   5
E2
 100
AcDbEntity
   8
LEVEL001
 370
9
 100
AcDbLine
   6
CONTINUOUS
  62
6
  10
 2900.0000000000
  20
 519.99921545549
  30
0.0
  11
 2650.0000000000
  21
 519.99921545549
  31
0.0
   0
INSERT
   5
E3
 100
AcDbEntity
   8
LEVEL001
   6
CONTINUOUS
  62
6
 100
AcDbBlockReference
   2
_OPEN
  10
 2400.0000000000
  20
 519.99921545549
  30
0.0
  41
 30.000000000000
  42
 30.000000000000
  43
 30.000000000000
  50
 180.00000000000
   0
INSERT
   5
E4
 100
AcDbEntity
   8
LEVEL001
   6
CONTINUOUS
  62
6
 100
AcDbBlockReference
   2
_OPEN
  10
 2900.0000000000
  20
 519.99921545549
  30
0.0
  41
 30.000000000000
  42
 30.000000000000
  43
 30.000000000000
  50
0.0
   0
MTEXT
   5
E5
 100
AcDbEntity
   8
LEVEL001
 370
13
  62
1
 100
AcDbMText
  10
 2650.0000000000
  20
 548.28492974120
  30
0.0
  40
 66.000000000000
  41
0.0
  71
8
  72
1
   1
\A1;□500
   7
GMM004
   0
ENDBLK
   5
E6
 100
AcDbEntity
   8
0
 100
AcDbBlockEnd
   0
BLOCK
   5
E7
 100
AcDbEntity
   8
0
 100
AcDbBlockBegin
   2
*D21
  70
65
  10
0.0
  20
0.0
  30
0.0
   3
*D21
   0
LINE
   5
E8
 100
AcDbEntity
   8
LEVEL001
 370
9
 100
AcDbLine
   6
CONTINUOUS
  62
6
  10
 3000.0000000000
  20
 4039.9992154554
  30
0.0
  11
 3000.0000000000
  21
 2489.9992154555
  31
0.0
   0
LINE
   5
E9
 100
AcDbEntity
   8
LEVEL001
 370
9
 100
AcDbLine
   6
CONTINUOUS
  62
6
  10
 2650.0000000000
  20
 2519.9992154555
  30
0.0
  11
 2825.0000000000
  21
 2519.9992154555
  31
0.0
   0
LINE
   5
EA
 100
AcDbEntity
   8
LEVEL001
 370
9
 100
AcDbLine
   6
CONTINUOUS
  62
6
  10
 3000.0000000000
  20
 2519.9992154555
  30
0.0
  11
 2825.0000000000
  21
 2519.9992154555
  31
0.0
   0
INSERT
   5
EB
 100
AcDbEntity
   8
LEVEL001
   6
CONTINUOUS
  62
6
 100
AcDbBlockReference
   2
_OPEN
  10
 2650.0000000000
  20
 2519.9992154555
  30
0.0
  41
 30.000000000000
  42
 30.000000000000
  43
 30.000000000000
  50
 180.00000000000
   0
INSERT
   5
EC
 100
AcDbEntity
   8
LEVEL001
   6
CONTINUOUS
  62
6
 100
AcDbBlockReference
   2
_OPEN
  10
 3000.0000000000
  20
 2519.9992154555
  30
0.0
  41
 30.000000000000
  42
 30.000000000000
  43
 30.000000000000
  50
0.0
   0
MTEXT
   5
ED
 100
AcDbEntity
   8
LEVEL001
 370
13
  62
1
 100
AcDbMText
  10
 2825.0000000000
  20
 2548.2849297412
  30
0.0
  40
 66.000000000000
  41
0.0
  71
8
  72
1
   1
\A1;350
   7
GMM004
   0
ENDBLK
   5
EE
 100
AcDbEntity
   8
0
 100
AcDbBlockEnd
   0
ENDSEC
   0
SECTION
   2
ENTITIES
   0
LINE
   5
EF
 100
AcDbEntity
   8
LEVEL001
 370
9
 100
AcDbLine
   6
CONTINUOUS
  62
6
  10
 5710.9090909091
  20
 1650.0000000000
  30
0.0
  11
 8226.6668701172
  21
 1650.0000000000
  31
0.0
   0
LINE
   5
F0
 100
AcDbEntity
   8
LEVEL001
 370
9
 100
AcDbLine
   6
CONTINUOUS
  62
6
  10
 5710.9090909091
  20
 1780.0000000000
  30
0.0
  11
 8226.6668701172
  21
 1780.0000000000
  31
0.0
   0
LINE
   5
F1
 100
AcDbEntity
   8
LEVEL001
 370
9
 100
AcDbLine
   6
CONTINUOUS
  62
6
  10
 5710.9090909091
  20
 1910.0000000000
  30
0.0
  11
 8226.6668701172
  21
 1910.0000000000
  31
0.0
   0
LINE
   5
F2
 100
AcDbEntity
   8
LEVEL001
 370
9
 100
AcDbLine
   6
CONTINUOUS
  62
6
  10
 5710.9090909091
  20
 2040.0000000000
  30
0.0
  11
 8226.6668701172
  21
 2040.0000000000
  31
0.0
   0
LINE
   5
F3
 100
AcDbEntity
   8
LEVEL001
 370
9
 100
AcDbLine
   6
CONTINUOUS
  62
6
  10
 5710.9090909091
  20
 2170.0000000000
  30
0.0
  11
 8226.6668701172
  21
 2170.0000000000
  31
0.0
   0
LINE
   5
F4
 100
AcDbEntity
   8
LEVEL001
 370
9
 100
AcDbLine
   6
CONTINUOUS
  62
6
  10
 5710.9090909091
  20
 2300.0000000000
  30
0.0
  11
 8226.6668701172
  21
 2300.0000000000
  31
0.0
   0
LINE
   5
F5
 100
AcDbEntity
   8
LEVEL001
 370
9
 100
AcDbLine
   6
CONTINUOUS
  62
6
  10
 5710.9090909091
  20
 2430.0000000000
  30
0.0
  11
 8226.6668701172
  21
 2430.0000000000
  31
0.0
   0
LINE
   5
F6
 100
AcDbEntity
   8
LEVEL001
 370
9
 100
AcDbLine
   6
CONTINUOUS
  62
6
  10
 5710.9090909091
  20
 2560.0000000000
  30
0.0
  11
 8226.6668701172
  21
 2560.0000000000
  31
0.0
   0
LINE
   5
F7
 100
AcDbEntity
   8
LEVEL001
 370
9
 100
AcDbLine
   6
CONTINUOUS
  62
6
  10
 5710.9090909091
  20
 2690.0000000000
  30
0.0
  11
 8226.6668701172
  21
 2690.0000000000
  31
0.0
   0
LINE
   5
F8
 100
AcDbEntity
   8
LEVEL001
 370
9
 100
AcDbLine
   6
CONTINUOUS
  62
6
  10
 5710.9090909091
  20
 2960.0000000000
  30
0.0
  11
 8226.6668701172
  21
 2960.0000000000
  31
0.0
   0
LINE
   5
F9
 100
AcDbEntity
   8
LEVEL001
 370
9
 100
AcDbLine
   6
CONTINUOUS
  62
6
  10
 5710.9090909091
  20
 3260.0000000000
  30
0.0
  11
 8226.6668701172
  21
 3260.0000000000
  31
0.0
   0
LINE
   5
FA
 100
AcDbEntity
   8
LEVEL001
 370
9
 100
AcDbLine
   6
CONTINUOUS
  62
6
  10
 5710.9090909091
  20
 1520.0000000000
  30
0.0
  11
 8226.6668701172
  21
 1520.0000000000
  31
0.0
   0
LINE
   5
FB
 100
AcDbEntity
   8
LEVEL001
 370
9
 100
AcDbLine
   6
CONTINUOUS
  62
6
  10
 5710.9090909091
  20
 1390.0000000000
  30
0.0
  11
 8226.6668701172
  21
 1390.0000000000
  31
0.0
   0
LINE
   5
FC
 100
AcDbEntity
   8
LEVEL001
 370
9
 100
AcDbLine
   6
CONTINUOUS
  62
6
  10
 5710.9090909091
  20
 1260.0000000000
  30
0.0
  11
 8226.6668701172
  21
 1260.0000000000
  31
0.0
   0
LINE
   5
FD
 100
AcDbEntity
   8
LEVEL001
 370
9
 100
AcDbLine
   6
CONTINUOUS
  62
6
  10
 5710.9090909091
  20
 1130.0000000000
  30
0.0
  11
 8226.6668701172
  21
 1130.0000000000
  31
0.0
   0
LINE
   5
FE
 100
AcDbEntity
   8
LEVEL001
 370
9
 100
AcDbLine
   6
CONTINUOUS
  62
6
  10
 5710.9090909091
  20
 870.00000000000
  30
0.0
  11
 5710.9090909091
  21
 3260.0000000000
  31
0.0
   0
LINE
   5
FF
 100
AcDbEntity
   8
LEVEL001
 370
9
 100
AcDbLine
   6
CONTINUOUS
  62
6
  10
 5910.9090909091
  20
 2960.0000000000
  30
0.0
  11
 5910.9090909091
  21
 870.00000000000
  31
0.0
   0
LINE
   5
100
 100
AcDbEntity
   8
LEVEL001
 370
9
 100
AcDbLine
   6
CONTINUOUS
  62
6
  10
 6760.9090909091
  20
 2960.0000000000
  30
0.0
  11
 6760.9090909091
  21
 870.00000000000
  31
0.0
   0
LINE
   5
101
 100
AcDbEntity
   8
LEVEL001
 370
9
 100
AcDbLine
   6
CONTINUOUS
  62
6
  10
 6960.9090909091
  20
 2960.0000000000
  30
0.0
  11
 6960.9090909091
  21
 870.00000000000
  31
0.0
   0
LINE
   5
102
 100
AcDbEntity
   8
LEVEL001
 370
9
 100
AcDbLine
   6
CONTINUOUS
  62
6
  10
 7460.9090909091
  20
 2960.0000000000
  30
0.0
  11
 7460.9090909091
  21
 870.00000000000
  31
0.0
   0
MTEXT
   5
104
 100
AcDbEntity
   8
LEVEL001
 370
13
  62
1
 100
AcDbMText
  10
 5881.8880646631
  20
 1153.5736076959
  30
0.0
  40
 80.000000000000
  41
0.0
  71
9
  72
1
   1
\T1.000000;１３
   7
GMM001
  44
 0.79999984000003
   0
MTEXT
   5
106
 100
AcDbEntity
   8
LEVEL001
 370
13
  62
1
 100
AcDbMText
  10
 5881.8880646631
  20
 1283.5736076959
  30
0.0
  40
 80.000000000000
  41
0.0
  71
9
  72
1
   1
\T1.000000;１２
   7
GMM001
  44
 0.79999984000003
   0
MTEXT
   5
108
 100
AcDbEntity
   8
LEVEL001
 370
13
  62
1
 100
AcDbMText
  10
 5881.8880646631
  20
 1413.5736076959
  30
0.0
  40
 80.000000000000
  41
0.0
  71
9
  72
1
   1
\T1.000000;１１
   7
GMM001
  44
 0.79999984000003
   0
MTEXT
   5
10A
 100
AcDbEntity
   8
LEVEL001
 370
13
  62
1
 100
AcDbMText
  10
 5881.8880646631
  20
 1543.5736076959
  30
0.0
  40
 80.000000000000
  41
0.0
  71
9
  72
1
   1
\T1.000000;１０
   7
GMM001
  44
 0.79999984000003
   0
MTEXT
   5
10C
 100
AcDbEntity
   8
LEVEL001
 370
13
  62
1
 100
AcDbMText
  10
 5881.8880646631
  20
 1673.5736076959
  30
0.0
  40
 80.000000000000
  41
0.0
  71
9
  72
1
   1
\T1.000000;９
   7
GMM001
  44
 0.79999984000003
   0
MTEXT
   5
10E
 100
AcDbEntity
   8
LEVEL001
 370
13
  62
1
 100
AcDbMText
  10
 5881.8880646631
  20
 1803.5736076959
  30
0.0
  40
 80.000000000000
  41
0.0
  71
9
  72
1
   1
\T1.000000;８
   7
GMM001
  44
 0.79999984000003
   0
MTEXT
   5
110
 100
AcDbEntity
   8
LEVEL001
 370
13
  62
1
 100
AcDbMText
  10
 5881.8880646631
  20
 1933.5736076959
  30
0.0
  40
 80.000000000000
  41
0.0
  71
9
  72
1
   1
\T1.000000;７
   7
GMM001
  44
 0.79999984000003
   0
MTEXT
   5
112
 100
AcDbEntity
   8
LEVEL001
 370
13
  62
1
 100
AcDbMText
  10
 5881.8880646631
  20
 2063.5736076959
  30
0.0
  40
 80.000000000000
  41
0.0
  71
9
  72
1
   1
\T1.000000;６
   7
GMM001
  44
 0.79999984000003
   0
MTEXT
   5
114
 100
AcDbEntity
   8
LEVEL001
 370
13
  62
1
 100
AcDbMText
  10
 5881.8880646631
  20
 2193.5736076959
  30
0.0
  40
 80.000000000000
  41
0.0
  71
9
  72
1
   1
\T1.000000;５
   7
GMM001
  44
 0.79999984000003
   0
MTEXT
   5
116
 100
AcDbEntity
   8
LEVEL001
 370
13
  62
1
 100
AcDbMText
  10
 5881.8880646631
  20
 2323.5736076959
  30
0.0
  40
 80.000000000000
  41
0.0
  71
9
  72
1
   1
\T1.000000;４
   7
GMM001
  44
 0.79999984000003
   0
MTEXT
   5
118
 100
AcDbEntity
   8
LEVEL001
 370
13
  62
1
 100
AcDbMText
  10
 5881.8880646631
  20
 2453.5736076959
  30
0.0
  40
 80.000000000000
  41
0.0
  71
9
  72
1
   1
\T1.000000;３
   7
GMM001
  44
 0.79999984000003
   0
MTEXT
   5
11A
 100
AcDbEntity
   8
LEVEL001
 370
13
  62
1
 100
AcDbMText
  10
 6931.8880646631
  20
 2453.5736076959
  30
0.0
  40
 80.000000000000
  41
0.0
  71
9
  72
1
   1
\T1.000000;１
   7
GMM002
  44
 0.79999984000003
   0
MTEXT
   5
11C
 100
AcDbEntity
   8
LEVEL001
 370
13
  62
1
 100
AcDbMText
  10
 5960.9090909091
  20
 2453.5736076959
  30
0.0
  40
 80.000000000000
  41
0.0
  71
7
  72
1
   1
\T1.000000;フード
   7
GMM002
  44
 0.79999984000003
   0
MTEXT
   5
11E
 100
AcDbEntity
   8
LEVEL001
 370
13
  62
1
 100
AcDbMText
  10
 5881.8880646631
  20
 2583.5736076959
  30
0.0
  40
 80.000000000000
  41
0.0
  71
9
  72
1
   1
\T1.000000;２
   7
GMM001
  44
 0.79999984000003
   0
MTEXT
   5
120
 100
AcDbEntity
   8
LEVEL001
 370
13
  62
1
 100
AcDbMText
  10
 6931.8880646631
  20
 2583.5736076959
  30
0.0
  40
 80.000000000000
  41
0.0
  71
9
  72
1
   1
\T1.000000;１
   7
GMM002
  44
 0.79999984000003
   0
MTEXT
   5
122
 100
AcDbEntity
   8
LEVEL001
 370
13
  62
1
 100
AcDbMText
  10
 5960.9090909091
  20
 2583.5736076959
  30
0.0
  40
 80.000000000000
  41
0.0
  71
7
  72
1
   1
\T1.000000;バックプレート
   7
GMM002
  44
 0.79999984000003
   0
MTEXT
   5
124
 100
AcDbEntity
   8
LEVEL001
 370
13
  62
1
 100
AcDbMText
  10
 5881.8880646631
  20
 2713.5736076959
  30
0.0
  40
 80.000000000000
  41
0.0
  71
9
  72
1
   1
\T1.000000;１
   7
GMM001
  44
 0.79999984000003
   0
MTEXT
   5
126
 100
AcDbEntity
   8
LEVEL001
 370
13
  62
1
 100
AcDbMText
  10
 6931.8880646631
  20
 2713.5736076959
  30
0.0
  40
 80.000000000000
  41
0.0
  71
9
  72
1
   1
\T1.000000;１
   7
GMM002
  44
 0.79999984000003
   0
MTEXT
   5
128
 100
AcDbEntity
   8
LEVEL001
 370
13
  62
1
 100
AcDbMText
  10
 6860.9090909091
  20
 2890.0000000000
  30
0.0
  40
 80.000000000000
  41
0.0
  71
5
  72
1
   1
\T1.000000;個数
   7
GMM002
  44
 0.79999984000003
   0
MTEXT
   5
12A
 100
AcDbEntity
   8
LEVEL001
 370
13
  62
1
 100
AcDbMText
  10
 7210.9090909091
  20
 2890.0000000000
  30
0.0
  40
 80.000000000000
  41
0.0
  71
5
  72
1
   1
\T1.000000;材　　質
   7
GMM002
  44
 0.79999984000003
   0
MTEXT
   5
12C
 100
AcDbEntity
   8
LEVEL001
 370
13
  62
1
 100
AcDbMText
  10
 6335.9090909091
  20
 2890.0000000000
  30
0.0
  40
 80.000000000000
  41
0.0
  71
5
  72
1
   1
\T1.000000;名　　称
   7
GMM002
  44
 0.79999984000003
   0
MTEXT
   5
12E
 100
AcDbEntity
   8
LEVEL001
 370
13
  62
1
 100
AcDbMText
  10
 5960.9090909091
  20
 2713.5736076959
  30
0.0
  40
 80.000000000000
  41
0.0
  71
7
  72
1
   1
\T1.000000;鏡面　Ｒ＝３０００
   7
GMM002
  44
 0.79999984000003
   0
MTEXT
   5
130
 100
AcDbEntity
   8
LEVEL001
 370
13
  62
1
 100
AcDbMText
  10
 5876.3369483847
  20
 3002.1545397593
  30
0.0
  40
 80.000000000000
  41
0.0
  71
7
  72
1
   1
%%c\T1.000000;８００（シングル）
   7
GMM003
  44
 0.79999984000003
   0
MTEXT
   5
132
 100
AcDbEntity
   8
LEVEL001
 370
13
  62
1
 100
AcDbMText
  10
 5876.3369483847
  20
 3139.5068305878
  30
0.0
  40
 80.000000000000
  41
0.0
  71
7
  72
1
   1
\T1.000000;アクリルミラー
   7
GMM003
  44
 0.79999984000003
   0
MTEXT
   5
134
 100
AcDbEntity
   8
LEVEL001
 370
13
  62
1
 100
AcDbMText
  10
 7010.9090909091
  20
 2713.5736076959
  30
0.0
  40
 80.000000000000
  41
0.0
  71
7
  72
1
   1
\T1.000000;ＰＭＭＡ
   7
GMM002
  44
 0.79999984000003
   0
MTEXT
   5
136
 100
AcDbEntity
   8
LEVEL001
 370
13
  62
1
 100
AcDbMText
  10
 7010.9090909091
  20
 2583.5736076959
  30
0.0
  40
 80.000000000000
  41
0.0
  71
7
  72
1
   1
\T1.000000;ＦＲＰ
   7
GMM002
  44
 0.79999984000003
   0
MTEXT
   5
138
 100
AcDbEntity
   8
LEVEL001
 370
13
  62
1
 100
AcDbMText
  10
 7010.9090909091
  20
 2453.5736076959
  30
0.0
  40
 80.000000000000
  41
0.0
  71
7
  72
1
   1
\T1.000000;ＰＣ
   7
GMM002
  44
 0.79999984000003
   0
LINE
   5
139
 100
AcDbEntity
   8
LEVEL001
 370
9
 100
AcDbLine
   6
CONTINUOUS
  62
6
  10
 5710.9090909091
  20
 1000.0000000000
  30
0.0
  11
 8226.6668701172
  21
 1000.0000000000
  31
0.0
   0
MTEXT
   5
13B
 100
AcDbEntity
   8
LEVEL001
 370
13
  62
1
 100
AcDbMText
  10
 5960.9090909091
  20
 893.57360769589
  30
0.0
  40
 80.000000000000
  41
0.0
  71
7
  72
1
   1
\T1.000000;同上ボルトナット
   7
GMM002
  44
 0.79999984000003
   0
MTEXT
   5
13D
 100
AcDbEntity
   8
LEVEL001
 370
13
  62
1
 100
AcDbMText
  10
 5960.9090909091
  20
 1023.5736076959
  30
0.0
  40
 80.000000000000
  41
0.0
  71
7
  72
1
   1
\T1.000000;注意板取付バンド
   7
GMM002
  44
 0.79999984000003
   0
MTEXT
   5
13F
 100
AcDbEntity
   8
LEVEL001
 370
13
  62
1
 100
AcDbMText
  10
 5960.9090909091
  20
 1283.5736076959
  30
0.0
  40
 80.000000000000
  41
0.0
  71
7
  72
1
   1
\T1.000000;キャップ
   7
GMM002
  44
 0.79999984000003
   0
MTEXT
   5
141
 100
AcDbEntity
   8
LEVEL001
 370
13
  62
1
 100
AcDbMText
  10
 6931.8880646631
  20
 1283.5736076959
  30
0.0
  40
 80.000000000000
  41
0.0
  71
9
  72
1
   1
\T1.000000;１
   7
GMM002
  44
 0.79999984000003
   0
MTEXT
   5
143
 100
AcDbEntity
   8
LEVEL001
 370
13
  62
1
 100
AcDbMText
  10
 7010.9090909091
  20
 1283.5736076959
  30
0.0
  40
 80.000000000000
  41
0.0
  71
7
  72
1
   1
\T1.000000;ＰＥ
   7
GMM002
  44
 0.79999984000003
   0
MTEXT
   5
145
 100
AcDbEntity
   8
LEVEL001
 370
13
  62
1
 100
AcDbMText
  10
 5960.9090909091
  20
 1413.5736076959
  30
0.0
  40
 80.000000000000
  41
0.0
  71
7
  72
1
   1
\T1.000000;根入れ鉄筋
   7
GMM002
  44
 0.79999984000003
   0
MTEXT
   5
147
 100
AcDbEntity
   8
LEVEL001
 370
13
  62
1
 100
AcDbMText
  10
 5960.9090909091
  20
 1543.5736076959
  30
0.0
  40
 80.000000000000
  41
0.0
  71
7
  72
1
   1
\T1.000000;支柱
   7
GMM002
  44
 0.79999984000003
   0
MTEXT
   5
149
 100
AcDbEntity
   8
LEVEL001
 370
13
  62
1
 100
AcDbMText
  10
 6931.8880646631
  20
 1543.5736076959
  30
0.0
  40
 80.000000000000
  41
0.0
  71
9
  72
1
   1
\T1.000000;１
   7
GMM002
  44
 0.79999984000003
   0
MTEXT
   5
14B
 100
AcDbEntity
   8
LEVEL001
 370
13
  62
1
 100
AcDbMText
  10
 7010.9090909091
  20
 1543.5736076959
  30
0.0
  40
 80.000000000000
  41
0.0
  71
7
  72
1
   1
\T1.000000;ＳＴＫ４００
   7
GMM002
  44
 0.79999984000003
   0
MTEXT
   5
14D
 100
AcDbEntity
   8
LEVEL001
 370
13
  62
1
 100
AcDbMText
  10
 7510.9090909091
  20
 1543.5736076959
  30
0.0
  40
 80.000000000000
  41
0.0
  71
7
  72
1
   1
\T1.000000;静電粉体塗装
   7
GMM002
  44
 0.79999984000003
   0
MTEXT
   5
14F
 100
AcDbEntity
   8
LEVEL001
 370
13
  62
1
 100
AcDbMText
  10
 7010.9090909091
  20
 1673.5736076959
  30
0.0
  40
 80.000000000000
  41
0.0
  71
7
  72
1
   1
\T1.000000;ＳＳ４００
   7
GMM002
  44
 0.79999984000003
   0
MTEXT
   5
151
 100
AcDbEntity
   8
LEVEL001
 370
13
  62
1
 100
AcDbMText
  10
 7510.9090909091
  20
 1673.5736076959
  30
0.0
  40
 80.000000000000
  41
0.0
  71
7
  72
1
   1
\T1.000000;溶融亜鉛メッキ
   7
GMM002
  44
 0.79999984000003
   0
MTEXT
   5
153
 100
AcDbEntity
   8
LEVEL001
 370
13
  62
1
 100
AcDbMText
  10
 5960.9090909091
  20
 1673.5736076959
  30
0.0
  40
 80.000000000000
  41
0.0
  71
7
  72
1
   1
\T1.000000;金具締付ボルトナット
   7
GMM002
  44
 0.79999984000003
   0
MTEXT
   5
155
 100
AcDbEntity
   8
LEVEL001
 370
13
  62
1
 100
AcDbMText
  10
 7010.9090909091
  20
 1803.5736076959
  30
0.0
  40
 80.000000000000
  41
0.0
  71
7
  72
1
   1
\T1.000000;ＳＳ４００
   7
GMM002
  44
 0.79999984000003
   0
MTEXT
   5
157
 100
AcDbEntity
   8
LEVEL001
 370
13
  62
1
 100
AcDbMText
  10
 7510.9090909091
  20
 1803.5736076959
  30
0.0
  40
 80.000000000000
  41
0.0
  71
7
  72
1
   1
\T1.000000;溶融亜鉛メッキ
   7
GMM002
  44
 0.79999984000003
   0
MTEXT
   5
159
 100
AcDbEntity
   8
LEVEL001
 370
13
  62
1
 100
AcDbMText
  10
 5960.9090909091
  20
 1803.5736076959
  30
0.0
  40
 80.000000000000
  41
0.0
  71
7
  72
1
   1
\T1.000000;裏板金具取付ボルト
   7
GMM002
  44
 0.79999984000003
   0
MTEXT
   5
15B
 100
AcDbEntity
   8
LEVEL001
 370
13
  62
1
 100
AcDbMText
  10
 6931.8880646631
  20
 1803.5736076959
  30
0.0
  40
 80.000000000000
  41
0.0
  71
9
  72
1
   1
\T1.000000;４
   7
GMM002
  44
 0.79999984000003
   0
MTEXT
   5
15D
 100
AcDbEntity
   8
LEVEL001
 370
13
  62
1
 100
AcDbMText
  10
 7510.9090909091
  20
 1933.5736076959
  30
0.0
  40
 80.000000000000
  41
0.0
  71
7
  72
1
   1
\T1.000000;溶融亜鉛メッキ
   7
GMM002
  44
 0.79999984000003
   0
MTEXT
   5
15F
 100
AcDbEntity
   8
LEVEL001
 370
13
  62
1
 100
AcDbMText
  10
 7010.9090909091
  20
 1933.5736076959
  30
0.0
  40
 80.000000000000
  41
0.0
  71
7
  72
1
   1
\T1.000000;ＳＳ４００
   7
GMM002
  44
 0.79999984000003
   0
MTEXT
   5
161
 100
AcDbEntity
   8
LEVEL001
 370
13
  62
1
 100
AcDbMText
  10
 5960.9090909091
  20
 1933.5736076959
  30
0.0
  40
 80.000000000000
  41
0.0
  71
7
  72
1
   1
\T1.000000;支柱取付金具
   7
GMM002
  44
 0.79999984000003
   0
MTEXT
   5
163
 100
AcDbEntity
   8
LEVEL001
 370
13
  62
1
 100
AcDbMText
  10
 5960.9090909091
  20
 2063.5736076959
  30
0.0
  40
 80.000000000000
  41
0.0
  71
7
  72
1
   1
\T1.000000;裏板取付金具
   7
GMM002
  44
 0.79999984000003
   0
MTEXT
   5
165
 100
AcDbEntity
   8
LEVEL001
 370
13
  62
1
 100
AcDbMText
  10
 7010.9090909091
  20
 2063.5736076959
  30
0.0
  40
 80.000000000000
  41
0.0
  71
7
  72
1
   1
\T1.000000;ＳＳ４００
   7
GMM002
  44
 0.79999984000003
   0
MTEXT
   5
167
 100
AcDbEntity
   8
LEVEL001
 370
13
  62
1
 100
AcDbMText
  10
 7510.9090909091
  20
 2063.5736076959
  30
0.0
  40
 80.000000000000
  41
0.0
  71
7
  72
1
   1
\T1.000000;溶融亜鉛メッキ
   7
GMM002
  44
 0.79999984000003
   0
MTEXT
   5
169
 100
AcDbEntity
   8
LEVEL001
 370
13
  62
1
 100
AcDbMText
  10
 6931.8880646631
  20
 1673.5736076959
  30
0.0
  40
 80.000000000000
  41
0.0
  71
9
  72
1
   1
\T1.000000;４
   7
GMM002
  44
 0.79999984000003
   0
MTEXT
   5
16B
 100
AcDbEntity
   8
LEVEL001
 370
13
  62
1
 100
AcDbMText
  10
 5881.8880646631
  20
 893.57360769589
  30
0.0
  40
 80.000000000000
  41
0.0
  71
9
  72
1
   1
\T1.000000;１５
   7
GMM001
  44
 0.79999984000003
   0
MTEXT
   5
16D
 100
AcDbEntity
   8
LEVEL001
 370
13
  62
1
 100
AcDbMText
  10
 5881.8880646631
  20
 1023.5736076959
  30
0.0
  40
 80.000000000000
  41
0.0
  71
9
  72
1
   1
\T1.000000;１４
   7
GMM001
  44
 0.79999984000003
   0
MTEXT
   5
16F
 100
AcDbEntity
   8
LEVEL001
 370
13
  62
1
 100
AcDbMText
  10
 6931.8880646631
  20
 2323.5736076959
  30
0.0
  40
 80.000000000000
  41
0.0
  71
9
  72
1
   1
\T1.000000;１
   7
GMM002
  44
 0.79999984000003
   0
MTEXT
   5
171
 100
AcDbEntity
   8
LEVEL001
 370
13
  62
1
 100
AcDbMText
  10
 5960.9090909091
  20
 2323.5736076959
  30
0.0
  40
 80.000000000000
  41
0.0
  71
7
  72
1
   1
\T1.000000;取付枠
   7
GMM002
  44
 0.79999984000003
   0
MTEXT
   5
173
 100
AcDbEntity
   8
LEVEL001
 370
13
  62
1
 100
AcDbMText
  10
 7010.9090909091
  20
 2323.5736076959
  30
0.0
  40
 80.000000000000
  41
0.0
  71
7
  72
1
   1
\T1.000000;アルミニウム
   7
GMM002
  44
 0.79999984000003
   0
MTEXT
   5
175
 100
AcDbEntity
   8
LEVEL001
 370
13
  62
1
 100
AcDbMText
  10
 5960.9090909091
  20
 2193.5736076959
  30
0.0
  40
 80.000000000000
  41
0.0
  71
7
  72
1
   1
\T1.000000;取付枠取付リベット
   7
GMM002
  44
 0.79999984000003
   0
MTEXT
   5
177
 100
AcDbEntity
   8
LEVEL001
 370
13
  62
1
 100
AcDbMText
  10
 7010.9090909091
  20
 2193.5736076959
  30
0.0
  40
 80.000000000000
  41
0.0
  71
7
  72
1
   1
\T1.000000;アルミニウム
   7
GMM002
  44
 0.79999984000003
   0
MTEXT
   5
179
 100
AcDbEntity
   8
LEVEL001
 370
13
  62
1
 100
AcDbMText
  10
 7510.9090909091
  20
 2583.5736076959
  30
0.0
  40
 80.000000000000
  41
0.0
  71
7
  72
1
   1
\T1.000000;ＳＭＣ成型
   7
GMM002
  44
 0.79999984000003
   0
MTEXT
   5
17B
 100
AcDbEntity
   8
LEVEL001
 370
13
  62
1
 100
AcDbMText
  10
 6931.8880646631
  20
 2193.5736076959
  30
0.0
  40
 80.000000000000
  41
0.0
  71
9
  72
1
   1
\T1.000000;１１
   7
GMM002
  44
 0.79999984000003
   0
MTEXT
   5
17D
 100
AcDbEntity
   8
LEVEL001
 370
13
  62
1
 100
AcDbMText
  10
 6931.8880646631
  20
 1413.5736076959
  30
0.0
  40
 80.000000000000
  41
0.0
  71
9
  72
1
   1
\T1.000000;１
   7
GMM002
  44
 0.79999984000003
   0
MTEXT
   5
17F
 100
AcDbEntity
   8
LEVEL001
 370
13
  62
1
 100
AcDbMText
  10
 6931.8880646631
  20
 2063.5736076959
  30
0.0
  40
 80.000000000000
  41
0.0
  71
9
  72
1
   1
\T1.000000;１
   7
GMM002
  44
 0.79999984000003
   0
MTEXT
   5
181
 100
AcDbEntity
   8
LEVEL001
 370
13
  62
1
 100
AcDbMText
  10
 6931.8880646631
  20
 1933.5736076959
  30
0.0
  40
 80.000000000000
  41
0.0
  71
9
  72
1
   1
\T1.000000;１
   7
GMM002
  44
 0.79999984000003
   0
MTEXT
   5
183
 100
AcDbEntity
   8
LEVEL001
 370
13
  62
1
 100
AcDbMText
  10
 7510.9090909091
  20
 2713.5736076959
  30
0.0
  40
 80.000000000000
  41
0.0
  71
7
  72
1
   1
\W0.450000;\T1.000000;t=3.0mm･\W0.900000;\T1.000000;真空蒸着
   7
GMM002
  44
 0.79999984000003
   0
LINE
   5
184
 100
AcDbEntity
   8
LEVEL001
 370
9
 100
AcDbLine
   6
CONTINUOUS
  62
6
  10
 5710.9090909091
  20
 2820.0000000000
  30
0.0
  11
 8226.6668701172
  21
 2820.0000000000
  31
0.0
   0
MTEXT
   5
186
 100
AcDbEntity
   8
LEVEL001
 370
13
  62
1
 100
AcDbMText
  10
 7843.7879805131
  20
 2890.0000000000
  30
0.0
  40
 80.000000000000
  41
0.0
  71
5
  72
1
   1
\T1.000000;規格仕様
   7
GMM002
  44
 0.79999984000003
   0
MTEXT
   5
188
 100
AcDbEntity
   8
LEVEL001
 370
13
  62
1
 100
AcDbMText
  10
 7010.9090909091
  20
 1413.5736076959
  30
0.0
  40
 80.000000000000
  41
0.0
  71
7
  72
1
   1
\T1.000000;ＳＤ２９５Ａ
   7
GMM002
  44
 0.79999984000003
   0
LWPOLYLINE
   5
189
 100
AcDbEntity
   8
LEVEL001
 370
25
   6
CONTINUOUS
  62
7
 100
AcDbPolyline
  90
4
  70
1
  10
 440.00000000000
  20
 170.00000000000
  10
 440.00000000000
  20
 5770.0000000000
  10
 8226.6668701172
  20
 5770.0000000000
  10
 8226.6668701172
  20
 170.00000000000
   0
LINE
   5
18A
 100
AcDbEntity
   8
LEVEL001
 370
13
 100
AcDbLine
   6
CONTINUOUS
  62
1
  10
 5710.9090909091
  20
 650.00000000000
  30
0.0
  11
 7350.9090909091
  21
 650.00000000000
  31
0.0
   0
MTEXT
   5
18C
 100
AcDbEntity
   8
LEVEL001
 370
13
  62
1
 100
AcDbMText
  10
 1500.0000000000
  20
 5520.0000000000
  30
0.0
  40
 80.000000000000
  41
0.0
  71
5
  72
1
   1
\T1.000000;正　面　図
   7
GMM003
  44
 0.79999984000003
   0
MTEXT
   5
18E
 100
AcDbEntity
   8
LEVEL001
 370
13
  62
1
 100
AcDbMText
  10
 3000.0000000000
  20
 5520.0000000000
  30
0.0
  40
 80.000000000000
  41
0.0
  71
5
  72
1
   1
\T1.000000;側　面　図
   7
GMM003
  44
 0.79999984000003
   0
MTEXT
   5
190
 100
AcDbEntity
   8
LEVEL001
 370
13
  62
1
 100
AcDbMText
  10
 4250.0000000000
  20
 5520.0000000000
  30
0.0
  40
 80.000000000000
  41
0.0
  71
5
  72
1
   1
\T1.000000;背　面　図
   7
GMM003
  44
 0.79999984000003
   0
CIRCLE
   5
191
 100
AcDbEntity
   8
LEVEL001
 370
13
 100
AcDbCircle
   6
CONTINUOUS
  62
1
  10
 2250.0000000000
  20
 4402.5357239002
  30
0.0
  40
 69.999997913838
   0
MTEXT
   5
193
 100
AcDbEntity
   8
LEVEL001
 370
25
  62
7
 100
AcDbMText
  10
 2250.0000000000
  20
 4402.5357239002
  30
0.0
  40
 66.000000000000
  41
0.0
  71
5
  72
1
   1
\T1.000000;１
   7
GMM004
  44
 0.79999984000003
   0
CIRCLE
   5
194
 100
AcDbEntity
   8
LEVEL001
 370
13
 100
AcDbCircle
   6
CONTINUOUS
  62
1
  10
 2250.0000000000
  20
 5140.2831203072
  30
0.0
  40
 69.999997913838
   0
MTEXT
   5
196
 100
AcDbEntity
   8
LEVEL001
 370
25
  62
7
 100
AcDbMText
  10
 2250.0000000000
  20
 5140.2831203072
  30
0.0
  40
 66.000000000000
  41
0.0
  71
5
  72
1
   1
\T1.000000;３
   7
GMM004
  44
 0.79999984000003
   0
CIRCLE
   5
197
 100
AcDbEntity
   8
LEVEL001
 370
25
 100
AcDbCircle
   6
CONTINUOUS
  62
7
  10
 1499.9998474121
  20
 4670.0000000000
  30
0.0
  40
 399.99999979907
   0
CIRCLE
   5
198
 100
AcDbEntity
   8
LEVEL001
 370
13
 100
AcDbCircle
   6
CONTINUOUS
  62
2
  10
 1500.0000000000
  20
 4670.0000000000
  30
0.0
  40
 382.20001201504
   0
ARC
   5
199
 100
AcDbEntity
   8
LEVEL001
 370
25
   6
CONTINUOUS
  62
7
 100
AcDbCircle
  10
 1500.0000000000
  20
 4670.0000000000
  30
0.0
  40
 406.99999979904
 100
AcDbArc
  50
 18.850250860434
  51
 161.14974913957
   0
LINE
   5
19A
 100
AcDbEntity
   8
LEVEL001
 370
25
 100
AcDbLine
   6
CONTINUOUS
  62
7
  10
 1885.1710656792
  20
 4801.5000000000
  30
0.0
  11
 1877.7666403403
  21
 4801.5000000000
  31
0.0
   0
LINE
   5
19B
 100
AcDbEntity
   8
LEVEL001
 370
25
 100
AcDbLine
   6
CONTINUOUS
  62
7
  10
 1114.8289343208
  20
 4801.5000000000
  30
0.0
  11
 1122.2333596597
  21
 4801.5000000000
  31
0.0
   0
ARC
   5
19C
 100
AcDbEntity
   8
LEVEL001
 370
13
   6
CONTINUOUS
  62
1
 100
AcDbCircle
  10
 1605.3393513046
  20
 5063.1318111055
  30
0.0
  40
 7.5000000000000
 100
AcDbArc
  50
 344.47208301399
  51
 165.52791698602
   0
ARC
   5
19D
 100
AcDbEntity
   8
LEVEL001
 370
13
   6
CONTINUOUS
  62
1
 100
AcDbCircle
  10
 1394.6606486953
  20
 5063.1318111056
  30
0.0
  40
 7.5000000000000
 100
AcDbArc
  50
 14.472083013652
  51
 195.52791698637
   0
ARC
   5
19E
 100
AcDbEntity
   8
LEVEL001
 370
13
   6
CONTINUOUS
  62
1
 100
AcDbCircle
  10
 1131.1327308585
  20
 4842.0056324437
  30
0.0
  40
 7.5000000000000
 100
AcDbArc
  50
 64.472083013724
  51
 245.52791698629
   0
ARC
   5
19F
 100
AcDbEntity
   8
LEVEL001
 370
13
   6
CONTINUOUS
  62
1
 100
AcDbCircle
  10
 1868.8672691415
  20
 4842.0056324437
  30
0.0
  40
 7.5000000000000
 100
AcDbArc
  50
 294.47208301375
  51
 115.52791698624
   0
ARC
   5
1A0
 100
AcDbEntity
   8
LEVEL001
 370
13
   6
CONTINUOUS
  62
1
 100
AcDbCircle
  10
 1761.6145570130
  20
 4981.7800881955
  30
0.0
  40
 7.5000000000000
 100
AcDbArc
  50
 319.47208301459
  51
 140.52791698537
   0
ARC
   5
1A1
 100
AcDbEntity
   8
LEVEL001
 370
13
   6
CONTINUOUS
  62
1
 100
AcDbCircle
  10
 1238.3854429870
  20
 4981.7800881955
  30
0.0
  40
 7.5000000000000
 100
AcDbArc
  50
 39.472083014700
  51
 220.52791698534
   0
ARC
   5
1A2
 100
AcDbEntity
   8
LEVEL001
 370
13
   6
CONTINUOUS
  62
1
 100
AcDbCircle
  10
 1500.0000000000
  20
 4270.0000002010
  30
0.0
  40
 7.5000000000000
 100
AcDbArc
  50
 179.46286605484
  51
 0.53717765837727
   0
ARC
   5
1A3
 100
AcDbEntity
   8
LEVEL001
 370
13
   6
CONTINUOUS
  62
1
 100
AcDbCircle
  10
 1757.1150437454
  20
 4363.5822229064
  30
0.0
  40
 7.5000000000000
 100
AcDbArc
  50
 219.46286605485
  51
 40.537177658366
   0
ARC
   5
1A4
 100
AcDbEntity
   8
LEVEL001
 370
13
   6
CONTINUOUS
  62
1
 100
AcDbCircle
  10
 1893.9231010070
  20
 4600.5407289681
  30
0.0
  40
 7.5000000000000
 100
AcDbArc
  50
 259.46286605474
  51
 80.537177658472
   0
ARC
   5
1A5
 100
AcDbEntity
   8
LEVEL001
 370
13
   6
CONTINUOUS
  62
1
 100
AcDbCircle
  10
 1106.0768989930
  20
 4600.5407289681
  30
0.0
  40
 7.5000000000000
 100
AcDbArc
  50
 99.462822341528
  51
 280.53713394526
   0
ARC
   5
1A6
 100
AcDbEntity
   8
LEVEL001
 370
13
   6
CONTINUOUS
  62
1
 100
AcDbCircle
  10
 1242.8849562546
  20
 4363.5822229063
  30
0.0
  40
 7.5000000000000
 100
AcDbArc
  50
 139.46282234142
  51
 320.53713394536
   0
LINE
   5
1A7
 100
AcDbEntity
   8
LEVEL001
 370
9
 100
AcDbLine
   6
DASHDOT
  62
6
  10
 1950.0000000000
  20
 4670.0000000000
  30
0.0
  11
 1050.0000000000
  21
 4670.0000000000
  31
0.0
   0
LINE
   5
1A8
 100
AcDbEntity
   8
LEVEL001
 370
9
 100
AcDbLine
   6
DASHDOT
  62
6
  10
 3093.3873436759
  20
 4670.0000000000
  30
0.0
  11
 2728.4398447866
  21
 4670.0000000000
  31
0.0
   0
LWPOLYLINE
   5
1A9
 100
AcDbEntity
   8
LEVEL001
 370
25
   6
CONTINUOUS
  62
7
 100
AcDbPolyline
  90
4
  70
1
  10
 2882.6077335293
  20
 4693.0000000000
  10
 2896.6077335293
  20
 4693.0000000000
  10
 2896.6077335293
  20
 4707.0000000000
  10
 2882.6077335293
  20
 4707.0000000000
   0
LWPOLYLINE
   5
1AA
 100
AcDbEntity
   8
LEVEL001
 370
25
   6
CONTINUOUS
  62
7
 100
AcDbPolyline
  90
4
  70
1
  10
 2882.6077335293
  20
 4633.0000000000
  10
 2896.6077335293
  20
 4633.0000000000
  10
 2896.6077335293
  20
 4647.0000000000
  10
 2882.6077335293
  20
 4647.0000000000
   0
LWPOLYLINE
   5
1AB
 100
AcDbEntity
   8
LEVEL001
 370
25
   6
CONTINUOUS
  62
7
 100
AcDbPolyline
  90
4
  70
0
  10
 2914.6077335293
  20
 4615.0000000000
  10
 3076.1833549668
  20
 4615.0000000000
  10
 3076.1833549668
  20
 4725.0000000000
  10
 2914.6077335293
  20
 4725.0000000000
   0
ARC
   5
1AC
 100
AcDbEntity
   8
LEVEL001
 370
25
   6
CONTINUOUS
  62
7
 100
AcDbCircle
  10
 2883.4000000000
  20
 4700.0000000000
  30
0.0
  40
 52.000000000000
 100
AcDbArc
  50
 306.88054979700
  51
 325.00000000000
   0
ARC
   5
1AD
 100
AcDbEntity
   8
LEVEL001
 370
25
   6
CONTINUOUS
  62
7
 100
AcDbCircle
  10
 2883.4000000000
  20
 4700.0000000000
  30
0.0
  40
 68.000000000000
 100
AcDbArc
  50
 297.31855192772
  51
 325.00000000000
   0
LINE
   5
1AE
 100
AcDbEntity
   8
LEVEL001
 370
13
 100
AcDbLine
   6
DOT
  62
2
  10
 2802.9985880387
  20
 5069.9999999304
  30
0.0
  11
 2827.9989723344
  21
 5069.9999999304
  31
0.0
   0
CIRCLE
   5
1AF
 100
AcDbEntity
   8
LEVEL001
 370
13
 100
AcDbCircle
   6
CONTINUOUS
  62
1
  10
 2815.9989723344
  20
 5063.1318111056
  30
0.0
  40
 7.5000000000000
   0
CIRCLE
   5
1B0
 100
AcDbEntity
   8
LEVEL001
 370
13
 100
AcDbCircle
   6
CONTINUOUS
  62
1
  10
 2815.9989723344
  20
 4981.7800881956
  30
0.0
  40
 7.5000000000000
   0
CIRCLE
   5
1B1
 100
AcDbEntity
   8
LEVEL001
 370
13
 100
AcDbCircle
   6
CONTINUOUS
  62
1
  10
 2815.9989723344
  20
 4842.0056324437
  30
0.0
  40
 7.5000000000000
   0
CIRCLE
   5
1B2
 100
AcDbEntity
   8
LEVEL001
 370
13
 100
AcDbCircle
   6
CONTINUOUS
  62
1
  10
 2815.9989723344
  20
 4600.5407289681
  30
0.0
  40
 7.5000000000000
   0
CIRCLE
   5
1B3
 100
AcDbEntity
   8
LEVEL001
 370
13
 100
AcDbCircle
   6
CONTINUOUS
  62
1
  10
 2815.9989723344
  20
 4363.5822229063
  30
0.0
  40
 7.5000000000000
   0
ARC
   5
1B4
 100
AcDbEntity
   8
LEVEL001
 370
13
   6
CONTINUOUS
  62
1
 100
AcDbCircle
  10
 2815.9989723344
  20
 4270.0000000696
  30
0.0
  40
 7.5000000000000
 100
AcDbArc
  50
 180.00000000000
  51
0.0
   0
ARC
   5
1B5
 100
AcDbEntity
   8
LEVEL001
 370
13
   6
CONTINUOUS
  62
1
 100
AcDbCircle
  10
 2826.6088169938
  20
 4670.0000000000
  30
0.0
  40
 4.7988739094943
 100
AcDbArc
  50
 303.26696871548
  51
 56.733031284521
   0
LINE
   5
1B6
 100
AcDbEntity
   8
LEVEL001
 370
13
 100
AcDbLine
   6
CONTINUOUS
  62
1
  10
 2829.2411955108
  20
 4674.0124523850
  30
0.0
  11
 2827.9991519779
  21
 4674.2553484154
  31
0.0
   0
LINE
   5
1B7
 100
AcDbEntity
   8
LEVEL001
 370
13
 100
AcDbLine
   6
CONTINUOUS
  62
1
  10
 2829.2411955108
  20
 4665.9875476150
  30
0.0
  11
 2827.9991519779
  21
 4665.7446517546
  31
0.0
   0
LINE
   5
1B8
 100
AcDbEntity
   8
LEVEL001
 370
13
 100
AcDbLine
   6
CONTINUOUS
  62
1
  10
 2827.9991519779
  20
 4670.0000000000
  30
0.0
  11
 2829.2411955108
  21
 4670.0000000000
  31
0.0
   0
ARC
   5
1B9
 100
AcDbEntity
   8
LEVEL001
 370
25
   6
CONTINUOUS
  62
7
 100
AcDbCircle
  10
 2932.5491226573
  20
 4665.5854138189
  30
0.0
  40
 8.0000000000000
 100
AcDbArc
  50
 324.99999999999
  51
 145.00000000000
   0
LWPOLYLINE
   5
1BA
 100
AcDbEntity
   8
LEVEL001
 370
25
   6
CONTINUOUS
  62
7
 100
AcDbPolyline
  90
4
  70
0
  10
 2827.9989723344
  20
 4615.0000000000
  10
 2914.6077335293
  20
 4615.0000000000
  10
 2914.6077335293
  20
 4725.0000000000
  10
 2827.9989723344
  20
 4725.0000000000
   0
LINE
   5
1BB
 100
AcDbEntity
   8
LEVEL001
 370
9
 100
AcDbLine
   6
CONTINUOUS
  62
6
  10
 2963.4000000000
  20
 4620.0000000000
  30
0.0
  11
 2963.4000000000
  21
 4720.0000000000
  31
0.0
   0
LWPOLYLINE
   5
1BC
 100
AcDbEntity
   8
LEVEL001
 370
25
   6
CONTINUOUS
  62
7
 100
AcDbPolyline
  90
4
  70
1
  10
 3049.1833549668
  20
 4693.0000000000
  10
 3063.1833549668
  20
 4693.0000000000
  10
 3063.1833549668
  20
 4707.0000000000
  10
 3049.1833549668
  20
 4707.0000000000
   0
LWPOLYLINE
   5
1BD
 100
AcDbEntity
   8
LEVEL001
 370
25
   6
CONTINUOUS
  62
7
 100
AcDbPolyline
  90
4
  70
1
  10
 3049.1833549668
  20
 4633.0000000000
  10
 3063.1833549668
  20
 4633.0000000000
  10
 3063.1833549668
  20
 4647.0000000000
  10
 3049.1833549668
  20
 4647.0000000000
   0
LINE
   5
1BE
 100
AcDbEntity
   8
LEVEL001
 370
9
 100
AcDbLine
   6
CONTINUOUS
  62
6
  10
 3036.6113645208
  20
 4720.0000000000
  30
0.0
  11
 3036.6113645208
  21
 4620.0000000000
  31
0.0
   0
CIRCLE
   5
1BF
 100
AcDbEntity
   8
LEVEL001
 370
25
 100
AcDbCircle
   6
CONTINUOUS
  62
7
  10
 4290.0000000000
  20
 4705.0000000000
  30
0.0
  40
 7.0000000000000
   0
LINE
   5
1C0
 100
AcDbEntity
   8
LEVEL001
 370
9
 100
AcDbLine
   6
DASHDOT
  62
6
  10
 4270.0000000000
  20
 4705.0000000000
  30
0.0
  11
 4310.0000000000
  21
 4705.0000000000
  31
0.0
   0
LINE
   5
1C1
 100
AcDbEntity
   8
LEVEL001
 370
9
 100
AcDbLine
   6
DASHDOT
  62
6
  10
 4290.0000000000
  20
 4685.0000000000
  30
0.0
  11
 4290.0000000000
  21
 4725.0000000000
  31
0.0
   0
CIRCLE
   5
1C2
 100
AcDbEntity
   8
LEVEL001
 370
25
 100
AcDbCircle
   6
CONTINUOUS
  62
7
  10
 4210.0000000000
  20
 4705.0000000000
  30
0.0
  40
 7.0000000000000
   0
LINE
   5
1C3
 100
AcDbEntity
   8
LEVEL001
 370
9
 100
AcDbLine
   6
DASHDOT
  62
6
  10
 4190.0000000000
  20
 4705.0000000000
  30
0.0
  11
 4230.0000000000
  21
 4705.0000000000
  31
0.0
   0
LINE
   5
1C4
 100
AcDbEntity
   8
LEVEL001
 370
9
 100
AcDbLine
   6
DASHDOT
  62
6
  10
 4210.0000000000
  20
 4685.0000000000
  30
0.0
  11
 4210.0000000000
  21
 4725.0000000000
  31
0.0
   0
CIRCLE
   5
1C5
 100
AcDbEntity
   8
LEVEL001
 370
25
 100
AcDbCircle
   6
CONTINUOUS
  62
7
  10
 4210.0000000000
  20
 4635.0000000000
  30
0.0
  40
 7.0000000000000
   0
LINE
   5
1C6
 100
AcDbEntity
   8
LEVEL001
 370
9
 100
AcDbLine
   6
DASHDOT
  62
6
  10
 4190.0000000000
  20
 4635.0000000000
  30
0.0
  11
 4230.0000000000
  21
 4635.0000000000
  31
0.0
   0
LINE
   5
1C7
 100
AcDbEntity
   8
LEVEL001
 370
9
 100
AcDbLine
   6
DASHDOT
  62
6
  10
 4210.0000000000
  20
 4615.0000000000
  30
0.0
  11
 4210.0000000000
  21
 4655.0000000000
  31
0.0
   0
CIRCLE
   5
1C8
 100
AcDbEntity
   8
LEVEL001
 370
25
 100
AcDbCircle
   6
CONTINUOUS
  62
7
  10
 4290.0000000000
  20
 4635.0000000000
  30
0.0
  40
 7.0000000000000
   0
LINE
   5
1C9
 100
AcDbEntity
   8
LEVEL001
 370
9
 100
AcDbLine
   6
DASHDOT
  62
6
  10
 4270.0000000000
  20
 4635.0000000000
  30
0.0
  11
 4310.0000000000
  21
 4635.0000000000
  31
0.0
   0
LINE
   5
1CA
 100
AcDbEntity
   8
LEVEL001
 370
9
 100
AcDbLine
   6
DASHDOT
  62
6
  10
 4290.0000000000
  20
 4615.0000000000
  30
0.0
  11
 4290.0000000000
  21
 4655.0000000000
  31
0.0
   0
CIRCLE
   5
1CB
 100
AcDbEntity
   8
LEVEL001
 370
25
 100
AcDbCircle
   6
CONTINUOUS
  62
7
  10
 4249.9998474121
  20
 4670.0000000000
  30
0.0
  40
 399.99999979907
   0
ARC
   5
1CC
 100
AcDbEntity
   8
LEVEL001
 370
25
   6
CONTINUOUS
  62
7
 100
AcDbCircle
  10
 4250.0000000000
  20
 4670.0000000000
  30
0.0
  40
 406.99999979904
 100
AcDbArc
  50
 18.850250860435
  51
 161.14974913957
   0
LINE
   5
1CD
 100
AcDbEntity
   8
LEVEL001
 370
25
 100
AcDbLine
   6
CONTINUOUS
  62
7
  10
 4635.1710656792
  20
 4801.5000000000
  30
0.0
  11
 4627.7666403403
  21
 4801.5000000000
  31
0.0
   0
LINE
   5
1CE
 100
AcDbEntity
   8
LEVEL001
 370
25
 100
AcDbLine
   6
CONTINUOUS
  62
7
  10
 3864.8289343208
  20
 4801.5000000000
  30
0.0
  11
 3872.2333596597
  21
 4801.5000000000
  31
0.0
   0
ARC
   5
1CF
 100
AcDbEntity
   8
LEVEL001
 370
13
   6
CONTINUOUS
  62
1
 100
AcDbCircle
  10
 4355.3393513046
  20
 5063.1318111055
  30
0.0
  40
 7.5000000000000
 100
AcDbArc
  50
 344.47208301399
  51
 165.52791698602
   0
ARC
   5
1D0
 100
AcDbEntity
   8
LEVEL001
 370
13
   6
CONTINUOUS
  62
1
 100
AcDbCircle
  10
 4144.6606486954
  20
 5063.1318111055
  30
0.0
  40
 7.5000000000000
 100
AcDbArc
  50
 14.472083013925
  51
 195.52791698609
   0
ARC
   5
1D1
 100
AcDbEntity
   8
LEVEL001
 370
13
   6
CONTINUOUS
  62
1
 100
AcDbCircle
  10
 3881.1327308585
  20
 4842.0056324437
  30
0.0
  40
 7.5000000000000
 100
AcDbArc
  50
 64.472083013760
  51
 245.52791698626
   0
ARC
   5
1D2
 100
AcDbEntity
   8
LEVEL001
 370
13
   6
CONTINUOUS
  62
1
 100
AcDbCircle
  10
 4618.8672691415
  20
 4842.0056324437
  30
0.0
  40
 7.5000000000000
 100
AcDbArc
  50
 294.47208301375
  51
 115.52791698624
   0
ARC
   5
1D3
 100
AcDbEntity
   8
LEVEL001
 370
13
   6
CONTINUOUS
  62
1
 100
AcDbCircle
  10
 4511.6145570130
  20
 4981.7800881955
  30
0.0
  40
 7.5000000000000
 100
AcDbArc
  50
 319.47208301503
  51
 140.52791698494
   0
ARC
   5
1D4
 100
AcDbEntity
   8
LEVEL001
 370
13
   6
CONTINUOUS
  62
1
 100
AcDbCircle
  10
 3988.3854429870
  20
 4981.7800881955
  30
0.0
  40
 7.5000000000000
 100
AcDbArc
  50
 39.472083014771
  51
 220.52791698526
   0
ARC
   5
1D5
 100
AcDbEntity
   8
LEVEL001
 370
13
   6
CONTINUOUS
  62
1
 100
AcDbCircle
  10
 4250.0000000000
  20
 4270.0000002009
  30
0.0
  40
 7.5000000000000
 100
AcDbArc
  50
 179.46286605437
  51
 0.53717765884280
   0
ARC
   5
1D6
 100
AcDbEntity
   8
LEVEL001
 370
13
   6
CONTINUOUS
  62
1
 100
AcDbCircle
  10
 4507.1150437454
  20
 4363.5822229063
  30
0.0
  40
 7.5000000000000
 100
AcDbArc
  50
 219.46286605471
  51
 40.537177658506
   0
ARC
   5
1D7
 100
AcDbEntity
   8
LEVEL001
 370
13
   6
CONTINUOUS
  62
1
 100
AcDbCircle
  10
 4643.9231010070
  20
 4600.5407289681
  30
0.0
  40
 7.5000000000000
 100
AcDbArc
  50
 259.46286605474
  51
 80.537177658472
   0
ARC
   5
1D8
 100
AcDbEntity
   8
LEVEL001
 370
13
   6
CONTINUOUS
  62
1
 100
AcDbCircle
  10
 3856.0768989930
  20
 4600.5407289681
  30
0.0
  40
 7.5000000000000
 100
AcDbArc
  50
 99.462822341528
  51
 280.53713394526
   0
ARC
   5
1D9
 100
AcDbEntity
   8
LEVEL001
 370
13
   6
CONTINUOUS
  62
1
 100
AcDbCircle
  10
 3992.8849562546
  20
 4363.5822229064
  30
0.0
  40
 7.5000000000000
 100
AcDbArc
  50
 139.46282234163
  51
 320.53713394515
   0
LINE
   5
1DA
 100
AcDbEntity
   8
LEVEL001
 370
9
 100
AcDbLine
   6
DASHDOT
  62
6
  10
 4250.0000000000
  20
 5120.0000000000
  30
0.0
  11
 4250.0000000000
  21
 4220.0000000000
  31
0.0
   0
LINE
   5
1DB
 100
AcDbEntity
   8
LEVEL001
 370
9
 100
AcDbLine
   6
DASHDOT
  62
6
  10
 4700.0000000000
  20
 4670.0000000000
  30
0.0
  11
 3800.0000000000
  21
 4670.0000000000
  31
0.0
   0
CIRCLE
   5
1DC
 100
AcDbEntity
   8
LEVEL001
 370
13
 100
AcDbCircle
   6
CONTINUOUS
  62
1
  10
 1250.0000000000
  20
 4144.9992154555
  30
0.0
  40
 69.999997913838
   0
MTEXT
   5
1DE
 100
AcDbEntity
   8
LEVEL001
 370
25
  62
7
 100
AcDbMText
  10
 1250.0000000000
  20
 4144.9992154555
  30
0.0
  40
 66.000000000000
  41
0.0
  71
5
  72
1
   1
\T1.000000;５
   7
GMM004
  44
 0.79999984000003
   0
CIRCLE
   5
1DF
 100
AcDbEntity
   8
LEVEL001
 370
13
 100
AcDbCircle
   6
CONTINUOUS
  62
1
  10
 1750.0000000000
  20
 4144.9992154555
  30
0.0
  40
 69.999997913838
   0
MTEXT
   5
1E1
 100
AcDbEntity
   8
LEVEL001
 370
25
  62
7
 100
AcDbMText
  10
 1750.0000000000
  20
 4144.9992154555
  30
0.0
  40
 66.000000000000
  41
0.0
  71
5
  72
1
   1
\T1.000000;４
   7
GMM004
  44
 0.79999984000003
   0
CIRCLE
   5
1E2
 100
AcDbEntity
   8
LEVEL001
 370
13
 100
AcDbCircle
   6
CONTINUOUS
  62
1
  10
 4000.0000000000
  20
 4144.9992154555
  30
0.0
  40
 69.999997913838
   0
MTEXT
   5
1E4
 100
AcDbEntity
   8
LEVEL001
 370
25
  62
7
 100
AcDbMText
  10
 4000.0000000000
  20
 4144.9992154555
  30
0.0
  40
 66.000000000000
  41
0.0
  71
5
  72
1
   1
\T1.000000;２
   7
GMM004
  44
 0.79999984000003
   0
ARC
   5
1E5
 100
AcDbEntity
   8
LEVEL001
 370
25
   6
CONTINUOUS
  62
7
 100
AcDbCircle
  10
 2661.8500000000
  20
 4186.0211011659
  30
0.0
  40
 300.00000000000
 100
AcDbArc
  50
 322.12501634890
  51
0.0
   0
ARC
   5
1E6
 100
AcDbEntity
   8
LEVEL001
 370
9
   6
DASHDOT
  62
6
 100
AcDbCircle
  10
 2661.8500000000
  20
 4186.0211011659
  30
0.0
  40
 338.15000000000
 100
AcDbArc
  50
 322.12501634890
  51
 0.30820764690876E-12
   0
ARC
   5
1E7
 100
AcDbEntity
   8
LEVEL001
 370
25
   6
CONTINUOUS
  62
7
 100
AcDbCircle
  10
 2661.8500000000
  20
 4186.0211011658
  30
0.0
  40
 376.30000000000
 100
AcDbArc
  50
 322.12501634890
  51
 0.13848048870874E-12
   0
LINE
   5
1E8
 100
AcDbEntity
   8
LEVEL001
 370
9
 100
AcDbLine
   6
DASHDOT
  62
6
  10
 3000.0000000000
  20
 4919.9992154555
  30
0.0
  11
 3000.0000000000
  21
 4186.0211011659
  31
0.0
   0
LINE
   5
1E9
 100
AcDbEntity
   8
LEVEL001
 370
25
 100
AcDbLine
   6
CONTINUOUS
  62
7
  10
 1461.8500000000
  20
 4271.8234198478
  30
0.0
  11
 1461.8500000000
  21
 3685.4773297451
  31
0.0
   0
LINE
   5
1EA
 100
AcDbEntity
   8
LEVEL001
 370
25
 100
AcDbLine
   6
CONTINUOUS
  62
7
  10
 1538.1500000000
  20
 3685.4773297451
  30
0.0
  11
 1538.1500000000
  21
 4271.8234490872
  31
0.0
   0
LWPOLYLINE
   5
1EB
 100
AcDbEntity
   8
LEVEL001
 370
20
   6
CONTINUOUS
  62
3
 100
AcDbPolyline
  90
5
  70
0
  10
 2827.9991519779
  20
 5073.7500000000
  10
 2767.9991519779
  20
 5073.7500000000
  10
 2767.9991519779
  20
 4837.0354772097
  10
 2807.9991519779
  20
 4780.7954655988
  10
 2827.9991519779
  20
 4780.7954655988
   0
LWPOLYLINE
   5
1EC
 100
AcDbEntity
   8
LEVEL001
 370
25
   6
CONTINUOUS
  62
7
 100
AcDbPolyline
  90
4
  70
0
  10
 2827.9989723344
  20
 5073.7500000000
  10
 2827.9989723344
  20
 4270.0000000696
  10
 2802.9989723344
  20
 4270.0000000696
  10
 2802.9989723344
  20
 4787.8257196290
   0
LINE
   5
1ED
 100
AcDbEntity
   8
LEVEL001
 370
13
 100
AcDbLine
   6
DOT
  62
2
  10
 2802.9989723344
  20
 4787.8257196290
  30
0.0
  11
 2802.9989723344
  21
 5070.0016595076
  31
0.0
   0
ARC
   5
1EE
 100
AcDbEntity
   8
LEVEL001
 370
13
   6
DOT
  62
2
 100
AcDbCircle
  10
 4530.3893376473
  20
 4670.0021444431
  30
0.0
  40
 1773.0981603475
 100
AcDbArc
  50
 166.96221629918
  51
 173.69995409002
   0
ARC
   5
1EF
 100
AcDbEntity
   8
LEVEL001
 370
25
   6
CONTINUOUS
  62
7
 100
AcDbCircle
  10
 4530.3892253703
  20
 4670.0000000000
  30
0.0
  40
 1773.0981603475
 100
AcDbArc
  50
 173.69988481498
  51
 193.03779978333
   0
LINE
   5
1F0
 100
AcDbEntity
   8
LEVEL001
 370
25
 100
AcDbLine
   6
CONTINUOUS
  62
7
  10
 3038.1500000000
  20
 4615.0000000000
  30
0.0
  11
 3038.1500000000
  21
 4186.0211011658
  31
0.0
   0
LWPOLYLINE
   5
1F1
 100
AcDbEntity
   8
LEVEL001
 370
25
   6
CONTINUOUS
  62
7
 100
AcDbPolyline
  90
4
  70
0
  10
 2961.8500000000
  20
 4725.0000000000
  10
 2961.8500000000
  20
 4869.9992154555
  10
 3038.1500000000
  20
 4869.9992154555
  10
 3038.1500000000
  20
 4725.0000000000
   0
LINE
   5
1F2
 100
AcDbEntity
   8
LEVEL001
 370
25
 100
AcDbLine
   6
CONTINUOUS
  62
7
  10
 2961.8500000000
  20
 4186.0211011659
  30
0.0
  11
 2961.8500000000
  21
 4615.0000000000
  31
0.0
   0
ARC
   5
1F3
 100
AcDbEntity
   8
LEVEL001
 370
13
   6
CONTINUOUS
  62
2
 100
AcDbCircle
  10
 4085.3940459666
  20
 4728.1149993717
  30
0.0
  40
 29.925185329180
 100
AcDbArc
  50
 274.14136530443
  51
 340.55392640748
   0
LINE
   5
1F4
 100
AcDbEntity
   8
LEVEL001
 370
13
 100
AcDbLine
   6
CONTINUOUS
  62
2
  10
 4087.5551691975
  20
 4698.2679515550
  30
0.0
  11
 3903.2838024646
  21
 4684.9236275795
  31
0.0
   0
LINE
   5
1F5
 100
AcDbEntity
   8
LEVEL001
 370
13
 100
AcDbLine
   6
CONTINUOUS
  62
2
  10
 4087.5551691975
  20
 4641.7332661039
  30
0.0
  11
 3903.2838024646
  21
 4655.0763724205
  31
0.0
   0
ARC
   5
1F6
 100
AcDbEntity
   8
LEVEL001
 370
13
   6
CONTINUOUS
  62
2
 100
AcDbCircle
  10
 4085.3940459666
  20
 4611.8862182872
  30
0.0
  40
 29.925185329180
 100
AcDbArc
  50
 19.446073592524
  51
 85.858634695571
   0
ARC
   5
1F7
 100
AcDbEntity
   8
LEVEL001
 370
13
   6
CONTINUOUS
  62
2
 100
AcDbCircle
  10
 4249.9999749470
  20
 4670.0009498320
  30
0.0
  40
 144.63836721882
 100
AcDbArc
  50
 199.44570402826
  51
 220.55442164438
   0
ARC
   5
1F8
 100
AcDbEntity
   8
LEVEL001
 370
13
   6
CONTINUOUS
  62
2
 100
AcDbCircle
  10
 4249.9999749470
  20
 4670.0002678269
  30
0.0
  40
 144.63836721882
 100
AcDbArc
  50
 139.44557835562
  51
 160.55429597174
   0
CIRCLE
   5
1F9
 100
AcDbEntity
   8
LEVEL001
 370
13
 100
AcDbCircle
   6
CONTINUOUS
  62
2
  10
 4250.0000000000
  20
 4670.0000000000
  30
0.0
  40
 124.68827220492
   0
ARC
   5
1FA
 100
AcDbEntity
   8
LEVEL001
 370
13
   6
CONTINUOUS
  62
2
 100
AcDbCircle
  10
 3904.3631621355
  20
 4670.0000000000
  30
0.0
  40
 14.962609312270
 100
AcDbArc
  50
 94.136746090312
  51
 265.86325390969
   0
LINE
   5
1FB
 100
AcDbEntity
   8
LEVEL001
 370
9
 100
AcDbLine
   6
CONTINUOUS
  62
6
  10
 4088.6358414786
  20
 4656.6568936834
  30
0.0
  11
 3933.6120328924
  21
 4667.8824911585
  31
0.0
   0
LINE
   5
1FC
 100
AcDbEntity
   8
LEVEL001
 370
9
 100
AcDbLine
   6
CONTINUOUS
  62
6
  10
 4088.6358414786
  20
 4683.3443239755
  30
0.0
  11
 3933.6120328924
  21
 4672.1187265004
  31
0.0
   0
LINE
   5
1FD
 100
AcDbEntity
   8
LEVEL001
 370
9
 100
AcDbLine
   6
CONTINUOUS
  62
6
  10
 4115.5047029480
  20
 4690.2472323264
  30
0.0
  11
 4108.4608505785
  21
 4699.7815015780
  31
0.0
   0
LINE
   5
1FE
 100
AcDbEntity
   8
LEVEL001
 370
9
 100
AcDbLine
   6
CONTINUOUS
  62
6
  10
 4108.4608505785
  20
 4640.2197160809
  30
0.0
  11
 4115.5040941186
  21
 4649.7527676736
  31
0.0
   0
ARC
   5
1FF
 100
AcDbEntity
   8
LEVEL001
 370
13
   6
CONTINUOUS
  62
2
 100
AcDbCircle
  10
 4117.3687888764
  20
 4556.5046839946
  30
0.0
  40
 29.925185329180
 100
AcDbArc
  50
 334.14054601454
  51
 40.555122017427
   0
LINE
   5
200
 100
AcDbEntity
   8
LEVEL001
 370
13
 100
AcDbLine
   6
CONTINUOUS
  62
2
  10
 4144.2974654925
  20
 4543.4523626422
  30
0.0
  11
 4063.7176695801
  21
 4377.1968682863
  31
0.0
   0
ARC
   5
201
 100
AcDbEntity
   8
LEVEL001
 370
13
   6
CONTINUOUS
  62
2
 100
AcDbCircle
  10
 4077.1823978877
  20
 4370.6714741193
  30
0.0
  40
 14.962609312270
 100
AcDbArc
  50
 154.14383864624
  51
 325.85554262844
   0
LINE
   5
202
 100
AcDbEntity
   8
LEVEL001
 370
13
 100
AcDbLine
   6
CONTINUOUS
  62
2
  10
 4193.2577037050
  20
 4515.1856287460
  30
0.0
  11
 4089.5658284697
  21
 4362.2732407068
  31
0.0
   0
ARC
   5
203
 100
AcDbEntity
   8
LEVEL001
 370
13
   6
CONTINUOUS
  62
2
 100
AcDbCircle
  10
 4218.0252527169
  20
 4498.3902355406
  30
0.0
  40
 29.925185329180
 100
AcDbArc
  50
 79.445274345877
  51
 145.85798307978
   0
ARC
   5
204
 100
AcDbEntity
   8
LEVEL001
 370
13
   6
CONTINUOUS
  62
2
 100
AcDbCircle
  10
 4250.0000000000
  20
 4670.0004025303
  30
0.0
  40
 144.63836721882
 100
AcDbArc
  50
 259.44562091362
  51
 280.55437908638
   0
LINE
   5
205
 100
AcDbEntity
   8
LEVEL001
 370
9
 100
AcDbLine
   6
CONTINUOUS
  62
6
  10
 4180.8738081933
  20
 4523.5826045773
  30
0.0
  11
 4093.6401151767
  21
 4394.9418115562
  31
0.0
   0
LINE
   5
206
 100
AcDbEntity
   8
LEVEL001
 370
9
 100
AcDbLine
   6
CONTINUOUS
  62
6
  10
 4157.7620332853
  20
 4536.9269285529
  30
0.0
  11
 4089.9719177156
  21
 4397.0593203977
  31
0.0
   0
LINE
   5
207
 100
AcDbEntity
   8
LEVEL001
 370
9
 100
AcDbLine
   6
CONTINUOUS
  62
6
  10
 4153.4393441610
  20
 4562.3138991310
  30
0.0
  11
 4165.2177587805
  21
 4563.6472356355
  31
0.0
   0
LINE
   5
208
 100
AcDbEntity
   8
LEVEL001
 370
9
 100
AcDbLine
   6
CONTINUOUS
  62
6
  10
 4200.2866397528
  20
 4543.4012209680
  30
0.0
  11
 4205.0215064176
  21
 4532.5336152119
  31
0.0
   0
ARC
   5
209
 100
AcDbEntity
   8
LEVEL001
 370
13
   6
CONTINUOUS
  62
2
 100
AcDbCircle
  10
 4250.0000250530
  20
 4670.0009498320
  30
0.0
  40
 144.63836721882
 100
AcDbArc
  50
 319.44557835562
  51
 340.55429597174
   0
ARC
   5
20A
 100
AcDbEntity
   8
LEVEL001
 370
13
   6
CONTINUOUS
  62
2
 100
AcDbCircle
  10
 4382.6312111237
  20
 4556.5046839946
  30
0.0
  40
 29.925185329180
 100
AcDbArc
  50
 139.44487798257
  51
 205.85945398546
   0
LINE
   5
20B
 100
AcDbEntity
   8
LEVEL001
 370
13
 100
AcDbLine
   6
CONTINUOUS
  62
2
  10
 4355.7025345075
  20
 4543.4523626422
  30
0.0
  11
 4436.2823304199
  21
 4377.1968682863
  31
0.0
   0
ARC
   5
20C
 100
AcDbEntity
   8
LEVEL001
 370
13
   6
CONTINUOUS
  62
2
 100
AcDbCircle
  10
 4422.8176021123
  20
 4370.6714741193
  30
0.0
  40
 14.962609312270
 100
AcDbArc
  50
 214.14445737158
  51
 25.856161353738
   0
LINE
   5
20D
 100
AcDbEntity
   8
LEVEL001
 370
13
 100
AcDbLine
   6
CONTINUOUS
  62
2
  10
 4306.7422962951
  20
 4515.1856287460
  30
0.0
  11
 4410.4341715303
  21
 4362.2732407068
  31
0.0
   0
ARC
   5
20E
 100
AcDbEntity
   8
LEVEL001
 370
13
   6
CONTINUOUS
  62
2
 100
AcDbCircle
  10
 4281.9747472831
  20
 4498.3902355406
  30
0.0
  40
 29.925185329180
 100
AcDbArc
  50
 34.142016920223
  51
 100.55472565412
   0
LINE
   5
20F
 100
AcDbEntity
   8
LEVEL001
 370
9
 100
AcDbLine
   6
CONTINUOUS
  62
6
  10
 4342.2379667148
  20
 4536.9269285529
  30
0.0
  11
 4410.0280822844
  21
 4397.0593203977
  31
0.0
   0
LINE
   5
210
 100
AcDbEntity
   8
LEVEL001
 370
9
 100
AcDbLine
   6
CONTINUOUS
  62
6
  10
 4319.1261918067
  20
 4523.5826045773
  30
0.0
  11
 4406.3598848233
  21
 4394.9418115562
  31
0.0
   0
LINE
   5
211
 100
AcDbEntity
   8
LEVEL001
 370
9
 100
AcDbLine
   6
CONTINUOUS
  62
6
  10
 4299.7133602472
  20
 4543.4012209680
  30
0.0
  11
 4294.9784935824
  21
 4532.5336152119
  31
0.0
   0
LINE
   5
212
 100
AcDbEntity
   8
LEVEL001
 370
9
 100
AcDbLine
   6
CONTINUOUS
  62
6
  10
 4346.5606558390
  20
 4562.3138991310
  30
0.0
  11
 4334.7822412195
  21
 4563.6472356355
  31
0.0
   0
ARC
   5
213
 100
AcDbEntity
   8
LEVEL001
 370
13
   6
CONTINUOUS
  62
2
 100
AcDbCircle
  10
 4250.0000250530
  20
 4670.0002678269
  30
0.0
  40
 144.63836721882
 100
AcDbArc
  50
 19.445704028260
  51
 40.554421644382
   0
ARC
   5
214
 100
AcDbEntity
   8
LEVEL001
 370
13
   6
CONTINUOUS
  62
2
 100
AcDbCircle
  10
 4414.6059540334
  20
 4728.1149993717
  30
0.0
  40
 29.925185329180
 100
AcDbArc
  50
 199.44607359252
  51
 265.85863469557
   0
LINE
   5
215
 100
AcDbEntity
   8
LEVEL001
 370
13
 100
AcDbLine
   6
CONTINUOUS
  62
2
  10
 4412.4448308025
  20
 4698.2679515550
  30
0.0
  11
 4596.7165019502
  21
 4684.9236275795
  31
0.0
   0
LINE
   5
216
 100
AcDbEntity
   8
LEVEL001
 370
13
 100
AcDbLine
   6
CONTINUOUS
  62
2
  10
 4412.4448308025
  20
 4641.7332661039
  30
0.0
  11
 4596.7165019502
  21
 4655.0763724205
  31
0.0
   0
ARC
   5
217
 100
AcDbEntity
   8
LEVEL001
 370
13
   6
CONTINUOUS
  62
2
 100
AcDbCircle
  10
 4414.6059540334
  20
 4611.8862182872
  30
0.0
  40
 29.925185329180
 100
AcDbArc
  50
 94.141365304432
  51
 160.55392640748
   0
ARC
   5
218
 100
AcDbEntity
   8
LEVEL001
 370
13
   6
CONTINUOUS
  62
2
 100
AcDbCircle
  10
 4595.6371422792
  20
 4670.0000000000
  30
0.0
  40
 14.962609312270
 100
AcDbArc
  50
 274.13674609031
  51
 85.863253909687
   0
LINE
   5
219
 100
AcDbEntity
   8
LEVEL001
 370
9
 100
AcDbLine
   6
CONTINUOUS
  62
6
  10
 4411.3641585214
  20
 4683.3443239755
  30
0.0
  11
 4566.3879671076
  21
 4672.1187265004
  31
0.0
   0
LINE
   5
21A
 100
AcDbEntity
   8
LEVEL001
 370
9
 100
AcDbLine
   6
CONTINUOUS
  62
6
  10
 4411.3641585214
  20
 4656.6568936834
  30
0.0
  11
 4566.3879671076
  21
 4667.8824911585
  31
0.0
   0
LINE
   5
21B
 100
AcDbEntity
   8
LEVEL001
 370
9
 100
AcDbLine
   6
CONTINUOUS
  62
6
  10
 4391.5391494215
  20
 4640.2197160809
  30
0.0
  11
 4384.4959058814
  21
 4649.7527676736
  31
0.0
   0
LINE
   5
21C
 100
AcDbEntity
   8
LEVEL001
 370
9
 100
AcDbLine
   6
CONTINUOUS
  62
6
  10
 4384.4952970520
  20
 4690.2472323264
  30
0.0
  11
 4391.5391494215
  21
 4699.7815015780
  31
0.0
   0
ARC
   5
21D
 100
AcDbEntity
   8
LEVEL001
 370
13
   6
CONTINUOUS
  62
2
 100
AcDbCircle
  10
 4281.9747472831
  20
 4841.6109821183
  30
0.0
  40
 29.925185329180
 100
AcDbArc
  50
 259.44527434588
  51
 325.85798307978
   0
LINE
   5
21E
 100
AcDbEntity
   8
LEVEL001
 370
13
 100
AcDbLine
   6
CONTINUOUS
  62
2
  10
 4306.7422962951
  20
 4824.8155889129
  30
0.0
  11
 4410.4341715303
  21
 4977.7279769521
  31
0.0
   0
LINE
   5
21F
 100
AcDbEntity
   8
LEVEL001
 370
13
 100
AcDbLine
   6
CONTINUOUS
  62
2
  10
 4355.7025345075
  20
 4796.5476373578
  30
0.0
  11
 4436.2823304199
  21
 4962.8043493726
  31
0.0
   0
ARC
   5
220
 100
AcDbEntity
   8
LEVEL001
 370
13
   6
CONTINUOUS
  62
2
 100
AcDbCircle
  10
 4382.6315878975
  20
 4783.4960933686
  30
0.0
  40
 29.925185329180
 100
AcDbArc
  50
 154.14219998810
  51
 220.55401248931
   0
ARC
   5
221
 100
AcDbEntity
   8
LEVEL001
 370
13
   6
CONTINUOUS
  62
2
 100
AcDbCircle
  10
 4422.8176021123
  20
 4969.3297435396
  30
0.0
  40
 14.962609312270
 100
AcDbArc
  50
 334.14383864624
  51
 145.85554262844
   0
ARC
   5
222
 100
AcDbEntity
   8
LEVEL001
 370
13
   6
CONTINUOUS
  62
2
 100
AcDbCircle
  10
 4250.0000000000
  20
 4670.0008151286
  30
0.0
  40
 144.63836721882
 100
AcDbArc
  50
 79.445620913618
  51
 100.55437908638
   0
LINE
   5
223
 100
AcDbEntity
   8
LEVEL001
 370
9
 100
AcDbLine
   6
CONTINUOUS
  62
6
  10
 4319.1261918067
  20
 4816.4173954227
  30
0.0
  11
 4406.3595804085
  21
 4945.0594061027
  31
0.0
   0
LINE
   5
224
 100
AcDbEntity
   8
LEVEL001
 370
9
 100
AcDbLine
   6
CONTINUOUS
  62
6
  10
 4342.2379667148
  20
 4803.0742891060
  30
0.0
  11
 4410.0280822844
  21
 4942.9418972612
  31
0.0
   0
LINE
   5
225
 100
AcDbEntity
   8
LEVEL001
 370
9
 100
AcDbLine
   6
CONTINUOUS
  62
6
  10
 4334.7822412195
  20
 4776.3539820234
  30
0.0
  11
 4346.5606558390
  21
 4777.6861008690
  31
0.0
   0
LINE
   5
226
 100
AcDbEntity
   8
LEVEL001
 370
9
 100
AcDbLine
   6
CONTINUOUS
  62
6
  10
 4294.9784935824
  20
 4807.4676024470
  30
0.0
  11
 4299.7133602472
  21
 4796.6012143498
  31
0.0
   0
ARC
   5
227
 100
AcDbEntity
   8
LEVEL001
 370
13
   6
CONTINUOUS
  62
2
 100
AcDbCircle
  10
 4218.0252527169
  20
 4841.6109821183
  30
0.0
  40
 29.925185329180
 100
AcDbArc
  50
 214.14201692022
  51
 280.55472565412
   0
LINE
   5
228
 100
AcDbEntity
   8
LEVEL001
 370
13
 100
AcDbLine
   6
CONTINUOUS
  62
2
  10
 4193.2577037050
  20
 4824.8155889129
  30
0.0
  11
 4089.5658284697
  21
 4977.7279769521
  31
0.0
   0
LINE
   5
229
 100
AcDbEntity
   8
LEVEL001
 370
13
 100
AcDbLine
   6
CONTINUOUS
  62
2
  10
 4144.2974654925
  20
 4796.5476373578
  30
0.0
  11
 4063.7176695801
  21
 4962.8043493726
  31
0.0
   0
ARC
   5
22A
 100
AcDbEntity
   8
LEVEL001
 370
13
   6
CONTINUOUS
  62
2
 100
AcDbCircle
  10
 4117.3684121025
  20
 4783.4960933686
  30
0.0
  40
 29.925185329180
 100
AcDbArc
  50
 319.44598751069
  51
 25.857800011898
   0
ARC
   5
22B
 100
AcDbEntity
   8
LEVEL001
 370
13
   6
CONTINUOUS
  62
2
 100
AcDbCircle
  10
 4077.1823978877
  20
 4969.3297435396
  30
0.0
  40
 14.962609312270
 100
AcDbArc
  50
 34.144457371535
  51
 205.85616135379
   0
LINE
   5
22C
 100
AcDbEntity
   8
LEVEL001
 370
9
 100
AcDbLine
   6
CONTINUOUS
  62
6
  10
 4157.7620332853
  20
 4803.0742891060
  30
0.0
  11
 4089.9719177156
  21
 4942.9418972612
  31
0.0
   0
LINE
   5
22D
 100
AcDbEntity
   8
LEVEL001
 370
9
 100
AcDbLine
   6
CONTINUOUS
  62
6
  10
 4180.8738081933
  20
 4816.4173954227
  30
0.0
  11
 4093.6404195915
  21
 4945.0594061027
  31
0.0
   0
LINE
   5
22E
 100
AcDbEntity
   8
LEVEL001
 370
9
 100
AcDbLine
   6
CONTINUOUS
  62
6
  10
 4205.0215064176
  20
 4807.4676024470
  30
0.0
  11
 4200.2866397528
  21
 4796.6012143498
  31
0.0
   0
LINE
   5
22F
 100
AcDbEntity
   8
LEVEL001
 370
9
 100
AcDbLine
   6
CONTINUOUS
  62
6
  10
 4165.2177587805
  20
 4776.3539820234
  30
0.0
  11
 4153.4393441610
  21
 4777.6861008690
  31
0.0
   0
LWPOLYLINE
   5
230
 100
AcDbEntity
   8
LEVEL001
 370
9
   6
DOT
  62
6
 100
AcDbPolyline
  90
4
  70
0
  10
 3033.1500000000
  20
 4870.9992154555
  10
 3033.1500000000
  20
 4843.9992154555
  10
 2966.8500000000
  20
 4843.9992154555
  10
 2966.8500000000
  20
 4870.9992154555
   0
LWPOLYLINE
   5
231
 100
AcDbEntity
   8
LEVEL001
 370
13
   6
CONTINUOUS
  62
1
 100
AcDbPolyline
  90
4
  70
1
  10
 3038.1500000000
  20
 4873.9992154555
  10
 2961.8500000000
  20
 4873.9992154555
  10
 2961.8500000000
  20
 4870.9992154555
  10
 3038.1500000000
  20
 4870.9992154555
   0
LINE
   5
232
 100
AcDbEntity
   8
LEVEL001
 370
9
 100
AcDbLine
   6
DASHDOT
  62
6
  10
 1500.0000000000
  20
 5120.0000000000
  30
0.0
  11
 1500.0000000000
  21
 769.99921545549
  31
0.0
   0
LINE
   5
233
 100
AcDbEntity
   8
LEVEL001
 370
9
 100
AcDbLine
   6
CONTINUOUS
  62
5
  10
 1802.4999347650
  20
 1769.9992154555
  30
0.0
  11
 1749.9999347650
  21
 1717.4992154555
  31
0.0
   0
LINE
   5
234
 100
AcDbEntity
   8
LEVEL001
 370
9
 100
AcDbLine
   6
CONTINUOUS
  62
5
  10
 1765.9098373411
  20
 1717.4992154555
  30
0.0
  11
 1818.4098373411
  21
 1769.9992154555
  31
0.0
   0
LINE
   5
235
 100
AcDbEntity
   8
LEVEL001
 370
9
 100
AcDbLine
   6
CONTINUOUS
  62
5
  10
 1834.3197399187
  20
 1769.9992154555
  30
0.0
  11
 1781.8197399187
  21
 1717.4992154555
  31
0.0
   0
LINE
   5
236
 100
AcDbEntity
   8
LEVEL001
 370
9
 100
AcDbLine
   6
CONTINUOUS
  62
5
  10
 1797.7296424947
  20
 1717.4992154555
  30
0.0
  11
 1850.2296424947
  21
 1769.9992154555
  31
0.0
   0
LINE
   5
237
 100
AcDbEntity
   8
LEVEL001
 370
9
 100
AcDbLine
   6
CONTINUOUS
  62
5
  10
 1854.9999347653
  20
 1717.4992154555
  30
0.0
  11
 1826.3647886300
  21
 1746.1343615908
  31
0.0
   0
LINE
   5
238
 100
AcDbEntity
   8
LEVEL001
 370
9
 100
AcDbLine
   6
CONTINUOUS
  62
5
  10
 1834.3197399182
  20
 1754.0893128790
  30
0.0
  11
 1870.9098373417
  21
 1717.4992154555
  31
0.0
   0
LINE
   5
239
 100
AcDbEntity
   8
LEVEL001
 370
9
 100
AcDbLine
   6
CONTINUOUS
  62
5
  10
 1886.8197399182
  20
 1717.4992154555
  30
0.0
  11
 1842.2746912064
  21
 1762.0442641672
  31
0.0
   0
LINE
   5
23A
 100
AcDbEntity
   8
LEVEL001
 370
9
 100
AcDbLine
   6
CONTINUOUS
  62
5
  10
 1850.2296424947
  20
 1769.9992154555
  30
0.0
  11
 1902.7296424949
  21
 1717.4992154555
  31
0.0
   0
LINE
   5
23B
 100
AcDbEntity
   8
LEVEL001
 370
9
 100
AcDbLine
   6
CONTINUOUS
  62
5
  10
 1902.7296424949
  20
 1717.4992154555
  30
0.0
  11
 1955.2296424949
  21
 1769.9992154555
  31
0.0
   0
LINE
   5
23C
 100
AcDbEntity
   8
LEVEL001
 370
9
 100
AcDbLine
   6
CONTINUOUS
  62
5
  10
 1907.4999347652
  20
 1769.9992154555
  30
0.0
  11
 1878.8647886300
  21
 1741.3640693203
  31
0.0
   0
LINE
   5
23D
 100
AcDbEntity
   8
LEVEL001
 370
9
 100
AcDbLine
   6
CONTINUOUS
  62
5
  10
 1886.8197399181
  20
 1733.4091180323
  30
0.0
  11
 1923.4098373413
  21
 1769.9992154555
  31
0.0
   0
LINE
   5
23E
 100
AcDbEntity
   8
LEVEL001
 370
9
 100
AcDbLine
   6
CONTINUOUS
  62
5
  10
 1939.3197399189
  20
 1769.9992154555
  30
0.0
  11
 1894.7746912069
  21
 1725.4541667435
  31
0.0
   0
LINE
   5
23F
 100
AcDbEntity
   8
LEVEL001
 370
9
 100
AcDbLine
   6
CONTINUOUS
  62
5
  10
 1959.9999347655
  20
 1717.4992154555
  30
0.0
  11
 1931.3647886302
  21
 1746.1343615908
  31
0.0
   0
LINE
   5
240
 100
AcDbEntity
   8
LEVEL001
 370
9
 100
AcDbLine
   6
CONTINUOUS
  62
5
  10
 1939.3197399184
  20
 1754.0893128790
  30
0.0
  11
 1975.9098373419
  21
 1717.4992154555
  31
0.0
   0
LINE
   5
241
 100
AcDbEntity
   8
LEVEL001
 370
9
 100
AcDbLine
   6
CONTINUOUS
  62
5
  10
 1991.8197399184
  20
 1717.4992154555
  30
0.0
  11
 1947.2746912066
  21
 1762.0442641672
  31
0.0
   0
LINE
   5
242
 100
AcDbEntity
   8
LEVEL001
 370
9
 100
AcDbLine
   6
CONTINUOUS
  62
5
  10
 1955.2296424949
  20
 1769.9992154555
  30
0.0
  11
 2007.7296424951
  21
 1717.4992154555
  31
0.0
   0
LINE
   5
243
 100
AcDbEntity
   8
LEVEL001
 370
9
 100
AcDbLine
   6
CONTINUOUS
  62
5
  10
 1144.9999347649
  20
 1717.4992154555
  30
0.0
  11
 1197.4999347649
  21
 1769.9992154555
  31
0.0
   0
LINE
   5
244
 100
AcDbEntity
   8
LEVEL001
 370
9
 100
AcDbLine
   6
CONTINUOUS
  62
5
  10
 1129.0900321880
  20
 1733.4091180323
  30
0.0
  11
 1165.6801296112
  21
 1769.9992154555
  31
0.0
   0
LINE
   5
245
 100
AcDbEntity
   8
LEVEL001
 370
9
 100
AcDbLine
   6
CONTINUOUS
  62
5
  10
 1181.5900321888
  20
 1769.9992154555
  30
0.0
  11
 1137.0449834768
  21
 1725.4541667435
  31
0.0
   0
LINE
   5
246
 100
AcDbEntity
   8
LEVEL001
 370
9
 100
AcDbLine
   6
CONTINUOUS
  62
5
  10
 1202.2702270354
  20
 1717.4992154555
  30
0.0
  11
 1173.6350809001
  21
 1746.1343615908
  31
0.0
   0
LINE
   5
247
 100
AcDbEntity
   8
LEVEL001
 370
9
 100
AcDbLine
   6
CONTINUOUS
  62
5
  10
 1181.5900321884
  20
 1754.0893128790
  30
0.0
  11
 1218.1801296119
  21
 1717.4992154555
  31
0.0
   0
LINE
   5
248
 100
AcDbEntity
   8
LEVEL001
 370
9
 100
AcDbLine
   6
CONTINUOUS
  62
5
  10
 1234.0900321883
  20
 1717.4992154555
  30
0.0
  11
 1189.5449834766
  21
 1762.0442641672
  31
0.0
   0
LINE
   5
249
 100
AcDbEntity
   8
LEVEL001
 370
9
 100
AcDbLine
   6
CONTINUOUS
  62
5
  10
 1197.4999347649
  20
 1769.9992154555
  30
0.0
  11
 1249.9999347650
  21
 1717.4992154555
  31
0.0
   0
LINE
   5
24A
 100
AcDbEntity
   8
LEVEL001
 370
9
 100
AcDbLine
   6
CONTINUOUS
  62
5
  10
 1044.7702270350
  20
 1769.9992154555
  30
0.0
  11
 992.27022703499
  21
 1717.4992154555
  31
0.0
   0
LINE
   5
24B
 100
AcDbEntity
   8
LEVEL001
 370
9
 100
AcDbLine
   6
CONTINUOUS
  62
5
  10
 1008.1801296110
  20
 1717.4992154555
  30
0.0
  11
 1060.6801296110
  21
 1769.9992154555
  31
0.0
   0
LINE
   5
24C
 100
AcDbEntity
   8
LEVEL001
 370
9
 100
AcDbLine
   6
CONTINUOUS
  62
5
  10
 1076.5900321886
  20
 1769.9992154555
  30
0.0
  11
 1024.0900321886
  21
 1717.4992154555
  31
0.0
   0
LINE
   5
24D
 100
AcDbEntity
   8
LEVEL001
 370
9
 100
AcDbLine
   6
CONTINUOUS
  62
5
  10
 1039.9999347647
  20
 1717.4992154555
  30
0.0
  11
 1092.4999347647
  21
 1769.9992154555
  31
0.0
   0
LINE
   5
24E
 100
AcDbEntity
   8
LEVEL001
 370
9
 100
AcDbLine
   6
CONTINUOUS
  62
5
  10
 1097.2702270353
  20
 1717.4992154555
  30
0.0
  11
 1068.6350809000
  21
 1746.1343615908
  31
0.0
   0
LINE
   5
24F
 100
AcDbEntity
   8
LEVEL001
 370
9
 100
AcDbLine
   6
CONTINUOUS
  62
5
  10
 1076.5900321882
  20
 1754.0893128790
  30
0.0
  11
 1113.1801296117
  21
 1717.4992154555
  31
0.0
   0
LINE
   5
250
 100
AcDbEntity
   8
LEVEL001
 370
9
 100
AcDbLine
   6
CONTINUOUS
  62
5
  10
 1129.0900321881
  20
 1717.4992154555
  30
0.0
  11
 1084.5449834764
  21
 1762.0442641672
  31
0.0
   0
LINE
   5
251
 100
AcDbEntity
   8
LEVEL001
 370
9
 100
AcDbLine
   6
CONTINUOUS
  62
5
  10
 1092.4999347647
  20
 1769.9992154555
  30
0.0
  11
 1144.9999347649
  21
 1717.4992154555
  31
0.0
   0
LINE
   5
252
 100
AcDbEntity
   8
LEVEL001
 370
9
 100
AcDbLine
   6
CONTINUOUS
  62
5
  10
 1149.7702270352
  20
 1769.9992154555
  30
0.0
  11
 1121.1350809000
  21
 1741.3640693203
  31
0.0
   0
MTEXT
   5
254
 100
AcDbEntity
   8
LEVEL001
 370
13
  62
1
 100
AcDbMText
  10
 1120.6486052095
  20
 1778.7291524958
  30
0.0
  40
 40.000000000000
  41
0.0
  71
7
  72
1
   1
\T1.000000;ＧＬ
   7
GMM005
  44
 0.79999984000003
   0
LWPOLYLINE
   5
255
 100
AcDbEntity
   8
LEVEL001
 370
13
   6
CONTINUOUS
  62
1
 100
AcDbPolyline
  90
3
  70
1
  10
 1092.4999347647
  20
 1769.9992154555
  10
 1067.4999347647
  20
 1819.9992154555
  10
 1117.4999347647
  20
 1819.9992154555
   0
LINE
   5
256
 100
AcDbEntity
   8
LEVEL001
 370
9
 100
AcDbLine
   6
CONTINUOUS
  62
5
  10
 1461.8500000000
  20
 1769.9992154555
  30
0.0
  11
 1000.0000000000
  21
 1769.9992154555
  31
0.0
   0
LINE
   5
257
 100
AcDbEntity
   8
LEVEL001
 370
9
 100
AcDbLine
   6
CONTINUOUS
  62
5
  10
 1538.1500000000
  20
 1769.9992154555
  30
0.0
  11
 2000.0000000000
  21
 1769.9992154555
  31
0.0
   0
LWPOLYLINE
   5
258
 100
AcDbEntity
   8
LEVEL001
 370
9
   6
CONTINUOUS
  62
5
 100
AcDbPolyline
  90
6
  70
0
  10
 1461.8500000000
  20
 1769.9992154555
  10
 1250.0000000000
  20
 1769.9992154555
  10
 1250.0000000000
  20
 869.99921545549
  10
 1750.0000000000
  20
 869.99921545549
  10
 1750.0000000000
  20
 1769.9992154555
  10
 1538.1500000000
  20
 1769.9992154555
   0
LINE
   5
259
 100
AcDbEntity
   8
LEVEL001
 370
9
 100
AcDbLine
   6
CONTINUOUS
  62
5
  10
 1400.0000000000
  20
 869.99921545549
  30
0.0
  11
 1350.0000000000
  21
 769.99921545549
  31
0.0
   0
LINE
   5
25A
 100
AcDbEntity
   8
LEVEL001
 370
9
 100
AcDbLine
   6
CONTINUOUS
  62
5
  10
 1350.0000000000
  20
 869.99921545549
  30
0.0
  11
 1390.0000000000
  21
 849.99921545549
  31
0.0
   0
LINE
   5
25B
 100
AcDbEntity
   8
LEVEL001
 370
9
 100
AcDbLine
   6
CONTINUOUS
  62
5
  10
 1350.0000000000
  20
 869.99921545549
  30
0.0
  11
 1300.0000000000
  21
 769.99921545549
  31
0.0
   0
LINE
   5
25C
 100
AcDbEntity
   8
LEVEL001
 370
9
 100
AcDbLine
   6
CONTINUOUS
  62
5
  10
 1300.0000000000
  20
 869.99921545549
  30
0.0
  11
 1340.0000000000
  21
 849.99921545549
  31
0.0
   0
LINE
   5
25D
 100
AcDbEntity
   8
LEVEL001
 370
9
 100
AcDbLine
   6
CONTINUOUS
  62
5
  10
 1300.0000000000
  20
 869.99921545549
  30
0.0
  11
 1250.0000000000
  21
 769.99921545549
  31
0.0
   0
LINE
   5
25E
 100
AcDbEntity
   8
LEVEL001
 370
9
 100
AcDbLine
   6
CONTINUOUS
  62
5
  10
 1250.0000000000
  20
 869.99921545549
  30
0.0
  11
 1290.0000000000
  21
 849.99921545549
  31
0.0
   0
LINE
   5
25F
 100
AcDbEntity
   8
LEVEL001
 370
9
 100
AcDbLine
   6
CONTINUOUS
  62
5
  10
 1400.0000000000
  20
 769.99921545549
  30
0.0
  11
 1360.0000000000
  21
 789.99921545549
  31
0.0
   0
LINE
   5
260
 100
AcDbEntity
   8
LEVEL001
 370
9
 100
AcDbLine
   6
CONTINUOUS
  62
5
  10
 1350.0000000000
  20
 769.99921545549
  30
0.0
  11
 1310.0000000000
  21
 789.99921545549
  31
0.0
   0
LINE
   5
261
 100
AcDbEntity
   8
LEVEL001
 370
9
 100
AcDbLine
   6
CONTINUOUS
  62
5
  10
 1300.0000000000
  20
 769.99921545549
  30
0.0
  11
 1260.0000000000
  21
 789.99921545549
  31
0.0
   0
LINE
   5
262
 100
AcDbEntity
   8
LEVEL001
 370
9
 100
AcDbLine
   6
CONTINUOUS
  62
5
  10
 1750.0000000000
  20
 869.99921545549
  30
0.0
  11
 1700.0000000000
  21
 769.99921545549
  31
0.0
   0
LINE
   5
263
 100
AcDbEntity
   8
LEVEL001
 370
9
 100
AcDbLine
   6
CONTINUOUS
  62
5
  10
 1700.0000000000
  20
 869.99921545549
  30
0.0
  11
 1740.0000000000
  21
 849.99921545549
  31
0.0
   0
LINE
   5
264
 100
AcDbEntity
   8
LEVEL001
 370
9
 100
AcDbLine
   6
CONTINUOUS
  62
5
  10
 1700.0000000000
  20
 869.99921545549
  30
0.0
  11
 1650.0000000000
  21
 769.99921545549
  31
0.0
   0
LINE
   5
265
 100
AcDbEntity
   8
LEVEL001
 370
9
 100
AcDbLine
   6
CONTINUOUS
  62
5
  10
 1650.0000000000
  20
 869.99921545549
  30
0.0
  11
 1690.0000000000
  21
 849.99921545549
  31
0.0
   0
LINE
   5
266
 100
AcDbEntity
   8
LEVEL001
 370
9
 100
AcDbLine
   6
CONTINUOUS
  62
5
  10
 1650.0000000000
  20
 869.99921545549
  30
0.0
  11
 1600.0000000000
  21
 769.99921545549
  31
0.0
   0
LINE
   5
267
 100
AcDbEntity
   8
LEVEL001
 370
9
 100
AcDbLine
   6
CONTINUOUS
  62
5
  10
 1600.0000000000
  20
 869.99921545549
  30
0.0
  11
 1640.0000000000
  21
 849.99921545549
  31
0.0
   0
LINE
   5
268
 100
AcDbEntity
   8
LEVEL001
 370
9
 100
AcDbLine
   6
CONTINUOUS
  62
5
  10
 1750.0000000000
  20
 769.99921545549
  30
0.0
  11
 1710.0000000000
  21
 789.99921545549
  31
0.0
   0
LINE
   5
269
 100
AcDbEntity
   8
LEVEL001
 370
9
 100
AcDbLine
   6
CONTINUOUS
  62
5
  10
 1700.0000000000
  20
 769.99921545549
  30
0.0
  11
 1660.0000000000
  21
 789.99921545549
  31
0.0
   0
LINE
   5
26A
 100
AcDbEntity
   8
LEVEL001
 370
9
 100
AcDbLine
   6
CONTINUOUS
  62
5
  10
 1650.0000000000
  20
 769.99921545549
  30
0.0
  11
 1610.0000000000
  21
 789.99921545549
  31
0.0
   0
LWPOLYLINE
   5
26B
 100
AcDbEntity
   8
LEVEL001
 370
9
   6
CONTINUOUS
  62
5
 100
AcDbPolyline
  90
4
  70
1
  10
 1250.0000000000
  20
 869.99921545549
  10
 1250.0000000000
  20
 769.99921545549
  10
 1750.0000000000
  20
 769.99921545549
  10
 1750.0000000000
  20
 869.99921545549
   0
LINE
   5
26C
 100
AcDbEntity
   8
LEVEL001
 370
9
 100
AcDbLine
   6
DASHDOT
  62
6
  10
 1439.9999819144
  20
 1269.9992154555
  30
0.0
  11
 1559.9999819144
  21
 1269.9992154555
  31
0.0
   0
CIRCLE
   5
26D
 100
AcDbEntity
   8
LEVEL001
 370
25
 100
AcDbCircle
   6
CONTINUOUS
  62
7
  10
 1499.9999661979
  20
 1169.9992154555
  30
0.0
  40
 7.5000000000000
   0
LINE
   5
26E
 100
AcDbEntity
   8
LEVEL001
 370
9
 100
AcDbLine
   6
DASHDOT
  62
6
  10
 1469.9999661979
  20
 1169.9992154555
  30
0.0
  11
 1529.9999661979
  21
 1169.9992154555
  31
0.0
   0
CIRCLE
   5
26F
 100
AcDbEntity
   8
LEVEL001
 370
13
 100
AcDbCircle
   6
CONTINUOUS
  62
1
  10
 1750.0000000000
  20
 2644.9992154555
  30
0.0
  40
 69.999997913838
   0
MTEXT
   5
271
 100
AcDbEntity
   8
LEVEL001
 370
25
  62
7
 100
AcDbMText
  10
 1750.0000000000
  20
 2644.9992154555
  30
0.0
  40
 66.000000000000
  41
0.0
  71
5
  72
1
   1
\T1.000000;１０
   7
GMM004
  44
 0.79999984000003
   0
LINE
   5
272
 100
AcDbEntity
   8
LEVEL001
 370
9
 100
AcDbLine
   6
CONTINUOUS
  62
5
  10
 1750.0000000000
  20
 1605.3545545150
  30
0.0
  11
 1538.1500000000
  21
 1393.5045545150
  31
0.0
   0
LINE
   5
273
 100
AcDbEntity
   8
LEVEL001
 370
9
 100
AcDbLine
   6
CONTINUOUS
  62
5
  10
 1538.1500000000
  20
 1358.1492154557
  30
0.0
  11
 1750.0000000000
  21
 1569.9992154557
  31
0.0
   0
LINE
   5
274
 100
AcDbEntity
   8
LEVEL001
 370
9
 100
AcDbLine
   6
CONTINUOUS
  62
5
  10
 1750.0000000000
  20
 1534.6438763964
  30
0.0
  11
 1538.1500000000
  21
 1322.7938763964
  31
0.0
   0
LINE
   5
275
 100
AcDbEntity
   8
LEVEL001
 370
9
 100
AcDbLine
   6
CONTINUOUS
  62
5
  10
 1461.8500000000
  20
 1246.4938763964
  30
0.0
  11
 1250.0000000000
  21
 1034.6438763964
  31
0.0
   0
LINE
   5
276
 100
AcDbEntity
   8
LEVEL001
 370
9
 100
AcDbLine
   6
CONTINUOUS
  62
5
  10
 2297.4999999998
  20
 1769.9992154555
  30
0.0
  11
 2350.0000000000
  21
 1717.4992154555
  31
0.0
   0
LINE
   5
277
 100
AcDbEntity
   8
LEVEL001
 370
9
 100
AcDbLine
   6
CONTINUOUS
  62
5
  10
 3002.5000000000
  20
 1769.9992154555
  30
0.0
  11
 2950.0000000000
  21
 1717.4992154555
  31
0.0
   0
LINE
   5
278
 100
AcDbEntity
   8
LEVEL001
 370
9
 100
AcDbLine
   6
CONTINUOUS
  62
5
  10
 2965.9099025760
  20
 1717.4992154555
  30
0.0
  11
 3018.4099025760
  21
 1769.9992154555
  31
0.0
   0
LINE
   5
279
 100
AcDbEntity
   8
LEVEL001
 370
9
 100
AcDbLine
   6
CONTINUOUS
  62
5
  10
 3034.3198051536
  20
 1769.9992154555
  30
0.0
  11
 2981.8198051536
  21
 1717.4992154555
  31
0.0
   0
LINE
   5
27A
 100
AcDbEntity
   8
LEVEL001
 370
9
 100
AcDbLine
   6
CONTINUOUS
  62
5
  10
 2997.7297077297
  20
 1717.4992154555
  30
0.0
  11
 3050.2297077297
  21
 1769.9992154555
  31
0.0
   0
LINE
   5
27B
 100
AcDbEntity
   8
LEVEL001
 370
9
 100
AcDbLine
   6
CONTINUOUS
  62
5
  10
 3055.0000000003
  20
 1717.4992154555
  30
0.0
  11
 3026.3648538650
  21
 1746.1343615908
  31
0.0
   0
LINE
   5
27C
 100
AcDbEntity
   8
LEVEL001
 370
9
 100
AcDbLine
   6
CONTINUOUS
  62
5
  10
 3034.3198051532
  20
 1754.0893128790
  30
0.0
  11
 3070.9099025767
  21
 1717.4992154555
  31
0.0
   0
LINE
   5
27D
 100
AcDbEntity
   8
LEVEL001
 370
9
 100
AcDbLine
   6
CONTINUOUS
  62
5
  10
 3086.8198051531
  20
 1717.4992154555
  30
0.0
  11
 3042.2747564414
  21
 1762.0442641672
  31
0.0
   0
LINE
   5
27E
 100
AcDbEntity
   8
LEVEL001
 370
9
 100
AcDbLine
   6
CONTINUOUS
  62
5
  10
 3050.2297077297
  20
 1769.9992154555
  30
0.0
  11
 3102.7297077299
  21
 1717.4992154555
  31
0.0
   0
LINE
   5
27F
 100
AcDbEntity
   8
LEVEL001
 370
9
 100
AcDbLine
   6
CONTINUOUS
  62
5
  10
 3102.7297077299
  20
 1717.4992154555
  30
0.0
  11
 3155.2297077299
  21
 1769.9992154555
  31
0.0
   0
LINE
   5
280
 100
AcDbEntity
   8
LEVEL001
 370
9
 100
AcDbLine
   6
CONTINUOUS
  62
5
  10
 3107.5000000002
  20
 1769.9992154555
  30
0.0
  11
 3078.8648538650
  21
 1741.3640693203
  31
0.0
   0
LINE
   5
281
 100
AcDbEntity
   8
LEVEL001
 370
9
 100
AcDbLine
   6
CONTINUOUS
  62
5
  10
 3086.8198051530
  20
 1733.4091180323
  30
0.0
  11
 3123.4099025762
  21
 1769.9992154555
  31
0.0
   0
LINE
   5
282
 100
AcDbEntity
   8
LEVEL001
 370
9
 100
AcDbLine
   6
CONTINUOUS
  62
5
  10
 3139.3198051538
  20
 1769.9992154555
  30
0.0
  11
 3094.7747564418
  21
 1725.4541667435
  31
0.0
   0
LINE
   5
283
 100
AcDbEntity
   8
LEVEL001
 370
9
 100
AcDbLine
   6
CONTINUOUS
  62
5
  10
 3160.0000000005
  20
 1717.4992154555
  30
0.0
  11
 3131.3648538652
  21
 1746.1343615908
  31
0.0
   0
LINE
   5
284
 100
AcDbEntity
   8
LEVEL001
 370
9
 100
AcDbLine
   6
CONTINUOUS
  62
5
  10
 3139.3198051534
  20
 1754.0893128790
  30
0.0
  11
 3175.9099025769
  21
 1717.4992154555
  31
0.0
   0
LINE
   5
285
 100
AcDbEntity
   8
LEVEL001
 370
9
 100
AcDbLine
   6
CONTINUOUS
  62
5
  10
 3191.8198051533
  20
 1717.4992154555
  30
0.0
  11
 3147.2747564416
  21
 1762.0442641672
  31
0.0
   0
LINE
   5
286
 100
AcDbEntity
   8
LEVEL001
 370
9
 100
AcDbLine
   6
CONTINUOUS
  62
5
  10
 3155.2297077299
  20
 1769.9992154555
  30
0.0
  11
 3207.7297077301
  21
 1717.4992154555
  31
0.0
   0
LINE
   5
287
 100
AcDbEntity
   8
LEVEL001
 370
9
 100
AcDbLine
   6
CONTINUOUS
  62
5
  10
 2400.0000000000
  20
 1769.9992154555
  30
0.0
  11
 2100.0000652350
  21
 1769.9992154555
  31
0.0
   0
LINE
   5
288
 100
AcDbEntity
   8
LEVEL001
 370
9
 100
AcDbLine
   6
CONTINUOUS
  62
5
  10
 2900.0000000000
  20
 1769.9992154555
  30
0.0
  11
 3200.0000652350
  21
 1769.9992154555
  31
0.0
   0
LWPOLYLINE
   5
289
 100
AcDbEntity
   8
LEVEL001
 370
9
   6
CONTINUOUS
  62
5
 100
AcDbPolyline
  90
6
  70
0
  10
 2611.8500000000
  20
 1769.9992154555
  10
 2400.0000000000
  20
 1769.9992154555
  10
 2400.0000000000
  20
 869.99921545549
  10
 2900.0000000000
  20
 869.99921545549
  10
 2900.0000000000
  20
 1769.9992154555
  10
 2688.1500000000
  20
 1769.9992154555
   0
LINE
   5
28A
 100
AcDbEntity
   8
LEVEL001
 370
9
 100
AcDbLine
   6
CONTINUOUS
  62
5
  10
 2244.9999999998
  20
 1717.4992154555
  30
0.0
  11
 2297.4999999998
  21
 1769.9992154555
  31
0.0
   0
LINE
   5
28B
 100
AcDbEntity
   8
LEVEL001
 370
9
 100
AcDbLine
   6
CONTINUOUS
  62
5
  10
 2229.0900974230
  20
 1733.4091180323
  30
0.0
  11
 2265.6801948462
  21
 1769.9992154555
  31
0.0
   0
LINE
   5
28C
 100
AcDbEntity
   8
LEVEL001
 370
9
 100
AcDbLine
   6
CONTINUOUS
  62
5
  10
 2281.5900974238
  20
 1769.9992154555
  30
0.0
  11
 2237.0450487118
  21
 1725.4541667435
  31
0.0
   0
LINE
   5
28D
 100
AcDbEntity
   8
LEVEL001
 370
9
 100
AcDbLine
   6
CONTINUOUS
  62
5
  10
 2302.2702922704
  20
 1717.4992154555
  30
0.0
  11
 2273.6351461351
  21
 1746.1343615908
  31
0.0
   0
LINE
   5
28E
 100
AcDbEntity
   8
LEVEL001
 370
9
 100
AcDbLine
   6
CONTINUOUS
  62
5
  10
 2281.5900974233
  20
 1754.0893128790
  30
0.0
  11
 2318.1801948468
  21
 1717.4992154555
  31
0.0
   0
LINE
   5
28F
 100
AcDbEntity
   8
LEVEL001
 370
9
 100
AcDbLine
   6
CONTINUOUS
  62
5
  10
 2334.0900974233
  20
 1717.4992154555
  30
0.0
  11
 2289.5450487115
  21
 1762.0442641672
  31
0.0
   0
LINE
   5
290
 100
AcDbEntity
   8
LEVEL001
 370
9
 100
AcDbLine
   6
CONTINUOUS
  62
5
  10
 2144.7702922700
  20
 1769.9992154555
  30
0.0
  11
 2092.2702922700
  21
 1717.4992154555
  31
0.0
   0
LINE
   5
291
 100
AcDbEntity
   8
LEVEL001
 370
9
 100
AcDbLine
   6
CONTINUOUS
  62
5
  10
 2108.1801948460
  20
 1717.4992154555
  30
0.0
  11
 2160.6801948460
  21
 1769.9992154555
  31
0.0
   0
LINE
   5
292
 100
AcDbEntity
   8
LEVEL001
 370
9
 100
AcDbLine
   6
CONTINUOUS
  62
5
  10
 2176.5900974236
  20
 1769.9992154555
  30
0.0
  11
 2124.0900974236
  21
 1717.4992154555
  31
0.0
   0
LINE
   5
293
 100
AcDbEntity
   8
LEVEL001
 370
9
 100
AcDbLine
   6
CONTINUOUS
  62
5
  10
 2139.9999999996
  20
 1717.4992154555
  30
0.0
  11
 2192.4999999996
  21
 1769.9992154555
  31
0.0
   0
LINE
   5
294
 100
AcDbEntity
   8
LEVEL001
 370
9
 100
AcDbLine
   6
CONTINUOUS
  62
5
  10
 2197.2702922702
  20
 1717.4992154555
  30
0.0
  11
 2168.6351461349
  21
 1746.1343615908
  31
0.0
   0
LINE
   5
295
 100
AcDbEntity
   8
LEVEL001
 370
9
 100
AcDbLine
   6
CONTINUOUS
  62
5
  10
 2176.5900974231
  20
 1754.0893128790
  30
0.0
  11
 2213.1801948467
  21
 1717.4992154555
  31
0.0
   0
LINE
   5
296
 100
AcDbEntity
   8
LEVEL001
 370
9
 100
AcDbLine
   6
CONTINUOUS
  62
5
  10
 2229.0900974231
  20
 1717.4992154555
  30
0.0
  11
 2184.5450487114
  21
 1762.0442641672
  31
0.0
   0
LINE
   5
297
 100
AcDbEntity
   8
LEVEL001
 370
9
 100
AcDbLine
   6
CONTINUOUS
  62
5
  10
 2192.4999999996
  20
 1769.9992154555
  30
0.0
  11
 2244.9999999998
  21
 1717.4992154555
  31
0.0
   0
LINE
   5
298
 100
AcDbEntity
   8
LEVEL001
 370
9
 100
AcDbLine
   6
CONTINUOUS
  62
5
  10
 2249.7702922701
  20
 1769.9992154555
  30
0.0
  11
 2221.1351461349
  21
 1741.3640693203
  31
0.0
   0
MTEXT
   5
29A
 100
AcDbEntity
   8
LEVEL001
 370
13
  62
1
 100
AcDbMText
  10
 2220.6486704444
  20
 1778.7291524958
  30
0.0
  40
 40.000000000000
  41
0.0
  71
7
  72
1
   1
\T1.000000;ＧＬ
   7
GMM005
  44
 0.79999984000003
   0
LWPOLYLINE
   5
29B
 100
AcDbEntity
   8
LEVEL001
 370
13
   6
CONTINUOUS
  62
1
 100
AcDbPolyline
  90
3
  70
1
  10
 2192.4999999996
  20
 1769.9992154555
  10
 2167.4999999996
  20
 1819.9992154555
  10
 2217.4999999996
  20
 1819.9992154555
   0
LINE
   5
29C
 100
AcDbEntity
   8
LEVEL001
 370
9
 100
AcDbLine
   6
CONTINUOUS
  62
5
  10
 2550.0000000000
  20
 869.99921545549
  30
0.0
  11
 2500.0000000000
  21
 769.99921545549
  31
0.0
   0
LINE
   5
29D
 100
AcDbEntity
   8
LEVEL001
 370
9
 100
AcDbLine
   6
CONTINUOUS
  62
5
  10
 2500.0000000000
  20
 869.99921545549
  30
0.0
  11
 2540.0000000000
  21
 849.99921545549
  31
0.0
   0
LINE
   5
29E
 100
AcDbEntity
   8
LEVEL001
 370
9
 100
AcDbLine
   6
CONTINUOUS
  62
5
  10
 2500.0000000000
  20
 869.99921545549
  30
0.0
  11
 2450.0000000000
  21
 769.99921545549
  31
0.0
   0
LINE
   5
29F
 100
AcDbEntity
   8
LEVEL001
 370
9
 100
AcDbLine
   6
CONTINUOUS
  62
5
  10
 2450.0000000000
  20
 869.99921545549
  30
0.0
  11
 2490.0000000000
  21
 849.99921545549
  31
0.0
   0
LINE
   5
2A0
 100
AcDbEntity
   8
LEVEL001
 370
9
 100
AcDbLine
   6
CONTINUOUS
  62
5
  10
 2450.0000000000
  20
 869.99921545549
  30
0.0
  11
 2400.0000000000
  21
 769.99921545549
  31
0.0
   0
LINE
   5
2A1
 100
AcDbEntity
   8
LEVEL001
 370
9
 100
AcDbLine
   6
CONTINUOUS
  62
5
  10
 2400.0000000000
  20
 869.99921545549
  30
0.0
  11
 2440.0000000000
  21
 849.99921545549
  31
0.0
   0
LINE
   5
2A2
 100
AcDbEntity
   8
LEVEL001
 370
9
 100
AcDbLine
   6
CONTINUOUS
  62
5
  10
 2550.0000000000
  20
 769.99921545549
  30
0.0
  11
 2510.0000000000
  21
 789.99921545549
  31
0.0
   0
LINE
   5
2A3
 100
AcDbEntity
   8
LEVEL001
 370
9
 100
AcDbLine
   6
CONTINUOUS
  62
5
  10
 2500.0000000000
  20
 769.99921545549
  30
0.0
  11
 2460.0000000000
  21
 789.99921545549
  31
0.0
   0
LINE
   5
2A4
 100
AcDbEntity
   8
LEVEL001
 370
9
 100
AcDbLine
   6
CONTINUOUS
  62
5
  10
 2450.0000000000
  20
 769.99921545549
  30
0.0
  11
 2410.0000000000
  21
 789.99921545549
  31
0.0
   0
LINE
   5
2A5
 100
AcDbEntity
   8
LEVEL001
 370
9
 100
AcDbLine
   6
CONTINUOUS
  62
5
  10
 2900.0000000000
  20
 869.99921545549
  30
0.0
  11
 2850.0000000000
  21
 769.99921545549
  31
0.0
   0
LINE
   5
2A6
 100
AcDbEntity
   8
LEVEL001
 370
9
 100
AcDbLine
   6
CONTINUOUS
  62
5
  10
 2850.0000000000
  20
 869.99921545549
  30
0.0
  11
 2890.0000000000
  21
 849.99921545549
  31
0.0
   0
LINE
   5
2A7
 100
AcDbEntity
   8
LEVEL001
 370
9
 100
AcDbLine
   6
CONTINUOUS
  62
5
  10
 2850.0000000000
  20
 869.99921545549
  30
0.0
  11
 2800.0000000000
  21
 769.99921545549
  31
0.0
   0
LINE
   5
2A8
 100
AcDbEntity
   8
LEVEL001
 370
9
 100
AcDbLine
   6
CONTINUOUS
  62
5
  10
 2800.0000000000
  20
 869.99921545549
  30
0.0
  11
 2840.0000000000
  21
 849.99921545549
  31
0.0
   0
LINE
   5
2A9
 100
AcDbEntity
   8
LEVEL001
 370
9
 100
AcDbLine
   6
CONTINUOUS
  62
5
  10
 2800.0000000000
  20
 869.99921545549
  30
0.0
  11
 2750.0000000000
  21
 769.99921545549
  31
0.0
   0
LINE
   5
2AA
 100
AcDbEntity
   8
LEVEL001
 370
9
 100
AcDbLine
   6
CONTINUOUS
  62
5
  10
 2750.0000000000
  20
 869.99921545549
  30
0.0
  11
 2790.0000000000
  21
 849.99921545549
  31
0.0
   0
LINE
   5
2AB
 100
AcDbEntity
   8
LEVEL001
 370
9
 100
AcDbLine
   6
CONTINUOUS
  62
5
  10
 2900.0000000000
  20
 769.99921545549
  30
0.0
  11
 2860.0000000000
  21
 789.99921545549
  31
0.0
   0
LINE
   5
2AC
 100
AcDbEntity
   8
LEVEL001
 370
9
 100
AcDbLine
   6
CONTINUOUS
  62
5
  10
 2850.0000000000
  20
 769.99921545549
  30
0.0
  11
 2810.0000000000
  21
 789.99921545549
  31
0.0
   0
LINE
   5
2AD
 100
AcDbEntity
   8
LEVEL001
 370
9
 100
AcDbLine
   6
CONTINUOUS
  62
5
  10
 2800.0000000000
  20
 769.99921545549
  30
0.0
  11
 2760.0000000000
  21
 789.99921545549
  31
0.0
   0
LWPOLYLINE
   5
2AE
 100
AcDbEntity
   8
LEVEL001
 370
9
   6
CONTINUOUS
  62
5
 100
AcDbPolyline
  90
4
  70
1
  10
 2400.0000000000
  20
 869.99921545549
  10
 2400.0000000000
  20
 769.99921545549
  10
 2900.0000000000
  20
 769.99921545549
  10
 2900.0000000000
  20
 869.99921545549
   0
LWPOLYLINE
   5
2AF
 100
AcDbEntity
   8
LEVEL001
 370
25
   6
CONTINUOUS
  62
7
 100
AcDbPolyline
  90
4
  70
0
  10
 2688.1500000000
  20
 1177.4992154555
  10
 2759.9999819144
  20
 1177.4992154555
  10
 2759.9999819144
  20
 1162.4992154555
  10
 2688.1500000000
  20
 1162.4992154555
   0
LWPOLYLINE
   5
2B0
 100
AcDbEntity
   8
LEVEL001
 370
25
   6
CONTINUOUS
  62
7
 100
AcDbPolyline
  90
4
  70
0
  10
 2611.8500000000
  20
 1177.4992154555
  10
 2539.9999819144
  20
 1177.4992154555
  10
 2539.9999819144
  20
 1162.4992154555
  10
 2611.8500000000
  20
 1162.4992154555
   0
CIRCLE
   5
2B1
 100
AcDbEntity
   8
LEVEL001
 370
13
 100
AcDbCircle
   6
CONTINUOUS
  62
1
  10
 2275.0000000000
  20
 1019.9992154555
  30
0.0
  40
 69.999997913838
   0
MTEXT
   5
2B3
 100
AcDbEntity
   8
LEVEL001
 370
25
  62
7
 100
AcDbMText
  10
 2275.0000000000
  20
 1019.9992154555
  30
0.0
  40
 66.000000000000
  41
0.0
  71
5
  72
1
   1
\T1.000000;１１
   7
GMM004
  44
 0.79999984000003
   0
LINE
   5
2B4
 100
AcDbEntity
   8
LEVEL001
 370
9
 100
AcDbLine
   6
CONTINUOUS
  62
5
  10
 2900.0000000000
  20
 1605.3545545150
  30
0.0
  11
 2688.1500000000
  21
 1393.5045545150
  31
0.0
   0
LINE
   5
2B5
 100
AcDbEntity
   8
LEVEL001
 370
9
 100
AcDbLine
   6
CONTINUOUS
  62
5
  10
 2688.1500000000
  20
 1358.1492154557
  30
0.0
  11
 2900.0000000000
  21
 1569.9992154557
  31
0.0
   0
LINE
   5
2B6
 100
AcDbEntity
   8
LEVEL001
 370
9
 100
AcDbLine
   6
CONTINUOUS
  62
5
  10
 2611.8500000000
  20
 1317.2045545150
  30
0.0
  11
 2400.0000000000
  21
 1105.3545545150
  31
0.0
   0
LINE
   5
2B7
 100
AcDbEntity
   8
LEVEL001
 370
9
 100
AcDbLine
   6
CONTINUOUS
  62
5
  10
 2400.0000000000
  20
 1069.9992154557
  30
0.0
  11
 2611.8500000000
  21
 1281.8492154557
  31
0.0
   0
LINE
   5
2B8
 100
AcDbEntity
   8
LEVEL001
 370
9
 100
AcDbLine
   6
CONTINUOUS
  62
5
  10
 2900.0000000000
  20
 1534.6438763964
  30
0.0
  11
 2688.1500000000
  21
 1322.7938763964
  31
0.0
   0
LINE
   5
2B9
 100
AcDbEntity
   8
LEVEL001
 370
9
 100
AcDbLine
   6
CONTINUOUS
  62
5
  10
 2611.8500000000
  20
 1246.4938763964
  30
0.0
  11
 2400.0000000000
  21
 1034.6438763964
  31
0.0
   0
CIRCLE
   5
2BA
 100
AcDbEntity
   8
LEVEL001
 370
25
 100
AcDbCircle
   6
CONTINUOUS
  62
7
  10
 2650.0000000000
  20
 1269.9992154555
  30
0.0
  40
 7.5000000000000
   0
LINE
   5
2BB
 100
AcDbEntity
   8
LEVEL001
 370
9
 100
AcDbLine
   6
DASHDOT
  62
6
  10
 2620.0000000000
  20
 1269.9992154555
  30
0.0
  11
 2680.0000000000
  21
 1269.9992154555
  31
0.0
   0
LINE
   5
2BC
 100
AcDbEntity
   8
LEVEL001
 370
9
 100
AcDbLine
   6
DASHDOT
  62
6
  10
 2590.0000000000
  20
 1169.9992154555
  30
0.0
  11
 2710.0000000000
  21
 1169.9992154555
  31
0.0
   0
ARC
   5
2BD
 100
AcDbEntity
   8
LEVEL001
 370
25
   6
CONTINUOUS
  62
7
 100
AcDbCircle
  10
 2988.1500000000
  20
 3503.9773297451
  30
0.0
  40
 300.00000000000
 100
AcDbArc
  50
 142.12501634890
  51
 180.00000000000
   0
LINE
   5
2BE
 100
AcDbEntity
   8
LEVEL001
 370
9
 100
AcDbLine
   6
DASHDOT
  62
6
  10
 2721.2305476942
  20
 3711.5813482052
  30
0.0
  11
 2928.7694523058
  21
 3978.4170827058
  31
0.0
   0
ARC
   5
2BF
 100
AcDbEntity
   8
LEVEL001
 370
9
   6
DASHDOT
  62
6
 100
AcDbCircle
  10
 2988.1500000000
  20
 3503.9773297451
  30
0.0
  40
 338.15000000000
 100
AcDbArc
  50
 142.12501634890
  51
 180.00000000000
   0
ARC
   5
2C0
 100
AcDbEntity
   8
LEVEL001
 370
25
   6
CONTINUOUS
  62
7
 100
AcDbCircle
  10
 2988.1500000000
  20
 3503.9773297451
  30
0.0
  40
 376.30000000000
 100
AcDbArc
  50
 142.12501634890
  51
 180.00000000000
   0
LINE
   5
2C1
 100
AcDbEntity
   8
LEVEL001
 370
25
 100
AcDbLine
   6
CONTINUOUS
  62
7
  10
 2898.6556652129
  20
 4001.8389171114
  30
0.0
  11
 2691.1167606013
  21
 3735.0031826107
  31
0.0
   0
LINE
   5
2C2
 100
AcDbEntity
   8
LEVEL001
 370
25
 100
AcDbLine
   6
CONTINUOUS
  62
7
  10
 2751.3443347871
  20
 3688.1595137995
  30
0.0
  11
 2958.8832393987
  21
 3954.9952483002
  31
0.0
   0
CIRCLE
   5
2C3
 100
AcDbEntity
   8
LEVEL001
 370
13
 100
AcDbCircle
   6
CONTINUOUS
  62
1
  10
 3250.0000000000
  20
 3635.4773297443
  30
0.0
  40
 69.999997913838
   0
MTEXT
   5
2C5
 100
AcDbEntity
   8
LEVEL001
 370
25
  62
7
 100
AcDbMText
  10
 3250.0000000000
  20
 3635.4773297443
  30
0.0
  40
 66.000000000000
  41
0.0
  71
5
  72
1
   1
\T1.000000;１４
   7
GMM004
  44
 0.79999984000003
   0
CIRCLE
   5
2C6
 100
AcDbEntity
   8
LEVEL001
 370
13
 100
AcDbCircle
   6
CONTINUOUS
  62
1
  10
 3389.9999958277
  20
 3635.4773297443
  30
0.0
  40
 69.999997913838
   0
MTEXT
   5
2C8
 100
AcDbEntity
   8
LEVEL001
 370
25
  62
7
 100
AcDbMText
  10
 3389.9999958277
  20
 3635.4773297443
  30
0.0
  40
 66.000000000000
  41
0.0
  71
5
  72
1
   1
\T1.000000;１５
   7
GMM004
  44
 0.79999984000003
   0
ARC
   5
2C9
 100
AcDbEntity
   8
LEVEL001
 370
25
   6
CONTINUOUS
  62
7
 100
AcDbCircle
  10
 1445.0000000002
  20
 3665.4773297451
  30
0.0
  40
 20.000000000000
 100
AcDbArc
  50
 90.000000000000
  51
 180.00000000000
   0
LINE
   5
2CA
 100
AcDbEntity
   8
LEVEL001
 370
25
 100
AcDbLine
   6
CONTINUOUS
  62
7
  10
 1425.0000000002
  20
 3665.4773297451
  30
0.0
  11
 1425.0000000002
  21
 3305.4773297451
  31
0.0
   0
LINE
   5
2CB
 100
AcDbEntity
   8
LEVEL001
 370
25
 100
AcDbLine
   6
CONTINUOUS
  62
7
  10
 1555.0000000002
  20
 3685.4773297451
  30
0.0
  11
 1445.0000000002
  21
 3685.4773297451
  31
0.0
   0
ARC
   5
2CC
 100
AcDbEntity
   8
LEVEL001
 370
25
   6
CONTINUOUS
  62
7
 100
AcDbCircle
  10
 1555.0000000002
  20
 3665.4773297451
  30
0.0
  40
 20.000000000000
 100
AcDbArc
  50
0.0
  51
 90.000000000000
   0
LINE
   5
2CD
 100
AcDbEntity
   8
LEVEL001
 370
25
 100
AcDbLine
   6
CONTINUOUS
  62
7
  10
 1575.0000000002
  20
 3305.4773297451
  30
0.0
  11
 1575.0000000002
  21
 3665.4773297451
  31
0.0
   0
ARC
   5
2CE
 100
AcDbEntity
   8
LEVEL001
 370
25
   6
CONTINUOUS
  62
7
 100
AcDbCircle
  10
 1555.0000000002
  20
 3305.4773297451
  30
0.0
  40
 20.000000000000
 100
AcDbArc
  50
 270.00000000000
  51
0.0
   0
ARC
   5
2CF
 100
AcDbEntity
   8
LEVEL001
 370
25
   6
CONTINUOUS
  62
7
 100
AcDbCircle
  10
 1445.0000000002
  20
 3305.4773297451
  30
0.0
  40
 20.000000000000
 100
AcDbArc
  50
 180.00000000000
  51
 270.00000000000
   0
LINE
   5
2D0
 100
AcDbEntity
   8
LEVEL001
 370
25
 100
AcDbLine
   6
CONTINUOUS
  62
7
  10
 1445.0000000002
  20
 3285.4773297451
  30
0.0
  11
 1555.0000000002
  21
 3285.4773297451
  31
0.0
   0
LWPOLYLINE
   5
2D1
 100
AcDbEntity
   8
LEVEL001
 370
9
   6
CONTINUOUS
  62
5
 100
AcDbPolyline
  90
7
  70
1
  10
 1500.0000000002
  20
 3645.4773297451
  10
 1463.7000010820
  20
 3599.2773311220
  10
 1483.5000004919
  20
 3599.2773311220
  10
 1483.5000004919
  20
 3579.4773317120
  10
 1516.4999995084
  20
 3579.4773317120
  10
 1516.4999995084
  20
 3599.2773311220
  10
 1536.2999989183
  20
 3599.2773311220
   0
CIRCLE
   5
2D2
 100
AcDbEntity
   8
LEVEL001
 370
13
 100
AcDbCircle
   6
CONTINUOUS
  62
1
  10
 1750.0000000000
  20
 3385.4773297443
  30
0.0
  40
 69.999997913838
   0
MTEXT
   5
2D4
 100
AcDbEntity
   8
LEVEL001
 370
25
  62
7
 100
AcDbMText
  10
 1750.0000000000
  20
 3385.4773297443
  30
0.0
  40
 66.000000000000
  41
0.0
  71
5
  72
1
   1
\T1.000000;１３
   7
GMM004
  44
 0.79999984000003
   0
ARC
   5
2D5
 100
AcDbEntity
   8
LEVEL001
 370
25
   6
CONTINUOUS
  62
7
 100
AcDbCircle
  10
 2600.0773787504
  20
 3294.1190500349
  30
0.0
  40
 5.0000000000000
 100
AcDbArc
  50
 180.00000000000
  51
 201.80140948636
   0
LINE
   5
2D6
 100
AcDbEntity
   8
LEVEL001
 370
25
 100
AcDbLine
   6
CONTINUOUS
  62
7
  10
 2598.1489020595
  20
 3285.4773297443
  30
0.0
  11
 2595.4349952960
  21
 3292.2620966531
  31
0.0
   0
ARC
   5
2D7
 100
AcDbEntity
   8
LEVEL001
 370
25
   6
CONTINUOUS
  62
7
 100
AcDbCircle
  10
 2594.0773787504
  20
 3301.3249762034
  30
0.0
  40
 5.0000000000000
 100
AcDbArc
  50
 338.19859051366
  51
 0.15633062370329E-10
   0
LINE
   5
2D8
 100
AcDbEntity
   8
LEVEL001
 370
25
 100
AcDbLine
   6
CONTINUOUS
  62
7
  10
 2596.9174913501
  20
 3294.9623456849
  30
0.0
  11
 2598.7197622048
  21
 3299.4680228216
  31
0.0
   0
ARC
   5
2D9
 100
AcDbEntity
   8
LEVEL001
 370
25
   6
CONTINUOUS
  62
7
 100
AcDbCircle
  10
 2601.5598748046
  20
 3293.1053923031
  30
0.0
  40
 5.0000000000000
 100
AcDbArc
  50
 158.19859051364
  51
 201.80140948636
   0
LWPOLYLINE
   5
2DA
 100
AcDbEntity
   8
LEVEL001
 370
25
   6
CONTINUOUS
  62
7
 100
AcDbPolyline
  90
3
  70
0
  10
 2598.1489020595
  20
 3285.4773297443
  10
 2599.0773787504
  20
 3285.8487204207
  10
 2596.9174913501
  20
 3291.2484389213
   0
LINE
   5
2DB
 100
AcDbEntity
   8
LEVEL001
 370
25
 100
AcDbLine
   6
CONTINUOUS
  62
7
  10
 2598.1489020595
  20
 3685.4773297459
  30
0.0
  11
 2595.4349952960
  21
 3678.6925628371
  31
0.0
   0
ARC
   5
2DC
 100
AcDbEntity
   8
LEVEL001
 370
25
   6
CONTINUOUS
  62
7
 100
AcDbCircle
  10
 2600.0773787504
  20
 3676.8356094553
  30
0.0
  40
 5.0000000000000
 100
AcDbArc
  50
 158.19859051364
  51
 180.00000000000
   0
ARC
   5
2DD
 100
AcDbEntity
   8
LEVEL001
 370
25
   6
CONTINUOUS
  62
7
 100
AcDbCircle
  10
 2594.0773787504
  20
 3669.6296832868
  30
0.0
  40
 5.0000000000000
 100
AcDbArc
  50
 359.99999999998
  51
 21.801409486339
   0
LINE
   5
2DE
 100
AcDbEntity
   8
LEVEL001
 370
25
 100
AcDbLine
   6
CONTINUOUS
  62
7
  10
 2596.9174913501
  20
 3675.9923138053
  30
0.0
  11
 2598.7197622048
  21
 3671.4866366686
  31
0.0
   0
ARC
   5
2DF
 100
AcDbEntity
   8
LEVEL001
 370
25
   6
CONTINUOUS
  62
7
 100
AcDbCircle
  10
 2601.5598748046
  20
 3677.8492671871
  30
0.0
  40
 5.0000000000000
 100
AcDbArc
  50
 158.19859051364
  51
 201.80140948636
   0
LWPOLYLINE
   5
2E0
 100
AcDbEntity
   8
LEVEL001
 370
25
   6
CONTINUOUS
  62
7
 100
AcDbPolyline
  90
3
  70
0
  10
 2598.1489020595
  20
 3685.4773297459
  10
 2599.0773787504
  20
 3685.1059390695
  10
 2596.9174913501
  20
 3679.7062205689
   0
LINE
   5
2E1
 100
AcDbEntity
   8
LEVEL001
 370
25
 100
AcDbLine
   6
CONTINUOUS
  62
7
  10
 2595.0773787504
  20
 3676.8356094553
  30
0.0
  11
 2595.0773787504
  21
 3294.1190500349
  31
0.0
   0
LINE
   5
2E2
 100
AcDbEntity
   8
LEVEL001
 370
25
 100
AcDbLine
   6
CONTINUOUS
  62
7
  10
 2599.0773787504
  20
 3669.6296832868
  30
0.0
  11
 2599.0773787504
  21
 3301.3249762034
  31
0.0
   0
LINE
   5
2E3
 100
AcDbEntity
   8
LEVEL001
 370
9
 100
AcDbLine
   6
CONTINUOUS
  62
6
  10
 2602.0773787504
  20
 3520.4773905033
  30
0.0
  11
 2602.0773787504
  21
 3521.4773294642
  31
0.0
   0
LINE
   5
2E4
 100
AcDbEntity
   8
LEVEL001
 370
25
 100
AcDbLine
   6
CONTINUOUS
  62
7
  10
 2602.5328575295
  20
 3506.4769633118
  30
0.0
  11
 2602.5333152934
  21
 3464.4770550284
  31
0.0
   0
LINE
   5
2E5
 100
AcDbEntity
   8
LEVEL001
 370
25
 100
AcDbLine
   6
CONTINUOUS
  62
7
  10
 2602.0773787504
  20
 3521.4773294642
  30
0.0
  11
 2599.0773787504
  21
 3521.4773294642
  31
0.0
   0
LINE
   5
2E6
 100
AcDbEntity
   8
LEVEL001
 370
9
 100
AcDbLine
   6
CONTINUOUS
  62
6
  10
 2599.0773787504
  20
 3520.4773905033
  30
0.0
  11
 2602.0773787504
  21
 3520.4773905033
  31
0.0
   0
LWPOLYLINE
   5
2E7
 100
AcDbEntity
   8
LEVEL001
 370
9
   6
CONTINUOUS
  62
6
 100
AcDbPolyline
  90
3
  70
0
  10
 2602.0773787504
  20
 3449.4773297451
  10
 2602.0773787504
  20
 3450.4773602588
  10
 2599.0773787504
  20
 3450.4773602588
   0
ELLIPSE
   5
2E8
 100
AcDbEntity
   8
LEVEL001
 370
25
   6
CONTINUOUS
  62
7
 100
AcDbEllipse
  10
 2598.5333127423
  20
 3464.4771161809
  30
0.0
  11
 4.0000025516047
  21
0.0
  31
0.0
  40
 0.99999938800000
  41
-1.4343569865528
  42
-0.15288126351787E-4
   0
LINE
   5
2E9
 100
AcDbEntity
   8
LEVEL001
 370
25
 100
AcDbLine
   6
CONTINUOUS
  62
7
  10
 2599.0773787504
  20
 3449.4773297451
  30
0.0
  11
 2602.0773787504
  21
 3449.4773297451
  31
0.0
   0
ELLIPSE
   5
2EA
 100
AcDbEntity
   8
LEVEL001
 370
25
   6
CONTINUOUS
  62
7
 100
AcDbEllipse
  10
 2598.5328549798
  20
 3506.4770852630
  30
0.0
  11
 4.0000025516047
  21
0.0
  31
0.0
  40
 0.99999938800000
  41
-0.30487804121538E-4
  42
 1.4342414715500
   0
LWPOLYLINE
   5
2EB
 100
AcDbEntity
   8
LEVEL001
 370
25
   6
CONTINUOUS
  62
7
 100
AcDbPolyline
  90
4
  70
0
  10
 2602.5328847734
  20
 3503.9773297451
  10
 2708.0773787504
  20
 3503.9773297451
  10
 2708.0773787504
  20
 3466.9773297451
  10
 2602.5332880425
  20
 3466.9773297451
   0
LINE
   5
2EC
 100
AcDbEntity
   8
LEVEL001
 370
9
 100
AcDbLine
   6
CONTINUOUS
  62
6
  10
 2613.5253133548
  20
 3490.9773297451
  30
0.0
  11
 2613.5253133548
  21
 3479.9773297451
  31
0.0
   0
LINE
   5
2ED
 100
AcDbEntity
   8
LEVEL001
 370
9
 100
AcDbLine
   6
CONTINUOUS
  62
6
  10
 2613.5253133548
  20
 3477.9773297451
  30
0.0
  11
 2613.5253133548
  21
 3468.9773297451
  31
0.0
   0
LINE
   5
2EE
 100
AcDbEntity
   8
LEVEL001
 370
9
 100
AcDbLine
   6
CONTINUOUS
  62
6
  10
 2613.5253133548
  20
 3501.9773297451
  30
0.0
  11
 2613.5253133548
  21
 3492.9773297451
  31
0.0
   0
LINE
   5
2EF
 100
AcDbEntity
   8
LEVEL001
 370
9
 100
AcDbLine
   6
CONTINUOUS
  62
6
  10
 2686.9053797500
  20
 3478.9773297451
  30
0.0
  11
 2614.7862079243
  21
 3478.9773297451
  31
0.0
   0
LINE
   5
2F0
 100
AcDbEntity
   8
LEVEL001
 370
9
 100
AcDbLine
   6
CONTINUOUS
  62
6
  10
 2614.7862079243
  20
 3491.9773297451
  30
0.0
  11
 2686.9053797500
  21
 3491.9773297451
  31
0.0
   0
LINE
   5
2F1
 100
AcDbEntity
   8
LEVEL001
 370
9
 100
AcDbLine
   6
CONTINUOUS
  62
6
  10
 2686.9053797500
  20
 3501.9773297451
  30
0.0
  11
 2686.9053797500
  21
 3492.9773297451
  31
0.0
   0
LINE
   5
2F2
 100
AcDbEntity
   8
LEVEL001
 370
9
 100
AcDbLine
   6
CONTINUOUS
  62
6
  10
 2686.9053797500
  20
 3477.9773297451
  30
0.0
  11
 2686.9053797500
  21
 3468.9773297451
  31
0.0
   0
LINE
   5
2F3
 100
AcDbEntity
   8
LEVEL001
 370
9
 100
AcDbLine
   6
CONTINUOUS
  62
6
  10
 2689.2239047913
  20
 3491.9773297451
  30
0.0
  11
 2689.2239047913
  21
 3478.9773297451
  31
0.0
   0
LWPOLYLINE
   5
2F4
 100
AcDbEntity
   8
LEVEL001
 370
25
   6
CONTINUOUS
  62
7
 100
AcDbPolyline
  90
4
  70
1
  10
 2693.0773787504
  20
 3480.4773297451
  10
 2703.0773787504
  20
 3480.4773297451
  10
 2703.0773787504
  20
 3490.4773297451
  10
 2693.0773787504
  20
 3490.4773297451
   0
LWPOLYLINE
   5
2F5
 100
AcDbEntity
   8
LEVEL001
 370
25
   6
CONTINUOUS
  62
7
 100
AcDbPolyline
  90
4
  70
0
  10
 2611.8500000000
  20
 3466.9773297451
  10
 2611.8500000000
  20
 869.99921545549
  10
 2688.1500000000
  20
 869.99921545549
  10
 2688.1500000000
  20
 3466.9773297451
   0
LWPOLYLINE
   5
2F6
 100
AcDbEntity
   8
LEVEL001
 370
25
   6
CONTINUOUS
  62
7
 100
AcDbPolyline
  90
4
  70
0
  10
 1461.8500000000
  20
 3285.4773297451
  10
 1461.8500000000
  20
 869.99921545549
  10
 1538.1500000000
  20
 869.99921545549
  10
 1538.1500000000
  20
 3285.4773297451
   0
LINE
   5
2F7
 100
AcDbEntity
   8
LEVEL001
 370
9
 100
AcDbLine
   6
CONTINUOUS
  62
5
  10
 1461.8500000000
  20
 1317.2045545150
  30
0.0
  11
 1250.0000000000
  21
 1105.3545545150
  31
0.0
   0
LINE
   5
2F8
 100
AcDbEntity
   8
LEVEL001
 370
9
 100
AcDbLine
   6
CONTINUOUS
  62
5
  10
 1250.0000000000
  20
 1069.9992154557
  30
0.0
  11
 1461.8500000000
  21
 1281.8492154557
  31
0.0
   0
MTEXT
   5
2F9
 100
AcDbEntity
   8
LEVEL001
 370
13
  62
1
 100
AcDbMText
  10
 1448.8125000002
  20
 3438.7273297451
  30
0.0
  40
 80.000000000000
  41
0.0
  71
4
  72
1
   1
{\T1.000000;注}\P{\T1.000000;意}
   7
GMM006
  44
 0.79999984000003
   0
LINE
   5
2FA
 100
AcDbEntity
   8
LEVEL001
 370
13
 100
AcDbLine
   6
DOT
  62
1
  10
 2688.1500000000
  20
 1162.4992154555
  30
0.0
  11
 2611.8500000000
  21
 1162.4992154555
  31
0.0
   0
LINE
   5
2FB
 100
AcDbEntity
   8
LEVEL001
 370
13
 100
AcDbLine
   6
DOT
  62
1
  10
 2611.8500000000
  20
 1177.4992154555
  30
0.0
  11
 2688.1500000000
  21
 1177.4992154555
  31
0.0
   0
LINE
   5
2FC
 100
AcDbEntity
   8
LEVEL001
 370
9
 100
AcDbLine
   6
DASHDOT
  62
6
  10
 2650.0000000000
  20
 3503.9773297451
  30
0.0
  11
 2650.0000000000
  21
 769.99921545549
  31
0.0
   0
CIRCLE
   5
2FD
 100
AcDbEntity
   8
LEVEL001
 370
13
 100
AcDbCircle
   6
CONTINUOUS
  62
1
  10
 2710.0000041723
  20
 5220.0000000000
  30
0.0
  40
 69.999997913838
   0
MTEXT
   5
2FF
 100
AcDbEntity
   8
LEVEL001
 370
25
  62
7
 100
AcDbMText
  10
 2710.0000041723
  20
 5220.0000000000
  30
0.0
  40
 66.000000000000
  41
0.0
  71
5
  72
1
   1
\T1.000000;６
   7
GMM004
  44
 0.79999984000003
   0
CIRCLE
   5
300
 100
AcDbEntity
   8
LEVEL001
 370
13
 100
AcDbCircle
   6
CONTINUOUS
  62
1
  10
 2850.0000000000
  20
 5220.0000000000
  30
0.0
  40
 69.999997913838
   0
MTEXT
   5
302
 100
AcDbEntity
   8
LEVEL001
 370
25
  62
7
 100
AcDbMText
  10
 2850.0000000000
  20
 5220.0000000000
  30
0.0
  40
 66.000000000000
  41
0.0
  71
5
  72
1
   1
\T1.000000;８
   7
GMM004
  44
 0.79999984000003
   0
CIRCLE
   5
303
 100
AcDbEntity
   8
LEVEL001
 370
13
 100
AcDbCircle
   6
CONTINUOUS
  62
1
  10
 3350.0000000000
  20
 5220.0000000000
  30
0.0
  40
 69.999997913838
   0
MTEXT
   5
305
 100
AcDbEntity
   8
LEVEL001
 370
25
  62
7
 100
AcDbMText
  10
 3350.0000000000
  20
 5220.0000000000
  30
0.0
  40
 66.000000000000
  41
0.0
  71
5
  72
1
   1
\T1.000000;７
   7
GMM004
  44
 0.79999984000003
   0
CIRCLE
   5
306
 100
AcDbEntity
   8
LEVEL001
 370
13
 100
AcDbCircle
   6
CONTINUOUS
  62
1
  10
 3489.9999958277
  20
 5220.0000000000
  30
0.0
  40
 69.999997913838
   0
MTEXT
   5
308
 100
AcDbEntity
   8
LEVEL001
 370
25
  62
7
 100
AcDbMText
  10
 3489.9999958277
  20
 5220.0000000000
  30
0.0
  40
 66.000000000000
  41
0.0
  71
5
  72
1
   1
\T1.000000;９
   7
GMM004
  44
 0.79999984000003
   0
CIRCLE
   5
309
 100
AcDbEntity
   8
LEVEL001
 370
13
 100
AcDbCircle
   6
CONTINUOUS
  62
1
  10
 3150.0000000000
  20
 5220.0000000000
  30
0.0
  40
 69.999997913838
   0
MTEXT
   5
30B
 100
AcDbEntity
   8
LEVEL001
 370
25
  62
7
 100
AcDbMText
  10
 3150.0000000000
  20
 5220.0000000000
  30
0.0
  40
 66.000000000000
  41
0.0
  71
5
  72
1
   1
\T1.000000;１２
   7
GMM004
  44
 0.79999984000003
   0
DIMENSION
   5
30C
 100
AcDbEntity
   8
LEVEL001
 370
13
   6
CONTINUOUS
  62
1
 100
AcDbDimension
   2
*D1
  10
 1846.4101621420
  20
 4869.9997342197
  30
0.0
  11
 1485.8570090566
  21
 4694.4961579825
  31
0.0
  70
3
   3
GMM001
 100
AcDbDiametricDimension
  15
 1153.5895326822
  25
 4470.0002657803
  35
0.0
   0
LEADER
   5
30D
 100
AcDbEntity
   8
LEVEL001
 370
13
   6
CONTINUOUS
  62
1
 100
AcDbLeader
   3
GMM002
  73
3
  74
1
  75
0
  40
 66.000000000000
  41
0.0
  76
2
  10
 1493.2918044903
  20
 4266.6458813905
  30
0.0
  10
 1312.6098228913
  20
 4176.3043234325
  30
0.0
  77
1
   0
LEADER
   5
30E
 100
AcDbEntity
   8
LEVEL001
 370
13
   6
CONTINUOUS
  62
1
 100
AcDbLeader
   3
GMM002
  73
3
  74
1
  75
0
  40
 66.000000000000
  41
0.0
  76
2
  10
 1668.8152003164
  20
 4307.3688148227
  30
0.0
  10
 1718.6950492480
  20
 4207.6091169596
  30
0.0
  77
1
   0
LEADER
   5
30F
 100
AcDbEntity
   8
LEVEL001
 370
13
   6
CONTINUOUS
  62
1
 100
AcDbLeader
   3
GMM002
  73
3
  74
1
  75
0
  40
 66.000000000000
  41
0.0
  76
2
  10
 1750.0000000000
  20
 4519.9992154555
  30
0.0
  10
 2181.8552265206
  20
 4418.5447699485
  30
0.0
  77
1
   0
LEADER
   5
310
 100
AcDbEntity
   8
LEVEL001
 370
13
   6
CONTINUOUS
  62
1
 100
AcDbLeader
   3
GMM002
  73
3
  74
1
  75
0
  40
 66.000000000000
  41
0.0
  76
2
  10
 2763.6473509405
  20
 4519.9992154555
  30
0.0
  10
 2318.2384082077
  20
 4418.1408305392
  30
0.0
  77
1
   0
LEADER
   5
311
 100
AcDbEntity
   8
LEVEL001
 370
13
   6
CONTINUOUS
  62
1
 100
AcDbLeader
   3
GMM002
  73
3
  74
1
  75
0
  40
 66.000000000000
  41
0.0
  76
2
  10
 1707.7246952506
  20
 5019.9992154555
  30
0.0
  10
 2181.6609959757
  20
 5125.1246165256
  30
0.0
  77
1
   0
LEADER
   5
312
 100
AcDbEntity
   8
LEVEL001
 370
13
   6
CONTINUOUS
  62
1
 100
AcDbLeader
   3
GMM002
  73
3
  74
1
  75
0
  40
 66.000000000000
  41
0.0
  76
2
  10
 4125.0000000000
  20
 4394.9992154555
  30
0.0
  10
 4031.3049507521
  20
 4207.6091169596
  30
0.0
  77
1
   0
DIMENSION
   5
313
 100
AcDbEntity
   8
LEVEL001
 370
13
   6
CONTINUOUS
  62
1
 100
AcDbDimension
   2
*D8
  10
 750.00000000000
  20
 869.99921545549
  30
0.0
  11
 721.71428571429
  21
 819.99921545549
  31
0.0
  70
128
   3
GMM003
 100
AcDbAlignedDimension
  13
 1250.0000000000
  23
 769.99921545549
  33
0.0
  14
 1250.0000000000
  24
 869.99921545549
  34
0.0
  50
 90.000000000000
 100
AcDbRotatedDimension
   0
DIMENSION
   5
314
 100
AcDbEntity
   8
LEVEL001
 370
13
   6
CONTINUOUS
  62
1
 100
AcDbDimension
   2
*D9
  10
 750.00000000000
  20
 1769.9992154555
  30
0.0
  11
 721.71428571429
  21
 1319.9992154555
  31
0.0
  70
128
   3
GMM003
 100
AcDbAlignedDimension
  13
 1250.0000000000
  23
 869.99921545549
  33
0.0
  14
 1000.0000000000
  24
 1769.9992154555
  34
0.0
  50
 90.000000000000
 100
AcDbRotatedDimension
   0
DIMENSION
   5
315
 100
AcDbEntity
   8
LEVEL001
 370
13
   6
CONTINUOUS
  62
1
 100
AcDbDimension
   2
*D10
  10
 750.00000000000
  20
 4270.0000002139
  30
0.0
  11
 721.71428571429
  21
 3019.9996078347
  31
0.0
  70
128
   1
\A1;2500(標準設置高さ)
   3
GMM004
 100
AcDbAlignedDimension
  13
 1000.0000000000
  23
 1769.9992154555
  33
0.0
  14
 1499.9999999999
  24
 4270.0000002139
  34
0.0
  50
 90.000000000000
 100
AcDbRotatedDimension
   0
LEADER
   5
316
 100
AcDbEntity
   8
LEVEL001
 370
13
   6
CONTINUOUS
  62
1
 100
AcDbLeader
   3
GMM005
  73
3
  74
1
  75
0
  40
 66.000000000000
  41
0.0
  76
2
  10
 2767.9991519779
  20
 5019.9992154555
  30
0.0
  10
 2317.9889561633
  20
 5123.6247426023
  30
0.0
  77
1
   0
LEADER
   5
317
 100
AcDbEntity
   8
LEVEL001
 370
13
   6
CONTINUOUS
  62
1
 100
AcDbLeader
   3
GMM002
  73
3
  74
1
  75
0
  40
 66.000000000000
  41
0.0
  76
2
  10
 1538.1500000000
  20
 2519.9992154555
  30
0.0
  10
 1689.7122124356
  20
 2609.4270018819
  30
0.0
  77
1
   0
DIMENSION
   5
318
 100
AcDbEntity
   8
LEVEL001
 370
13
   6
CONTINUOUS
  62
1
 100
AcDbDimension
   2
*D13
  10
 1750.0000000000
  20
 519.99921545549
  30
0.0
  11
 1500.0000000000
  21
 548.28492974120
  31
0.0
  70
128
   3
GMM006
 100
AcDbAlignedDimension
  13
 1250.0000000000
  23
 769.99921545549
  33
0.0
  14
 1750.0000000000
  24
 769.99921545549
  34
0.0
 100
AcDbRotatedDimension
   0
LEADER
   5
319
 100
AcDbEntity
   8
LEVEL001
 370
13
   6
CONTINUOUS
  62
1
 100
AcDbLeader
   3
GMM007
  73
3
  74
1
  75
0
  40
 66.000000000000
  41
0.0
  76
2
  10
 2539.9999819144
  20
 1162.4992154555
  30
0.0
  10
 2336.6516403026
  20
 1053.1515148619
  30
0.0
  77
1
   0
DIMENSION
   5
31A
 100
AcDbEntity
   8
LEVEL001
 370
13
   6
CONTINUOUS
  62
1
 100
AcDbDimension
   2
*D15
  10
 2900.0000000000
  20
 519.99921545549
  30
0.0
  11
 2650.0000000000
  21
 548.28492974120
  31
0.0
  70
128
   3
GMM008
 100
AcDbAlignedDimension
  13
 2400.0000000000
  23
 769.99921545549
  33
0.0
  14
 2900.0000000000
  24
 769.99921545549
  34
0.0
 100
AcDbRotatedDimension
   0
LEADER
   5
31B
 100
AcDbEntity
   8
LEVEL001
 370
13
   6
CONTINUOUS
  62
1
 100
AcDbLeader
   3
GMM009
  73
3
  74
1
  75
0
  40
 66.000000000000
  41
0.0
  76
2
  10
 1575.0000000002
  20
 3485.4773297443
  30
0.0
  10
 1689.2229818626
  20
 3420.2070543943
  30
0.0
  77
1
   0
LEADER
   5
31C
 100
AcDbEntity
   8
LEVEL001
 370
13
   6
CONTINUOUS
  62
1
 100
AcDbLeader
   3
GMM002
  73
3
  74
1
  75
0
  40
 66.000000000000
  41
0.0
  76
2
  10
 2708.0773787504
  20
 3503.9773297451
  30
0.0
  10
 3182.7596533567
  20
 3616.0162020478
  30
0.0
  77
1
   0
LEADER
   5
31D
 100
AcDbEntity
   8
LEVEL001
 370
13
   6
CONTINUOUS
  62
1
 100
AcDbLeader
   3
GMM002
  73
3
  74
1
  75
0
  40
 66.000000000000
  41
0.0
  76
2
  10
 3076.1833549668
  20
 4725.0000000000
  30
0.0
  10
 3316.1357376929
  20
 5158.7365406924
  30
0.0
  77
1
   0
LEADER
   5
31E
 100
AcDbEntity
   8
LEVEL001
 370
13
   6
CONTINUOUS
  62
1
 100
AcDbLeader
   3
GMM002
  73
3
  74
1
  75
0
  40
 66.000000000000
  41
0.0
  76
2
  10
 3000.0000000000
  20
 4873.9992154555
  30
0.0
  10
 3122.1794917506
  20
 5155.7659044690
  30
0.0
  77
1
   0
LEADER
   5
31F
 100
AcDbEntity
   8
LEVEL001
 370
13
   6
CONTINUOUS
  62
1
 100
AcDbLeader
   3
GMM002
  73
3
  74
1
  75
0
  40
 66.000000000000
  41
0.0
  76
2
  10
 2891.8170421340
  20
 4725.0000000000
  30
0.0
  10
 2855.8388416396
  20
 5150.2439419387
  30
0.0
  77
1
   0
DIMENSION
   5
320
 100
AcDbEntity
   8
LEVEL001
 370
13
   6
CONTINUOUS
  62
1
 100
AcDbDimension
   2
*D21
  10
 3000.0000000000
  20
 2519.9992154555
  30
0.0
  11
 2825.0000000000
  21
 2548.2849297412
  31
0.0
  70
128
   3
GMM010
 100
AcDbAlignedDimension
  13
 2650.0000000000
  23
 2519.9992154555
  33
0.0
  14
 3000.0000000000
  24
 4069.9992154554
  34
0.0
 100
AcDbRotatedDimension
   0
POINT
   5
321
 100
AcDbEntity
   8
LEVEL001
 100
AcDbPoint
  62
2
  10
 2650.0000000000
  20
 3619.9992154554
  30
0.0
   0
POINT
   5
322
 100
AcDbEntity
   8
LEVEL001
 100
AcDbPoint
  62
2
  10
 3000.0000000000
  20
 4069.9992154554
  30
0.0
   0
MTEXT
   5
324
 100
AcDbEntity
   8
LEVEL001
 370
13
  62
1
 100
AcDbMText
  10
 6216.5597074408
  20
 718.63052516347
  30
0.0
  40
 66.000000000000
  41
0.0
  71
5
  72
1
   1
\T1.000000;ＭＡ０８０ＳＵＰ
   7
GMM004
  44
 0.79999984000003
   0
LINE
   5
325
 100
AcDbEntity
   8
LEVEL001
 370
9
 100
AcDbLine
   6
CONTINUOUS
  62
6
  10
 5710.9090909091
  20
 870.00000000000
  30
0.0
  11
 8226.6668701172
  21
 870.00000000000
  31
0.0
   0
MTEXT
   5
327
 100
AcDbEntity
   8
LEVEL001
 370
13
  62
1
 100
AcDbMText
  10
 5767.3153235653
  20
 3504.3113553114
  30
0.0
  40
 80.000000000000
  41
0.0
  71
4
  72
1
   1
{\T1.000000;※構成部材は改良のため、変更する場合があります。}\P{\T1.000000;※本図は道路反射鏡ハンドブックに基づいています。}
   7
GMM002
  44
 0.94999981000004
   0
MTEXT
   5
328
 100
AcDbEntity
   8
LEVEL001
 370
13
  62
1
 100
AcDbMText
  10
 5733.8354978355
  20
 813.78497023809
  30
0.0
  40
 37.142857142857
  41
0.0
  71
7
  72
1
   1
\T1.269231;図面番号
   7
GMM007
  44
 0.79999984000003
   0
MTEXT
   5
32A
 100
AcDbEntity
   8
LEVEL001
 370
13
  62
1
 100
AcDbMText
  10
 5960.9090909091
  20
 1153.5736076959
  30
0.0
  40
 80.000000000000
  41
0.0
  71
7
  72
1
   1
\T1.000000;注意板
   7
GMM002
  44
 0.79999984000003
   0
MTEXT
   5
32C
 100
AcDbEntity
   8
LEVEL001
 370
13
  62
1
 100
AcDbMText
  10
 1844.6593279915
  20
 2682.9927038758
  30
0.0
  40
 66.000000000000
  41
0.0
  71
1
  72
1
   1
{\W0.787879;\T1.000000;支柱}\P%%c{\W0.787879;\T1.000000;７６\W0.393939;\T1.000000;.\W0.787879;\T1.000000;３ｘ３\W0.393939;\T1.000000;.\W0.787879;\T1.000000;２ｔ}\P{\W0.787879;\T1.000000;ｘ４０００Ｌ}
   7
GMM004
  44
 0.79999984000003
   0
MTEXT
   5
32E
 100
AcDbEntity
   8
LEVEL001
 370
13
  62
1
 100
AcDbMText
  10
 6931.8880646631
  20
 1153.5736076959
  30
0.0
  40
 80.000000000000
  41
0.0
  71
9
  72
1
   1
\T1.000000;１
   7
GMM002
  44
 0.79999984000003
   0
MTEXT
   5
330
 100
AcDbEntity
   8
LEVEL001
 370
13
  62
1
 100
AcDbMText
  10
 6931.8880646631
  20
 1023.5736076959
  30
0.0
  40
 80.000000000000
  41
0.0
  71
9
  72
1
   1
\T1.000000;１式
   7
GMM002
  44
 0.79999984000003
   0
MTEXT
   5
332
 100
AcDbEntity
   8
LEVEL001
 370
13
  62
1
 100
AcDbMText
  10
 6931.8880646631
  20
 893.57360769589
  30
0.0
  40
 80.000000000000
  41
0.0
  71
9
  72
1
   1
\T1.000000;１式
   7
GMM002
  44
 0.79999984000003
   0
MTEXT
   5
334
 100
AcDbEntity
   8
LEVEL001
 370
13
  62
1
 100
AcDbMText
  10
 7010.9090909091
  20
 1153.5736076959
  30
0.0
  40
 80.000000000000
  41
0.0
  71
7
  72
1
   1
\T1.000000;―
   7
GMM002
  44
 0.79999984000003
   0
MTEXT
   5
336
 100
AcDbEntity
   8
LEVEL001
 370
13
  62
1
 100
AcDbMText
  10
 7010.9090909091
  20
 1023.5736076959
  30
0.0
  40
 80.000000000000
  41
0.0
  71
7
  72
1
   1
\T1.000000;―
   7
GMM002
  44
 0.79999984000003
   0
MTEXT
   5
338
 100
AcDbEntity
   8
LEVEL001
 370
13
  62
1
 100
AcDbMText
  10
 7010.9090909091
  20
 893.57360769589
  30
0.0
  40
 80.000000000000
  41
0.0
  71
7
  72
1
   1
\T1.000000;―
   7
GMM002
  44
 0.79999984000003
   0
MTEXT
   5
33A
 100
AcDbEntity
   8
LEVEL001
 370
13
  62
1
 100
AcDbMText
  10
 7510.9090909091
  20
 1153.5736076959
  30
0.0
  40
 80.000000000000
  41
0.0
  71
7
  72
1
   1
\T1.000000;―
   7
GMM002
  44
 0.79999984000003
   0
MTEXT
   5
33C
 100
AcDbEntity
   8
LEVEL001
 370
13
  62
1
 100
AcDbMText
  10
 7510.9090909091
  20
 1023.5736076959
  30
0.0
  40
 80.000000000000
  41
0.0
  71
7
  72
1
   1
\T1.000000;―
   7
GMM002
  44
 0.79999984000003
   0
MTEXT
   5
33E
 100
AcDbEntity
   8
LEVEL001
 370
13
  62
1
 100
AcDbMText
  10
 7510.9090909091
  20
 893.57360769589
  30
0.0
  40
 80.000000000000
  41
0.0
  71
7
  72
1
   1
\T1.000000;―
   7
GMM002
  44
 0.79999984000003
   0
ENDSEC
  0
SECTION
  2
OBJECTS
  0
DICTIONARY
  5
C
100
AcDbDictionary
  3
ACAD_GROUP
350
D
  3
ACAD_MLINESTYLE
350
1B
  3
DWGPROPS
350
1E
  0
DICTIONARY
  5
D
102
{ACAD_REACTORS
330
C
102
}
100
AcDbDictionary
  0
DICTIONARY
  5
1B
102
{ACAD_REACTORS
330
C
102
}
100
AcDbDictionary
  3
STANDARD
350
1C
  0
MLINESTYLE
  5
1C
102
{ACAD_REACTORS
330
1B
102
}
100
AcDbMlineStyle
  2
STANDARD
 70
     0
  3

 62
   256
 51
90.0
 52
90.0
 71
     2
 49
0.5
 62
   256
  6
BYLAYER
 49
-0.5
 62
   256
  6
BYLAYER
   0
XRECORD
   5
1E
 102
{ACAD_REACTORS
 330
C
 102
}
 330
C
 100
AcDbXrecord
 280
1
   1
DWGPROPS COOKIE
   2
ｱｸﾘﾙφ800ｼﾝｸﾞﾙ上曲支柱取付
   3
 
   4
 
   6
 
   7
MA080SUP
   8
 
   9

 300
 = 
 301
 = 
 302
 = 
 303
 = 
 304
 = 
 305
 = 
 306
 = 
 307
 = 
 308
 = 
 309
 = 
  40
0.0
  41
 2451731.5000000
  42
 2460324.5000000
   1

  90
10
   0
ENDSEC
   0
EOF
