   0
SECTION
   2
HEADER
   9
$ACADVER
   1
AC1015
   9
$DWGCODEPAGE
   3
ANSI_932
   9
$LIMMIN
  10
0.0
  20
0.0
   9
$LIMMAX
  10
 8400.0000000000
  20
 5940.0000000000
   9
$EXTMIN
  10
0.0
  20
0.0
  30
0.0
   9
$EXTMAX
  10
 8400.0000000000
  20
 5940.0000000000
  30
0.0
   9
$LTSCALE
  40
 168.00000000000
   9
$HANDSEED
   5
3BE
   0
ENDSEC
   0
SECTION
   2
TABLES
  0
TABLE
  2
VPORT
  5
8
100
AcDbSymbolTable
 70
     1
  0
VPORT
  5
3BD
100
AcDbSymbolTableRecord
100
AcDbViewportTableRecord
  2
*ACTIVE
 70
     0
 10
0.0
 20
0.0
 11
1.0
 21
1.0
  12
 4200.0000000000
  22
 2970.0000000000
 13
0.0
 23
0.0
 14
1.0
 24
1.0
 15
0.0
 25
0.0
 16
0.0
 26
0.0
 36
1.0
 17
0.0
 27
0.0
 37
0.0
  40
 8400.0000000000
  41
 1.4787878787879
 42
50.0
 43
0.0
 44
0.0
 50
0.0
 51
0.0
 71
     0
 72
   100
 73
     1
 74
     1
 75
     0
 76
     0
 77
     0
 78
     0
  0
ENDTAB
  0
TABLE
  2
LTYPE
  5
5
100
AcDbSymbolTable
 70
    25
  0
LTYPE
  5
12
100
AcDbSymbolTableRecord
100
AcDbLinetypeTableRecord
  2
BYBLOCK
 70
     0
  3

 72
    65
 73
     0
 40
0.0
  0
LTYPE
  5
13
100
AcDbSymbolTableRecord
100
AcDbLinetypeTableRecord
  2
BYLAYER
 70
     0
  3

 72
    65
 73
     0
 40
0.0
  0
LTYPE
  5
14
100
AcDbSymbolTableRecord
100
AcDbLinetypeTableRecord
  2
CONTINUOUS
 70
     0
  3
Solid line
 72
    65
 73
     0
 40
0.0
  0
LTYPE
  5
20
100
AcDbSymbolTableRecord
100
AcDbLinetypeTableRecord
  2
BORDER
 70
     0
  3
__ __ . __ __ . __ __ . __ __ . __ __ . __ __ .
 72
    65
 73
     6
 40
1.75
 49
0.5
 74
     0
 49
-0.25
 74
     0
 49
0.5
 74
     0
 49
-0.25
 74
     0
 49
0.0
 74
     0
 49
-0.25
 74
     0
  0
LTYPE
  5
21
100
AcDbSymbolTableRecord
100
AcDbLinetypeTableRecord
  2
BORDER2
 70
     0
  3
__.__.__.__.__.__.__.__.__.__.__.__.__.__.__.__
 72
    65
 73
     6
 40
0.875
 49
0.25
 74
     0
 49
-0.125
 74
     0
 49
0.25
 74
     0
 49
-0.125
 74
     0
 49
0.0
 74
     0
 49
-0.125
 74
     0
  0
LTYPE
  5
22
100
AcDbSymbolTableRecord
100
AcDbLinetypeTableRecord
  2
BORDERX2
 70
     0
  3
____  ____  .  ____  ____  .  ____  ____  .  __
 72
    65
 73
     6
 40
3.5
 49
1.0
 74
     0
 49
-0.5
 74
     0
 49
1.0
 74
     0
 49
-0.5
 74
     0
 49
0.0
 74
     0
 49
-0.5
 74
     0
  0
LTYPE
  5
23
100
AcDbSymbolTableRecord
100
AcDbLinetypeTableRecord
  2
CENTER
 70
     0
  3
____ _ ____ _ ____ _ ____ _ ____ _ ____ _ ____ 
 72
    65
 73
     4
 40
2.0
 49
1.25
 74
     0
 49
-0.25
 74
     0
 49
0.25
 74
     0
 49
-0.25
 74
     0
  0
LTYPE
  5
24
100
AcDbSymbolTableRecord
100
AcDbLinetypeTableRecord
  2
CENTER2
 70
     0
  3
___ _ ___ _ ___ _ ___ _ ___ _ ___ _ ___ _ ___ _
 72
    65
 73
     4
 40
1.125
 49
0.75
 74
     0
 49
-0.125
 74
     0
 49
0.125
 74
     0
 49
-0.125
 74
     0
  0
LTYPE
  5
25
100
AcDbSymbolTableRecord
100
AcDbLinetypeTableRecord
  2
CENTERX2
 70
     0
  3
________  __  ________  __  ________  __  _____
 72
    65
 73
     4
 40
4.0
 49
2.5
 74
     0
 49
-0.5
 74
     0
 49
0.5
 74
     0
 49
-0.5
 74
     0
  0
LTYPE
  5
26
100
AcDbSymbolTableRecord
100
AcDbLinetypeTableRecord
  2
DASHDOT
 70
     0
  3
__ . __ . __ . __ . __ . __ . __ . __ . __ . __
 72
    65
 73
     4
 40
1.0
 49
0.5
 74
     0
 49
-0.25
 74
     0
 49
0.0
 74
     0
 49
-0.25
 74
     0
  0
LTYPE
  5
27
100
AcDbSymbolTableRecord
100
AcDbLinetypeTableRecord
  2
DASHDOT2
 70
     0
  3
_._._._._._._._._._._._._._._._._._._._._._._._
 72
    65
 73
     4
 40
0.5
 49
0.25
 74
     0
 49
-0.125
 74
     0
 49
0.0
 74
     0
 49
-0.125
 74
     0
  0
LTYPE
  5
28
100
AcDbSymbolTableRecord
100
AcDbLinetypeTableRecord
  2
DASHDOTX2
 70
     0
  3
____  .  ____  .  ____  .  ____  .  ____  .  __
 72
    65
 73
     4
 40
2.0
 49
1.0
 74
     0
 49
-0.5
 74
     0
 49
0.0
 74
     0
 49
-0.5
 74
     0
  0
LTYPE
  5
29
100
AcDbSymbolTableRecord
100
AcDbLinetypeTableRecord
  2
DASHED
 70
     0
  3
__ __ __ __ __ __ __ __ __ __ __ __ __ __ __ __
 72
    65
 73
     2
 40
0.75
 49
0.5
 74
     0
 49
-0.25
 74
     0
  0
LTYPE
  5
2A
100
AcDbSymbolTableRecord
100
AcDbLinetypeTableRecord
  2
DASHED2
 70
     0
  3
_ _ _ _ _ _ _ _ _ _ _ _ _ _ _ _ _ _ _ _ _ _ _ _
 72
    65
 73
     2
 40
0.375
 49
0.25
 74
     0
 49
-0.125
 74
     0
  0
LTYPE
  5
2B
100
AcDbSymbolTableRecord
100
AcDbLinetypeTableRecord
  2
DASHEDX2
 70
     0
  3
____  ____  ____  ____  ____  ____  ____  ____ 
 72
    65
 73
     2
 40
1.5
 49
1.0
 74
     0
 49
-0.5
 74
     0
  0
LTYPE
  5
2C
100
AcDbSymbolTableRecord
100
AcDbLinetypeTableRecord
  2
DIVIDE
 70
     0
  3
____ . . ____ . . ____ . . ____ . . ____ . . __
 72
    65
 73
     6
 40
1.25
 49
0.5
 74
     0
 49
-0.25
 74
     0
 49
0.0
 74
     0
 49
-0.25
 74
     0
 49
0.0
 74
     0
 49
-0.25
 74
     0
  0
LTYPE
  5
2D
100
AcDbSymbolTableRecord
100
AcDbLinetypeTableRecord
  2
DIVIDE2
 70
     0
  3
__..__..__..__..__..__..__..__..__..__..__..__.
 72
    65
 73
     6
 40
0.625
 49
0.25
 74
     0
 49
-0.125
 74
     0
 49
0.0
 74
     0
 49
-0.125
 74
     0
 49
0.0
 74
     0
 49
-0.125
 74
     0
  0
LTYPE
  5
2E
100
AcDbSymbolTableRecord
100
AcDbLinetypeTableRecord
  2
DIVIDEX2
 70
     0
  3
________  .  .  ________  .  .  ________  .  . 
 72
    65
 73
     6
 40
2.5
 49
1.0
 74
     0
 49
-0.5
 74
     0
 49
0.0
 74
     0
 49
-0.5
 74
     0
 49
0.0
 74
     0
 49
-0.5
 74
     0
  0
LTYPE
  5
2F
100
AcDbSymbolTableRecord
100
AcDbLinetypeTableRecord
  2
DOT
 70
     0
  3
. . . . . . . . . . . . . . . . . . . . . . . .
 72
    65
 73
     2
 40
0.25
 49
0.0
 74
     0
 49
-0.25
 74
     0
  0
LTYPE
  5
30
100
AcDbSymbolTableRecord
100
AcDbLinetypeTableRecord
  2
DOT2
 70
     0
  3
...............................................
 72
    65
 73
     2
 40
0.125
 49
0.0
 74
     0
 49
-0.125
 74
     0
  0
LTYPE
  5
31
100
AcDbSymbolTableRecord
100
AcDbLinetypeTableRecord
  2
DOTX2
 70
     0
  3
.  .  .  .  .  .  .  .  .  .  .  .  .  .  .  . 
 72
    65
 73
     2
 40
0.5
 49
0.0
 74
     0
 49
-0.5
 74
     0
  0
LTYPE
  5
32
100
AcDbSymbolTableRecord
100
AcDbLinetypeTableRecord
  2
HIDDEN
 70
     0
  3
__ __ __ __ __ __ __ __ __ __ __ __ __ __ __ __
 72
    65
 73
     2
 40
0.375
 49
0.25
 74
     0
 49
-0.125
 74
     0
  0
LTYPE
  5
33
100
AcDbSymbolTableRecord
100
AcDbLinetypeTableRecord
  2
HIDDEN2
 70
     0
  3
_ _ _ _ _ _ _ _ _ _ _ _ _ _ _ _ _ _ _ _ _ _ _ _
 72
    65
 73
     2
 40
0.1875
 49
0.125
 74
     0
 49
-0.0625
 74
     0
  0
LTYPE
  5
34
100
AcDbSymbolTableRecord
100
AcDbLinetypeTableRecord
  2
HIDDENX2
 70
     0
  3
____ ____ ____ ____ ____ ____ ____ ____ ____ __
 72
    65
 73
     2
 40
0.75
 49
0.5
 74
     0
 49
-0.25
 74
     0
  0
LTYPE
  5
35
100
AcDbSymbolTableRecord
100
AcDbLinetypeTableRecord
  2
PHANTOM
 70
     0
  3
______  __  __  ______  __  __  ______  __  __ 
 72
    65
 73
     6
 40
2.5
 49
1.25
 74
     0
 49
-0.25
 74
     0
 49
0.25
 74
     0
 49
-0.25
 74
     0
 49
0.25
 74
     0
 49
-0.25
 74
     0
  0
LTYPE
  5
36
100
AcDbSymbolTableRecord
100
AcDbLinetypeTableRecord
  2
PHANTOM2
 70
     0
  3
___ _ _ ___ _ _ ___ _ _ ___ _ _ ___ _ _ ___ _ _
 72
    65
 73
     6
 40
1.25
 49
0.625
 74
     0
 49
-0.125
 74
     0
 49
0.125
 74
     0
 49
-0.125
 74
     0
 49
0.125
 74
     0
 49
-0.125
 74
     0
  0
LTYPE
  5
37
100
AcDbSymbolTableRecord
100
AcDbLinetypeTableRecord
  2
PHANTOMX2
 70
     0
  3
____________    ____    ____    ____________   
 72
    65
 73
     6
 40
5.0
 49
2.5
 74
     0
 49
-0.5
 74
     0
 49
0.5
 74
     0
 49
-0.5
 74
     0
 49
0.5
 74
     0
 49
-0.5
 74
     0
  0
ENDTAB
   0
TABLE
   2
LAYER
   5
2
 100
AcDbSymbolTable
  70
3
   0
LAYER
   5
E
 100
AcDbSymbolTableRecord
 100
AcDbLayerTableRecord
   2
0
  70
0
  62
7
   6
CONTINUOUS
 390
30
   0
LAYER
   5
39
 100
AcDbSymbolTableRecord
 100
AcDbLayerTableRecord
   2
LEVEL001
  70
0
  62
7
   6
CONTINUOUS
 390
30
   0
LAYER
   5
3A
 100
AcDbSymbolTableRecord
 100
AcDbLayerTableRecord
   2
LEVEL002
  70
0
  62
7
   6
CONTINUOUS
 390
30
   0
ENDTAB
  0
TABLE
  2
STYLE
  5
3
100
AcDbSymbolTable
  70
10
  0
STYLE
  5
F
100
AcDbSymbolTableRecord
100
AcDbTextStyleTableRecord
  2
STANDARD
 70
     0
 40
0.0
 41
1.0
 50
0.0
 71
     0
 42
0.2
  3
TXT
  4
BIGFONT
  0
STYLE
  5
38
100
AcDbSymbolTableRecord
100
AcDbTextStyleTableRecord
  2
STANDARD1
 70
     4
 40
0.0
 41
1.0
 50
0.0
 71
     0
 42
0.2
  3
TXT
  4
BIGFONT
   0
STYLE
   5
3B
 100
AcDbSymbolTableRecord
 100
AcDbTextStyleTableRecord
   2
GMM001
  70
0
  40
0.0
  41
 0.87500000000000
  50
0.0
  71
     0
  42
1.0
   3
txt.shx
   4
bigfont.shx
   0
STYLE
   5
3C
 100
AcDbSymbolTableRecord
 100
AcDbTextStyleTableRecord
   2
GMM002
  70
0
  40
0.0
  41
 0.90000000000000
  50
0.0
  71
     0
  42
1.0
   3
txt.shx
   4
bigfont.shx
   0
STYLE
   5
3D
 100
AcDbSymbolTableRecord
 100
AcDbTextStyleTableRecord
   2
GMM003
  70
0
  40
0.0
  41
 0.78787878787879
  50
0.0
  71
     0
  42
1.0
   3
txt.shx
   4
bigfont.shx
   0
STYLE
   5
3E
 100
AcDbSymbolTableRecord
 100
AcDbTextStyleTableRecord
   2
GMM004
  70
0
  40
0.0
  41
 1.0000000000000
  50
0.0
  71
     0
  42
1.0
   3
txt.shx
   4
bigfont.shx
   0
STYLE
   5
3F
 100
AcDbSymbolTableRecord
 100
AcDbTextStyleTableRecord
   2
GMM005
  70
0
  40
0.0
  41
 0.75000000000000
  50
0.0
  71
     0
  42
1.0
   3
txt.shx
   4
bigfont.shx
   0
STYLE
   5
40
 100
AcDbSymbolTableRecord
 100
AcDbTextStyleTableRecord
   2
GMM006
  70
0
  40
0.0
  41
 0.90000000000000
  50
0.0
  71
     0
  42
1.0
   3

   4

1001
ACAD
1000
ＭＳ 明朝
1071
33587217
   0
STYLE
   5
41
 100
AcDbSymbolTableRecord
 100
AcDbTextStyleTableRecord
   2
GMM007
  70
0
  40
0.0
  41
 1.0000000000000
  50
0.0
  71
     0
  42
1.0
   3

   4

1001
ACAD
1000
ＭＳ 明朝
1071
32785
   0
STYLE
   5
42
 100
AcDbSymbolTableRecord
 100
AcDbTextStyleTableRecord
   2
GMM008
  70
0
  40
0.0
  41
 1.6363636363636
  50
0.0
  71
     0
  42
1.0
   3
txt.shx
   4
bigfont.shx
   0
ENDTAB
  0
TABLE
  2
VIEW
  5
6
100
AcDbSymbolTable
 70
     0
  0
ENDTAB
  0
TABLE
  2
UCS
  5
7
100
AcDbSymbolTable
 70
     0
  0
ENDTAB
  0
TABLE
  2
APPID
  5
9
100
AcDbSymbolTable
 70
     1
  0
APPID
  5
10
100
AcDbSymbolTableRecord
100
AcDbRegAppTableRecord
  2
ACAD
 70
     0
  0
ENDTAB
   0
TABLE
   2
DIMSTYLE
   5
A
 100
AcDbSymbolTable
  70
11
 100
AcDbDimStyleTable
  0
DIMSTYLE
105
1D
100
AcDbSymbolTableRecord
100
AcDbDimStyleTableRecord
  2
STANDARD
 70
     0
  3

  4

  5

  6

  7

 40
1.0
 41
0.18
 42
0.0625
 43
0.38
 44
0.18
 45
0.0
 46
0.0
 47
0.0
 48
0.0
140
0.18
141
0.09
142
0.0
143
25.4
144
1.0
145
0.0
146
1.0
147
0.09
 71
     0
 72
     0
 73
     1
 74
     1
 75
     0
 76
     0
 77
     0
 78
     0
170
     0
171
     2
172
     0
173
     0
174
     0
175
     0
176
     0
177
     0
178
     0
270
     2
271
     4
272
     4
273
     2
274
     2
340
F
275
     0
280
     0
281
     0
282
     0
283
     1
284
     0
285
     0
286
     0
287
     3
288
     0
   0
DIMSTYLE
 105
43
 100
AcDbSymbolTableRecord
 100
AcDbDimStyleTableRecord
   2
GMM001
  70
0
   3
%%c<>
   4

   5

   6
_OPEN
   7
_OPEN
  40
 1.0000000000000
  41
 30.000000000000
  42
 30.000000000000
  43
 160.00000000000
  44
 30.000000000000
  45
0.0
  46
 37.500000000000
  47
0.0
  48
0.0
 140
 66.000000000000
 141
 20.000000000000
 142
0.0
 143
 0.39400000000000E-1
 144
 1.0000000000000
 145
0.0
 146
 0.62500000000000
 147
 28.285714285714
  71
0
  72
0
  73
0
  74
0
  75
1
  76
1
  77
1
  78
8
 170
0
 171
2
 172
1
 173
1
 174
0
 175
0
 176
6
 177
6
 178
1
 270
2
 271
1
 272
0
 273
2
 274
2
 340
3D
 275
0
 280
0
 281
0
 282
0
 283
1
 284
0
 285
0
 286
0
 287
0
 288
0
   0
DIMSTYLE
 105
44
 100
AcDbSymbolTableRecord
 100
AcDbDimStyleTableRecord
   2
GMM002
  70
0
   3

   4

   5

   6
_OPEN
   7
_OPEN
  40
 1.0000000000000
  41
 30.000000000000
  42
 30.000000000000
  43
 160.00000000000
  44
 30.000000000000
  45
0.0
  46
 37.500000000000
  47
0.0
  48
0.0
 140
 66.000000000000
 141
 20.000000000000
 142
0.0
 143
 0.39400000000000E-1
 144
 1.0000000000000
 145
0.0
 146
 0.62500000000000
 147
0.0
  71
0
  72
0
  73
0
  74
0
  75
1
  76
1
  77
0
  78
8
 170
0
 171
2
 172
1
 173
1
 174
0
 175
0
 176
1
 177
1
 178
1
 270
2
 271
1
 272
0
 273
2
 274
2
 340
F
 275
0
 280
0
 281
0
 282
0
 283
1
 284
0
 285
0
 286
0
 287
3
 288
0
   0
DIMSTYLE
 105
45
 100
AcDbSymbolTableRecord
 100
AcDbDimStyleTableRecord
   2
GMM003
  70
0
   3

   4

   5

   6
_OPEN
   7
_OPEN
  40
 1.0000000000000
  41
 30.000000000000
  42
 30.000000000000
  43
 160.00000000000
  44
 30.000000000000
  45
0.0
  46
 37.500000000000
  47
0.0
  48
0.0
 140
 66.000000000000
 141
 20.000000000000
 142
0.0
 143
 0.39400000000000E-1
 144
 1.0000000000000
 145
0.0
 146
 0.62500000000000
 147
 28.285714285714
  71
0
  72
0
  73
0
  74
0
  75
0
  76
1
  77
1
  78
8
 170
0
 171
2
 172
1
 173
1
 174
0
 175
0
 176
6
 177
6
 178
1
 270
2
 271
1
 272
0
 273
2
 274
2
 340
3D
 275
0
 280
0
 281
0
 282
0
 283
1
 284
0
 285
0
 286
0
 287
3
 288
0
   0
DIMSTYLE
 105
46
 100
AcDbSymbolTableRecord
 100
AcDbDimStyleTableRecord
   2
GMM004
  70
0
   3
<>(標準設置高さ
   4

   5

   6
_OPEN
   7
_OPEN
  40
 1.0000000000000
  41
 30.000000000000
  42
 30.000000000000
  43
 160.00000000000
  44
 30.000000000000
  45
0.0
  46
 37.500000000000
  47
0.0
  48
0.0
 140
 66.000000000000
 141
 20.000000000000
 142
0.0
 143
 0.39400000000000E-1
 144
 1.0000000000000
 145
0.0
 146
 0.62500000000000
 147
 28.285714285714
  71
0
  72
0
  73
0
  74
0
  75
0
  76
0
  77
1
  78
8
 170
0
 171
2
 172
1
 173
1
 174
0
 175
0
 176
6
 177
6
 178
1
 270
2
 271
1
 272
0
 273
2
 274
2
 340
3D
 275
0
 280
0
 281
0
 282
0
 283
1
 284
0
 285
0
 286
0
 287
3
 288
0
   0
DIMSTYLE
 105
47
 100
AcDbSymbolTableRecord
 100
AcDbDimStyleTableRecord
   2
GMM005
  70
0
   3

   4

   5

   6
_OPEN
   7
_OPEN
  40
 1.0000000000000
  41
 30.000000000000
  42
 30.000000000000
  43
 160.00000000000
  44
 30.000000000000
  45
0.0
  46
 37.500000000000
  47
0.0
  48
0.0
 140
 66.000000000000
 141
 20.000000000000
 142
0.0
 143
 0.39400000000000E-1
 144
 1.0000000000000
 145
0.0
 146
 0.62500000000000
 147
0.0
  71
0
  72
0
  73
0
  74
0
  75
1
  76
1
  77
0
  78
8
 170
0
 171
2
 172
1
 173
1
 174
0
 175
0
 176
1
 177
1
 178
1
 270
2
 271
1
 272
0
 273
2
 274
2
 340
F
 275
0
 280
0
 281
0
 282
0
 283
1
 284
0
 285
0
 286
0
 287
3
 288
0
   0
DIMSTYLE
 105
48
 100
AcDbSymbolTableRecord
 100
AcDbDimStyleTableRecord
   2
GMM006
  70
0
   3
□<>
   4

   5

   6
_OPEN
   7
_OPEN
  40
 1.0000000000000
  41
 30.000000000000
  42
 30.000000000000
  43
 160.00000000000
  44
 30.000000000000
  45
0.0
  46
 37.500000000000
  47
0.0
  48
0.0
 140
 66.000000000000
 141
 20.000000000000
 142
0.0
 143
 0.39400000000000E-1
 144
 1.0000000000000
 145
0.0
 146
 0.62500000000000
 147
 28.285714285714
  71
0
  72
0
  73
0
  74
0
  75
0
  76
0
  77
1
  78
8
 170
0
 171
2
 172
1
 173
1
 174
0
 175
0
 176
6
 177
6
 178
1
 270
2
 271
1
 272
0
 273
2
 274
2
 340
3D
 275
0
 280
0
 281
0
 282
0
 283
1
 284
0
 285
0
 286
0
 287
3
 288
0
   0
DIMSTYLE
 105
49
 100
AcDbSymbolTableRecord
 100
AcDbDimStyleTableRecord
   2
GMM007
  70
0
   3

   4

   5

   6
_OPEN
   7
_OPEN
  40
 1.0000000000000
  41
 30.000000000000
  42
 30.000000000000
  43
 160.00000000000
  44
 30.000000000000
  45
0.0
  46
 37.500000000000
  47
0.0
  48
0.0
 140
 66.000000000000
 141
 20.000000000000
 142
0.0
 143
 0.39400000000000E-1
 144
 1.0000000000000
 145
0.0
 146
 0.62500000000000
 147
0.0
  71
0
  72
0
  73
0
  74
0
  75
1
  76
1
  77
0
  78
8
 170
0
 171
2
 172
1
 173
1
 174
0
 175
0
 176
1
 177
1
 178
1
 270
2
 271
1
 272
0
 273
2
 274
2
 340
F
 275
0
 280
0
 281
0
 282
0
 283
1
 284
0
 285
0
 286
0
 287
3
 288
0
   0
DIMSTYLE
 105
4A
 100
AcDbSymbolTableRecord
 100
AcDbDimStyleTableRecord
   2
GMM008
  70
0
   3
□<>
   4

   5

   6
_OPEN
   7
_OPEN
  40
 1.0000000000000
  41
 30.000000000000
  42
 30.000000000000
  43
 160.00000000000
  44
 30.000000000000
  45
0.0
  46
 37.500000000000
  47
0.0
  48
0.0
 140
 66.000000000000
 141
 20.000000000000
 142
0.0
 143
 0.39400000000000E-1
 144
 1.0000000000000
 145
0.0
 146
 0.62500000000000
 147
 28.285714285714
  71
0
  72
0
  73
0
  74
0
  75
0
  76
0
  77
1
  78
8
 170
0
 171
2
 172
1
 173
1
 174
0
 175
0
 176
6
 177
6
 178
1
 270
2
 271
1
 272
0
 273
2
 274
2
 340
3D
 275
0
 280
0
 281
0
 282
0
 283
1
 284
0
 285
0
 286
0
 287
3
 288
0
   0
DIMSTYLE
 105
4B
 100
AcDbSymbolTableRecord
 100
AcDbDimStyleTableRecord
   2
GMM009
  70
0
   3

   4

   5

   6
_OPEN
   7
_OPEN
  40
 1.0000000000000
  41
 30.000000000000
  42
 30.000000000000
  43
 160.00000000000
  44
 30.000000000000
  45
0.0
  46
 37.500000000000
  47
0.0
  48
0.0
 140
 66.000000000000
 141
 20.000000000000
 142
0.0
 143
 0.39400000000000E-1
 144
 1.0000000000000
 145
0.0
 146
 0.62500000000000
 147
 28.285714285714
  71
0
  72
0
  73
0
  74
0
  75
1
  76
0
  77
1
  78
8
 170
0
 171
2
 172
1
 173
1
 174
0
 175
0
 176
6
 177
6
 178
1
 270
2
 271
1
 272
0
 273
2
 274
2
 340
3D
 275
0
 280
0
 281
0
 282
0
 283
1
 284
0
 285
0
 286
0
 287
3
 288
0
   0
ENDTAB
  0
TABLE
  2
BLOCK_RECORD
  5
1
100
AcDbSymbolTable
 70
     0
  0
BLOCK_RECORD
  5
18
100
AcDbSymbolTableRecord
100
AcDbBlockTableRecord
  2
*MODEL_SPACE
  0
BLOCK_RECORD
  5
15
100
AcDbSymbolTableRecord
100
AcDbBlockTableRecord
  2
*PAPER_SPACE
   0
BLOCK_RECORD
   5
4C
 100
AcDbSymbolTableRecord
 100
AcDbBlockTableRecord
   2
*D1
   0
BLOCK_RECORD
   5
4D
 100
AcDbSymbolTableRecord
 100
AcDbBlockTableRecord
   2
*D2
   0
BLOCK_RECORD
   5
4E
 100
AcDbSymbolTableRecord
 100
AcDbBlockTableRecord
   2
*D13
   0
BLOCK_RECORD
   5
4F
 100
AcDbSymbolTableRecord
 100
AcDbBlockTableRecord
   2
*D14
   0
BLOCK_RECORD
   5
50
 100
AcDbSymbolTableRecord
 100
AcDbBlockTableRecord
   2
*D15
   0
BLOCK_RECORD
   5
51
 100
AcDbSymbolTableRecord
 100
AcDbBlockTableRecord
   2
*D20
   0
BLOCK_RECORD
   5
52
 100
AcDbSymbolTableRecord
 100
AcDbBlockTableRecord
   2
*D22
   0
BLOCK_RECORD
   5
53
 100
AcDbSymbolTableRecord
 100
AcDbBlockTableRecord
   2
*D23
   0
BLOCK_RECORD
   5
54
 100
AcDbSymbolTableRecord
 100
AcDbBlockTableRecord
   2
_ARCHTICK
   0
BLOCK_RECORD
   5
55
 100
AcDbSymbolTableRecord
 100
AcDbBlockTableRecord
   2
_BOXBLANK
   0
BLOCK_RECORD
   5
56
 100
AcDbSymbolTableRecord
 100
AcDbBlockTableRecord
   2
_BOXFILLED
   0
BLOCK_RECORD
   5
57
 100
AcDbSymbolTableRecord
 100
AcDbBlockTableRecord
   2
_CLOSED
   0
BLOCK_RECORD
   5
58
 100
AcDbSymbolTableRecord
 100
AcDbBlockTableRecord
   2
_CLOSEDBLANK
   0
BLOCK_RECORD
   5
59
 100
AcDbSymbolTableRecord
 100
AcDbBlockTableRecord
   2
_DATUMBLANK
   0
BLOCK_RECORD
   5
5A
 100
AcDbSymbolTableRecord
 100
AcDbBlockTableRecord
   2
_DATUMFILLED
   0
BLOCK_RECORD
   5
5B
 100
AcDbSymbolTableRecord
 100
AcDbBlockTableRecord
   2
_DOT
   0
BLOCK_RECORD
   5
5C
 100
AcDbSymbolTableRecord
 100
AcDbBlockTableRecord
   2
_DOTBLANK
   0
BLOCK_RECORD
   5
5D
 100
AcDbSymbolTableRecord
 100
AcDbBlockTableRecord
   2
_DOTSMALL
   0
BLOCK_RECORD
   5
5E
 100
AcDbSymbolTableRecord
 100
AcDbBlockTableRecord
   2
_INTEGRAL
   0
BLOCK_RECORD
   5
5F
 100
AcDbSymbolTableRecord
 100
AcDbBlockTableRecord
   2
_NONE
   0
BLOCK_RECORD
   5
60
 100
AcDbSymbolTableRecord
 100
AcDbBlockTableRecord
   2
_OBLIQUE
   0
BLOCK_RECORD
   5
61
 100
AcDbSymbolTableRecord
 100
AcDbBlockTableRecord
   2
_OPEN
   0
BLOCK_RECORD
   5
62
 100
AcDbSymbolTableRecord
 100
AcDbBlockTableRecord
   2
_OPEN30
   0
BLOCK_RECORD
   5
63
 100
AcDbSymbolTableRecord
 100
AcDbBlockTableRecord
   2
_OPEN90
   0
BLOCK_RECORD
   5
64
 100
AcDbSymbolTableRecord
 100
AcDbBlockTableRecord
   2
_ORIGIN
   0
ENDTAB
   0
ENDSEC
  0
SECTION
  2
BLOCKS
  0
BLOCK
  5
19
100
AcDbEntity
  8
0
100
AcDbBlockBegin
  2
*MODEL_SPACE
 70
     0
 10
0.0
 20
0.0
 30
0.0
  3
*MODEL_SPACE
  1

  0
ENDBLK
  5
1A
100
AcDbEntity
  8
0
100
AcDbBlockEnd
  0
BLOCK
  5
16
100
AcDbEntity
 67
     1
  8
0
100
AcDbBlockBegin
  2
*PAPER_SPACE
 70
     0
 10
0.0
 20
0.0
 30
0.0
  3
*PAPER_SPACE
  1

  0
ENDBLK
  5
17
100
AcDbEntity
 67
     1
  8
0
100
AcDbBlockEnd
   0
BLOCK
   5
65
 100
AcDbEntity
   8
0
 100
AcDbBlockBegin
   2
_ARCHTICK
  70
0
  10
0.0
  20
0.0
  30
0.0
   3
_ARCHTICK
   0
POLYLINE
   5
66
 100
AcDbEntity
   8
0
 370
-2
   6
BYBLOCK
  62
0
 100
AcDb2dPolyline
  66
1
  10
0.0
  20
0.0
  30
0.0
  70
1
  40
 0.15000000000000
  41
 0.15000000000000
   0
VERTEX
   5
67
 100
AcDbEntity
   8
0
   6
BYBLOCK
  62
0
 100
AcDbVertex
 100
AcDb2dVertex
  10
-0.50000000000000
  20
-0.50000000000000
  30
0.0
  40
 0.15000000000000
  41
 0.15000000000000
   0
VERTEX
   5
68
 100
AcDbEntity
   8
0
   6
BYBLOCK
  62
0
 100
AcDbVertex
 100
AcDb2dVertex
  10
 0.50000000000000
  20
 0.50000000000000
  30
0.0
  40
 0.15000000000000
  41
 0.15000000000000
   0
SEQEND
   5
69
 100
AcDbEntity
   8
0
   6
BYBLOCK
  62
0
   0
ENDBLK
   5
6A
 100
AcDbEntity
   8
0
 100
AcDbBlockEnd
   0
BLOCK
   5
6B
 100
AcDbEntity
   8
0
 100
AcDbBlockBegin
   2
_OBLIQUE
  70
0
  10
0.0
  20
0.0
  30
0.0
   3
_OBLIQUE
   0
LINE
   5
6C
 100
AcDbEntity
   8
0
 370
-2
 100
AcDbLine
   6
BYBLOCK
  62
0
  10
-0.50000000000000
  20
-0.50000000000000
  30
0.0
  11
 0.50000000000000
  21
 0.50000000000000
  31
0.0
   0
ENDBLK
   5
6D
 100
AcDbEntity
   8
0
 100
AcDbBlockEnd
   0
BLOCK
   5
6E
 100
AcDbEntity
   8
0
 100
AcDbBlockBegin
   2
_BOXBLANK
  70
0
  10
0.0
  20
0.0
  30
0.0
   3
_BOXBLANK
   0
LINE
   5
6F
 100
AcDbEntity
   8
0
 370
-2
 100
AcDbLine
   6
BYBLOCK
  62
0
  10
-0.50000000000000
  20
-0.50000000000000
  30
0.0
  11
 0.50000000000000
  21
-0.50000000000000
  31
0.0
   0
LINE
   5
70
 100
AcDbEntity
   8
0
 370
-2
 100
AcDbLine
   6
BYBLOCK
  62
0
  10
 0.50000000000000
  20
-0.50000000000000
  30
0.0
  11
 0.50000000000000
  21
 0.50000000000000
  31
0.0
   0
LINE
   5
71
 100
AcDbEntity
   8
0
 370
-2
 100
AcDbLine
   6
BYBLOCK
  62
0
  10
 0.50000000000000
  20
 0.50000000000000
  30
0.0
  11
-0.50000000000000
  21
 0.50000000000000
  31
0.0
   0
LINE
   5
72
 100
AcDbEntity
   8
0
 370
-2
 100
AcDbLine
   6
BYBLOCK
  62
0
  10
-0.50000000000000
  20
 0.50000000000000
  30
0.0
  11
-0.50000000000000
  21
-0.50000000000000
  31
0.0
   0
LINE
   5
73
 100
AcDbEntity
   8
0
 370
-2
 100
AcDbLine
   6
BYBLOCK
  62
0
  10
-0.50000000000000
  20
0.0
  30
0.0
  11
-1.0000000000000
  21
0.0
  31
0.0
   0
ENDBLK
   5
74
 100
AcDbEntity
   8
0
 100
AcDbBlockEnd
   0
BLOCK
   5
75
 100
AcDbEntity
   8
0
 100
AcDbBlockBegin
   2
_BOXFILLED
  70
0
  10
0.0
  20
0.0
  30
0.0
   3
_BOXFILLED
   0
SOLID
   5
76
 100
AcDbEntity
   8
0
 100
AcDbTrace
   6
BYBLOCK
  62
0
  10
-0.50000000000000
  20
 0.50000000000000
  30
0.0
  11
 0.50000000000000
  21
 0.50000000000000
  31
0.0
  12
-0.50000000000000
  22
-0.50000000000000
  32
0.0
  13
 0.50000000000000
  23
-0.50000000000000
  33
0.0
   0
LINE
   5
77
 100
AcDbEntity
   8
0
 370
-2
 100
AcDbLine
   6
BYBLOCK
  62
0
  10
-0.50000000000000
  20
0.0
  30
0.0
  11
-1.0000000000000
  21
0.0
  31
0.0
   0
ENDBLK
   5
78
 100
AcDbEntity
   8
0
 100
AcDbBlockEnd
   0
BLOCK
   5
79
 100
AcDbEntity
   8
0
 100
AcDbBlockBegin
   2
_CLOSED
  70
0
  10
0.0
  20
0.0
  30
0.0
   3
_CLOSED
   0
LINE
   5
7A
 100
AcDbEntity
   8
0
 370
-2
 100
AcDbLine
   6
BYBLOCK
  62
0
  10
-1.0000000000000
  20
 0.16666666666667
  30
0.0
  11
0.0
  21
0.0
  31
0.0
   0
LINE
   5
7B
 100
AcDbEntity
   8
0
 370
-2
 100
AcDbLine
   6
BYBLOCK
  62
0
  10
0.0
  20
0.0
  30
0.0
  11
-1.0000000000000
  21
-0.16666666666667
  31
0.0
   0
LINE
   5
7C
 100
AcDbEntity
   8
0
 370
-2
 100
AcDbLine
   6
BYBLOCK
  62
0
  10
-1.0000000000000
  20
 0.16666666666667
  30
0.0
  11
-1.0000000000000
  21
-0.16666666666667
  31
0.0
   0
LINE
   5
7D
 100
AcDbEntity
   8
0
 370
-2
 100
AcDbLine
   6
BYBLOCK
  62
0
  10
0.0
  20
0.0
  30
0.0
  11
-1.0000000000000
  21
0.0
  31
0.0
   0
ENDBLK
   5
7E
 100
AcDbEntity
   8
0
 100
AcDbBlockEnd
   0
BLOCK
   5
7F
 100
AcDbEntity
   8
0
 100
AcDbBlockBegin
   2
_OPEN
  70
0
  10
0.0
  20
0.0
  30
0.0
   3
_OPEN
   0
LINE
   5
80
 100
AcDbEntity
   8
0
 370
-2
 100
AcDbLine
   6
BYBLOCK
  62
0
  10
-1.0000000000000
  20
 0.16666666666667
  30
0.0
  11
0.0
  21
0.0
  31
0.0
   0
LINE
   5
81
 100
AcDbEntity
   8
0
 370
-2
 100
AcDbLine
   6
BYBLOCK
  62
0
  10
0.0
  20
0.0
  30
0.0
  11
-1.0000000000000
  21
-0.16666666666667
  31
0.0
   0
LINE
   5
82
 100
AcDbEntity
   8
0
 370
-2
 100
AcDbLine
   6
BYBLOCK
  62
0
  10
0.0
  20
0.0
  30
0.0
  11
-1.0000000000000
  21
0.0
  31
0.0
   0
ENDBLK
   5
83
 100
AcDbEntity
   8
0
 100
AcDbBlockEnd
   0
BLOCK
   5
84
 100
AcDbEntity
   8
0
 100
AcDbBlockBegin
   2
_OPEN30
  70
0
  10
0.0
  20
0.0
  30
0.0
   3
_OPEN30
   0
LINE
   5
85
 100
AcDbEntity
   8
0
 370
-2
 100
AcDbLine
   6
BYBLOCK
  62
0
  10
-1.0000000000000
  20
 0.26794919243110
  30
0.0
  11
0.0
  21
0.0
  31
0.0
   0
LINE
   5
86
 100
AcDbEntity
   8
0
 370
-2
 100
AcDbLine
   6
BYBLOCK
  62
0
  10
0.0
  20
0.0
  30
0.0
  11
-1.0000000000000
  21
-0.26794919243110
  31
0.0
   0
LINE
   5
87
 100
AcDbEntity
   8
0
 370
-2
 100
AcDbLine
   6
BYBLOCK
  62
0
  10
0.0
  20
0.0
  30
0.0
  11
-1.0000000000000
  21
0.0
  31
0.0
   0
ENDBLK
   5
88
 100
AcDbEntity
   8
0
 100
AcDbBlockEnd
   0
BLOCK
   5
89
 100
AcDbEntity
   8
0
 100
AcDbBlockBegin
   2
_OPEN90
  70
0
  10
0.0
  20
0.0
  30
0.0
   3
_OPEN90
   0
LINE
   5
8A
 100
AcDbEntity
   8
0
 370
-2
 100
AcDbLine
   6
BYBLOCK
  62
0
  10
-0.50000000000000
  20
 0.50000000000000
  30
0.0
  11
0.0
  21
0.0
  31
0.0
   0
LINE
   5
8B
 100
AcDbEntity
   8
0
 370
-2
 100
AcDbLine
   6
BYBLOCK
  62
0
  10
0.0
  20
0.0
  30
0.0
  11
-0.50000000000000
  21
-0.50000000000000
  31
0.0
   0
LINE
   5
8C
 100
AcDbEntity
   8
0
 370
-2
 100
AcDbLine
   6
BYBLOCK
  62
0
  10
0.0
  20
0.0
  30
0.0
  11
-1.0000000000000
  21
0.0
  31
0.0
   0
ENDBLK
   5
8D
 100
AcDbEntity
   8
0
 100
AcDbBlockEnd
   0
BLOCK
   5
8E
 100
AcDbEntity
   8
0
 100
AcDbBlockBegin
   2
_CLOSEDBLANK
  70
0
  10
0.0
  20
0.0
  30
0.0
   3
_CLOSEDBLANK
   0
LINE
   5
8F
 100
AcDbEntity
   8
0
 370
-2
 100
AcDbLine
   6
BYBLOCK
  62
0
  10
-1.0000000000000
  20
 0.16666666666667
  30
0.0
  11
0.0
  21
0.0
  31
0.0
   0
LINE
   5
90
 100
AcDbEntity
   8
0
 370
-2
 100
AcDbLine
   6
BYBLOCK
  62
0
  10
0.0
  20
0.0
  30
0.0
  11
-1.0000000000000
  21
-0.16666666666667
  31
0.0
   0
LINE
   5
91
 100
AcDbEntity
   8
0
 370
-2
 100
AcDbLine
   6
BYBLOCK
  62
0
  10
-1.0000000000000
  20
 0.16666666666667
  30
0.0
  11
-1.0000000000000
  21
-0.16666666666667
  31
0.0
   0
ENDBLK
   5
92
 100
AcDbEntity
   8
0
 100
AcDbBlockEnd
   0
BLOCK
   5
93
 100
AcDbEntity
   8
0
 100
AcDbBlockBegin
   2
_DOT
  70
0
  10
0.0
  20
0.0
  30
0.0
   3
_DOT
   0
POLYLINE
   5
94
 100
AcDbEntity
   8
0
 370
-2
   6
BYBLOCK
  62
0
 100
AcDb2dPolyline
  66
1
  10
0.0
  20
0.0
  30
0.0
  70
1
  40
 0.50000000000000
  41
 0.50000000000000
   0
VERTEX
   5
95
 100
AcDbEntity
   8
0
   6
BYBLOCK
  62
0
 100
AcDbVertex
 100
AcDb2dVertex
  10
-0.25000000000000
  20
0.0
  30
0.0
  42
 1.0000000000000
  40
 0.50000000000000
  41
 0.50000000000000
   0
VERTEX
   5
96
 100
AcDbEntity
   8
0
   6
BYBLOCK
  62
0
 100
AcDbVertex
 100
AcDb2dVertex
  10
 0.25000000000000
  20
0.0
  30
0.0
  42
 1.0000000000000
  40
 0.50000000000000
  41
 0.50000000000000
   0
SEQEND
   5
97
 100
AcDbEntity
   8
0
   6
BYBLOCK
  62
0
   0
LINE
   5
98
 100
AcDbEntity
   8
0
 370
-2
 100
AcDbLine
   6
BYBLOCK
  62
0
  10
-0.50000000000000
  20
0.0
  30
0.0
  11
-1.0000000000000
  21
0.0
  31
0.0
   0
ENDBLK
   5
99
 100
AcDbEntity
   8
0
 100
AcDbBlockEnd
   0
BLOCK
   5
9A
 100
AcDbEntity
   8
0
 100
AcDbBlockBegin
   2
_DOTSMALL
  70
0
  10
0.0
  20
0.0
  30
0.0
   3
_DOTSMALL
   0
POLYLINE
   5
9B
 100
AcDbEntity
   8
0
 370
-2
   6
BYBLOCK
  62
0
 100
AcDb2dPolyline
  66
1
  10
0.0
  20
0.0
  30
0.0
  70
1
  40
 0.50000000000000
  41
 0.50000000000000
   0
VERTEX
   5
9C
 100
AcDbEntity
   8
0
   6
BYBLOCK
  62
0
 100
AcDbVertex
 100
AcDb2dVertex
  10
-0.62500000000000E-1
  20
0.0
  30
0.0
  42
 1.0000000000000
  40
 0.50000000000000
  41
 0.50000000000000
   0
VERTEX
   5
9D
 100
AcDbEntity
   8
0
   6
BYBLOCK
  62
0
 100
AcDbVertex
 100
AcDb2dVertex
  10
 0.62500000000000E-1
  20
0.0
  30
0.0
  42
 1.0000000000000
  40
 0.50000000000000
  41
 0.50000000000000
   0
SEQEND
   5
9E
 100
AcDbEntity
   8
0
   6
BYBLOCK
  62
0
   0
ENDBLK
   5
9F
 100
AcDbEntity
   8
0
 100
AcDbBlockEnd
   0
BLOCK
   5
A0
 100
AcDbEntity
   8
0
 100
AcDbBlockBegin
   2
_DATUMBLANK
  70
0
  10
0.0
  20
0.0
  30
0.0
   3
_DATUMBLANK
   0
LINE
   5
A1
 100
AcDbEntity
   8
0
 370
-2
 100
AcDbLine
   6
BYBLOCK
  62
0
  10
0.0
  20
 0.57735027000000
  30
0.0
  11
-1.0000000000000
  21
0.0
  31
0.0
   0
LINE
   5
A2
 100
AcDbEntity
   8
0
 370
-2
 100
AcDbLine
   6
BYBLOCK
  62
0
  10
-1.0000000000000
  20
0.0
  30
0.0
  11
0.0
  21
-0.57735027000000
  31
0.0
   0
LINE
   5
A3
 100
AcDbEntity
   8
0
 370
-2
 100
AcDbLine
   6
BYBLOCK
  62
0
  10
0.0
  20
-0.57735027000000
  30
0.0
  11
0.0
  21
 0.57735027000000
  31
0.0
   0
ENDBLK
   5
A4
 100
AcDbEntity
   8
0
 100
AcDbBlockEnd
   0
BLOCK
   5
A5
 100
AcDbEntity
   8
0
 100
AcDbBlockBegin
   2
_DATUMFILLED
  70
0
  10
0.0
  20
0.0
  30
0.0
   3
_DATUMFILLED
   0
SOLID
   5
A6
 100
AcDbEntity
   8
0
 100
AcDbTrace
   6
BYBLOCK
  62
0
  10
0.0
  20
 0.57735027000000
  30
0.0
  11
-1.0000000000000
  21
0.0
  31
0.0
  12
0.0
  22
-0.57735027000000
  32
0.0
  13
0.0
  23
-0.57735027000000
  33
0.0
   0
ENDBLK
   5
A7
 100
AcDbEntity
   8
0
 100
AcDbBlockEnd
   0
BLOCK
   5
A8
 100
AcDbEntity
   8
0
 100
AcDbBlockBegin
   2
_ORIGIN
  70
0
  10
0.0
  20
0.0
  30
0.0
   3
_ORIGIN
   0
CIRCLE
   5
A9
 100
AcDbEntity
   8
0
 370
-2
 100
AcDbCircle
   6
BYBLOCK
  62
0
  10
0.0
  20
0.0
  30
0.0
  40
 0.50000000000000
   0
LINE
   5
AA
 100
AcDbEntity
   8
0
 370
-2
 100
AcDbLine
   6
BYBLOCK
  62
0
  10
0.0
  20
0.0
  30
0.0
  11
-1.0000000000000
  21
0.0
  31
0.0
   0
ENDBLK
   5
AB
 100
AcDbEntity
   8
0
 100
AcDbBlockEnd
   0
BLOCK
   5
AC
 100
AcDbEntity
   8
0
 100
AcDbBlockBegin
   2
_NONE
  70
0
  10
0.0
  20
0.0
  30
0.0
   3
_NONE
   0
CIRCLE
   5
AD
 100
AcDbEntity
   8
0
 370
-2
 100
AcDbCircle
   6
BYBLOCK
  62
0
  10
0.0
  20
0.0
  30
0.0
  40
 0.25000000000000
   0
ENDBLK
   5
AE
 100
AcDbEntity
   8
0
 100
AcDbBlockEnd
   0
BLOCK
   5
AF
 100
AcDbEntity
   8
0
 100
AcDbBlockBegin
   2
_DOTBLANK
  70
0
  10
0.0
  20
0.0
  30
0.0
   3
_DOTBLANK
   0
CIRCLE
   5
B0
 100
AcDbEntity
   8
0
 370
-2
 100
AcDbCircle
   6
BYBLOCK
  62
0
  10
0.0
  20
0.0
  30
0.0
  40
 0.50000000000000
   0
LINE
   5
B1
 100
AcDbEntity
   8
0
 370
-2
 100
AcDbLine
   6
BYBLOCK
  62
0
  10
-0.50000000000000
  20
0.0
  30
0.0
  11
-1.0000000000000
  21
0.0
  31
0.0
   0
ENDBLK
   5
B2
 100
AcDbEntity
   8
0
 100
AcDbBlockEnd
   0
BLOCK
   5
B3
 100
AcDbEntity
   8
0
 100
AcDbBlockBegin
   2
_INTEGRAL
  70
0
  10
0.0
  20
0.0
  30
0.0
   3
_INTEGRAL
   0
ARC
   5
B4
 100
AcDbEntity
   8
0
 370
-2
   6
BYBLOCK
  62
0
 100
AcDbCircle
  10
 0.44488800000000
  20
-0.91335000000000E-1
  30
0.0
  40
 0.45416700000000
 100
AcDbArc
  50
 102.00000000000
  51
 168.00000000000
   0
ARC
   5
B5
 100
AcDbEntity
   8
0
 370
-2
   6
BYBLOCK
  62
0
 100
AcDbCircle
  10
-0.44488800000000
  20
 0.91335000000000E-1
  30
0.0
  40
 0.45416700000000
 100
AcDbArc
  50
 282.00000000000
  51
 348.00000000000
   0
ENDBLK
   5
B6
 100
AcDbEntity
   8
0
 100
AcDbBlockEnd
   0
BLOCK
   5
B7
 100
AcDbEntity
   8
0
 100
AcDbBlockBegin
   2
*D1
  70
65
  10
0.0
  20
0.0
  30
0.0
   3
*D1
   0
LINE
   5
B8
 100
AcDbEntity
   8
LEVEL001
 370
9
 100
AcDbLine
   6
CONTINUOUS
  62
6
  10
 1359.8076211353
  20
 4720.0000000000
  30
0.0
  11
 840.19237886468
  21
 4420.0000000000
  31
0.0
   0
INSERT
   5
B9
 100
AcDbEntity
   8
LEVEL001
   6
CONTINUOUS
  62
6
 100
AcDbBlockReference
   2
_OPEN
  10
 1359.8076211353
  20
 4720.0000000000
  30
0.0
  41
 30.000000000000
  42
 30.000000000000
  43
 30.000000000000
  50
 30.000000000004
   0
INSERT
   5
BA
 100
AcDbEntity
   8
LEVEL001
   6
CONTINUOUS
  62
6
 100
AcDbBlockReference
   2
_OPEN
  10
 840.19237886468
  20
 4420.0000000000
  30
0.0
  41
 30.000000000000
  42
 30.000000000000
  43
 30.000000000000
  50
 210.00000000000
   0
MTEXT
   5
BB
 100
AcDbEntity
   8
LEVEL001
 370
9
  62
1
 100
AcDbMText
  10
 1085.8571428571
  20
 4594.4961471356
  30
0.0
  40
 66.000000000000
  41
0.0
  71
8
  72
1
   1
\A1;%%c600
   7
GMM003
  11
 0.86602540378441
  21
 0.50000000000006
  31
0.0
   0
ENDBLK
   5
BC
 100
AcDbEntity
   8
0
 100
AcDbBlockEnd
   0
BLOCK
   5
BD
 100
AcDbEntity
   8
0
 100
AcDbBlockBegin
   2
*D2
  70
65
  10
0.0
  20
0.0
  30
0.0
   3
*D2
   0
LINE
   5
BE
 100
AcDbEntity
   8
LEVEL001
 370
9
 100
AcDbLine
   6
CONTINUOUS
  62
6
  10
 2159.8076211353
  20
 4720.0000000000
  30
0.0
  11
 1640.1923788647
  21
 4420.0000000000
  31
0.0
   0
INSERT
   5
BF
 100
AcDbEntity
   8
LEVEL001
   6
CONTINUOUS
  62
6
 100
AcDbBlockReference
   2
_OPEN
  10
 2159.8076211353
  20
 4720.0000000000
  30
0.0
  41
 30.000000000000
  42
 30.000000000000
  43
 30.000000000000
  50
 30.000000000004
   0
INSERT
   5
C0
 100
AcDbEntity
   8
LEVEL001
   6
CONTINUOUS
  62
6
 100
AcDbBlockReference
   2
_OPEN
  10
 1640.1923788647
  20
 4420.0000000000
  30
0.0
  41
 30.000000000000
  42
 30.000000000000
  43
 30.000000000000
  50
 210.00000000000
   0
MTEXT
   5
C1
 100
AcDbEntity
   8
LEVEL001
 370
9
  62
1
 100
AcDbMText
  10
 1885.8571428571
  20
 4594.4961471356
  30
0.0
  40
 66.000000000000
  41
0.0
  71
8
  72
1
   1
\A1;%%c600
   7
GMM003
  11
 0.86602540378441
  21
 0.50000000000006
  31
0.0
   0
ENDBLK
   5
C2
 100
AcDbEntity
   8
0
 100
AcDbBlockEnd
   0
BLOCK
   5
C3
 100
AcDbEntity
   8
0
 100
AcDbBlockBegin
   2
*D13
  70
65
  10
0.0
  20
0.0
  30
0.0
   3
*D13
   0
LINE
   5
C4
 100
AcDbEntity
   8
LEVEL001
 370
9
 100
AcDbLine
   6
CONTINUOUS
  62
6
  10
 1220.0000000000
  20
 670.00000000095
  30
0.0
  11
 720.00000000000
  21
 670.00000000095
  31
0.0
   0
LINE
   5
C5
 100
AcDbEntity
   8
LEVEL001
 370
9
 100
AcDbLine
   6
CONTINUOUS
  62
6
  10
 1220.0000000000
  20
 770.00000000095
  30
0.0
  11
 720.00000000000
  21
 770.00000000095
  31
0.0
   0
LINE
   5
C6
 100
AcDbEntity
   8
LEVEL001
 370
9
 100
AcDbLine
   6
CONTINUOUS
  62
6
  10
 750.00000000000
  20
 670.00000000095
  30
0.0
  11
 750.00000000000
  21
 770.00000000095
  31
0.0
   0
INSERT
   5
C7
 100
AcDbEntity
   8
LEVEL001
   6
CONTINUOUS
  62
6
 100
AcDbBlockReference
   2
_OPEN
  10
 750.00000000000
  20
 670.00000000095
  30
0.0
  41
 30.000000000000
  42
 30.000000000000
  43
 30.000000000000
  50
 270.00000000000
   0
INSERT
   5
C8
 100
AcDbEntity
   8
LEVEL001
   6
CONTINUOUS
  62
6
 100
AcDbBlockReference
   2
_OPEN
  10
 750.00000000000
  20
 770.00000000095
  30
0.0
  41
 30.000000000000
  42
 30.000000000000
  43
 30.000000000000
  50
 90.000000000000
   0
MTEXT
   5
C9
 100
AcDbEntity
   8
LEVEL001
 370
9
  62
1
 100
AcDbMText
  10
 721.71428571429
  20
 720.00000000095
  30
0.0
  40
 66.000000000000
  41
0.0
  71
8
  72
1
   1
\A1;100
   7
GMM003
  11
0.0
  21
 1.0000000000000
  31
0.0
   0
ENDBLK
   5
CA
 100
AcDbEntity
   8
0
 100
AcDbBlockEnd
   0
BLOCK
   5
CB
 100
AcDbEntity
   8
0
 100
AcDbBlockBegin
   2
*D14
  70
65
  10
0.0
  20
0.0
  30
0.0
   3
*D14
   0
LINE
   5
CC
 100
AcDbEntity
   8
LEVEL001
 370
9
 100
AcDbLine
   6
CONTINUOUS
  62
6
  10
 1220.0000000000
  20
 770.00000000095
  30
0.0
  11
 720.00000000000
  21
 770.00000000095
  31
0.0
   0
LINE
   5
CD
 100
AcDbEntity
   8
LEVEL001
 370
9
 100
AcDbLine
   6
CONTINUOUS
  62
6
  10
 920.00006523496
  20
 1770.0000000010
  30
0.0
  11
 720.00000000000
  21
 1770.0000000010
  31
0.0
   0
LINE
   5
CE
 100
AcDbEntity
   8
LEVEL001
 370
9
 100
AcDbLine
   6
CONTINUOUS
  62
6
  10
 750.00000000000
  20
 770.00000000095
  30
0.0
  11
 750.00000000000
  21
 1770.0000000010
  31
0.0
   0
INSERT
   5
CF
 100
AcDbEntity
   8
LEVEL001
   6
CONTINUOUS
  62
6
 100
AcDbBlockReference
   2
_OPEN
  10
 750.00000000000
  20
 770.00000000095
  30
0.0
  41
 30.000000000000
  42
 30.000000000000
  43
 30.000000000000
  50
 270.00000000000
   0
INSERT
   5
D0
 100
AcDbEntity
   8
LEVEL001
   6
CONTINUOUS
  62
6
 100
AcDbBlockReference
   2
_OPEN
  10
 750.00000000000
  20
 1770.0000000010
  30
0.0
  41
 30.000000000000
  42
 30.000000000000
  43
 30.000000000000
  50
 90.000000000000
   0
MTEXT
   5
D1
 100
AcDbEntity
   8
LEVEL001
 370
9
  62
1
 100
AcDbMText
  10
 721.71428571429
  20
 1270.0000000010
  30
0.0
  40
 66.000000000000
  41
0.0
  71
8
  72
1
   1
\A1;1000
   7
GMM003
  11
0.0
  21
 1.0000000000000
  31
0.0
   0
ENDBLK
   5
D2
 100
AcDbEntity
   8
0
 100
AcDbBlockEnd
   0
BLOCK
   5
D3
 100
AcDbEntity
   8
0
 100
AcDbBlockBegin
   2
*D15
  70
65
  10
0.0
  20
0.0
  30
0.0
   3
*D15
   0
LINE
   5
D4
 100
AcDbEntity
   8
LEVEL001
 370
9
 100
AcDbLine
   6
CONTINUOUS
  62
6
  10
 920.00006523496
  20
 1770.0000000010
  30
0.0
  11
 720.00000000000
  21
 1770.0000000010
  31
0.0
   0
LINE
   5
D5
 100
AcDbEntity
   8
LEVEL001
 370
9
 100
AcDbLine
   6
CONTINUOUS
  62
6
  10
 1070.0000000001
  20
 4269.9999999950
  30
0.0
  11
 720.00000000000
  21
 4269.9999999950
  31
0.0
   0
LINE
   5
D6
 100
AcDbEntity
   8
LEVEL001
 370
9
 100
AcDbLine
   6
CONTINUOUS
  62
6
  10
 750.00000000000
  20
 1770.0000000010
  30
0.0
  11
 750.00000000000
  21
 4269.9999999950
  31
0.0
   0
INSERT
   5
D7
 100
AcDbEntity
   8
LEVEL001
   6
CONTINUOUS
  62
6
 100
AcDbBlockReference
   2
_OPEN
  10
 750.00000000000
  20
 1770.0000000010
  30
0.0
  41
 30.000000000000
  42
 30.000000000000
  43
 30.000000000000
  50
 270.00000000000
   0
INSERT
   5
D8
 100
AcDbEntity
   8
LEVEL001
   6
CONTINUOUS
  62
6
 100
AcDbBlockReference
   2
_OPEN
  10
 750.00000000000
  20
 4269.9999999950
  30
0.0
  41
 30.000000000000
  42
 30.000000000000
  43
 30.000000000000
  50
 90.000000000000
   0
MTEXT
   5
D9
 100
AcDbEntity
   8
LEVEL001
 370
9
  62
1
 100
AcDbMText
  10
 721.71428571429
  20
 3019.9999999980
  30
0.0
  40
 66.000000000000
  41
0.0
  71
8
  72
1
   1
\A1;2500(標準設置高さ)
   7
GMM003
  11
0.0
  21
 1.0000000000000
  31
0.0
   0
ENDBLK
   5
DA
 100
AcDbEntity
   8
0
 100
AcDbBlockEnd
   0
BLOCK
   5
DB
 100
AcDbEntity
   8
0
 100
AcDbBlockBegin
   2
*D20
  70
65
  10
0.0
  20
0.0
  30
0.0
   3
*D20
   0
LINE
   5
DC
 100
AcDbEntity
   8
LEVEL001
 370
9
 100
AcDbLine
   6
CONTINUOUS
  62
6
  10
 1250.0000000000
  20
 640.00000000095
  30
0.0
  11
 1250.0000000000
  21
 390.00000000095
  31
0.0
   0
LINE
   5
DD
 100
AcDbEntity
   8
LEVEL001
 370
9
 100
AcDbLine
   6
CONTINUOUS
  62
6
  10
 1750.0000000000
  20
 640.00000000095
  30
0.0
  11
 1750.0000000000
  21
 390.00000000095
  31
0.0
   0
LINE
   5
DE
 100
AcDbEntity
   8
LEVEL001
 370
9
 100
AcDbLine
   6
CONTINUOUS
  62
6
  10
 1250.0000000000
  20
 420.00000000095
  30
0.0
  11
 1750.0000000000
  21
 420.00000000095
  31
0.0
   0
INSERT
   5
DF
 100
AcDbEntity
   8
LEVEL001
   6
CONTINUOUS
  62
6
 100
AcDbBlockReference
   2
_OPEN
  10
 1250.0000000000
  20
 420.00000000095
  30
0.0
  41
 30.000000000000
  42
 30.000000000000
  43
 30.000000000000
  50
 180.00000000000
   0
INSERT
   5
E0
 100
AcDbEntity
   8
LEVEL001
   6
CONTINUOUS
  62
6
 100
AcDbBlockReference
   2
_OPEN
  10
 1750.0000000000
  20
 420.00000000095
  30
0.0
  41
 30.000000000000
  42
 30.000000000000
  43
 30.000000000000
  50
0.0
   0
MTEXT
   5
E1
 100
AcDbEntity
   8
LEVEL001
 370
9
  62
1
 100
AcDbMText
  10
 1500.0000000000
  20
 448.28571428667
  30
0.0
  40
 66.000000000000
  41
0.0
  71
8
  72
1
   1
\A1;□500
   7
GMM003
   0
ENDBLK
   5
E2
 100
AcDbEntity
   8
0
 100
AcDbBlockEnd
   0
BLOCK
   5
E3
 100
AcDbEntity
   8
0
 100
AcDbBlockBegin
   2
*D22
  70
65
  10
0.0
  20
0.0
  30
0.0
   3
*D22
   0
LINE
   5
E4
 100
AcDbEntity
   8
LEVEL001
 370
9
 100
AcDbLine
   6
CONTINUOUS
  62
6
  10
 2400.0000000000
  20
 640.00000000095
  30
0.0
  11
 2400.0000000000
  21
 390.00000000095
  31
0.0
   0
LINE
   5
E5
 100
AcDbEntity
   8
LEVEL001
 370
9
 100
AcDbLine
   6
CONTINUOUS
  62
6
  10
 2900.0000000000
  20
 640.00000000095
  30
0.0
  11
 2900.0000000000
  21
 390.00000000095
  31
0.0
   0
LINE
   5
E6
 100
AcDbEntity
   8
LEVEL001
 370
9
 100
AcDbLine
   6
CONTINUOUS
  62
6
  10
 2400.0000000000
  20
 420.00000000095
  30
0.0
  11
 2900.0000000000
  21
 420.00000000095
  31
0.0
   0
INSERT
   5
E7
 100
AcDbEntity
   8
LEVEL001
   6
CONTINUOUS
  62
6
 100
AcDbBlockReference
   2
_OPEN
  10
 2400.0000000000
  20
 420.00000000095
  30
0.0
  41
 30.000000000000
  42
 30.000000000000
  43
 30.000000000000
  50
 180.00000000000
   0
INSERT
   5
E8
 100
AcDbEntity
   8
LEVEL001
   6
CONTINUOUS
  62
6
 100
AcDbBlockReference
   2
_OPEN
  10
 2900.0000000000
  20
 420.00000000095
  30
0.0
  41
 30.000000000000
  42
 30.000000000000
  43
 30.000000000000
  50
0.0
   0
MTEXT
   5
E9
 100
AcDbEntity
   8
LEVEL001
 370
9
  62
1
 100
AcDbMText
  10
 2650.0000000000
  20
 448.28571428667
  30
0.0
  40
 66.000000000000
  41
0.0
  71
8
  72
1
   1
\A1;□500
   7
GMM003
   0
ENDBLK
   5
EA
 100
AcDbEntity
   8
0
 100
AcDbBlockEnd
   0
BLOCK
   5
EB
 100
AcDbEntity
   8
0
 100
AcDbBlockBegin
   2
*D23
  70
65
  10
0.0
  20
0.0
  30
0.0
   3
*D23
   0
LINE
   5
EC
 100
AcDbEntity
   8
LEVEL001
 370
9
 100
AcDbLine
   6
CONTINUOUS
  62
6
  10
 3000.0000000000
  20
 2420.0000000010
  30
0.0
  11
 3000.0000000000
  21
 2420.0000000010
  31
0.0
   0
LINE
   5
ED
 100
AcDbEntity
   8
LEVEL001
 370
9
 100
AcDbLine
   6
CONTINUOUS
  62
6
  10
 2650.0000000000
  20
 1483.9781142906
  30
0.0
  11
 2650.0000000000
  21
 2450.0000000010
  31
0.0
   0
LINE
   5
EE
 100
AcDbEntity
   8
LEVEL001
 370
9
 100
AcDbLine
   6
CONTINUOUS
  62
6
  10
 3000.0000000000
  20
 2420.0000000010
  30
0.0
  11
 2650.0000000000
  21
 2420.0000000010
  31
0.0
   0
INSERT
   5
EF
 100
AcDbEntity
   8
LEVEL001
   6
CONTINUOUS
  62
6
 100
AcDbBlockReference
   2
_OPEN
  10
 3000.0000000000
  20
 2420.0000000010
  30
0.0
  41
 30.000000000000
  42
 30.000000000000
  43
 30.000000000000
  50
0.0
   0
INSERT
   5
F0
 100
AcDbEntity
   8
LEVEL001
   6
CONTINUOUS
  62
6
 100
AcDbBlockReference
   2
_OPEN
  10
 2650.0000000000
  20
 2420.0000000010
  30
0.0
  41
 30.000000000000
  42
 30.000000000000
  43
 30.000000000000
  50
 180.00000000000
   0
MTEXT
   5
F1
 100
AcDbEntity
   8
LEVEL001
 370
9
  62
1
 100
AcDbMText
  10
 2825.0000000000
  20
 2448.2857142867
  30
0.0
  40
 66.000000000000
  41
0.0
  71
8
  72
1
   1
\A1;350
   7
GMM003
   0
ENDBLK
   5
F2
 100
AcDbEntity
   8
0
 100
AcDbBlockEnd
   0
ENDSEC
   0
SECTION
   2
ENTITIES
   0
LINE
   5
F3
 100
AcDbEntity
   8
LEVEL001
 370
9
 100
AcDbLine
   6
CONTINUOUS
  62
6
  10
 8226.6668701172
  20
 3520.0000000000
  30
0.0
  11
 8226.6668701172
  21
 870.00000000000
  31
0.0
   0
LINE
   5
F4
 100
AcDbEntity
   8
LEVEL001
 370
9
 100
AcDbLine
   6
CONTINUOUS
  62
6
  10
 5710.9090909091
  20
 870.00000000000
  30
0.0
  11
 8226.6668701172
  21
 870.00000000000
  31
0.0
   0
MTEXT
   5
F6
 100
AcDbEntity
   8
LEVEL001
 370
13
  62
1
 100
AcDbMText
  10
 5881.8880646631
  20
 1413.5736076959
  30
0.0
  40
 80.000000000000
  41
0.0
  71
9
  72
1
   1
\T1.000000;１３
   7
GMM001
  44
 0.79999984000003
   0
LINE
   5
F7
 100
AcDbEntity
   8
LEVEL001
 370
9
 100
AcDbLine
   6
CONTINUOUS
  62
6
  10
 5710.9090909091
  20
 1130.0000000000
  30
0.0
  11
 8226.6668701172
  21
 1130.0000000000
  31
0.0
   0
LINE
   5
F8
 100
AcDbEntity
   8
LEVEL001
 370
9
 100
AcDbLine
   6
CONTINUOUS
  62
6
  10
 5710.9090909091
  20
 1260.0000000000
  30
0.0
  11
 8226.6668701172
  21
 1260.0000000000
  31
0.0
   0
LINE
   5
F9
 100
AcDbEntity
   8
LEVEL001
 370
9
 100
AcDbLine
   6
CONTINUOUS
  62
6
  10
 5710.9090909091
  20
 1390.0000000000
  30
0.0
  11
 8226.6668701172
  21
 1390.0000000000
  31
0.0
   0
LINE
   5
FA
 100
AcDbEntity
   8
LEVEL001
 370
9
 100
AcDbLine
   6
CONTINUOUS
  62
6
  10
 5710.9090909091
  20
 1520.0000000000
  30
0.0
  11
 8226.6668701172
  21
 1520.0000000000
  31
0.0
   0
MTEXT
   5
FC
 100
AcDbEntity
   8
LEVEL001
 370
13
  62
1
 100
AcDbMText
  10
 5881.8880646631
  20
 1283.5736076959
  30
0.0
  40
 80.000000000000
  41
0.0
  71
9
  72
1
   1
\T1.000000;１４
   7
GMM001
  44
 0.79999984000003
   0
MTEXT
   5
FE
 100
AcDbEntity
   8
LEVEL001
 370
13
  62
1
 100
AcDbMText
  10
 5881.8880646631
  20
 1153.5736076959
  30
0.0
  40
 80.000000000000
  41
0.0
  71
9
  72
1
   1
\T1.000000;１５
   7
GMM001
  44
 0.79999984000003
   0
LINE
   5
FF
 100
AcDbEntity
   8
LEVEL001
 370
9
 100
AcDbLine
   6
CONTINUOUS
  62
6
  10
 5710.9090909091
  20
 1000.0000000000
  30
0.0
  11
 8226.6668701172
  21
 1000.0000000000
  31
0.0
   0
MTEXT
   5
101
 100
AcDbEntity
   8
LEVEL001
 370
13
  62
1
 100
AcDbMText
  10
 5960.9090909091
  20
 893.57360769589
  30
0.0
  40
 80.000000000000
  41
0.0
  71
7
  72
1
   1
\T1.000000;同上ボルトナット
   7
GMM002
  44
 0.79999984000003
   0
MTEXT
   5
103
 100
AcDbEntity
   8
LEVEL001
 370
13
  62
1
 100
AcDbMText
  10
 5960.9090909091
  20
 1023.5736076959
  30
0.0
  40
 80.000000000000
  41
0.0
  71
7
  72
1
   1
\T1.000000;注意板取付バンド
   7
GMM002
  44
 0.79999984000003
   0
MTEXT
   5
105
 100
AcDbEntity
   8
LEVEL001
 370
13
  62
1
 100
AcDbMText
  10
 6931.8880646631
  20
 1153.5736076959
  30
0.0
  40
 80.000000000000
  41
0.0
  71
9
  72
1
   1
\T1.000000;１
   7
GMM002
  44
 0.79999984000003
   0
MTEXT
   5
107
 100
AcDbEntity
   8
LEVEL001
 370
13
  62
1
 100
AcDbMText
  10
 5960.9090909091
  20
 1283.5736076959
  30
0.0
  40
 80.000000000000
  41
0.0
  71
7
  72
1
   1
\T1.000000;キャップ
   7
GMM002
  44
 0.79999984000003
   0
MTEXT
   5
109
 100
AcDbEntity
   8
LEVEL001
 370
13
  62
1
 100
AcDbMText
  10
 6931.8880646631
  20
 1283.5736076959
  30
0.0
  40
 80.000000000000
  41
0.0
  71
9
  72
1
   1
\T1.000000;１
   7
GMM002
  44
 0.79999984000003
   0
MTEXT
   5
10B
 100
AcDbEntity
   8
LEVEL001
 370
13
  62
1
 100
AcDbMText
  10
 7010.9090909091
  20
 1283.5736076959
  30
0.0
  40
 80.000000000000
  41
0.0
  71
7
  72
1
   1
\T1.000000;ＰＥ
   7
GMM002
  44
 0.79999984000003
   0
MTEXT
   5
10D
 100
AcDbEntity
   8
LEVEL001
 370
13
  62
1
 100
AcDbMText
  10
 5960.9090909091
  20
 1413.5736076959
  30
0.0
  40
 80.000000000000
  41
0.0
  71
7
  72
1
   1
\T1.000000;根入れ鉄筋
   7
GMM002
  44
 0.79999984000003
   0
MTEXT
   5
10F
 100
AcDbEntity
   8
LEVEL001
 370
13
  62
1
 100
AcDbMText
  10
 5881.8880646631
  20
 1023.5736076959
  30
0.0
  40
 80.000000000000
  41
0.0
  71
9
  72
1
   1
\T1.000000;１６
   7
GMM001
  44
 0.79999984000003
   0
MTEXT
   5
111
 100
AcDbEntity
   8
LEVEL001
 370
13
  62
1
 100
AcDbMText
  10
 5881.8880646631
  20
 893.57360769589
  30
0.0
  40
 80.000000000000
  41
0.0
  71
9
  72
1
   1
\T1.000000;１７
   7
GMM001
  44
 0.79999984000003
   0
MTEXT
   5
113
 100
AcDbEntity
   8
LEVEL001
 370
13
  62
1
 100
AcDbMText
  10
 6931.8880646631
  20
 1413.5736076959
  30
0.0
  40
 80.000000000000
  41
0.0
  71
9
  72
1
   1
\T1.000000;１
   7
GMM002
  44
 0.79999984000003
   0
MTEXT
   5
115
 100
AcDbEntity
   8
LEVEL001
 370
13
  62
1
 100
AcDbMText
  10
 7010.9090909091
  20
 1413.5736076959
  30
0.0
  40
 80.000000000000
  41
0.0
  71
7
  72
1
   1
\T1.000000;ＳＤ２９５Ａ
   7
GMM002
  44
 0.79999984000003
   0
ARC
   5
116
 100
AcDbEntity
   8
LEVEL002
 370
25
   6
CONTINUOUS
  62
7
 100
AcDbCircle
  10
 1445.0000000002
  20
 4050.0000000010
  30
0.0
  40
 20.000000000000
 100
AcDbArc
  50
 90.000000000000
  51
 180.00000000000
   0
LINE
   5
117
 100
AcDbEntity
   8
LEVEL002
 370
25
 100
AcDbLine
   6
CONTINUOUS
  62
7
  10
 1425.0000000002
  20
 4050.0000000010
  30
0.0
  11
 1425.0000000002
  21
 3690.0000000010
  31
0.0
   0
LINE
   5
118
 100
AcDbEntity
   8
LEVEL002
 370
25
 100
AcDbLine
   6
CONTINUOUS
  62
7
  10
 1555.0000000002
  20
 4070.0000000010
  30
0.0
  11
 1445.0000000002
  21
 4070.0000000010
  31
0.0
   0
ARC
   5
119
 100
AcDbEntity
   8
LEVEL002
 370
25
   6
CONTINUOUS
  62
7
 100
AcDbCircle
  10
 1555.0000000002
  20
 4050.0000000010
  30
0.0
  40
 20.000000000000
 100
AcDbArc
  50
0.0
  51
 90.000000000000
   0
LINE
   5
11A
 100
AcDbEntity
   8
LEVEL002
 370
25
 100
AcDbLine
   6
CONTINUOUS
  62
7
  10
 1575.0000000002
  20
 3690.0000000010
  30
0.0
  11
 1575.0000000002
  21
 4050.0000000010
  31
0.0
   0
ARC
   5
11B
 100
AcDbEntity
   8
LEVEL002
 370
25
   6
CONTINUOUS
  62
7
 100
AcDbCircle
  10
 1445.0000000002
  20
 4050.0000000010
  30
0.0
  40
 20.000000000000
 100
AcDbArc
  50
 90.000000000000
  51
 180.00000000000
   0
LINE
   5
11C
 100
AcDbEntity
   8
LEVEL002
 370
25
 100
AcDbLine
   6
CONTINUOUS
  62
7
  10
 1425.0000000002
  20
 4050.0000000010
  30
0.0
  11
 1425.0000000002
  21
 3690.0000000010
  31
0.0
   0
LINE
   5
11D
 100
AcDbEntity
   8
LEVEL002
 370
25
 100
AcDbLine
   6
CONTINUOUS
  62
7
  10
 1555.0000000002
  20
 4070.0000000010
  30
0.0
  11
 1445.0000000002
  21
 4070.0000000010
  31
0.0
   0
LINE
   5
11E
 100
AcDbEntity
   8
LEVEL002
 370
25
 100
AcDbLine
   6
CONTINUOUS
  62
7
  10
 1575.0000000002
  20
 3690.0000000010
  30
0.0
  11
 1575.0000000002
  21
 4050.0000000010
  31
0.0
   0
ARC
   5
11F
 100
AcDbEntity
   8
LEVEL002
 370
25
   6
CONTINUOUS
  62
7
 100
AcDbCircle
  10
 1555.0000000002
  20
 4050.0000000010
  30
0.0
  40
 20.000000000000
 100
AcDbArc
  50
0.0
  51
 90.000000000000
   0
LWPOLYLINE
   5
120
 100
AcDbEntity
   8
LEVEL001
 370
25
   6
CONTINUOUS
  62
7
 100
AcDbPolyline
  90
4
  70
1
  10
 1547.9999922261
  20
 4627.9999584717
  10
 1561.9999922261
  20
 4627.9999584717
  10
 1561.9999922261
  20
 4641.9999584717
  10
 1547.9999922261
  20
 4641.9999584717
   0
LWPOLYLINE
   5
121
 100
AcDbEntity
   8
LEVEL001
 370
25
   6
CONTINUOUS
  62
7
 100
AcDbPolyline
  90
4
  70
1
  10
 1547.9999922261
  20
 4567.9999584717
  10
 1561.9999922261
  20
 4567.9999584717
  10
 1561.9999922261
  20
 4581.9999584717
  10
 1547.9999922261
  20
 4581.9999584717
   0
LINE
   5
122
 100
AcDbEntity
   8
LEVEL001
 370
9
 100
AcDbLine
   6
CONTINUOUS
  62
6
  10
 1535.3549013216
  20
 4597.5622211509
  30
0.0
  11
 1535.3549013216
  21
 4554.9999584717
  31
0.0
   0
LINE
   5
123
 100
AcDbEntity
   8
LEVEL001
 370
9
 100
AcDbLine
   6
CONTINUOUS
  62
6
  10
 1535.3549013216
  20
 4612.4376957925
  30
0.0
  11
 1535.3549013216
  21
 4654.9999584717
  31
0.0
   0
LWPOLYLINE
   5
124
 100
AcDbEntity
   8
LEVEL001
 370
25
   6
CONTINUOUS
  62
7
 100
AcDbPolyline
  90
4
  70
1
  10
 1452.0000077739
  20
 4517.9999584717
  10
 1438.0000077739
  20
 4517.9999584717
  10
 1438.0000077739
  20
 4531.9999584717
  10
 1452.0000077739
  20
 4531.9999584717
   0
LWPOLYLINE
   5
125
 100
AcDbEntity
   8
LEVEL001
 370
25
   6
CONTINUOUS
  62
7
 100
AcDbPolyline
  90
4
  70
1
  10
 1452.0000077739
  20
 4457.9999584717
  10
 1438.0000077739
  20
 4457.9999584717
  10
 1438.0000077739
  20
 4471.9999584717
  10
 1452.0000077739
  20
 4471.9999584717
   0
LINE
   5
126
 100
AcDbEntity
   8
LEVEL001
 370
9
 100
AcDbLine
   6
CONTINUOUS
  62
6
  10
 1464.6450986784
  20
 4487.5622211509
  30
0.0
  11
 1464.6450986784
  21
 4444.9999584717
  31
0.0
   0
LINE
   5
127
 100
AcDbEntity
   8
LEVEL001
 370
9
 100
AcDbLine
   6
CONTINUOUS
  62
6
  10
 1464.6450986784
  20
 4502.4376957925
  30
0.0
  11
 1464.6450986784
  21
 4544.9999584717
  31
0.0
   0
CIRCLE
   5
128
 100
AcDbEntity
   8
LEVEL001
 370
25
 100
AcDbCircle
   6
CONTINUOUS
  62
7
  10
 1100.0000000000
  20
 4570.0000000000
  30
0.0
  40
 300.00000000000
   0
ARC
   5
129
 100
AcDbEntity
   8
LEVEL001
 370
13
   6
CONTINUOUS
  62
1
 100
AcDbCircle
  10
 1205.0001840010
  20
 4858.4856345812
  30
0.0
  40
 7.5000000000000
 100
AcDbArc
  50
 339.30011558146
  51
 160.69988441851
   0
ARC
   5
12A
 100
AcDbEntity
   8
LEVEL001
 370
13
   6
CONTINUOUS
  62
1
 100
AcDbCircle
  10
 994.99981599898
  20
 4858.4856345813
  30
0.0
  40
 7.5000000000000
 100
AcDbArc
  50
 19.300115581188
  51
 200.69988441883
   0
ARC
   5
12B
 100
AcDbEntity
   8
LEVEL001
 370
25
   6
CONTINUOUS
  62
7
 100
AcDbCircle
  10
 1100.0000000000
  20
 4570.0000000000
  30
0.0
  40
 307.00000000000
 100
AcDbArc
  50
 17.242522646568
  51
 162.75747735343
   0
CIRCLE
   5
12C
 100
AcDbEntity
   8
LEVEL001
 370
13
 100
AcDbCircle
   6
CONTINUOUS
  62
2
  10
 1100.0000000000
  20
 4570.0000000000
  30
0.0
  40
 285.00000000000
   0
LINE
   5
12D
 100
AcDbEntity
   8
LEVEL001
 370
25
 100
AcDbLine
   6
CONTINUOUS
  62
7
  10
 806.79699865111
  20
 4661.0000000000
  30
0.0
  11
 814.13464708013
  21
 4661.0000000000
  31
0.0
   0
ARC
   5
12E
 100
AcDbEntity
   8
LEVEL001
 370
13
   6
CONTINUOUS
  62
1
 100
AcDbCircle
  10
 821.76350937979
  20
 4699.7438063544
  30
0.0
  40
 7.5000000000000
 100
AcDbArc
  50
 64.300115581546
  51
 245.69988441846
   0
ARC
   5
12F
 100
AcDbEntity
   8
LEVEL001
 370
13
   6
CONTINUOUS
  62
1
 100
AcDbCircle
  10
 845.58557115318
  20
 4411.0242207300
  30
0.0
  40
 7.5000000000000
 100
AcDbArc
  50
 121.28378410419
  51
 302.71621589584
   0
DIMENSION
   5
130
 100
AcDbEntity
   8
LEVEL001
 370
9
   6
CONTINUOUS
  62
6
 100
AcDbDimension
   2
*D1
  10
 1359.8076211353
  20
 4720.0000000000
  30
0.0
  11
 1085.8571428571
  21
 4594.4961471356
  31
0.0
  70
3
   3
GMM001
 100
AcDbDiametricDimension
  15
 840.19237886468
  25
 4420.0000000000
  35
0.0
   0
ARC
   5
131
 100
AcDbEntity
   8
LEVEL001
 370
13
   6
CONTINUOUS
  62
1
 100
AcDbCircle
  10
 1100.0000000000
  20
 4270.0000000000
  30
0.0
  40
 7.5000000000000
 100
AcDbArc
  50
 179.28378410391
  51
 0.71621589609071
   0
ARC
   5
132
 100
AcDbEntity
   8
LEVEL001
 370
13
   6
CONTINUOUS
  62
1
 100
AcDbCircle
  10
 1354.4144288468
  20
 4411.0242207300
  30
0.0
  40
 7.5000000000000
 100
AcDbArc
  50
 237.28378410416
  51
 58.716215895805
   0
LINE
   5
133
 100
AcDbEntity
   8
LEVEL001
 370
25
 100
AcDbLine
   6
CONTINUOUS
  62
7
  10
 1393.2030013489
  20
 4661.0000000000
  30
0.0
  11
 1385.8653529199
  21
 4661.0000000000
  31
0.0
   0
ARC
   5
134
 100
AcDbEntity
   8
LEVEL001
 370
13
   6
CONTINUOUS
  62
1
 100
AcDbCircle
  10
 1378.2364906202
  20
 4699.7438063544
  30
0.0
  40
 7.5000000000000
 100
AcDbArc
  50
 294.30011558157
  51
 115.69988441842
   0
LWPOLYLINE
   5
135
 100
AcDbEntity
   8
LEVEL001
 370
25
   6
CONTINUOUS
  62
7
 100
AcDbPolyline
  90
6
  70
0
  10
 1541.3500000000
  20
 4514.9999584717
  10
 1541.3500000000
  20
 4549.9999584717
  10
 1425.0000077739
  20
 4549.9999584717
  10
 1425.0000077739
  20
 4439.9999584717
  10
 1541.3500000000
  20
 4439.9999584717
  10
 1541.3500000000
  20
 4454.9999584717
   0
LINE
   5
136
 100
AcDbEntity
   8
LEVEL001
 370
25
 100
AcDbLine
   6
CONTINUOUS
  62
7
  10
 1425.0000077739
  20
 4547.6981146880
  30
0.0
  11
 1397.3801469848
  21
 4530.4393101769
  31
0.0
   0
LWPOLYLINE
   5
137
 100
AcDbEntity
   8
LEVEL001
 370
25
   6
CONTINUOUS
  62
7
 100
AcDbPolyline
  90
4
  70
0
  10
 1398.3127410594
  20
 4601.7727638337
  10
 1460.6486023120
  20
 4640.7245330553
  10
 1460.6486023120
  20
 4569.9738288535
  10
 1428.6837278613
  20
 4549.9999584717
   0
CIRCLE
   5
138
 100
AcDbEntity
   8
LEVEL001
 370
25
 100
AcDbCircle
   6
CONTINUOUS
  62
7
  10
 1900.0000000000
  20
 4570.0000000000
  30
0.0
  40
 300.00000000000
   0
ARC
   5
139
 100
AcDbEntity
   8
LEVEL001
 370
25
   6
CONTINUOUS
  62
7
 100
AcDbCircle
  10
 1900.0000000000
  20
 4570.0000000000
  30
0.0
  40
 307.00000000000
 100
AcDbArc
  50
 17.242522646568
  51
 162.75747735343
   0
CIRCLE
   5
13A
 100
AcDbEntity
   8
LEVEL001
 370
13
 100
AcDbCircle
   6
CONTINUOUS
  62
2
  10
 1900.0000000000
  20
 4570.0000000000
  30
0.0
  40
 285.00000000000
   0
DIMENSION
   5
13B
 100
AcDbEntity
   8
LEVEL001
 370
9
   6
CONTINUOUS
  62
6
 100
AcDbDimension
   2
*D2
  10
 2159.8076211353
  20
 4720.0000000000
  30
0.0
  11
 1885.8571428571
  21
 4594.4961471356
  31
0.0
  70
3
   3
GMM001
 100
AcDbDiametricDimension
  15
 1640.1923788647
  25
 4420.0000000000
  35
0.0
   0
LINE
   5
13C
 100
AcDbEntity
   8
LEVEL001
 370
25
 100
AcDbLine
   6
CONTINUOUS
  62
7
  10
 2193.2030013489
  20
 4661.0000000000
  30
0.0
  11
 2185.8653529199
  21
 4661.0000000000
  31
0.0
   0
ARC
   5
13D
 100
AcDbEntity
   8
LEVEL001
 370
13
   6
CONTINUOUS
  62
1
 100
AcDbCircle
  10
 2178.2364906202
  20
 4699.7438063544
  30
0.0
  40
 7.5000000000000
 100
AcDbArc
  50
 294.30011558157
  51
 115.69988441842
   0
ARC
   5
13E
 100
AcDbEntity
   8
LEVEL001
 370
13
   6
CONTINUOUS
  62
1
 100
AcDbCircle
  10
 2005.0001840010
  20
 4858.4856345812
  30
0.0
  40
 7.5000000000000
 100
AcDbArc
  50
 339.30011558126
  51
 160.69988441871
   0
ARC
   5
13F
 100
AcDbEntity
   8
LEVEL001
 370
13
   6
CONTINUOUS
  62
1
 100
AcDbCircle
  10
 1794.9998159990
  20
 4858.4856345812
  30
0.0
  40
 7.5000000000000
 100
AcDbArc
  50
 19.300115581290
  51
 200.69988441872
   0
ARC
   5
140
 100
AcDbEntity
   8
LEVEL001
 370
13
   6
CONTINUOUS
  62
1
 100
AcDbCircle
  10
 1900.0000000000
  20
 4270.0000000000
  30
0.0
  40
 7.5000000000000
 100
AcDbArc
  50
 179.28378410398
  51
 0.71621589602122
   0
ARC
   5
141
 100
AcDbEntity
   8
LEVEL001
 370
13
   6
CONTINUOUS
  62
1
 100
AcDbCircle
  10
 2154.4144288468
  20
 4411.0242207299
  30
0.0
  40
 7.5000000000000
 100
AcDbArc
  50
 237.28378410408
  51
 58.716215895882
   0
LINE
   5
142
 100
AcDbEntity
   8
LEVEL001
 370
25
 100
AcDbLine
   6
CONTINUOUS
  62
7
  10
 1606.7969986511
  20
 4661.0000000000
  30
0.0
  11
 1614.1346470801
  21
 4661.0000000000
  31
0.0
   0
ARC
   5
143
 100
AcDbEntity
   8
LEVEL001
 370
13
   6
CONTINUOUS
  62
1
 100
AcDbCircle
  10
 1621.7635093798
  20
 4699.7438063544
  30
0.0
  40
 7.5000000000000
 100
AcDbArc
  50
 64.300115581606
  51
 245.69988441839
   0
ARC
   5
144
 100
AcDbEntity
   8
LEVEL001
 370
13
   6
CONTINUOUS
  62
1
 100
AcDbCircle
  10
 1645.5855711532
  20
 4411.0242207300
  30
0.0
  40
 7.5000000000000
 100
AcDbArc
  50
 121.28378410419
  51
 302.71621589584
   0
LWPOLYLINE
   5
145
 100
AcDbEntity
   8
LEVEL001
 370
25
   6
CONTINUOUS
  62
7
 100
AcDbPolyline
  90
6
  70
0
  10
 1458.6500000000
  20
 4568.7249635221
  10
 1458.6500000000
  20
 4549.9999584717
  10
 1574.9999922261
  20
 4549.9999584717
  10
 1574.9999922261
  20
 4659.9999584717
  10
 1458.6500000000
  20
 4659.9999584717
  10
 1458.6500000000
  20
 4639.4756677239
   0
LWPOLYLINE
   5
146
 100
AcDbEntity
   8
LEVEL001
 370
25
   6
CONTINUOUS
  62
7
 100
AcDbPolyline
  90
4
  70
0
  10
 1605.0847656836
  20
 4514.9999584717
  10
 1539.3513976880
  20
 4514.9999584717
  10
 1539.3513976880
  20
 4454.9999584717
  10
 1622.9169971859
  20
 4454.9999584717
   0
LINE
   5
147
 100
AcDbEntity
   8
LEVEL001
 370
9
 100
AcDbLine
   6
DASHDOT
  62
6
  10
 2230.0000000000
  20
 4570.0000000000
  30
0.0
  11
 1570.0000000000
  21
 4570.0000000000
  31
0.0
   0
LINE
   5
148
 100
AcDbEntity
   8
LEVEL001
 370
9
 100
AcDbLine
   6
DASHDOT
  62
6
  10
 1900.0000000000
  20
 4900.0000000000
  30
0.0
  11
 1900.0000000000
  21
 4240.0000000000
  31
0.0
   0
LINE
   5
149
 100
AcDbEntity
   8
LEVEL001
 370
9
 100
AcDbLine
   6
DASHDOT
  62
6
  10
 1430.0000000000
  20
 4570.0000000000
  30
0.0
  11
 770.00000000000
  21
 4570.0000000000
  31
0.0
   0
LINE
   5
14A
 100
AcDbEntity
   8
LEVEL001
 370
9
 100
AcDbLine
   6
DASHDOT
  62
6
  10
 1100.0000000000
  20
 4900.0000000000
  30
0.0
  11
 1100.0000000000
  21
 4240.0000000000
  31
0.0
   0
LINE
   5
14B
 100
AcDbEntity
   8
LEVEL001
 370
25
 100
AcDbLine
   6
CONTINUOUS
  62
7
  10
 1461.8500000000
  20
 4439.9999584717
  30
0.0
  11
 1461.8500000000
  21
 4070.0000000010
  31
0.0
   0
LINE
   5
14C
 100
AcDbEntity
   8
LEVEL001
 370
25
 100
AcDbLine
   6
CONTINUOUS
  62
7
  10
 1538.1500000000
  20
 4070.0000000010
  30
0.0
  11
 1538.1500000000
  21
 4439.9999584717
  31
0.0
   0
LINE
   5
14D
 100
AcDbEntity
   8
LEVEL002
 370
25
 100
AcDbLine
   6
CONTINUOUS
  62
7
  10
 2948.1489020595
  20
 4070.0000000018
  30
0.0
  11
 2945.4349952960
  21
 4063.2152330929
  31
0.0
   0
ARC
   5
14E
 100
AcDbEntity
   8
LEVEL002
 370
25
   6
CONTINUOUS
  62
7
 100
AcDbCircle
  10
 2950.0773787504
  20
 4061.3582797111
  30
0.0
  40
 5.0000000000000
 100
AcDbArc
  50
 158.19859051363
  51
 179.99999999999
   0
ARC
   5
14F
 100
AcDbEntity
   8
LEVEL002
 370
25
   6
CONTINUOUS
  62
7
 100
AcDbCircle
  10
 2944.0773787504
  20
 4054.1523535427
  30
0.0
  40
 5.0000000000000
 100
AcDbArc
  50
 359.99999999999
  51
 21.801409486328
   0
LINE
   5
150
 100
AcDbEntity
   8
LEVEL002
 370
25
 100
AcDbLine
   6
CONTINUOUS
  62
7
  10
 2946.9174913501
  20
 4060.5149840612
  30
0.0
  11
 2948.7197622048
  21
 4056.0093069245
  31
0.0
   0
ARC
   5
151
 100
AcDbEntity
   8
LEVEL002
 370
25
   6
CONTINUOUS
  62
7
 100
AcDbCircle
  10
 2951.5598748046
  20
 4062.3719374430
  30
0.0
  40
 5.0000000000000
 100
AcDbArc
  50
 158.19859051366
  51
 201.80140948635
   0
LWPOLYLINE
   5
152
 100
AcDbEntity
   8
LEVEL002
 370
25
   6
CONTINUOUS
  62
7
 100
AcDbPolyline
  90
3
  70
0
  10
 2948.1489020595
  20
 4070.0000000018
  10
 2949.0773787504
  20
 4069.6286093254
  10
 2946.9174913501
  20
 4064.2288908247
   0
LINE
   5
153
 100
AcDbEntity
   8
LEVEL002
 370
25
 100
AcDbLine
   6
CONTINUOUS
  62
7
  10
 2945.0773787504
  20
 4061.3582797111
  30
0.0
  11
 2945.0773787504
  21
 3678.6417202908
  31
0.0
   0
LINE
   5
154
 100
AcDbEntity
   8
LEVEL002
 370
25
 100
AcDbLine
   6
CONTINUOUS
  62
7
  10
 2949.0773787504
  20
 4054.1523535427
  30
0.0
  11
 2949.0773787504
  21
 3685.8476464592
  31
0.0
   0
LINE
   5
155
 100
AcDbEntity
   8
LEVEL002
 370
25
 100
AcDbLine
   6
CONTINUOUS
  62
7
  10
 2948.1489020595
  20
 4070.0000000018
  30
0.0
  11
 2945.4349952960
  21
 4063.2152330929
  31
0.0
   0
ARC
   5
156
 100
AcDbEntity
   8
LEVEL002
 370
25
   6
CONTINUOUS
  62
7
 100
AcDbCircle
  10
 2950.0773787504
  20
 4061.3582797111
  30
0.0
  40
 5.0000000000000
 100
AcDbArc
  50
 158.19859051363
  51
 179.99999999999
   0
ARC
   5
157
 100
AcDbEntity
   8
LEVEL002
 370
25
   6
CONTINUOUS
  62
7
 100
AcDbCircle
  10
 2944.0773787504
  20
 4054.1523535427
  30
0.0
  40
 5.0000000000000
 100
AcDbArc
  50
 359.99999999999
  51
 21.801409486328
   0
LINE
   5
158
 100
AcDbEntity
   8
LEVEL002
 370
25
 100
AcDbLine
   6
CONTINUOUS
  62
7
  10
 2946.9174913501
  20
 4060.5149840612
  30
0.0
  11
 2948.7197622048
  21
 4056.0093069245
  31
0.0
   0
ARC
   5
159
 100
AcDbEntity
   8
LEVEL002
 370
25
   6
CONTINUOUS
  62
7
 100
AcDbCircle
  10
 2951.5598748046
  20
 4062.3719374430
  30
0.0
  40
 5.0000000000000
 100
AcDbArc
  50
 158.19859051366
  51
 201.80140948635
   0
LWPOLYLINE
   5
15A
 100
AcDbEntity
   8
LEVEL002
 370
25
   6
CONTINUOUS
  62
7
 100
AcDbPolyline
  90
3
  70
0
  10
 2948.1489020595
  20
 4070.0000000018
  10
 2949.0773787504
  20
 4069.6286093254
  10
 2946.9174913501
  20
 4064.2288908247
   0
LINE
   5
15B
 100
AcDbEntity
   8
LEVEL002
 370
25
 100
AcDbLine
   6
CONTINUOUS
  62
7
  10
 2945.0773787504
  20
 4061.3582797111
  30
0.0
  11
 2945.0773787504
  21
 3678.6417202908
  31
0.0
   0
LINE
   5
15C
 100
AcDbEntity
   8
LEVEL002
 370
25
 100
AcDbLine
   6
CONTINUOUS
  62
7
  10
 2949.0773787504
  20
 4054.1523535427
  30
0.0
  11
 2949.0773787504
  21
 3685.8476464592
  31
0.0
   0
LWPOLYLINE
   5
15D
 100
AcDbEntity
   8
LEVEL001
 370
25
   6
CONTINUOUS
  62
7
 100
AcDbPolyline
  90
4
  70
1
  10
 3047.9999922261
  20
 4628.0000000000
  10
 3061.9999922261
  20
 4628.0000000000
  10
 3061.9999922261
  20
 4642.0000000000
  10
 3047.9999922261
  20
 4642.0000000000
   0
LWPOLYLINE
   5
15E
 100
AcDbEntity
   8
LEVEL001
 370
25
   6
CONTINUOUS
  62
7
 100
AcDbPolyline
  90
4
  70
1
  10
 3047.9999922261
  20
 4568.0000000000
  10
 3061.9999922261
  20
 4568.0000000000
  10
 3061.9999922261
  20
 4582.0000000000
  10
 3047.9999922261
  20
 4582.0000000000
   0
LINE
   5
15F
 100
AcDbEntity
   8
LEVEL001
 370
9
 100
AcDbLine
   6
CONTINUOUS
  62
6
  10
 3035.3549013216
  20
 4597.5622626792
  30
0.0
  11
 3035.3549013216
  21
 4555.0000000000
  31
0.0
   0
LWPOLYLINE
   5
160
 100
AcDbEntity
   8
LEVEL001
 370
25
   6
CONTINUOUS
  62
7
 100
AcDbPolyline
  90
4
  70
1
  10
 2952.0000077739
  20
 4518.0000000000
  10
 2938.0000077739
  20
 4518.0000000000
  10
 2938.0000077739
  20
 4532.0000000000
  10
 2952.0000077739
  20
 4532.0000000000
   0
LWPOLYLINE
   5
161
 100
AcDbEntity
   8
LEVEL001
 370
25
   6
CONTINUOUS
  62
7
 100
AcDbPolyline
  90
4
  70
1
  10
 2952.0000077739
  20
 4458.0000000000
  10
 2938.0000077739
  20
 4458.0000000000
  10
 2938.0000077739
  20
 4472.0000000000
  10
 2952.0000077739
  20
 4472.0000000000
   0
LINE
   5
162
 100
AcDbEntity
   8
LEVEL001
 370
9
 100
AcDbLine
   6
CONTINUOUS
  62
6
  10
 2964.6450986784
  20
 4487.5622626792
  30
0.0
  11
 2964.6450986784
  21
 4445.0000000000
  31
0.0
   0
LWPOLYLINE
   5
163
 100
AcDbEntity
   8
LEVEL001
 370
25
   6
CONTINUOUS
  62
7
 100
AcDbPolyline
  90
4
  70
1
  10
 2960.6486023120
  20
 4640.7245745836
  10
 2960.6486023120
  20
 4569.9738703818
  10
 2760.6486023120
  20
 4445.0000000000
  10
 2760.6486023120
  20
 4515.7507042017
   0
LWPOLYLINE
   5
164
 100
AcDbEntity
   8
LEVEL001
 370
25
   6
CONTINUOUS
  62
7
 100
AcDbPolyline
  90
6
  70
0
  10
 2958.6500000000
  20
 4568.7250050504
  10
 2958.6500000000
  20
 4550.0000000000
  10
 3074.9999922261
  20
 4550.0000000000
  10
 3074.9999922261
  20
 4660.0000000000
  10
 2958.6500000000
  20
 4660.0000000000
  10
 2958.6500000000
  20
 4639.4757092522
   0
LWPOLYLINE
   5
165
 100
AcDbEntity
   8
LEVEL001
 370
25
   6
CONTINUOUS
  62
7
 100
AcDbPolyline
  90
4
  70
1
  10
 3239.3513976880
  20
 4515.0000000000
  10
 3039.3513976880
  20
 4515.0000000000
  10
 3039.3513976880
  20
 4455.0000000000
  10
 3239.3513976880
  20
 4455.0000000000
   0
LWPOLYLINE
   5
166
 100
AcDbEntity
   8
LEVEL001
 370
25
   6
CONTINUOUS
  62
7
 100
AcDbPolyline
  90
6
  70
0
  10
 3041.3500000000
  20
 4455.0000000000
  10
 3041.3500000000
  20
 4440.0000000000
  10
 2925.0000077739
  20
 4440.0000000000
  10
 2925.0000077739
  20
 4550.0000000000
  10
 3041.3500000000
  20
 4550.0000000000
  10
 3041.3500000000
  20
 4515.0000000000
   0
LINE
   5
167
 100
AcDbEntity
   8
LEVEL001
 370
9
 100
AcDbLine
   6
DASHDOT
  62
6
  10
 3183.1214450258
  20
 4570.0000000000
  30
0.0
  11
 3548.0689439152
  21
 4570.0000000000
  31
0.0
   0
LWPOLYLINE
   5
168
 100
AcDbEntity
   8
LEVEL001
 370
25
   6
CONTINUOUS
  62
7
 100
AcDbPolyline
  90
4
  70
1
  10
 3393.9010551724
  20
 4593.0000000000
  10
 3379.9010551724
  20
 4593.0000000000
  10
 3379.9010551724
  20
 4607.0000000000
  10
 3393.9010551724
  20
 4607.0000000000
   0
LWPOLYLINE
   5
169
 100
AcDbEntity
   8
LEVEL001
 370
25
   6
CONTINUOUS
  62
7
 100
AcDbPolyline
  90
4
  70
1
  10
 3393.9010551724
  20
 4533.0000000000
  10
 3379.9010551724
  20
 4533.0000000000
  10
 3379.9010551724
  20
 4547.0000000000
  10
 3393.9010551724
  20
 4547.0000000000
   0
LINE
   5
16A
 100
AcDbEntity
   8
LEVEL001
 370
9
 100
AcDbLine
   6
DASHDOT
  62
6
  10
 3275.3254508375
  20
 4660.0000000000
  30
0.0
  11
 3275.3254508375
  21
 4420.0000000000
  31
0.0
   0
ARC
   5
16B
 100
AcDbEntity
   8
LEVEL001
 370
25
   6
CONTINUOUS
  62
7
 100
AcDbCircle
  10
 3343.9596660444
  20
 4565.5854138189
  30
0.0
  40
 8.0000000000000
 100
AcDbArc
  50
 35.000000000005
  51
 215.00000000000
   0
LWPOLYLINE
   5
16C
 100
AcDbEntity
   8
LEVEL001
 370
25
   6
CONTINUOUS
  62
7
 100
AcDbPolyline
  90
4
  70
0
  10
 3361.9010551724
  20
 4515.0000000000
  10
 3200.3254337349
  20
 4515.0000000000
  10
 3200.3254337349
  20
 4625.0000000000
  10
 3361.9010551724
  20
 4625.0000000000
   0
ARC
   5
16D
 100
AcDbEntity
   8
LEVEL001
 370
25
   6
CONTINUOUS
  62
7
 100
AcDbCircle
  10
 3393.1087887017
  20
 4600.0000000000
  30
0.0
  40
 52.000000000000
 100
AcDbArc
  50
 215.00000000000
  51
 233.11945020300
   0
ARC
   5
16E
 100
AcDbEntity
   8
LEVEL001
 370
25
   6
CONTINUOUS
  62
7
 100
AcDbCircle
  10
 3393.1087887017
  20
 4600.0000000000
  30
0.0
  40
 68.000000000000
 100
AcDbArc
  50
 215.00000000000
  51
 242.68144807228
   0
LWPOLYLINE
   5
16F
 100
AcDbEntity
   8
LEVEL001
 370
25
   6
CONTINUOUS
  62
7
 100
AcDbPolyline
  90
4
  70
1
  10
 3227.3254337349
  20
 4593.0000000000
  10
 3213.3254337349
  20
 4593.0000000000
  10
 3213.3254337349
  20
 4607.0000000000
  10
 3227.3254337349
  20
 4607.0000000000
   0
LINE
   5
170
 100
AcDbEntity
   8
LEVEL001
 370
9
 100
AcDbLine
   6
CONTINUOUS
  62
6
  10
 3239.8974241810
  20
 4620.0000000000
  30
0.0
  11
 3239.8974241810
  21
 4520.0000000000
  31
0.0
   0
LINE
   5
171
 100
AcDbEntity
   8
LEVEL001
 370
9
 100
AcDbLine
   6
CONTINUOUS
  62
6
  10
 3313.1087887017
  20
 4520.0000000000
  30
0.0
  11
 3313.1087887017
  21
 4620.0000000000
  31
0.0
   0
LWPOLYLINE
   5
172
 100
AcDbEntity
   8
LEVEL001
 370
25
   6
CONTINUOUS
  62
7
 100
AcDbPolyline
  90
4
  70
1
  10
 3227.3254337349
  20
 4533.0000000000
  10
 3213.3254337349
  20
 4533.0000000000
  10
 3213.3254337349
  20
 4547.0000000000
  10
 3227.3254337349
  20
 4547.0000000000
   0
LWPOLYLINE
   5
173
 100
AcDbEntity
   8
LEVEL001
 370
25
   6
CONTINUOUS
  62
7
 100
AcDbPolyline
  90
4
  70
0
  10
 3237.1754508375
  20
 4455.0000000000
  10
 3237.1754508375
  20
 4440.0000000000
  10
 3313.4754508375
  20
 4440.0000000000
  10
 3313.4754508375
  20
 4515.0000000000
   0
LWPOLYLINE
   5
174
 100
AcDbEntity
   8
LEVEL001
 370
25
   6
CONTINUOUS
  62
7
 100
AcDbPolyline
  90
4
  70
0
  10
 3313.4754508375
  20
 4625.0000000000
  10
 3313.4754508375
  20
 4640.0000000000
  10
 3237.1754508375
  20
 4640.0000000000
  10
 3237.1754508375
  20
 4625.0000000000
   0
LINE
   5
175
 100
AcDbEntity
   8
LEVEL001
 370
9
 100
AcDbLine
   6
DASHDOT
  62
6
  10
 2724.6745491625
  20
 4660.0000000000
  30
0.0
  11
 2724.6745491625
  21
 4420.0000000000
  31
0.0
   0
LINE
   5
176
 100
AcDbEntity
   8
LEVEL001
 370
9
 100
AcDbLine
   6
DASHDOT
  62
6
  10
 2816.8785549742
  20
 4570.0000000000
  30
0.0
  11
 2451.9310560848
  21
 4570.0000000000
  31
0.0
   0
LWPOLYLINE
   5
177
 100
AcDbEntity
   8
LEVEL001
 370
25
   6
CONTINUOUS
  62
7
 100
AcDbPolyline
  90
4
  70
1
  10
 2606.0989448276
  20
 4593.0000000000
  10
 2620.0989448276
  20
 4593.0000000000
  10
 2620.0989448276
  20
 4607.0000000000
  10
 2606.0989448276
  20
 4607.0000000000
   0
LWPOLYLINE
   5
178
 100
AcDbEntity
   8
LEVEL001
 370
25
   6
CONTINUOUS
  62
7
 100
AcDbPolyline
  90
4
  70
1
  10
 2606.0989448276
  20
 4533.0000000000
  10
 2620.0989448276
  20
 4533.0000000000
  10
 2620.0989448276
  20
 4547.0000000000
  10
 2606.0989448276
  20
 4547.0000000000
   0
ARC
   5
179
 100
AcDbEntity
   8
LEVEL001
 370
25
   6
CONTINUOUS
  62
7
 100
AcDbCircle
  10
 2656.0403339556
  20
 4565.5854138189
  30
0.0
  40
 8.0000000000000
 100
AcDbArc
  50
 325.00000000000
  51
 145.00000000000
   0
LWPOLYLINE
   5
17A
 100
AcDbEntity
   8
LEVEL001
 370
25
   6
CONTINUOUS
  62
7
 100
AcDbPolyline
  90
4
  70
0
  10
 2638.0989448276
  20
 4515.0000000000
  10
 2799.6745662651
  20
 4515.0000000000
  10
 2799.6745662651
  20
 4625.0000000000
  10
 2638.0989448276
  20
 4625.0000000000
   0
ARC
   5
17B
 100
AcDbEntity
   8
LEVEL001
 370
25
   6
CONTINUOUS
  62
7
 100
AcDbCircle
  10
 2606.8912112983
  20
 4600.0000000000
  30
0.0
  40
 52.000000000000
 100
AcDbArc
  50
 306.88054979700
  51
 325.00000000000
   0
ARC
   5
17C
 100
AcDbEntity
   8
LEVEL001
 370
25
   6
CONTINUOUS
  62
7
 100
AcDbCircle
  10
 2606.8912112983
  20
 4600.0000000000
  30
0.0
  40
 68.000000000000
 100
AcDbArc
  50
 297.31855192772
  51
 325.00000000000
   0
LWPOLYLINE
   5
17D
 100
AcDbEntity
   8
LEVEL001
 370
25
   6
CONTINUOUS
  62
7
 100
AcDbPolyline
  90
4
  70
1
  10
 2772.6745662651
  20
 4593.0000000000
  10
 2786.6745662651
  20
 4593.0000000000
  10
 2786.6745662651
  20
 4607.0000000000
  10
 2772.6745662651
  20
 4607.0000000000
   0
LINE
   5
17E
 100
AcDbEntity
   8
LEVEL001
 370
9
 100
AcDbLine
   6
CONTINUOUS
  62
6
  10
 2760.1025758190
  20
 4620.0000000000
  30
0.0
  11
 2760.1025758190
  21
 4520.0000000000
  31
0.0
   0
LINE
   5
17F
 100
AcDbEntity
   8
LEVEL001
 370
9
 100
AcDbLine
   6
CONTINUOUS
  62
6
  10
 2686.8912112983
  20
 4520.0000000000
  30
0.0
  11
 2686.8912112983
  21
 4620.0000000000
  31
0.0
   0
LWPOLYLINE
   5
180
 100
AcDbEntity
   8
LEVEL001
 370
25
   6
CONTINUOUS
  62
7
 100
AcDbPolyline
  90
4
  70
1
  10
 2772.6745662651
  20
 4533.0000000000
  10
 2786.6745662651
  20
 4533.0000000000
  10
 2786.6745662651
  20
 4547.0000000000
  10
 2772.6745662651
  20
 4547.0000000000
   0
LINE
   5
181
 100
AcDbEntity
   8
LEVEL001
 370
25
 100
AcDbLine
   6
CONTINUOUS
  62
7
  10
 2762.8245491625
  20
 4517.1103867000
  30
0.0
  11
 2762.8245491625
  21
 4516.9995695331
  31
0.0
   0
LWPOLYLINE
   5
182
 100
AcDbEntity
   8
LEVEL001
 370
25
   6
CONTINUOUS
  62
7
 100
AcDbPolyline
  90
4
  70
0
  10
 2762.8245491625
  20
 4446.2488653314
  10
 2762.8245491625
  20
 4440.0000000000
  10
 2686.5245491625
  20
 4440.0000000000
  10
 2686.5245491625
  20
 4515.0000000000
   0
LWPOLYLINE
   5
183
 100
AcDbEntity
   8
LEVEL001
 370
25
   6
CONTINUOUS
  62
7
 100
AcDbPolyline
  90
4
  70
0
  10
 2686.5245491625
  20
 4625.0000000000
  10
 2686.5245491625
  20
 4640.0000000000
  10
 2762.8245491625
  20
 4640.0000000000
  10
 2762.8245491625
  20
 4625.0000000000
   0
CIRCLE
   5
184
 100
AcDbEntity
   8
LEVEL001
 370
13
 100
AcDbCircle
   6
CONTINUOUS
  62
1
  10
 2539.4903632762
  20
 4699.7438063544
  30
0.0
  40
 7.5000000000000
   0
CIRCLE
   5
185
 100
AcDbEntity
   8
LEVEL001
 370
13
 100
AcDbCircle
   6
CONTINUOUS
  62
1
  10
 2539.4903632762
  20
 4858.4856345812
  30
0.0
  40
 7.5000000000000
   0
ARC
   5
186
 100
AcDbEntity
   8
LEVEL001
 370
13
   6
CONTINUOUS
  62
1
 100
AcDbCircle
  10
 2539.4903632762
  20
 4270.5000000000
  30
0.0
  40
 7.5000000000000
 100
AcDbArc
  50
 180.00000000000
  51
0.0
   0
CIRCLE
   5
187
 100
AcDbEntity
   8
LEVEL001
 370
13
 100
AcDbCircle
   6
CONTINUOUS
  62
1
  10
 2539.4903632762
  20
 4411.0242207299
  30
0.0
  40
 7.5000000000000
   0
LWPOLYLINE
   5
188
 100
AcDbEntity
   8
LEVEL001
 370
25
   6
CONTINUOUS
  62
7
 100
AcDbPolyline
  90
4
  70
0
  10
 2551.4903632762
  20
 4515.0000000000
  10
 2638.0989448276
  20
 4515.0000000000
  10
 2638.0989448276
  20
 4625.0000000000
  10
 2551.4903632762
  20
 4625.0000000000
   0
CIRCLE
   5
189
 100
AcDbEntity
   8
LEVEL001
 370
13
 100
AcDbCircle
   6
CONTINUOUS
  62
1
  10
 3460.5096367238
  20
 4699.7438063544
  30
0.0
  40
 7.5000000000000
   0
CIRCLE
   5
18A
 100
AcDbEntity
   8
LEVEL001
 370
13
 100
AcDbCircle
   6
CONTINUOUS
  62
1
  10
 3460.5096367238
  20
 4858.4856345812
  30
0.0
  40
 7.5000000000000
   0
ARC
   5
18B
 100
AcDbEntity
   8
LEVEL001
 370
13
   6
CONTINUOUS
  62
1
 100
AcDbCircle
  10
 3460.5096367238
  20
 4270.5000000000
  30
0.0
  40
 7.5000000000000
 100
AcDbArc
  50
 180.00000000000
  51
0.0
   0
CIRCLE
   5
18C
 100
AcDbEntity
   8
LEVEL001
 370
13
 100
AcDbCircle
   6
CONTINUOUS
  62
1
  10
 3460.5096367238
  20
 4411.0242207299
  30
0.0
  40
 7.5000000000000
   0
LWPOLYLINE
   5
18D
 100
AcDbEntity
   8
LEVEL001
 370
25
   6
CONTINUOUS
  62
7
 100
AcDbPolyline
  90
4
  70
0
  10
 3448.5096367238
  20
 4515.0000000000
  10
 3361.9010551724
  20
 4515.0000000000
  10
 3361.9010551724
  20
 4625.0000000000
  10
 3448.5096367238
  20
 4625.0000000000
   0
CIRCLE
   5
18E
 100
AcDbEntity
   8
LEVEL001
 370
13
 100
AcDbCircle
   6
CONTINUOUS
  62
1
  10
 3828.8950738320
  20
 4247.7097787459
  30
0.0
  40
 69.999997913838
   0
LEADER
   5
18F
 100
AcDbEntity
   8
LEVEL001
 370
13
   6
CONTINUOUS
  62
1
 100
AcDbLeader
   3
GMM002
  73
3
  74
1
  75
0
  40
 66.000000000000
  41
0.0
  76
2
  10
 4046.0826043398
  20
 4373.1030579494
  30
0.0
  10
 3889.5168502902
  20
 4282.7097777029
  30
0.0
  77
1
   0
MTEXT
   5
191
 100
AcDbEntity
   8
LEVEL001
 370
25
  62
7
 100
AcDbMText
  10
 3828.8950738320
  20
 4247.7097787459
  30
0.0
  40
 66.000000000000
  41
0.0
  71
5
  72
1
   1
\T1.000000;２
   7
GMM003
  44
 0.79999984000003
   0
CIRCLE
   5
192
 100
AcDbEntity
   8
LEVEL001
 370
25
 100
AcDbCircle
   6
CONTINUOUS
  62
7
  10
 4250.0000000000
  20
 4570.0000000000
  30
0.0
  40
 300.00000000000
   0
LINE
   5
193
 100
AcDbEntity
   8
LEVEL001
 370
25
 100
AcDbLine
   6
CONTINUOUS
  62
7
  10
 3956.7969986511
  20
 4661.0000000000
  30
0.0
  11
 3964.1346470801
  21
 4661.0000000000
  31
0.0
   0
LINE
   5
194
 100
AcDbEntity
   8
LEVEL001
 370
25
 100
AcDbLine
   6
CONTINUOUS
  62
7
  10
 4543.2030013489
  20
 4661.0000000000
  30
0.0
  11
 4535.8653529199
  21
 4661.0000000000
  31
0.0
   0
ARC
   5
195
 100
AcDbEntity
   8
LEVEL001
 370
13
   6
CONTINUOUS
  62
1
 100
AcDbCircle
  10
 3971.7635093798
  20
 4699.7438063544
  30
0.0
  40
 7.5000000000000
 100
AcDbArc
  50
 64.300115581256
  51
 245.69988441875
   0
ARC
   5
196
 100
AcDbEntity
   8
LEVEL001
 370
13
   6
CONTINUOUS
  62
1
 100
AcDbCircle
  10
 4528.2364906202
  20
 4699.7438063544
  30
0.0
  40
 7.5000000000000
 100
AcDbArc
  50
 294.30011558132
  51
 115.69988441868
   0
ARC
   5
197
 100
AcDbEntity
   8
LEVEL001
 370
13
   6
CONTINUOUS
  62
1
 100
AcDbCircle
  10
 4144.9998159990
  20
 4858.4856345813
  30
0.0
  40
 7.5000000000000
 100
AcDbArc
  50
 19.300115580790
  51
 200.69988441922
   0
ARC
   5
198
 100
AcDbEntity
   8
LEVEL001
 370
13
   6
CONTINUOUS
  62
1
 100
AcDbCircle
  10
 4355.0001840010
  20
 4858.4856345813
  30
0.0
  40
 7.5000000000000
 100
AcDbArc
  50
 339.30011558096
  51
 160.69988441904
   0
ARC
   5
199
 100
AcDbEntity
   8
LEVEL001
 370
13
   6
CONTINUOUS
  62
1
 100
AcDbCircle
  10
 4504.4144288469
  20
 4411.0242207299
  30
0.0
  40
 7.5000000000000
 100
AcDbArc
  50
 237.28378410385
  51
 58.716215896115
   0
ARC
   5
19A
 100
AcDbEntity
   8
LEVEL001
 370
13
   6
CONTINUOUS
  62
1
 100
AcDbCircle
  10
 3995.5855711532
  20
 4411.0242207299
  30
0.0
  40
 7.5000000000000
 100
AcDbArc
  50
 121.28378410396
  51
 302.71621589608
   0
ARC
   5
19B
 100
AcDbEntity
   8
LEVEL001
 370
25
   6
CONTINUOUS
  62
7
 100
AcDbCircle
  10
 4250.0000000000
  20
 4570.0000000000
  30
0.0
  40
 307.00000000000
 100
AcDbArc
  50
 17.242522646568
  51
 162.75747735343
   0
ARC
   5
19C
 100
AcDbEntity
   8
LEVEL001
 370
13
   6
CONTINUOUS
  62
2
 100
AcDbCircle
  10
 4311.5642787321
  20
 4686.7641912423
  30
0.0
  40
 14.999999551465
 100
AcDbArc
  50
 242.19997303132
  51
 310.03934226670
   0
LINE
   5
19D
 100
AcDbEntity
   8
LEVEL001
 370
13
 100
AcDbLine
   6
CONTINUOUS
  62
2
  10
 4321.2139804055
  20
 4675.2801482191
  30
0.0
  11
 4419.8278690582
  21
 4758.1436100967
  31
0.0
   0
LINE
   5
19E
 100
AcDbEntity
   8
LEVEL001
 370
13
 100
AcDbLine
   6
CONTINUOUS
  62
2
  10
 4144.7198450580
  20
 4641.2139871283
  30
0.0
  11
 4061.8560780046
  21
 4739.8278757811
  31
0.0
   0
LINE
   5
19F
 100
AcDbEntity
   8
LEVEL001
 370
13
 100
AcDbLine
   6
CONTINUOUS
  62
2
  10
 4178.7860061488
  20
 4675.2801482191
  30
0.0
  11
 4080.1721174960
  21
 4758.1436100967
  31
0.0
   0
ARC
   5
1A0
 100
AcDbEntity
   8
LEVEL001
 370
13
   6
CONTINUOUS
  62
2
 100
AcDbCircle
  10
 4071.8091231852
  20
 4748.1907042573
  30
0.0
  40
 13.000000326526
 100
AcDbArc
  50
 49.961123640766
  51
 220.03792170801
   0
ARC
   5
1A1
 100
AcDbEntity
   8
LEVEL001
 370
13
   6
CONTINUOUS
  62
2
 100
AcDbCircle
  10
 4188.4359431437
  20
 4686.7639935044
  30
0.0
  40
 14.999999551465
 100
AcDbArc
  50
 229.95948366515
  51
 297.80164640215
   0
ARC
   5
1A2
 100
AcDbEntity
   8
LEVEL001
 370
13
   6
CONTINUOUS
  62
2
 100
AcDbCircle
  10
 4133.2359009023
  20
 4631.5641677947
  30
0.0
  40
 14.999999551465
 100
AcDbArc
  50
 332.19916331550
  51
 40.039929295818
   0
ARC
   5
1A3
 100
AcDbEntity
   8
LEVEL001
 370
13
   6
CONTINUOUS
  62
2
 100
AcDbCircle
  10
 4250.0002984529
  20
 4570.0000067229
  30
0.0
  40
 116.99999459408
 100
AcDbArc
  50
 62.199479478546
  51
 117.80052052145
   0
CIRCLE
   5
1A4
 100
AcDbEntity
   8
LEVEL001
 370
13
 100
AcDbCircle
   6
CONTINUOUS
  62
2
  10
 4249.9999932771
  20
 4570.0000000000
  30
0.0
  40
 99.999997009768
   0
LINE
   5
1A5
 100
AcDbEntity
   8
LEVEL001
 370
13
 100
AcDbLine
   6
CONTINUOUS
  62
2
  10
 4144.7198450580
  20
 4498.7860128716
  30
0.0
  11
 4061.8560780046
  21
 4400.1721242189
  31
0.0
   0
LINE
   5
1A6
 100
AcDbEntity
   8
LEVEL001
 370
13
 100
AcDbLine
   6
CONTINUOUS
  62
2
  10
 4178.7860061488
  20
 4464.7198517809
  30
0.0
  11
 4080.1721174960
  21
 4381.8563899033
  31
0.0
   0
ARC
   5
1A7
 100
AcDbEntity
   8
LEVEL001
 370
13
   6
CONTINUOUS
  62
2
 100
AcDbCircle
  10
 4071.8091231852
  20
 4391.8092957427
  30
0.0
  40
 13.000000326526
 100
AcDbArc
  50
 139.96207829194
  51
 310.03887635928
   0
ARC
   5
1A8
 100
AcDbEntity
   8
LEVEL001
 370
13
   6
CONTINUOUS
  62
2
 100
AcDbCircle
  10
 4133.2359009023
  20
 4508.4358322053
  30
0.0
  40
 14.999999551465
 100
AcDbArc
  50
 319.96007070418
  51
 27.800836684497
   0
ARC
   5
1A9
 100
AcDbEntity
   8
LEVEL001
 370
13
   6
CONTINUOUS
  62
2
 100
AcDbCircle
  10
 4188.4359431437
  20
 4453.2360064956
  30
0.0
  40
 14.999999551465
 100
AcDbArc
  50
 62.198353597850
  51
 130.04051633485
   0
ARC
   5
1AA
 100
AcDbEntity
   8
LEVEL001
 370
13
   6
CONTINUOUS
  62
2
 100
AcDbCircle
  10
 4250.0002984529
  20
 4569.9999932771
  30
0.0
  40
 116.99999459408
 100
AcDbArc
  50
 242.19947947855
  51
 297.80052052145
   0
ARC
   5
1AB
 100
AcDbEntity
   8
LEVEL001
 370
13
   6
CONTINUOUS
  62
2
 100
AcDbCircle
  10
 4311.5642787321
  20
 4453.2358087577
  30
0.0
  40
 14.999999551465
 100
AcDbArc
  50
 49.960657733301
  51
 117.80002696868
   0
LINE
   5
1AC
 100
AcDbEntity
   8
LEVEL001
 370
13
 100
AcDbLine
   6
CONTINUOUS
  62
2
  10
 4321.2139804055
  20
 4464.7198517809
  30
0.0
  11
 4419.8278690582
  21
 4381.8563899033
  31
0.0
   0
ARC
   5
1AD
 100
AcDbEntity
   8
LEVEL001
 370
13
   6
CONTINUOUS
  62
2
 100
AcDbCircle
  10
 4249.9999865542
  20
 4570.0000000000
  30
0.0
  40
 116.99999459408
 100
AcDbArc
  50
 152.19947947855
  51
 207.80052052145
   0
ARC
   5
1AE
 100
AcDbEntity
   8
LEVEL001
 370
13
   6
CONTINUOUS
  62
2
 100
AcDbCircle
  10
 4366.7640856519
  20
 4631.5641677947
  30
0.0
  40
 14.999999551465
 100
AcDbArc
  50
 139.96007070418
  51
 207.80083668450
   0
LINE
   5
1AF
 100
AcDbEntity
   8
LEVEL001
 370
13
 100
AcDbLine
   6
CONTINUOUS
  62
2
  10
 4355.2801414962
  20
 4641.2139871283
  30
0.0
  11
 4438.1439085496
  21
 4739.8278757811
  31
0.0
   0
ARC
   5
1B0
 100
AcDbEntity
   8
LEVEL001
 370
13
   6
CONTINUOUS
  62
2
 100
AcDbCircle
  10
 4428.1908633690
  20
 4748.1907042573
  30
0.0
  40
 13.000000326526
 100
AcDbArc
  50
 319.96207829201
  51
 130.03887635921
   0
ARC
   5
1B1
 100
AcDbEntity
   8
LEVEL001
 370
13
   6
CONTINUOUS
  62
2
 100
AcDbCircle
  10
 4428.1908633690
  20
 4391.8092957427
  30
0.0
  40
 13.000000326526
 100
AcDbArc
  50
 229.96112364075
  51
 40.037921708043
   0
LINE
   5
1B2
 100
AcDbEntity
   8
LEVEL001
 370
13
 100
AcDbLine
   6
CONTINUOUS
  62
2
  10
 4355.2801414962
  20
 4498.7860128716
  30
0.0
  11
 4438.1439085496
  21
 4400.1721242189
  31
0.0
   0
ARC
   5
1B3
 100
AcDbEntity
   8
LEVEL001
 370
13
   6
CONTINUOUS
  62
2
 100
AcDbCircle
  10
 4366.7640856519
  20
 4508.4358322053
  30
0.0
  40
 14.999999551465
 100
AcDbArc
  50
 152.19916331550
  51
 220.03992929582
   0
ARC
   5
1B4
 100
AcDbEntity
   8
LEVEL001
 370
13
   6
CONTINUOUS
  62
2
 100
AcDbCircle
  10
 4250.0000000000
  20
 4570.0000000000
  30
0.0
  40
 116.99999459408
 100
AcDbArc
  50
 332.19947947855
  51
 27.800520521455
   0
LINE
   5
1B5
 100
AcDbEntity
   8
LEVEL001
 370
9
 100
AcDbLine
   6
CONTINUOUS
  62
6
  10
 4161.3262898740
  20
 4642.9675271150
  30
0.0
  11
 4095.1977518123
  21
 4721.6653397031
  31
0.0
   0
LINE
   5
1B6
 100
AcDbEntity
   8
LEVEL001
 370
9
 100
AcDbLine
   6
CONTINUOUS
  62
6
  10
 4177.0324661621
  20
 4658.6740085789
  30
0.0
  11
 4098.3343483982
  21
 4724.8025466406
  31
0.0
   0
LINE
   5
1B7
 100
AcDbEntity
   8
LEVEL001
 370
9
 100
AcDbLine
   6
CONTINUOUS
  62
6
  10
 4322.9675203921
  20
 4658.6740085789
  30
0.0
  11
 4401.6656381560
  21
 4724.8025466406
  31
0.0
   0
LINE
   5
1B8
 100
AcDbEntity
   8
LEVEL001
 370
9
 100
AcDbLine
   6
CONTINUOUS
  62
6
  10
 4161.3262898740
  20
 4497.0324728850
  30
0.0
  11
 4095.1977518123
  21
 4418.3346602969
  31
0.0
   0
LINE
   5
1B9
 100
AcDbEntity
   8
LEVEL001
 370
9
 100
AcDbLine
   6
CONTINUOUS
  62
6
  10
 4177.0324661621
  20
 4481.3259914211
  30
0.0
  11
 4098.3343483982
  21
 4415.1974533594
  31
0.0
   0
LINE
   5
1BA
 100
AcDbEntity
   8
LEVEL001
 370
9
 100
AcDbLine
   6
CONTINUOUS
  62
6
  10
 4322.9675203921
  20
 4481.3259914211
  30
0.0
  11
 4401.6656381560
  21
 4415.1974533594
  31
0.0
   0
LINE
   5
1BB
 100
AcDbEntity
   8
LEVEL001
 370
9
 100
AcDbLine
   6
CONTINUOUS
  62
6
  10
 4338.6743070318
  20
 4642.9675271150
  30
0.0
  11
 4404.8028450935
  21
 4721.6653397031
  31
0.0
   0
LINE
   5
1BC
 100
AcDbEntity
   8
LEVEL001
 370
9
 100
AcDbLine
   6
CONTINUOUS
  62
6
  10
 4338.6743070318
  20
 4497.0324728850
  30
0.0
  11
 4404.8028450935
  21
 4418.3346602969
  31
0.0
   0
CIRCLE
   5
1BD
 100
AcDbEntity
   8
LEVEL001
 370
25
 100
AcDbCircle
   6
CONTINUOUS
  62
7
  10
 4210.0000000000
  20
 4605.0000000000
  30
0.0
  40
 7.0000000000000
   0
LINE
   5
1BE
 100
AcDbEntity
   8
LEVEL001
 370
9
 100
AcDbLine
   6
DASHDOT
  62
6
  10
 4210.0000000000
  20
 4585.0000000000
  30
0.0
  11
 4210.0000000000
  21
 4625.0000000000
  31
0.0
   0
LINE
   5
1BF
 100
AcDbEntity
   8
LEVEL001
 370
9
 100
AcDbLine
   6
DASHDOT
  62
6
  10
 4230.0000000000
  20
 4605.0000000000
  30
0.0
  11
 4190.0000000000
  21
 4605.0000000000
  31
0.0
   0
CIRCLE
   5
1C0
 100
AcDbEntity
   8
LEVEL001
 370
25
 100
AcDbCircle
   6
CONTINUOUS
  62
7
  10
 4290.0000000000
  20
 4605.0000000000
  30
0.0
  40
 7.0000000000000
   0
LINE
   5
1C1
 100
AcDbEntity
   8
LEVEL001
 370
9
 100
AcDbLine
   6
DASHDOT
  62
6
  10
 4270.0000000000
  20
 4605.0000000000
  30
0.0
  11
 4310.0000000000
  21
 4605.0000000000
  31
0.0
   0
LINE
   5
1C2
 100
AcDbEntity
   8
LEVEL001
 370
9
 100
AcDbLine
   6
DASHDOT
  62
6
  10
 4290.0000000000
  20
 4585.0000000000
  30
0.0
  11
 4290.0000000000
  21
 4625.0000000000
  31
0.0
   0
CIRCLE
   5
1C3
 100
AcDbEntity
   8
LEVEL001
 370
25
 100
AcDbCircle
   6
CONTINUOUS
  62
7
  10
 4290.0000000000
  20
 4535.0000000000
  30
0.0
  40
 7.0000000000000
   0
LINE
   5
1C4
 100
AcDbEntity
   8
LEVEL001
 370
9
 100
AcDbLine
   6
DASHDOT
  62
6
  10
 4290.0000000000
  20
 4555.0000000000
  30
0.0
  11
 4290.0000000000
  21
 4515.0000000000
  31
0.0
   0
LINE
   5
1C5
 100
AcDbEntity
   8
LEVEL001
 370
9
 100
AcDbLine
   6
DASHDOT
  62
6
  10
 4270.0000000000
  20
 4535.0000000000
  30
0.0
  11
 4310.0000000000
  21
 4535.0000000000
  31
0.0
   0
CIRCLE
   5
1C6
 100
AcDbEntity
   8
LEVEL001
 370
25
 100
AcDbCircle
   6
CONTINUOUS
  62
7
  10
 4210.0000000000
  20
 4535.0000000000
  30
0.0
  40
 7.0000000000000
   0
LINE
   5
1C7
 100
AcDbEntity
   8
LEVEL001
 370
9
 100
AcDbLine
   6
DASHDOT
  62
6
  10
 4230.0000000000
  20
 4535.0000000000
  30
0.0
  11
 4190.0000000000
  21
 4535.0000000000
  31
0.0
   0
LINE
   5
1C8
 100
AcDbEntity
   8
LEVEL001
 370
9
 100
AcDbLine
   6
DASHDOT
  62
6
  10
 4210.0000000000
  20
 4555.0000000000
  30
0.0
  11
 4210.0000000000
  21
 4515.0000000000
  31
0.0
   0
ARC
   5
1C9
 100
AcDbEntity
   8
LEVEL001
 370
13
   6
CONTINUOUS
  62
1
 100
AcDbCircle
  10
 4250.0000000000
  20
 4270.0000000000
  30
0.0
  40
 7.5000000000000
 100
AcDbArc
  50
 179.28378410363
  51
 0.71621589636870
   0
LINE
   5
1CA
 100
AcDbEntity
   8
LEVEL001
 370
9
 100
AcDbLine
   6
DASHDOT
  62
6
  10
 4250.0000000000
  20
 4240.0000000000
  30
0.0
  11
 4250.0000000000
  21
 4900.0000000000
  31
0.0
   0
LINE
   5
1CB
 100
AcDbEntity
   8
LEVEL001
 370
9
 100
AcDbLine
   6
DASHDOT
  62
6
  10
 3920.0000000000
  20
 4570.0000000000
  30
0.0
  11
 4580.0000000000
  21
 4570.0000000000
  31
0.0
   0
CIRCLE
   5
1CC
 100
AcDbEntity
   8
LEVEL001
 370
13
 100
AcDbCircle
   6
CONTINUOUS
  62
1
  10
 2250.0000000000
  20
 4895.0000000010
  30
0.0
  40
 69.999997913838
   0
MTEXT
   5
1CE
 100
AcDbEntity
   8
LEVEL001
 370
25
  62
7
 100
AcDbMText
  10
 2250.0000000000
  20
 4895.0000000010
  30
0.0
  40
 66.000000000000
  41
0.0
  71
5
  72
1
   1
\T1.000000;３
   7
GMM003
  44
 0.79999984000003
   0
CIRCLE
   5
1CF
 100
AcDbEntity
   8
LEVEL001
 370
13
 100
AcDbCircle
   6
CONTINUOUS
  62
1
  10
 2250.0000000000
  20
 4270.0000000010
  30
0.0
  40
 69.999997913838
   0
MTEXT
   5
1D1
 100
AcDbEntity
   8
LEVEL001
 370
25
  62
7
 100
AcDbMText
  10
 2250.0000000000
  20
 4270.0000000010
  30
0.0
  40
 66.000000000000
  41
0.0
  71
5
  72
1
   1
\T1.000000;１
   7
GMM003
  44
 0.79999984000003
   0
LEADER
   5
1D2
 100
AcDbEntity
   8
LEVEL001
 370
13
   6
CONTINUOUS
  62
1
 100
AcDbLeader
   3
GMM002
  73
3
  74
1
  75
0
  40
 66.000000000000
  41
0.0
  76
2
  10
 2057.9589160838
  20
 4832.5000000010
  30
0.0
  10
 2183.4364509726
  20
 4873.3368135131
  30
0.0
  77
1
   0
LEADER
   5
1D3
 100
AcDbEntity
   8
LEVEL001
 370
13
   6
CONTINUOUS
  62
1
 100
AcDbLeader
   3
GMM002
  73
3
  74
1
  75
0
  40
 66.000000000000
  41
0.0
  76
2
  10
 2500.7993759545
  20
 4395.3996879782
  30
0.0
  10
 2312.6099015041
  20
 4301.3049507530
  30
0.0
  77
1
   0
LEADER
   5
1D4
 100
AcDbEntity
   8
LEVEL001
 370
13
   6
CONTINUOUS
  62
1
 100
AcDbLeader
   3
GMM002
  73
3
  74
1
  75
0
  40
 66.000000000000
  41
0.0
  76
2
  10
 2000.0000000000
  20
 4395.0000000010
  30
0.0
  10
 2187.3900984959
  20
 4301.3049507530
  30
0.0
  77
1
   0
CIRCLE
   5
1D5
 100
AcDbEntity
   8
LEVEL001
 370
13
 100
AcDbCircle
   6
CONTINUOUS
  62
1
  10
 2125.0000000000
  20
 4020.0000000010
  30
0.0
  40
 69.999997913838
   0
MTEXT
   5
1D7
 100
AcDbEntity
   8
LEVEL001
 370
25
  62
7
 100
AcDbMText
  10
 2125.0000000000
  20
 4020.0000000010
  30
0.0
  40
 66.000000000000
  41
0.0
  71
5
  72
1
   1
\T1.000000;４
   7
GMM003
  44
 0.79999984000003
   0
LEADER
   5
1D8
 100
AcDbEntity
   8
LEVEL001
 370
13
   6
CONTINUOUS
  62
1
 100
AcDbLeader
   3
GMM002
  73
3
  74
1
  75
0
  40
 66.000000000000
  41
0.0
  76
2
  10
 1992.6649916146
  20
 4284.6700167717
  30
0.0
  10
 2093.6950492480
  20
 4082.6099015050
  30
0.0
  77
1
   0
CIRCLE
   5
1D9
 100
AcDbEntity
   8
LEVEL001
 370
13
 100
AcDbCircle
   6
CONTINUOUS
  62
1
  10
 1000.0000000000
  20
 4032.2727272737
  30
0.0
  40
 69.999997913838
   0
MTEXT
   5
1DB
 100
AcDbEntity
   8
LEVEL001
 370
25
  62
7
 100
AcDbMText
  10
 1000.0000000000
  20
 4032.2727272737
  30
0.0
  40
 66.000000000000
  41
0.0
  71
5
  72
1
   1
\T1.000000;５
   7
GMM003
  44
 0.79999984000003
   0
LEADER
   5
1DC
 100
AcDbEntity
   8
LEVEL001
 370
13
   6
CONTINUOUS
  62
1
 100
AcDbLeader
   3
GMM002
  73
3
  74
1
  75
0
  40
 66.000000000000
  41
0.0
  76
2
  10
 1096.2500000001
  20
 4263.5048094700
  30
0.0
  10
 1026.9000462816
  20
 4096.8977009138
  30
0.0
  77
1
   0
CIRCLE
   5
1DD
 100
AcDbEntity
   8
LEVEL001
 370
13
 100
AcDbCircle
   6
CONTINUOUS
  62
1
  10
 3250.0000000000
  20
 5020.0000000010
  30
0.0
  40
 70.000000000000
   0
MTEXT
   5
1DF
 100
AcDbEntity
   8
LEVEL001
 370
25
  62
7
 100
AcDbMText
  10
 3250.0000000000
  20
 5020.0000000010
  30
0.0
  40
 66.000000000000
  41
0.0
  71
5
  72
1
   1
\T1.000000;１４
   7
GMM003
  44
 0.79999984000003
   0
CIRCLE
   5
1E0
 100
AcDbEntity
   8
LEVEL001
 370
13
 100
AcDbCircle
   6
CONTINUOUS
  62
1
  10
 3250.0000000000
  20
 4145.0000000010
  30
0.0
  40
 69.999997913838
   0
CIRCLE
   5
1E1
 100
AcDbEntity
   8
LEVEL001
 370
13
 100
AcDbCircle
   6
CONTINUOUS
  62
1
  10
 3389.9999979138
  20
 4145.0000000010
  30
0.0
  40
 70.000000000000
   0
MTEXT
   5
1E3
 100
AcDbEntity
   8
LEVEL001
 370
25
  62
7
 100
AcDbMText
  10
 3250.0000000000
  20
 4145.0000000010
  30
0.0
  40
 66.000000000000
  41
0.0
  71
5
  72
1
   1
\T1.000000;１０
   7
GMM003
  44
 0.79999984000003
   0
MTEXT
   5
1E5
 100
AcDbEntity
   8
LEVEL001
 370
25
  62
7
 100
AcDbMText
  10
 3389.9999979138
  20
 4145.0000000010
  30
0.0
  40
 66.000000000000
  41
0.0
  71
5
  72
1
   1
\T1.000000;１１
   7
GMM003
  44
 0.79999984000003
   0
LEADER
   5
1E6
 100
AcDbEntity
   8
LEVEL001
 370
13
   6
CONTINUOUS
  62
1
 100
AcDbLeader
   3
GMM002
  73
3
  74
1
  75
0
  40
 66.000000000000
  41
0.0
  76
2
  10
 3110.0506294285
  20
 4455.0000000000
  30
0.0
  10
 3221.1975852336
  20
 4208.7998480537
  30
0.0
  77
1
   0
MTEXT
   5
1E8
 100
AcDbEntity
   8
LEVEL001
 370
13
  62
1
 100
AcDbMText
  10
 1500.0000000000
  20
 5520.0000000010
  30
0.0
  40
 80.000000000000
  41
0.0
  71
5
  72
1
   1
\T1.000000;正　面　図
   7
GMM004
  44
 0.79999984000003
   0
MTEXT
   5
1EA
 100
AcDbEntity
   8
LEVEL001
 370
13
  62
1
 100
AcDbMText
  10
 3000.0000000000
  20
 5520.0000000010
  30
0.0
  40
 80.000000000000
  41
0.0
  71
5
  72
1
   1
\T1.000000;側　面　図
   7
GMM004
  44
 0.79999984000003
   0
MTEXT
   5
1EC
 100
AcDbEntity
   8
LEVEL001
 370
13
  62
1
 100
AcDbMText
  10
 4250.0000000000
  20
 5520.0000000010
  30
0.0
  40
 80.000000000000
  41
0.0
  71
5
  72
1
   1
\T1.000000;背　面　図
   7
GMM004
  44
 0.79999984000003
   0
CIRCLE
   5
1ED
 100
AcDbEntity
   8
LEVEL001
 370
13
 100
AcDbCircle
   6
CONTINUOUS
  62
1
  10
 2625.0000000000
  20
 5145.0000000010
  30
0.0
  40
 69.999997913838
   0
CIRCLE
   5
1EE
 100
AcDbEntity
   8
LEVEL001
 370
13
 100
AcDbCircle
   6
CONTINUOUS
  62
1
  10
 2764.9999958277
  20
 5145.0000000010
  30
0.0
  40
 69.999997913838
   0
MTEXT
   5
1F0
 100
AcDbEntity
   8
LEVEL001
 370
25
  62
7
 100
AcDbMText
  10
 2625.0000000000
  20
 5145.0000000010
  30
0.0
  40
 66.000000000000
  41
0.0
  71
5
  72
1
   1
\T1.000000;６
   7
GMM003
  44
 0.79999984000003
   0
MTEXT
   5
1F2
 100
AcDbEntity
   8
LEVEL001
 370
25
  62
7
 100
AcDbMText
  10
 2764.9999958277
  20
 5145.0000000010
  30
0.0
  40
 66.000000000000
  41
0.0
  71
5
  72
1
   1
\T1.000000;８
   7
GMM003
  44
 0.79999984000003
   0
CIRCLE
   5
1F3
 100
AcDbEntity
   8
LEVEL001
 370
13
 100
AcDbCircle
   6
CONTINUOUS
  62
1
  10
 2875.0000000000
  20
 5020.0000000010
  30
0.0
  40
 69.999997913838
   0
CIRCLE
   5
1F4
 100
AcDbEntity
   8
LEVEL001
 370
13
 100
AcDbCircle
   6
CONTINUOUS
  62
1
  10
 3014.9999958277
  20
 5020.0000000010
  30
0.0
  40
 69.999997913838
   0
MTEXT
   5
1F6
 100
AcDbEntity
   8
LEVEL001
 370
25
  62
7
 100
AcDbMText
  10
 2875.0000000000
  20
 5020.0000000010
  30
0.0
  40
 66.000000000000
  41
0.0
  71
5
  72
1
   1
\T1.000000;７
   7
GMM003
  44
 0.79999984000003
   0
MTEXT
   5
1F8
 100
AcDbEntity
   8
LEVEL001
 370
25
  62
7
 100
AcDbMText
  10
 3014.9999958277
  20
 5020.0000000010
  30
0.0
  40
 66.000000000000
  41
0.0
  71
5
  72
1
   1
\T1.000000;９
   7
GMM003
  44
 0.79999984000003
   0
LEADER
   5
1F9
 100
AcDbEntity
   8
LEVEL001
 370
13
   6
CONTINUOUS
  62
1
 100
AcDbLeader
   3
GMM002
  73
3
  74
1
  75
0
  40
 66.000000000000
  41
0.0
  76
2
  10
 2562.5000000000
  20
 4625.0000000000
  30
0.0
  10
 2616.6466593390
  20
 5075.5002057010
  30
0.0
  77
1
   0
LEADER
   5
1FA
 100
AcDbEntity
   8
LEVEL001
 370
13
   6
CONTINUOUS
  62
1
 100
AcDbLeader
   3
GMM002
  73
3
  74
1
  75
0
  40
 66.000000000000
  41
0.0
  76
2
  10
 2799.6745662651
  20
 4625.0000000000
  30
0.0
  10
 2861.8874817021
  20
 4951.2390985247
  30
0.0
  77
1
   0
LINE
   5
1FB
 100
AcDbEntity
   8
LEVEL001
 370
25
 100
AcDbLine
   6
CONTINUOUS
  62
7
  10
 3038.1500000000
  20
 4440.0000000000
  30
0.0
  11
 3038.1500000000
  21
 3888.5000000010
  31
0.0
   0
LINE
   5
1FC
 100
AcDbEntity
   8
LEVEL001
 370
25
 100
AcDbLine
   6
CONTINUOUS
  62
7
  10
 2961.8500000000
  20
 3888.5000000010
  30
0.0
  11
 2961.8500000000
  21
 4440.0000000000
  31
0.0
   0
LINE
   5
1FD
 100
AcDbEntity
   8
LEVEL001
 370
9
 100
AcDbLine
   6
CONTINUOUS
  62
6
  10
 1464.6450986784
  20
 4444.9999584717
  30
0.0
  11
 1464.6450986784
  21
 4544.9999584717
  31
0.0
   0
LINE
   5
1FE
 100
AcDbEntity
   8
LEVEL001
 370
9
 100
AcDbLine
   6
CONTINUOUS
  62
6
  10
 1535.3549013216
  20
 4554.9999584717
  30
0.0
  11
 1535.3549013216
  21
 4654.9999584717
  31
0.0
   0
LINE
   5
1FF
 100
AcDbEntity
   8
LEVEL001
 370
9
 100
AcDbLine
   6
CONTINUOUS
  62
6
  10
 2964.6450986784
  20
 4445.0000000000
  30
0.0
  11
 2964.6450986784
  21
 4544.9999584717
  31
0.0
   0
LINE
   5
200
 100
AcDbEntity
   8
LEVEL001
 370
9
 100
AcDbLine
   6
CONTINUOUS
  62
6
  10
 3035.3549013216
  20
 4555.0000000000
  30
0.0
  11
 3035.3549013216
  21
 4654.9999584717
  31
0.0
   0
LWPOLYLINE
   5
201
 100
AcDbEntity
   8
LEVEL001
 370
20
   6
CONTINUOUS
  62
3
 100
AcDbPolyline
  90
5
  70
0
  10
 2551.4903632762
  20
 4873.7500000000
  10
 2491.4903632762
  20
 4873.7500000000
  10
 2491.4903632762
  20
 4716.7482886331
  10
 2531.4903632762
  20
 4660.9635043500
  10
 2551.4903632762
  20
 4660.9635043500
   0
LINE
   5
202
 100
AcDbEntity
   8
LEVEL001
 370
25
 100
AcDbLine
   6
CONTINUOUS
  62
7
  10
 2551.4903632762
  20
 4873.7500000000
  30
0.0
  11
 2551.4903632762
  21
 4661.0000000000
  31
0.0
   0
ARC
   5
203
 100
AcDbEntity
   8
LEVEL001
 370
13
   6
DOT
  62
2
 100
AcDbCircle
  10
 3666.0914513768
  20
 4570.0000000000
  30
0.0
  40
 1178.3000000000
 100
AcDbArc
  50
 165.27501303924
  51
 173.16508510128
   0
LWPOLYLINE
   5
204
 100
AcDbEntity
   8
LEVEL001
 370
13
   6
DOT
  62
2
 100
AcDbPolyline
  90
4
  70
0
  10
 2551.4903632762
  20
 4661.0000000000
  10
 2551.4903632762
  20
 4869.5000000000
  10
 2526.4903632762
  20
 4869.5000000000
  10
 2526.4903632762
  20
 4667.9366023854
   0
LWPOLYLINE
   5
205
 100
AcDbEntity
   8
LEVEL001
 370
25
   6
CONTINUOUS
  62
7
 100
AcDbPolyline
  90
4
  70
0
  10
 2526.4903632762
  20
 4667.9366023854
  10
 2526.4903632762
  20
 4270.5000000000
  10
 2551.4903632762
  20
 4270.5000000000
  10
 2551.4903632762
  20
 4661.0000000000
   0
ARC
   5
206
 100
AcDbEntity
   8
LEVEL001
 370
25
   6
CONTINUOUS
  62
7
 100
AcDbCircle
  10
 3666.0914513768
  20
 4570.0000000000
  30
0.0
  40
 1178.3000000000
 100
AcDbArc
  50
 173.16508510128
  51
 194.72498696076
   0
LEADER
   5
207
 100
AcDbEntity
   8
LEVEL001
 370
13
   6
CONTINUOUS
  62
1
 100
AcDbLeader
   3
GMM002
  73
3
  74
1
  75
0
  40
 66.000000000000
  41
0.0
  76
2
  10
 2491.4903632762
  20
 4832.5000000010
  30
0.0
  10
 2317.7161450005
  20
 4877.2651920177
  30
0.0
  77
1
   0
LWPOLYLINE
   5
208
 100
AcDbEntity
   8
LEVEL001
 370
20
   6
CONTINUOUS
  62
3
 100
AcDbPolyline
  90
5
  70
0
  10
 3448.5096367238
  20
 4873.7500000000
  10
 3508.5096367238
  20
 4873.7500000000
  10
 3508.5096367238
  20
 4716.7482886331
  10
 3468.5096367238
  20
 4660.9635043500
  10
 3448.5096367238
  20
 4660.9635043500
   0
LINE
   5
209
 100
AcDbEntity
   8
LEVEL001
 370
25
 100
AcDbLine
   6
CONTINUOUS
  62
7
  10
 3448.5096367238
  20
 4873.7500000000
  30
0.0
  11
 3448.5096367238
  21
 4661.0000000000
  31
0.0
   0
LWPOLYLINE
   5
20A
 100
AcDbEntity
   8
LEVEL001
 370
13
   6
DOT
  62
2
 100
AcDbPolyline
  90
4
  70
0
  10
 3448.5096367238
  20
 4661.0000000000
  10
 3448.5096367238
  20
 4869.5000000000
  10
 3473.5096367238
  20
 4869.5000000000
  10
 3473.5096367238
  20
 4667.9366023854
   0
ARC
   5
20B
 100
AcDbEntity
   8
LEVEL001
 370
13
   6
DOT
  62
2
 100
AcDbCircle
  10
 2333.9085486232
  20
 4570.0000000000
  30
0.0
  40
 1178.3000000000
 100
AcDbArc
  50
 6.8349148987209
  51
 14.724986960761
   0
ARC
   5
20C
 100
AcDbEntity
   8
LEVEL001
 370
25
   6
CONTINUOUS
  62
7
 100
AcDbCircle
  10
 2333.9085486232
  20
 4570.0000000000
  30
0.0
  40
 1178.3000000000
 100
AcDbArc
  50
 345.27501303924
  51
 6.8349148987209
   0
LWPOLYLINE
   5
20D
 100
AcDbEntity
   8
LEVEL001
 370
25
   6
CONTINUOUS
  62
7
 100
AcDbPolyline
  90
4
  70
0
  10
 3473.5096367238
  20
 4667.9366023854
  10
 3473.5096367238
  20
 4270.5000000000
  10
 3448.5096367238
  20
 4270.5000000000
  10
 3448.5096367238
  20
 4661.0000000000
   0
LWPOLYLINE
   5
20E
 100
AcDbEntity
   8
LEVEL001
 370
25
   6
CONTINUOUS
  62
7
 100
AcDbPolyline
  90
4
  70
0
  10
 1538.1500000000
  20
 4659.9999584717
  10
 1538.1500000000
  20
 4770.0000000010
  10
 1461.8500000000
  20
 4770.0000000010
  10
 1461.8500000000
  20
 4659.9999584717
   0
LINE
   5
20F
 100
AcDbEntity
   8
LEVEL001
 370
9
 100
AcDbLine
   6
DASHDOT
  62
6
  10
 1500.0000000000
  20
 4826.1960443034
  30
0.0
  11
 1500.0000000000
  21
 653.39037477558
  31
0.0
   0
DIMENSION
   5
210
 100
AcDbEntity
   8
LEVEL001
 370
9
   6
CONTINUOUS
  62
6
 100
AcDbDimension
   2
*D13
  10
 750.00000000000
  20
 770.00000000095
  30
0.0
  11
 750.00000000000
  21
 720.00000000095
  31
0.0
  70
0
   3
GMM003
 100
AcDbAlignedDimension
  13
 1250.0000000000
  23
 670.00000000095
  33
0.0
  14
 1250.0000000000
  24
 770.00000000095
  34
0.0
  50
 90.000000000000
 100
AcDbRotatedDimension
   0
DIMENSION
   5
211
 100
AcDbEntity
   8
LEVEL001
 370
9
   6
CONTINUOUS
  62
6
 100
AcDbDimension
   2
*D14
  10
 750.00000000000
  20
 1770.0000000010
  30
0.0
  11
 750.00000000000
  21
 1270.0000000010
  31
0.0
  70
0
   3
GMM003
 100
AcDbAlignedDimension
  13
 1250.0000000000
  23
 770.00000000095
  33
0.0
  14
 950.00006523496
  24
 1770.0000000010
  34
0.0
  50
 90.000000000000
 100
AcDbRotatedDimension
   0
DIMENSION
   5
212
 100
AcDbEntity
   8
LEVEL001
 370
9
   6
CONTINUOUS
  62
6
 100
AcDbDimension
   2
*D15
  10
 750.00000000000
  20
 4269.9999999950
  30
0.0
  11
 750.00000000000
  21
 3019.9999999980
  31
0.0
  70
0
   1
\A1;2500(標準設置高さ)
   3
GMM004
 100
AcDbAlignedDimension
  13
 950.00006523496
  23
 1770.0000000010
  33
0.0
  14
 1100.0000000001
  24
 4269.9999999950
  34
0.0
  50
 90.000000000000
 100
AcDbRotatedDimension
   0
LINE
   5
213
 100
AcDbEntity
   8
LEVEL001
 370
9
 100
AcDbLine
   6
DASHDOT
  62
6
  10
 3000.0000000000
  20
 4820.0000000010
  30
0.0
  11
 3000.0000000000
  21
 2136.0218857113
  31
0.0
   0
LWPOLYLINE
   5
214
 100
AcDbEntity
   8
LEVEL001
 370
25
   6
CONTINUOUS
  62
7
 100
AcDbPolyline
  90
4
  70
0
  10
 2961.8500000000
  20
 4660.0000000000
  10
 2961.8500000000
  20
 4770.0000000010
  10
 3038.1500000000
  20
 4770.0000000010
  10
 3038.1500000000
  20
 4660.0000000000
   0
LEADER
   5
215
 100
AcDbEntity
   8
LEVEL001
 370
13
   6
CONTINUOUS
  62
1
 100
AcDbLeader
   3
GMM005
  73
3
  74
1
  75
0
  40
 66.000000000000
  41
0.0
  76
2
  10
 3000.0000000000
  20
 4774.0000000010
  30
0.0
  10
 3200.3577585018
  20
 4970.6477167809
  30
0.0
  77
1
   0
ARC
   5
216
 100
AcDbEntity
   8
LEVEL002
 370
25
   6
CONTINUOUS
  62
7
 100
AcDbCircle
  10
 1555.0000000002
  20
 3690.0000000010
  30
0.0
  40
 20.000000000000
 100
AcDbArc
  50
 270.00000000000
  51
 360.00000000000
   0
LINE
   5
217
 100
AcDbEntity
   8
LEVEL002
 370
25
 100
AcDbLine
   6
CONTINUOUS
  62
7
  10
 1445.0000000002
  20
 3670.0000000010
  30
0.0
  11
 1555.0000000002
  21
 3670.0000000010
  31
0.0
   0
ARC
   5
218
 100
AcDbEntity
   8
LEVEL002
 370
25
   6
CONTINUOUS
  62
7
 100
AcDbCircle
  10
 1445.0000000002
  20
 3690.0000000010
  30
0.0
  40
 20.000000000000
 100
AcDbArc
  50
 180.00000000000
  51
 270.00000000000
   0
LWPOLYLINE
   5
219
 100
AcDbEntity
   8
LEVEL002
 370
9
   6
CONTINUOUS
  62
5
 100
AcDbPolyline
  90
7
  70
1
  10
 1500.0000000002
  20
 4030.0000000010
  10
 1463.7000010820
  20
 3983.8000013778
  10
 1483.5000004919
  20
 3983.8000013778
  10
 1483.5000004919
  20
 3964.0000019679
  10
 1516.4999995084
  20
 3964.0000019679
  10
 1516.4999995084
  20
 3983.8000013778
  10
 1536.2999989183
  20
 3983.8000013778
   0
LWPOLYLINE
   5
21A
 100
AcDbEntity
   8
LEVEL002
 370
9
   6
CONTINUOUS
  62
5
 100
AcDbPolyline
  90
7
  70
1
  10
 1500.0000000002
  20
 4030.0000000010
  10
 1463.7000010820
  20
 3983.8000013778
  10
 1483.5000004919
  20
 3983.8000013778
  10
 1483.5000004919
  20
 3964.0000019679
  10
 1516.4999995084
  20
 3964.0000019679
  10
 1516.4999995084
  20
 3983.8000013778
  10
 1536.2999989183
  20
 3983.8000013778
   0
ARC
   5
21B
 100
AcDbEntity
   8
LEVEL002
 370
25
   6
CONTINUOUS
  62
7
 100
AcDbCircle
  10
 1555.0000000002
  20
 3690.0000000010
  30
0.0
  40
 20.000000000000
 100
AcDbArc
  50
 270.00000000000
  51
 360.00000000000
   0
ARC
   5
21C
 100
AcDbEntity
   8
LEVEL002
 370
25
   6
CONTINUOUS
  62
7
 100
AcDbCircle
  10
 1445.0000000002
  20
 3690.0000000010
  30
0.0
  40
 20.000000000000
 100
AcDbArc
  50
 180.00000000000
  51
 270.00000000000
   0
LINE
   5
21D
 100
AcDbEntity
   8
LEVEL002
 370
25
 100
AcDbLine
   6
CONTINUOUS
  62
7
  10
 1445.0000000002
  20
 3670.0000000010
  30
0.0
  11
 1555.0000000002
  21
 3670.0000000010
  31
0.0
   0
LINE
   5
21E
 100
AcDbEntity
   8
LEVEL002
 370
9
 100
AcDbLine
   6
CONTINUOUS
  62
6
  10
 2952.0773787504
  20
 3905.0000607591
  30
0.0
  11
 2952.0773787504
  21
 3905.9999997200
  31
0.0
   0
LINE
   5
21F
 100
AcDbEntity
   8
LEVEL002
 370
25
 100
AcDbLine
   6
CONTINUOUS
  62
7
  10
 2952.5328575295
  20
 3890.9996335676
  30
0.0
  11
 2952.5333152934
  21
 3848.9997252842
  31
0.0
   0
LINE
   5
220
 100
AcDbEntity
   8
LEVEL002
 370
25
 100
AcDbLine
   6
CONTINUOUS
  62
7
  10
 2952.0773787504
  20
 3905.9999997200
  30
0.0
  11
 2949.0773787504
  21
 3905.9999997200
  31
0.0
   0
LINE
   5
221
 100
AcDbEntity
   8
LEVEL002
 370
9
 100
AcDbLine
   6
CONTINUOUS
  62
6
  10
 2949.0773787504
  20
 3905.0000607591
  30
0.0
  11
 2952.0773787504
  21
 3905.0000607591
  31
0.0
   0
LWPOLYLINE
   5
222
 100
AcDbEntity
   8
LEVEL002
 370
9
   6
CONTINUOUS
  62
6
 100
AcDbPolyline
  90
3
  70
0
  10
 2952.0773787504
  20
 3834.0000000010
  10
 2952.0773787504
  20
 3835.0000305146
  10
 2949.0773787504
  20
 3835.0000305146
   0
ELLIPSE
   5
223
 100
AcDbEntity
   8
LEVEL002
 370
25
   6
CONTINUOUS
  62
7
 100
AcDbEllipse
  10
 2948.5333127423
  20
 3848.9997864367
  30
0.0
  11
 4.0000025516047
  21
0.0
  31
0.0
  40
 0.99999938800000
  41
-1.4343569865528
  42
-0.15288126351787E-4
   0
LINE
   5
224
 100
AcDbEntity
   8
LEVEL002
 370
25
 100
AcDbLine
   6
CONTINUOUS
  62
7
  10
 2949.0773787504
  20
 3834.0000000010
  30
0.0
  11
 2952.0773787504
  21
 3834.0000000010
  31
0.0
   0
ELLIPSE
   5
225
 100
AcDbEntity
   8
LEVEL002
 370
25
   6
CONTINUOUS
  62
7
 100
AcDbEllipse
  10
 2948.5328549798
  20
 3890.9997555189
  30
0.0
  11
 4.0000025516047
  21
0.0
  31
0.0
  40
 0.99999938800000
  41
-0.30487804348912E-4
  42
 1.4342414715499
   0
LWPOLYLINE
   5
226
 100
AcDbEntity
   8
LEVEL002
 370
25
   6
CONTINUOUS
  62
7
 100
AcDbPolyline
  90
4
  70
0
  10
 2952.5328847734
  20
 3888.5000000010
  10
 3058.0773787504
  20
 3888.5000000010
  10
 3058.0773787504
  20
 3851.5000000010
  10
 2952.5332880425
  20
 3851.5000000010
   0
LINE
   5
227
 100
AcDbEntity
   8
LEVEL002
 370
9
 100
AcDbLine
   6
CONTINUOUS
  62
6
  10
 3036.9053797500
  20
 3886.5000000010
  30
0.0
  11
 3036.9053797500
  21
 3877.5000000010
  31
0.0
   0
LINE
   5
228
 100
AcDbEntity
   8
LEVEL002
 370
9
 100
AcDbLine
   6
CONTINUOUS
  62
6
  10
 3036.9053797500
  20
 3862.5000000010
  30
0.0
  11
 3036.9053797500
  21
 3853.5000000010
  31
0.0
   0
LINE
   5
229
 100
AcDbEntity
   8
LEVEL002
 370
9
 100
AcDbLine
   6
CONTINUOUS
  62
6
  10
 3039.2239047913
  20
 3876.5000000010
  30
0.0
  11
 3039.2239047913
  21
 3863.5000000010
  31
0.0
   0
LINE
   5
22A
 100
AcDbEntity
   8
LEVEL002
 370
9
 100
AcDbLine
   6
CONTINUOUS
  62
6
  10
 3036.9053797500
  20
 3863.5000000010
  30
0.0
  11
 2964.7862079243
  21
 3863.5000000010
  31
0.0
   0
LINE
   5
22B
 100
AcDbEntity
   8
LEVEL002
 370
9
 100
AcDbLine
   6
CONTINUOUS
  62
6
  10
 2964.7862079243
  20
 3876.5000000010
  30
0.0
  11
 3036.9053797500
  21
 3876.5000000010
  31
0.0
   0
LWPOLYLINE
   5
22C
 100
AcDbEntity
   8
LEVEL002
 370
25
   6
CONTINUOUS
  62
7
 100
AcDbPolyline
  90
4
  70
1
  10
 3043.0773787504
  20
 3865.0000000010
  10
 3053.0773787504
  20
 3865.0000000010
  10
 3053.0773787504
  20
 3875.0000000010
  10
 3043.0773787504
  20
 3875.0000000010
   0
LINE
   5
22D
 100
AcDbEntity
   8
LEVEL002
 370
9
 100
AcDbLine
   6
CONTINUOUS
  62
6
  10
 2963.5253133548
  20
 3875.5000000010
  30
0.0
  11
 2963.5253133548
  21
 3864.5000000010
  31
0.0
   0
LINE
   5
22E
 100
AcDbEntity
   8
LEVEL002
 370
9
 100
AcDbLine
   6
CONTINUOUS
  62
6
  10
 2963.5253133548
  20
 3862.5000000010
  30
0.0
  11
 2963.5253133548
  21
 3853.5000000010
  31
0.0
   0
LINE
   5
22F
 100
AcDbEntity
   8
LEVEL002
 370
9
 100
AcDbLine
   6
CONTINUOUS
  62
6
  10
 2963.5253133548
  20
 3886.5000000010
  30
0.0
  11
 2963.5253133548
  21
 3877.5000000010
  31
0.0
   0
ARC
   5
230
 100
AcDbEntity
   8
LEVEL002
 370
25
   6
CONTINUOUS
  62
7
 100
AcDbCircle
  10
 2950.0773787504
  20
 3678.6417202908
  30
0.0
  40
 5.0000000000000
 100
AcDbArc
  50
 180.00000000001
  51
 201.80140948637
   0
LINE
   5
231
 100
AcDbEntity
   8
LEVEL002
 370
25
 100
AcDbLine
   6
CONTINUOUS
  62
7
  10
 2948.1489020595
  20
 3670.0000000001
  30
0.0
  11
 2945.4349952960
  21
 3676.7847669090
  31
0.0
   0
ARC
   5
232
 100
AcDbEntity
   8
LEVEL002
 370
25
   6
CONTINUOUS
  62
7
 100
AcDbCircle
  10
 2944.0773787504
  20
 3685.8476464592
  30
0.0
  40
 5.0000000000000
 100
AcDbArc
  50
 338.19859051367
  51
 0.26055103950549E-10
   0
LINE
   5
233
 100
AcDbEntity
   8
LEVEL002
 370
25
 100
AcDbLine
   6
CONTINUOUS
  62
7
  10
 2946.9174913501
  20
 3679.4850159407
  30
0.0
  11
 2948.7197622048
  21
 3683.9906930775
  31
0.0
   0
ARC
   5
234
 100
AcDbEntity
   8
LEVEL002
 370
25
   6
CONTINUOUS
  62
7
 100
AcDbCircle
  10
 2951.5598748046
  20
 3677.6280625589
  30
0.0
  40
 5.0000000000000
 100
AcDbArc
  50
 158.19859051365
  51
 201.80140948634
   0
LWPOLYLINE
   5
235
 100
AcDbEntity
   8
LEVEL002
 370
25
   6
CONTINUOUS
  62
7
 100
AcDbPolyline
  90
3
  70
0
  10
 2948.1489020595
  20
 3670.0000000001
  10
 2949.0773787504
  20
 3670.3713906765
  10
 2946.9174913501
  20
 3675.7711091772
   0
ARC
   5
236
 100
AcDbEntity
   8
LEVEL002
 370
25
   6
CONTINUOUS
  62
7
 100
AcDbCircle
  10
 2950.0773787504
  20
 3678.6417202908
  30
0.0
  40
 5.0000000000000
 100
AcDbArc
  50
 180.00000000001
  51
 201.80140948637
   0
LINE
   5
237
 100
AcDbEntity
   8
LEVEL002
 370
25
 100
AcDbLine
   6
CONTINUOUS
  62
7
  10
 2948.1489020595
  20
 3670.0000000001
  30
0.0
  11
 2945.4349952960
  21
 3676.7847669090
  31
0.0
   0
ARC
   5
238
 100
AcDbEntity
   8
LEVEL002
 370
25
   6
CONTINUOUS
  62
7
 100
AcDbCircle
  10
 2944.0773787504
  20
 3685.8476464592
  30
0.0
  40
 5.0000000000000
 100
AcDbArc
  50
 338.19859051367
  51
 0.26055103950549E-10
   0
LINE
   5
239
 100
AcDbEntity
   8
LEVEL002
 370
25
 100
AcDbLine
   6
CONTINUOUS
  62
7
  10
 2946.9174913501
  20
 3679.4850159407
  30
0.0
  11
 2948.7197622048
  21
 3683.9906930775
  31
0.0
   0
ARC
   5
23A
 100
AcDbEntity
   8
LEVEL002
 370
25
   6
CONTINUOUS
  62
7
 100
AcDbCircle
  10
 2951.5598748046
  20
 3677.6280625589
  30
0.0
  40
 5.0000000000000
 100
AcDbArc
  50
 158.19859051365
  51
 201.80140948634
   0
LWPOLYLINE
   5
23B
 100
AcDbEntity
   8
LEVEL002
 370
25
   6
CONTINUOUS
  62
7
 100
AcDbPolyline
  90
3
  70
0
  10
 2948.1489020595
  20
 3670.0000000001
  10
 2949.0773787504
  20
 3670.3713906765
  10
 2946.9174913501
  20
 3675.7711091772
   0
LINE
   5
23C
 100
AcDbEntity
   8
LEVEL002
 370
9
 100
AcDbLine
   6
CONTINUOUS
  62
6
  10
 2952.0773787504
  20
 3905.0000607591
  30
0.0
  11
 2952.0773787504
  21
 3905.9999997200
  31
0.0
   0
LINE
   5
23D
 100
AcDbEntity
   8
LEVEL002
 370
25
 100
AcDbLine
   6
CONTINUOUS
  62
7
  10
 2952.5328575295
  20
 3890.9996335676
  30
0.0
  11
 2952.5333152934
  21
 3848.9997252842
  31
0.0
   0
LINE
   5
23E
 100
AcDbEntity
   8
LEVEL002
 370
25
 100
AcDbLine
   6
CONTINUOUS
  62
7
  10
 2952.0773787504
  20
 3905.9999997200
  30
0.0
  11
 2949.0773787504
  21
 3905.9999997200
  31
0.0
   0
LINE
   5
23F
 100
AcDbEntity
   8
LEVEL002
 370
9
 100
AcDbLine
   6
CONTINUOUS
  62
6
  10
 2949.0773787504
  20
 3905.0000607591
  30
0.0
  11
 2952.0773787504
  21
 3905.0000607591
  31
0.0
   0
LWPOLYLINE
   5
240
 100
AcDbEntity
   8
LEVEL002
 370
9
   6
CONTINUOUS
  62
6
 100
AcDbPolyline
  90
3
  70
0
  10
 2952.0773787504
  20
 3834.0000000010
  10
 2952.0773787504
  20
 3835.0000305146
  10
 2949.0773787504
  20
 3835.0000305146
   0
ELLIPSE
   5
241
 100
AcDbEntity
   8
LEVEL002
 370
25
   6
CONTINUOUS
  62
7
 100
AcDbEllipse
  10
 2948.5333127423
  20
 3848.9997864367
  30
0.0
  11
 4.0000025516047
  21
0.0
  31
0.0
  40
 0.99999938800000
  41
-1.4343569865528
  42
-0.15288126351787E-4
   0
LINE
   5
242
 100
AcDbEntity
   8
LEVEL002
 370
25
 100
AcDbLine
   6
CONTINUOUS
  62
7
  10
 2949.0773787504
  20
 3834.0000000010
  30
0.0
  11
 2952.0773787504
  21
 3834.0000000010
  31
0.0
   0
ELLIPSE
   5
243
 100
AcDbEntity
   8
LEVEL002
 370
25
   6
CONTINUOUS
  62
7
 100
AcDbEllipse
  10
 2948.5328549798
  20
 3890.9997555189
  30
0.0
  11
 4.0000025516047
  21
0.0
  31
0.0
  40
 0.99999938800000
  41
-0.30487804348912E-4
  42
 1.4342414715499
   0
LWPOLYLINE
   5
244
 100
AcDbEntity
   8
LEVEL002
 370
25
   6
CONTINUOUS
  62
7
 100
AcDbPolyline
  90
4
  70
0
  10
 2952.5328847734
  20
 3888.5000000010
  10
 3058.0773787504
  20
 3888.5000000010
  10
 3058.0773787504
  20
 3851.5000000010
  10
 2952.5332880425
  20
 3851.5000000010
   0
LINE
   5
245
 100
AcDbEntity
   8
LEVEL002
 370
9
 100
AcDbLine
   6
CONTINUOUS
  62
6
  10
 2963.5253133548
  20
 3875.5000000010
  30
0.0
  11
 2963.5253133548
  21
 3864.5000000010
  31
0.0
   0
LINE
   5
246
 100
AcDbEntity
   8
LEVEL002
 370
9
 100
AcDbLine
   6
CONTINUOUS
  62
6
  10
 2963.5253133548
  20
 3862.5000000010
  30
0.0
  11
 2963.5253133548
  21
 3853.5000000010
  31
0.0
   0
LINE
   5
247
 100
AcDbEntity
   8
LEVEL002
 370
9
 100
AcDbLine
   6
CONTINUOUS
  62
6
  10
 2963.5253133548
  20
 3886.5000000010
  30
0.0
  11
 2963.5253133548
  21
 3877.5000000010
  31
0.0
   0
LINE
   5
248
 100
AcDbEntity
   8
LEVEL002
 370
9
 100
AcDbLine
   6
CONTINUOUS
  62
6
  10
 3036.9053797500
  20
 3863.5000000010
  30
0.0
  11
 2964.7862079243
  21
 3863.5000000010
  31
0.0
   0
LINE
   5
249
 100
AcDbEntity
   8
LEVEL002
 370
9
 100
AcDbLine
   6
CONTINUOUS
  62
6
  10
 2964.7862079243
  20
 3876.5000000010
  30
0.0
  11
 3036.9053797500
  21
 3876.5000000010
  31
0.0
   0
LINE
   5
24A
 100
AcDbEntity
   8
LEVEL002
 370
9
 100
AcDbLine
   6
CONTINUOUS
  62
6
  10
 3036.9053797500
  20
 3886.5000000010
  30
0.0
  11
 3036.9053797500
  21
 3877.5000000010
  31
0.0
   0
LINE
   5
24B
 100
AcDbEntity
   8
LEVEL002
 370
9
 100
AcDbLine
   6
CONTINUOUS
  62
6
  10
 3036.9053797500
  20
 3862.5000000010
  30
0.0
  11
 3036.9053797500
  21
 3853.5000000010
  31
0.0
   0
LINE
   5
24C
 100
AcDbEntity
   8
LEVEL002
 370
9
 100
AcDbLine
   6
CONTINUOUS
  62
6
  10
 3039.2239047913
  20
 3876.5000000010
  30
0.0
  11
 3039.2239047913
  21
 3863.5000000010
  31
0.0
   0
LWPOLYLINE
   5
24D
 100
AcDbEntity
   8
LEVEL002
 370
25
   6
CONTINUOUS
  62
7
 100
AcDbPolyline
  90
4
  70
1
  10
 3043.0773787504
  20
 3865.0000000010
  10
 3053.0773787504
  20
 3865.0000000010
  10
 3053.0773787504
  20
 3875.0000000010
  10
 3043.0773787504
  20
 3875.0000000010
   0
CIRCLE
   5
24E
 100
AcDbEntity
   8
LEVEL002
 370
13
 100
AcDbCircle
   6
CONTINUOUS
  62
1
  10
 1750.0000000000
  20
 3745.0000000010
  30
0.0
  40
 69.999997913838
   0
MTEXT
   5
250
 100
AcDbEntity
   8
LEVEL002
 370
25
  62
7
 100
AcDbMText
  10
 1750.0000000000
  20
 3745.0000000010
  30
0.0
  40
 66.000000000000
  41
0.0
  71
5
  72
1
   1
\T1.000000;１５
   7
GMM003
  44
 0.79999984000003
   0
CIRCLE
   5
251
 100
AcDbEntity
   8
LEVEL002
 370
13
 100
AcDbCircle
   6
CONTINUOUS
  62
1
  10
 1750.0000000000
  20
 3745.0000000010
  30
0.0
  40
 69.999997913838
   0
MTEXT
   5
253
 100
AcDbEntity
   8
LEVEL002
 370
25
  62
7
 100
AcDbMText
  10
 1750.0000000000
  20
 3745.0000000010
  30
0.0
  40
 66.000000000000
  41
0.0
  71
5
  72
1
   1
\T1.000000;１５
   7
GMM003
  44
 0.79999984000003
   0
LEADER
   5
254
 100
AcDbEntity
   8
LEVEL002
 370
13
   6
CONTINUOUS
  62
1
 100
AcDbLeader
   3
GMM002
  73
3
  74
1
  75
0
  40
 66.000000000000
  41
0.0
  76
2
  10
 1575.0000000002
  20
 3870.0000000010
  30
0.0
  10
 1693.0386587131
  20
 3785.6866723488
  30
0.0
  77
1
   0
CIRCLE
   5
255
 100
AcDbEntity
   8
LEVEL001
 370
13
 100
AcDbCircle
   6
CONTINUOUS
  62
1
  10
 1750.0000000000
  20
 2895.0000000010
  30
0.0
  40
 70.000000000000
   0
MTEXT
   5
257
 100
AcDbEntity
   8
LEVEL001
 370
25
  62
7
 100
AcDbMText
  10
 1750.0000000000
  20
 2895.0000000010
  30
0.0
  40
 66.000000000000
  41
0.0
  71
5
  72
1
   1
\T1.000000;１２
   7
GMM003
  44
 0.79999984000003
   0
LEADER
   5
258
 100
AcDbEntity
   8
LEVEL001
 370
13
   6
CONTINUOUS
  62
1
 100
AcDbLeader
   3
GMM002
  73
3
  74
1
  75
0
  40
 66.000000000000
  41
0.0
  76
2
  10
 1538.1500000000
  20
 2770.0000000010
  30
0.0
  10
 1689.7122106388
  20
 2859.4277853673
  30
0.0
  77
1
   0
CIRCLE
   5
259
 100
AcDbEntity
   8
LEVEL002
 370
13
 100
AcDbCircle
   6
CONTINUOUS
  62
1
  10
 3250.0000000000
  20
 3770.0000000010
  30
0.0
  40
 70.000000000000
   0
CIRCLE
   5
25A
 100
AcDbEntity
   8
LEVEL002
 370
13
 100
AcDbCircle
   6
CONTINUOUS
  62
1
  10
 3390.0000000000
  20
 3770.0000000010
  30
0.0
  40
 70.000000000000
   0
MTEXT
   5
25C
 100
AcDbEntity
   8
LEVEL002
 370
25
  62
7
 100
AcDbMText
  10
 3250.0000000000
  20
 3770.0000000010
  30
0.0
  40
 66.000000000000
  41
0.0
  71
5
  72
1
   1
\T1.000000;１６
   7
GMM003
  44
 0.79999984000003
   0
MTEXT
   5
25E
 100
AcDbEntity
   8
LEVEL002
 370
25
  62
7
 100
AcDbMText
  10
 3390.0000000000
  20
 3770.0000000010
  30
0.0
  40
 66.000000000000
  41
0.0
  71
5
  72
1
   1
\T1.000000;１７
   7
GMM003
  44
 0.79999984000003
   0
CIRCLE
   5
25F
 100
AcDbEntity
   8
LEVEL002
 370
13
 100
AcDbCircle
   6
CONTINUOUS
  62
1
  10
 3250.0000000000
  20
 3770.0000000010
  30
0.0
  40
 70.000000000000
   0
CIRCLE
   5
260
 100
AcDbEntity
   8
LEVEL002
 370
13
 100
AcDbCircle
   6
CONTINUOUS
  62
1
  10
 3390.0000000000
  20
 3770.0000000010
  30
0.0
  40
 70.000000000000
   0
MTEXT
   5
262
 100
AcDbEntity
   8
LEVEL002
 370
25
  62
7
 100
AcDbMText
  10
 3250.0000000000
  20
 3770.0000000010
  30
0.0
  40
 66.000000000000
  41
0.0
  71
5
  72
1
   1
\T1.000000;１６
   7
GMM003
  44
 0.79999984000003
   0
MTEXT
   5
264
 100
AcDbEntity
   8
LEVEL002
 370
25
  62
7
 100
AcDbMText
  10
 3390.0000000000
  20
 3770.0000000010
  30
0.0
  40
 66.000000000000
  41
0.0
  71
5
  72
1
   1
\T1.000000;１７
   7
GMM003
  44
 0.79999984000003
   0
LEADER
   5
265
 100
AcDbEntity
   8
LEVEL002
 370
13
   6
CONTINUOUS
  62
1
 100
AcDbLeader
   3
GMM002
  73
3
  74
1
  75
0
  40
 66.000000000000
  41
0.0
  76
2
  10
 3058.0773787504
  20
 3851.5000000010
  30
0.0
  10
 3185.5687277882
  20
 3797.3607595147
  30
0.0
  77
1
   0
LINE
   5
266
 100
AcDbEntity
   8
LEVEL001
 370
9
 100
AcDbLine
   6
CONTINUOUS
  62
5
  10
 1094.9999999998
  20
 1717.5000000010
  30
0.0
  11
 1147.4999999998
  21
 1770.0000000010
  31
0.0
   0
LINE
   5
267
 100
AcDbEntity
   8
LEVEL001
 370
9
 100
AcDbLine
   6
CONTINUOUS
  62
5
  10
 1079.0900974230
  20
 1733.4099025777
  30
0.0
  11
 1115.6801948462
  21
 1770.0000000010
  31
0.0
   0
LINE
   5
268
 100
AcDbEntity
   8
LEVEL001
 370
9
 100
AcDbLine
   6
CONTINUOUS
  62
5
  10
 1131.5900974238
  20
 1770.0000000010
  30
0.0
  11
 1087.0450487118
  21
 1725.4549512890
  31
0.0
   0
LINE
   5
269
 100
AcDbEntity
   8
LEVEL001
 370
9
 100
AcDbLine
   6
CONTINUOUS
  62
5
  10
 1152.2702922704
  20
 1717.5000000010
  30
0.0
  11
 1123.6351461351
  21
 1746.1351461362
  31
0.0
   0
LINE
   5
26A
 100
AcDbEntity
   8
LEVEL001
 370
9
 100
AcDbLine
   6
CONTINUOUS
  62
5
  10
 1131.5900974233
  20
 1754.0900974245
  30
0.0
  11
 1168.1801948468
  21
 1717.5000000010
  31
0.0
   0
LINE
   5
26B
 100
AcDbEntity
   8
LEVEL001
 370
9
 100
AcDbLine
   6
CONTINUOUS
  62
5
  10
 1184.0900974233
  20
 1717.5000000010
  30
0.0
  11
 1139.5450487115
  21
 1762.0450487127
  31
0.0
   0
LINE
   5
26C
 100
AcDbEntity
   8
LEVEL001
 370
9
 100
AcDbLine
   6
CONTINUOUS
  62
5
  10
 1147.4999999998
  20
 1770.0000000010
  30
0.0
  11
 1200.0000000000
  21
 1717.5000000010
  31
0.0
   0
LINE
   5
26D
 100
AcDbEntity
   8
LEVEL001
 370
9
 100
AcDbLine
   6
CONTINUOUS
  62
5
  10
 994.77029226995
  20
 1770.0000000010
  30
0.0
  11
 942.27029226995
  21
 1717.5000000010
  31
0.0
   0
LINE
   5
26E
 100
AcDbEntity
   8
LEVEL001
 370
9
 100
AcDbLine
   6
CONTINUOUS
  62
5
  10
 958.18019484599
  20
 1717.5000000010
  30
0.0
  11
 1010.6801948460
  21
 1770.0000000010
  31
0.0
   0
LINE
   5
26F
 100
AcDbEntity
   8
LEVEL001
 370
9
 100
AcDbLine
   6
CONTINUOUS
  62
5
  10
 1026.5900974236
  20
 1770.0000000010
  30
0.0
  11
 974.09009742359
  21
 1717.5000000010
  31
0.0
   0
LINE
   5
270
 100
AcDbEntity
   8
LEVEL001
 370
9
 100
AcDbLine
   6
CONTINUOUS
  62
5
  10
 989.99999999963
  20
 1717.5000000010
  30
0.0
  11
 1042.4999999996
  21
 1770.0000000010
  31
0.0
   0
LINE
   5
271
 100
AcDbEntity
   8
LEVEL001
 370
9
 100
AcDbLine
   6
CONTINUOUS
  62
5
  10
 1047.2702922702
  20
 1717.5000000010
  30
0.0
  11
 1018.6351461349
  21
 1746.1351461362
  31
0.0
   0
LINE
   5
272
 100
AcDbEntity
   8
LEVEL001
 370
9
 100
AcDbLine
   6
CONTINUOUS
  62
5
  10
 1026.5900974231
  20
 1754.0900974245
  30
0.0
  11
 1063.1801948467
  21
 1717.5000000010
  31
0.0
   0
LINE
   5
273
 100
AcDbEntity
   8
LEVEL001
 370
9
 100
AcDbLine
   6
CONTINUOUS
  62
5
  10
 1079.0900974231
  20
 1717.5000000010
  30
0.0
  11
 1034.5450487114
  21
 1762.0450487127
  31
0.0
   0
LINE
   5
274
 100
AcDbEntity
   8
LEVEL001
 370
9
 100
AcDbLine
   6
CONTINUOUS
  62
5
  10
 1042.4999999996
  20
 1770.0000000010
  30
0.0
  11
 1094.9999999998
  21
 1717.5000000010
  31
0.0
   0
LINE
   5
275
 100
AcDbEntity
   8
LEVEL001
 370
9
 100
AcDbLine
   6
CONTINUOUS
  62
5
  10
 1099.7702922701
  20
 1770.0000000010
  30
0.0
  11
 1071.1351461349
  21
 1741.3648538658
  31
0.0
   0
MTEXT
   5
277
 100
AcDbEntity
   8
LEVEL001
 370
13
  62
1
 100
AcDbMText
  10
 1070.6486704444
  20
 1778.7299370413
  30
0.0
  40
 40.000000000000
  41
0.0
  71
7
  72
1
   1
\T1.000000;ＧＬ
   7
GMM005
  44
 0.79999984000003
   0
LWPOLYLINE
   5
278
 100
AcDbEntity
   8
LEVEL001
 370
13
   6
CONTINUOUS
  62
1
 100
AcDbPolyline
  90
3
  70
1
  10
 1042.4999999996
  20
 1770.0000000010
  10
 1017.4999999996
  20
 1820.0000000010
  10
 1067.4999999996
  20
 1820.0000000010
   0
LINE
   5
279
 100
AcDbEntity
   8
LEVEL001
 370
9
 100
AcDbLine
   6
CONTINUOUS
  62
5
  10
 1852.5000000000
  20
 1770.0000000010
  30
0.0
  11
 1800.0000000000
  21
 1717.5000000010
  31
0.0
   0
LINE
   5
27A
 100
AcDbEntity
   8
LEVEL001
 370
9
 100
AcDbLine
   6
CONTINUOUS
  62
5
  10
 1815.9099025760
  20
 1717.5000000010
  30
0.0
  11
 1868.4099025760
  21
 1770.0000000010
  31
0.0
   0
LINE
   5
27B
 100
AcDbEntity
   8
LEVEL001
 370
9
 100
AcDbLine
   6
CONTINUOUS
  62
5
  10
 1884.3198051536
  20
 1770.0000000010
  30
0.0
  11
 1831.8198051536
  21
 1717.5000000010
  31
0.0
   0
LINE
   5
27C
 100
AcDbEntity
   8
LEVEL001
 370
9
 100
AcDbLine
   6
CONTINUOUS
  62
5
  10
 1847.7297077297
  20
 1717.5000000010
  30
0.0
  11
 1900.2297077297
  21
 1770.0000000010
  31
0.0
   0
LINE
   5
27D
 100
AcDbEntity
   8
LEVEL001
 370
9
 100
AcDbLine
   6
CONTINUOUS
  62
5
  10
 1905.0000000003
  20
 1717.5000000010
  30
0.0
  11
 1876.3648538650
  21
 1746.1351461362
  31
0.0
   0
LINE
   5
27E
 100
AcDbEntity
   8
LEVEL001
 370
9
 100
AcDbLine
   6
CONTINUOUS
  62
5
  10
 1884.3198051532
  20
 1754.0900974245
  30
0.0
  11
 1920.9099025767
  21
 1717.5000000010
  31
0.0
   0
LINE
   5
27F
 100
AcDbEntity
   8
LEVEL001
 370
9
 100
AcDbLine
   6
CONTINUOUS
  62
5
  10
 1936.8198051531
  20
 1717.5000000010
  30
0.0
  11
 1892.2747564414
  21
 1762.0450487127
  31
0.0
   0
LINE
   5
280
 100
AcDbEntity
   8
LEVEL001
 370
9
 100
AcDbLine
   6
CONTINUOUS
  62
5
  10
 1900.2297077297
  20
 1770.0000000010
  30
0.0
  11
 1952.7297077299
  21
 1717.5000000010
  31
0.0
   0
LINE
   5
281
 100
AcDbEntity
   8
LEVEL001
 370
9
 100
AcDbLine
   6
CONTINUOUS
  62
5
  10
 1952.7297077299
  20
 1717.5000000010
  30
0.0
  11
 2005.2297077299
  21
 1770.0000000010
  31
0.0
   0
LINE
   5
282
 100
AcDbEntity
   8
LEVEL001
 370
9
 100
AcDbLine
   6
CONTINUOUS
  62
5
  10
 1957.5000000002
  20
 1770.0000000010
  30
0.0
  11
 1928.8648538650
  21
 1741.3648538658
  31
0.0
   0
LINE
   5
283
 100
AcDbEntity
   8
LEVEL001
 370
9
 100
AcDbLine
   6
CONTINUOUS
  62
5
  10
 1936.8198051530
  20
 1733.4099025777
  30
0.0
  11
 1973.4099025762
  21
 1770.0000000010
  31
0.0
   0
LINE
   5
284
 100
AcDbEntity
   8
LEVEL001
 370
9
 100
AcDbLine
   6
CONTINUOUS
  62
5
  10
 1989.3198051538
  20
 1770.0000000010
  30
0.0
  11
 1944.7747564418
  21
 1725.4549512890
  31
0.0
   0
LINE
   5
285
 100
AcDbEntity
   8
LEVEL001
 370
9
 100
AcDbLine
   6
CONTINUOUS
  62
5
  10
 2010.0000000005
  20
 1717.5000000010
  30
0.0
  11
 1981.3648538652
  21
 1746.1351461362
  31
0.0
   0
LINE
   5
286
 100
AcDbEntity
   8
LEVEL001
 370
9
 100
AcDbLine
   6
CONTINUOUS
  62
5
  10
 1989.3198051534
  20
 1754.0900974245
  30
0.0
  11
 2025.9099025769
  21
 1717.5000000010
  31
0.0
   0
LINE
   5
287
 100
AcDbEntity
   8
LEVEL001
 370
9
 100
AcDbLine
   6
CONTINUOUS
  62
5
  10
 2041.8198051533
  20
 1717.5000000010
  30
0.0
  11
 1997.2747564416
  21
 1762.0450487127
  31
0.0
   0
LINE
   5
288
 100
AcDbEntity
   8
LEVEL001
 370
9
 100
AcDbLine
   6
CONTINUOUS
  62
5
  10
 2005.2297077299
  20
 1770.0000000010
  30
0.0
  11
 2057.7297077301
  21
 1717.5000000010
  31
0.0
   0
LINE
   5
289
 100
AcDbEntity
   8
LEVEL001
 370
9
 100
AcDbLine
   6
CONTINUOUS
  62
5
  10
 1250.0000000000
  20
 1770.0000000010
  30
0.0
  11
 950.00006523496
  21
 1770.0000000010
  31
0.0
   0
LINE
   5
28A
 100
AcDbEntity
   8
LEVEL001
 370
9
 100
AcDbLine
   6
CONTINUOUS
  62
5
  10
 1750.0000000000
  20
 1770.0000000010
  30
0.0
  11
 2050.0000652350
  21
 1770.0000000010
  31
0.0
   0
LINE
   5
28B
 100
AcDbEntity
   8
LEVEL001
 370
9
 100
AcDbLine
   6
CONTINUOUS
  62
5
  10
 2244.9999999998
  20
 1717.5000000010
  30
0.0
  11
 2297.4999999998
  21
 1770.0000000010
  31
0.0
   0
LINE
   5
28C
 100
AcDbEntity
   8
LEVEL001
 370
9
 100
AcDbLine
   6
CONTINUOUS
  62
5
  10
 2229.0900974230
  20
 1733.4099025777
  30
0.0
  11
 2265.6801948462
  21
 1770.0000000010
  31
0.0
   0
LINE
   5
28D
 100
AcDbEntity
   8
LEVEL001
 370
9
 100
AcDbLine
   6
CONTINUOUS
  62
5
  10
 2281.5900974238
  20
 1770.0000000010
  30
0.0
  11
 2237.0450487118
  21
 1725.4549512890
  31
0.0
   0
LINE
   5
28E
 100
AcDbEntity
   8
LEVEL001
 370
9
 100
AcDbLine
   6
CONTINUOUS
  62
5
  10
 2302.2702922704
  20
 1717.5000000010
  30
0.0
  11
 2273.6351461351
  21
 1746.1351461362
  31
0.0
   0
LINE
   5
28F
 100
AcDbEntity
   8
LEVEL001
 370
9
 100
AcDbLine
   6
CONTINUOUS
  62
5
  10
 2281.5900974233
  20
 1754.0900974245
  30
0.0
  11
 2318.1801948468
  21
 1717.5000000010
  31
0.0
   0
LINE
   5
290
 100
AcDbEntity
   8
LEVEL001
 370
9
 100
AcDbLine
   6
CONTINUOUS
  62
5
  10
 2334.0900974233
  20
 1717.5000000010
  30
0.0
  11
 2289.5450487115
  21
 1762.0450487127
  31
0.0
   0
LINE
   5
291
 100
AcDbEntity
   8
LEVEL001
 370
9
 100
AcDbLine
   6
CONTINUOUS
  62
5
  10
 2297.4999999998
  20
 1770.0000000010
  30
0.0
  11
 2350.0000000000
  21
 1717.5000000010
  31
0.0
   0
LINE
   5
292
 100
AcDbEntity
   8
LEVEL001
 370
9
 100
AcDbLine
   6
CONTINUOUS
  62
5
  10
 2144.7702922699
  20
 1770.0000000010
  30
0.0
  11
 2092.2702922699
  21
 1717.5000000010
  31
0.0
   0
LINE
   5
293
 100
AcDbEntity
   8
LEVEL001
 370
9
 100
AcDbLine
   6
CONTINUOUS
  62
5
  10
 2108.1801948460
  20
 1717.5000000010
  30
0.0
  11
 2160.6801948460
  21
 1770.0000000010
  31
0.0
   0
LINE
   5
294
 100
AcDbEntity
   8
LEVEL001
 370
9
 100
AcDbLine
   6
CONTINUOUS
  62
5
  10
 2176.5900974236
  20
 1770.0000000010
  30
0.0
  11
 2124.0900974236
  21
 1717.5000000010
  31
0.0
   0
LINE
   5
295
 100
AcDbEntity
   8
LEVEL001
 370
9
 100
AcDbLine
   6
CONTINUOUS
  62
5
  10
 2139.9999999996
  20
 1717.5000000010
  30
0.0
  11
 2192.4999999996
  21
 1770.0000000010
  31
0.0
   0
LINE
   5
296
 100
AcDbEntity
   8
LEVEL001
 370
9
 100
AcDbLine
   6
CONTINUOUS
  62
5
  10
 2197.2702922702
  20
 1717.5000000010
  30
0.0
  11
 2168.6351461349
  21
 1746.1351461362
  31
0.0
   0
LINE
   5
297
 100
AcDbEntity
   8
LEVEL001
 370
9
 100
AcDbLine
   6
CONTINUOUS
  62
5
  10
 2176.5900974231
  20
 1754.0900974245
  30
0.0
  11
 2213.1801948467
  21
 1717.5000000010
  31
0.0
   0
LINE
   5
298
 100
AcDbEntity
   8
LEVEL001
 370
9
 100
AcDbLine
   6
CONTINUOUS
  62
5
  10
 2229.0900974231
  20
 1717.5000000010
  30
0.0
  11
 2184.5450487114
  21
 1762.0450487127
  31
0.0
   0
LINE
   5
299
 100
AcDbEntity
   8
LEVEL001
 370
9
 100
AcDbLine
   6
CONTINUOUS
  62
5
  10
 2192.4999999996
  20
 1770.0000000010
  30
0.0
  11
 2244.9999999998
  21
 1717.5000000010
  31
0.0
   0
LINE
   5
29A
 100
AcDbEntity
   8
LEVEL001
 370
9
 100
AcDbLine
   6
CONTINUOUS
  62
5
  10
 2249.7702922701
  20
 1770.0000000010
  30
0.0
  11
 2221.1351461349
  21
 1741.3648538658
  31
0.0
   0
LINE
   5
29B
 100
AcDbEntity
   8
LEVEL001
 370
9
 100
AcDbLine
   6
CONTINUOUS
  62
5
  10
 3002.5000000000
  20
 1770.0000000010
  30
0.0
  11
 2950.0000000000
  21
 1717.5000000010
  31
0.0
   0
LINE
   5
29C
 100
AcDbEntity
   8
LEVEL001
 370
9
 100
AcDbLine
   6
CONTINUOUS
  62
5
  10
 2965.9099025760
  20
 1717.5000000010
  30
0.0
  11
 3018.4099025760
  21
 1770.0000000010
  31
0.0
   0
LINE
   5
29D
 100
AcDbEntity
   8
LEVEL001
 370
9
 100
AcDbLine
   6
CONTINUOUS
  62
5
  10
 3034.3198051536
  20
 1770.0000000010
  30
0.0
  11
 2981.8198051536
  21
 1717.5000000010
  31
0.0
   0
LINE
   5
29E
 100
AcDbEntity
   8
LEVEL001
 370
9
 100
AcDbLine
   6
CONTINUOUS
  62
5
  10
 2997.7297077297
  20
 1717.5000000010
  30
0.0
  11
 3050.2297077297
  21
 1770.0000000010
  31
0.0
   0
LINE
   5
29F
 100
AcDbEntity
   8
LEVEL001
 370
9
 100
AcDbLine
   6
CONTINUOUS
  62
5
  10
 3055.0000000003
  20
 1717.5000000010
  30
0.0
  11
 3026.3648538650
  21
 1746.1351461362
  31
0.0
   0
LINE
   5
2A0
 100
AcDbEntity
   8
LEVEL001
 370
9
 100
AcDbLine
   6
CONTINUOUS
  62
5
  10
 3034.3198051532
  20
 1754.0900974245
  30
0.0
  11
 3070.9099025767
  21
 1717.5000000010
  31
0.0
   0
LINE
   5
2A1
 100
AcDbEntity
   8
LEVEL001
 370
9
 100
AcDbLine
   6
CONTINUOUS
  62
5
  10
 3086.8198051531
  20
 1717.5000000010
  30
0.0
  11
 3042.2747564414
  21
 1762.0450487127
  31
0.0
   0
LINE
   5
2A2
 100
AcDbEntity
   8
LEVEL001
 370
9
 100
AcDbLine
   6
CONTINUOUS
  62
5
  10
 3050.2297077297
  20
 1770.0000000010
  30
0.0
  11
 3102.7297077299
  21
 1717.5000000010
  31
0.0
   0
LINE
   5
2A3
 100
AcDbEntity
   8
LEVEL001
 370
9
 100
AcDbLine
   6
CONTINUOUS
  62
5
  10
 3102.7297077299
  20
 1717.5000000010
  30
0.0
  11
 3155.2297077299
  21
 1770.0000000010
  31
0.0
   0
LINE
   5
2A4
 100
AcDbEntity
   8
LEVEL001
 370
9
 100
AcDbLine
   6
CONTINUOUS
  62
5
  10
 3107.5000000002
  20
 1770.0000000010
  30
0.0
  11
 3078.8648538650
  21
 1741.3648538658
  31
0.0
   0
LINE
   5
2A5
 100
AcDbEntity
   8
LEVEL001
 370
9
 100
AcDbLine
   6
CONTINUOUS
  62
5
  10
 3086.8198051530
  20
 1733.4099025777
  30
0.0
  11
 3123.4099025762
  21
 1770.0000000010
  31
0.0
   0
LINE
   5
2A6
 100
AcDbEntity
   8
LEVEL001
 370
9
 100
AcDbLine
   6
CONTINUOUS
  62
5
  10
 3139.3198051538
  20
 1770.0000000010
  30
0.0
  11
 3094.7747564418
  21
 1725.4549512890
  31
0.0
   0
LINE
   5
2A7
 100
AcDbEntity
   8
LEVEL001
 370
9
 100
AcDbLine
   6
CONTINUOUS
  62
5
  10
 3160.0000000005
  20
 1717.5000000010
  30
0.0
  11
 3131.3648538652
  21
 1746.1351461362
  31
0.0
   0
LINE
   5
2A8
 100
AcDbEntity
   8
LEVEL001
 370
9
 100
AcDbLine
   6
CONTINUOUS
  62
5
  10
 3139.3198051534
  20
 1754.0900974245
  30
0.0
  11
 3175.9099025769
  21
 1717.5000000010
  31
0.0
   0
LINE
   5
2A9
 100
AcDbEntity
   8
LEVEL001
 370
9
 100
AcDbLine
   6
CONTINUOUS
  62
5
  10
 3191.8198051533
  20
 1717.5000000010
  30
0.0
  11
 3147.2747564416
  21
 1762.0450487127
  31
0.0
   0
LINE
   5
2AA
 100
AcDbEntity
   8
LEVEL001
 370
9
 100
AcDbLine
   6
CONTINUOUS
  62
5
  10
 3155.2297077299
  20
 1770.0000000010
  30
0.0
  11
 3207.7297077301
  21
 1717.5000000010
  31
0.0
   0
MTEXT
   5
2AC
 100
AcDbEntity
   8
LEVEL001
 370
13
  62
1
 100
AcDbMText
  10
 2220.6486704444
  20
 1778.7299370413
  30
0.0
  40
 40.000000000000
  41
0.0
  71
7
  72
1
   1
\T1.000000;ＧＬ
   7
GMM005
  44
 0.79999984000003
   0
LWPOLYLINE
   5
2AD
 100
AcDbEntity
   8
LEVEL001
 370
13
   6
CONTINUOUS
  62
1
 100
AcDbPolyline
  90
3
  70
1
  10
 2192.4999999996
  20
 1770.0000000010
  10
 2167.4999999996
  20
 1820.0000000010
  10
 2217.4999999996
  20
 1820.0000000010
   0
MTEXT
   5
2AE
 100
AcDbEntity
   8
LEVEL001
 370
13
  62
1
 100
AcDbMText
  10
 1448.8125000002
  20
 3823.2500000010
  30
0.0
  40
 80.000000000000
  41
0.0
  71
4
  72
1
   1
{\T1.000000;注}\P{\T1.000000;意}
   7
GMM006
  44
 0.79999984000003
   0
LWPOLYLINE
   5
2AF
 100
AcDbEntity
   8
LEVEL001
 370
25
   6
CONTINUOUS
  62
7
 100
AcDbPolyline
  90
4
  70
0
  10
 1461.8500000000
  20
 3670.0000000010
  10
 1461.8500000000
  20
 770.00000000095
  10
 1538.1500000000
  20
 770.00000000095
  10
 1538.1500000000
  20
 3670.0000000010
   0
LWPOLYLINE
   5
2B0
 100
AcDbEntity
   8
LEVEL001
 370
9
   6
CONTINUOUS
  62
5
 100
AcDbPolyline
  90
6
  70
0
  10
 1461.8500000000
  20
 1770.0000000010
  10
 1250.0000000000
  20
 1770.0000000010
  10
 1250.0000000000
  20
 770.00000000095
  10
 1750.0000000000
  20
 770.00000000095
  10
 1750.0000000000
  20
 1770.0000000010
  10
 1538.1500000000
  20
 1770.0000000010
   0
LINE
   5
2B1
 100
AcDbEntity
   8
LEVEL001
 370
9
 100
AcDbLine
   6
CONTINUOUS
  62
5
  10
 1400.0000000000
  20
 770.00000000095
  30
0.0
  11
 1350.0000000000
  21
 670.00000000095
  31
0.0
   0
LINE
   5
2B2
 100
AcDbEntity
   8
LEVEL001
 370
9
 100
AcDbLine
   6
CONTINUOUS
  62
5
  10
 1350.0000000000
  20
 770.00000000095
  30
0.0
  11
 1390.0000000000
  21
 750.00000000095
  31
0.0
   0
LINE
   5
2B3
 100
AcDbEntity
   8
LEVEL001
 370
9
 100
AcDbLine
   6
CONTINUOUS
  62
5
  10
 1350.0000000000
  20
 770.00000000095
  30
0.0
  11
 1300.0000000000
  21
 670.00000000095
  31
0.0
   0
LINE
   5
2B4
 100
AcDbEntity
   8
LEVEL001
 370
9
 100
AcDbLine
   6
CONTINUOUS
  62
5
  10
 1300.0000000000
  20
 770.00000000095
  30
0.0
  11
 1340.0000000000
  21
 750.00000000095
  31
0.0
   0
LINE
   5
2B5
 100
AcDbEntity
   8
LEVEL001
 370
9
 100
AcDbLine
   6
CONTINUOUS
  62
5
  10
 1300.0000000000
  20
 770.00000000095
  30
0.0
  11
 1250.0000000000
  21
 670.00000000095
  31
0.0
   0
LINE
   5
2B6
 100
AcDbEntity
   8
LEVEL001
 370
9
 100
AcDbLine
   6
CONTINUOUS
  62
5
  10
 1250.0000000000
  20
 770.00000000095
  30
0.0
  11
 1290.0000000000
  21
 750.00000000095
  31
0.0
   0
LINE
   5
2B7
 100
AcDbEntity
   8
LEVEL001
 370
9
 100
AcDbLine
   6
CONTINUOUS
  62
5
  10
 1400.0000000000
  20
 670.00000000095
  30
0.0
  11
 1360.0000000000
  21
 690.00000000095
  31
0.0
   0
LINE
   5
2B8
 100
AcDbEntity
   8
LEVEL001
 370
9
 100
AcDbLine
   6
CONTINUOUS
  62
5
  10
 1350.0000000000
  20
 670.00000000095
  30
0.0
  11
 1310.0000000000
  21
 690.00000000095
  31
0.0
   0
LINE
   5
2B9
 100
AcDbEntity
   8
LEVEL001
 370
9
 100
AcDbLine
   6
CONTINUOUS
  62
5
  10
 1300.0000000000
  20
 670.00000000095
  30
0.0
  11
 1260.0000000000
  21
 690.00000000095
  31
0.0
   0
LINE
   5
2BA
 100
AcDbEntity
   8
LEVEL001
 370
9
 100
AcDbLine
   6
CONTINUOUS
  62
5
  10
 1750.0000000000
  20
 770.00000000095
  30
0.0
  11
 1700.0000000000
  21
 670.00000000095
  31
0.0
   0
LINE
   5
2BB
 100
AcDbEntity
   8
LEVEL001
 370
9
 100
AcDbLine
   6
CONTINUOUS
  62
5
  10
 1700.0000000000
  20
 770.00000000095
  30
0.0
  11
 1740.0000000000
  21
 750.00000000095
  31
0.0
   0
LINE
   5
2BC
 100
AcDbEntity
   8
LEVEL001
 370
9
 100
AcDbLine
   6
CONTINUOUS
  62
5
  10
 1700.0000000000
  20
 770.00000000095
  30
0.0
  11
 1650.0000000000
  21
 670.00000000095
  31
0.0
   0
LINE
   5
2BD
 100
AcDbEntity
   8
LEVEL001
 370
9
 100
AcDbLine
   6
CONTINUOUS
  62
5
  10
 1650.0000000000
  20
 770.00000000095
  30
0.0
  11
 1690.0000000000
  21
 750.00000000095
  31
0.0
   0
LINE
   5
2BE
 100
AcDbEntity
   8
LEVEL001
 370
9
 100
AcDbLine
   6
CONTINUOUS
  62
5
  10
 1750.0000000000
  20
 670.00000000095
  30
0.0
  11
 1710.0000000000
  21
 690.00000000095
  31
0.0
   0
LINE
   5
2BF
 100
AcDbEntity
   8
LEVEL001
 370
9
 100
AcDbLine
   6
CONTINUOUS
  62
5
  10
 1700.0000000000
  20
 670.00000000095
  30
0.0
  11
 1660.0000000000
  21
 690.00000000095
  31
0.0
   0
LINE
   5
2C0
 100
AcDbEntity
   8
LEVEL001
 370
9
 100
AcDbLine
   6
CONTINUOUS
  62
5
  10
 1650.0000000000
  20
 770.00000000095
  30
0.0
  11
 1600.0000000000
  21
 670.00000000095
  31
0.0
   0
LINE
   5
2C1
 100
AcDbEntity
   8
LEVEL001
 370
9
 100
AcDbLine
   6
CONTINUOUS
  62
5
  10
 1600.0000000000
  20
 770.00000000095
  30
0.0
  11
 1640.0000000000
  21
 750.00000000095
  31
0.0
   0
LINE
   5
2C2
 100
AcDbEntity
   8
LEVEL001
 370
9
 100
AcDbLine
   6
CONTINUOUS
  62
5
  10
 1650.0000000000
  20
 670.00000000095
  30
0.0
  11
 1610.0000000000
  21
 690.00000000095
  31
0.0
   0
LWPOLYLINE
   5
2C3
 100
AcDbEntity
   8
LEVEL001
 370
9
   6
CONTINUOUS
  62
5
 100
AcDbPolyline
  90
4
  70
1
  10
 1750.0000000000
  20
 770.00000000095
  10
 1250.0000000000
  20
 770.00000000095
  10
 1250.0000000000
  20
 670.00000000095
  10
 1750.0000000000
  20
 670.00000000095
   0
LINE
   5
2C4
 100
AcDbEntity
   8
LEVEL001
 370
9
 100
AcDbLine
   6
DASHDOT
  62
6
  10
 1439.9999819144
  20
 1170.0000000010
  30
0.0
  11
 1559.9999819144
  21
 1170.0000000010
  31
0.0
   0
CIRCLE
   5
2C5
 100
AcDbEntity
   8
LEVEL001
 370
25
 100
AcDbCircle
   6
CONTINUOUS
  62
7
  10
 1499.9999661979
  20
 1070.0000000010
  30
0.0
  40
 7.5000000000000
   0
LINE
   5
2C6
 100
AcDbEntity
   8
LEVEL001
 370
9
 100
AcDbLine
   6
DASHDOT
  62
6
  10
 1469.9999661979
  20
 1070.0000000010
  30
0.0
  11
 1529.9999661979
  21
 1070.0000000010
  31
0.0
   0
DIMENSION
   5
2C7
 100
AcDbEntity
   8
LEVEL001
 370
9
   6
CONTINUOUS
  62
6
 100
AcDbDimension
   2
*D20
  10
 1750.0000000000
  20
 420.00000000095
  30
0.0
  11
 1500.0000000000
  21
 420.00000000095
  31
0.0
  70
0
   3
GMM006
 100
AcDbAlignedDimension
  13
 1250.0000000000
  23
 670.00000000095
  33
0.0
  14
 1750.0000000000
  24
 670.00000000095
  34
0.0
 100
AcDbRotatedDimension
   0
LINE
   5
2C8
 100
AcDbEntity
   8
LEVEL001
 370
9
 100
AcDbLine
   6
CONTINUOUS
  62
5
  10
 1750.0000000000
  20
 1505.3553390605
  30
0.0
  11
 1538.1500000000
  21
 1293.5053390605
  31
0.0
   0
LINE
   5
2C9
 100
AcDbEntity
   8
LEVEL001
 370
9
 100
AcDbLine
   6
CONTINUOUS
  62
5
  10
 1538.1500000000
  20
 1258.1500000012
  30
0.0
  11
 1750.0000000000
  21
 1470.0000000012
  31
0.0
   0
LINE
   5
2CA
 100
AcDbEntity
   8
LEVEL001
 370
9
 100
AcDbLine
   6
CONTINUOUS
  62
5
  10
 1750.0000000000
  20
 1434.6446609419
  30
0.0
  11
 1538.1500000000
  21
 1222.7946609419
  31
0.0
   0
LINE
   5
2CB
 100
AcDbEntity
   8
LEVEL001
 370
9
 100
AcDbLine
   6
CONTINUOUS
  62
5
  10
 1461.8500000000
  20
 1146.4946609419
  30
0.0
  11
 1250.0000000000
  21
 934.64466094186
  31
0.0
   0
LINE
   5
2CC
 100
AcDbEntity
   8
LEVEL001
 370
9
 100
AcDbLine
   6
CONTINUOUS
  62
5
  10
 2550.0000000000
  20
 770.00000000095
  30
0.0
  11
 2500.0000000000
  21
 670.00000000095
  31
0.0
   0
LINE
   5
2CD
 100
AcDbEntity
   8
LEVEL001
 370
9
 100
AcDbLine
   6
CONTINUOUS
  62
5
  10
 2500.0000000000
  20
 770.00000000095
  30
0.0
  11
 2540.0000000000
  21
 750.00000000095
  31
0.0
   0
LINE
   5
2CE
 100
AcDbEntity
   8
LEVEL001
 370
9
 100
AcDbLine
   6
CONTINUOUS
  62
5
  10
 2500.0000000000
  20
 770.00000000095
  30
0.0
  11
 2450.0000000000
  21
 670.00000000095
  31
0.0
   0
LINE
   5
2CF
 100
AcDbEntity
   8
LEVEL001
 370
9
 100
AcDbLine
   6
CONTINUOUS
  62
5
  10
 2450.0000000000
  20
 770.00000000095
  30
0.0
  11
 2490.0000000000
  21
 750.00000000095
  31
0.0
   0
LINE
   5
2D0
 100
AcDbEntity
   8
LEVEL001
 370
9
 100
AcDbLine
   6
CONTINUOUS
  62
5
  10
 2450.0000000000
  20
 770.00000000095
  30
0.0
  11
 2400.0000000000
  21
 670.00000000095
  31
0.0
   0
LINE
   5
2D1
 100
AcDbEntity
   8
LEVEL001
 370
9
 100
AcDbLine
   6
CONTINUOUS
  62
5
  10
 2400.0000000000
  20
 770.00000000095
  30
0.0
  11
 2440.0000000000
  21
 750.00000000095
  31
0.0
   0
LINE
   5
2D2
 100
AcDbEntity
   8
LEVEL001
 370
9
 100
AcDbLine
   6
CONTINUOUS
  62
5
  10
 2550.0000000000
  20
 670.00000000095
  30
0.0
  11
 2510.0000000000
  21
 690.00000000095
  31
0.0
   0
LINE
   5
2D3
 100
AcDbEntity
   8
LEVEL001
 370
9
 100
AcDbLine
   6
CONTINUOUS
  62
5
  10
 2500.0000000000
  20
 670.00000000095
  30
0.0
  11
 2460.0000000000
  21
 690.00000000095
  31
0.0
   0
LINE
   5
2D4
 100
AcDbEntity
   8
LEVEL001
 370
9
 100
AcDbLine
   6
CONTINUOUS
  62
5
  10
 2450.0000000000
  20
 670.00000000095
  30
0.0
  11
 2410.0000000000
  21
 690.00000000095
  31
0.0
   0
LINE
   5
2D5
 100
AcDbEntity
   8
LEVEL001
 370
9
 100
AcDbLine
   6
CONTINUOUS
  62
5
  10
 2900.0000000000
  20
 770.00000000095
  30
0.0
  11
 2850.0000000000
  21
 670.00000000095
  31
0.0
   0
LINE
   5
2D6
 100
AcDbEntity
   8
LEVEL001
 370
9
 100
AcDbLine
   6
CONTINUOUS
  62
5
  10
 2850.0000000000
  20
 770.00000000095
  30
0.0
  11
 2890.0000000000
  21
 750.00000000095
  31
0.0
   0
LINE
   5
2D7
 100
AcDbEntity
   8
LEVEL001
 370
9
 100
AcDbLine
   6
CONTINUOUS
  62
5
  10
 2850.0000000000
  20
 770.00000000095
  30
0.0
  11
 2800.0000000000
  21
 670.00000000095
  31
0.0
   0
LINE
   5
2D8
 100
AcDbEntity
   8
LEVEL001
 370
9
 100
AcDbLine
   6
CONTINUOUS
  62
5
  10
 2800.0000000000
  20
 770.00000000095
  30
0.0
  11
 2840.0000000000
  21
 750.00000000095
  31
0.0
   0
LINE
   5
2D9
 100
AcDbEntity
   8
LEVEL001
 370
9
 100
AcDbLine
   6
CONTINUOUS
  62
5
  10
 2900.0000000000
  20
 670.00000000095
  30
0.0
  11
 2860.0000000000
  21
 690.00000000095
  31
0.0
   0
LINE
   5
2DA
 100
AcDbEntity
   8
LEVEL001
 370
9
 100
AcDbLine
   6
CONTINUOUS
  62
5
  10
 2850.0000000000
  20
 670.00000000095
  30
0.0
  11
 2810.0000000000
  21
 690.00000000095
  31
0.0
   0
LINE
   5
2DB
 100
AcDbEntity
   8
LEVEL001
 370
9
 100
AcDbLine
   6
CONTINUOUS
  62
5
  10
 2800.0000000000
  20
 770.00000000095
  30
0.0
  11
 2750.0000000000
  21
 670.00000000095
  31
0.0
   0
LINE
   5
2DC
 100
AcDbEntity
   8
LEVEL001
 370
9
 100
AcDbLine
   6
CONTINUOUS
  62
5
  10
 2750.0000000000
  20
 770.00000000095
  30
0.0
  11
 2790.0000000000
  21
 750.00000000095
  31
0.0
   0
LINE
   5
2DD
 100
AcDbEntity
   8
LEVEL001
 370
9
 100
AcDbLine
   6
CONTINUOUS
  62
5
  10
 2800.0000000000
  20
 670.00000000095
  30
0.0
  11
 2760.0000000000
  21
 690.00000000095
  31
0.0
   0
LWPOLYLINE
   5
2DE
 100
AcDbEntity
   8
LEVEL001
 370
9
   6
CONTINUOUS
  62
5
 100
AcDbPolyline
  90
4
  70
1
  10
 2900.0000000000
  20
 770.00000000095
  10
 2400.0000000000
  20
 770.00000000095
  10
 2400.0000000000
  20
 670.00000000095
  10
 2900.0000000000
  20
 670.00000000095
   0
LWPOLYLINE
   5
2DF
 100
AcDbEntity
   8
LEVEL001
 370
25
   6
CONTINUOUS
  62
7
 100
AcDbPolyline
  90
4
  70
0
  10
 2611.8500000000
  20
 1077.5000000010
  10
 2539.9999819144
  20
 1077.5000000010
  10
 2539.9999819144
  20
 1062.5000000010
  10
 2611.8500000000
  20
 1062.5000000010
   0
LWPOLYLINE
   5
2E0
 100
AcDbEntity
   8
LEVEL001
 370
25
   6
CONTINUOUS
  62
7
 100
AcDbPolyline
  90
4
  70
0
  10
 2688.1500000000
  20
 1077.5000000010
  10
 2759.9999819144
  20
 1077.5000000010
  10
 2759.9999819144
  20
 1062.5000000010
  10
 2688.1500000000
  20
 1062.5000000010
   0
CIRCLE
   5
2E1
 100
AcDbEntity
   8
LEVEL001
 370
13
 100
AcDbCircle
   6
CONTINUOUS
  62
1
  10
 2275.0000000000
  20
 920.00000000095
  30
0.0
  40
 69.999997913838
   0
MTEXT
   5
2E3
 100
AcDbEntity
   8
LEVEL001
 370
25
  62
7
 100
AcDbMText
  10
 2275.0000000000
  20
 920.00000000095
  30
0.0
  40
 66.000000000000
  41
0.0
  71
5
  72
1
   1
\T1.000000;１３
   7
GMM003
  44
 0.79999984000003
   0
LEADER
   5
2E4
 100
AcDbEntity
   8
LEVEL001
 370
13
   6
CONTINUOUS
  62
1
 100
AcDbLeader
   3
GMM007
  73
3
  74
1
  75
0
  40
 66.000000000000
  41
0.0
  76
2
  10
 2539.9999819144
  20
 1062.5000000010
  30
0.0
  10
 2336.6516403026
  20
 953.15229940734
  30
0.0
  77
1
   0
DIMENSION
   5
2E5
 100
AcDbEntity
   8
LEVEL001
 370
9
   6
CONTINUOUS
  62
6
 100
AcDbDimension
   2
*D22
  10
 2900.0000000000
  20
 420.00000000095
  30
0.0
  11
 2650.0000000000
  21
 420.00000000095
  31
0.0
  70
0
   3
GMM008
 100
AcDbAlignedDimension
  13
 2400.0000000000
  23
 670.00000000095
  33
0.0
  14
 2900.0000000000
  24
 670.00000000095
  34
0.0
 100
AcDbRotatedDimension
   0
LINE
   5
2E6
 100
AcDbEntity
   8
LEVEL001
 370
9
 100
AcDbLine
   6
CONTINUOUS
  62
5
  10
 2900.0000000000
  20
 1505.3553390605
  30
0.0
  11
 2688.1500000000
  21
 1293.5053390605
  31
0.0
   0
LINE
   5
2E7
 100
AcDbEntity
   8
LEVEL001
 370
9
 100
AcDbLine
   6
CONTINUOUS
  62
5
  10
 2611.8500000000
  20
 1217.2053390605
  30
0.0
  11
 2400.0000000000
  21
 1005.3553390605
  31
0.0
   0
LINE
   5
2E8
 100
AcDbEntity
   8
LEVEL001
 370
9
 100
AcDbLine
   6
CONTINUOUS
  62
5
  10
 2688.1500000000
  20
 1258.1500000012
  30
0.0
  11
 2900.0000000000
  21
 1470.0000000012
  31
0.0
   0
LINE
   5
2E9
 100
AcDbEntity
   8
LEVEL001
 370
9
 100
AcDbLine
   6
CONTINUOUS
  62
5
  10
 2400.0000000000
  20
 970.00000000119
  30
0.0
  11
 2611.8500000000
  21
 1181.8500000012
  31
0.0
   0
LINE
   5
2EA
 100
AcDbEntity
   8
LEVEL001
 370
9
 100
AcDbLine
   6
CONTINUOUS
  62
5
  10
 2900.0000000000
  20
 1434.6446609419
  30
0.0
  11
 2688.1500000000
  21
 1222.7946609419
  31
0.0
   0
LINE
   5
2EB
 100
AcDbEntity
   8
LEVEL001
 370
9
 100
AcDbLine
   6
CONTINUOUS
  62
5
  10
 2611.8500000000
  20
 1146.4946609419
  30
0.0
  11
 2400.0000000000
  21
 934.64466094186
  31
0.0
   0
ARC
   5
2EC
 100
AcDbEntity
   8
LEVEL001
 370
25
   6
CONTINUOUS
  62
7
 100
AcDbCircle
  10
 2661.8500000000
  20
 2136.0218857113
  30
0.0
  40
 300.00000000000
 100
AcDbArc
  50
 322.12501634890
  51
0.0
   0
ARC
   5
2ED
 100
AcDbEntity
   8
LEVEL001
 370
25
   6
CONTINUOUS
  62
7
 100
AcDbCircle
  10
 2988.1500000000
  20
 1453.9781142905
  30
0.0
  40
 300.00000000000
 100
AcDbArc
  50
 142.12501634890
  51
 180.00000000000
   0
ARC
   5
2EE
 100
AcDbEntity
   8
LEVEL001
 370
9
   6
DASHDOT
  62
6
 100
AcDbCircle
  10
 2661.8500000000
  20
 2136.0218857113
  30
0.0
  40
 338.15000000000
 100
AcDbArc
  50
 322.12501634890
  51
0.0
   0
LINE
   5
2EF
 100
AcDbEntity
   8
LEVEL001
 370
9
 100
AcDbLine
   6
DASHDOT
  62
6
  10
 2721.2305476942
  20
 1661.5821327506
  30
0.0
  11
 2928.7694523058
  21
 1928.4178672513
  31
0.0
   0
ARC
   5
2F0
 100
AcDbEntity
   8
LEVEL001
 370
9
   6
DASHDOT
  62
6
 100
AcDbCircle
  10
 2988.1500000000
  20
 1453.9781142906
  30
0.0
  40
 338.15000000000
 100
AcDbArc
  50
 142.12501634890
  51
 180.00000000000
   0
ARC
   5
2F1
 100
AcDbEntity
   8
LEVEL001
 370
25
   6
CONTINUOUS
  62
7
 100
AcDbCircle
  10
 2988.1500000000
  20
 1453.9781142905
  30
0.0
  40
 376.30000000000
 100
AcDbArc
  50
 142.12501634890
  51
 180.00000000000
   0
LINE
   5
2F2
 100
AcDbEntity
   8
LEVEL001
 370
25
 100
AcDbLine
   6
CONTINUOUS
  62
7
  10
 2898.6556652129
  20
 1951.8397016569
  30
0.0
  11
 2691.1167606013
  21
 1685.0039671562
  31
0.0
   0
LINE
   5
2F3
 100
AcDbEntity
   8
LEVEL001
 370
25
 100
AcDbLine
   6
CONTINUOUS
  62
7
  10
 2751.3443347871
  20
 1638.1602983450
  30
0.0
  11
 2958.8832393987
  21
 1904.9960328456
  31
0.0
   0
ARC
   5
2F4
 100
AcDbEntity
   8
LEVEL001
 370
25
   6
CONTINUOUS
  62
7
 100
AcDbCircle
  10
 2661.8500000000
  20
 2136.0218857113
  30
0.0
  40
 376.30000000000
 100
AcDbArc
  50
 322.12501634890
  51
0.0
   0
LWPOLYLINE
   5
2F5
 100
AcDbEntity
   8
LEVEL001
 370
25
   6
CONTINUOUS
  62
7
 100
AcDbPolyline
  90
4
  70
0
  10
 2611.8500000000
  20
 1453.9781142905
  10
 2611.8500000000
  20
 770.00000000095
  10
 2688.1500000000
  20
 770.00000000095
  10
 2688.1500000000
  20
 1453.9781142905
   0
CIRCLE
   5
2F6
 100
AcDbEntity
   8
LEVEL001
 370
25
 100
AcDbCircle
   6
CONTINUOUS
  62
7
  10
 2650.0000000000
  20
 1170.0000000010
  30
0.0
  40
 7.5000000000000
   0
LINE
   5
2F7
 100
AcDbEntity
   8
LEVEL001
 370
9
 100
AcDbLine
   6
DASHDOT
  62
6
  10
 2620.0000000000
  20
 1170.0000000010
  30
0.0
  11
 2680.0000000000
  21
 1170.0000000010
  31
0.0
   0
LINE
   5
2F8
 100
AcDbEntity
   8
LEVEL001
 370
9
 100
AcDbLine
   6
DASHDOT
  62
6
  10
 2590.0000000000
  20
 1070.0000000010
  30
0.0
  11
 2710.0000000000
  21
 1070.0000000010
  31
0.0
   0
DIMENSION
   5
2F9
 100
AcDbEntity
   8
LEVEL001
 370
9
   6
CONTINUOUS
  62
6
 100
AcDbDimension
   2
*D23
  10
 2650.0000000000
  20
 2420.0000000010
  30
0.0
  11
 2825.0000000000
  21
 2420.0000000010
  31
0.0
  70
0
   3
GMM009
 100
AcDbAlignedDimension
  13
 3000.0000000000
  23
 2420.0000000010
  33
0.0
  14
 2650.0000000000
  24
 1453.9781142906
  34
0.0
  50
 180.00000000000
 100
AcDbRotatedDimension
   0
LINE
   5
2FA
 100
AcDbEntity
   8
LEVEL001
 370
25
 100
AcDbLine
   6
CONTINUOUS
  62
7
  10
 3038.1500000000
  20
 3851.5000000010
  30
0.0
  11
 3038.1500000000
  21
 2136.0218857113
  31
0.0
   0
LINE
   5
2FB
 100
AcDbEntity
   8
LEVEL001
 370
25
 100
AcDbLine
   6
CONTINUOUS
  62
7
  10
 2961.8500000000
  20
 2136.0218857113
  30
0.0
  11
 2961.8500000000
  21
 3851.5000000010
  31
0.0
   0
LINE
   5
2FC
 100
AcDbEntity
   8
LEVEL001
 370
9
 100
AcDbLine
   6
CONTINUOUS
  62
5
  10
 1461.8500000000
  20
 1217.2053390605
  30
0.0
  11
 1250.0000000000
  21
 1005.3553390605
  31
0.0
   0
LINE
   5
2FD
 100
AcDbEntity
   8
LEVEL001
 370
9
 100
AcDbLine
   6
CONTINUOUS
  62
5
  10
 1250.0000000000
  20
 970.00000000119
  30
0.0
  11
 1461.8500000000
  21
 1181.8500000012
  31
0.0
   0
LINE
   5
2FE
 100
AcDbEntity
   8
LEVEL001
 370
9
 100
AcDbLine
   6
DASHDOT
  62
6
  10
 2650.0000000000
  20
 1453.9781142906
  30
0.0
  11
 2650.0000000000
  21
 653.39037477558
  31
0.0
   0
LWPOLYLINE
   5
2FF
 100
AcDbEntity
   8
LEVEL001
 370
9
   6
CONTINUOUS
  62
5
 100
AcDbPolyline
  90
4
  70
0
  10
 2400.0000000000
  20
 1770.0000000010
  10
 2400.0000000000
  20
 770.00000000095
  10
 2900.0000000000
  20
 770.00000000095
  10
 2900.0000000000
  20
 1770.0000000010
   0
LINE
   5
300
 100
AcDbEntity
   8
LEVEL001
 370
9
 100
AcDbLine
   6
CONTINUOUS
  62
5
  10
 2853.8863249640
  20
 1770.0000000010
  30
0.0
  11
 3200.0000652350
  21
 1770.0000000010
  31
0.0
   0
LINE
   5
301
 100
AcDbEntity
   8
LEVEL001
 370
9
 100
AcDbLine
   6
CONTINUOUS
  62
5
  10
 2757.2247861472
  20
 1770.0000000010
  30
0.0
  11
 2100.0000652350
  21
 1770.0000000010
  31
0.0
   0
LWPOLYLINE
   5
302
 100
AcDbEntity
   8
LEVEL001
 370
13
   6
CONTINUOUS
  62
1
 100
AcDbPolyline
  90
4
  70
1
  10
 3038.1500000000
  20
 4774.0000000010
  10
 2961.8500000000
  20
 4774.0000000010
  10
 2961.8500000000
  20
 4771.0000000010
  10
 3038.1500000000
  20
 4771.0000000010
   0
LWPOLYLINE
   5
303
 100
AcDbEntity
   8
LEVEL001
 370
9
   6
DOT
  62
6
 100
AcDbPolyline
  90
4
  70
0
  10
 3033.1500000000
  20
 4771.0000000010
  10
 3033.1500000000
  20
 4744.0000000010
  10
 2966.8500000000
  20
 4744.0000000010
  10
 2966.8500000000
  20
 4771.0000000010
   0
LWPOLYLINE
   5
304
 100
AcDbEntity
   8
LEVEL001
 370
9
   6
DOT
  62
6
 100
AcDbPolyline
  90
4
  70
0
  10
 1533.1500000000
  20
 4771.0000000010
  10
 1533.1500000000
  20
 4744.0000000010
  10
 1466.8500000000
  20
 4744.0000000010
  10
 1466.8500000000
  20
 4771.0000000010
   0
LWPOLYLINE
   5
305
 100
AcDbEntity
   8
LEVEL001
 370
13
   6
CONTINUOUS
  62
1
 100
AcDbPolyline
  90
4
  70
1
  10
 1538.1500000000
  20
 4774.0000000010
  10
 1461.8500000000
  20
 4774.0000000010
  10
 1461.8500000000
  20
 4771.0000000010
  10
 1538.1500000000
  20
 4771.0000000010
   0
LINE
   5
306
 100
AcDbEntity
   8
LEVEL001
 370
13
 100
AcDbLine
   6
DOT
  62
1
  10
 2688.1500000000
  20
 1062.5000000010
  30
0.0
  11
 2611.8500000000
  21
 1062.5000000010
  31
0.0
   0
LINE
   5
307
 100
AcDbEntity
   8
LEVEL001
 370
13
 100
AcDbLine
   6
DOT
  62
1
  10
 2611.8500000000
  20
 1077.5000000010
  30
0.0
  11
 2688.1500000000
  21
 1077.5000000010
  31
0.0
   0
LWPOLYLINE
   5
308
 100
AcDbEntity
   8
LEVEL001
 370
25
   6
CONTINUOUS
  62
7
 100
AcDbPolyline
  90
4
  70
1
  10
 440.00000000000
  20
 170.00000000000
  10
 440.00000000000
  20
 5770.0000000000
  10
 8226.6668701172
  20
 5770.0000000000
  10
 8226.6668701172
  20
 170.00000000000
   0
LINE
   5
309
 100
AcDbEntity
   8
LEVEL001
 370
13
 100
AcDbLine
   6
CONTINUOUS
  62
1
  10
 5710.9090909091
  20
 650.00000000000
  30
0.0
  11
 7350.9090909091
  21
 650.00000000000
  31
0.0
   0
MTEXT
   5
30B
 100
AcDbEntity
   8
LEVEL001
 370
13
  62
1
 100
AcDbMText
  10
 6250.7410879791
  20
 725.32208105106
  30
0.0
  40
 66.000000000000
  41
0.0
  71
5
  72
1
   1
\T1.000000;ＭＡ０６０ＷＣＰ
   7
GMM003
  44
 0.79999984000003
   0
MTEXT
   5
30C
 100
AcDbEntity
   8
LEVEL001
 370
13
  62
1
 100
AcDbMText
  10
 5733.8354978355
  20
 813.78497023809
  30
0.0
  40
 37.142857142857
  41
0.0
  71
7
  72
1
   1
\T1.269231;図面番号
   7
GMM007
  44
 0.79999984000003
   0
MTEXT
   5
30E
 100
AcDbEntity
   8
LEVEL001
 370
13
  62
1
 100
AcDbMText
  10
 5960.9090909091
  20
 1153.5736076959
  30
0.0
  40
 80.000000000000
  41
0.0
  71
7
  72
1
   1
\T1.000000;注意板
   7
GMM002
  44
 0.79999984000003
   0
MTEXT
   5
310
 100
AcDbEntity
   8
LEVEL001
 370
13
  62
1
 100
AcDbMText
  10
 7010.9090909091
  20
 1153.5736076959
  30
0.0
  40
 80.000000000000
  41
0.0
  71
7
  72
1
   1
\T1.000000;―
   7
GMM002
  44
 0.79999984000003
   0
MTEXT
   5
312
 100
AcDbEntity
   8
LEVEL001
 370
13
  62
1
 100
AcDbMText
  10
 7510.9090909091
  20
 1153.5736076959
  30
0.0
  40
 80.000000000000
  41
0.0
  71
7
  72
1
   1
\T1.000000;―
   7
GMM002
  44
 0.79999984000003
   0
MTEXT
   5
314
 100
AcDbEntity
   8
LEVEL001
 370
13
  62
1
 100
AcDbMText
  10
 5881.8880646631
  20
 1673.5736076959
  30
0.0
  40
 80.000000000000
  41
0.0
  71
9
  72
1
   1
\T1.000000;１２
   7
GMM001
  44
 0.79999984000003
   0
MTEXT
   5
316
 100
AcDbEntity
   8
LEVEL001
 370
13
  62
1
 100
AcDbMText
  10
 5881.8880646631
  20
 1803.5736076959
  30
0.0
  40
 80.000000000000
  41
0.0
  71
9
  72
1
   1
\T1.000000;１１
   7
GMM001
  44
 0.79999984000003
   0
MTEXT
   5
318
 100
AcDbEntity
   8
LEVEL001
 370
13
  62
1
 100
AcDbMText
  10
 5881.8880646631
  20
 1933.5736076959
  30
0.0
  40
 80.000000000000
  41
0.0
  71
9
  72
1
   1
\T1.000000;１０
   7
GMM001
  44
 0.79999984000003
   0
MTEXT
   5
31A
 100
AcDbEntity
   8
LEVEL001
 370
13
  62
1
 100
AcDbMText
  10
 5881.8880646631
  20
 2063.5736076959
  30
0.0
  40
 80.000000000000
  41
0.0
  71
9
  72
1
   1
\T1.000000;９
   7
GMM001
  44
 0.79999984000003
   0
MTEXT
   5
31C
 100
AcDbEntity
   8
LEVEL001
 370
13
  62
1
 100
AcDbMText
  10
 5881.8880646631
  20
 2193.5736076959
  30
0.0
  40
 80.000000000000
  41
0.0
  71
9
  72
1
   1
\T1.000000;８
   7
GMM001
  44
 0.79999984000003
   0
MTEXT
   5
31E
 100
AcDbEntity
   8
LEVEL001
 370
13
  62
1
 100
AcDbMText
  10
 5881.8880646631
  20
 2323.5736076959
  30
0.0
  40
 80.000000000000
  41
0.0
  71
9
  72
1
   1
\T1.000000;７
   7
GMM001
  44
 0.79999984000003
   0
MTEXT
   5
320
 100
AcDbEntity
   8
LEVEL001
 370
13
  62
1
 100
AcDbMText
  10
 5881.8880646631
  20
 2453.5736076959
  30
0.0
  40
 80.000000000000
  41
0.0
  71
9
  72
1
   1
\T1.000000;６
   7
GMM001
  44
 0.79999984000003
   0
MTEXT
   5
322
 100
AcDbEntity
   8
LEVEL001
 370
13
  62
1
 100
AcDbMText
  10
 5881.8880646631
  20
 2583.5736076959
  30
0.0
  40
 80.000000000000
  41
0.0
  71
9
  72
1
   1
\T1.000000;５
   7
GMM001
  44
 0.79999984000003
   0
MTEXT
   5
324
 100
AcDbEntity
   8
LEVEL001
 370
13
  62
1
 100
AcDbMText
  10
 5881.8880646631
  20
 2713.5736076959
  30
0.0
  40
 80.000000000000
  41
0.0
  71
9
  72
1
   1
\T1.000000;４
   7
GMM001
  44
 0.79999984000003
   0
MTEXT
   5
326
 100
AcDbEntity
   8
LEVEL001
 370
13
  62
1
 100
AcDbMText
  10
 5881.8880646631
  20
 2843.5736076959
  30
0.0
  40
 80.000000000000
  41
0.0
  71
9
  72
1
   1
\T1.000000;３
   7
GMM001
  44
 0.79999984000003
   0
MTEXT
   5
328
 100
AcDbEntity
   8
LEVEL001
 370
13
  62
1
 100
AcDbMText
  10
 5960.9090909091
  20
 2843.5736076959
  30
0.0
  40
 80.000000000000
  41
0.0
  71
7
  72
1
   1
\T1.000000;フード
   7
GMM002
  44
 0.79999984000003
   0
MTEXT
   5
32A
 100
AcDbEntity
   8
LEVEL001
 370
13
  62
1
 100
AcDbMText
  10
 5881.8880646631
  20
 2973.5736076959
  30
0.0
  40
 80.000000000000
  41
0.0
  71
9
  72
1
   1
\T1.000000;２
   7
GMM001
  44
 0.79999984000003
   0
MTEXT
   5
32C
 100
AcDbEntity
   8
LEVEL001
 370
13
  62
1
 100
AcDbMText
  10
 5960.9090909091
  20
 2973.5736076959
  30
0.0
  40
 80.000000000000
  41
0.0
  71
7
  72
1
   1
\T1.000000;バックプレート
   7
GMM002
  44
 0.79999984000003
   0
MTEXT
   5
32E
 100
AcDbEntity
   8
LEVEL001
 370
13
  62
1
 100
AcDbMText
  10
 5881.8880646631
  20
 3103.5736076959
  30
0.0
  40
 80.000000000000
  41
0.0
  71
9
  72
1
   1
\T1.000000;１
   7
GMM001
  44
 0.79999984000003
   0
MTEXT
   5
330
 100
AcDbEntity
   8
LEVEL001
 370
13
  62
1
 100
AcDbMText
  10
 5960.9090909091
  20
 3103.5736076959
  30
0.0
  40
 80.000000000000
  41
0.0
  71
7
  72
1
   1
\T1.000000;鏡面　Ｒ＝２２００
   7
GMM002
  44
 0.79999984000003
   0
MTEXT
   5
332
 100
AcDbEntity
   8
LEVEL001
 370
13
  62
1
 100
AcDbMText
  10
 6860.9090909091
  20
 3280.0000000000
  30
0.0
  40
 80.000000000000
  41
0.0
  71
5
  72
1
   1
\T1.000000;個数
   7
GMM002
  44
 0.79999984000003
   0
MTEXT
   5
334
 100
AcDbEntity
   8
LEVEL001
 370
13
  62
1
 100
AcDbMText
  10
 7210.9090909091
  20
 3280.0000000000
  30
0.0
  40
 80.000000000000
  41
0.0
  71
5
  72
1
   1
\T1.000000;材　　質
   7
GMM002
  44
 0.79999984000003
   0
MTEXT
   5
336
 100
AcDbEntity
   8
LEVEL001
 370
13
  62
1
 100
AcDbMText
  10
 6335.9090909091
  20
 3280.0000000000
  30
0.0
  40
 80.000000000000
  41
0.0
  71
5
  72
1
   1
\T1.000000;名　　称
   7
GMM002
  44
 0.79999984000003
   0
LINE
   5
337
 100
AcDbEntity
   8
LEVEL001
 370
9
 100
AcDbLine
   6
CONTINUOUS
  62
6
  10
 5710.9090909091
  20
 1780.0000000000
  30
0.0
  11
 8226.6668701172
  21
 1780.0000000000
  31
0.0
   0
LINE
   5
338
 100
AcDbEntity
   8
LEVEL001
 370
9
 100
AcDbLine
   6
CONTINUOUS
  62
6
  10
 5710.9090909091
  20
 1910.0000000000
  30
0.0
  11
 8226.6668701172
  21
 1910.0000000000
  31
0.0
   0
LINE
   5
339
 100
AcDbEntity
   8
LEVEL001
 370
9
 100
AcDbLine
   6
CONTINUOUS
  62
6
  10
 5710.9090909091
  20
 2040.0000000000
  30
0.0
  11
 8226.6668701172
  21
 2040.0000000000
  31
0.0
   0
LINE
   5
33A
 100
AcDbEntity
   8
LEVEL001
 370
9
 100
AcDbLine
   6
CONTINUOUS
  62
6
  10
 5710.9090909091
  20
 2170.0000000000
  30
0.0
  11
 8226.6668701172
  21
 2170.0000000000
  31
0.0
   0
LINE
   5
33B
 100
AcDbEntity
   8
LEVEL001
 370
9
 100
AcDbLine
   6
CONTINUOUS
  62
6
  10
 5710.9090909091
  20
 2300.0000000000
  30
0.0
  11
 8226.6668701172
  21
 2300.0000000000
  31
0.0
   0
LINE
   5
33C
 100
AcDbEntity
   8
LEVEL001
 370
9
 100
AcDbLine
   6
CONTINUOUS
  62
6
  10
 5710.9090909091
  20
 2430.0000000000
  30
0.0
  11
 8226.6668701172
  21
 2430.0000000000
  31
0.0
   0
LINE
   5
33D
 100
AcDbEntity
   8
LEVEL001
 370
9
 100
AcDbLine
   6
CONTINUOUS
  62
6
  10
 5710.9090909091
  20
 2560.0000000000
  30
0.0
  11
 8226.6668701172
  21
 2560.0000000000
  31
0.0
   0
LINE
   5
33E
 100
AcDbEntity
   8
LEVEL001
 370
9
 100
AcDbLine
   6
CONTINUOUS
  62
6
  10
 5710.9090909091
  20
 2690.0000000000
  30
0.0
  11
 8226.6668701172
  21
 2690.0000000000
  31
0.0
   0
LINE
   5
33F
 100
AcDbEntity
   8
LEVEL001
 370
9
 100
AcDbLine
   6
CONTINUOUS
  62
6
  10
 5710.9090909091
  20
 2820.0000000000
  30
0.0
  11
 8226.6668701172
  21
 2820.0000000000
  31
0.0
   0
LINE
   5
340
 100
AcDbEntity
   8
LEVEL001
 370
9
 100
AcDbLine
   6
CONTINUOUS
  62
6
  10
 5710.9090909091
  20
 2950.0000000000
  30
0.0
  11
 8226.6668701172
  21
 2950.0000000000
  31
0.0
   0
LINE
   5
341
 100
AcDbEntity
   8
LEVEL001
 370
9
 100
AcDbLine
   6
CONTINUOUS
  62
6
  10
 5710.9090909091
  20
 3080.0000000000
  30
0.0
  11
 8226.6668701172
  21
 3080.0000000000
  31
0.0
   0
LINE
   5
342
 100
AcDbEntity
   8
LEVEL001
 370
9
 100
AcDbLine
   6
CONTINUOUS
  62
6
  10
 5710.9090909091
  20
 3210.0000000000
  30
0.0
  11
 8226.6668701172
  21
 3210.0000000000
  31
0.0
   0
LINE
   5
343
 100
AcDbEntity
   8
LEVEL001
 370
9
 100
AcDbLine
   6
CONTINUOUS
  62
6
  10
 5710.9090909091
  20
 3350.0000000000
  30
0.0
  11
 8226.6668701172
  21
 3350.0000000000
  31
0.0
   0
LINE
   5
344
 100
AcDbEntity
   8
LEVEL001
 370
9
 100
AcDbLine
   6
CONTINUOUS
  62
6
  10
 5710.9090909091
  20
 3650.0000000000
  30
0.0
  11
 8226.6668701172
  21
 3650.0000000000
  31
0.0
   0
MTEXT
   5
346
 100
AcDbEntity
   8
LEVEL001
 370
13
  62
1
 100
AcDbMText
  10
 5876.3369483847
  20
 3392.1545397593
  30
0.0
  40
 80.000000000000
  41
0.0
  71
7
  72
1
   1
%%c\T1.000000;６００（ダブル）
   7
GMM004
  44
 0.79999984000003
   0
MTEXT
   5
348
 100
AcDbEntity
   8
LEVEL001
 370
13
  62
1
 100
AcDbMText
  10
 6931.8880646631
  20
 3103.5736076959
  30
0.0
  40
 80.000000000000
  41
0.0
  71
9
  72
1
   1
\T1.000000;２
   7
GMM002
  44
 0.79999984000003
   0
MTEXT
   5
34A
 100
AcDbEntity
   8
LEVEL001
 370
13
  62
1
 100
AcDbMText
  10
 6931.8880646631
  20
 2973.5736076959
  30
0.0
  40
 80.000000000000
  41
0.0
  71
9
  72
1
   1
\T1.000000;２
   7
GMM002
  44
 0.79999984000003
   0
MTEXT
   5
34C
 100
AcDbEntity
   8
LEVEL001
 370
13
  62
1
 100
AcDbMText
  10
 6931.8880646631
  20
 2843.5736076959
  30
0.0
  40
 80.000000000000
  41
0.0
  71
9
  72
1
   1
\T1.000000;２
   7
GMM002
  44
 0.79999984000003
   0
MTEXT
   5
34E
 100
AcDbEntity
   8
LEVEL001
 370
13
  62
1
 100
AcDbMText
  10
 7010.9090909091
  20
 2063.5736076959
  30
0.0
  40
 80.000000000000
  41
0.0
  71
7
  72
1
   1
\T1.000000;ＳＳ４００
   7
GMM002
  44
 0.79999984000003
   0
MTEXT
   5
350
 100
AcDbEntity
   8
LEVEL001
 370
13
  62
1
 100
AcDbMText
  10
 7510.9090909091
  20
 2063.5736076959
  30
0.0
  40
 80.000000000000
  41
0.0
  71
7
  72
1
   1
\T1.000000;溶融亜鉛メッキ
   7
GMM002
  44
 0.79999984000003
   0
MTEXT
   5
352
 100
AcDbEntity
   8
LEVEL001
 370
13
  62
1
 100
AcDbMText
  10
 5960.9090909091
  20
 2063.5736076959
  30
0.0
  40
 80.000000000000
  41
0.0
  71
7
  72
1
   1
\T1.000000;金具締付ボルトナット
   7
GMM002
  44
 0.79999984000003
   0
MTEXT
   5
354
 100
AcDbEntity
   8
LEVEL001
 370
13
  62
1
 100
AcDbMText
  10
 7010.9090909091
  20
 2193.5736076959
  30
0.0
  40
 80.000000000000
  41
0.0
  71
7
  72
1
   1
\T1.000000;ＳＳ４００
   7
GMM002
  44
 0.79999984000003
   0
MTEXT
   5
356
 100
AcDbEntity
   8
LEVEL001
 370
13
  62
1
 100
AcDbMText
  10
 7510.9090909091
  20
 2193.5736076959
  30
0.0
  40
 80.000000000000
  41
0.0
  71
7
  72
1
   1
\T1.000000;溶融亜鉛メッキ
   7
GMM002
  44
 0.79999984000003
   0
MTEXT
   5
358
 100
AcDbEntity
   8
LEVEL001
 370
13
  62
1
 100
AcDbMText
  10
 5960.9090909091
  20
 2193.5736076959
  30
0.0
  40
 80.000000000000
  41
0.0
  71
7
  72
1
   1
\T1.000000;裏板金具取付ボルト
   7
GMM002
  44
 0.79999984000003
   0
MTEXT
   5
35A
 100
AcDbEntity
   8
LEVEL001
 370
13
  62
1
 100
AcDbMText
  10
 7510.9090909091
  20
 2323.5736076959
  30
0.0
  40
 80.000000000000
  41
0.0
  71
7
  72
1
   1
\T1.000000;溶融亜鉛メッキ
   7
GMM002
  44
 0.79999984000003
   0
MTEXT
   5
35C
 100
AcDbEntity
   8
LEVEL001
 370
13
  62
1
 100
AcDbMText
  10
 7010.9090909091
  20
 2323.5736076959
  30
0.0
  40
 80.000000000000
  41
0.0
  71
7
  72
1
   1
\T1.000000;ＳＳ４００
   7
GMM002
  44
 0.79999984000003
   0
MTEXT
   5
35E
 100
AcDbEntity
   8
LEVEL001
 370
13
  62
1
 100
AcDbMText
  10
 5960.9090909091
  20
 2323.5736076959
  30
0.0
  40
 80.000000000000
  41
0.0
  71
7
  72
1
   1
\T1.000000;支柱取付金具
   7
GMM002
  44
 0.79999984000003
   0
MTEXT
   5
360
 100
AcDbEntity
   8
LEVEL001
 370
13
  62
1
 100
AcDbMText
  10
 5960.9090909091
  20
 2453.5736076959
  30
0.0
  40
 80.000000000000
  41
0.0
  71
7
  72
1
   1
\T1.000000;裏板取付金具
   7
GMM002
  44
 0.79999984000003
   0
MTEXT
   5
362
 100
AcDbEntity
   8
LEVEL001
 370
13
  62
1
 100
AcDbMText
  10
 7010.9090909091
  20
 2453.5736076959
  30
0.0
  40
 80.000000000000
  41
0.0
  71
7
  72
1
   1
\T1.000000;ＳＳ４００
   7
GMM002
  44
 0.79999984000003
   0
MTEXT
   5
364
 100
AcDbEntity
   8
LEVEL001
 370
13
  62
1
 100
AcDbMText
  10
 7510.9090909091
  20
 2453.5736076959
  30
0.0
  40
 80.000000000000
  41
0.0
  71
7
  72
1
   1
\T1.000000;溶融亜鉛メッキ
   7
GMM002
  44
 0.79999984000003
   0
MTEXT
   5
366
 100
AcDbEntity
   8
LEVEL001
 370
13
  62
1
 100
AcDbMText
  10
 6931.8880646631
  20
 2193.5736076959
  30
0.0
  40
 80.000000000000
  41
0.0
  71
9
  72
1
   1
\T1.000000;８
   7
GMM002
  44
 0.79999984000003
   0
MTEXT
   5
368
 100
AcDbEntity
   8
LEVEL001
 370
13
  62
1
 100
AcDbMText
  10
 5960.9090909091
  20
 1673.5736076959
  30
0.0
  40
 80.000000000000
  41
0.0
  71
7
  72
1
   1
\T1.000000;支柱
   7
GMM002
  44
 0.79999984000003
   0
MTEXT
   5
36A
 100
AcDbEntity
   8
LEVEL001
 370
13
  62
1
 100
AcDbMText
  10
 6931.8880646631
  20
 1673.5736076959
  30
0.0
  40
 80.000000000000
  41
0.0
  71
9
  72
1
   1
\T1.000000;１
   7
GMM002
  44
 0.79999984000003
   0
MTEXT
   5
36C
 100
AcDbEntity
   8
LEVEL001
 370
13
  62
1
 100
AcDbMText
  10
 7010.9090909091
  20
 1673.5736076959
  30
0.0
  40
 80.000000000000
  41
0.0
  71
7
  72
1
   1
\T1.000000;ＳＴＫ４００
   7
GMM002
  44
 0.79999984000003
   0
MTEXT
   5
36E
 100
AcDbEntity
   8
LEVEL001
 370
13
  62
1
 100
AcDbMText
  10
 7510.9090909091
  20
 1673.5736076959
  30
0.0
  40
 80.000000000000
  41
0.0
  71
7
  72
1
   1
\T1.000000;静電粉体塗装
   7
GMM002
  44
 0.79999984000003
   0
MTEXT
   5
370
 100
AcDbEntity
   8
LEVEL001
 370
13
  62
1
 100
AcDbMText
  10
 5960.9090909091
  20
 1803.5736076959
  30
0.0
  40
 80.000000000000
  41
0.0
  71
7
  72
1
   1
\T1.000000;同上ボルトナット
   7
GMM002
  44
 0.79999984000003
   0
MTEXT
   5
372
 100
AcDbEntity
   8
LEVEL001
 370
13
  62
1
 100
AcDbMText
  10
 7010.9090909091
  20
 1933.5736076959
  30
0.0
  40
 80.000000000000
  41
0.0
  71
7
  72
1
   1
\T1.000000;ＳＳ４００
   7
GMM002
  44
 0.79999984000003
   0
MTEXT
   5
374
 100
AcDbEntity
   8
LEVEL001
 370
13
  62
1
 100
AcDbMText
  10
 7010.9090909091
  20
 1803.5736076959
  30
0.0
  40
 80.000000000000
  41
0.0
  71
7
  72
1
   1
\T1.000000;ＳＳ４００
   7
GMM002
  44
 0.79999984000003
   0
MTEXT
   5
376
 100
AcDbEntity
   8
LEVEL001
 370
13
  62
1
 100
AcDbMText
  10
 7510.9090909091
  20
 1933.5736076959
  30
0.0
  40
 80.000000000000
  41
0.0
  71
7
  72
1
   1
\T1.000000;溶融亜鉛メッキ
   7
GMM002
  44
 0.79999984000003
   0
MTEXT
   5
378
 100
AcDbEntity
   8
LEVEL001
 370
13
  62
1
 100
AcDbMText
  10
 7510.9090909091
  20
 1803.5736076959
  30
0.0
  40
 80.000000000000
  41
0.0
  71
7
  72
1
   1
\T1.000000;溶融亜鉛メッキ
   7
GMM002
  44
 0.79999984000003
   0
MTEXT
   5
37A
 100
AcDbEntity
   8
LEVEL001
 370
13
  62
1
 100
AcDbMText
  10
 5960.9090909091
  20
 1933.5736076959
  30
0.0
  40
 80.000000000000
  41
0.0
  71
7
  72
1
   1
\T1.000000;二面鏡用取付腕木
   7
GMM002
  44
 0.79999984000003
   0
MTEXT
   5
37C
 100
AcDbEntity
   8
LEVEL001
 370
13
  62
1
 100
AcDbMText
  10
 6931.8880646631
  20
 2063.5736076959
  30
0.0
  40
 80.000000000000
  41
0.0
  71
9
  72
1
   1
\T1.000000;８
   7
GMM002
  44
 0.79999984000003
   0
MTEXT
   5
37E
 100
AcDbEntity
   8
LEVEL001
 370
13
  62
1
 100
AcDbMText
  10
 6931.8880646631
  20
 2713.5736076959
  30
0.0
  40
 80.000000000000
  41
0.0
  71
9
  72
1
   1
\T1.000000;２
   7
GMM002
  44
 0.79999984000003
   0
MTEXT
   5
380
 100
AcDbEntity
   8
LEVEL001
 370
13
  62
1
 100
AcDbMText
  10
 5960.9090909091
  20
 2713.5736076959
  30
0.0
  40
 80.000000000000
  41
0.0
  71
7
  72
1
   1
\T1.000000;取付枠
   7
GMM002
  44
 0.79999984000003
   0
MTEXT
   5
382
 100
AcDbEntity
   8
LEVEL001
 370
13
  62
1
 100
AcDbMText
  10
 5960.9090909091
  20
 2583.5736076959
  30
0.0
  40
 80.000000000000
  41
0.0
  71
7
  72
1
   1
\T1.000000;取付枠取付リベット
   7
GMM002
  44
 0.79999984000003
   0
MTEXT
   5
384
 100
AcDbEntity
   8
LEVEL001
 370
13
  62
1
 100
AcDbMText
  10
 7010.9090909091
  20
 3103.5736076959
  30
0.0
  40
 80.000000000000
  41
0.0
  71
7
  72
1
   1
\T1.000000;ＰＭＭＡ
   7
GMM002
  44
 0.79999984000003
   0
MTEXT
   5
386
 100
AcDbEntity
   8
LEVEL001
 370
13
  62
1
 100
AcDbMText
  10
 7010.9090909091
  20
 2973.5736076959
  30
0.0
  40
 80.000000000000
  41
0.0
  71
7
  72
1
   1
\T1.000000;ＦＲＰ
   7
GMM002
  44
 0.79999984000003
   0
MTEXT
   5
388
 100
AcDbEntity
   8
LEVEL001
 370
13
  62
1
 100
AcDbMText
  10
 7010.9090909091
  20
 2843.5736076959
  30
0.0
  40
 80.000000000000
  41
0.0
  71
7
  72
1
   1
\T1.000000;ＰＣ
   7
GMM002
  44
 0.79999984000003
   0
MTEXT
   5
38A
 100
AcDbEntity
   8
LEVEL001
 370
13
  62
1
 100
AcDbMText
  10
 7010.9090909091
  20
 2713.5736076959
  30
0.0
  40
 80.000000000000
  41
0.0
  71
7
  72
1
   1
\T1.000000;アルミニウム
   7
GMM002
  44
 0.79999984000003
   0
MTEXT
   5
38C
 100
AcDbEntity
   8
LEVEL001
 370
13
  62
1
 100
AcDbMText
  10
 7010.9090909091
  20
 2583.5736076959
  30
0.0
  40
 80.000000000000
  41
0.0
  71
7
  72
1
   1
\T1.000000;アルミニウム
   7
GMM002
  44
 0.79999984000003
   0
MTEXT
   5
38E
 100
AcDbEntity
   8
LEVEL001
 370
13
  62
1
 100
AcDbMText
  10
 5876.3369483847
  20
 3529.5068305878
  30
0.0
  40
 80.000000000000
  41
0.0
  71
7
  72
1
   1
\T1.000000;アクリルミラー
   7
GMM004
  44
 0.79999984000003
   0
MTEXT
   5
390
 100
AcDbEntity
   8
LEVEL001
 370
13
  62
1
 100
AcDbMText
  10
 6931.8880646631
  20
 2583.5736076959
  30
0.0
  40
 80.000000000000
  41
0.0
  71
9
  72
1
   1
\T1.000000;１４
   7
GMM002
  44
 0.79999984000003
   0
MTEXT
   5
392
 100
AcDbEntity
   8
LEVEL001
 370
13
  62
1
 100
AcDbMText
  10
 7510.9090909091
  20
 2973.5736076959
  30
0.0
  40
 80.000000000000
  41
0.0
  71
7
  72
1
   1
\T1.000000;ＳＭＣ成型
   7
GMM002
  44
 0.79999984000003
   0
MTEXT
   5
394
 100
AcDbEntity
   8
LEVEL001
 370
13
  62
1
 100
AcDbMText
  10
 6931.8880646631
  20
 2453.5736076959
  30
0.0
  40
 80.000000000000
  41
0.0
  71
9
  72
1
   1
\T1.000000;２
   7
GMM002
  44
 0.79999984000003
   0
MTEXT
   5
396
 100
AcDbEntity
   8
LEVEL001
 370
13
  62
1
 100
AcDbMText
  10
 6931.8880646631
  20
 2323.5736076959
  30
0.0
  40
 80.000000000000
  41
0.0
  71
9
  72
1
   1
\T1.000000;２
   7
GMM002
  44
 0.79999984000003
   0
MTEXT
   5
398
 100
AcDbEntity
   8
LEVEL001
 370
13
  62
1
 100
AcDbMText
  10
 6931.8880646631
  20
 1933.5736076959
  30
0.0
  40
 80.000000000000
  41
0.0
  71
9
  72
1
   1
\T1.000000;１
   7
GMM002
  44
 0.79999984000003
   0
MTEXT
   5
39A
 100
AcDbEntity
   8
LEVEL001
 370
13
  62
1
 100
AcDbMText
  10
 7510.9090909091
  20
 3103.5736076959
  30
0.0
  40
 80.000000000000
  41
0.0
  71
7
  72
1
   1
\W0.450000;\T1.000000;t=3.0mm･\W0.900000;\T1.000000;真空蒸着
   7
GMM002
  44
 0.79999984000003
   0
MTEXT
   5
39C
 100
AcDbEntity
   8
LEVEL001
 370
13
  62
1
 100
AcDbMText
  10
 7843.7879805131
  20
 3280.0000000000
  30
0.0
  40
 80.000000000000
  41
0.0
  71
5
  72
1
   1
\T1.000000;規格仕様
   7
GMM002
  44
 0.79999984000003
   0
MTEXT
   5
39E
 100
AcDbEntity
   8
LEVEL001
 370
13
  62
1
 100
AcDbMText
  10
 6931.8880646631
  20
 1803.5736076959
  30
0.0
  40
 80.000000000000
  41
0.0
  71
9
  72
1
   1
\T1.000000;４
   7
GMM002
  44
 0.79999984000003
   0
MTEXT
   5
3A0
 100
AcDbEntity
   8
LEVEL001
 370
13
  62
1
 100
AcDbMText
  10
 5767.3153235653
  20
 3894.3113553114
  30
0.0
  40
 80.000000000000
  41
0.0
  71
4
  72
1
   1
{\T1.000000;※構成部材は改良のため、変更する場合があります。}\P{\T1.000000;※本図は道路反射鏡ハンドブックに基づいています。}
   7
GMM002
  44
 0.94999981000004
   0
LINE
   5
3A1
 100
AcDbEntity
   8
LEVEL001
 370
9
 100
AcDbLine
   6
CONTINUOUS
  62
6
  10
 5710.9090909091
  20
 870.00000000000
  30
0.0
  11
 5710.9090909091
  21
 3650.0000000000
  31
0.0
   0
LINE
   5
3A2
 100
AcDbEntity
   8
LEVEL001
 370
9
 100
AcDbLine
   6
CONTINUOUS
  62
6
  10
 7460.9090909091
  20
 3350.0000000000
  30
0.0
  11
 7460.9090909091
  21
 870.00000000000
  31
0.0
   0
LINE
   5
3A3
 100
AcDbEntity
   8
LEVEL001
 370
9
 100
AcDbLine
   6
CONTINUOUS
  62
6
  10
 6960.9090909091
  20
 3350.0000000000
  30
0.0
  11
 6960.9090909091
  21
 870.00000000000
  31
0.0
   0
LINE
   5
3A4
 100
AcDbEntity
   8
LEVEL001
 370
9
 100
AcDbLine
   6
CONTINUOUS
  62
6
  10
 6760.9090909091
  20
 3350.0000000000
  30
0.0
  11
 6760.9090909091
  21
 870.00000000000
  31
0.0
   0
LINE
   5
3A5
 100
AcDbEntity
   8
LEVEL001
 370
9
 100
AcDbLine
   6
CONTINUOUS
  62
6
  10
 5910.9090909091
  20
 3350.0000000000
  30
0.0
  11
 5910.9090909091
  21
 870.00000000000
  31
0.0
   0
LINE
   5
3A6
 100
AcDbEntity
   8
LEVEL001
 370
9
 100
AcDbLine
   6
CONTINUOUS
  62
6
  10
 6760.9090909091
  20
 1650.0000000000
  30
0.0
  11
 8226.6668701172
  21
 1650.0000000000
  31
0.0
   0
MTEXT
   5
3A8
 100
AcDbEntity
   8
LEVEL001
 370
13
  62
1
 100
AcDbMText
  10
 6931.8880646631
  20
 1543.5736076959
  30
0.0
  40
 80.000000000000
  41
0.0
  71
9
  72
1
   1
\T1.000000;１
   7
GMM002
  44
 0.79999984000003
   0
MTEXT
   5
3AA
 100
AcDbEntity
   8
LEVEL001
 370
13
  62
1
 100
AcDbMText
  10
 7010.9090909091
  20
 1543.5736076959
  30
0.0
  40
 80.000000000000
  41
0.0
  71
7
  72
1
   1
\T1.000000;ＳＴＫ４００
   7
GMM002
  44
 0.79999984000003
   0
MTEXT
   5
3AC
 100
AcDbEntity
   8
LEVEL001
 370
13
  62
1
 100
AcDbMText
  10
 7510.9090909091
  20
 1543.5736076959
  30
0.0
  40
 80.000000000000
  41
0.0
  71
7
  72
1
   1
\T1.000000;静電粉体塗装
   7
GMM002
  44
 0.79999984000003
   0
MTEXT
   5
3AE
 100
AcDbEntity
   8
LEVEL001
 370
13
  62
1
 100
AcDbMText
  10
 7510.9090909091
  20
 1457.4911397855
  30
0.0
  40
 44.000000000000
  41
0.0
  71
4
  72
1
   1
{\T1.000000;下地亜鉛メッキ}\P{\T1.000000;＋静電粉体塗装}
   7
GMM008
  44
 0.79999984000003
   0
MTEXT
   5
3B0
 100
AcDbEntity
   8
LEVEL001
 370
13
  62
1
 100
AcDbMText
  10
 1844.6593279915
  20
 2931.4874530006
  30
0.0
  40
 66.000000000000
  41
0.0
  71
1
  72
1
   1
{\W0.787879;\T1.000000;支柱}\P%%c{\W0.787879;\T1.000000;７６\W0.393939;\T1.000000;.\W0.787879;\T1.000000;３ｘ３\W0.393939;\T1.000000;.\W0.787879;\T1.000000;２ｔ}\P{\W0.787879;\T1.000000;ｘ４０００Ｌ}
   7
GMM003
  44
 0.79999984000003
   0
MTEXT
   5
3B2
 100
AcDbEntity
   8
LEVEL001
 370
13
  62
1
 100
AcDbMText
  10
 6931.8880646631
  20
 1023.5736076959
  30
0.0
  40
 80.000000000000
  41
0.0
  71
9
  72
1
   1
\T1.000000;１式
   7
GMM002
  44
 0.79999984000003
   0
MTEXT
   5
3B4
 100
AcDbEntity
   8
LEVEL001
 370
13
  62
1
 100
AcDbMText
  10
 6931.8880646631
  20
 893.57360769589
  30
0.0
  40
 80.000000000000
  41
0.0
  71
9
  72
1
   1
\T1.000000;１式
   7
GMM002
  44
 0.79999984000003
   0
MTEXT
   5
3B6
 100
AcDbEntity
   8
LEVEL001
 370
13
  62
1
 100
AcDbMText
  10
 7010.9090909091
  20
 1023.5736076959
  30
0.0
  40
 80.000000000000
  41
0.0
  71
7
  72
1
   1
\T1.000000;―
   7
GMM002
  44
 0.79999984000003
   0
MTEXT
   5
3B8
 100
AcDbEntity
   8
LEVEL001
 370
13
  62
1
 100
AcDbMText
  10
 7010.9090909091
  20
 893.57360769589
  30
0.0
  40
 80.000000000000
  41
0.0
  71
7
  72
1
   1
\T1.000000;―
   7
GMM002
  44
 0.79999984000003
   0
MTEXT
   5
3BA
 100
AcDbEntity
   8
LEVEL001
 370
13
  62
1
 100
AcDbMText
  10
 7510.9090909091
  20
 1023.5736076959
  30
0.0
  40
 80.000000000000
  41
0.0
  71
7
  72
1
   1
\T1.000000;―
   7
GMM002
  44
 0.79999984000003
   0
MTEXT
   5
3BC
 100
AcDbEntity
   8
LEVEL001
 370
13
  62
1
 100
AcDbMText
  10
 7510.9090909091
  20
 893.57360769589
  30
0.0
  40
 80.000000000000
  41
0.0
  71
7
  72
1
   1
\T1.000000;―
   7
GMM002
  44
 0.79999984000003
   0
ENDSEC
  0
SECTION
  2
OBJECTS
  0
DICTIONARY
  5
C
100
AcDbDictionary
  3
ACAD_GROUP
350
D
  3
ACAD_MLINESTYLE
350
1B
  3
DWGPROPS
350
1E
  0
DICTIONARY
  5
D
102
{ACAD_REACTORS
330
C
102
}
100
AcDbDictionary
  0
DICTIONARY
  5
1B
102
{ACAD_REACTORS
330
C
102
}
100
AcDbDictionary
  3
STANDARD
350
1C
  0
MLINESTYLE
  5
1C
102
{ACAD_REACTORS
330
1B
102
}
100
AcDbMlineStyle
  2
STANDARD
 70
     0
  3

 62
   256
 51
90.0
 52
90.0
 71
     2
 49
0.5
 62
   256
  6
BYLAYER
 49
-0.5
 62
   256
  6
BYLAYER
   0
XRECORD
   5
1E
 102
{ACAD_REACTORS
 330
C
 102
}
 330
C
 100
AcDbXrecord
 280
1
   1
DWGPROPS COOKIE
   2
ｱｸﾘﾙφ600ﾀﾞﾌﾞﾙ下曲支柱取付
   3
 
   4
 
   6
 
   7
MA060WCP
   8
 
   9

 300
 = 
 301
 = 
 302
 = 
 303
 = 
 304
 = 
 305
 = 
 306
 = 
 307
 = 
 308
 = 
 309
 = 
  40
0.0
  41
 2451735.5000000
  42
 2460324.5000000
   1

  90
10
   0
ENDSEC
   0
EOF
