   0
SECTION
   2
HEADER
   9
$ACADVER
   1
AC1015
   9
$DWGCODEPAGE
   3
ANSI_932
   9
$LIMMIN
  10
0.0
  20
0.0
   9
$LIMMAX
  10
 8400.0000000000
  20
 5940.0000000000
   9
$EXTMIN
  10
0.0
  20
0.0
  30
0.0
   9
$EXTMAX
  10
 8400.0000000000
  20
 5940.0000000000
  30
0.0
   9
$LTSCALE
  40
 168.00000000000
   9
$HANDSEED
   5
31E
   0
ENDSEC
   0
SECTION
   2
TABLES
  0
TABLE
  2
VPORT
  5
8
100
AcDbSymbolTable
 70
     1
  0
VPORT
  5
31D
100
AcDbSymbolTableRecord
100
AcDbViewportTableRecord
  2
*ACTIVE
 70
     0
 10
0.0
 20
0.0
 11
1.0
 21
1.0
  12
 4200.0000000000
  22
 2970.0000000000
 13
0.0
 23
0.0
 14
1.0
 24
1.0
 15
0.0
 25
0.0
 16
0.0
 26
0.0
 36
1.0
 17
0.0
 27
0.0
 37
0.0
  40
 8400.0000000000
  41
 1.4787878787879
 42
50.0
 43
0.0
 44
0.0
 50
0.0
 51
0.0
 71
     0
 72
   100
 73
     1
 74
     1
 75
     0
 76
     0
 77
     0
 78
     0
  0
ENDTAB
  0
TABLE
  2
LTYPE
  5
5
100
AcDbSymbolTable
 70
    25
  0
LTYPE
  5
12
100
AcDbSymbolTableRecord
100
AcDbLinetypeTableRecord
  2
BYBLOCK
 70
     0
  3

 72
    65
 73
     0
 40
0.0
  0
LTYPE
  5
13
100
AcDbSymbolTableRecord
100
AcDbLinetypeTableRecord
  2
BYLAYER
 70
     0
  3

 72
    65
 73
     0
 40
0.0
  0
LTYPE
  5
14
100
AcDbSymbolTableRecord
100
AcDbLinetypeTableRecord
  2
CONTINUOUS
 70
     0
  3
Solid line
 72
    65
 73
     0
 40
0.0
  0
LTYPE
  5
20
100
AcDbSymbolTableRecord
100
AcDbLinetypeTableRecord
  2
BORDER
 70
     0
  3
__ __ . __ __ . __ __ . __ __ . __ __ . __ __ .
 72
    65
 73
     6
 40
1.75
 49
0.5
 74
     0
 49
-0.25
 74
     0
 49
0.5
 74
     0
 49
-0.25
 74
     0
 49
0.0
 74
     0
 49
-0.25
 74
     0
  0
LTYPE
  5
21
100
AcDbSymbolTableRecord
100
AcDbLinetypeTableRecord
  2
BORDER2
 70
     0
  3
__.__.__.__.__.__.__.__.__.__.__.__.__.__.__.__
 72
    65
 73
     6
 40
0.875
 49
0.25
 74
     0
 49
-0.125
 74
     0
 49
0.25
 74
     0
 49
-0.125
 74
     0
 49
0.0
 74
     0
 49
-0.125
 74
     0
  0
LTYPE
  5
22
100
AcDbSymbolTableRecord
100
AcDbLinetypeTableRecord
  2
BORDERX2
 70
     0
  3
____  ____  .  ____  ____  .  ____  ____  .  __
 72
    65
 73
     6
 40
3.5
 49
1.0
 74
     0
 49
-0.5
 74
     0
 49
1.0
 74
     0
 49
-0.5
 74
     0
 49
0.0
 74
     0
 49
-0.5
 74
     0
  0
LTYPE
  5
23
100
AcDbSymbolTableRecord
100
AcDbLinetypeTableRecord
  2
CENTER
 70
     0
  3
____ _ ____ _ ____ _ ____ _ ____ _ ____ _ ____ 
 72
    65
 73
     4
 40
2.0
 49
1.25
 74
     0
 49
-0.25
 74
     0
 49
0.25
 74
     0
 49
-0.25
 74
     0
  0
LTYPE
  5
24
100
AcDbSymbolTableRecord
100
AcDbLinetypeTableRecord
  2
CENTER2
 70
     0
  3
___ _ ___ _ ___ _ ___ _ ___ _ ___ _ ___ _ ___ _
 72
    65
 73
     4
 40
1.125
 49
0.75
 74
     0
 49
-0.125
 74
     0
 49
0.125
 74
     0
 49
-0.125
 74
     0
  0
LTYPE
  5
25
100
AcDbSymbolTableRecord
100
AcDbLinetypeTableRecord
  2
CENTERX2
 70
     0
  3
________  __  ________  __  ________  __  _____
 72
    65
 73
     4
 40
4.0
 49
2.5
 74
     0
 49
-0.5
 74
     0
 49
0.5
 74
     0
 49
-0.5
 74
     0
  0
LTYPE
  5
26
100
AcDbSymbolTableRecord
100
AcDbLinetypeTableRecord
  2
DASHDOT
 70
     0
  3
__ . __ . __ . __ . __ . __ . __ . __ . __ . __
 72
    65
 73
     4
 40
1.0
 49
0.5
 74
     0
 49
-0.25
 74
     0
 49
0.0
 74
     0
 49
-0.25
 74
     0
  0
LTYPE
  5
27
100
AcDbSymbolTableRecord
100
AcDbLinetypeTableRecord
  2
DASHDOT2
 70
     0
  3
_._._._._._._._._._._._._._._._._._._._._._._._
 72
    65
 73
     4
 40
0.5
 49
0.25
 74
     0
 49
-0.125
 74
     0
 49
0.0
 74
     0
 49
-0.125
 74
     0
  0
LTYPE
  5
28
100
AcDbSymbolTableRecord
100
AcDbLinetypeTableRecord
  2
DASHDOTX2
 70
     0
  3
____  .  ____  .  ____  .  ____  .  ____  .  __
 72
    65
 73
     4
 40
2.0
 49
1.0
 74
     0
 49
-0.5
 74
     0
 49
0.0
 74
     0
 49
-0.5
 74
     0
  0
LTYPE
  5
29
100
AcDbSymbolTableRecord
100
AcDbLinetypeTableRecord
  2
DASHED
 70
     0
  3
__ __ __ __ __ __ __ __ __ __ __ __ __ __ __ __
 72
    65
 73
     2
 40
0.75
 49
0.5
 74
     0
 49
-0.25
 74
     0
  0
LTYPE
  5
2A
100
AcDbSymbolTableRecord
100
AcDbLinetypeTableRecord
  2
DASHED2
 70
     0
  3
_ _ _ _ _ _ _ _ _ _ _ _ _ _ _ _ _ _ _ _ _ _ _ _
 72
    65
 73
     2
 40
0.375
 49
0.25
 74
     0
 49
-0.125
 74
     0
  0
LTYPE
  5
2B
100
AcDbSymbolTableRecord
100
AcDbLinetypeTableRecord
  2
DASHEDX2
 70
     0
  3
____  ____  ____  ____  ____  ____  ____  ____ 
 72
    65
 73
     2
 40
1.5
 49
1.0
 74
     0
 49
-0.5
 74
     0
  0
LTYPE
  5
2C
100
AcDbSymbolTableRecord
100
AcDbLinetypeTableRecord
  2
DIVIDE
 70
     0
  3
____ . . ____ . . ____ . . ____ . . ____ . . __
 72
    65
 73
     6
 40
1.25
 49
0.5
 74
     0
 49
-0.25
 74
     0
 49
0.0
 74
     0
 49
-0.25
 74
     0
 49
0.0
 74
     0
 49
-0.25
 74
     0
  0
LTYPE
  5
2D
100
AcDbSymbolTableRecord
100
AcDbLinetypeTableRecord
  2
DIVIDE2
 70
     0
  3
__..__..__..__..__..__..__..__..__..__..__..__.
 72
    65
 73
     6
 40
0.625
 49
0.25
 74
     0
 49
-0.125
 74
     0
 49
0.0
 74
     0
 49
-0.125
 74
     0
 49
0.0
 74
     0
 49
-0.125
 74
     0
  0
LTYPE
  5
2E
100
AcDbSymbolTableRecord
100
AcDbLinetypeTableRecord
  2
DIVIDEX2
 70
     0
  3
________  .  .  ________  .  .  ________  .  . 
 72
    65
 73
     6
 40
2.5
 49
1.0
 74
     0
 49
-0.5
 74
     0
 49
0.0
 74
     0
 49
-0.5
 74
     0
 49
0.0
 74
     0
 49
-0.5
 74
     0
  0
LTYPE
  5
2F
100
AcDbSymbolTableRecord
100
AcDbLinetypeTableRecord
  2
DOT
 70
     0
  3
. . . . . . . . . . . . . . . . . . . . . . . .
 72
    65
 73
     2
 40
0.25
 49
0.0
 74
     0
 49
-0.25
 74
     0
  0
LTYPE
  5
30
100
AcDbSymbolTableRecord
100
AcDbLinetypeTableRecord
  2
DOT2
 70
     0
  3
...............................................
 72
    65
 73
     2
 40
0.125
 49
0.0
 74
     0
 49
-0.125
 74
     0
  0
LTYPE
  5
31
100
AcDbSymbolTableRecord
100
AcDbLinetypeTableRecord
  2
DOTX2
 70
     0
  3
.  .  .  .  .  .  .  .  .  .  .  .  .  .  .  . 
 72
    65
 73
     2
 40
0.5
 49
0.0
 74
     0
 49
-0.5
 74
     0
  0
LTYPE
  5
32
100
AcDbSymbolTableRecord
100
AcDbLinetypeTableRecord
  2
HIDDEN
 70
     0
  3
__ __ __ __ __ __ __ __ __ __ __ __ __ __ __ __
 72
    65
 73
     2
 40
0.375
 49
0.25
 74
     0
 49
-0.125
 74
     0
  0
LTYPE
  5
33
100
AcDbSymbolTableRecord
100
AcDbLinetypeTableRecord
  2
HIDDEN2
 70
     0
  3
_ _ _ _ _ _ _ _ _ _ _ _ _ _ _ _ _ _ _ _ _ _ _ _
 72
    65
 73
     2
 40
0.1875
 49
0.125
 74
     0
 49
-0.0625
 74
     0
  0
LTYPE
  5
34
100
AcDbSymbolTableRecord
100
AcDbLinetypeTableRecord
  2
HIDDENX2
 70
     0
  3
____ ____ ____ ____ ____ ____ ____ ____ ____ __
 72
    65
 73
     2
 40
0.75
 49
0.5
 74
     0
 49
-0.25
 74
     0
  0
LTYPE
  5
35
100
AcDbSymbolTableRecord
100
AcDbLinetypeTableRecord
  2
PHANTOM
 70
     0
  3
______  __  __  ______  __  __  ______  __  __ 
 72
    65
 73
     6
 40
2.5
 49
1.25
 74
     0
 49
-0.25
 74
     0
 49
0.25
 74
     0
 49
-0.25
 74
     0
 49
0.25
 74
     0
 49
-0.25
 74
     0
  0
LTYPE
  5
36
100
AcDbSymbolTableRecord
100
AcDbLinetypeTableRecord
  2
PHANTOM2
 70
     0
  3
___ _ _ ___ _ _ ___ _ _ ___ _ _ ___ _ _ ___ _ _
 72
    65
 73
     6
 40
1.25
 49
0.625
 74
     0
 49
-0.125
 74
     0
 49
0.125
 74
     0
 49
-0.125
 74
     0
 49
0.125
 74
     0
 49
-0.125
 74
     0
  0
LTYPE
  5
37
100
AcDbSymbolTableRecord
100
AcDbLinetypeTableRecord
  2
PHANTOMX2
 70
     0
  3
____________    ____    ____    ____________   
 72
    65
 73
     6
 40
5.0
 49
2.5
 74
     0
 49
-0.5
 74
     0
 49
0.5
 74
     0
 49
-0.5
 74
     0
 49
0.5
 74
     0
 49
-0.5
 74
     0
  0
ENDTAB
   0
TABLE
   2
LAYER
   5
2
 100
AcDbSymbolTable
  70
2
   0
LAYER
   5
E
 100
AcDbSymbolTableRecord
 100
AcDbLayerTableRecord
   2
0
  70
0
  62
7
   6
CONTINUOUS
 390
30
   0
LAYER
   5
39
 100
AcDbSymbolTableRecord
 100
AcDbLayerTableRecord
   2
LEVEL001
  70
0
  62
7
   6
CONTINUOUS
 390
30
   0
ENDTAB
  0
TABLE
  2
STYLE
  5
3
100
AcDbSymbolTable
  70
10
  0
STYLE
  5
F
100
AcDbSymbolTableRecord
100
AcDbTextStyleTableRecord
  2
STANDARD
 70
     0
 40
0.0
 41
1.0
 50
0.0
 71
     0
 42
0.2
  3
TXT
  4
BIGFONT
  0
STYLE
  5
38
100
AcDbSymbolTableRecord
100
AcDbTextStyleTableRecord
  2
STANDARD1
 70
     4
 40
0.0
 41
1.0
 50
0.0
 71
     0
 42
0.2
  3
TXT
  4
BIGFONT
   0
STYLE
   5
3A
 100
AcDbSymbolTableRecord
 100
AcDbTextStyleTableRecord
   2
GMM001
  70
0
  40
0.0
  41
 0.87500000000000
  50
0.0
  71
     0
  42
1.0
   3
txt.shx
   4
bigfont.shx
   0
STYLE
   5
3B
 100
AcDbSymbolTableRecord
 100
AcDbTextStyleTableRecord
   2
GMM002
  70
0
  40
0.0
  41
 0.90000000000000
  50
0.0
  71
     0
  42
1.0
   3
txt.shx
   4
bigfont.shx
   0
STYLE
   5
3C
 100
AcDbSymbolTableRecord
 100
AcDbTextStyleTableRecord
   2
GMM003
  70
0
  40
0.0
  41
 0.78787878787879
  50
0.0
  71
     0
  42
1.0
   3
txt.shx
   4
bigfont.shx
   0
STYLE
   5
3D
 100
AcDbSymbolTableRecord
 100
AcDbTextStyleTableRecord
   2
GMM004
  70
0
  40
0.0
  41
 0.75000000000000
  50
0.0
  71
     0
  42
1.0
   3
txt.shx
   4
bigfont.shx
   0
STYLE
   5
3E
 100
AcDbSymbolTableRecord
 100
AcDbTextStyleTableRecord
   2
GMM005
  70
0
  40
0.0
  41
 0.90000000000000
  50
0.0
  71
     0
  42
1.0
   3

   4

1001
ACAD
1000
ＭＳ 明朝
1071
33587217
   0
STYLE
   5
3F
 100
AcDbSymbolTableRecord
 100
AcDbTextStyleTableRecord
   2
GMM006
  70
0
  40
0.0
  41
 1.0000000000000
  50
0.0
  71
     0
  42
1.0
   3
txt.shx
   4
bigfont.shx
   0
STYLE
   5
40
 100
AcDbSymbolTableRecord
 100
AcDbTextStyleTableRecord
   2
GMM007
  70
0
  40
0.0
  41
 1.0000000000000
  50
0.0
  71
     0
  42
1.0
   3

   4

1001
ACAD
1000
ＭＳ 明朝
1071
32785
   0
STYLE
   5
41
 100
AcDbSymbolTableRecord
 100
AcDbTextStyleTableRecord
   2
GMM008
  70
0
  40
0.0
  41
 1.6363636363636
  50
0.0
  71
     0
  42
1.0
   3
txt.shx
   4
bigfont.shx
   0
ENDTAB
  0
TABLE
  2
VIEW
  5
6
100
AcDbSymbolTable
 70
     0
  0
ENDTAB
  0
TABLE
  2
UCS
  5
7
100
AcDbSymbolTable
 70
     0
  0
ENDTAB
  0
TABLE
  2
APPID
  5
9
100
AcDbSymbolTable
 70
     1
  0
APPID
  5
10
100
AcDbSymbolTableRecord
100
AcDbRegAppTableRecord
  2
ACAD
 70
     0
  0
ENDTAB
   0
TABLE
   2
DIMSTYLE
   5
A
 100
AcDbSymbolTable
  70
10
 100
AcDbDimStyleTable
  0
DIMSTYLE
105
1D
100
AcDbSymbolTableRecord
100
AcDbDimStyleTableRecord
  2
STANDARD
 70
     0
  3

  4

  5

  6

  7

 40
1.0
 41
0.18
 42
0.0625
 43
0.38
 44
0.18
 45
0.0
 46
0.0
 47
0.0
 48
0.0
140
0.18
141
0.09
142
0.0
143
25.4
144
1.0
145
0.0
146
1.0
147
0.09
 71
     0
 72
     0
 73
     1
 74
     1
 75
     0
 76
     0
 77
     0
 78
     0
170
     0
171
     2
172
     0
173
     0
174
     0
175
     0
176
     0
177
     0
178
     0
270
     2
271
     4
272
     4
273
     2
274
     2
340
F
275
     0
280
     0
281
     0
282
     0
283
     1
284
     0
285
     0
286
     0
287
     3
288
     0
   0
DIMSTYLE
 105
42
 100
AcDbSymbolTableRecord
 100
AcDbDimStyleTableRecord
   2
GMM001
  70
0
   3
%%c<>
   4

   5

   6
_OPEN
   7
_OPEN
  40
 1.0000000000000
  41
 30.000000000000
  42
 30.000000000000
  43
 160.00000000000
  44
 30.000000000000
  45
0.0
  46
 37.500000000000
  47
0.0
  48
0.0
 140
 66.000000000000
 141
 20.000000000000
 142
0.0
 143
 0.39400000000000E-1
 144
 1.0000000000000
 145
0.0
 146
 0.62500000000000
 147
 28.285714285714
  71
0
  72
0
  73
0
  74
0
  75
1
  76
1
  77
1
  78
8
 170
0
 171
2
 172
1
 173
1
 174
0
 175
0
 176
6
 177
6
 178
1
 270
2
 271
1
 272
0
 273
2
 274
2
 340
3C
 275
0
 280
0
 281
0
 282
0
 283
1
 284
0
 285
0
 286
0
 287
0
 288
0
   0
DIMSTYLE
 105
43
 100
AcDbSymbolTableRecord
 100
AcDbDimStyleTableRecord
   2
GMM002
  70
0
   3

   4

   5

   6
_OPEN
   7
_OPEN
  40
 1.0000000000000
  41
 30.000000000000
  42
 30.000000000000
  43
 160.00000000000
  44
 30.000000000000
  45
0.0
  46
 37.500000000000
  47
0.0
  48
0.0
 140
 66.000000000000
 141
 20.000000000000
 142
0.0
 143
 0.39400000000000E-1
 144
 1.0000000000000
 145
0.0
 146
 0.62500000000000
 147
0.0
  71
0
  72
0
  73
0
  74
0
  75
1
  76
1
  77
0
  78
8
 170
0
 171
2
 172
1
 173
1
 174
0
 175
0
 176
1
 177
1
 178
1
 270
2
 271
1
 272
0
 273
2
 274
2
 340
F
 275
0
 280
0
 281
0
 282
0
 283
1
 284
0
 285
0
 286
0
 287
3
 288
0
   0
DIMSTYLE
 105
44
 100
AcDbSymbolTableRecord
 100
AcDbDimStyleTableRecord
   2
GMM003
  70
0
   3

   4

   5

   6
_OPEN
   7
_OPEN
  40
 1.0000000000000
  41
 30.000000000000
  42
 30.000000000000
  43
 160.00000000000
  44
 30.000000000000
  45
0.0
  46
 37.500000000000
  47
0.0
  48
0.0
 140
 66.000000000000
 141
 20.000000000000
 142
0.0
 143
 0.39400000000000E-1
 144
 1.0000000000000
 145
0.0
 146
 0.62500000000000
 147
 28.285714285714
  71
0
  72
0
  73
0
  74
0
  75
0
  76
1
  77
1
  78
8
 170
0
 171
2
 172
1
 173
1
 174
0
 175
0
 176
6
 177
6
 178
1
 270
2
 271
1
 272
0
 273
2
 274
2
 340
3C
 275
0
 280
0
 281
0
 282
0
 283
1
 284
0
 285
0
 286
0
 287
3
 288
0
   0
DIMSTYLE
 105
45
 100
AcDbSymbolTableRecord
 100
AcDbDimStyleTableRecord
   2
GMM004
  70
0
   3
<>(標準設置高さ
   4

   5

   6
_OPEN
   7
_OPEN
  40
 1.0000000000000
  41
 30.000000000000
  42
 30.000000000000
  43
 160.00000000000
  44
 30.000000000000
  45
0.0
  46
 37.500000000000
  47
0.0
  48
0.0
 140
 66.000000000000
 141
 20.000000000000
 142
0.0
 143
 0.39400000000000E-1
 144
 1.0000000000000
 145
0.0
 146
 0.62500000000000
 147
 28.285714285714
  71
0
  72
0
  73
0
  74
0
  75
0
  76
0
  77
1
  78
8
 170
0
 171
2
 172
1
 173
1
 174
0
 175
0
 176
6
 177
6
 178
1
 270
2
 271
1
 272
0
 273
2
 274
2
 340
3C
 275
0
 280
0
 281
0
 282
0
 283
1
 284
0
 285
0
 286
0
 287
3
 288
0
   0
DIMSTYLE
 105
46
 100
AcDbSymbolTableRecord
 100
AcDbDimStyleTableRecord
   2
GMM005
  70
0
   3

   4

   5

   6
_OPEN
   7
_OPEN
  40
 1.0000000000000
  41
 30.000000000000
  42
 30.000000000000
  43
 160.00000000000
  44
 30.000000000000
  45
0.0
  46
 37.500000000000
  47
0.0
  48
0.0
 140
 66.000000000000
 141
 20.000000000000
 142
0.0
 143
 0.39400000000000E-1
 144
 1.0000000000000
 145
0.0
 146
 0.62500000000000
 147
 28.285714285714
  71
0
  72
0
  73
0
  74
0
  75
1
  76
0
  77
1
  78
8
 170
0
 171
2
 172
1
 173
1
 174
0
 175
0
 176
6
 177
6
 178
1
 270
2
 271
1
 272
0
 273
2
 274
2
 340
3C
 275
0
 280
0
 281
0
 282
0
 283
1
 284
0
 285
0
 286
0
 287
3
 288
0
   0
DIMSTYLE
 105
47
 100
AcDbSymbolTableRecord
 100
AcDbDimStyleTableRecord
   2
GMM006
  70
0
   3

   4

   5

   6
_OPEN
   7
_OPEN
  40
 1.0000000000000
  41
 30.000000000000
  42
 30.000000000000
  43
 160.00000000000
  44
 30.000000000000
  45
0.0
  46
 37.500000000000
  47
0.0
  48
0.0
 140
 66.000000000000
 141
 20.000000000000
 142
0.0
 143
 0.39400000000000E-1
 144
 1.0000000000000
 145
0.0
 146
 0.62500000000000
 147
0.0
  71
0
  72
0
  73
0
  74
0
  75
1
  76
1
  77
0
  78
8
 170
0
 171
2
 172
1
 173
1
 174
0
 175
0
 176
1
 177
1
 178
1
 270
2
 271
1
 272
0
 273
2
 274
2
 340
F
 275
0
 280
0
 281
0
 282
0
 283
1
 284
0
 285
0
 286
0
 287
3
 288
0
   0
DIMSTYLE
 105
48
 100
AcDbSymbolTableRecord
 100
AcDbDimStyleTableRecord
   2
GMM007
  70
0
   3
□<>
   4

   5

   6
_OPEN
   7
_OPEN
  40
 1.0000000000000
  41
 30.000000000000
  42
 30.000000000000
  43
 160.00000000000
  44
 30.000000000000
  45
0.0
  46
 37.500000000000
  47
0.0
  48
0.0
 140
 66.000000000000
 141
 20.000000000000
 142
0.0
 143
 0.39400000000000E-1
 144
 1.0000000000000
 145
0.0
 146
 0.62500000000000
 147
 28.285714285714
  71
0
  72
0
  73
0
  74
0
  75
0
  76
0
  77
1
  78
8
 170
0
 171
2
 172
1
 173
1
 174
0
 175
0
 176
6
 177
6
 178
1
 270
2
 271
1
 272
0
 273
2
 274
2
 340
3C
 275
0
 280
0
 281
0
 282
0
 283
1
 284
0
 285
0
 286
0
 287
3
 288
0
   0
DIMSTYLE
 105
49
 100
AcDbSymbolTableRecord
 100
AcDbDimStyleTableRecord
   2
GMM008
  70
0
   3

   4

   5

   6
_OPEN
   7
_OPEN
  40
 1.0000000000000
  41
 30.000000000000
  42
 30.000000000000
  43
 160.00000000000
  44
 30.000000000000
  45
0.0
  46
 37.500000000000
  47
0.0
  48
0.0
 140
 66.000000000000
 141
 20.000000000000
 142
0.0
 143
 0.39400000000000E-1
 144
 1.0000000000000
 145
0.0
 146
 0.62500000000000
 147
0.0
  71
0
  72
0
  73
0
  74
0
  75
1
  76
1
  77
0
  78
8
 170
0
 171
2
 172
1
 173
1
 174
0
 175
0
 176
1
 177
1
 178
1
 270
2
 271
1
 272
0
 273
2
 274
2
 340
F
 275
0
 280
0
 281
0
 282
0
 283
1
 284
0
 285
0
 286
0
 287
3
 288
0
   0
ENDTAB
  0
TABLE
  2
BLOCK_RECORD
  5
1
100
AcDbSymbolTable
 70
     0
  0
BLOCK_RECORD
  5
18
100
AcDbSymbolTableRecord
100
AcDbBlockTableRecord
  2
*MODEL_SPACE
  0
BLOCK_RECORD
  5
15
100
AcDbSymbolTableRecord
100
AcDbBlockTableRecord
  2
*PAPER_SPACE
   0
BLOCK_RECORD
   5
4A
 100
AcDbSymbolTableRecord
 100
AcDbBlockTableRecord
   2
*D1
   0
BLOCK_RECORD
   5
4B
 100
AcDbSymbolTableRecord
 100
AcDbBlockTableRecord
   2
*D11
   0
BLOCK_RECORD
   5
4C
 100
AcDbSymbolTableRecord
 100
AcDbBlockTableRecord
   2
*D12
   0
BLOCK_RECORD
   5
4D
 100
AcDbSymbolTableRecord
 100
AcDbBlockTableRecord
   2
*D13
   0
BLOCK_RECORD
   5
4E
 100
AcDbSymbolTableRecord
 100
AcDbBlockTableRecord
   2
*D14
   0
BLOCK_RECORD
   5
4F
 100
AcDbSymbolTableRecord
 100
AcDbBlockTableRecord
   2
*D17
   0
BLOCK_RECORD
   5
50
 100
AcDbSymbolTableRecord
 100
AcDbBlockTableRecord
   2
*D18
   0
BLOCK_RECORD
   5
51
 100
AcDbSymbolTableRecord
 100
AcDbBlockTableRecord
   2
_ARCHTICK
   0
BLOCK_RECORD
   5
52
 100
AcDbSymbolTableRecord
 100
AcDbBlockTableRecord
   2
_BOXBLANK
   0
BLOCK_RECORD
   5
53
 100
AcDbSymbolTableRecord
 100
AcDbBlockTableRecord
   2
_BOXFILLED
   0
BLOCK_RECORD
   5
54
 100
AcDbSymbolTableRecord
 100
AcDbBlockTableRecord
   2
_CLOSED
   0
BLOCK_RECORD
   5
55
 100
AcDbSymbolTableRecord
 100
AcDbBlockTableRecord
   2
_CLOSEDBLANK
   0
BLOCK_RECORD
   5
56
 100
AcDbSymbolTableRecord
 100
AcDbBlockTableRecord
   2
_DATUMBLANK
   0
BLOCK_RECORD
   5
57
 100
AcDbSymbolTableRecord
 100
AcDbBlockTableRecord
   2
_DATUMFILLED
   0
BLOCK_RECORD
   5
58
 100
AcDbSymbolTableRecord
 100
AcDbBlockTableRecord
   2
_DOT
   0
BLOCK_RECORD
   5
59
 100
AcDbSymbolTableRecord
 100
AcDbBlockTableRecord
   2
_DOTBLANK
   0
BLOCK_RECORD
   5
5A
 100
AcDbSymbolTableRecord
 100
AcDbBlockTableRecord
   2
_DOTSMALL
   0
BLOCK_RECORD
   5
5B
 100
AcDbSymbolTableRecord
 100
AcDbBlockTableRecord
   2
_INTEGRAL
   0
BLOCK_RECORD
   5
5C
 100
AcDbSymbolTableRecord
 100
AcDbBlockTableRecord
   2
_NONE
   0
BLOCK_RECORD
   5
5D
 100
AcDbSymbolTableRecord
 100
AcDbBlockTableRecord
   2
_OBLIQUE
   0
BLOCK_RECORD
   5
5E
 100
AcDbSymbolTableRecord
 100
AcDbBlockTableRecord
   2
_OPEN
   0
BLOCK_RECORD
   5
5F
 100
AcDbSymbolTableRecord
 100
AcDbBlockTableRecord
   2
_OPEN30
   0
BLOCK_RECORD
   5
60
 100
AcDbSymbolTableRecord
 100
AcDbBlockTableRecord
   2
_OPEN90
   0
BLOCK_RECORD
   5
61
 100
AcDbSymbolTableRecord
 100
AcDbBlockTableRecord
   2
_ORIGIN
   0
ENDTAB
   0
ENDSEC
  0
SECTION
  2
BLOCKS
  0
BLOCK
  5
19
100
AcDbEntity
  8
0
100
AcDbBlockBegin
  2
*MODEL_SPACE
 70
     0
 10
0.0
 20
0.0
 30
0.0
  3
*MODEL_SPACE
  1

  0
ENDBLK
  5
1A
100
AcDbEntity
  8
0
100
AcDbBlockEnd
  0
BLOCK
  5
16
100
AcDbEntity
 67
     1
  8
0
100
AcDbBlockBegin
  2
*PAPER_SPACE
 70
     0
 10
0.0
 20
0.0
 30
0.0
  3
*PAPER_SPACE
  1

  0
ENDBLK
  5
17
100
AcDbEntity
 67
     1
  8
0
100
AcDbBlockEnd
   0
BLOCK
   5
62
 100
AcDbEntity
   8
0
 100
AcDbBlockBegin
   2
_ARCHTICK
  70
0
  10
0.0
  20
0.0
  30
0.0
   3
_ARCHTICK
   0
POLYLINE
   5
63
 100
AcDbEntity
   8
0
 370
-2
   6
BYBLOCK
  62
0
 100
AcDb2dPolyline
  66
1
  10
0.0
  20
0.0
  30
0.0
  70
1
  40
 0.15000000000000
  41
 0.15000000000000
   0
VERTEX
   5
64
 100
AcDbEntity
   8
0
   6
BYBLOCK
  62
0
 100
AcDbVertex
 100
AcDb2dVertex
  10
-0.50000000000000
  20
-0.50000000000000
  30
0.0
  40
 0.15000000000000
  41
 0.15000000000000
   0
VERTEX
   5
65
 100
AcDbEntity
   8
0
   6
BYBLOCK
  62
0
 100
AcDbVertex
 100
AcDb2dVertex
  10
 0.50000000000000
  20
 0.50000000000000
  30
0.0
  40
 0.15000000000000
  41
 0.15000000000000
   0
SEQEND
   5
66
 100
AcDbEntity
   8
0
   6
BYBLOCK
  62
0
   0
ENDBLK
   5
67
 100
AcDbEntity
   8
0
 100
AcDbBlockEnd
   0
BLOCK
   5
68
 100
AcDbEntity
   8
0
 100
AcDbBlockBegin
   2
_OBLIQUE
  70
0
  10
0.0
  20
0.0
  30
0.0
   3
_OBLIQUE
   0
LINE
   5
69
 100
AcDbEntity
   8
0
 370
-2
 100
AcDbLine
   6
BYBLOCK
  62
0
  10
-0.50000000000000
  20
-0.50000000000000
  30
0.0
  11
 0.50000000000000
  21
 0.50000000000000
  31
0.0
   0
ENDBLK
   5
6A
 100
AcDbEntity
   8
0
 100
AcDbBlockEnd
   0
BLOCK
   5
6B
 100
AcDbEntity
   8
0
 100
AcDbBlockBegin
   2
_BOXBLANK
  70
0
  10
0.0
  20
0.0
  30
0.0
   3
_BOXBLANK
   0
LINE
   5
6C
 100
AcDbEntity
   8
0
 370
-2
 100
AcDbLine
   6
BYBLOCK
  62
0
  10
-0.50000000000000
  20
-0.50000000000000
  30
0.0
  11
 0.50000000000000
  21
-0.50000000000000
  31
0.0
   0
LINE
   5
6D
 100
AcDbEntity
   8
0
 370
-2
 100
AcDbLine
   6
BYBLOCK
  62
0
  10
 0.50000000000000
  20
-0.50000000000000
  30
0.0
  11
 0.50000000000000
  21
 0.50000000000000
  31
0.0
   0
LINE
   5
6E
 100
AcDbEntity
   8
0
 370
-2
 100
AcDbLine
   6
BYBLOCK
  62
0
  10
 0.50000000000000
  20
 0.50000000000000
  30
0.0
  11
-0.50000000000000
  21
 0.50000000000000
  31
0.0
   0
LINE
   5
6F
 100
AcDbEntity
   8
0
 370
-2
 100
AcDbLine
   6
BYBLOCK
  62
0
  10
-0.50000000000000
  20
 0.50000000000000
  30
0.0
  11
-0.50000000000000
  21
-0.50000000000000
  31
0.0
   0
LINE
   5
70
 100
AcDbEntity
   8
0
 370
-2
 100
AcDbLine
   6
BYBLOCK
  62
0
  10
-0.50000000000000
  20
0.0
  30
0.0
  11
-1.0000000000000
  21
0.0
  31
0.0
   0
ENDBLK
   5
71
 100
AcDbEntity
   8
0
 100
AcDbBlockEnd
   0
BLOCK
   5
72
 100
AcDbEntity
   8
0
 100
AcDbBlockBegin
   2
_BOXFILLED
  70
0
  10
0.0
  20
0.0
  30
0.0
   3
_BOXFILLED
   0
SOLID
   5
73
 100
AcDbEntity
   8
0
 100
AcDbTrace
   6
BYBLOCK
  62
0
  10
-0.50000000000000
  20
 0.50000000000000
  30
0.0
  11
 0.50000000000000
  21
 0.50000000000000
  31
0.0
  12
-0.50000000000000
  22
-0.50000000000000
  32
0.0
  13
 0.50000000000000
  23
-0.50000000000000
  33
0.0
   0
LINE
   5
74
 100
AcDbEntity
   8
0
 370
-2
 100
AcDbLine
   6
BYBLOCK
  62
0
  10
-0.50000000000000
  20
0.0
  30
0.0
  11
-1.0000000000000
  21
0.0
  31
0.0
   0
ENDBLK
   5
75
 100
AcDbEntity
   8
0
 100
AcDbBlockEnd
   0
BLOCK
   5
76
 100
AcDbEntity
   8
0
 100
AcDbBlockBegin
   2
_CLOSED
  70
0
  10
0.0
  20
0.0
  30
0.0
   3
_CLOSED
   0
LINE
   5
77
 100
AcDbEntity
   8
0
 370
-2
 100
AcDbLine
   6
BYBLOCK
  62
0
  10
-1.0000000000000
  20
 0.16666666666667
  30
0.0
  11
0.0
  21
0.0
  31
0.0
   0
LINE
   5
78
 100
AcDbEntity
   8
0
 370
-2
 100
AcDbLine
   6
BYBLOCK
  62
0
  10
0.0
  20
0.0
  30
0.0
  11
-1.0000000000000
  21
-0.16666666666667
  31
0.0
   0
LINE
   5
79
 100
AcDbEntity
   8
0
 370
-2
 100
AcDbLine
   6
BYBLOCK
  62
0
  10
-1.0000000000000
  20
 0.16666666666667
  30
0.0
  11
-1.0000000000000
  21
-0.16666666666667
  31
0.0
   0
LINE
   5
7A
 100
AcDbEntity
   8
0
 370
-2
 100
AcDbLine
   6
BYBLOCK
  62
0
  10
0.0
  20
0.0
  30
0.0
  11
-1.0000000000000
  21
0.0
  31
0.0
   0
ENDBLK
   5
7B
 100
AcDbEntity
   8
0
 100
AcDbBlockEnd
   0
BLOCK
   5
7C
 100
AcDbEntity
   8
0
 100
AcDbBlockBegin
   2
_OPEN
  70
0
  10
0.0
  20
0.0
  30
0.0
   3
_OPEN
   0
LINE
   5
7D
 100
AcDbEntity
   8
0
 370
-2
 100
AcDbLine
   6
BYBLOCK
  62
0
  10
-1.0000000000000
  20
 0.16666666666667
  30
0.0
  11
0.0
  21
0.0
  31
0.0
   0
LINE
   5
7E
 100
AcDbEntity
   8
0
 370
-2
 100
AcDbLine
   6
BYBLOCK
  62
0
  10
0.0
  20
0.0
  30
0.0
  11
-1.0000000000000
  21
-0.16666666666667
  31
0.0
   0
LINE
   5
7F
 100
AcDbEntity
   8
0
 370
-2
 100
AcDbLine
   6
BYBLOCK
  62
0
  10
0.0
  20
0.0
  30
0.0
  11
-1.0000000000000
  21
0.0
  31
0.0
   0
ENDBLK
   5
80
 100
AcDbEntity
   8
0
 100
AcDbBlockEnd
   0
BLOCK
   5
81
 100
AcDbEntity
   8
0
 100
AcDbBlockBegin
   2
_OPEN30
  70
0
  10
0.0
  20
0.0
  30
0.0
   3
_OPEN30
   0
LINE
   5
82
 100
AcDbEntity
   8
0
 370
-2
 100
AcDbLine
   6
BYBLOCK
  62
0
  10
-1.0000000000000
  20
 0.26794919243110
  30
0.0
  11
0.0
  21
0.0
  31
0.0
   0
LINE
   5
83
 100
AcDbEntity
   8
0
 370
-2
 100
AcDbLine
   6
BYBLOCK
  62
0
  10
0.0
  20
0.0
  30
0.0
  11
-1.0000000000000
  21
-0.26794919243110
  31
0.0
   0
LINE
   5
84
 100
AcDbEntity
   8
0
 370
-2
 100
AcDbLine
   6
BYBLOCK
  62
0
  10
0.0
  20
0.0
  30
0.0
  11
-1.0000000000000
  21
0.0
  31
0.0
   0
ENDBLK
   5
85
 100
AcDbEntity
   8
0
 100
AcDbBlockEnd
   0
BLOCK
   5
86
 100
AcDbEntity
   8
0
 100
AcDbBlockBegin
   2
_OPEN90
  70
0
  10
0.0
  20
0.0
  30
0.0
   3
_OPEN90
   0
LINE
   5
87
 100
AcDbEntity
   8
0
 370
-2
 100
AcDbLine
   6
BYBLOCK
  62
0
  10
-0.50000000000000
  20
 0.50000000000000
  30
0.0
  11
0.0
  21
0.0
  31
0.0
   0
LINE
   5
88
 100
AcDbEntity
   8
0
 370
-2
 100
AcDbLine
   6
BYBLOCK
  62
0
  10
0.0
  20
0.0
  30
0.0
  11
-0.50000000000000
  21
-0.50000000000000
  31
0.0
   0
LINE
   5
89
 100
AcDbEntity
   8
0
 370
-2
 100
AcDbLine
   6
BYBLOCK
  62
0
  10
0.0
  20
0.0
  30
0.0
  11
-1.0000000000000
  21
0.0
  31
0.0
   0
ENDBLK
   5
8A
 100
AcDbEntity
   8
0
 100
AcDbBlockEnd
   0
BLOCK
   5
8B
 100
AcDbEntity
   8
0
 100
AcDbBlockBegin
   2
_CLOSEDBLANK
  70
0
  10
0.0
  20
0.0
  30
0.0
   3
_CLOSEDBLANK
   0
LINE
   5
8C
 100
AcDbEntity
   8
0
 370
-2
 100
AcDbLine
   6
BYBLOCK
  62
0
  10
-1.0000000000000
  20
 0.16666666666667
  30
0.0
  11
0.0
  21
0.0
  31
0.0
   0
LINE
   5
8D
 100
AcDbEntity
   8
0
 370
-2
 100
AcDbLine
   6
BYBLOCK
  62
0
  10
0.0
  20
0.0
  30
0.0
  11
-1.0000000000000
  21
-0.16666666666667
  31
0.0
   0
LINE
   5
8E
 100
AcDbEntity
   8
0
 370
-2
 100
AcDbLine
   6
BYBLOCK
  62
0
  10
-1.0000000000000
  20
 0.16666666666667
  30
0.0
  11
-1.0000000000000
  21
-0.16666666666667
  31
0.0
   0
ENDBLK
   5
8F
 100
AcDbEntity
   8
0
 100
AcDbBlockEnd
   0
BLOCK
   5
90
 100
AcDbEntity
   8
0
 100
AcDbBlockBegin
   2
_DOT
  70
0
  10
0.0
  20
0.0
  30
0.0
   3
_DOT
   0
POLYLINE
   5
91
 100
AcDbEntity
   8
0
 370
-2
   6
BYBLOCK
  62
0
 100
AcDb2dPolyline
  66
1
  10
0.0
  20
0.0
  30
0.0
  70
1
  40
 0.50000000000000
  41
 0.50000000000000
   0
VERTEX
   5
92
 100
AcDbEntity
   8
0
   6
BYBLOCK
  62
0
 100
AcDbVertex
 100
AcDb2dVertex
  10
-0.25000000000000
  20
0.0
  30
0.0
  42
 1.0000000000000
  40
 0.50000000000000
  41
 0.50000000000000
   0
VERTEX
   5
93
 100
AcDbEntity
   8
0
   6
BYBLOCK
  62
0
 100
AcDbVertex
 100
AcDb2dVertex
  10
 0.25000000000000
  20
0.0
  30
0.0
  42
 1.0000000000000
  40
 0.50000000000000
  41
 0.50000000000000
   0
SEQEND
   5
94
 100
AcDbEntity
   8
0
   6
BYBLOCK
  62
0
   0
LINE
   5
95
 100
AcDbEntity
   8
0
 370
-2
 100
AcDbLine
   6
BYBLOCK
  62
0
  10
-0.50000000000000
  20
0.0
  30
0.0
  11
-1.0000000000000
  21
0.0
  31
0.0
   0
ENDBLK
   5
96
 100
AcDbEntity
   8
0
 100
AcDbBlockEnd
   0
BLOCK
   5
97
 100
AcDbEntity
   8
0
 100
AcDbBlockBegin
   2
_DOTSMALL
  70
0
  10
0.0
  20
0.0
  30
0.0
   3
_DOTSMALL
   0
POLYLINE
   5
98
 100
AcDbEntity
   8
0
 370
-2
   6
BYBLOCK
  62
0
 100
AcDb2dPolyline
  66
1
  10
0.0
  20
0.0
  30
0.0
  70
1
  40
 0.50000000000000
  41
 0.50000000000000
   0
VERTEX
   5
99
 100
AcDbEntity
   8
0
   6
BYBLOCK
  62
0
 100
AcDbVertex
 100
AcDb2dVertex
  10
-0.62500000000000E-1
  20
0.0
  30
0.0
  42
 1.0000000000000
  40
 0.50000000000000
  41
 0.50000000000000
   0
VERTEX
   5
9A
 100
AcDbEntity
   8
0
   6
BYBLOCK
  62
0
 100
AcDbVertex
 100
AcDb2dVertex
  10
 0.62500000000000E-1
  20
0.0
  30
0.0
  42
 1.0000000000000
  40
 0.50000000000000
  41
 0.50000000000000
   0
SEQEND
   5
9B
 100
AcDbEntity
   8
0
   6
BYBLOCK
  62
0
   0
ENDBLK
   5
9C
 100
AcDbEntity
   8
0
 100
AcDbBlockEnd
   0
BLOCK
   5
9D
 100
AcDbEntity
   8
0
 100
AcDbBlockBegin
   2
_DATUMBLANK
  70
0
  10
0.0
  20
0.0
  30
0.0
   3
_DATUMBLANK
   0
LINE
   5
9E
 100
AcDbEntity
   8
0
 370
-2
 100
AcDbLine
   6
BYBLOCK
  62
0
  10
0.0
  20
 0.57735027000000
  30
0.0
  11
-1.0000000000000
  21
0.0
  31
0.0
   0
LINE
   5
9F
 100
AcDbEntity
   8
0
 370
-2
 100
AcDbLine
   6
BYBLOCK
  62
0
  10
-1.0000000000000
  20
0.0
  30
0.0
  11
0.0
  21
-0.57735027000000
  31
0.0
   0
LINE
   5
A0
 100
AcDbEntity
   8
0
 370
-2
 100
AcDbLine
   6
BYBLOCK
  62
0
  10
0.0
  20
-0.57735027000000
  30
0.0
  11
0.0
  21
 0.57735027000000
  31
0.0
   0
ENDBLK
   5
A1
 100
AcDbEntity
   8
0
 100
AcDbBlockEnd
   0
BLOCK
   5
A2
 100
AcDbEntity
   8
0
 100
AcDbBlockBegin
   2
_DATUMFILLED
  70
0
  10
0.0
  20
0.0
  30
0.0
   3
_DATUMFILLED
   0
SOLID
   5
A3
 100
AcDbEntity
   8
0
 100
AcDbTrace
   6
BYBLOCK
  62
0
  10
0.0
  20
 0.57735027000000
  30
0.0
  11
-1.0000000000000
  21
0.0
  31
0.0
  12
0.0
  22
-0.57735027000000
  32
0.0
  13
0.0
  23
-0.57735027000000
  33
0.0
   0
ENDBLK
   5
A4
 100
AcDbEntity
   8
0
 100
AcDbBlockEnd
   0
BLOCK
   5
A5
 100
AcDbEntity
   8
0
 100
AcDbBlockBegin
   2
_ORIGIN
  70
0
  10
0.0
  20
0.0
  30
0.0
   3
_ORIGIN
   0
CIRCLE
   5
A6
 100
AcDbEntity
   8
0
 370
-2
 100
AcDbCircle
   6
BYBLOCK
  62
0
  10
0.0
  20
0.0
  30
0.0
  40
 0.50000000000000
   0
LINE
   5
A7
 100
AcDbEntity
   8
0
 370
-2
 100
AcDbLine
   6
BYBLOCK
  62
0
  10
0.0
  20
0.0
  30
0.0
  11
-1.0000000000000
  21
0.0
  31
0.0
   0
ENDBLK
   5
A8
 100
AcDbEntity
   8
0
 100
AcDbBlockEnd
   0
BLOCK
   5
A9
 100
AcDbEntity
   8
0
 100
AcDbBlockBegin
   2
_NONE
  70
0
  10
0.0
  20
0.0
  30
0.0
   3
_NONE
   0
CIRCLE
   5
AA
 100
AcDbEntity
   8
0
 370
-2
 100
AcDbCircle
   6
BYBLOCK
  62
0
  10
0.0
  20
0.0
  30
0.0
  40
 0.25000000000000
   0
ENDBLK
   5
AB
 100
AcDbEntity
   8
0
 100
AcDbBlockEnd
   0
BLOCK
   5
AC
 100
AcDbEntity
   8
0
 100
AcDbBlockBegin
   2
_DOTBLANK
  70
0
  10
0.0
  20
0.0
  30
0.0
   3
_DOTBLANK
   0
CIRCLE
   5
AD
 100
AcDbEntity
   8
0
 370
-2
 100
AcDbCircle
   6
BYBLOCK
  62
0
  10
0.0
  20
0.0
  30
0.0
  40
 0.50000000000000
   0
LINE
   5
AE
 100
AcDbEntity
   8
0
 370
-2
 100
AcDbLine
   6
BYBLOCK
  62
0
  10
-0.50000000000000
  20
0.0
  30
0.0
  11
-1.0000000000000
  21
0.0
  31
0.0
   0
ENDBLK
   5
AF
 100
AcDbEntity
   8
0
 100
AcDbBlockEnd
   0
BLOCK
   5
B0
 100
AcDbEntity
   8
0
 100
AcDbBlockBegin
   2
_INTEGRAL
  70
0
  10
0.0
  20
0.0
  30
0.0
   3
_INTEGRAL
   0
ARC
   5
B1
 100
AcDbEntity
   8
0
 370
-2
   6
BYBLOCK
  62
0
 100
AcDbCircle
  10
 0.44488800000000
  20
-0.91335000000000E-1
  30
0.0
  40
 0.45416700000000
 100
AcDbArc
  50
 102.00000000000
  51
 168.00000000000
   0
ARC
   5
B2
 100
AcDbEntity
   8
0
 370
-2
   6
BYBLOCK
  62
0
 100
AcDbCircle
  10
-0.44488800000000
  20
 0.91335000000000E-1
  30
0.0
  40
 0.45416700000000
 100
AcDbArc
  50
 282.00000000000
  51
 348.00000000000
   0
ENDBLK
   5
B3
 100
AcDbEntity
   8
0
 100
AcDbBlockEnd
   0
BLOCK
   5
B4
 100
AcDbEntity
   8
0
 100
AcDbBlockBegin
   2
*D1
  70
65
  10
0.0
  20
0.0
  30
0.0
   3
*D1
   0
LINE
   5
B5
 100
AcDbEntity
   8
LEVEL001
 370
9
 100
AcDbLine
   6
CONTINUOUS
  62
6
  10
 1759.8076211353
  20
 4720.0000000000
  30
0.0
  11
 1240.1923788647
  21
 4420.0000000000
  31
0.0
   0
INSERT
   5
B6
 100
AcDbEntity
   8
LEVEL001
   6
CONTINUOUS
  62
6
 100
AcDbBlockReference
   2
_OPEN
  10
 1759.8076211353
  20
 4720.0000000000
  30
0.0
  41
 30.000000000000
  42
 30.000000000000
  43
 30.000000000000
  50
 30.000000000004
   0
INSERT
   5
B7
 100
AcDbEntity
   8
LEVEL001
   6
CONTINUOUS
  62
6
 100
AcDbBlockReference
   2
_OPEN
  10
 1240.1923788647
  20
 4420.0000000000
  30
0.0
  41
 30.000000000000
  42
 30.000000000000
  43
 30.000000000000
  50
 210.00000000000
   0
MTEXT
   5
B8
 100
AcDbEntity
   8
LEVEL001
 370
9
  62
1
 100
AcDbMText
  10
 1485.8571428571
  20
 4594.4961471356
  30
0.0
  40
 66.000000000000
  41
0.0
  71
8
  72
1
   1
\A1;%%c600
   7
GMM003
  11
 0.86602540378441
  21
 0.50000000000006
  31
0.0
   0
ENDBLK
   5
B9
 100
AcDbEntity
   8
0
 100
AcDbBlockEnd
   0
BLOCK
   5
BA
 100
AcDbEntity
   8
0
 100
AcDbBlockBegin
   2
*D11
  70
65
  10
0.0
  20
0.0
  30
0.0
   3
*D11
   0
LINE
   5
BB
 100
AcDbEntity
   8
LEVEL001
 370
9
 100
AcDbLine
   6
CONTINUOUS
  62
6
  10
 1220.0004095886
  20
 870.00000000087
  30
0.0
  11
 720.00000000000
  21
 870.00000000087
  31
0.0
   0
LINE
   5
BC
 100
AcDbEntity
   8
LEVEL001
 370
9
 100
AcDbLine
   6
CONTINUOUS
  62
6
  10
 1220.0004095886
  20
 970.00000000086
  30
0.0
  11
 720.00000000000
  21
 970.00000000086
  31
0.0
   0
LINE
   5
BD
 100
AcDbEntity
   8
LEVEL001
 370
9
 100
AcDbLine
   6
CONTINUOUS
  62
6
  10
 750.00000000000
  20
 870.00000000087
  30
0.0
  11
 750.00000000000
  21
 970.00000000086
  31
0.0
   0
INSERT
   5
BE
 100
AcDbEntity
   8
LEVEL001
   6
CONTINUOUS
  62
6
 100
AcDbBlockReference
   2
_OPEN
  10
 750.00000000000
  20
 870.00000000087
  30
0.0
  41
 30.000000000000
  42
 30.000000000000
  43
 30.000000000000
  50
 270.00000000000
   0
INSERT
   5
BF
 100
AcDbEntity
   8
LEVEL001
   6
CONTINUOUS
  62
6
 100
AcDbBlockReference
   2
_OPEN
  10
 750.00000000000
  20
 970.00000000086
  30
0.0
  41
 30.000000000000
  42
 30.000000000000
  43
 30.000000000000
  50
 90.000000000000
   0
MTEXT
   5
C0
 100
AcDbEntity
   8
LEVEL001
 370
9
  62
1
 100
AcDbMText
  10
 721.71428571429
  20
 920.00000000087
  30
0.0
  40
 66.000000000000
  41
0.0
  71
8
  72
1
   1
\A1;100
   7
GMM003
  11
0.0
  21
 1.0000000000000
  31
0.0
   0
ENDBLK
   5
C1
 100
AcDbEntity
   8
0
 100
AcDbBlockEnd
   0
BLOCK
   5
C2
 100
AcDbEntity
   8
0
 100
AcDbBlockBegin
   2
*D12
  70
65
  10
0.0
  20
0.0
  30
0.0
   3
*D12
   0
LINE
   5
C3
 100
AcDbEntity
   8
LEVEL001
 370
9
 100
AcDbLine
   6
CONTINUOUS
  62
6
  10
 1220.0004095886
  20
 970.00000000086
  30
0.0
  11
 720.00000000000
  21
 970.00000000086
  31
0.0
   0
LINE
   5
C4
 100
AcDbEntity
   8
LEVEL001
 370
9
 100
AcDbLine
   6
CONTINUOUS
  62
6
  10
 920.00047482356
  20
 1770.0000000009
  30
0.0
  11
 720.00000000000
  21
 1770.0000000009
  31
0.0
   0
LINE
   5
C5
 100
AcDbEntity
   8
LEVEL001
 370
9
 100
AcDbLine
   6
CONTINUOUS
  62
6
  10
 750.00000000000
  20
 970.00000000086
  30
0.0
  11
 750.00000000000
  21
 1770.0000000009
  31
0.0
   0
INSERT
   5
C6
 100
AcDbEntity
   8
LEVEL001
   6
CONTINUOUS
  62
6
 100
AcDbBlockReference
   2
_OPEN
  10
 750.00000000000
  20
 970.00000000086
  30
0.0
  41
 30.000000000000
  42
 30.000000000000
  43
 30.000000000000
  50
 270.00000000000
   0
INSERT
   5
C7
 100
AcDbEntity
   8
LEVEL001
   6
CONTINUOUS
  62
6
 100
AcDbBlockReference
   2
_OPEN
  10
 750.00000000000
  20
 1770.0000000009
  30
0.0
  41
 30.000000000000
  42
 30.000000000000
  43
 30.000000000000
  50
 90.000000000000
   0
MTEXT
   5
C8
 100
AcDbEntity
   8
LEVEL001
 370
9
  62
1
 100
AcDbMText
  10
 721.71428571429
  20
 1370.0000000009
  30
0.0
  40
 66.000000000000
  41
0.0
  71
8
  72
1
   1
\A1;800
   7
GMM003
  11
0.0
  21
 1.0000000000000
  31
0.0
   0
ENDBLK
   5
C9
 100
AcDbEntity
   8
0
 100
AcDbBlockEnd
   0
BLOCK
   5
CA
 100
AcDbEntity
   8
0
 100
AcDbBlockBegin
   2
*D13
  70
65
  10
0.0
  20
0.0
  30
0.0
   3
*D13
   0
LINE
   5
CB
 100
AcDbEntity
   8
LEVEL001
 370
9
 100
AcDbLine
   6
CONTINUOUS
  62
6
  10
 920.00047482356
  20
 1770.0000000009
  30
0.0
  11
 720.00000000000
  21
 1770.0000000009
  31
0.0
   0
LINE
   5
CC
 100
AcDbEntity
   8
LEVEL001
 370
9
 100
AcDbLine
   6
CONTINUOUS
  62
6
  10
 1470.0000000000
  20
 4270.0000000009
  30
0.0
  11
 720.00000000000
  21
 4270.0000000009
  31
0.0
   0
LINE
   5
CD
 100
AcDbEntity
   8
LEVEL001
 370
9
 100
AcDbLine
   6
CONTINUOUS
  62
6
  10
 750.00000000000
  20
 1770.0000000009
  30
0.0
  11
 750.00000000000
  21
 4270.0000000009
  31
0.0
   0
INSERT
   5
CE
 100
AcDbEntity
   8
LEVEL001
   6
CONTINUOUS
  62
6
 100
AcDbBlockReference
   2
_OPEN
  10
 750.00000000000
  20
 1770.0000000009
  30
0.0
  41
 30.000000000000
  42
 30.000000000000
  43
 30.000000000000
  50
 270.00000000000
   0
INSERT
   5
CF
 100
AcDbEntity
   8
LEVEL001
   6
CONTINUOUS
  62
6
 100
AcDbBlockReference
   2
_OPEN
  10
 750.00000000000
  20
 4270.0000000009
  30
0.0
  41
 30.000000000000
  42
 30.000000000000
  43
 30.000000000000
  50
 90.000000000000
   0
MTEXT
   5
D0
 100
AcDbEntity
   8
LEVEL001
 370
9
  62
1
 100
AcDbMText
  10
 721.71428571429
  20
 3020.0000000009
  30
0.0
  40
 66.000000000000
  41
0.0
  71
8
  72
1
   1
\A1;2500(標準設置高さ)
   7
GMM003
  11
0.0
  21
 1.0000000000000
  31
0.0
   0
ENDBLK
   5
D1
 100
AcDbEntity
   8
0
 100
AcDbBlockEnd
   0
BLOCK
   5
D2
 100
AcDbEntity
   8
0
 100
AcDbBlockBegin
   2
*D14
  70
65
  10
0.0
  20
0.0
  30
0.0
   3
*D14
   0
LINE
   5
D3
 100
AcDbEntity
   8
LEVEL001
 370
9
 100
AcDbLine
   6
CONTINUOUS
  62
6
  10
 2650.0000000000
  20
 3020.0000000009
  30
0.0
  11
 2650.0000000000
  21
 3020.0000000009
  31
0.0
   0
LINE
   5
D4
 100
AcDbEntity
   8
LEVEL001
 370
9
 100
AcDbLine
   6
CONTINUOUS
  62
6
  10
 3000.0000000000
  20
 4256.0218857113
  30
0.0
  11
 3000.0000000000
  21
 2990.0000000009
  31
0.0
   0
LINE
   5
D5
 100
AcDbEntity
   8
LEVEL001
 370
9
 100
AcDbLine
   6
CONTINUOUS
  62
6
  10
 2650.0000000000
  20
 3020.0000000009
  30
0.0
  11
 3000.0000000000
  21
 3020.0000000009
  31
0.0
   0
INSERT
   5
D6
 100
AcDbEntity
   8
LEVEL001
   6
CONTINUOUS
  62
6
 100
AcDbBlockReference
   2
_OPEN
  10
 2650.0000000000
  20
 3020.0000000009
  30
0.0
  41
 30.000000000000
  42
 30.000000000000
  43
 30.000000000000
  50
 180.00000000000
   0
INSERT
   5
D7
 100
AcDbEntity
   8
LEVEL001
   6
CONTINUOUS
  62
6
 100
AcDbBlockReference
   2
_OPEN
  10
 3000.0000000000
  20
 3020.0000000009
  30
0.0
  41
 30.000000000000
  42
 30.000000000000
  43
 30.000000000000
  50
0.0
   0
MTEXT
   5
D8
 100
AcDbEntity
   8
LEVEL001
 370
9
  62
1
 100
AcDbMText
  10
 2825.0000000000
  20
 3048.2857142866
  30
0.0
  40
 66.000000000000
  41
0.0
  71
8
  72
1
   1
\A1;350
   7
GMM003
   0
ENDBLK
   5
D9
 100
AcDbEntity
   8
0
 100
AcDbBlockEnd
   0
BLOCK
   5
DA
 100
AcDbEntity
   8
0
 100
AcDbBlockBegin
   2
*D17
  70
65
  10
0.0
  20
0.0
  30
0.0
   3
*D17
   0
LINE
   5
DB
 100
AcDbEntity
   8
LEVEL001
 370
9
 100
AcDbLine
   6
CONTINUOUS
  62
6
  10
 1250.0004095886
  20
 840.00000000087
  30
0.0
  11
 1250.0004095886
  21
 540.00000000087
  31
0.0
   0
LINE
   5
DC
 100
AcDbEntity
   8
LEVEL001
 370
9
 100
AcDbLine
   6
CONTINUOUS
  62
6
  10
 1750.0004095886
  20
 840.00000000087
  30
0.0
  11
 1750.0004095886
  21
 540.00000000087
  31
0.0
   0
LINE
   5
DD
 100
AcDbEntity
   8
LEVEL001
 370
9
 100
AcDbLine
   6
CONTINUOUS
  62
6
  10
 1250.0004095886
  20
 570.00000000087
  30
0.0
  11
 1750.0004095886
  21
 570.00000000087
  31
0.0
   0
INSERT
   5
DE
 100
AcDbEntity
   8
LEVEL001
   6
CONTINUOUS
  62
6
 100
AcDbBlockReference
   2
_OPEN
  10
 1250.0004095886
  20
 570.00000000087
  30
0.0
  41
 30.000000000000
  42
 30.000000000000
  43
 30.000000000000
  50
 180.00000000000
   0
INSERT
   5
DF
 100
AcDbEntity
   8
LEVEL001
   6
CONTINUOUS
  62
6
 100
AcDbBlockReference
   2
_OPEN
  10
 1750.0004095886
  20
 570.00000000087
  30
0.0
  41
 30.000000000000
  42
 30.000000000000
  43
 30.000000000000
  50
0.0
   0
MTEXT
   5
E0
 100
AcDbEntity
   8
LEVEL001
 370
9
  62
1
 100
AcDbMText
  10
 1500.0004095886
  20
 598.28571428658
  30
0.0
  40
 66.000000000000
  41
0.0
  71
8
  72
1
   1
\A1;□500
   7
GMM003
   0
ENDBLK
   5
E1
 100
AcDbEntity
   8
0
 100
AcDbBlockEnd
   0
BLOCK
   5
E2
 100
AcDbEntity
   8
0
 100
AcDbBlockBegin
   2
*D18
  70
65
  10
0.0
  20
0.0
  30
0.0
   3
*D18
   0
LINE
   5
E3
 100
AcDbEntity
   8
LEVEL001
 370
9
 100
AcDbLine
   6
CONTINUOUS
  62
6
  10
 2400.0000000000
  20
 840.00000000087
  30
0.0
  11
 2400.0000000000
  21
 540.00000000087
  31
0.0
   0
LINE
   5
E4
 100
AcDbEntity
   8
LEVEL001
 370
9
 100
AcDbLine
   6
CONTINUOUS
  62
6
  10
 2900.0000000000
  20
 840.00000000087
  30
0.0
  11
 2900.0000000000
  21
 540.00000000087
  31
0.0
   0
LINE
   5
E5
 100
AcDbEntity
   8
LEVEL001
 370
9
 100
AcDbLine
   6
CONTINUOUS
  62
6
  10
 2400.0000000000
  20
 570.00000000087
  30
0.0
  11
 2900.0000000000
  21
 570.00000000087
  31
0.0
   0
INSERT
   5
E6
 100
AcDbEntity
   8
LEVEL001
   6
CONTINUOUS
  62
6
 100
AcDbBlockReference
   2
_OPEN
  10
 2400.0000000000
  20
 570.00000000087
  30
0.0
  41
 30.000000000000
  42
 30.000000000000
  43
 30.000000000000
  50
 180.00000000000
   0
INSERT
   5
E7
 100
AcDbEntity
   8
LEVEL001
   6
CONTINUOUS
  62
6
 100
AcDbBlockReference
   2
_OPEN
  10
 2900.0000000000
  20
 570.00000000087
  30
0.0
  41
 30.000000000000
  42
 30.000000000000
  43
 30.000000000000
  50
0.0
   0
MTEXT
   5
E8
 100
AcDbEntity
   8
LEVEL001
 370
9
  62
1
 100
AcDbMText
  10
 2650.0000000000
  20
 598.28571428658
  30
0.0
  40
 66.000000000000
  41
0.0
  71
8
  72
1
   1
\A1;□500
   7
GMM003
   0
ENDBLK
   5
E9
 100
AcDbEntity
   8
0
 100
AcDbBlockEnd
   0
ENDSEC
   0
SECTION
   2
ENTITIES
   0
LINE
   5
EA
 100
AcDbEntity
   8
LEVEL001
 370
9
 100
AcDbLine
   6
CONTINUOUS
  62
6
  10
 8226.6668701172
  20
 3260.0000000000
  30
0.0
  11
 8226.6668701172
  21
 870.00000000000
  31
0.0
   0
LINE
   5
EB
 100
AcDbEntity
   8
LEVEL001
 370
9
 100
AcDbLine
   6
CONTINUOUS
  62
6
  10
 5710.9090909091
  20
 870.00000000000
  30
0.0
  11
 8226.6668701172
  21
 870.00000000000
  31
0.0
   0
LINE
   5
EC
 100
AcDbEntity
   8
LEVEL001
 370
9
 100
AcDbLine
   6
CONTINUOUS
  62
6
  10
 5710.9090909091
  20
 1520.0000000000
  30
0.0
  11
 8226.6668701172
  21
 1520.0000000000
  31
0.0
   0
LINE
   5
ED
 100
AcDbEntity
   8
LEVEL001
 370
9
 100
AcDbLine
   6
CONTINUOUS
  62
6
  10
 5710.9090909091
  20
 1390.0000000000
  30
0.0
  11
 8226.6668701172
  21
 1390.0000000000
  31
0.0
   0
LINE
   5
EE
 100
AcDbEntity
   8
LEVEL001
 370
9
 100
AcDbLine
   6
CONTINUOUS
  62
6
  10
 5710.9090909091
  20
 1260.0000000000
  30
0.0
  11
 8226.6668701172
  21
 1260.0000000000
  31
0.0
   0
LINE
   5
EF
 100
AcDbEntity
   8
LEVEL001
 370
9
 100
AcDbLine
   6
CONTINUOUS
  62
6
  10
 5710.9090909091
  20
 1130.0000000000
  30
0.0
  11
 8226.6668701172
  21
 1130.0000000000
  31
0.0
   0
MTEXT
   5
F1
 100
AcDbEntity
   8
LEVEL001
 370
13
  62
1
 100
AcDbMText
  10
 5881.8880646631
  20
 1153.5736076959
  30
0.0
  40
 80.000000000000
  41
0.0
  71
9
  72
1
   1
\T1.000000;１３
   7
GMM001
  44
 0.79999984000003
   0
MTEXT
   5
F3
 100
AcDbEntity
   8
LEVEL001
 370
13
  62
1
 100
AcDbMText
  10
 5881.8880646631
  20
 1283.5736076959
  30
0.0
  40
 80.000000000000
  41
0.0
  71
9
  72
1
   1
\T1.000000;１２
   7
GMM001
  44
 0.79999984000003
   0
MTEXT
   5
F5
 100
AcDbEntity
   8
LEVEL001
 370
13
  62
1
 100
AcDbMText
  10
 5881.8880646631
  20
 1413.5736076959
  30
0.0
  40
 80.000000000000
  41
0.0
  71
9
  72
1
   1
\T1.000000;１１
   7
GMM001
  44
 0.79999984000003
   0
LINE
   5
F6
 100
AcDbEntity
   8
LEVEL001
 370
9
 100
AcDbLine
   6
CONTINUOUS
  62
6
  10
 5710.9090909091
  20
 1000.0000000000
  30
0.0
  11
 8226.6668701172
  21
 1000.0000000000
  31
0.0
   0
MTEXT
   5
F8
 100
AcDbEntity
   8
LEVEL001
 370
13
  62
1
 100
AcDbMText
  10
 5881.8880646631
  20
 1023.5736076959
  30
0.0
  40
 80.000000000000
  41
0.0
  71
9
  72
1
   1
\T1.000000;１４
   7
GMM001
  44
 0.79999984000003
   0
MTEXT
   5
FA
 100
AcDbEntity
   8
LEVEL001
 370
13
  62
1
 100
AcDbMText
  10
 5881.8880646631
  20
 893.57360769589
  30
0.0
  40
 80.000000000000
  41
0.0
  71
9
  72
1
   1
\T1.000000;１５
   7
GMM001
  44
 0.79999984000003
   0
MTEXT
   5
FC
 100
AcDbEntity
   8
LEVEL001
 370
13
  62
1
 100
AcDbMText
  10
 5960.9090909091
  20
 893.57360769589
  30
0.0
  40
 80.000000000000
  41
0.0
  71
7
  72
1
   1
\T1.000000;同上ボルトナット
   7
GMM002
  44
 0.79999984000003
   0
MTEXT
   5
FE
 100
AcDbEntity
   8
LEVEL001
 370
13
  62
1
 100
AcDbMText
  10
 5960.9090909091
  20
 1023.5736076959
  30
0.0
  40
 80.000000000000
  41
0.0
  71
7
  72
1
   1
\T1.000000;注意板取付バンド
   7
GMM002
  44
 0.79999984000003
   0
MTEXT
   5
100
 100
AcDbEntity
   8
LEVEL001
 370
13
  62
1
 100
AcDbMText
  10
 6931.8880646631
  20
 1153.5736076959
  30
0.0
  40
 80.000000000000
  41
0.0
  71
9
  72
1
   1
\T1.000000;１
   7
GMM002
  44
 0.79999984000003
   0
MTEXT
   5
102
 100
AcDbEntity
   8
LEVEL001
 370
13
  62
1
 100
AcDbMText
  10
 5960.9090909091
  20
 1283.5736076959
  30
0.0
  40
 80.000000000000
  41
0.0
  71
7
  72
1
   1
\T1.000000;キャップ
   7
GMM002
  44
 0.79999984000003
   0
MTEXT
   5
104
 100
AcDbEntity
   8
LEVEL001
 370
13
  62
1
 100
AcDbMText
  10
 6931.8880646631
  20
 1283.5736076959
  30
0.0
  40
 80.000000000000
  41
0.0
  71
9
  72
1
   1
\T1.000000;１
   7
GMM002
  44
 0.79999984000003
   0
MTEXT
   5
106
 100
AcDbEntity
   8
LEVEL001
 370
13
  62
1
 100
AcDbMText
  10
 7010.9090909091
  20
 1283.5736076959
  30
0.0
  40
 80.000000000000
  41
0.0
  71
7
  72
1
   1
\T1.000000;ＰＥ
   7
GMM002
  44
 0.79999984000003
   0
MTEXT
   5
108
 100
AcDbEntity
   8
LEVEL001
 370
13
  62
1
 100
AcDbMText
  10
 5960.9090909091
  20
 1413.5736076959
  30
0.0
  40
 80.000000000000
  41
0.0
  71
7
  72
1
   1
\T1.000000;根入れ鉄筋
   7
GMM002
  44
 0.79999984000003
   0
MTEXT
   5
10A
 100
AcDbEntity
   8
LEVEL001
 370
13
  62
1
 100
AcDbMText
  10
 6931.8880646631
  20
 1413.5736076959
  30
0.0
  40
 80.000000000000
  41
0.0
  71
9
  72
1
   1
\T1.000000;１
   7
GMM002
  44
 0.79999984000003
   0
MTEXT
   5
10C
 100
AcDbEntity
   8
LEVEL001
 370
13
  62
1
 100
AcDbMText
  10
 7010.9090909091
  20
 1413.5736076959
  30
0.0
  40
 80.000000000000
  41
0.0
  71
7
  72
1
   1
\T1.000000;ＳＤ２９５Ａ
   7
GMM002
  44
 0.79999984000003
   0
LWPOLYLINE
   5
10D
 100
AcDbEntity
   8
LEVEL001
 370
25
   6
CONTINUOUS
  62
7
 100
AcDbPolyline
  90
4
  70
1
  10
 440.00000000000
  20
 170.00000000000
  10
 440.00000000000
  20
 5770.0000000000
  10
 8226.6668701172
  20
 5770.0000000000
  10
 8226.6668701172
  20
 170.00000000000
   0
LINE
   5
10E
 100
AcDbEntity
   8
LEVEL001
 370
13
 100
AcDbLine
   6
CONTINUOUS
  62
1
  10
 5710.9090909091
  20
 650.00000000000
  30
0.0
  11
 7350.9090909091
  21
 650.00000000000
  31
0.0
   0
CIRCLE
   5
10F
 100
AcDbEntity
   8
LEVEL001
 370
13
 100
AcDbCircle
   6
CONTINUOUS
  62
1
  10
 2250.0000000000
  20
 4270.0000000009
  30
0.0
  40
 69.999997913838
   0
MTEXT
   5
111
 100
AcDbEntity
   8
LEVEL001
 370
25
  62
7
 100
AcDbMText
  10
 2250.0000000000
  20
 4270.0000000009
  30
0.0
  40
 66.000000000000
  41
0.0
  71
5
  72
1
   1
\T1.000000;１
   7
GMM003
  44
 0.79999984000003
   0
CIRCLE
   5
112
 100
AcDbEntity
   8
LEVEL001
 370
13
 100
AcDbCircle
   6
CONTINUOUS
  62
1
  10
 2250.0000000000
  20
 4895.0000000009
  30
0.0
  40
 69.999997913838
   0
MTEXT
   5
114
 100
AcDbEntity
   8
LEVEL001
 370
25
  62
7
 100
AcDbMText
  10
 2250.0000000000
  20
 4895.0000000009
  30
0.0
  40
 66.000000000000
  41
0.0
  71
5
  72
1
   1
\T1.000000;３
   7
GMM003
  44
 0.79999984000003
   0
CIRCLE
   5
115
 100
AcDbEntity
   8
LEVEL001
 370
13
 100
AcDbCircle
   6
CONTINUOUS
  62
1
  10
 1250.0000000000
  20
 4145.0000000009
  30
0.0
  40
 69.999997913838
   0
MTEXT
   5
117
 100
AcDbEntity
   8
LEVEL001
 370
25
  62
7
 100
AcDbMText
  10
 1250.0000000000
  20
 4145.0000000009
  30
0.0
  40
 66.000000000000
  41
0.0
  71
5
  72
1
   1
\T1.000000;５
   7
GMM003
  44
 0.79999984000003
   0
CIRCLE
   5
118
 100
AcDbEntity
   8
LEVEL001
 370
13
 100
AcDbCircle
   6
CONTINUOUS
  62
1
  10
 1750.0000000000
  20
 4145.0000000009
  30
0.0
  40
 69.999997913838
   0
MTEXT
   5
11A
 100
AcDbEntity
   8
LEVEL001
 370
25
  62
7
 100
AcDbMText
  10
 1750.0000000000
  20
 4145.0000000009
  30
0.0
  40
 66.000000000000
  41
0.0
  71
5
  72
1
   1
\T1.000000;４
   7
GMM003
  44
 0.79999984000003
   0
CIRCLE
   5
11B
 100
AcDbEntity
   8
LEVEL001
 370
13
 100
AcDbCircle
   6
CONTINUOUS
  62
1
  10
 3125.0000000000
  20
 4895.0000000009
  30
0.0
  40
 69.999997913838
   0
MTEXT
   5
11D
 100
AcDbEntity
   8
LEVEL001
 370
25
  62
7
 100
AcDbMText
  10
 3125.0000000000
  20
 4895.0000000009
  30
0.0
  40
 66.000000000000
  41
0.0
  71
5
  72
1
   1
\T1.000000;１２
   7
GMM003
  44
 0.79999984000003
   0
CIRCLE
   5
11E
 100
AcDbEntity
   8
LEVEL001
 370
13
 100
AcDbCircle
   6
CONTINUOUS
  62
1
  10
 4000.0000000000
  20
 4145.0000000009
  30
0.0
  40
 69.999997913838
   0
MTEXT
   5
120
 100
AcDbEntity
   8
LEVEL001
 370
25
  62
7
 100
AcDbMText
  10
 4000.0000000000
  20
 4145.0000000009
  30
0.0
  40
 66.000000000000
  41
0.0
  71
5
  72
1
   1
\T1.000000;２
   7
GMM003
  44
 0.79999984000003
   0
CIRCLE
   5
121
 100
AcDbEntity
   8
LEVEL001
 370
13
 100
AcDbCircle
   6
CONTINUOUS
  62
1
  10
 3250.0000000000
  20
 4770.0000000009
  30
0.0
  40
 69.999997913838
   0
CIRCLE
   5
122
 100
AcDbEntity
   8
LEVEL001
 370
13
 100
AcDbCircle
   6
CONTINUOUS
  62
1
  10
 3389.9999958277
  20
 4770.0000000009
  30
0.0
  40
 69.999997913838
   0
MTEXT
   5
124
 100
AcDbEntity
   8
LEVEL001
 370
25
  62
7
 100
AcDbMText
  10
 3250.0000000000
  20
 4770.0000000009
  30
0.0
  40
 66.000000000000
  41
0.0
  71
5
  72
1
   1
\T1.000000;７
   7
GMM003
  44
 0.79999984000003
   0
MTEXT
   5
126
 100
AcDbEntity
   8
LEVEL001
 370
25
  62
7
 100
AcDbMText
  10
 3389.9999958277
  20
 4770.0000000009
  30
0.0
  40
 66.000000000000
  41
0.0
  71
5
  72
1
   1
\T1.000000;９
   7
GMM003
  44
 0.79999984000003
   0
CIRCLE
   5
127
 100
AcDbEntity
   8
LEVEL001
 370
13
 100
AcDbCircle
   6
CONTINUOUS
  62
1
  10
 3000.0000000000
  20
 5082.5000000009
  30
0.0
  40
 69.999997913838
   0
CIRCLE
   5
128
 100
AcDbEntity
   8
LEVEL001
 370
13
 100
AcDbCircle
   6
CONTINUOUS
  62
1
  10
 3139.9999958277
  20
 5082.5000000009
  30
0.0
  40
 69.999997913838
   0
MTEXT
   5
12A
 100
AcDbEntity
   8
LEVEL001
 370
25
  62
7
 100
AcDbMText
  10
 3000.0000000000
  20
 5082.5000000009
  30
0.0
  40
 66.000000000000
  41
0.0
  71
5
  72
1
   1
\T1.000000;６
   7
GMM003
  44
 0.79999984000003
   0
MTEXT
   5
12C
 100
AcDbEntity
   8
LEVEL001
 370
25
  62
7
 100
AcDbMText
  10
 3139.9999958277
  20
 5082.5000000009
  30
0.0
  40
 66.000000000000
  41
0.0
  71
5
  72
1
   1
\T1.000000;８
   7
GMM003
  44
 0.79999984000003
   0
CIRCLE
   5
12D
 100
AcDbEntity
   8
LEVEL001
 370
25
 100
AcDbCircle
   6
CONTINUOUS
  62
7
  10
 1500.0000000000
  20
 4570.0000000000
  30
0.0
  40
 300.00000000000
   0
LINE
   5
12E
 100
AcDbEntity
   8
LEVEL001
 370
25
 100
AcDbLine
   6
CONTINUOUS
  62
7
  10
 1793.2030013489
  20
 4661.0000000000
  30
0.0
  11
 1785.8653529199
  21
 4661.0000000000
  31
0.0
   0
LINE
   5
12F
 100
AcDbEntity
   8
LEVEL001
 370
25
 100
AcDbLine
   6
CONTINUOUS
  62
7
  10
 1206.7969986511
  20
 4661.0000000000
  30
0.0
  11
 1214.1346470801
  21
 4661.0000000000
  31
0.0
   0
ARC
   5
130
 100
AcDbEntity
   8
LEVEL001
 370
13
   6
CONTINUOUS
  62
1
 100
AcDbCircle
  10
 1778.2364906202
  20
 4699.7438063544
  30
0.0
  40
 7.5000000000000
 100
AcDbArc
  50
 294.30011558161
  51
 115.69988441839
   0
ARC
   5
131
 100
AcDbEntity
   8
LEVEL001
 370
13
   6
CONTINUOUS
  62
1
 100
AcDbCircle
  10
 1221.7635093798
  20
 4699.7438063544
  30
0.0
  40
 7.5000000000000
 100
AcDbArc
  50
 64.300115581635
  51
 245.69988441836
   0
ARC
   5
132
 100
AcDbEntity
   8
LEVEL001
 370
13
   6
CONTINUOUS
  62
1
 100
AcDbCircle
  10
 1500.0000000000
  20
 4270.0000000000
  30
0.0
  40
 7.5000000000000
 100
AcDbArc
  50
 179.28378410398
  51
 0.71621589602122
   0
ARC
   5
133
 100
AcDbEntity
   8
LEVEL001
 370
13
   6
CONTINUOUS
  62
1
 100
AcDbCircle
  10
 1605.0001840010
  20
 4858.4856345813
  30
0.0
  40
 7.5000000000000
 100
AcDbArc
  50
 339.30011558096
  51
 160.69988441904
   0
ARC
   5
134
 100
AcDbEntity
   8
LEVEL001
 370
13
   6
CONTINUOUS
  62
1
 100
AcDbCircle
  10
 1394.9998159990
  20
 4858.4856345812
  30
0.0
  40
 7.5000000000000
 100
AcDbArc
  50
 19.300115581357
  51
 200.69988441867
   0
ARC
   5
135
 100
AcDbEntity
   8
LEVEL001
 370
13
   6
CONTINUOUS
  62
1
 100
AcDbCircle
  10
 1245.5855711532
  20
 4411.0242207299
  30
0.0
  40
 7.5000000000000
 100
AcDbArc
  50
 121.28378410396
  51
 302.71621589608
   0
ARC
   5
136
 100
AcDbEntity
   8
LEVEL001
 370
13
   6
CONTINUOUS
  62
1
 100
AcDbCircle
  10
 1754.4144288468
  20
 4411.0242207299
  30
0.0
  40
 7.5000000000000
 100
AcDbArc
  50
 237.28378410392
  51
 58.716215896037
   0
ARC
   5
137
 100
AcDbEntity
   8
LEVEL001
 370
25
   6
CONTINUOUS
  62
7
 100
AcDbCircle
  10
 1500.0000000000
  20
 4570.0000000000
  30
0.0
  40
 307.00000000000
 100
AcDbArc
  50
 17.242522646568
  51
 162.75747735343
   0
CIRCLE
   5
138
 100
AcDbEntity
   8
LEVEL001
 370
13
 100
AcDbCircle
   6
CONTINUOUS
  62
2
  10
 1500.0000000000
  20
 4570.0000000000
  30
0.0
  40
 285.00000000000
   0
LINE
   5
139
 100
AcDbEntity
   8
LEVEL001
 370
9
 100
AcDbLine
   6
DASHDOT
  62
6
  10
 1830.0000000000
  20
 4570.0000000000
  30
0.0
  11
 1170.0000000000
  21
 4570.0000000000
  31
0.0
   0
DIMENSION
   5
13A
 100
AcDbEntity
   8
LEVEL001
 370
9
   6
CONTINUOUS
  62
6
 100
AcDbDimension
   2
*D1
  10
 1759.8076211353
  20
 4720.0000000000
  30
0.0
  11
 1485.8571428571
  21
 4594.4961471356
  31
0.0
  70
3
   3
GMM001
 100
AcDbDiametricDimension
  15
 1240.1923788647
  25
 4420.0000000000
  35
0.0
   0
LINE
   5
13B
 100
AcDbEntity
   8
LEVEL001
 370
9
 100
AcDbLine
   6
DASHDOT
  62
6
  10
 3093.3873436759
  20
 4570.0000000000
  30
0.0
  11
 2728.4398447865
  21
 4570.0000000000
  31
0.0
   0
LWPOLYLINE
   5
13C
 100
AcDbEntity
   8
LEVEL001
 370
25
   6
CONTINUOUS
  62
7
 100
AcDbPolyline
  90
4
  70
1
  10
 2882.6077335293
  20
 4593.0000000000
  10
 2896.6077335293
  20
 4593.0000000000
  10
 2896.6077335293
  20
 4607.0000000000
  10
 2882.6077335293
  20
 4607.0000000000
   0
LWPOLYLINE
   5
13D
 100
AcDbEntity
   8
LEVEL001
 370
25
   6
CONTINUOUS
  62
7
 100
AcDbPolyline
  90
4
  70
1
  10
 2882.6077335293
  20
 4533.0000000000
  10
 2896.6077335293
  20
 4533.0000000000
  10
 2896.6077335293
  20
 4547.0000000000
  10
 2882.6077335293
  20
 4547.0000000000
   0
ARC
   5
13E
 100
AcDbEntity
   8
LEVEL001
 370
25
   6
CONTINUOUS
  62
7
 100
AcDbCircle
  10
 2932.5491226573
  20
 4565.5854138189
  30
0.0
  40
 8.0000000000000
 100
AcDbArc
  50
 325.00000000000
  51
 145.00000000000
   0
LWPOLYLINE
   5
13F
 100
AcDbEntity
   8
LEVEL001
 370
25
   6
CONTINUOUS
  62
7
 100
AcDbPolyline
  90
4
  70
0
  10
 2914.6077335293
  20
 4515.0000000000
  10
 3076.1833549668
  20
 4515.0000000000
  10
 3076.1833549668
  20
 4625.0000000000
  10
 2914.6077335293
  20
 4625.0000000000
   0
ARC
   5
140
 100
AcDbEntity
   8
LEVEL001
 370
25
   6
CONTINUOUS
  62
7
 100
AcDbCircle
  10
 2883.4000000000
  20
 4600.0000000000
  30
0.0
  40
 52.000000000000
 100
AcDbArc
  50
 306.88054979701
  51
 325.00000000001
   0
ARC
   5
141
 100
AcDbEntity
   8
LEVEL001
 370
25
   6
CONTINUOUS
  62
7
 100
AcDbCircle
  10
 2883.4000000000
  20
 4600.0000000000
  30
0.0
  40
 68.000000000000
 100
AcDbArc
  50
 297.31855192773
  51
 325.00000000000
   0
CIRCLE
   5
142
 100
AcDbEntity
   8
LEVEL001
 370
13
 100
AcDbCircle
   6
CONTINUOUS
  62
1
  10
 2815.9991519779
  20
 4699.7438063544
  30
0.0
  40
 7.5000000000000
   0
CIRCLE
   5
143
 100
AcDbEntity
   8
LEVEL001
 370
13
 100
AcDbCircle
   6
CONTINUOUS
  62
1
  10
 2815.9991519779
  20
 4858.4856345812
  30
0.0
  40
 7.5000000000000
   0
ARC
   5
144
 100
AcDbEntity
   8
LEVEL001
 370
13
   6
CONTINUOUS
  62
1
 100
AcDbCircle
  10
 2815.9991519779
  20
 4270.5000000000
  30
0.0
  40
 7.5000000000000
 100
AcDbArc
  50
 180.00000000000
  51
0.0
   0
CIRCLE
   5
145
 100
AcDbEntity
   8
LEVEL001
 370
13
 100
AcDbCircle
   6
CONTINUOUS
  62
1
  10
 2815.9991519779
  20
 4411.0242207299
  30
0.0
  40
 7.5000000000000
   0
LINE
   5
146
 100
AcDbEntity
   8
LEVEL001
 370
13
 100
AcDbLine
   6
CONTINUOUS
  62
1
  10
 2831.4076867418
  20
 4564.9999984394
  30
0.0
  11
 2831.4076909033
  21
 4565.0000000000
  31
0.0
   0
ARC
   5
147
 100
AcDbEntity
   8
LEVEL001
 370
13
   6
CONTINUOUS
  62
1
 100
AcDbCircle
  10
 2826.6088169938
  20
 4570.0000000000
  30
0.0
  40
 4.7988739094943
 100
AcDbArc
  50
 303.26696871547
  51
 56.733031284531
   0
LINE
   5
148
 100
AcDbEntity
   8
LEVEL001
 370
13
 100
AcDbLine
   6
CONTINUOUS
  62
1
  10
 2829.2411955108
  20
 4574.0124523850
  30
0.0
  11
 2827.9991519779
  21
 4574.2553484154
  31
0.0
   0
LINE
   5
149
 100
AcDbEntity
   8
LEVEL001
 370
13
 100
AcDbLine
   6
CONTINUOUS
  62
1
  10
 2829.2411955108
  20
 4565.9875476150
  30
0.0
  11
 2827.9991519779
  21
 4565.7446517546
  31
0.0
   0
LINE
   5
14A
 100
AcDbEntity
   8
LEVEL001
 370
13
 100
AcDbLine
   6
CONTINUOUS
  62
1
  10
 2827.9991519779
  20
 4570.0000000000
  30
0.0
  11
 2829.2411955108
  21
 4570.0000000000
  31
0.0
   0
LWPOLYLINE
   5
14B
 100
AcDbEntity
   8
LEVEL001
 370
25
   6
CONTINUOUS
  62
7
 100
AcDbPolyline
  90
4
  70
0
  10
 2827.9991519779
  20
 4515.0000000000
  10
 2914.6077335293
  20
 4515.0000000000
  10
 2914.6077335293
  20
 4625.0000000000
  10
 2827.9991519779
  20
 4625.0000000000
   0
LINE
   5
14C
 100
AcDbEntity
   8
LEVEL001
 370
9
 100
AcDbLine
   6
CONTINUOUS
  62
6
  10
 2963.4000000000
  20
 4520.0000000000
  30
0.0
  11
 2963.4000000000
  21
 4620.0000000000
  31
0.0
   0
LWPOLYLINE
   5
14D
 100
AcDbEntity
   8
LEVEL001
 370
25
   6
CONTINUOUS
  62
7
 100
AcDbPolyline
  90
4
  70
1
  10
 3049.1833549668
  20
 4593.0000000000
  10
 3063.1833549668
  20
 4593.0000000000
  10
 3063.1833549668
  20
 4607.0000000000
  10
 3049.1833549668
  20
 4607.0000000000
   0
LWPOLYLINE
   5
14E
 100
AcDbEntity
   8
LEVEL001
 370
25
   6
CONTINUOUS
  62
7
 100
AcDbPolyline
  90
4
  70
1
  10
 3049.1833549668
  20
 4533.0000000000
  10
 3063.1833549668
  20
 4533.0000000000
  10
 3063.1833549668
  20
 4547.0000000000
  10
 3049.1833549668
  20
 4547.0000000000
   0
LINE
   5
14F
 100
AcDbEntity
   8
LEVEL001
 370
9
 100
AcDbLine
   6
CONTINUOUS
  62
6
  10
 3036.6113645208
  20
 4620.0000000000
  30
0.0
  11
 3036.6113645208
  21
 4520.0000000000
  31
0.0
   0
CIRCLE
   5
150
 100
AcDbEntity
   8
LEVEL001
 370
25
 100
AcDbCircle
   6
CONTINUOUS
  62
7
  10
 4250.0000000000
  20
 4570.0000000000
  30
0.0
  40
 300.00000000000
   0
LINE
   5
151
 100
AcDbEntity
   8
LEVEL001
 370
25
 100
AcDbLine
   6
CONTINUOUS
  62
7
  10
 3956.7969986511
  20
 4661.0000000000
  30
0.0
  11
 3964.1346470801
  21
 4661.0000000000
  31
0.0
   0
LINE
   5
152
 100
AcDbEntity
   8
LEVEL001
 370
25
 100
AcDbLine
   6
CONTINUOUS
  62
7
  10
 4543.2030013489
  20
 4661.0000000000
  30
0.0
  11
 4535.8653529199
  21
 4661.0000000000
  31
0.0
   0
ARC
   5
153
 100
AcDbEntity
   8
LEVEL001
 370
13
   6
CONTINUOUS
  62
1
 100
AcDbCircle
  10
 3971.7635093798
  20
 4699.7438063544
  30
0.0
  40
 7.5000000000000
 100
AcDbArc
  50
 64.300115581517
  51
 245.69988441849
   0
ARC
   5
154
 100
AcDbEntity
   8
LEVEL001
 370
13
   6
CONTINUOUS
  62
1
 100
AcDbCircle
  10
 4528.2364906202
  20
 4699.7438063544
  30
0.0
  40
 7.5000000000000
 100
AcDbArc
  50
 294.30011558157
  51
 115.69988441843
   0
ARC
   5
155
 100
AcDbEntity
   8
LEVEL001
 370
13
   6
CONTINUOUS
  62
1
 100
AcDbCircle
  10
 4250.0000000000
  20
 4270.0000000000
  30
0.0
  40
 7.5000000000000
 100
AcDbArc
  50
 179.28378410391
  51
 0.71621589609071
   0
ARC
   5
156
 100
AcDbEntity
   8
LEVEL001
 370
13
   6
CONTINUOUS
  62
1
 100
AcDbCircle
  10
 4144.9998159990
  20
 4858.4856345812
  30
0.0
  40
 7.5000000000000
 100
AcDbArc
  50
 19.300115581621
  51
 200.69988441840
   0
ARC
   5
157
 100
AcDbEntity
   8
LEVEL001
 370
13
   6
CONTINUOUS
  62
1
 100
AcDbCircle
  10
 4355.0001840010
  20
 4858.4856345812
  30
0.0
  40
 7.5000000000000
 100
AcDbArc
  50
 339.30011558131
  51
 160.69988441868
   0
ARC
   5
158
 100
AcDbEntity
   8
LEVEL001
 370
13
   6
CONTINUOUS
  62
1
 100
AcDbCircle
  10
 4504.4144288468
  20
 4411.0242207300
  30
0.0
  40
 7.5000000000000
 100
AcDbArc
  50
 237.28378410423
  51
 58.716215895726
   0
ARC
   5
159
 100
AcDbEntity
   8
LEVEL001
 370
13
   6
CONTINUOUS
  62
1
 100
AcDbCircle
  10
 3995.5855711532
  20
 4411.0242207300
  30
0.0
  40
 7.5000000000000
 100
AcDbArc
  50
 121.28378410420
  51
 302.71621589584
   0
ARC
   5
15A
 100
AcDbEntity
   8
LEVEL001
 370
25
   6
CONTINUOUS
  62
7
 100
AcDbCircle
  10
 4250.0000000000
  20
 4570.0000000000
  30
0.0
  40
 307.00000000000
 100
AcDbArc
  50
 17.242522646568
  51
 162.75747735343
   0
ARC
   5
15B
 100
AcDbEntity
   8
LEVEL001
 370
13
   6
CONTINUOUS
  62
2
 100
AcDbCircle
  10
 4311.5642787321
  20
 4686.7641912423
  30
0.0
  40
 14.999999551465
 100
AcDbArc
  50
 242.19997303132
  51
 310.03934226670
   0
LINE
   5
15C
 100
AcDbEntity
   8
LEVEL001
 370
13
 100
AcDbLine
   6
CONTINUOUS
  62
2
  10
 4321.2139804055
  20
 4675.2801482191
  30
0.0
  11
 4419.8278690582
  21
 4758.1436100967
  31
0.0
   0
LINE
   5
15D
 100
AcDbEntity
   8
LEVEL001
 370
13
 100
AcDbLine
   6
CONTINUOUS
  62
2
  10
 4144.7198450580
  20
 4641.2139871283
  30
0.0
  11
 4061.8560780046
  21
 4739.8278757811
  31
0.0
   0
LINE
   5
15E
 100
AcDbEntity
   8
LEVEL001
 370
13
 100
AcDbLine
   6
CONTINUOUS
  62
2
  10
 4178.7860061488
  20
 4675.2801482191
  30
0.0
  11
 4080.1721174960
  21
 4758.1436100967
  31
0.0
   0
ARC
   5
15F
 100
AcDbEntity
   8
LEVEL001
 370
13
   6
CONTINUOUS
  62
2
 100
AcDbCircle
  10
 4071.8091231852
  20
 4748.1907042573
  30
0.0
  40
 13.000000326526
 100
AcDbArc
  50
 49.961123640752
  51
 220.03792170803
   0
ARC
   5
160
 100
AcDbEntity
   8
LEVEL001
 370
13
   6
CONTINUOUS
  62
2
 100
AcDbCircle
  10
 4188.4359431437
  20
 4686.7639935044
  30
0.0
  40
 14.999999551465
 100
AcDbArc
  50
 229.95948366515
  51
 297.80164640215
   0
ARC
   5
161
 100
AcDbEntity
   8
LEVEL001
 370
13
   6
CONTINUOUS
  62
2
 100
AcDbCircle
  10
 4133.2359009023
  20
 4631.5641677947
  30
0.0
  40
 14.999999551465
 100
AcDbArc
  50
 332.19916331550
  51
 40.039929295816
   0
ARC
   5
162
 100
AcDbEntity
   8
LEVEL001
 370
13
   6
CONTINUOUS
  62
2
 100
AcDbCircle
  10
 4250.0002984529
  20
 4570.0000067229
  30
0.0
  40
 116.99999459408
 100
AcDbArc
  50
 62.199479478545
  51
 117.80052052146
   0
CIRCLE
   5
163
 100
AcDbEntity
   8
LEVEL001
 370
13
 100
AcDbCircle
   6
CONTINUOUS
  62
2
  10
 4249.9999932771
  20
 4570.0000000000
  30
0.0
  40
 99.999997009768
   0
LINE
   5
164
 100
AcDbEntity
   8
LEVEL001
 370
13
 100
AcDbLine
   6
CONTINUOUS
  62
2
  10
 4144.7198450580
  20
 4498.7860128716
  30
0.0
  11
 4061.8560780046
  21
 4400.1721242189
  31
0.0
   0
LINE
   5
165
 100
AcDbEntity
   8
LEVEL001
 370
13
 100
AcDbLine
   6
CONTINUOUS
  62
2
  10
 4178.7860061488
  20
 4464.7198517809
  30
0.0
  11
 4080.1721174960
  21
 4381.8563899033
  31
0.0
   0
ARC
   5
166
 100
AcDbEntity
   8
LEVEL001
 370
13
   6
CONTINUOUS
  62
2
 100
AcDbCircle
  10
 4071.8091231852
  20
 4391.8092957427
  30
0.0
  40
 13.000000326526
 100
AcDbArc
  50
 139.96207829197
  51
 310.03887635925
   0
ARC
   5
167
 100
AcDbEntity
   8
LEVEL001
 370
13
   6
CONTINUOUS
  62
2
 100
AcDbCircle
  10
 4133.2359009023
  20
 4508.4358322053
  30
0.0
  40
 14.999999551465
 100
AcDbArc
  50
 319.96007070418
  51
 27.800836684501
   0
ARC
   5
168
 100
AcDbEntity
   8
LEVEL001
 370
13
   6
CONTINUOUS
  62
2
 100
AcDbCircle
  10
 4188.4359431437
  20
 4453.2360064956
  30
0.0
  40
 14.999999551465
 100
AcDbArc
  50
 62.198353597854
  51
 130.04051633485
   0
ARC
   5
169
 100
AcDbEntity
   8
LEVEL001
 370
13
   6
CONTINUOUS
  62
2
 100
AcDbCircle
  10
 4250.0002984529
  20
 4569.9999932771
  30
0.0
  40
 116.99999459408
 100
AcDbArc
  50
 242.19947947854
  51
 297.80052052146
   0
ARC
   5
16A
 100
AcDbEntity
   8
LEVEL001
 370
13
   6
CONTINUOUS
  62
2
 100
AcDbCircle
  10
 4311.5642787321
  20
 4453.2358087577
  30
0.0
  40
 14.999999551465
 100
AcDbArc
  50
 49.960657733298
  51
 117.80002696868
   0
LINE
   5
16B
 100
AcDbEntity
   8
LEVEL001
 370
13
 100
AcDbLine
   6
CONTINUOUS
  62
2
  10
 4321.2139804055
  20
 4464.7198517809
  30
0.0
  11
 4419.8278690582
  21
 4381.8563899033
  31
0.0
   0
ARC
   5
16C
 100
AcDbEntity
   8
LEVEL001
 370
13
   6
CONTINUOUS
  62
2
 100
AcDbCircle
  10
 4249.9999865542
  20
 4570.0000000000
  30
0.0
  40
 116.99999459408
 100
AcDbArc
  50
 152.19947947855
  51
 207.80052052145
   0
ARC
   5
16D
 100
AcDbEntity
   8
LEVEL001
 370
13
   6
CONTINUOUS
  62
2
 100
AcDbCircle
  10
 4366.7640856519
  20
 4631.5641677947
  30
0.0
  40
 14.999999551465
 100
AcDbArc
  50
 139.96007070418
  51
 207.80083668449
   0
LINE
   5
16E
 100
AcDbEntity
   8
LEVEL001
 370
13
 100
AcDbLine
   6
CONTINUOUS
  62
2
  10
 4355.2801414962
  20
 4641.2139871283
  30
0.0
  11
 4438.1439085496
  21
 4739.8278757811
  31
0.0
   0
ARC
   5
16F
 100
AcDbEntity
   8
LEVEL001
 370
13
   6
CONTINUOUS
  62
2
 100
AcDbCircle
  10
 4428.1908633690
  20
 4748.1907042573
  30
0.0
  40
 13.000000326526
 100
AcDbArc
  50
 319.96207829198
  51
 130.03887635924
   0
ARC
   5
170
 100
AcDbEntity
   8
LEVEL001
 370
13
   6
CONTINUOUS
  62
2
 100
AcDbCircle
  10
 4428.1908633690
  20
 4391.8092957427
  30
0.0
  40
 13.000000326526
 100
AcDbArc
  50
 229.96112364076
  51
 40.037921708021
   0
LINE
   5
171
 100
AcDbEntity
   8
LEVEL001
 370
13
 100
AcDbLine
   6
CONTINUOUS
  62
2
  10
 4355.2801414962
  20
 4498.7860128716
  30
0.0
  11
 4438.1439085496
  21
 4400.1721242189
  31
0.0
   0
ARC
   5
172
 100
AcDbEntity
   8
LEVEL001
 370
13
   6
CONTINUOUS
  62
2
 100
AcDbCircle
  10
 4366.7640856519
  20
 4508.4358322053
  30
0.0
  40
 14.999999551465
 100
AcDbArc
  50
 152.19916331551
  51
 220.03992929582
   0
ARC
   5
173
 100
AcDbEntity
   8
LEVEL001
 370
13
   6
CONTINUOUS
  62
2
 100
AcDbCircle
  10
 4250.0000000000
  20
 4570.0000000000
  30
0.0
  40
 116.99999459408
 100
AcDbArc
  50
 332.19947947855
  51
 27.800520521455
   0
LINE
   5
174
 100
AcDbEntity
   8
LEVEL001
 370
9
 100
AcDbLine
   6
CONTINUOUS
  62
6
  10
 4161.3262898740
  20
 4642.9675271150
  30
0.0
  11
 4095.1977518123
  21
 4721.6653397031
  31
0.0
   0
LINE
   5
175
 100
AcDbEntity
   8
LEVEL001
 370
9
 100
AcDbLine
   6
CONTINUOUS
  62
6
  10
 4177.0324661621
  20
 4658.6740085789
  30
0.0
  11
 4098.3343483982
  21
 4724.8025466406
  31
0.0
   0
LINE
   5
176
 100
AcDbEntity
   8
LEVEL001
 370
9
 100
AcDbLine
   6
CONTINUOUS
  62
6
  10
 4322.9675203921
  20
 4658.6740085789
  30
0.0
  11
 4401.6656381560
  21
 4724.8025466406
  31
0.0
   0
LINE
   5
177
 100
AcDbEntity
   8
LEVEL001
 370
9
 100
AcDbLine
   6
CONTINUOUS
  62
6
  10
 4161.3262898740
  20
 4497.0324728850
  30
0.0
  11
 4095.1977518123
  21
 4418.3346602969
  31
0.0
   0
LINE
   5
178
 100
AcDbEntity
   8
LEVEL001
 370
9
 100
AcDbLine
   6
CONTINUOUS
  62
6
  10
 4177.0324661621
  20
 4481.3259914211
  30
0.0
  11
 4098.3343483982
  21
 4415.1974533594
  31
0.0
   0
LINE
   5
179
 100
AcDbEntity
   8
LEVEL001
 370
9
 100
AcDbLine
   6
CONTINUOUS
  62
6
  10
 4322.9675203921
  20
 4481.3259914211
  30
0.0
  11
 4401.6656381560
  21
 4415.1974533594
  31
0.0
   0
LINE
   5
17A
 100
AcDbEntity
   8
LEVEL001
 370
9
 100
AcDbLine
   6
CONTINUOUS
  62
6
  10
 4338.6743070318
  20
 4642.9675271150
  30
0.0
  11
 4404.8028450935
  21
 4721.6653397031
  31
0.0
   0
LINE
   5
17B
 100
AcDbEntity
   8
LEVEL001
 370
9
 100
AcDbLine
   6
CONTINUOUS
  62
6
  10
 4338.6743070318
  20
 4497.0324728850
  30
0.0
  11
 4404.8028450935
  21
 4418.3346602969
  31
0.0
   0
CIRCLE
   5
17C
 100
AcDbEntity
   8
LEVEL001
 370
25
 100
AcDbCircle
   6
CONTINUOUS
  62
7
  10
 4210.0000000000
  20
 4605.0000000000
  30
0.0
  40
 7.0000000000000
   0
LINE
   5
17D
 100
AcDbEntity
   8
LEVEL001
 370
9
 100
AcDbLine
   6
DASHDOT
  62
6
  10
 4210.0000000000
  20
 4585.0000000000
  30
0.0
  11
 4210.0000000000
  21
 4625.0000000000
  31
0.0
   0
LINE
   5
17E
 100
AcDbEntity
   8
LEVEL001
 370
9
 100
AcDbLine
   6
DASHDOT
  62
6
  10
 4230.0000000000
  20
 4605.0000000000
  30
0.0
  11
 4190.0000000000
  21
 4605.0000000000
  31
0.0
   0
CIRCLE
   5
17F
 100
AcDbEntity
   8
LEVEL001
 370
25
 100
AcDbCircle
   6
CONTINUOUS
  62
7
  10
 4290.0000000000
  20
 4605.0000000000
  30
0.0
  40
 7.0000000000000
   0
LINE
   5
180
 100
AcDbEntity
   8
LEVEL001
 370
9
 100
AcDbLine
   6
DASHDOT
  62
6
  10
 4270.0000000000
  20
 4605.0000000000
  30
0.0
  11
 4310.0000000000
  21
 4605.0000000000
  31
0.0
   0
LINE
   5
181
 100
AcDbEntity
   8
LEVEL001
 370
9
 100
AcDbLine
   6
DASHDOT
  62
6
  10
 4290.0000000000
  20
 4585.0000000000
  30
0.0
  11
 4290.0000000000
  21
 4625.0000000000
  31
0.0
   0
CIRCLE
   5
182
 100
AcDbEntity
   8
LEVEL001
 370
25
 100
AcDbCircle
   6
CONTINUOUS
  62
7
  10
 4290.0000000000
  20
 4535.0000000000
  30
0.0
  40
 7.0000000000000
   0
LINE
   5
183
 100
AcDbEntity
   8
LEVEL001
 370
9
 100
AcDbLine
   6
DASHDOT
  62
6
  10
 4290.0000000000
  20
 4555.0000000000
  30
0.0
  11
 4290.0000000000
  21
 4515.0000000000
  31
0.0
   0
LINE
   5
184
 100
AcDbEntity
   8
LEVEL001
 370
9
 100
AcDbLine
   6
DASHDOT
  62
6
  10
 4270.0000000000
  20
 4535.0000000000
  30
0.0
  11
 4310.0000000000
  21
 4535.0000000000
  31
0.0
   0
CIRCLE
   5
185
 100
AcDbEntity
   8
LEVEL001
 370
25
 100
AcDbCircle
   6
CONTINUOUS
  62
7
  10
 4210.0000000000
  20
 4535.0000000000
  30
0.0
  40
 7.0000000000000
   0
LINE
   5
186
 100
AcDbEntity
   8
LEVEL001
 370
9
 100
AcDbLine
   6
DASHDOT
  62
6
  10
 4230.0000000000
  20
 4535.0000000000
  30
0.0
  11
 4190.0000000000
  21
 4535.0000000000
  31
0.0
   0
LINE
   5
187
 100
AcDbEntity
   8
LEVEL001
 370
9
 100
AcDbLine
   6
DASHDOT
  62
6
  10
 4210.0000000000
  20
 4555.0000000000
  30
0.0
  11
 4210.0000000000
  21
 4515.0000000000
  31
0.0
   0
LINE
   5
188
 100
AcDbEntity
   8
LEVEL001
 370
9
 100
AcDbLine
   6
DASHDOT
  62
6
  10
 4250.0000000000
  20
 4240.0000000000
  30
0.0
  11
 4250.0000000000
  21
 4900.0000000000
  31
0.0
   0
LINE
   5
189
 100
AcDbEntity
   8
LEVEL001
 370
9
 100
AcDbLine
   6
DASHDOT
  62
6
  10
 3920.0000000000
  20
 4570.0000000000
  30
0.0
  11
 4580.0000000000
  21
 4570.0000000000
  31
0.0
   0
LEADER
   5
18A
 100
AcDbEntity
   8
LEVEL001
 370
13
   6
CONTINUOUS
  62
1
 100
AcDbLeader
   3
GMM002
  73
3
  74
1
  75
0
  40
 66.000000000000
  41
0.0
  76
2
  10
 1732.4838704083
  20
 4770.5000000000
  30
0.0
  10
 2181.9567167281
  20
 4879.0649365833
  30
0.0
  77
1
   0
LEADER
   5
18B
 100
AcDbEntity
   8
LEVEL001
 370
13
   6
CONTINUOUS
  62
1
 100
AcDbLeader
   3
GMM002
  73
3
  74
1
  75
0
  40
 66.000000000000
  41
0.0
  76
2
  10
 2777.2931389245
  20
 4395.5000000000
  30
0.0
  10
 2318.1122915317
  20
 4286.6466854259
  30
0.0
  77
1
   0
LEADER
   5
18C
 100
AcDbEntity
   8
LEVEL001
 370
13
   6
CONTINUOUS
  62
1
 100
AcDbLeader
   3
GMM002
  73
3
  74
1
  75
0
  40
 66.000000000000
  41
0.0
  76
2
  10
 1625.0000000000
  20
 4395.5000000000
  30
0.0
  10
 2181.3593547473
  20
 4284.2281290505
  30
0.0
  77
1
   0
LEADER
   5
18D
 100
AcDbEntity
   8
LEVEL001
 370
13
   6
CONTINUOUS
  62
1
 100
AcDbLeader
   3
GMM002
  73
3
  74
1
  75
0
  40
 66.000000000000
  41
0.0
  76
2
  10
 1493.2864338148
  20
 4266.6566440387
  30
0.0
  10
 1312.6599491946
  20
 4176.7046546987
  30
0.0
  77
1
   0
LEADER
   5
18E
 100
AcDbEntity
   8
LEVEL001
 370
13
   6
CONTINUOUS
  62
1
 100
AcDbLeader
   3
GMM002
  73
3
  74
1
  75
0
  40
 66.000000000000
  41
0.0
  76
2
  10
 1606.1083137596
  20
 4289.3916862403
  30
0.0
  10
 1700.5025267920
  20
 4194.9974732079
  30
0.0
  77
1
   0
LEADER
   5
18F
 100
AcDbEntity
   8
LEVEL001
 370
13
   6
CONTINUOUS
  62
1
 100
AcDbLeader
   3
GMM002
  73
3
  74
1
  75
0
  40
 66.000000000000
  41
0.0
  76
2
  10
 4125.0000000000
  20
 4395.5000000000
  30
0.0
  10
 4031.3049507521
  20
 4208.1099015041
  30
0.0
  77
1
   0
LEADER
   5
190
 100
AcDbEntity
   8
LEVEL001
 370
13
   6
CONTINUOUS
  62
1
 100
AcDbLeader
   3
GMM002
  73
3
  74
1
  75
0
  40
 66.000000000000
  41
0.0
  76
2
  10
 2875.0000000000
  20
 4624.9999999998
  30
0.0
  10
 2980.8638102932
  20
 5015.6664574566
  30
0.0
  77
1
   0
LEADER
   5
191
 100
AcDbEntity
   8
LEVEL001
 370
13
   6
CONTINUOUS
  62
1
 100
AcDbLeader
   3
GMM002
  73
3
  74
1
  75
0
  40
 66.000000000000
  41
0.0
  76
2
  10
 3076.1833549668
  20
 4625.0000000000
  30
0.0
  10
 3196.3237860022
  20
 4725.5682321870
  30
0.0
  77
1
   0
LWPOLYLINE
   5
192
 100
AcDbEntity
   8
LEVEL001
 370
20
   6
CONTINUOUS
  62
3
 100
AcDbPolyline
  90
5
  70
0
  10
 2827.9991519779
  20
 4873.7500000000
  10
 2767.9991519779
  20
 4873.7500000000
  10
 2767.9991519779
  20
 4716.7482886331
  10
 2807.9991519779
  20
 4660.9635043500
  10
 2827.9991519779
  20
 4660.9635043500
   0
LINE
   5
193
 100
AcDbEntity
   8
LEVEL001
 370
25
 100
AcDbLine
   6
CONTINUOUS
  62
7
  10
 2827.9991519779
  20
 4873.7500000000
  30
0.0
  11
 2827.9991519779
  21
 4661.0000000000
  31
0.0
   0
ARC
   5
194
 100
AcDbEntity
   8
LEVEL001
 370
13
   6
DOT
  62
2
 100
AcDbCircle
  10
 3942.6002400785
  20
 4570.0000000000
  30
0.0
  40
 1178.3000000000
 100
AcDbArc
  50
 165.27501303924
  51
 173.16508510128
   0
LWPOLYLINE
   5
195
 100
AcDbEntity
   8
LEVEL001
 370
13
   6
DOT
  62
2
 100
AcDbPolyline
  90
4
  70
0
  10
 2827.9991519779
  20
 4661.0000000000
  10
 2827.9991519779
  20
 4869.5000000000
  10
 2802.9991519779
  20
 4869.5000000000
  10
 2802.9991519779
  20
 4667.9366023854
   0
LWPOLYLINE
   5
196
 100
AcDbEntity
   8
LEVEL001
 370
25
   6
CONTINUOUS
  62
7
 100
AcDbPolyline
  90
4
  70
0
  10
 2802.9991519779
  20
 4667.6630198467
  10
 2802.9991519779
  20
 4270.5000000000
  10
 2827.9991519779
  20
 4270.5000000000
  10
 2827.9991519779
  20
 4661.0000000000
   0
ARC
   5
197
 100
AcDbEntity
   8
LEVEL001
 370
25
   6
CONTINUOUS
  62
7
 100
AcDbCircle
  10
 3942.6002400785
  20
 4570.0000000000
  30
0.0
  40
 1178.3000000000
 100
AcDbArc
  50
 173.16508510128
  51
 194.72498696076
   0
LEADER
   5
198
 100
AcDbEntity
   8
LEVEL001
 370
13
   6
CONTINUOUS
  62
1
 100
AcDbLeader
   3
GMM002
  73
3
  74
1
  75
0
  40
 66.000000000000
  41
0.0
  76
2
  10
 2767.9991519779
  20
 4770.0000000009
  30
0.0
  10
 2318.1511776892
  20
 4879.0182389115
  30
0.0
  77
1
   0
DIMENSION
   5
199
 100
AcDbEntity
   8
LEVEL001
 370
9
   6
CONTINUOUS
  62
6
 100
AcDbDimension
   2
*D11
  10
 750.00000000000
  20
 970.00000000086
  30
0.0
  11
 750.00000000000
  21
 920.00000000087
  31
0.0
  70
0
   3
GMM003
 100
AcDbAlignedDimension
  13
 1250.0004095886
  23
 870.00000000087
  33
0.0
  14
 1250.0004095886
  24
 970.00000000086
  34
0.0
  50
 90.000000000000
 100
AcDbRotatedDimension
   0
DIMENSION
   5
19A
 100
AcDbEntity
   8
LEVEL001
 370
9
   6
CONTINUOUS
  62
6
 100
AcDbDimension
   2
*D12
  10
 750.00000000000
  20
 1770.0000000009
  30
0.0
  11
 750.00000000000
  21
 1370.0000000009
  31
0.0
  70
0
   3
GMM003
 100
AcDbAlignedDimension
  13
 1250.0004095886
  23
 970.00000000086
  33
0.0
  14
 950.00047482356
  24
 1770.0000000009
  34
0.0
  50
 90.000000000000
 100
AcDbRotatedDimension
   0
DIMENSION
   5
19B
 100
AcDbEntity
   8
LEVEL001
 370
9
   6
CONTINUOUS
  62
6
 100
AcDbDimension
   2
*D13
  10
 750.00000000000
  20
 4270.0000000009
  30
0.0
  11
 750.00000000000
  21
 3020.0000000009
  31
0.0
  70
0
   1
\A1;2500(標準設置高さ)
   3
GMM004
 100
AcDbAlignedDimension
  13
 950.00047482356
  23
 1770.0000000009
  33
0.0
  14
 1500.0000000000
  24
 4270.0000000009
  34
0.0
  50
 90.000000000000
 100
AcDbRotatedDimension
   0
LINE
   5
19C
 100
AcDbEntity
   8
LEVEL001
 370
9
 100
AcDbLine
   6
DASHDOT
  62
6
  10
 2721.2305476942
  20
 3811.5821327505
  30
0.0
  11
 2928.7694523058
  21
 4078.4178672512
  31
0.0
   0
LINE
   5
19D
 100
AcDbEntity
   8
LEVEL001
 370
25
 100
AcDbLine
   6
CONTINUOUS
  62
7
  10
 2898.6556652129
  20
 4101.8397016568
  30
0.0
  11
 2691.1167606013
  21
 3835.0039671561
  31
0.0
   0
LINE
   5
19E
 100
AcDbEntity
   8
LEVEL001
 370
25
 100
AcDbLine
   6
CONTINUOUS
  62
7
  10
 2751.3443347871
  20
 3788.1602983449
  30
0.0
  11
 2958.8832393987
  21
 4054.9960328456
  31
0.0
   0
LINE
   5
19F
 100
AcDbEntity
   8
LEVEL001
 370
9
 100
AcDbLine
   6
DASHDOT
  62
6
  10
 3000.0000000000
  20
 4720.0000000009
  30
0.0
  11
 3000.0000000000
  21
 4286.0218857113
  31
0.0
   0
DIMENSION
   5
1A0
 100
AcDbEntity
   8
LEVEL001
 370
9
   6
CONTINUOUS
  62
6
 100
AcDbDimension
   2
*D14
  10
 3000.0000000000
  20
 3020.0000000009
  30
0.0
  11
 2825.0000000000
  21
 3020.0000000009
  31
0.0
  70
0
   3
GMM005
 100
AcDbAlignedDimension
  13
 2650.0000000000
  23
 3020.0000000009
  33
0.0
  14
 3000.0000000000
  24
 4286.0218857113
  34
0.0
 100
AcDbRotatedDimension
   0
ARC
   5
1A1
 100
AcDbEntity
   8
LEVEL001
 370
25
   6
CONTINUOUS
  62
7
 100
AcDbCircle
  10
 2661.8500000000
  20
 4286.5218857104
  30
0.0
  40
 300.00000000000
 100
AcDbArc
  50
 322.12501634890
  51
 360.00000000000
   0
ARC
   5
1A2
 100
AcDbEntity
   8
LEVEL001
 370
9
   6
DASHDOT
  62
6
 100
AcDbCircle
  10
 2661.8500000000
  20
 4286.5218857104
  30
0.0
  40
 338.15000000000
 100
AcDbArc
  50
 322.12501634890
  51
0.0
   0
ARC
   5
1A3
 100
AcDbEntity
   8
LEVEL001
 370
25
   6
CONTINUOUS
  62
7
 100
AcDbCircle
  10
 2661.8500000000
  20
 4286.5218857104
  30
0.0
  40
 376.30000000000
 100
AcDbArc
  50
 322.12501634890
  51
0.0
   0
LINE
   5
1A4
 100
AcDbEntity
   8
LEVEL001
 370
25
 100
AcDbLine
   6
CONTINUOUS
  62
7
  10
 1538.1500000000
  20
 3785.4781142896
  30
0.0
  11
 1538.1500000000
  21
 4272.6904490692
  31
0.0
   0
LINE
   5
1A5
 100
AcDbEntity
   8
LEVEL001
 370
25
 100
AcDbLine
   6
CONTINUOUS
  62
7
  10
 1461.8500000000
  20
 4272.6903546911
  30
0.0
  11
 1461.8500000000
  21
 3785.4781142896
  31
0.0
   0
LINE
   5
1A6
 100
AcDbEntity
   8
LEVEL001
 370
25
 100
AcDbLine
   6
CONTINUOUS
  62
7
  10
 3038.1500000000
  20
 4515.0000000000
  30
0.0
  11
 3038.1500000000
  21
 4286.0218857112
  31
0.0
   0
LWPOLYLINE
   5
1A7
 100
AcDbEntity
   8
LEVEL001
 370
25
   6
CONTINUOUS
  62
7
 100
AcDbPolyline
  90
4
  70
0
  10
 2961.8500000000
  20
 4625.0000000000
  10
 2961.8500000000
  20
 4670.0000000009
  10
 3038.1500000000
  20
 4670.0000000009
  10
 3038.1500000000
  20
 4625.0000000000
   0
LINE
   5
1A8
 100
AcDbEntity
   8
LEVEL001
 370
25
 100
AcDbLine
   6
CONTINUOUS
  62
7
  10
 2961.8500000000
  20
 4286.0218857112
  30
0.0
  11
 2961.8500000000
  21
 4515.0000000000
  31
0.0
   0
LEADER
   5
1A9
 100
AcDbEntity
   8
LEVEL001
 370
13
   6
CONTINUOUS
  62
1
 100
AcDbLeader
   3
GMM006
  73
3
  74
1
  75
0
  40
 66.000000000000
  41
0.0
  76
2
  10
 3000.0000000000
  20
 4674.0000000009
  30
0.0
  10
 3092.4075344912
  20
 4833.0505778890
  30
0.0
  77
1
   0
LINE
   5
1AA
 100
AcDbEntity
   8
LEVEL001
 370
9
 100
AcDbLine
   6
DASHDOT
  62
6
  10
 1500.0000000000
  20
 4900.0000000000
  30
0.0
  11
 1500.0000000000
  21
 870.00000000087
  31
0.0
   0
LWPOLYLINE
   5
1AB
 100
AcDbEntity
   8
LEVEL001
 370
13
   6
CONTINUOUS
  62
1
 100
AcDbPolyline
  90
4
  70
1
  10
 3038.1500000000
  20
 4674.0000000009
  10
 2961.8500000000
  20
 4674.0000000009
  10
 2961.8500000000
  20
 4671.0000000009
  10
 3038.1500000000
  20
 4671.0000000009
   0
LWPOLYLINE
   5
1AC
 100
AcDbEntity
   8
LEVEL001
 370
9
   6
DOT
  62
6
 100
AcDbPolyline
  90
4
  70
0
  10
 3033.1500000000
  20
 4671.0000000009
  10
 3033.1500000000
  20
 4644.0000000009
  10
 2966.8500000000
  20
 4644.0000000009
  10
 2966.8500000000
  20
 4671.0000000009
   0
LINE
   5
1AD
 100
AcDbEntity
   8
LEVEL001
 370
9
 100
AcDbLine
   6
CONTINUOUS
  62
5
  10
 1095.0004095884
  20
 1717.5000000009
  30
0.0
  11
 1147.5004095884
  21
 1770.0000000009
  31
0.0
   0
LINE
   5
1AE
 100
AcDbEntity
   8
LEVEL001
 370
9
 100
AcDbLine
   6
CONTINUOUS
  62
5
  10
 1079.0905070116
  20
 1733.4099025777
  30
0.0
  11
 1115.6806044348
  21
 1770.0000000009
  31
0.0
   0
LINE
   5
1AF
 100
AcDbEntity
   8
LEVEL001
 370
9
 100
AcDbLine
   6
CONTINUOUS
  62
5
  10
 1131.5905070124
  20
 1770.0000000009
  30
0.0
  11
 1087.0454583004
  21
 1725.4549512889
  31
0.0
   0
LINE
   5
1B0
 100
AcDbEntity
   8
LEVEL001
 370
9
 100
AcDbLine
   6
CONTINUOUS
  62
5
  10
 1152.2707018590
  20
 1717.5000000009
  30
0.0
  11
 1123.6355557237
  21
 1746.1351461362
  31
0.0
   0
LINE
   5
1B1
 100
AcDbEntity
   8
LEVEL001
 370
9
 100
AcDbLine
   6
CONTINUOUS
  62
5
  10
 1131.5905070119
  20
 1754.0900974244
  30
0.0
  11
 1168.1806044354
  21
 1717.5000000009
  31
0.0
   0
LINE
   5
1B2
 100
AcDbEntity
   8
LEVEL001
 370
9
 100
AcDbLine
   6
CONTINUOUS
  62
5
  10
 1184.0905070119
  20
 1717.5000000009
  30
0.0
  11
 1139.5454583001
  21
 1762.0450487126
  31
0.0
   0
LINE
   5
1B3
 100
AcDbEntity
   8
LEVEL001
 370
9
 100
AcDbLine
   6
CONTINUOUS
  62
5
  10
 1147.5004095884
  20
 1770.0000000009
  30
0.0
  11
 1200.0004095886
  21
 1717.5000000009
  31
0.0
   0
LINE
   5
1B4
 100
AcDbEntity
   8
LEVEL001
 370
9
 100
AcDbLine
   6
CONTINUOUS
  62
5
  10
 994.77070185855
  20
 1770.0000000009
  30
0.0
  11
 942.27070185855
  21
 1717.5000000009
  31
0.0
   0
LINE
   5
1B5
 100
AcDbEntity
   8
LEVEL001
 370
9
 100
AcDbLine
   6
CONTINUOUS
  62
5
  10
 958.18060443458
  20
 1717.5000000009
  30
0.0
  11
 1010.6806044346
  21
 1770.0000000009
  31
0.0
   0
LINE
   5
1B6
 100
AcDbEntity
   8
LEVEL001
 370
9
 100
AcDbLine
   6
CONTINUOUS
  62
5
  10
 1026.5905070122
  20
 1770.0000000009
  30
0.0
  11
 974.09050701219
  21
 1717.5000000009
  31
0.0
   0
LINE
   5
1B7
 100
AcDbEntity
   8
LEVEL001
 370
9
 100
AcDbLine
   6
CONTINUOUS
  62
5
  10
 990.00040958823
  20
 1717.5000000009
  30
0.0
  11
 1042.5004095882
  21
 1770.0000000009
  31
0.0
   0
LINE
   5
1B8
 100
AcDbEntity
   8
LEVEL001
 370
9
 100
AcDbLine
   6
CONTINUOUS
  62
5
  10
 1047.2707018588
  20
 1717.5000000009
  30
0.0
  11
 1018.6355557235
  21
 1746.1351461362
  31
0.0
   0
LINE
   5
1B9
 100
AcDbEntity
   8
LEVEL001
 370
9
 100
AcDbLine
   6
CONTINUOUS
  62
5
  10
 1026.5905070117
  20
 1754.0900974244
  30
0.0
  11
 1063.1806044352
  21
 1717.5000000009
  31
0.0
   0
LINE
   5
1BA
 100
AcDbEntity
   8
LEVEL001
 370
9
 100
AcDbLine
   6
CONTINUOUS
  62
5
  10
 1079.0905070117
  20
 1717.5000000009
  30
0.0
  11
 1034.5454583000
  21
 1762.0450487126
  31
0.0
   0
LINE
   5
1BB
 100
AcDbEntity
   8
LEVEL001
 370
9
 100
AcDbLine
   6
CONTINUOUS
  62
5
  10
 1042.5004095882
  20
 1770.0000000009
  30
0.0
  11
 1095.0004095884
  21
 1717.5000000009
  31
0.0
   0
LINE
   5
1BC
 100
AcDbEntity
   8
LEVEL001
 370
9
 100
AcDbLine
   6
CONTINUOUS
  62
5
  10
 1099.7707018587
  20
 1770.0000000009
  30
0.0
  11
 1071.1355557235
  21
 1741.3648538657
  31
0.0
   0
MTEXT
   5
1BE
 100
AcDbEntity
   8
LEVEL001
 370
13
  62
1
 100
AcDbMText
  10
 1070.6490800330
  20
 1778.7299370412
  30
0.0
  40
 40.000000000000
  41
0.0
  71
7
  72
1
   1
\T1.000000;ＧＬ
   7
GMM004
  44
 0.79999984000003
   0
LWPOLYLINE
   5
1BF
 100
AcDbEntity
   8
LEVEL001
 370
13
   6
CONTINUOUS
  62
1
 100
AcDbPolyline
  90
3
  70
1
  10
 1042.5004095882
  20
 1770.0000000009
  10
 1017.5004095882
  20
 1820.0000000009
  10
 1067.5004095882
  20
 1820.0000000009
   0
LINE
   5
1C0
 100
AcDbEntity
   8
LEVEL001
 370
9
 100
AcDbLine
   6
CONTINUOUS
  62
5
  10
 1852.5004095886
  20
 1770.0000000009
  30
0.0
  11
 1800.0004095886
  21
 1717.5000000009
  31
0.0
   0
LINE
   5
1C1
 100
AcDbEntity
   8
LEVEL001
 370
9
 100
AcDbLine
   6
CONTINUOUS
  62
5
  10
 1815.9103121646
  20
 1717.5000000009
  30
0.0
  11
 1868.4103121646
  21
 1770.0000000009
  31
0.0
   0
LINE
   5
1C2
 100
AcDbEntity
   8
LEVEL001
 370
9
 100
AcDbLine
   6
CONTINUOUS
  62
5
  10
 1884.3202147422
  20
 1770.0000000009
  30
0.0
  11
 1831.8202147422
  21
 1717.5000000009
  31
0.0
   0
LINE
   5
1C3
 100
AcDbEntity
   8
LEVEL001
 370
9
 100
AcDbLine
   6
CONTINUOUS
  62
5
  10
 1847.7301173183
  20
 1717.5000000009
  30
0.0
  11
 1900.2301173183
  21
 1770.0000000009
  31
0.0
   0
LINE
   5
1C4
 100
AcDbEntity
   8
LEVEL001
 370
9
 100
AcDbLine
   6
CONTINUOUS
  62
5
  10
 1905.0004095889
  20
 1717.5000000009
  30
0.0
  11
 1876.3652634536
  21
 1746.1351461362
  31
0.0
   0
LINE
   5
1C5
 100
AcDbEntity
   8
LEVEL001
 370
9
 100
AcDbLine
   6
CONTINUOUS
  62
5
  10
 1884.3202147418
  20
 1754.0900974244
  30
0.0
  11
 1920.9103121653
  21
 1717.5000000009
  31
0.0
   0
LINE
   5
1C6
 100
AcDbEntity
   8
LEVEL001
 370
9
 100
AcDbLine
   6
CONTINUOUS
  62
5
  10
 1936.8202147417
  20
 1717.5000000009
  30
0.0
  11
 1892.2751660300
  21
 1762.0450487126
  31
0.0
   0
LINE
   5
1C7
 100
AcDbEntity
   8
LEVEL001
 370
9
 100
AcDbLine
   6
CONTINUOUS
  62
5
  10
 1900.2301173183
  20
 1770.0000000009
  30
0.0
  11
 1952.7301173185
  21
 1717.5000000009
  31
0.0
   0
LINE
   5
1C8
 100
AcDbEntity
   8
LEVEL001
 370
9
 100
AcDbLine
   6
CONTINUOUS
  62
5
  10
 1952.7301173185
  20
 1717.5000000009
  30
0.0
  11
 2005.2301173185
  21
 1770.0000000009
  31
0.0
   0
LINE
   5
1C9
 100
AcDbEntity
   8
LEVEL001
 370
9
 100
AcDbLine
   6
CONTINUOUS
  62
5
  10
 1957.5004095888
  20
 1770.0000000009
  30
0.0
  11
 1928.8652634536
  21
 1741.3648538657
  31
0.0
   0
LINE
   5
1CA
 100
AcDbEntity
   8
LEVEL001
 370
9
 100
AcDbLine
   6
CONTINUOUS
  62
5
  10
 1936.8202147416
  20
 1733.4099025777
  30
0.0
  11
 1973.4103121648
  21
 1770.0000000009
  31
0.0
   0
LINE
   5
1CB
 100
AcDbEntity
   8
LEVEL001
 370
9
 100
AcDbLine
   6
CONTINUOUS
  62
5
  10
 1989.3202147424
  20
 1770.0000000009
  30
0.0
  11
 1944.7751660304
  21
 1725.4549512889
  31
0.0
   0
LINE
   5
1CC
 100
AcDbEntity
   8
LEVEL001
 370
9
 100
AcDbLine
   6
CONTINUOUS
  62
5
  10
 2010.0004095891
  20
 1717.5000000009
  30
0.0
  11
 1981.3652634538
  21
 1746.1351461362
  31
0.0
   0
LINE
   5
1CD
 100
AcDbEntity
   8
LEVEL001
 370
9
 100
AcDbLine
   6
CONTINUOUS
  62
5
  10
 1989.3202147420
  20
 1754.0900974244
  30
0.0
  11
 2025.9103121655
  21
 1717.5000000009
  31
0.0
   0
LINE
   5
1CE
 100
AcDbEntity
   8
LEVEL001
 370
9
 100
AcDbLine
   6
CONTINUOUS
  62
5
  10
 2041.8202147419
  20
 1717.5000000009
  30
0.0
  11
 1997.2751660302
  21
 1762.0450487126
  31
0.0
   0
LINE
   5
1CF
 100
AcDbEntity
   8
LEVEL001
 370
9
 100
AcDbLine
   6
CONTINUOUS
  62
5
  10
 2005.2301173185
  20
 1770.0000000009
  30
0.0
  11
 2057.7301173187
  21
 1717.5000000009
  31
0.0
   0
LINE
   5
1D0
 100
AcDbEntity
   8
LEVEL001
 370
9
 100
AcDbLine
   6
CONTINUOUS
  62
5
  10
 1750.0004095886
  20
 1770.0000000009
  30
0.0
  11
 2050.0004748236
  21
 1770.0000000009
  31
0.0
   0
LINE
   5
1D1
 100
AcDbEntity
   8
LEVEL001
 370
9
 100
AcDbLine
   6
CONTINUOUS
  62
5
  10
 1250.0004095886
  20
 1770.0000000009
  30
0.0
  11
 950.00047482356
  21
 1770.0000000009
  31
0.0
   0
CIRCLE
   5
1D2
 100
AcDbEntity
   8
LEVEL001
 370
13
 100
AcDbCircle
   6
CONTINUOUS
  62
1
  10
 1750.0000000000
  20
 2645.0000000009
  30
0.0
  40
 69.999997913838
   0
MTEXT
   5
1D4
 100
AcDbEntity
   8
LEVEL001
 370
25
  62
7
 100
AcDbMText
  10
 1750.0000000000
  20
 2645.0000000009
  30
0.0
  40
 66.000000000000
  41
0.0
  71
5
  72
1
   1
\T1.000000;１０
   7
GMM003
  44
 0.79999984000003
   0
LEADER
   5
1D5
 100
AcDbEntity
   8
LEVEL001
 370
13
   6
CONTINUOUS
  62
1
 100
AcDbLeader
   3
GMM002
  73
3
  74
1
  75
0
  40
 66.000000000000
  41
0.0
  76
2
  10
 1538.1500000000
  20
 2520.0000000009
  30
0.0
  10
 1689.7122124356
  20
 2609.4277864273
  30
0.0
  77
1
   0
MTEXT
   5
1D7
 100
AcDbEntity
   8
LEVEL001
 370
13
  62
1
 100
AcDbMText
  10
 2270.6486052095
  20
 1778.7299370412
  30
0.0
  40
 40.000000000000
  41
0.0
  71
7
  72
1
   1
\T1.000000;ＧＬ
   7
GMM004
  44
 0.79999984000003
   0
LINE
   5
1D8
 100
AcDbEntity
   8
LEVEL001
 370
9
 100
AcDbLine
   6
CONTINUOUS
  62
5
  10
 2281.5900974233
  20
 1754.0900974244
  30
0.0
  11
 2318.1801948468
  21
 1717.5000000009
  31
0.0
   0
LINE
   5
1D9
 100
AcDbEntity
   8
LEVEL001
 370
9
 100
AcDbLine
   6
CONTINUOUS
  62
5
  10
 2334.0900974233
  20
 1717.5000000009
  30
0.0
  11
 2289.5450487115
  21
 1762.0450487126
  31
0.0
   0
LINE
   5
1DA
 100
AcDbEntity
   8
LEVEL001
 370
9
 100
AcDbLine
   6
CONTINUOUS
  62
5
  10
 2297.4999999998
  20
 1770.0000000009
  30
0.0
  11
 2350.0000000000
  21
 1717.5000000009
  31
0.0
   0
LINE
   5
1DB
 100
AcDbEntity
   8
LEVEL001
 370
9
 100
AcDbLine
   6
CONTINUOUS
  62
5
  10
 2561.8500652350
  20
 1770.0000000009
  30
0.0
  11
 2100.0000652350
  21
 1770.0000000009
  31
0.0
   0
LWPOLYLINE
   5
1DC
 100
AcDbEntity
   8
LEVEL001
 370
13
   6
CONTINUOUS
  62
1
 100
AcDbPolyline
  90
3
  70
1
  10
 2242.4999347647
  20
 1770.0000000009
  10
 2217.4999347647
  20
 1820.0000000009
  10
 2267.4999347647
  20
 1820.0000000009
   0
LINE
   5
1DD
 100
AcDbEntity
   8
LEVEL001
 370
9
 100
AcDbLine
   6
CONTINUOUS
  62
5
  10
 2244.9999999998
  20
 1717.5000000009
  30
0.0
  11
 2297.4999999998
  21
 1770.0000000009
  31
0.0
   0
LINE
   5
1DE
 100
AcDbEntity
   8
LEVEL001
 370
9
 100
AcDbLine
   6
CONTINUOUS
  62
5
  10
 2229.0900974230
  20
 1733.4099025777
  30
0.0
  11
 2265.6801948462
  21
 1770.0000000009
  31
0.0
   0
LINE
   5
1DF
 100
AcDbEntity
   8
LEVEL001
 370
9
 100
AcDbLine
   6
CONTINUOUS
  62
5
  10
 2281.5900974238
  20
 1770.0000000009
  30
0.0
  11
 2237.0450487118
  21
 1725.4549512889
  31
0.0
   0
LINE
   5
1E0
 100
AcDbEntity
   8
LEVEL001
 370
9
 100
AcDbLine
   6
CONTINUOUS
  62
5
  10
 2302.2702922704
  20
 1717.5000000009
  30
0.0
  11
 2273.6351461351
  21
 1746.1351461362
  31
0.0
   0
LINE
   5
1E1
 100
AcDbEntity
   8
LEVEL001
 370
9
 100
AcDbLine
   6
CONTINUOUS
  62
5
  10
 2229.0900974231
  20
 1717.5000000009
  30
0.0
  11
 2184.5450487114
  21
 1762.0450487126
  31
0.0
   0
LINE
   5
1E2
 100
AcDbEntity
   8
LEVEL001
 370
9
 100
AcDbLine
   6
CONTINUOUS
  62
5
  10
 2192.4999999996
  20
 1770.0000000009
  30
0.0
  11
 2244.9999999998
  21
 1717.5000000009
  31
0.0
   0
LINE
   5
1E3
 100
AcDbEntity
   8
LEVEL001
 370
9
 100
AcDbLine
   6
CONTINUOUS
  62
5
  10
 2249.7702922701
  20
 1770.0000000009
  30
0.0
  11
 2221.1351461349
  21
 1741.3648538657
  31
0.0
   0
LINE
   5
1E4
 100
AcDbEntity
   8
LEVEL001
 370
9
 100
AcDbLine
   6
CONTINUOUS
  62
5
  10
 2144.7702922699
  20
 1770.0000000009
  30
0.0
  11
 2092.2702922699
  21
 1717.5000000009
  31
0.0
   0
LINE
   5
1E5
 100
AcDbEntity
   8
LEVEL001
 370
9
 100
AcDbLine
   6
CONTINUOUS
  62
5
  10
 2108.1801948460
  20
 1717.5000000009
  30
0.0
  11
 2160.6801948460
  21
 1770.0000000009
  31
0.0
   0
LINE
   5
1E6
 100
AcDbEntity
   8
LEVEL001
 370
9
 100
AcDbLine
   6
CONTINUOUS
  62
5
  10
 2176.5900974236
  20
 1770.0000000009
  30
0.0
  11
 2124.0900974236
  21
 1717.5000000009
  31
0.0
   0
LINE
   5
1E7
 100
AcDbEntity
   8
LEVEL001
 370
9
 100
AcDbLine
   6
CONTINUOUS
  62
5
  10
 2139.9999999996
  20
 1717.5000000009
  30
0.0
  11
 2192.4999999996
  21
 1770.0000000009
  31
0.0
   0
LINE
   5
1E8
 100
AcDbEntity
   8
LEVEL001
 370
9
 100
AcDbLine
   6
CONTINUOUS
  62
5
  10
 2197.2702922702
  20
 1717.5000000009
  30
0.0
  11
 2168.6351461349
  21
 1746.1351461362
  31
0.0
   0
LINE
   5
1E9
 100
AcDbEntity
   8
LEVEL001
 370
9
 100
AcDbLine
   6
CONTINUOUS
  62
5
  10
 2176.5900974231
  20
 1754.0900974244
  30
0.0
  11
 2213.1801948467
  21
 1717.5000000009
  31
0.0
   0
LINE
   5
1EA
 100
AcDbEntity
   8
LEVEL001
 370
9
 100
AcDbLine
   6
CONTINUOUS
  62
5
  10
 3002.5000000000
  20
 1770.0000000009
  30
0.0
  11
 2950.0000000000
  21
 1717.5000000009
  31
0.0
   0
LINE
   5
1EB
 100
AcDbEntity
   8
LEVEL001
 370
9
 100
AcDbLine
   6
CONTINUOUS
  62
5
  10
 2965.9099025760
  20
 1717.5000000009
  30
0.0
  11
 3018.4099025760
  21
 1770.0000000009
  31
0.0
   0
LINE
   5
1EC
 100
AcDbEntity
   8
LEVEL001
 370
9
 100
AcDbLine
   6
CONTINUOUS
  62
5
  10
 3034.3198051536
  20
 1770.0000000009
  30
0.0
  11
 2981.8198051536
  21
 1717.5000000009
  31
0.0
   0
LINE
   5
1ED
 100
AcDbEntity
   8
LEVEL001
 370
9
 100
AcDbLine
   6
CONTINUOUS
  62
5
  10
 2997.7297077297
  20
 1717.5000000009
  30
0.0
  11
 3050.2297077297
  21
 1770.0000000009
  31
0.0
   0
LINE
   5
1EE
 100
AcDbEntity
   8
LEVEL001
 370
9
 100
AcDbLine
   6
CONTINUOUS
  62
5
  10
 3055.0000000003
  20
 1717.5000000009
  30
0.0
  11
 3026.3648538650
  21
 1746.1351461362
  31
0.0
   0
LINE
   5
1EF
 100
AcDbEntity
   8
LEVEL001
 370
9
 100
AcDbLine
   6
CONTINUOUS
  62
5
  10
 3034.3198051532
  20
 1754.0900974244
  30
0.0
  11
 3070.9099025767
  21
 1717.5000000009
  31
0.0
   0
LINE
   5
1F0
 100
AcDbEntity
   8
LEVEL001
 370
9
 100
AcDbLine
   6
CONTINUOUS
  62
5
  10
 3086.8198051531
  20
 1717.5000000009
  30
0.0
  11
 3042.2747564414
  21
 1762.0450487126
  31
0.0
   0
LINE
   5
1F1
 100
AcDbEntity
   8
LEVEL001
 370
9
 100
AcDbLine
   6
CONTINUOUS
  62
5
  10
 3050.2297077297
  20
 1770.0000000009
  30
0.0
  11
 3102.7297077299
  21
 1717.5000000009
  31
0.0
   0
LINE
   5
1F2
 100
AcDbEntity
   8
LEVEL001
 370
9
 100
AcDbLine
   6
CONTINUOUS
  62
5
  10
 3102.7297077299
  20
 1717.5000000009
  30
0.0
  11
 3155.2297077299
  21
 1770.0000000009
  31
0.0
   0
LINE
   5
1F3
 100
AcDbEntity
   8
LEVEL001
 370
9
 100
AcDbLine
   6
CONTINUOUS
  62
5
  10
 3107.5000000002
  20
 1770.0000000009
  30
0.0
  11
 3078.8648538650
  21
 1741.3648538657
  31
0.0
   0
LINE
   5
1F4
 100
AcDbEntity
   8
LEVEL001
 370
9
 100
AcDbLine
   6
CONTINUOUS
  62
5
  10
 3086.8198051530
  20
 1733.4099025777
  30
0.0
  11
 3123.4099025762
  21
 1770.0000000009
  31
0.0
   0
LINE
   5
1F5
 100
AcDbEntity
   8
LEVEL001
 370
9
 100
AcDbLine
   6
CONTINUOUS
  62
5
  10
 3139.3198051538
  20
 1770.0000000009
  30
0.0
  11
 3094.7747564418
  21
 1725.4549512889
  31
0.0
   0
LINE
   5
1F6
 100
AcDbEntity
   8
LEVEL001
 370
9
 100
AcDbLine
   6
CONTINUOUS
  62
5
  10
 2738.1500652350
  20
 1770.0000000009
  30
0.0
  11
 3200.0000652350
  21
 1770.0000000009
  31
0.0
   0
LINE
   5
1F7
 100
AcDbEntity
   8
LEVEL001
 370
9
 100
AcDbLine
   6
CONTINUOUS
  62
5
  10
 3160.0000000005
  20
 1717.5000000009
  30
0.0
  11
 3131.3648538652
  21
 1746.1351461362
  31
0.0
   0
LINE
   5
1F8
 100
AcDbEntity
   8
LEVEL001
 370
9
 100
AcDbLine
   6
CONTINUOUS
  62
5
  10
 3139.3198051534
  20
 1754.0900974244
  30
0.0
  11
 3175.9099025769
  21
 1717.5000000009
  31
0.0
   0
LINE
   5
1F9
 100
AcDbEntity
   8
LEVEL001
 370
9
 100
AcDbLine
   6
CONTINUOUS
  62
5
  10
 3191.8198051533
  20
 1717.5000000009
  30
0.0
  11
 3147.2747564416
  21
 1762.0450487126
  31
0.0
   0
LINE
   5
1FA
 100
AcDbEntity
   8
LEVEL001
 370
9
 100
AcDbLine
   6
CONTINUOUS
  62
5
  10
 3155.2297077299
  20
 1770.0000000009
  30
0.0
  11
 3207.7297077301
  21
 1717.5000000009
  31
0.0
   0
LWPOLYLINE
   5
1FB
 100
AcDbEntity
   8
LEVEL001
 370
9
   6
CONTINUOUS
  62
5
 100
AcDbPolyline
  90
6
  70
0
  10
 1461.8504095886
  20
 1770.0000000009
  10
 1250.0004095886
  20
 1770.0000000009
  10
 1250.0004095886
  20
 970.00000000086
  10
 1750.0004095886
  20
 970.00000000086
  10
 1750.0004095886
  20
 1770.0000000009
  10
 1538.1504095886
  20
 1770.0000000009
   0
LINE
   5
1FC
 100
AcDbEntity
   8
LEVEL001
 370
9
 100
AcDbLine
   6
CONTINUOUS
  62
5
  10
 1400.0004095886
  20
 970.00000000087
  30
0.0
  11
 1350.0004095886
  21
 870.00000000087
  31
0.0
   0
LINE
   5
1FD
 100
AcDbEntity
   8
LEVEL001
 370
9
 100
AcDbLine
   6
CONTINUOUS
  62
5
  10
 1350.0004095886
  20
 970.00000000086
  30
0.0
  11
 1390.0004095886
  21
 950.00000000086
  31
0.0
   0
LINE
   5
1FE
 100
AcDbEntity
   8
LEVEL001
 370
9
 100
AcDbLine
   6
CONTINUOUS
  62
5
  10
 1350.0004095886
  20
 970.00000000087
  30
0.0
  11
 1300.0004095886
  21
 870.00000000087
  31
0.0
   0
LINE
   5
1FF
 100
AcDbEntity
   8
LEVEL001
 370
9
 100
AcDbLine
   6
CONTINUOUS
  62
5
  10
 1300.0004095886
  20
 970.00000000086
  30
0.0
  11
 1340.0004095886
  21
 950.00000000086
  31
0.0
   0
LINE
   5
200
 100
AcDbEntity
   8
LEVEL001
 370
9
 100
AcDbLine
   6
CONTINUOUS
  62
5
  10
 1300.0004095886
  20
 970.00000000087
  30
0.0
  11
 1250.0004095886
  21
 870.00000000087
  31
0.0
   0
LINE
   5
201
 100
AcDbEntity
   8
LEVEL001
 370
9
 100
AcDbLine
   6
CONTINUOUS
  62
5
  10
 1250.0004095886
  20
 970.00000000086
  30
0.0
  11
 1290.0004095886
  21
 950.00000000086
  31
0.0
   0
LINE
   5
202
 100
AcDbEntity
   8
LEVEL001
 370
9
 100
AcDbLine
   6
CONTINUOUS
  62
5
  10
 1400.0004095886
  20
 870.00000000087
  30
0.0
  11
 1360.0004095886
  21
 890.00000000087
  31
0.0
   0
LINE
   5
203
 100
AcDbEntity
   8
LEVEL001
 370
9
 100
AcDbLine
   6
CONTINUOUS
  62
5
  10
 1350.0004095886
  20
 870.00000000087
  30
0.0
  11
 1310.0004095886
  21
 890.00000000087
  31
0.0
   0
LINE
   5
204
 100
AcDbEntity
   8
LEVEL001
 370
9
 100
AcDbLine
   6
CONTINUOUS
  62
5
  10
 1300.0004095886
  20
 870.00000000087
  30
0.0
  11
 1260.0004095886
  21
 890.00000000087
  31
0.0
   0
LINE
   5
205
 100
AcDbEntity
   8
LEVEL001
 370
9
 100
AcDbLine
   6
CONTINUOUS
  62
5
  10
 1750.0004095886
  20
 970.00000000087
  30
0.0
  11
 1700.0004095886
  21
 870.00000000087
  31
0.0
   0
LINE
   5
206
 100
AcDbEntity
   8
LEVEL001
 370
9
 100
AcDbLine
   6
CONTINUOUS
  62
5
  10
 1700.0004095886
  20
 970.00000000086
  30
0.0
  11
 1740.0004095886
  21
 950.00000000086
  31
0.0
   0
LINE
   5
207
 100
AcDbEntity
   8
LEVEL001
 370
9
 100
AcDbLine
   6
CONTINUOUS
  62
5
  10
 1700.0004095886
  20
 970.00000000087
  30
0.0
  11
 1650.0004095886
  21
 870.00000000087
  31
0.0
   0
LINE
   5
208
 100
AcDbEntity
   8
LEVEL001
 370
9
 100
AcDbLine
   6
CONTINUOUS
  62
5
  10
 1650.0004095886
  20
 970.00000000086
  30
0.0
  11
 1690.0004095886
  21
 950.00000000086
  31
0.0
   0
LINE
   5
209
 100
AcDbEntity
   8
LEVEL001
 370
9
 100
AcDbLine
   6
CONTINUOUS
  62
5
  10
 1650.0004095886
  20
 970.00000000087
  30
0.0
  11
 1600.0004095886
  21
 870.00000000087
  31
0.0
   0
LINE
   5
20A
 100
AcDbEntity
   8
LEVEL001
 370
9
 100
AcDbLine
   6
CONTINUOUS
  62
5
  10
 1600.0004095886
  20
 970.00000000086
  30
0.0
  11
 1640.0004095886
  21
 950.00000000086
  31
0.0
   0
LINE
   5
20B
 100
AcDbEntity
   8
LEVEL001
 370
9
 100
AcDbLine
   6
CONTINUOUS
  62
5
  10
 1750.0004095886
  20
 870.00000000087
  30
0.0
  11
 1710.0004095886
  21
 890.00000000087
  31
0.0
   0
LINE
   5
20C
 100
AcDbEntity
   8
LEVEL001
 370
9
 100
AcDbLine
   6
CONTINUOUS
  62
5
  10
 1700.0004095886
  20
 870.00000000087
  30
0.0
  11
 1660.0004095886
  21
 890.00000000087
  31
0.0
   0
LINE
   5
20D
 100
AcDbEntity
   8
LEVEL001
 370
9
 100
AcDbLine
   6
CONTINUOUS
  62
5
  10
 1650.0004095886
  20
 870.00000000087
  30
0.0
  11
 1610.0004095886
  21
 890.00000000087
  31
0.0
   0
LWPOLYLINE
   5
20E
 100
AcDbEntity
   8
LEVEL001
 370
9
   6
CONTINUOUS
  62
5
 100
AcDbPolyline
  90
4
  70
1
  10
 1250.0004095886
  20
 970.00000000086
  10
 1250.0004095886
  20
 870.00000000087
  10
 1750.0004095886
  20
 870.00000000087
  10
 1750.0004095886
  20
 970.00000000086
   0
LWPOLYLINE
   5
20F
 100
AcDbEntity
   8
LEVEL001
 370
9
   6
CONTINUOUS
  62
5
 100
AcDbPolyline
  90
6
  70
0
  10
 2611.8500000000
  20
 1770.0000000009
  10
 2400.0000000000
  20
 1770.0000000009
  10
 2400.0000000000
  20
 970.00000000087
  10
 2900.0000000000
  20
 970.00000000087
  10
 2900.0000000000
  20
 1770.0000000009
  10
 2688.1500000000
  20
 1770.0000000009
   0
LINE
   5
210
 100
AcDbEntity
   8
LEVEL001
 370
9
 100
AcDbLine
   6
CONTINUOUS
  62
5
  10
 2550.0000000000
  20
 970.00000000087
  30
0.0
  11
 2500.0000000000
  21
 870.00000000087
  31
0.0
   0
LINE
   5
211
 100
AcDbEntity
   8
LEVEL001
 370
9
 100
AcDbLine
   6
CONTINUOUS
  62
5
  10
 2500.0000000000
  20
 970.00000000086
  30
0.0
  11
 2540.0000000000
  21
 950.00000000086
  31
0.0
   0
LINE
   5
212
 100
AcDbEntity
   8
LEVEL001
 370
9
 100
AcDbLine
   6
CONTINUOUS
  62
5
  10
 2500.0000000000
  20
 970.00000000087
  30
0.0
  11
 2450.0000000000
  21
 870.00000000087
  31
0.0
   0
LINE
   5
213
 100
AcDbEntity
   8
LEVEL001
 370
9
 100
AcDbLine
   6
CONTINUOUS
  62
5
  10
 2450.0000000000
  20
 970.00000000086
  30
0.0
  11
 2490.0000000000
  21
 950.00000000086
  31
0.0
   0
LINE
   5
214
 100
AcDbEntity
   8
LEVEL001
 370
9
 100
AcDbLine
   6
CONTINUOUS
  62
5
  10
 2450.0000000000
  20
 970.00000000087
  30
0.0
  11
 2400.0000000000
  21
 870.00000000087
  31
0.0
   0
LINE
   5
215
 100
AcDbEntity
   8
LEVEL001
 370
9
 100
AcDbLine
   6
CONTINUOUS
  62
5
  10
 2400.0000000000
  20
 970.00000000086
  30
0.0
  11
 2440.0000000000
  21
 950.00000000086
  31
0.0
   0
LINE
   5
216
 100
AcDbEntity
   8
LEVEL001
 370
9
 100
AcDbLine
   6
CONTINUOUS
  62
5
  10
 2550.0000000000
  20
 870.00000000087
  30
0.0
  11
 2510.0000000000
  21
 890.00000000087
  31
0.0
   0
LINE
   5
217
 100
AcDbEntity
   8
LEVEL001
 370
9
 100
AcDbLine
   6
CONTINUOUS
  62
5
  10
 2500.0000000000
  20
 870.00000000087
  30
0.0
  11
 2460.0000000000
  21
 890.00000000087
  31
0.0
   0
LINE
   5
218
 100
AcDbEntity
   8
LEVEL001
 370
9
 100
AcDbLine
   6
CONTINUOUS
  62
5
  10
 2450.0000000000
  20
 870.00000000087
  30
0.0
  11
 2410.0000000000
  21
 890.00000000087
  31
0.0
   0
LWPOLYLINE
   5
219
 100
AcDbEntity
   8
LEVEL001
 370
9
   6
CONTINUOUS
  62
5
 100
AcDbPolyline
  90
4
  70
1
  10
 2400.0000000000
  20
 970.00000000087
  10
 2400.0000000000
  20
 870.00000000087
  10
 2900.0000000000
  20
 870.00000000087
  10
 2900.0000000000
  20
 970.00000000087
   0
LINE
   5
21A
 100
AcDbEntity
   8
LEVEL001
 370
9
 100
AcDbLine
   6
CONTINUOUS
  62
5
  10
 2900.0000000000
  20
 970.00000000087
  30
0.0
  11
 2850.0000000000
  21
 870.00000000087
  31
0.0
   0
LINE
   5
21B
 100
AcDbEntity
   8
LEVEL001
 370
9
 100
AcDbLine
   6
CONTINUOUS
  62
5
  10
 2850.0000000000
  20
 970.00000000086
  30
0.0
  11
 2890.0000000000
  21
 950.00000000086
  31
0.0
   0
LINE
   5
21C
 100
AcDbEntity
   8
LEVEL001
 370
9
 100
AcDbLine
   6
CONTINUOUS
  62
5
  10
 2850.0000000000
  20
 970.00000000087
  30
0.0
  11
 2800.0000000000
  21
 870.00000000087
  31
0.0
   0
LINE
   5
21D
 100
AcDbEntity
   8
LEVEL001
 370
9
 100
AcDbLine
   6
CONTINUOUS
  62
5
  10
 2800.0000000000
  20
 970.00000000086
  30
0.0
  11
 2840.0000000000
  21
 950.00000000086
  31
0.0
   0
LINE
   5
21E
 100
AcDbEntity
   8
LEVEL001
 370
9
 100
AcDbLine
   6
CONTINUOUS
  62
5
  10
 2800.0000000000
  20
 970.00000000087
  30
0.0
  11
 2750.0000000000
  21
 870.00000000087
  31
0.0
   0
LINE
   5
21F
 100
AcDbEntity
   8
LEVEL001
 370
9
 100
AcDbLine
   6
CONTINUOUS
  62
5
  10
 2750.0000000000
  20
 970.00000000086
  30
0.0
  11
 2790.0000000000
  21
 950.00000000086
  31
0.0
   0
LINE
   5
220
 100
AcDbEntity
   8
LEVEL001
 370
9
 100
AcDbLine
   6
CONTINUOUS
  62
5
  10
 2900.0000000000
  20
 870.00000000087
  30
0.0
  11
 2860.0000000000
  21
 890.00000000087
  31
0.0
   0
LINE
   5
221
 100
AcDbEntity
   8
LEVEL001
 370
9
 100
AcDbLine
   6
CONTINUOUS
  62
5
  10
 2850.0000000000
  20
 870.00000000087
  30
0.0
  11
 2810.0000000000
  21
 890.00000000087
  31
0.0
   0
LINE
   5
222
 100
AcDbEntity
   8
LEVEL001
 370
9
 100
AcDbLine
   6
CONTINUOUS
  62
5
  10
 2800.0000000000
  20
 870.00000000087
  30
0.0
  11
 2760.0000000000
  21
 890.00000000087
  31
0.0
   0
DIMENSION
   5
223
 100
AcDbEntity
   8
LEVEL001
 370
9
   6
CONTINUOUS
  62
6
 100
AcDbDimension
   2
*D17
  10
 1750.0004095886
  20
 570.00000000087
  30
0.0
  11
 1500.0004095886
  21
 570.00000000087
  31
0.0
  70
0
   3
GMM007
 100
AcDbAlignedDimension
  13
 1250.0004095886
  23
 870.00000000087
  33
0.0
  14
 1750.0004095886
  24
 870.00000000087
  34
0.0
 100
AcDbRotatedDimension
   0
DIMENSION
   5
224
 100
AcDbEntity
   8
LEVEL001
 370
9
   6
CONTINUOUS
  62
6
 100
AcDbDimension
   2
*D18
  10
 2900.0000000000
  20
 570.00000000087
  30
0.0
  11
 2650.0000000000
  21
 570.00000000087
  31
0.0
  70
0
   3
GMM007
 100
AcDbAlignedDimension
  13
 2400.0000000000
  23
 870.00000000087
  33
0.0
  14
 2900.0000000000
  24
 870.00000000087
  34
0.0
 100
AcDbRotatedDimension
   0
ARC
   5
225
 100
AcDbEntity
   8
LEVEL001
 370
25
   6
CONTINUOUS
  62
7
 100
AcDbCircle
  10
 1555.0000000002
  20
 3765.4781142896
  30
0.0
  40
 20.000000000000
 100
AcDbArc
  50
0.0
  51
 90.000000000000
   0
ARC
   5
226
 100
AcDbEntity
   8
LEVEL001
 370
25
   6
CONTINUOUS
  62
7
 100
AcDbCircle
  10
 1445.0000000002
  20
 3765.4781142896
  30
0.0
  40
 20.000000000000
 100
AcDbArc
  50
 90.000000000000
  51
 180.00000000000
   0
LINE
   5
227
 100
AcDbEntity
   8
LEVEL001
 370
25
 100
AcDbLine
   6
CONTINUOUS
  62
7
  10
 1425.0000000002
  20
 3765.4781142896
  30
0.0
  11
 1425.0000000002
  21
 3405.4781142896
  31
0.0
   0
ARC
   5
228
 100
AcDbEntity
   8
LEVEL001
 370
25
   6
CONTINUOUS
  62
7
 100
AcDbCircle
  10
 1445.0000000002
  20
 3405.4781142896
  30
0.0
  40
 20.000000000000
 100
AcDbArc
  50
 180.00000000000
  51
 270.00000000000
   0
LINE
   5
229
 100
AcDbEntity
   8
LEVEL001
 370
25
 100
AcDbLine
   6
CONTINUOUS
  62
7
  10
 1445.0000000002
  20
 3385.4781142896
  30
0.0
  11
 1555.0000000002
  21
 3385.4781142896
  31
0.0
   0
LINE
   5
22A
 100
AcDbEntity
   8
LEVEL001
 370
25
 100
AcDbLine
   6
CONTINUOUS
  62
7
  10
 1575.0000000002
  20
 3405.4781142896
  30
0.0
  11
 1575.0000000002
  21
 3765.4781142896
  31
0.0
   0
ARC
   5
22B
 100
AcDbEntity
   8
LEVEL001
 370
25
   6
CONTINUOUS
  62
7
 100
AcDbCircle
  10
 1555.0000000002
  20
 3405.4781142896
  30
0.0
  40
 20.000000000000
 100
AcDbArc
  50
 270.00000000000
  51
 360.00000000000
   0
LINE
   5
22C
 100
AcDbEntity
   8
LEVEL001
 370
25
 100
AcDbLine
   6
CONTINUOUS
  62
7
  10
 1555.0000000002
  20
 3785.4781142896
  30
0.0
  11
 1445.0000000002
  21
 3785.4781142896
  31
0.0
   0
LWPOLYLINE
   5
22D
 100
AcDbEntity
   8
LEVEL001
 370
9
   6
CONTINUOUS
  62
5
 100
AcDbPolyline
  90
7
  70
1
  10
 1500.0000000002
  20
 3745.4781142896
  10
 1463.7000010820
  20
 3699.2781156665
  10
 1483.5000004919
  20
 3699.2781156665
  10
 1483.5000004919
  20
 3679.4781162566
  10
 1516.4999995084
  20
 3679.4781162566
  10
 1516.4999995084
  20
 3699.2781156665
  10
 1536.2999989183
  20
 3699.2781156665
   0
LWPOLYLINE
   5
22E
 100
AcDbEntity
   8
LEVEL001
 370
25
   6
CONTINUOUS
  62
7
 100
AcDbPolyline
  90
4
  70
0
  10
 1461.8500000000
  20
 3385.4781142896
  10
 1461.8500000000
  20
 1070.0000000009
  10
 1538.1500000000
  20
 1070.0000000009
  10
 1538.1500000000
  20
 3385.4781142896
   0
CIRCLE
   5
22F
 100
AcDbEntity
   8
LEVEL001
 370
13
 100
AcDbCircle
   6
CONTINUOUS
  62
1
  10
 1750.0000000000
  20
 3485.4781142896
  30
0.0
  40
 69.999997913838
   0
MTEXT
   5
231
 100
AcDbEntity
   8
LEVEL001
 370
25
  62
7
 100
AcDbMText
  10
 1750.0000000000
  20
 3485.4781142896
  30
0.0
  40
 66.000000000000
  41
0.0
  71
5
  72
1
   1
\T1.000000;１３
   7
GMM003
  44
 0.79999984000003
   0
LEADER
   5
232
 100
AcDbEntity
   8
LEVEL001
 370
13
   6
CONTINUOUS
  62
1
 100
AcDbLeader
   3
GMM008
  73
3
  74
1
  75
0
  40
 66.000000000000
  41
0.0
  76
2
  10
 1575.0000000002
  20
 3585.4781142896
  30
0.0
  10
 1689.3782235418
  20
 3520.4781132466
  30
0.0
  77
1
   0
ARC
   5
233
 100
AcDbEntity
   8
LEVEL001
 370
25
   6
CONTINUOUS
  62
7
 100
AcDbCircle
  10
 2988.1500000000
  20
 3603.9781142904
  30
0.0
  40
 300.00000000000
 100
AcDbArc
  50
 142.12501634890
  51
 180.00000000000
   0
ARC
   5
234
 100
AcDbEntity
   8
LEVEL001
 370
9
   6
DASHDOT
  62
6
 100
AcDbCircle
  10
 2988.1500000000
  20
 3603.9781142905
  30
0.0
  40
 338.15000000000
 100
AcDbArc
  50
 142.12501634890
  51
 180.00000000000
   0
ARC
   5
235
 100
AcDbEntity
   8
LEVEL001
 370
25
   6
CONTINUOUS
  62
7
 100
AcDbCircle
  10
 2988.1500000000
  20
 3603.9781142905
  30
0.0
  40
 376.30000000000
 100
AcDbArc
  50
 142.12501634890
  51
 180.00000000000
   0
ARC
   5
236
 100
AcDbEntity
   8
LEVEL001
 370
25
   6
CONTINUOUS
  62
7
 100
AcDbCircle
  10
 2600.0773787504
  20
 3394.1198345802
  30
0.0
  40
 5.0000000000000
 100
AcDbArc
  50
 179.99999999997
  51
 201.80140948633
   0
LINE
   5
237
 100
AcDbEntity
   8
LEVEL001
 370
25
 100
AcDbLine
   6
CONTINUOUS
  62
7
  10
 2598.1489020595
  20
 3385.4781142896
  30
0.0
  11
 2595.4349952960
  21
 3392.2628811985
  31
0.0
   0
ARC
   5
238
 100
AcDbEntity
   8
LEVEL001
 370
25
   6
CONTINUOUS
  62
7
 100
AcDbCircle
  10
 2594.0773787504
  20
 3401.3257607487
  30
0.0
  40
 5.0000000000000
 100
AcDbArc
  50
 338.19859051367
  51
 0.26055103950549E-10
   0
LINE
   5
239
 100
AcDbEntity
   8
LEVEL001
 370
25
 100
AcDbLine
   6
CONTINUOUS
  62
7
  10
 2596.9174913501
  20
 3394.9631302302
  30
0.0
  11
 2598.7197622048
  21
 3399.4688073669
  31
0.0
   0
ARC
   5
23A
 100
AcDbEntity
   8
LEVEL001
 370
25
   6
CONTINUOUS
  62
7
 100
AcDbCircle
  10
 2601.5598748046
  20
 3393.1061768484
  30
0.0
  40
 5.0000000000000
 100
AcDbArc
  50
 158.19859051364
  51
 201.80140948636
   0
LWPOLYLINE
   5
23B
 100
AcDbEntity
   8
LEVEL001
 370
25
   6
CONTINUOUS
  62
7
 100
AcDbPolyline
  90
3
  70
0
  10
 2598.1489020595
  20
 3385.4781142896
  10
 2599.0773787504
  20
 3385.8495049660
  10
 2596.9174913501
  20
 3391.2492234667
   0
LINE
   5
23C
 100
AcDbEntity
   8
LEVEL001
 370
25
 100
AcDbLine
   6
CONTINUOUS
  62
7
  10
 2598.1489020595
  20
 3785.4781142913
  30
0.0
  11
 2595.4349952960
  21
 3778.6933473824
  31
0.0
   0
ARC
   5
23D
 100
AcDbEntity
   8
LEVEL001
 370
25
   6
CONTINUOUS
  62
7
 100
AcDbCircle
  10
 2600.0773787504
  20
 3776.8363940006
  30
0.0
  40
 5.0000000000000
 100
AcDbArc
  50
 158.19859051367
  51
 180.00000000003
   0
ARC
   5
23E
 100
AcDbEntity
   8
LEVEL001
 370
25
   6
CONTINUOUS
  62
7
 100
AcDbCircle
  10
 2594.0773787504
  20
 3769.6304678322
  30
0.0
  40
 5.0000000000000
 100
AcDbArc
  50
 359.99999999997
  51
 21.801409486328
   0
LINE
   5
23F
 100
AcDbEntity
   8
LEVEL001
 370
25
 100
AcDbLine
   6
CONTINUOUS
  62
7
  10
 2596.9174913501
  20
 3775.9930983507
  30
0.0
  11
 2598.7197622048
  21
 3771.4874212139
  31
0.0
   0
ARC
   5
240
 100
AcDbEntity
   8
LEVEL001
 370
25
   6
CONTINUOUS
  62
7
 100
AcDbCircle
  10
 2601.5598748046
  20
 3777.8500517324
  30
0.0
  40
 5.0000000000000
 100
AcDbArc
  50
 158.19859051366
  51
 201.80140948634
   0
LWPOLYLINE
   5
241
 100
AcDbEntity
   8
LEVEL001
 370
25
   6
CONTINUOUS
  62
7
 100
AcDbPolyline
  90
3
  70
0
  10
 2598.1489020595
  20
 3785.4781142913
  10
 2599.0773787504
  20
 3785.1067236149
  10
 2596.9174913501
  20
 3779.7070051142
   0
LINE
   5
242
 100
AcDbEntity
   8
LEVEL001
 370
25
 100
AcDbLine
   6
CONTINUOUS
  62
7
  10
 2595.0773787504
  20
 3776.8363940006
  30
0.0
  11
 2595.0773787504
  21
 3394.1198345802
  31
0.0
   0
LINE
   5
243
 100
AcDbEntity
   8
LEVEL001
 370
25
 100
AcDbLine
   6
CONTINUOUS
  62
7
  10
 2599.0773787504
  20
 3769.6304678322
  30
0.0
  11
 2599.0773787504
  21
 3401.3257607487
  31
0.0
   0
LINE
   5
244
 100
AcDbEntity
   8
LEVEL001
 370
9
 100
AcDbLine
   6
CONTINUOUS
  62
6
  10
 2602.0773787504
  20
 3620.4781750486
  30
0.0
  11
 2602.0773787504
  21
 3621.4781140095
  31
0.0
   0
LINE
   5
245
 100
AcDbEntity
   8
LEVEL001
 370
25
 100
AcDbLine
   6
CONTINUOUS
  62
7
  10
 2602.5328575295
  20
 3606.4777478571
  30
0.0
  11
 2602.5333152934
  21
 3564.4778395737
  31
0.0
   0
LINE
   5
246
 100
AcDbEntity
   8
LEVEL001
 370
25
 100
AcDbLine
   6
CONTINUOUS
  62
7
  10
 2602.0773787504
  20
 3621.4781140095
  30
0.0
  11
 2599.0773787504
  21
 3621.4781140095
  31
0.0
   0
LINE
   5
247
 100
AcDbEntity
   8
LEVEL001
 370
9
 100
AcDbLine
   6
CONTINUOUS
  62
6
  10
 2599.0773787504
  20
 3620.4781750486
  30
0.0
  11
 2602.0773787504
  21
 3620.4781750486
  31
0.0
   0
LWPOLYLINE
   5
248
 100
AcDbEntity
   8
LEVEL001
 370
9
   6
CONTINUOUS
  62
6
 100
AcDbPolyline
  90
3
  70
0
  10
 2602.0773787504
  20
 3549.4781142904
  10
 2602.0773787504
  20
 3550.4781448041
  10
 2599.0773787504
  20
 3550.4781448041
   0
ELLIPSE
   5
249
 100
AcDbEntity
   8
LEVEL001
 370
25
   6
CONTINUOUS
  62
7
 100
AcDbEllipse
  10
 2598.5333127423
  20
 3564.4779007262
  30
0.0
  11
 4.0000025516047
  21
0.0
  31
0.0
  40
 0.99999938800000
  41
-1.4343569865528
  42
-0.15288126692848E-4
   0
LINE
   5
24A
 100
AcDbEntity
   8
LEVEL001
 370
25
 100
AcDbLine
   6
CONTINUOUS
  62
7
  10
 2599.0773787504
  20
 3549.4781142904
  30
0.0
  11
 2602.0773787504
  21
 3549.4781142904
  31
0.0
   0
ELLIPSE
   5
24B
 100
AcDbEntity
   8
LEVEL001
 370
25
   6
CONTINUOUS
  62
7
 100
AcDbEllipse
  10
 2598.5328549798
  20
 3606.4778698083
  30
0.0
  11
 4.0000025516047
  21
0.0
  31
0.0
  40
 0.99999938800000
  41
-0.30487804348912E-4
  42
 1.4342414715503
   0
LWPOLYLINE
   5
24C
 100
AcDbEntity
   8
LEVEL001
 370
25
   6
CONTINUOUS
  62
7
 100
AcDbPolyline
  90
4
  70
0
  10
 2602.5328847734
  20
 3603.9781142904
  10
 2708.0773787504
  20
 3603.9781142904
  10
 2708.0773787504
  20
 3566.9781142904
  10
 2602.5332880425
  20
 3566.9781142904
   0
LINE
   5
24D
 100
AcDbEntity
   8
LEVEL001
 370
9
 100
AcDbLine
   6
CONTINUOUS
  62
6
  10
 2613.5253133548
  20
 3590.9781142904
  30
0.0
  11
 2613.5253133548
  21
 3579.9781142904
  31
0.0
   0
LINE
   5
24E
 100
AcDbEntity
   8
LEVEL001
 370
9
 100
AcDbLine
   6
CONTINUOUS
  62
6
  10
 2613.5253133548
  20
 3577.9781142904
  30
0.0
  11
 2613.5253133548
  21
 3568.9781142904
  31
0.0
   0
LINE
   5
24F
 100
AcDbEntity
   8
LEVEL001
 370
9
 100
AcDbLine
   6
CONTINUOUS
  62
6
  10
 2613.5253133548
  20
 3601.9781142904
  30
0.0
  11
 2613.5253133548
  21
 3592.9781142904
  31
0.0
   0
LINE
   5
250
 100
AcDbEntity
   8
LEVEL001
 370
9
 100
AcDbLine
   6
CONTINUOUS
  62
6
  10
 2686.9053797500
  20
 3578.9781142904
  30
0.0
  11
 2614.7862079243
  21
 3578.9781142904
  31
0.0
   0
LINE
   5
251
 100
AcDbEntity
   8
LEVEL001
 370
9
 100
AcDbLine
   6
CONTINUOUS
  62
6
  10
 2614.7862079243
  20
 3591.9781142904
  30
0.0
  11
 2686.9053797500
  21
 3591.9781142904
  31
0.0
   0
LINE
   5
252
 100
AcDbEntity
   8
LEVEL001
 370
9
 100
AcDbLine
   6
CONTINUOUS
  62
6
  10
 2686.9053797500
  20
 3601.9781142904
  30
0.0
  11
 2686.9053797500
  21
 3592.9781142904
  31
0.0
   0
LINE
   5
253
 100
AcDbEntity
   8
LEVEL001
 370
9
 100
AcDbLine
   6
CONTINUOUS
  62
6
  10
 2686.9053797500
  20
 3577.9781142904
  30
0.0
  11
 2686.9053797500
  21
 3568.9781142904
  31
0.0
   0
LINE
   5
254
 100
AcDbEntity
   8
LEVEL001
 370
9
 100
AcDbLine
   6
CONTINUOUS
  62
6
  10
 2689.2239047913
  20
 3591.9781142904
  30
0.0
  11
 2689.2239047913
  21
 3578.9781142904
  31
0.0
   0
LWPOLYLINE
   5
255
 100
AcDbEntity
   8
LEVEL001
 370
25
   6
CONTINUOUS
  62
7
 100
AcDbPolyline
  90
4
  70
1
  10
 2693.0773787504
  20
 3580.4781142904
  10
 2703.0773787504
  20
 3580.4781142904
  10
 2703.0773787504
  20
 3590.4781142904
  10
 2693.0773787504
  20
 3590.4781142904
   0
LWPOLYLINE
   5
256
 100
AcDbEntity
   8
LEVEL001
 370
25
   6
CONTINUOUS
  62
7
 100
AcDbPolyline
  90
4
  70
0
  10
 2611.8500000000
  20
 3566.9781142904
  10
 2611.8500000000
  20
 1070.0000000009
  10
 2688.1500000000
  20
 1070.0000000009
  10
 2688.1500000000
  20
 3566.9781142904
   0
CIRCLE
   5
257
 100
AcDbEntity
   8
LEVEL001
 370
13
 100
AcDbCircle
   6
CONTINUOUS
  62
1
  10
 3125.0000000000
  20
 3670.0000000009
  30
0.0
  40
 69.999997913838
   0
CIRCLE
   5
258
 100
AcDbEntity
   8
LEVEL001
 370
13
 100
AcDbCircle
   6
CONTINUOUS
  62
1
  10
 3264.9999958277
  20
 3670.0000000009
  30
0.0
  40
 69.999997913838
   0
MTEXT
   5
25A
 100
AcDbEntity
   8
LEVEL001
 370
25
  62
7
 100
AcDbMText
  10
 3125.0000000000
  20
 3670.0000000009
  30
0.0
  40
 66.000000000000
  41
0.0
  71
5
  72
1
   1
\T1.000000;１４
   7
GMM003
  44
 0.79999984000003
   0
MTEXT
   5
25C
 100
AcDbEntity
   8
LEVEL001
 370
25
  62
7
 100
AcDbMText
  10
 3264.9999958277
  20
 3670.0000000009
  30
0.0
  40
 66.000000000000
  41
0.0
  71
5
  72
1
   1
\T1.000000;１５
   7
GMM003
  44
 0.79999984000003
   0
LEADER
   5
25D
 100
AcDbEntity
   8
LEVEL001
 370
13
   6
CONTINUOUS
  62
1
 100
AcDbLeader
   3
GMM002
  73
3
  74
1
  75
0
  40
 66.000000000000
  41
0.0
  76
2
  10
 2708.0773787504
  20
 3603.9781142904
  30
0.0
  10
 3055.8615064163
  20
 3659.0515565993
  30
0.0
  77
1
   0
MTEXT
   5
25E
 100
AcDbEntity
   8
LEVEL001
 370
13
  62
1
 100
AcDbMText
  10
 1448.8125000002
  20
 3538.7281142896
  30
0.0
  40
 80.000000000000
  41
0.0
  71
4
  72
1
   1
{\T1.000000;注}\P{\T1.000000;意}
   7
GMM005
  44
 0.79999984000003
   0
LINE
   5
25F
 100
AcDbEntity
   8
LEVEL001
 370
9
 100
AcDbLine
   6
DASHDOT
  62
6
  10
 2650.0000000000
  20
 3603.9781142905
  30
0.0
  11
 2650.0000000000
  21
 870.00000000087
  31
0.0
   0
LINE
   5
260
 100
AcDbEntity
   8
LEVEL001
 370
9
 100
AcDbLine
   6
DASHDOT
  62
6
  10
 1440.0003915029
  20
 1470.0000000009
  30
0.0
  11
 1560.0003915029
  21
 1470.0000000009
  31
0.0
   0
CIRCLE
   5
261
 100
AcDbEntity
   8
LEVEL001
 370
25
 100
AcDbCircle
   6
CONTINUOUS
  62
7
  10
 1500.0003757865
  20
 1370.0000000009
  30
0.0
  40
 7.5000000000000
   0
LINE
   5
262
 100
AcDbEntity
   8
LEVEL001
 370
9
 100
AcDbLine
   6
DASHDOT
  62
6
  10
 1470.0003757865
  20
 1370.0000000009
  30
0.0
  11
 1530.0003757865
  21
 1370.0000000009
  31
0.0
   0
LWPOLYLINE
   5
263
 100
AcDbEntity
   8
LEVEL001
 370
25
   6
CONTINUOUS
  62
7
 100
AcDbPolyline
  90
4
  70
0
  10
 2611.8500000000
  20
 1377.5000000009
  10
 2539.9999819144
  20
 1377.5000000009
  10
 2539.9999819144
  20
 1362.5000000009
  10
 2611.8500000000
  20
 1362.5000000009
   0
LWPOLYLINE
   5
264
 100
AcDbEntity
   8
LEVEL001
 370
25
   6
CONTINUOUS
  62
7
 100
AcDbPolyline
  90
4
  70
0
  10
 2688.1500000000
  20
 1377.5000000009
  10
 2759.9999819144
  20
 1377.5000000009
  10
 2759.9999819144
  20
 1362.5000000009
  10
 2688.1500000000
  20
 1362.5000000009
   0
CIRCLE
   5
265
 100
AcDbEntity
   8
LEVEL001
 370
13
 100
AcDbCircle
   6
CONTINUOUS
  62
1
  10
 2275.0000000000
  20
 1270.0000000009
  30
0.0
  40
 69.999997913838
   0
MTEXT
   5
267
 100
AcDbEntity
   8
LEVEL001
 370
25
  62
7
 100
AcDbMText
  10
 2275.0000000000
  20
 1270.0000000009
  30
0.0
  40
 66.000000000000
  41
0.0
  71
5
  72
1
   1
\T1.000000;１１
   7
GMM003
  44
 0.79999984000003
   0
LEADER
   5
268
 100
AcDbEntity
   8
LEVEL001
 370
13
   6
CONTINUOUS
  62
1
 100
AcDbLeader
   3
GMM002
  73
3
  74
1
  75
0
  40
 66.000000000000
  41
0.0
  76
2
  10
 2539.9999819144
  20
 1362.5000000009
  30
0.0
  10
 2341.0894996777
  20
 1293.0689778778
  30
0.0
  77
1
   0
CIRCLE
   5
269
 100
AcDbEntity
   8
LEVEL001
 370
25
 100
AcDbCircle
   6
CONTINUOUS
  62
7
  10
 2650.0000000000
  20
 1470.0000000009
  30
0.0
  40
 7.5000000000000
   0
LINE
   5
26A
 100
AcDbEntity
   8
LEVEL001
 370
9
 100
AcDbLine
   6
DASHDOT
  62
6
  10
 2620.0000000000
  20
 1470.0000000009
  30
0.0
  11
 2680.0000000000
  21
 1470.0000000009
  31
0.0
   0
LINE
   5
26B
 100
AcDbEntity
   8
LEVEL001
 370
9
 100
AcDbLine
   6
DASHDOT
  62
6
  10
 2590.0000000000
  20
 1370.0000000009
  30
0.0
  11
 2710.0000000000
  21
 1370.0000000009
  31
0.0
   0
LINE
   5
26C
 100
AcDbEntity
   8
LEVEL001
 370
13
 100
AcDbLine
   6
DOT
  62
1
  10
 2688.1500000000
  20
 1362.5000000009
  30
0.0
  11
 2611.8500000000
  21
 1362.5000000009
  31
0.0
   0
LINE
   5
26D
 100
AcDbEntity
   8
LEVEL001
 370
13
 100
AcDbLine
   6
DOT
  62
1
  10
 2611.8500000000
  20
 1377.5000000009
  30
0.0
  11
 2688.1500000000
  21
 1377.5000000009
  31
0.0
   0
LINE
   5
26E
 100
AcDbEntity
   8
LEVEL001
 370
9
 100
AcDbLine
   6
CONTINUOUS
  62
5
  10
 1750.0004095886
  20
 1670.0000000009
  30
0.0
  11
 1538.1500000000
  21
 1458.1495904123
  31
0.0
   0
LINE
   5
26F
 100
AcDbEntity
   8
LEVEL001
 370
9
 100
AcDbLine
   6
CONTINUOUS
  62
5
  10
 1538.1500000000
  20
 1422.7942513529
  30
0.0
  11
 1750.0004095886
  21
 1634.6446609415
  31
0.0
   0
LINE
   5
270
 100
AcDbEntity
   8
LEVEL001
 370
9
 100
AcDbLine
   6
CONTINUOUS
  62
5
  10
 1750.0004095886
  20
 1599.2893218822
  30
0.0
  11
 1538.1500000000
  21
 1387.4389122936
  31
0.0
   0
LINE
   5
271
 100
AcDbEntity
   8
LEVEL001
 370
9
 100
AcDbLine
   6
CONTINUOUS
  62
5
  10
 1250.0004095886
  20
 1134.6446609415
  30
0.0
  11
 1461.8500000000
  21
 1346.4942513529
  31
0.0
   0
LINE
   5
272
 100
AcDbEntity
   8
LEVEL001
 370
9
 100
AcDbLine
   6
CONTINUOUS
  62
5
  10
 1461.8500000000
  20
 1311.1389122936
  30
0.0
  11
 1250.0004095886
  21
 1099.2893218822
  31
0.0
   0
LINE
   5
273
 100
AcDbEntity
   8
LEVEL001
 370
9
 100
AcDbLine
   6
CONTINUOUS
  62
5
  10
 1461.8500000000
  20
 1381.8495904123
  30
0.0
  11
 1250.0004095886
  21
 1170.0000000009
  31
0.0
   0
LINE
   5
274
 100
AcDbEntity
   8
LEVEL001
 370
9
 100
AcDbLine
   6
CONTINUOUS
  62
5
  10
 2611.8500000000
  20
 1381.8495904123
  30
0.0
  11
 2400.0004095886
  21
 1170.0000000009
  31
0.0
   0
LINE
   5
275
 100
AcDbEntity
   8
LEVEL001
 370
9
 100
AcDbLine
   6
CONTINUOUS
  62
5
  10
 2611.8500000000
  20
 1311.1389122936
  30
0.0
  11
 2400.0004095886
  21
 1099.2893218822
  31
0.0
   0
LINE
   5
276
 100
AcDbEntity
   8
LEVEL001
 370
9
 100
AcDbLine
   6
CONTINUOUS
  62
5
  10
 2400.0004095886
  20
 1134.6446609415
  30
0.0
  11
 2611.8500000000
  21
 1346.4942513529
  31
0.0
   0
LINE
   5
277
 100
AcDbEntity
   8
LEVEL001
 370
9
 100
AcDbLine
   6
CONTINUOUS
  62
5
  10
 2900.0004095886
  20
 1670.0000000009
  30
0.0
  11
 2688.1500000000
  21
 1458.1495904123
  31
0.0
   0
LINE
   5
278
 100
AcDbEntity
   8
LEVEL001
 370
9
 100
AcDbLine
   6
CONTINUOUS
  62
5
  10
 2688.1500000000
  20
 1422.7942513529
  30
0.0
  11
 2900.0004095886
  21
 1634.6446609415
  31
0.0
   0
LINE
   5
279
 100
AcDbEntity
   8
LEVEL001
 370
9
 100
AcDbLine
   6
CONTINUOUS
  62
5
  10
 2900.0004095886
  20
 1599.2893218822
  30
0.0
  11
 2688.1500000000
  21
 1387.4389122936
  31
0.0
   0
MTEXT
   5
27B
 100
AcDbEntity
   8
LEVEL001
 370
13
  62
1
 100
AcDbMText
  10
 1500.0000000000
  20
 5520.0000000000
  30
0.0
  40
 80.000000000000
  41
0.0
  71
5
  72
1
   1
\T1.000000;正　面　図
   7
GMM006
  44
 0.79999984000003
   0
MTEXT
   5
27D
 100
AcDbEntity
   8
LEVEL001
 370
13
  62
1
 100
AcDbMText
  10
 3000.0000000000
  20
 5520.0000000000
  30
0.0
  40
 80.000000000000
  41
0.0
  71
5
  72
1
   1
\T1.000000;側　面　図
   7
GMM006
  44
 0.79999984000003
   0
MTEXT
   5
27F
 100
AcDbEntity
   8
LEVEL001
 370
13
  62
1
 100
AcDbMText
  10
 4250.0000000000
  20
 5520.0000000000
  30
0.0
  40
 80.000000000000
  41
0.0
  71
5
  72
1
   1
\T1.000000;背　面　図
   7
GMM006
  44
 0.79999984000003
   0
MTEXT
   5
281
 100
AcDbEntity
   8
LEVEL001
 370
13
  62
1
 100
AcDbMText
  10
 5960.9090909091
  20
 1153.5736076959
  30
0.0
  40
 80.000000000000
  41
0.0
  71
7
  72
1
   1
\T1.000000;注意板
   7
GMM002
  44
 0.79999984000003
   0
MTEXT
   5
283
 100
AcDbEntity
   8
LEVEL001
 370
13
  62
1
 100
AcDbMText
  10
 6209.2718401257
  20
 718.01038445736
  30
0.0
  40
 66.000000000000
  41
0.0
  71
5
  72
1
   1
\T1.000000;ＭＡ０６０ＳＵＰ
   7
GMM003
  44
 0.79999984000003
   0
MTEXT
   5
284
 100
AcDbEntity
   8
LEVEL001
 370
13
  62
1
 100
AcDbMText
  10
 5733.8354978355
  20
 813.78497023809
  30
0.0
  40
 37.142857142857
  41
0.0
  71
7
  72
1
   1
\T1.269231;図面番号
   7
GMM007
  44
 0.79999984000003
   0
MTEXT
   5
286
 100
AcDbEntity
   8
LEVEL001
 370
13
  62
1
 100
AcDbMText
  10
 7610.9090909091
  20
 1153.5736076959
  30
0.0
  40
 80.000000000000
  41
0.0
  71
7
  72
1
   1
\T1.000000;―
   7
GMM002
  44
 0.79999984000003
   0
MTEXT
   5
288
 100
AcDbEntity
   8
LEVEL001
 370
13
  62
1
 100
AcDbMText
  10
 7010.9090909091
  20
 1153.5736076959
  30
0.0
  40
 80.000000000000
  41
0.0
  71
7
  72
1
   1
\T1.000000;―
   7
GMM002
  44
 0.79999984000003
   0
MTEXT
   5
28A
 100
AcDbEntity
   8
LEVEL001
 370
13
  62
1
 100
AcDbMText
  10
 7395.1324516992
  20
 3132.1545397593
  30
0.0
  40
 66.000000000000
  41
0.0
  71
7
  72
1
   1
\T1.000000;Ｓ＝１／２０，１／１０，１／６
   7
GMM003
  44
 0.79999984000003
   0
MTEXT
   5
28C
 100
AcDbEntity
   8
LEVEL001
 370
13
  62
1
 100
AcDbMText
  10
 7610.9090909091
  20
 1803.5736076959
  30
0.0
  40
 80.000000000000
  41
0.0
  71
7
  72
1
   1
\T1.000000;溶融亜鉛メッキ
   7
GMM002
  44
 0.79999984000003
   0
MTEXT
   5
28E
 100
AcDbEntity
   8
LEVEL001
 370
13
  62
1
 100
AcDbMText
  10
 7610.9090909091
  20
 1933.5736076959
  30
0.0
  40
 80.000000000000
  41
0.0
  71
7
  72
1
   1
\T1.000000;溶融亜鉛メッキ
   7
GMM002
  44
 0.79999984000003
   0
MTEXT
   5
290
 100
AcDbEntity
   8
LEVEL001
 370
13
  62
1
 100
AcDbMText
  10
 7610.9090909091
  20
 2063.5736076959
  30
0.0
  40
 80.000000000000
  41
0.0
  71
7
  72
1
   1
\T1.000000;溶融亜鉛メッキ
   7
GMM002
  44
 0.79999984000003
   0
MTEXT
   5
292
 100
AcDbEntity
   8
LEVEL001
 370
13
  62
1
 100
AcDbMText
  10
 7610.9090909091
  20
 2193.5736076959
  30
0.0
  40
 80.000000000000
  41
0.0
  71
7
  72
1
   1
\T1.000000;溶融亜鉛メッキ
   7
GMM002
  44
 0.79999984000003
   0
MTEXT
   5
294
 100
AcDbEntity
   8
LEVEL001
 370
13
  62
1
 100
AcDbMText
  10
 7610.9090909091
  20
 2713.5736076959
  30
0.0
  40
 80.000000000000
  41
0.0
  71
7
  72
1
   1
\T1.000000;ＳＭＣ成型
   7
GMM002
  44
 0.79999984000003
   0
MTEXT
   5
296
 100
AcDbEntity
   8
LEVEL001
 370
13
  62
1
 100
AcDbMText
  10
 7610.9090909091
  20
 2843.5736076959
  30
0.0
  40
 80.000000000000
  41
0.0
  71
7
  72
1
   1
\W0.450000;\T1.000000;t=3.0mm･\W0.900000;\T1.000000;真空蒸着
   7
GMM002
  44
 0.79999984000003
   0
MTEXT
   5
298
 100
AcDbEntity
   8
LEVEL001
 370
13
  62
1
 100
AcDbMText
  10
 7610.9090909091
  20
 1673.5736076959
  30
0.0
  40
 80.000000000000
  41
0.0
  71
7
  72
1
   1
\T1.000000;静電粉体塗装
   7
GMM002
  44
 0.79999984000003
   0
LINE
   5
299
 100
AcDbEntity
   8
LEVEL001
 370
9
 100
AcDbLine
   6
CONTINUOUS
  62
6
  10
 5710.9090909091
  20
 1780.0000000000
  30
0.0
  11
 8226.6668701172
  21
 1780.0000000000
  31
0.0
   0
LINE
   5
29A
 100
AcDbEntity
   8
LEVEL001
 370
9
 100
AcDbLine
   6
CONTINUOUS
  62
6
  10
 5710.9090909091
  20
 1910.0000000000
  30
0.0
  11
 8226.6668701172
  21
 1910.0000000000
  31
0.0
   0
LINE
   5
29B
 100
AcDbEntity
   8
LEVEL001
 370
9
 100
AcDbLine
   6
CONTINUOUS
  62
6
  10
 5710.9090909091
  20
 2040.0000000000
  30
0.0
  11
 8226.6668701172
  21
 2040.0000000000
  31
0.0
   0
LINE
   5
29C
 100
AcDbEntity
   8
LEVEL001
 370
9
 100
AcDbLine
   6
CONTINUOUS
  62
6
  10
 5710.9090909091
  20
 2170.0000000000
  30
0.0
  11
 8226.6668701172
  21
 2170.0000000000
  31
0.0
   0
LINE
   5
29D
 100
AcDbEntity
   8
LEVEL001
 370
9
 100
AcDbLine
   6
CONTINUOUS
  62
6
  10
 5710.9090909091
  20
 2300.0000000000
  30
0.0
  11
 8226.6668701172
  21
 2300.0000000000
  31
0.0
   0
LINE
   5
29E
 100
AcDbEntity
   8
LEVEL001
 370
9
 100
AcDbLine
   6
CONTINUOUS
  62
6
  10
 5710.9090909091
  20
 2430.0000000000
  30
0.0
  11
 8226.6668701172
  21
 2430.0000000000
  31
0.0
   0
LINE
   5
29F
 100
AcDbEntity
   8
LEVEL001
 370
9
 100
AcDbLine
   6
CONTINUOUS
  62
6
  10
 5710.9090909091
  20
 2560.0000000000
  30
0.0
  11
 8226.6668701172
  21
 2560.0000000000
  31
0.0
   0
LINE
   5
2A0
 100
AcDbEntity
   8
LEVEL001
 370
9
 100
AcDbLine
   6
CONTINUOUS
  62
6
  10
 5710.9090909091
  20
 2690.0000000000
  30
0.0
  11
 8226.6668701172
  21
 2690.0000000000
  31
0.0
   0
LINE
   5
2A1
 100
AcDbEntity
   8
LEVEL001
 370
9
 100
AcDbLine
   6
CONTINUOUS
  62
6
  10
 5710.9090909091
  20
 2820.0000000000
  30
0.0
  11
 8226.6668701172
  21
 2820.0000000000
  31
0.0
   0
LINE
   5
2A2
 100
AcDbEntity
   8
LEVEL001
 370
9
 100
AcDbLine
   6
CONTINUOUS
  62
6
  10
 5710.9090909091
  20
 3090.0000000000
  30
0.0
  11
 8226.6668701172
  21
 3090.0000000000
  31
0.0
   0
LINE
   5
2A3
 100
AcDbEntity
   8
LEVEL001
 370
9
 100
AcDbLine
   6
CONTINUOUS
  62
6
  10
 5710.9090909091
  20
 3390.0000000000
  30
0.0
  11
 8226.6668701172
  21
 3390.0000000000
  31
0.0
   0
MTEXT
   5
2A5
 100
AcDbEntity
   8
LEVEL001
 370
13
  62
1
 100
AcDbMText
  10
 5881.8880646631
  20
 1673.5736076959
  30
0.0
  40
 80.000000000000
  41
0.0
  71
9
  72
1
   1
\T1.000000;１０
   7
GMM001
  44
 0.79999984000003
   0
MTEXT
   5
2A7
 100
AcDbEntity
   8
LEVEL001
 370
13
  62
1
 100
AcDbMText
  10
 5881.8880646631
  20
 1803.5736076959
  30
0.0
  40
 80.000000000000
  41
0.0
  71
9
  72
1
   1
\T1.000000;９
   7
GMM001
  44
 0.79999984000003
   0
MTEXT
   5
2A9
 100
AcDbEntity
   8
LEVEL001
 370
13
  62
1
 100
AcDbMText
  10
 5881.8880646631
  20
 1933.5736076959
  30
0.0
  40
 80.000000000000
  41
0.0
  71
9
  72
1
   1
\T1.000000;８
   7
GMM001
  44
 0.79999984000003
   0
MTEXT
   5
2AB
 100
AcDbEntity
   8
LEVEL001
 370
13
  62
1
 100
AcDbMText
  10
 5881.8880646631
  20
 2063.5736076959
  30
0.0
  40
 80.000000000000
  41
0.0
  71
9
  72
1
   1
\T1.000000;７
   7
GMM001
  44
 0.79999984000003
   0
MTEXT
   5
2AD
 100
AcDbEntity
   8
LEVEL001
 370
13
  62
1
 100
AcDbMText
  10
 5881.8880646631
  20
 2193.5736076959
  30
0.0
  40
 80.000000000000
  41
0.0
  71
9
  72
1
   1
\T1.000000;６
   7
GMM001
  44
 0.79999984000003
   0
MTEXT
   5
2AF
 100
AcDbEntity
   8
LEVEL001
 370
13
  62
1
 100
AcDbMText
  10
 5881.8880646631
  20
 2323.5736076959
  30
0.0
  40
 80.000000000000
  41
0.0
  71
9
  72
1
   1
\T1.000000;５
   7
GMM001
  44
 0.79999984000003
   0
MTEXT
   5
2B1
 100
AcDbEntity
   8
LEVEL001
 370
13
  62
1
 100
AcDbMText
  10
 5881.8880646631
  20
 2453.5736076959
  30
0.0
  40
 80.000000000000
  41
0.0
  71
9
  72
1
   1
\T1.000000;４
   7
GMM001
  44
 0.79999984000003
   0
MTEXT
   5
2B3
 100
AcDbEntity
   8
LEVEL001
 370
13
  62
1
 100
AcDbMText
  10
 5881.8880646631
  20
 2583.5736076959
  30
0.0
  40
 80.000000000000
  41
0.0
  71
9
  72
1
   1
\T1.000000;３
   7
GMM001
  44
 0.79999984000003
   0
MTEXT
   5
2B5
 100
AcDbEntity
   8
LEVEL001
 370
13
  62
1
 100
AcDbMText
  10
 6931.8880646631
  20
 2583.5736076959
  30
0.0
  40
 80.000000000000
  41
0.0
  71
9
  72
1
   1
\T1.000000;１
   7
GMM002
  44
 0.79999984000003
   0
MTEXT
   5
2B7
 100
AcDbEntity
   8
LEVEL001
 370
13
  62
1
 100
AcDbMText
  10
 5960.9090909091
  20
 2583.5736076959
  30
0.0
  40
 80.000000000000
  41
0.0
  71
7
  72
1
   1
\T1.000000;フード
   7
GMM002
  44
 0.79999984000003
   0
MTEXT
   5
2B9
 100
AcDbEntity
   8
LEVEL001
 370
13
  62
1
 100
AcDbMText
  10
 5881.8880646631
  20
 2713.5736076959
  30
0.0
  40
 80.000000000000
  41
0.0
  71
9
  72
1
   1
\T1.000000;２
   7
GMM001
  44
 0.79999984000003
   0
MTEXT
   5
2BB
 100
AcDbEntity
   8
LEVEL001
 370
13
  62
1
 100
AcDbMText
  10
 6931.8880646631
  20
 2713.5736076959
  30
0.0
  40
 80.000000000000
  41
0.0
  71
9
  72
1
   1
\T1.000000;１
   7
GMM002
  44
 0.79999984000003
   0
MTEXT
   5
2BD
 100
AcDbEntity
   8
LEVEL001
 370
13
  62
1
 100
AcDbMText
  10
 5960.9090909091
  20
 2713.5736076959
  30
0.0
  40
 80.000000000000
  41
0.0
  71
7
  72
1
   1
\T1.000000;バックプレート
   7
GMM002
  44
 0.79999984000003
   0
MTEXT
   5
2BF
 100
AcDbEntity
   8
LEVEL001
 370
13
  62
1
 100
AcDbMText
  10
 5881.8880646631
  20
 2843.5736076959
  30
0.0
  40
 80.000000000000
  41
0.0
  71
9
  72
1
   1
\T1.000000;１
   7
GMM001
  44
 0.79999984000003
   0
MTEXT
   5
2C1
 100
AcDbEntity
   8
LEVEL001
 370
13
  62
1
 100
AcDbMText
  10
 6931.8880646631
  20
 2843.5736076959
  30
0.0
  40
 80.000000000000
  41
0.0
  71
9
  72
1
   1
\T1.000000;１
   7
GMM002
  44
 0.79999984000003
   0
MTEXT
   5
2C3
 100
AcDbEntity
   8
LEVEL001
 370
13
  62
1
 100
AcDbMText
  10
 5960.9090909091
  20
 2843.5736076959
  30
0.0
  40
 80.000000000000
  41
0.0
  71
7
  72
1
   1
\T1.000000;鏡面　Ｒ＝２２００
   7
GMM002
  44
 0.79999984000003
   0
MTEXT
   5
2C5
 100
AcDbEntity
   8
LEVEL001
 370
13
  62
1
 100
AcDbMText
  10
 6860.9090909091
  20
 3020.0000000000
  30
0.0
  40
 80.000000000000
  41
0.0
  71
5
  72
1
   1
\T1.000000;個数
   7
GMM002
  44
 0.79999984000003
   0
MTEXT
   5
2C7
 100
AcDbEntity
   8
LEVEL001
 370
13
  62
1
 100
AcDbMText
  10
 6335.9090909091
  20
 3020.0000000000
  30
0.0
  40
 80.000000000000
  41
0.0
  71
5
  72
1
   1
\T1.000000;名　　称
   7
GMM002
  44
 0.79999984000003
   0
MTEXT
   5
2C9
 100
AcDbEntity
   8
LEVEL001
 370
13
  62
1
 100
AcDbMText
  10
 5876.3369483847
  20
 3132.1545397593
  30
0.0
  40
 80.000000000000
  41
0.0
  71
7
  72
1
   1
%%c\T1.000000;６００（シングル）
   7
GMM006
  44
 0.79999984000003
   0
MTEXT
   5
2CB
 100
AcDbEntity
   8
LEVEL001
 370
13
  62
1
 100
AcDbMText
  10
 5876.3369483847
  20
 3269.5068305878
  30
0.0
  40
 80.000000000000
  41
0.0
  71
7
  72
1
   1
\T1.000000;アクリルミラー
   7
GMM006
  44
 0.79999984000003
   0
MTEXT
   5
2CD
 100
AcDbEntity
   8
LEVEL001
 370
13
  62
1
 100
AcDbMText
  10
 7010.9090909091
  20
 2843.5736076959
  30
0.0
  40
 80.000000000000
  41
0.0
  71
7
  72
1
   1
\T1.000000;ＰＭＭＡ
   7
GMM002
  44
 0.79999984000003
   0
MTEXT
   5
2CF
 100
AcDbEntity
   8
LEVEL001
 370
13
  62
1
 100
AcDbMText
  10
 7010.9090909091
  20
 2713.5736076959
  30
0.0
  40
 80.000000000000
  41
0.0
  71
7
  72
1
   1
\T1.000000;ＦＲＰ
   7
GMM002
  44
 0.79999984000003
   0
MTEXT
   5
2D1
 100
AcDbEntity
   8
LEVEL001
 370
13
  62
1
 100
AcDbMText
  10
 7010.9090909091
  20
 2583.5736076959
  30
0.0
  40
 80.000000000000
  41
0.0
  71
7
  72
1
   1
\T1.000000;ＰＣ
   7
GMM002
  44
 0.79999984000003
   0
MTEXT
   5
2D3
 100
AcDbEntity
   8
LEVEL001
 370
13
  62
1
 100
AcDbMText
  10
 5960.9090909091
  20
 1673.5736076959
  30
0.0
  40
 80.000000000000
  41
0.0
  71
7
  72
1
   1
\T1.000000;支柱
   7
GMM002
  44
 0.79999984000003
   0
MTEXT
   5
2D5
 100
AcDbEntity
   8
LEVEL001
 370
13
  62
1
 100
AcDbMText
  10
 6931.8880646631
  20
 1673.5736076959
  30
0.0
  40
 80.000000000000
  41
0.0
  71
9
  72
1
   1
\T1.000000;１
   7
GMM002
  44
 0.79999984000003
   0
MTEXT
   5
2D7
 100
AcDbEntity
   8
LEVEL001
 370
13
  62
1
 100
AcDbMText
  10
 7010.9090909091
  20
 1673.5736076959
  30
0.0
  40
 80.000000000000
  41
0.0
  71
7
  72
1
   1
\T1.000000;ＳＴＫ４００
   7
GMM002
  44
 0.79999984000003
   0
MTEXT
   5
2D9
 100
AcDbEntity
   8
LEVEL001
 370
13
  62
1
 100
AcDbMText
  10
 7010.9090909091
  20
 1803.5736076959
  30
0.0
  40
 80.000000000000
  41
0.0
  71
7
  72
1
   1
\T1.000000;ＳＳ４００
   7
GMM002
  44
 0.79999984000003
   0
MTEXT
   5
2DB
 100
AcDbEntity
   8
LEVEL001
 370
13
  62
1
 100
AcDbMText
  10
 5960.9090909091
  20
 1803.5736076959
  30
0.0
  40
 80.000000000000
  41
0.0
  71
7
  72
1
   1
\T1.000000;金具締付ボルトナット
   7
GMM002
  44
 0.79999984000003
   0
MTEXT
   5
2DD
 100
AcDbEntity
   8
LEVEL001
 370
13
  62
1
 100
AcDbMText
  10
 7010.9090909091
  20
 1933.5736076959
  30
0.0
  40
 80.000000000000
  41
0.0
  71
7
  72
1
   1
\T1.000000;ＳＳ４００
   7
GMM002
  44
 0.79999984000003
   0
MTEXT
   5
2DF
 100
AcDbEntity
   8
LEVEL001
 370
13
  62
1
 100
AcDbMText
  10
 5960.9090909091
  20
 1933.5736076959
  30
0.0
  40
 80.000000000000
  41
0.0
  71
7
  72
1
   1
\T1.000000;裏板金具取付ボルト
   7
GMM002
  44
 0.79999984000003
   0
MTEXT
   5
2E1
 100
AcDbEntity
   8
LEVEL001
 370
13
  62
1
 100
AcDbMText
  10
 6931.8880646631
  20
 1933.5736076959
  30
0.0
  40
 80.000000000000
  41
0.0
  71
9
  72
1
   1
\T1.000000;４
   7
GMM002
  44
 0.79999984000003
   0
MTEXT
   5
2E3
 100
AcDbEntity
   8
LEVEL001
 370
13
  62
1
 100
AcDbMText
  10
 7010.9090909091
  20
 2063.5736076959
  30
0.0
  40
 80.000000000000
  41
0.0
  71
7
  72
1
   1
\T1.000000;ＳＳ４００
   7
GMM002
  44
 0.79999984000003
   0
MTEXT
   5
2E5
 100
AcDbEntity
   8
LEVEL001
 370
13
  62
1
 100
AcDbMText
  10
 5960.9090909091
  20
 2063.5736076959
  30
0.0
  40
 80.000000000000
  41
0.0
  71
7
  72
1
   1
\T1.000000;支柱取付金具
   7
GMM002
  44
 0.79999984000003
   0
MTEXT
   5
2E7
 100
AcDbEntity
   8
LEVEL001
 370
13
  62
1
 100
AcDbMText
  10
 5960.9090909091
  20
 2193.5736076959
  30
0.0
  40
 80.000000000000
  41
0.0
  71
7
  72
1
   1
\T1.000000;裏板取付金具
   7
GMM002
  44
 0.79999984000003
   0
MTEXT
   5
2E9
 100
AcDbEntity
   8
LEVEL001
 370
13
  62
1
 100
AcDbMText
  10
 7010.9090909091
  20
 2193.5736076959
  30
0.0
  40
 80.000000000000
  41
0.0
  71
7
  72
1
   1
\T1.000000;ＳＳ４００
   7
GMM002
  44
 0.79999984000003
   0
MTEXT
   5
2EB
 100
AcDbEntity
   8
LEVEL001
 370
13
  62
1
 100
AcDbMText
  10
 6931.8880646631
  20
 1803.5736076959
  30
0.0
  40
 80.000000000000
  41
0.0
  71
9
  72
1
   1
\T1.000000;４
   7
GMM002
  44
 0.79999984000003
   0
MTEXT
   5
2ED
 100
AcDbEntity
   8
LEVEL001
 370
13
  62
1
 100
AcDbMText
  10
 6931.8880646631
  20
 2453.5736076959
  30
0.0
  40
 80.000000000000
  41
0.0
  71
9
  72
1
   1
\T1.000000;１
   7
GMM002
  44
 0.79999984000003
   0
MTEXT
   5
2EF
 100
AcDbEntity
   8
LEVEL001
 370
13
  62
1
 100
AcDbMText
  10
 5960.9090909091
  20
 2453.5736076959
  30
0.0
  40
 80.000000000000
  41
0.0
  71
7
  72
1
   1
\T1.000000;取付枠
   7
GMM002
  44
 0.79999984000003
   0
MTEXT
   5
2F1
 100
AcDbEntity
   8
LEVEL001
 370
13
  62
1
 100
AcDbMText
  10
 7010.9090909091
  20
 2453.5736076959
  30
0.0
  40
 80.000000000000
  41
0.0
  71
7
  72
1
   1
\T1.000000;アルミニウム
   7
GMM002
  44
 0.79999984000003
   0
MTEXT
   5
2F3
 100
AcDbEntity
   8
LEVEL001
 370
13
  62
1
 100
AcDbMText
  10
 5960.9090909091
  20
 2323.5736076959
  30
0.0
  40
 80.000000000000
  41
0.0
  71
7
  72
1
   1
\T1.000000;取付枠付リベット
   7
GMM002
  44
 0.79999984000003
   0
MTEXT
   5
2F5
 100
AcDbEntity
   8
LEVEL001
 370
13
  62
1
 100
AcDbMText
  10
 6931.8880646631
  20
 2323.5736076959
  30
0.0
  40
 80.000000000000
  41
0.0
  71
9
  72
1
   1
\T1.000000;７
   7
GMM002
  44
 0.79999984000003
   0
MTEXT
   5
2F7
 100
AcDbEntity
   8
LEVEL001
 370
13
  62
1
 100
AcDbMText
  10
 7010.9090909091
  20
 2323.5736076959
  30
0.0
  40
 80.000000000000
  41
0.0
  71
7
  72
1
   1
\T1.000000;アルミニウム
   7
GMM002
  44
 0.79999984000003
   0
MTEXT
   5
2F9
 100
AcDbEntity
   8
LEVEL001
 370
13
  62
1
 100
AcDbMText
  10
 6931.8880646631
  20
 2193.5736076959
  30
0.0
  40
 80.000000000000
  41
0.0
  71
9
  72
1
   1
\T1.000000;１
   7
GMM002
  44
 0.79999984000003
   0
MTEXT
   5
2FB
 100
AcDbEntity
   8
LEVEL001
 370
13
  62
1
 100
AcDbMText
  10
 6931.8880646631
  20
 2063.5736076959
  30
0.0
  40
 80.000000000000
  41
0.0
  71
9
  72
1
   1
\T1.000000;１
   7
GMM002
  44
 0.79999984000003
   0
LINE
   5
2FC
 100
AcDbEntity
   8
LEVEL001
 370
9
 100
AcDbLine
   6
CONTINUOUS
  62
6
  10
 5710.9090909091
  20
 2950.0000000000
  30
0.0
  11
 8226.6668701172
  21
 2950.0000000000
  31
0.0
   0
MTEXT
   5
2FE
 100
AcDbEntity
   8
LEVEL001
 370
13
  62
1
 100
AcDbMText
  10
 7260.9090909091
  20
 3020.0000000000
  30
0.0
  40
 80.000000000000
  41
0.0
  71
5
  72
1
   1
\T1.000000;材　　質
   7
GMM002
  44
 0.79999984000003
   0
MTEXT
   5
300
 100
AcDbEntity
   8
LEVEL001
 370
13
  62
1
 100
AcDbMText
  10
 7893.7879805131
  20
 3020.0000000000
  30
0.0
  40
 80.000000000000
  41
0.0
  71
5
  72
1
   1
\T1.000000;規格仕様
   7
GMM002
  44
 0.79999984000003
   0
MTEXT
   5
302
 100
AcDbEntity
   8
LEVEL001
 370
13
  62
1
 100
AcDbMText
  10
 5767.3153235653
  20
 3634.3113553114
  30
0.0
  40
 80.000000000000
  41
0.0
  71
4
  72
1
   1
{\T1.000000;※構成部材は改良のため、変更する場合があります。}\P{\T1.000000;※本図は道路反射鏡ハンドブックに基づいています。}
   7
GMM002
  44
 0.94999981000004
   0
LINE
   5
303
 100
AcDbEntity
   8
LEVEL001
 370
9
 100
AcDbLine
   6
CONTINUOUS
  62
6
  10
 5910.9090909091
  20
 3090.0000000000
  30
0.0
  11
 5910.9090909091
  21
 870.00000000000
  31
0.0
   0
LINE
   5
304
 100
AcDbEntity
   8
LEVEL001
 370
9
 100
AcDbLine
   6
CONTINUOUS
  62
6
  10
 6760.9090909091
  20
 3090.0000000000
  30
0.0
  11
 6760.9090909091
  21
 870.00000000000
  31
0.0
   0
LINE
   5
305
 100
AcDbEntity
   8
LEVEL001
 370
9
 100
AcDbLine
   6
CONTINUOUS
  62
6
  10
 6960.9090909091
  20
 3090.0000000000
  30
0.0
  11
 6960.9090909091
  21
 870.00000000000
  31
0.0
   0
LINE
   5
306
 100
AcDbEntity
   8
LEVEL001
 370
9
 100
AcDbLine
   6
CONTINUOUS
  62
6
  10
 7560.9090909091
  20
 3090.0000000000
  30
0.0
  11
 7560.9090909091
  21
 870.00000000000
  31
0.0
   0
LINE
   5
307
 100
AcDbEntity
   8
LEVEL001
 370
9
 100
AcDbLine
   6
CONTINUOUS
  62
6
  10
 6760.9090909091
  20
 1650.0000000000
  30
0.0
  11
 8226.6668701172
  21
 1650.0000000000
  31
0.0
   0
MTEXT
   5
309
 100
AcDbEntity
   8
LEVEL001
 370
13
  62
1
 100
AcDbMText
  10
 6931.8880646631
  20
 1543.5736076959
  30
0.0
  40
 80.000000000000
  41
0.0
  71
9
  72
1
   1
\T1.000000;１
   7
GMM002
  44
 0.79999984000003
   0
MTEXT
   5
30B
 100
AcDbEntity
   8
LEVEL001
 370
13
  62
1
 100
AcDbMText
  10
 7010.9090909091
  20
 1543.5736076959
  30
0.0
  40
 80.000000000000
  41
0.0
  71
7
  72
1
   1
\T1.000000;ＳＴＫ４００
   7
GMM002
  44
 0.79999984000003
   0
MTEXT
   5
30D
 100
AcDbEntity
   8
LEVEL001
 370
13
  62
1
 100
AcDbMText
  10
 7610.9090909091
  20
 1592.9808312967
  30
0.0
  40
 44.000000000000
  41
0.0
  71
4
  72
1
   1
{\T1.000000;下地亜鉛メッキ}\P{\T1.000000;＋静電粉体塗装}
   7
GMM008
  44
 0.79999984000003
   0
LINE
   5
30E
 100
AcDbEntity
   8
LEVEL001
 370
9
 100
AcDbLine
   6
CONTINUOUS
  62
6
  10
 5710.9090909091
  20
 870.00000000000
  30
0.0
  11
 5710.9090909091
  21
 3390.0000000000
  31
0.0
   0
MTEXT
   5
310
 100
AcDbEntity
   8
LEVEL001
 370
13
  62
1
 100
AcDbMText
  10
 1844.6593279915
  20
 2681.4874530006
  30
0.0
  40
 66.000000000000
  41
0.0
  71
1
  72
1
   1
{\W0.787879;\T1.000000;支柱}\P%%c{\W0.787879;\T1.000000;７６\W0.393939;\T1.000000;.\W0.787879;\T1.000000;３ｘ３\W0.393939;\T1.000000;.\W0.787879;\T1.000000;２ｔ}\P{\W0.787879;\T1.000000;ｘ３６００Ｌ}\P{\W0.787879;\T1.000000;ＳＴＫ４００}
   7
GMM003
  44
 0.79999984000003
   0
MTEXT
   5
312
 100
AcDbEntity
   8
LEVEL001
 370
13
  62
1
 100
AcDbMText
  10
 6931.8880646631
  20
 1023.5736076959
  30
0.0
  40
 80.000000000000
  41
0.0
  71
9
  72
1
   1
\T1.000000;１式
   7
GMM002
  44
 0.79999984000003
   0
MTEXT
   5
314
 100
AcDbEntity
   8
LEVEL001
 370
13
  62
1
 100
AcDbMText
  10
 6931.8880646631
  20
 893.57360769589
  30
0.0
  40
 80.000000000000
  41
0.0
  71
9
  72
1
   1
\T1.000000;１式
   7
GMM002
  44
 0.79999984000003
   0
MTEXT
   5
316
 100
AcDbEntity
   8
LEVEL001
 370
13
  62
1
 100
AcDbMText
  10
 7010.9090909091
  20
 1023.5736076959
  30
0.0
  40
 80.000000000000
  41
0.0
  71
7
  72
1
   1
\T1.000000;―
   7
GMM002
  44
 0.79999984000003
   0
MTEXT
   5
318
 100
AcDbEntity
   8
LEVEL001
 370
13
  62
1
 100
AcDbMText
  10
 7010.9090909091
  20
 893.57360769589
  30
0.0
  40
 80.000000000000
  41
0.0
  71
7
  72
1
   1
\T1.000000;―
   7
GMM002
  44
 0.79999984000003
   0
MTEXT
   5
31A
 100
AcDbEntity
   8
LEVEL001
 370
13
  62
1
 100
AcDbMText
  10
 7610.9090909091
  20
 1023.5736076959
  30
0.0
  40
 80.000000000000
  41
0.0
  71
7
  72
1
   1
\T1.000000;―
   7
GMM002
  44
 0.79999984000003
   0
MTEXT
   5
31C
 100
AcDbEntity
   8
LEVEL001
 370
13
  62
1
 100
AcDbMText
  10
 7610.9090909091
  20
 893.57360769589
  30
0.0
  40
 80.000000000000
  41
0.0
  71
7
  72
1
   1
\T1.000000;―
   7
GMM002
  44
 0.79999984000003
   0
ENDSEC
  0
SECTION
  2
OBJECTS
  0
DICTIONARY
  5
C
100
AcDbDictionary
  3
ACAD_GROUP
350
D
  3
ACAD_MLINESTYLE
350
1B
  3
DWGPROPS
350
1E
  0
DICTIONARY
  5
D
102
{ACAD_REACTORS
330
C
102
}
100
AcDbDictionary
  0
DICTIONARY
  5
1B
102
{ACAD_REACTORS
330
C
102
}
100
AcDbDictionary
  3
STANDARD
350
1C
  0
MLINESTYLE
  5
1C
102
{ACAD_REACTORS
330
1B
102
}
100
AcDbMlineStyle
  2
STANDARD
 70
     0
  3

 62
   256
 51
90.0
 52
90.0
 71
     2
 49
0.5
 62
   256
  6
BYLAYER
 49
-0.5
 62
   256
  6
BYLAYER
   0
XRECORD
   5
1E
 102
{ACAD_REACTORS
 330
C
 102
}
 330
C
 100
AcDbXrecord
 280
1
   1
DWGPROPS COOKIE
   2
ｱｸﾘﾙφ600ｼﾝｸﾞﾙ上曲支柱取付
   3
 
   4
 
   6
 
   7
MA060SUP
   8
 
   9

 300
 = 
 301
 = 
 302
 = 
 303
 = 
 304
 = 
 305
 = 
 306
 = 
 307
 = 
 308
 = 
 309
 = 
  40
0.0
  41
 2451731.5000000
  42
 2460299.5000000
   1

  90
10
   0
ENDSEC
   0
EOF
